0
SECTION
2
HEADER
9
$ACADVER
1
AC1015
9
$DWGCODEPAGE
3
ANSI_1252
9
$HANDSEED
5
237
9
$ANGBASE
50
0
9
$ANGDIR
70
0
9
$ATTMODE
70
1
9
$AUNITS
70
0
9
$AUPREC
70
0
9
$CECOLOR
62
256
9
$CELTSCALE
40
1
9
$CELTYPE
6
ByLayer
9
$CELWEIGHT
370
18
9
$CLAYER
8
0
9
$CMLJUST
70
0
9
$CMLSCALE
40
1
9
$CMLSTYLE
2
Standard
9
$DIMSTYLE
2
Standard
9
$TEXTSIZE
40
0.2
9
$TEXTSTYLE
7
Standard
9
$LUNITS
70
2
9
$LUPREC
70
4
9
$EXTNAMES
290
1
9
$INSUNITS
70
4
9
$LTSCALE
40
1
9
$LWDISPLAY
290
1
9
$PDMODE
70
0
9
$PDSIZE
40
0
9
$PLINEGEN
70
0
0
ENDSEC
0
SECTION
2
CLASSES
0
CLASS
1
RASTERVARIABLES
2
AcDbRasterVariables
3
ISM
90
0
280
0
281
0
0
ENDSEC
0
SECTION
2
TABLES
0
TABLE
2
VPORT
5
22d
100
AcDbSymbolTable
0
VPORT
5
1
100
AcDbSymbolTableRecord
100
AcDbViewportTableRecord
2
*Active
70
0
10
0
20
0
11
1
21
1
12
-1
22
1
13
0
23
0
14
0.5
24
0.5
15
10
25
10
16
0
26
0
36
1
17
0
27
0
37
0
0
ENDTAB
0
TABLE
2
LTYPE
5
22e
100
AcDbSymbolTable
0
LTYPE
5
14
100
AcDbSymbolTableRecord
100
AcDbLinetypeTableRecord
70
0
2
ByBlock
3

72
65
73
0
40
0
0
LTYPE
5
15
100
AcDbSymbolTableRecord
100
AcDbLinetypeTableRecord
70
0
2
ByLayer
3

72
65
73
0
40
0
0
LTYPE
5
16
100
AcDbSymbolTableRecord
100
AcDbLinetypeTableRecord
70
0
2
Continuous
3
Solid line
72
65
73
0
40
0
0
LTYPE
5
6E
100
AcDbSymbolTableRecord
100
AcDbLinetypeTableRecord
70
0
2
CENTER
3
____ _ ____ _ ____ _ ____
72
65
73
4
40
47.5
49
22
74
0
49
-8.5
74
0
49
8.5
74
0
49
-8.5
74
0
0
LTYPE
5
6F
100
AcDbSymbolTableRecord
100
AcDbLinetypeTableRecord
70
0
2
DASHED
3
__ __ __ __ __ __ __ __ __
72
65
73
2
40
25.72
49
12.86
74
0
49
-12.86
74
0
0
ENDTAB
0
TABLE
2
LAYER
5
22f
100
AcDbSymbolTable
0
LAYER
5
10
100
AcDbSymbolTableRecord
100
AcDbLayerTableRecord
2
0
70
0
62
7
6
Continuous
290
1
370
-3
390
0
0
LAYER
5
71
100
AcDbSymbolTableRecord
100
AcDbLayerTableRecord
2
80
70
0
62
-6
6
Continuous
290
1
370
-3
390
0
0
LAYER
5
73
100
AcDbSymbolTableRecord
100
AcDbLayerTableRecord
2
81
70
0
62
-3
6
Continuous
290
1
370
-3
390
0
0
LAYER
5
75
100
AcDbSymbolTableRecord
100
AcDbLayerTableRecord
2
1
70
0
62
4
6
Continuous
290
1
370
-3
390
0
0
LAYER
5
83
100
AcDbSymbolTableRecord
100
AcDbLayerTableRecord
2
4
70
0
62
-2
6
CENTER
290
1
370
-3
390
0
0
LAYER
5
A8
100
AcDbSymbolTableRecord
100
AcDbLayerTableRecord
2
2
70
0
62
7
6
Continuous
290
1
370
-3
390
0
0
LAYER
5
142
100
AcDbSymbolTableRecord
100
AcDbLayerTableRecord
2
Defpoints
70
0
62
7
6
Continuous
290
0
370
-3
390
0
0
LAYER
5
219
100
AcDbSymbolTableRecord
100
AcDbLayerTableRecord
2
SK4
70
0
62
2
6
CENTER
290
1
370
-3
390
0
0
LAYER
5
21a
100
AcDbSymbolTableRecord
100
AcDbLayerTableRecord
2
SK1
70
0
62
4
6
Continuous
290
1
370
-3
390
0
0
LAYER
5
21b
100
AcDbSymbolTableRecord
100
AcDbLayerTableRecord
2
SK2
70
0
62
7
6
Continuous
290
1
370
-3
390
0
0
LAYER
5
21c
100
AcDbSymbolTableRecord
100
AcDbLayerTableRecord
2
SK6
70
0
62
5
6
Continuous
290
1
370
-3
390
0
0
ENDTAB
0
TABLE
2
STYLE
5
230
100
AcDbSymbolTable
0
STYLE
5
11
100
AcDbSymbolTableRecord
100
AcDbTextStyleTableRecord
2
Standard
3
txt
70
0
71
0
40
0
41
1
42
0
50
0
0
STYLE
5
11E
100
AcDbSymbolTableRecord
100
AcDbTextStyleTableRecord
2
iso_b_vert
3
simplex.shx
70
0
71
0
40
0
41
1
42
0
50
0
0
STYLE
5
11F
100
AcDbSymbolTableRecord
100
AcDbTextStyleTableRecord
2
DWGDirectTextStyle
3
simplex
70
0
71
0
40
0
41
1
42
0
50
0
0
ENDTAB
0
TABLE
2
DIMSTYLE
5
231
100
AcDbSymbolTable
100
AcDbDimStyleTable
0
DIMSTYLE
105
27
100
AcDbSymbolTableRecord
100
AcDbDimStyleTableRecord
2
Standard
70
0
3
<>
41
0.18
42
0.0625
44
0.18
140
0.18
147
0.09
73
0
74
0
77
1
271
2
275
0
278
52
280
0
340
11
0
ENDTAB
0
TABLE
2
VIEW
5
232
100
AcDbSymbolTable
0
ENDTAB
0
TABLE
2
UCS
5
233
100
AcDbSymbolTable
0
ENDTAB
0
TABLE
2
APPID
5
234
100
AcDbSymbolTable
0
APPID
5
12
100
AcDbSymbolTableRecord
100
AcDbRegAppTableRecord
2
ACAD
70
0
0
APPID
5
13E
100
AcDbSymbolTableRecord
100
AcDbRegAppTableRecord
2
ACAD_DSTYLE_DIMBREAK
70
0
0
APPID
5
1D8
100
AcDbSymbolTableRecord
100
AcDbRegAppTableRecord
2
ACAD_DSTYLE_DIM_LINETYPE
70
0
0
APPID
5
1D9
100
AcDbSymbolTableRecord
100
AcDbRegAppTableRecord
2
ACAD_DSTYLE_DIM_EXT1_LINETYPE
70
0
0
APPID
5
1DA
100
AcDbSymbolTableRecord
100
AcDbRegAppTableRecord
2
ACAD_DSTYLE_DIM_EXT2_LINETYPE
70
0
0
APPID
5
215
100
AcDbSymbolTableRecord
100
AcDbRegAppTableRecord
2
ACAD_MLEADERVER
70
0
0
ENDTAB
0
TABLE
2
BLOCK_RECORD
5
235
100
AcDbSymbolTable
0
BLOCK_RECORD
5
1F
100
AcDbSymbolTableRecord
100
AcDbBlockTableRecord
2
*Model_Space
340
0
70
0
0
BLOCK_RECORD
5
1B
100
AcDbSymbolTableRecord
100
AcDbBlockTableRecord
2
*Paper_Space
340
0
70
0
0
BLOCK_RECORD
5
23
100
AcDbSymbolTableRecord
100
AcDbBlockTableRecord
2
*Paper_Space0
340
0
70
0
0
BLOCK_RECORD
5
143
100
AcDbSymbolTableRecord
100
AcDbBlockTableRecord
2
*D1
340
0
70
0
0
BLOCK_RECORD
5
14F
100
AcDbSymbolTableRecord
100
AcDbBlockTableRecord
2
_U0
340
0
70
0
0
BLOCK_RECORD
5
15D
100
AcDbSymbolTableRecord
100
AcDbBlockTableRecord
2
*D3
340
0
70
0
0
BLOCK_RECORD
5
169
100
AcDbSymbolTableRecord
100
AcDbBlockTableRecord
2
_U1
340
0
70
0
0
BLOCK_RECORD
5
175
100
AcDbSymbolTableRecord
100
AcDbBlockTableRecord
2
*D5
340
0
70
0
0
BLOCK_RECORD
5
181
100
AcDbSymbolTableRecord
100
AcDbBlockTableRecord
2
_U2
340
0
70
0
0
BLOCK_RECORD
5
18D
100
AcDbSymbolTableRecord
100
AcDbBlockTableRecord
2
*D7
340
0
70
0
0
BLOCK_RECORD
5
199
100
AcDbSymbolTableRecord
100
AcDbBlockTableRecord
2
_U3
340
0
70
0
0
BLOCK_RECORD
5
1A5
100
AcDbSymbolTableRecord
100
AcDbBlockTableRecord
2
*D9
340
0
70
0
0
BLOCK_RECORD
5
1B1
100
AcDbSymbolTableRecord
100
AcDbBlockTableRecord
2
_U4
340
0
70
0
0
ENDTAB
0
ENDSEC
0
SECTION
2
BLOCKS
0
BLOCK
5
20
100
AcDbEntity
8
0
100
AcDbBlockBegin
2
*Model_Space
70
0
10
0
20
0
30
0
3
*Model_Space
0
ENDBLK
5
21
100
AcDbEntity
8
0
100
AcDbBlockEnd
0
BLOCK
5
1C
100
AcDbEntity
8
0
100
AcDbBlockBegin
2
*Paper_Space
70
0
10
0
20
0
30
0
3
*Paper_Space
0
ENDBLK
5
1D
100
AcDbEntity
8
0
100
AcDbBlockEnd
0
BLOCK
5
24
100
AcDbEntity
8
0
100
AcDbBlockBegin
2
*Paper_Space0
70
0
10
0
20
0
30
0
3
*Paper_Space0
0
ENDBLK
5
25
100
AcDbEntity
8
0
100
AcDbBlockEnd
0
BLOCK
5
144
100
AcDbEntity
8
0
100
AcDbBlockBegin
2
*D1
70
1
10
0
20
0
30
0
3
*D1
0
LINE
5
146
100
AcDbEntity
8
0
62
256
6
ByLayer
370
-2
48
1
60
0
100
AcDbLine
10
54
20
-3.572
30
0
11
54
21
-21.487579
31
0
39
0
210
0
220
0
230
1
0
LINE
5
147
100
AcDbEntity
8
0
62
256
6
ByLayer
370
-2
48
1
60
0
100
AcDbLine
10
21.6
20
-3.572
30
0
11
21.6
21
-21.487579
31
0
39
0
210
0
220
0
230
1
0
LINE
5
148
100
AcDbEntity
8
0
62
256
6
ByLayer
370
-2
48
1
60
0
100
AcDbLine
10
50.5
20
-19.487579
30
0
11
25.1
21
-19.487579
31
0
39
0
210
0
220
0
230
1
0
SOLID
5
149
100
AcDbEntity
8
0
62
256
6
ByLayer
370
-1
48
1
60
0
100
AcDbTrace
10
50.5
20
-20.070912
30
0
11
50.5
21
-18.904245
31
0
12
54
22
-19.487579
32
0
13
54
23
-19.487579
33
0
39
0
210
0
220
0
230
1
0
SOLID
5
14A
100
AcDbEntity
8
0
62
256
6
ByLayer
370
-1
48
1
60
0
100
AcDbTrace
10
25.1
20
-18.904245
30
0
11
25.1
21
-20.070912
31
0
12
21.6
22
-19.487579
32
0
13
21.6
23
-19.487579
33
0
39
0
210
0
220
0
230
1
0
MTEXT
5
14B
100
AcDbEntity
8
0
62
256
6
ByLayer
370
18
48
1
60
0
100
AcDbMText
10
37.8
20
-13.487579
30
0
210
0
220
0
230
1
1
\A1;32.4
40
3
41
0
44
1
50
0
71
5
72
5
7
iso_b_vert
0
POINT
5
14C
100
AcDbEntity
8
Defpoints
62
0
6
ByLayer
370
-1
48
1
60
0
100
AcDbPoint
10
54
20
-1.9845
30
0
39
0
210
0
220
0
230
1
50
360
0
POINT
5
14D
100
AcDbEntity
8
Defpoints
62
0
6
ByLayer
370
-1
48
1
60
0
100
AcDbPoint
10
21.6
20
-1.9845
30
0
39
0
210
0
220
0
230
1
50
360
0
POINT
5
14E
100
AcDbEntity
8
Defpoints
62
0
6
ByLayer
370
-1
48
1
60
0
100
AcDbPoint
10
21.6
20
-19.487579
30
0
39
0
210
0
220
0
230
1
50
360
0
ENDBLK
5
145
100
AcDbEntity
8
0
100
AcDbBlockEnd
0
BLOCK
5
158
100
AcDbEntity
8
0
100
AcDbBlockBegin
2
_U0
70
0
10
0
20
0
30
0
3
_U0
0
MTEXT
5
150
100
AcDbEntity
8
SK2
62
256
6
ByLayer
370
18
48
1
60
0
100
AcDbMText
10
34.280601
20
-17.289964
30
0
210
0
220
0
230
1
1
\W0.7528;32.4
40
3
41
0
44
1.084337
50
0
71
7
72
5
7
iso_b_vert
0
MTEXT
5
151
100
AcDbEntity
8
SK2
62
256
6
ByLayer
370
18
48
1
60
0
100
AcDbMText
10
32.180601
20
-17.289964
30
0
210
0
220
0
230
1
1
\W1.1313;{\H1.88x;(}
40
3
41
0
44
1.084337
50
0
71
7
72
5
7
iso_b_vert
0
MTEXT
5
152
100
AcDbEntity
8
SK2
62
256
6
ByLayer
370
18
48
1
60
0
100
AcDbMText
10
41.637399
20
-17.289964
30
0
210
0
220
0
230
1
1
\W1.1313;{\H1.88x;)}
40
3
41
0
44
1.084337
50
0
71
7
72
5
7
iso_b_vert
0
LINE
5
153
100
AcDbEntity
8
SK2
62
256
6
ByLayer
370
13
48
1
60
0
100
AcDbLine
10
54
20
-3.572
30
0
11
54
21
-21.487579
31
0
39
0
210
0
220
0
230
1
0
LINE
5
154
100
AcDbEntity
8
SK2
62
256
6
ByLayer
370
13
48
1
60
0
100
AcDbLine
10
21.6
20
-3.572
30
0
11
21.6
21
-21.487579
31
0
39
0
210
0
220
0
230
1
0
LINE
5
155
100
AcDbEntity
8
SK2
62
256
6
ByLayer
370
13
48
1
60
0
100
AcDbLine
10
54
20
-19.487579
30
0
11
21.6
21
-19.487579
31
0
39
0
210
0
220
0
230
1
0
SOLID
5
156
100
AcDbEntity
8
SK2
62
256
6
ByLayer
370
18
48
1
60
0
100
AcDbTrace
10
54
20
-19.487579
30
0
11
50.500002
21
-19.948362
31
0
12
50.499998
22
-19.026795
32
0
13
50.499998
23
-19.026795
33
0
39
0
210
0
220
0
230
1
0
SOLID
5
157
100
AcDbEntity
8
SK2
62
256
6
ByLayer
370
18
48
1
60
0
100
AcDbTrace
10
21.6
20
-19.487579
30
0
11
25.099998
21
-19.026795
31
0
12
25.100002
22
-19.948362
32
0
13
25.100002
23
-19.948362
33
0
39
0
210
0
220
0
230
1
0
ENDBLK
5
159
100
AcDbEntity
8
0
100
AcDbBlockEnd
0
BLOCK
5
15E
100
AcDbEntity
8
0
100
AcDbBlockBegin
2
*D3
70
1
10
0
20
0
30
0
3
*D3
0
LINE
5
160
100
AcDbEntity
8
0
62
256
6
ByLayer
370
-2
48
1
60
0
100
AcDbLine
10
54
20
-3.572
30
0
11
54
21
-31.487579
31
0
39
0
210
0
220
0
230
1
0
LINE
5
161
100
AcDbEntity
8
0
62
256
6
ByLayer
370
-2
48
1
60
0
100
AcDbLine
10
6
20
-3.572
30
0
11
6
21
-31.487579
31
0
39
0
210
0
220
0
230
1
0
LINE
5
162
100
AcDbEntity
8
0
62
256
6
ByLayer
370
-2
48
1
60
0
100
AcDbLine
10
50.5
20
-29.487579
30
0
11
9.5
21
-29.487579
31
0
39
0
210
0
220
0
230
1
0
SOLID
5
163
100
AcDbEntity
8
0
62
256
6
ByLayer
370
-1
48
1
60
0
100
AcDbTrace
10
50.5
20
-30.070912
30
0
11
50.5
21
-28.904245
31
0
12
54
22
-29.487579
32
0
13
54
23
-29.487579
33
0
39
0
210
0
220
0
230
1
0
SOLID
5
164
100
AcDbEntity
8
0
62
256
6
ByLayer
370
-1
48
1
60
0
100
AcDbTrace
10
9.5
20
-28.904245
30
0
11
9.5
21
-30.070912
31
0
12
6
22
-29.487579
32
0
13
6
23
-29.487579
33
0
39
0
210
0
220
0
230
1
0
MTEXT
5
165
100
AcDbEntity
8
0
62
256
6
ByLayer
370
18
48
1
60
0
100
AcDbMText
10
30
20
-23.487579
30
0
210
0
220
0
230
1
1
\A1;48
40
3
41
0
44
1
50
0
71
5
72
5
7
iso_b_vert
0
POINT
5
166
100
AcDbEntity
8
Defpoints
62
0
6
ByLayer
370
-1
48
1
60
0
100
AcDbPoint
10
54
20
-1.9845
30
0
39
0
210
0
220
0
230
1
50
360
0
POINT
5
167
100
AcDbEntity
8
Defpoints
62
0
6
ByLayer
370
-1
48
1
60
0
100
AcDbPoint
10
6
20
-1.9845
30
0
39
0
210
0
220
0
230
1
50
360
0
POINT
5
168
100
AcDbEntity
8
Defpoints
62
0
6
ByLayer
370
-1
48
1
60
0
100
AcDbPoint
10
6
20
-29.487579
30
0
39
0
210
0
220
0
230
1
50
360
0
ENDBLK
5
15F
100
AcDbEntity
8
0
100
AcDbBlockEnd
0
BLOCK
5
170
100
AcDbEntity
8
0
100
AcDbBlockBegin
2
_U1
70
0
10
0
20
0
30
0
3
_U1
0
MTEXT
5
16A
100
AcDbEntity
8
SK2
62
256
6
ByLayer
370
18
48
1
60
0
100
AcDbMText
10
28.209229
20
-28.602464
30
0
210
0
220
0
230
1
1
\W0.7361;48
40
3
41
0
44
1.084337
50
0
71
7
72
5
7
iso_b_vert
0
LINE
5
16B
100
AcDbEntity
8
SK2
62
256
6
ByLayer
370
13
48
1
60
0
100
AcDbLine
10
54
20
-3.572
30
0
11
54
21
-31.487579
31
0
39
0
210
0
220
0
230
1
0
LINE
5
16C
100
AcDbEntity
8
SK2
62
256
6
ByLayer
370
13
48
1
60
0
100
AcDbLine
10
6
20
-3.572
30
0
11
6
21
-31.487579
31
0
39
0
210
0
220
0
230
1
0
LINE
5
16D
100
AcDbEntity
8
SK2
62
256
6
ByLayer
370
13
48
1
60
0
100
AcDbLine
10
54
20
-29.487579
30
0
11
6
21
-29.487579
31
0
39
0
210
0
220
0
230
1
0
SOLID
5
16E
100
AcDbEntity
8
SK2
62
256
6
ByLayer
370
18
48
1
60
0
100
AcDbTrace
10
54
20
-29.487579
30
0
11
50.500002
21
-29.948362
31
0
12
50.499998
22
-29.026795
32
0
13
50.499998
23
-29.026795
33
0
39
0
210
0
220
0
230
1
0
SOLID
5
16F
100
AcDbEntity
8
SK2
62
256
6
ByLayer
370
18
48
1
60
0
100
AcDbTrace
10
6
20
-29.487579
30
0
11
9.499998
21
-29.026795
31
0
12
9.500002
22
-29.948362
32
0
13
9.500002
23
-29.948362
33
0
39
0
210
0
220
0
230
1
0
ENDBLK
5
171
100
AcDbEntity
8
0
100
AcDbBlockEnd
0
BLOCK
5
176
100
AcDbEntity
8
0
100
AcDbBlockBegin
2
*D5
70
1
10
0
20
0
30
0
3
*D5
0
LINE
5
178
100
AcDbEntity
8
0
62
256
6
ByLayer
370
-2
48
1
60
0
100
AcDbLine
10
-36
20
-4.5875
30
0
11
-36
21
-39.487579
31
0
39
0
210
0
220
0
230
1
0
LINE
5
179
100
AcDbEntity
8
0
62
256
6
ByLayer
370
-2
48
1
60
0
100
AcDbLine
10
0
20
-4.5875
30
0
11
0
21
-39.487579
31
0
39
0
210
0
220
0
230
1
0
LINE
5
17A
100
AcDbEntity
8
0
62
256
6
ByLayer
370
-2
48
1
60
0
100
AcDbLine
10
-32.5
20
-37.487579
30
0
11
-3.5
21
-37.487579
31
0
39
0
210
0
220
0
230
1
0
SOLID
5
17B
100
AcDbEntity
8
0
62
256
6
ByLayer
370
-1
48
1
60
0
100
AcDbTrace
10
-32.5
20
-36.904245
30
0
11
-32.5
21
-38.070912
31
0
12
-36
22
-37.487579
32
0
13
-36
23
-37.487579
33
0
39
0
210
0
220
0
230
1
0
SOLID
5
17C
100
AcDbEntity
8
0
62
256
6
ByLayer
370
-1
48
1
60
0
100
AcDbTrace
10
-3.5
20
-38.070912
30
0
11
-3.5
21
-36.904245
31
0
12
0
22
-37.487579
32
0
13
0
23
-37.487579
33
0
39
0
210
0
220
0
230
1
0
MTEXT
5
17D
100
AcDbEntity
8
0
62
256
6
ByLayer
370
18
48
1
60
0
100
AcDbMText
10
-18
20
-31.487579
30
0
210
0
220
0
230
1
1
\A1;36
40
3
41
0
44
1
50
0
71
5
72
5
7
iso_b_vert
0
POINT
5
17E
100
AcDbEntity
8
Defpoints
62
0
6
ByLayer
370
-1
48
1
60
0
100
AcDbPoint
10
-36
20
-3
30
0
39
0
210
0
220
0
230
1
50
360
0
POINT
5
17F
100
AcDbEntity
8
Defpoints
62
0
6
ByLayer
370
-1
48
1
60
0
100
AcDbPoint
10
0
20
-3
30
0
39
0
210
0
220
0
230
1
50
360
0
POINT
5
180
100
AcDbEntity
8
Defpoints
62
0
6
ByLayer
370
-1
48
1
60
0
100
AcDbPoint
10
0
20
-37.487579
30
0
39
0
210
0
220
0
230
1
50
360
0
ENDBLK
5
177
100
AcDbEntity
8
0
100
AcDbBlockEnd
0
BLOCK
5
188
100
AcDbEntity
8
0
100
AcDbBlockBegin
2
_U2
70
0
10
0
20
0
30
0
3
_U2
0
MTEXT
5
182
100
AcDbEntity
8
SK2
62
256
6
ByLayer
370
18
48
1
60
0
100
AcDbMText
10
-19.632828
20
-36.602464
30
0
210
0
220
0
230
1
1
\W0.6740;36
40
3
41
0
44
1.084337
50
0
71
7
72
5
7
iso_b_vert
0
LINE
5
183
100
AcDbEntity
8
SK2
62
256
6
ByLayer
370
13
48
1
60
0
100
AcDbLine
10
-36
20
-4.5875
30
0
11
-36
21
-39.487579
31
0
39
0
210
0
220
0
230
1
0
LINE
5
184
100
AcDbEntity
8
SK2
62
256
6
ByLayer
370
13
48
1
60
0
100
AcDbLine
10
0
20
-4.5875
30
0
11
0
21
-39.487579
31
0
39
0
210
0
220
0
230
1
0
LINE
5
185
100
AcDbEntity
8
SK2
62
256
6
ByLayer
370
13
48
1
60
0
100
AcDbLine
10
-36
20
-37.487579
30
0
11
0
21
-37.487579
31
0
39
0
210
0
220
0
230
1
0
SOLID
5
186
100
AcDbEntity
8
SK2
62
256
6
ByLayer
370
18
48
1
60
0
100
AcDbTrace
10
-36
20
-37.487579
30
0
11
-32.500002
21
-37.026795
31
0
12
-32.499998
22
-37.948362
32
0
13
-32.499998
23
-37.948362
33
0
39
0
210
0
220
0
230
1
0
SOLID
5
187
100
AcDbEntity
8
SK2
62
256
6
ByLayer
370
18
48
1
60
0
100
AcDbTrace
10
0
20
-37.487579
30
0
11
-3.499998
21
-37.948362
31
0
12
-3.500002
22
-37.026795
32
0
13
-3.500002
23
-37.026795
33
0
39
0
210
0
220
0
230
1
0
ENDBLK
5
189
100
AcDbEntity
8
0
100
AcDbBlockEnd
0
BLOCK
5
18E
100
AcDbEntity
8
0
100
AcDbBlockBegin
2
*D7
70
1
10
0
20
0
30
0
3
*D7
0
LINE
5
190
100
AcDbEntity
8
0
62
256
6
ByLayer
370
-2
48
1
60
0
100
AcDbLine
10
-36
20
-4.5875
30
0
11
-36
21
-47.487579
31
0
39
0
210
0
220
0
230
1
0
LINE
5
191
100
AcDbEntity
8
0
62
256
6
ByLayer
370
-2
48
1
60
0
100
AcDbLine
10
54
20
-3.572
30
0
11
54
21
-47.487579
31
0
39
0
210
0
220
0
230
1
0
LINE
5
192
100
AcDbEntity
8
0
62
256
6
ByLayer
370
-2
48
1
60
0
100
AcDbLine
10
-32.5
20
-45.487579
30
0
11
50.5
21
-45.487579
31
0
39
0
210
0
220
0
230
1
0
SOLID
5
193
100
AcDbEntity
8
0
62
256
6
ByLayer
370
-1
48
1
60
0
100
AcDbTrace
10
-32.5
20
-44.904245
30
0
11
-32.5
21
-46.070912
31
0
12
-36
22
-45.487579
32
0
13
-36
23
-45.487579
33
0
39
0
210
0
220
0
230
1
0
SOLID
5
194
100
AcDbEntity
8
0
62
256
6
ByLayer
370
-1
48
1
60
0
100
AcDbTrace
10
50.5
20
-46.070912
30
0
11
50.5
21
-44.904245
31
0
12
54
22
-45.487579
32
0
13
54
23
-45.487579
33
0
39
0
210
0
220
0
230
1
0
MTEXT
5
195
100
AcDbEntity
8
0
62
256
6
ByLayer
370
18
48
1
60
0
100
AcDbMText
10
9
20
-39.487579
30
0
210
0
220
0
230
1
1
\A1;90
40
3
41
0
44
1
50
0
71
5
72
5
7
iso_b_vert
0
POINT
5
196
100
AcDbEntity
8
Defpoints
62
0
6
ByLayer
370
-1
48
1
60
0
100
AcDbPoint
10
-36
20
-3
30
0
39
0
210
0
220
0
230
1
50
360
0
POINT
5
197
100
AcDbEntity
8
Defpoints
62
0
6
ByLayer
370
-1
48
1
60
0
100
AcDbPoint
10
54
20
-1.9845
30
0
39
0
210
0
220
0
230
1
50
360
0
POINT
5
198
100
AcDbEntity
8
Defpoints
62
0
6
ByLayer
370
-1
48
1
60
0
100
AcDbPoint
10
54
20
-45.487579
30
0
39
0
210
0
220
0
230
1
50
360
0
ENDBLK
5
18F
100
AcDbEntity
8
0
100
AcDbBlockEnd
0
BLOCK
5
1A0
100
AcDbEntity
8
0
100
AcDbBlockBegin
2
_U3
70
0
10
0
20
0
30
0
3
_U3
0
MTEXT
5
19A
100
AcDbEntity
8
SK2
62
256
6
ByLayer
370
18
48
1
60
0
100
AcDbMText
10
7.367172
20
-44.602464
30
0
210
0
220
0
230
1
1
\W0.6740;90
40
3
41
0
44
1.084337
50
0
71
7
72
5
7
iso_b_vert
0
LINE
5
19B
100
AcDbEntity
8
SK2
62
256
6
ByLayer
370
13
48
1
60
0
100
AcDbLine
10
-36
20
-4.5875
30
0
11
-36
21
-47.487579
31
0
39
0
210
0
220
0
230
1
0
LINE
5
19C
100
AcDbEntity
8
SK2
62
256
6
ByLayer
370
13
48
1
60
0
100
AcDbLine
10
54
20
-3.572
30
0
11
54
21
-47.487579
31
0
39
0
210
0
220
0
230
1
0
LINE
5
19D
100
AcDbEntity
8
SK2
62
256
6
ByLayer
370
13
48
1
60
0
100
AcDbLine
10
-36
20
-45.487579
30
0
11
54
21
-45.487579
31
0
39
0
210
0
220
0
230
1
0
SOLID
5
19E
100
AcDbEntity
8
SK2
62
256
6
ByLayer
370
18
48
1
60
0
100
AcDbTrace
10
-36
20
-45.487579
30
0
11
-32.500002
21
-45.026795
31
0
12
-32.499998
22
-45.948362
32
0
13
-32.499998
23
-45.948362
33
0
39
0
210
0
220
0
230
1
0
SOLID
5
19F
100
AcDbEntity
8
SK2
62
256
6
ByLayer
370
18
48
1
60
0
100
AcDbTrace
10
54
20
-45.487579
30
0
11
50.500002
21
-45.948362
31
0
12
50.499998
22
-45.026795
32
0
13
50.499998
23
-45.026795
33
0
39
0
210
0
220
0
230
1
0
ENDBLK
5
1A1
100
AcDbEntity
8
0
100
AcDbBlockEnd
0
BLOCK
5
1A6
100
AcDbEntity
8
0
100
AcDbBlockBegin
2
*D9
70
1
10
0
20
0
30
0
3
*D9
0
LINE
5
1A8
100
AcDbEntity
8
0
62
256
6
ByLayer
370
-2
48
1
60
0
100
AcDbLine
10
54
20
-3.572
30
0
11
54
21
-39.487579
31
0
39
0
210
0
220
0
230
1
0
LINE
5
1A9
100
AcDbEntity
8
0
62
256
6
ByLayer
370
-2
48
1
60
0
100
AcDbLine
10
0
20
-3.572
30
0
11
0
21
-39.487579
31
0
39
0
210
0
220
0
230
1
0
LINE
5
1AA
100
AcDbEntity
8
0
62
256
6
ByLayer
370
-2
48
1
60
0
100
AcDbLine
10
50.5
20
-37.487579
30
0
11
3.5
21
-37.487579
31
0
39
0
210
0
220
0
230
1
0
SOLID
5
1AB
100
AcDbEntity
8
0
62
256
6
ByLayer
370
-1
48
1
60
0
100
AcDbTrace
10
50.5
20
-38.070912
30
0
11
50.5
21
-36.904245
31
0
12
54
22
-37.487579
32
0
13
54
23
-37.487579
33
0
39
0
210
0
220
0
230
1
0
SOLID
5
1AC
100
AcDbEntity
8
0
62
256
6
ByLayer
370
-1
48
1
60
0
100
AcDbTrace
10
3.5
20
-36.904245
30
0
11
3.5
21
-38.070912
31
0
12
0
22
-37.487579
32
0
13
0
23
-37.487579
33
0
39
0
210
0
220
0
230
1
0
MTEXT
5
1AD
100
AcDbEntity
8
0
62
256
6
ByLayer
370
18
48
1
60
0
100
AcDbMText
10
27
20
-31.487579
30
0
210
0
220
0
230
1
1
\A1;54
40
3
41
0
44
1
50
0
71
5
72
5
7
iso_b_vert
0
POINT
5
1AE
100
AcDbEntity
8
Defpoints
62
0
6
ByLayer
370
-1
48
1
60
0
100
AcDbPoint
10
54
20
-1.9845
30
0
39
0
210
0
220
0
230
1
50
360
0
POINT
5
1AF
100
AcDbEntity
8
Defpoints
62
0
6
ByLayer
370
-1
48
1
60
0
100
AcDbPoint
10
0
20
-1.9845
30
0
39
0
210
0
220
0
230
1
50
360
0
POINT
5
1B0
100
AcDbEntity
8
Defpoints
62
0
6
ByLayer
370
-1
48
1
60
0
100
AcDbPoint
10
0
20
-37.487579
30
0
39
0
210
0
220
0
230
1
50
360
0
ENDBLK
5
1A7
100
AcDbEntity
8
0
100
AcDbBlockEnd
0
BLOCK
5
1B8
100
AcDbEntity
8
0
100
AcDbBlockBegin
2
_U4
70
0
10
0
20
0
30
0
3
_U4
0
MTEXT
5
1B2
100
AcDbEntity
8
2
62
256
6
ByLayer
370
18
48
1
60
0
100
AcDbMText
10
25.209229
20
-36.602464
30
0
210
0
220
0
230
1
1
\W0.7167;54
40
3
41
0
44
1.084337
50
0
71
7
72
5
7
iso_b_vert
0
LINE
5
1B3
100
AcDbEntity
8
2
62
256
6
ByLayer
370
13
48
1
60
0
100
AcDbLine
10
54
20
-3.572
30
0
11
54
21
-39.487579
31
0
39
0
210
0
220
0
230
1
0
LINE
5
1B4
100
AcDbEntity
8
2
62
256
6
ByLayer
370
13
48
1
60
0
100
AcDbLine
10
0
20
-3.572
30
0
11
0
21
-39.487579
31
0
39
0
210
0
220
0
230
1
0
LINE
5
1B5
100
AcDbEntity
8
2
62
256
6
ByLayer
370
13
48
1
60
0
100
AcDbLine
10
54
20
-37.487579
30
0
11
0
21
-37.487579
31
0
39
0
210
0
220
0
230
1
0
SOLID
5
1B6
100
AcDbEntity
8
2
62
256
6
ByLayer
370
18
48
1
60
0
100
AcDbTrace
10
54
20
-37.487579
30
0
11
50.500002
21
-37.948362
31
0
12
50.499998
22
-37.026795
32
0
13
50.499998
23
-37.026795
33
0
39
0
210
0
220
0
230
1
0
SOLID
5
1B7
100
AcDbEntity
8
2
62
256
6
ByLayer
370
18
48
1
60
0
100
AcDbTrace
10
0
20
-37.487579
30
0
11
3.499998
21
-37.026795
31
0
12
3.500002
22
-37.948362
32
0
13
3.500002
23
-37.948362
33
0
39
0
210
0
220
0
230
1
0
ENDBLK
5
1B9
100
AcDbEntity
8
0
100
AcDbBlockEnd
0
ENDSEC
0
SECTION
2
ENTITIES
0
ARC
5
C3
100
AcDbEntity
8
1
62
256
6
ByLayer
370
18
48
1
60
0
100
AcDbCircle
39
0
10
1.522691
20
-2.691337
30
0
40
0.800000000000003
210
0
220
0
230
1
100
AcDbArc
50
89.896868
51
162.116322
0
ARC
5
C4
100
AcDbEntity
8
1
62
256
6
ByLayer
370
18
48
1
60
0
100
AcDbCircle
39
0
10
1.522691
20
2.691337
30
0
40
0.800000000000003
210
0
220
0
230
1
100
AcDbArc
50
197.883678
51
270.103132
0
ARC
5
C5
100
AcDbEntity
8
1
62
256
6
ByLayer
370
18
48
1
60
0
100
AcDbCircle
39
0
10
0
20
-2.2
30
0
40
0.799999999999996
210
0
220
0
230
1
100
AcDbArc
50
270
51
342.116322
0
ARC
5
C6
100
AcDbEntity
8
1
62
256
6
ByLayer
370
18
48
1
60
0
100
AcDbCircle
39
0
10
0
20
2.2
30
0
40
0.799999999999996
210
0
220
0
230
1
100
AcDbArc
50
17.883678
51
90
0
ARC
5
C7
100
AcDbEntity
8
SK2
62
256
6
ByLayer
370
13
48
1
60
0
100
AcDbCircle
39
0
10
54
20
0
30
0
40
16.6203331433007
210
0
220
0
230
1
100
AcDbArc
50
10.398989
51
70.007621
0
ARC
5
C8
100
AcDbEntity
8
SK2
62
256
6
ByLayer
370
13
48
1
60
0
100
AcDbCircle
39
0
10
54
20
0
30
0
40
16.6203331433007
210
0
220
0
230
1
100
AcDbArc
50
289.992379
51
349.601011
0
ELLIPSE
5
C9
100
AcDbEntity
8
1
62
256
6
ByLayer
370
18
48
1
60
0
100
AcDbEllipse
10
34.254729
20
-1.951697
30
0
11
-0.1
21
1.22460635382238E-17
31
0
210
0
220
0
230
1
40
1
41
-1.54843374675179
42
-0.000899035774952849
0
ELLIPSE
5
CA
100
AcDbEntity
8
1
62
256
6
ByLayer
370
18
48
1
60
0
100
AcDbEllipse
10
34.254729
20
1.951697
30
0
11
-0.1
21
1.22460635382238E-17
31
0
210
0
220
0
230
1
40
1
41
0.000899035774952849
42
1.57715023918461
0
POINT
5
70
100
AcDbEntity
8
80
62
256
6
ByLayer
370
18
48
1
60
0
100
AcDbPoint
10
0
20
0
30
0
39
0
210
0
220
0
230
1
50
360
0
POINT
5
72
100
AcDbEntity
8
81
62
256
6
ByLayer
370
18
48
1
60
0
100
AcDbPoint
10
54
20
0
30
0
39
0
210
0
220
0
230
1
50
360
0
POINT
5
74
100
AcDbEntity
8
1
62
256
6
ByLayer
370
18
48
1
60
0
100
AcDbPoint
10
-210.864833
20
-200
30
0
39
0
210
0
220
0
230
1
50
360
0
POINT
5
76
100
AcDbEntity
8
1
62
256
6
ByLayer
370
13
48
1
60
1
100
AcDbPoint
10
-37.5
20
0
30
0
39
0
210
0
220
0
230
1
50
360
0
POINT
5
77
100
AcDbEntity
8
1
62
256
6
ByLayer
370
13
48
1
60
1
100
AcDbPoint
10
54.777049
20
0
30
0
39
0
210
0
220
0
230
1
50
360
0
POINT
5
78
100
AcDbEntity
8
1
62
256
6
ByLayer
370
18
48
1
60
1
100
AcDbPoint
10
54
20
-1.9845
30
0
39
0
210
0
220
0
230
1
50
360
0
POINT
5
79
100
AcDbEntity
8
1
62
256
6
ByLayer
370
18
48
1
60
1
100
AcDbPoint
10
21.6
20
-1.9845
30
0
39
0
210
0
220
0
230
1
50
360
0
POINT
5
7A
100
AcDbEntity
8
1
62
256
6
ByLayer
370
18
48
1
60
1
100
AcDbPoint
10
54
20
-1.9845
30
0
39
0
210
0
220
0
230
1
50
360
0
POINT
5
7B
100
AcDbEntity
8
1
62
256
6
ByLayer
370
18
48
1
60
1
100
AcDbPoint
10
6
20
-1.9845
30
0
39
0
210
0
220
0
230
1
50
360
0
POINT
5
7C
100
AcDbEntity
8
1
62
256
6
ByLayer
370
18
48
1
60
1
100
AcDbPoint
10
-36
20
-3
30
0
39
0
210
0
220
0
230
1
50
360
0
POINT
5
7D
100
AcDbEntity
8
1
62
256
6
ByLayer
370
18
48
1
60
1
100
AcDbPoint
10
0
20
-3
30
0
39
0
210
0
220
0
230
1
50
360
0
POINT
5
7E
100
AcDbEntity
8
1
62
256
6
ByLayer
370
18
48
1
60
1
100
AcDbPoint
10
-36
20
-3
30
0
39
0
210
0
220
0
230
1
50
360
0
POINT
5
7F
100
AcDbEntity
8
1
62
256
6
ByLayer
370
18
48
1
60
1
100
AcDbPoint
10
54
20
-1.9845
30
0
39
0
210
0
220
0
230
1
50
360
0
POINT
5
80
100
AcDbEntity
8
1
62
256
6
ByLayer
370
18
48
1
60
1
100
AcDbPoint
10
54
20
-1.9845
30
0
39
0
210
0
220
0
230
1
50
360
0
POINT
5
81
100
AcDbEntity
8
1
62
256
6
ByLayer
370
18
48
1
60
1
100
AcDbPoint
10
0
20
-1.9845
30
0
39
0
210
0
220
0
230
1
50
360
0
SPLINE
5
CB
100
AcDbEntity
8
1
62
256
6
ByLayer
370
18
48
1
60
0
100
AcDbSpline
70
4
71
3
72
8
73
4
40
0
40
0
40
0
40
0
40
1
40
1
40
1
40
1
41
1
10
53.7769371225875
20
0.715805274263175
30
0
41
1
10
53.8358028038168
20
0.552038039726312
30
0
41
1
10
53.8941252615875
20
0.388079477477191
30
0
41
1
10
53.9518922070457
20
0.223925259281714
30
0
0
SPLINE
5
CC
100
AcDbEntity
8
1
62
256
6
ByLayer
370
18
48
1
60
0
100
AcDbSpline
70
4
71
3
72
8
73
4
40
0
40
0
40
0
40
0
40
1
40
1
40
1
40
1
41
1
10
53.9518922070457
20
0.223925259281714
30
0
41
1
10
53.9672903135292
20
0.180169022710061
30
0
41
1
10
53.9830042127354
20
0.136592976617408
30
0
41
1
10
53.9990392958642
20
0.0931931110466451
30
0
0
SPLINE
5
CD
100
AcDbEntity
8
1
62
256
6
ByLayer
370
18
48
1
60
0
100
AcDbSpline
70
4
71
3
72
10
73
6
40
0
40
0
40
0
40
0
40
0.41758702829655
40
0.41758702829655
40
1
40
1
40
1
40
1
41
1
10
53.5683422906858
20
-0.349485553875752
30
0
41
1
10
53.5867697285614
20
-0.359899794058606
30
0
41
1
10
53.6056040657212
20
-0.370459858511737
30
0
41
1
10
53.6513952973338
20
-0.395944211917964
30
0
41
1
10
53.6785342661222
20
-0.410896280074951
30
0
41
1
10
53.7060306686733
20
-0.425902312782256
30
0
0
SPLINE
5
CE
100
AcDbEntity
8
1
62
256
6
ByLayer
370
18
48
1
60
0
100
AcDbSpline
70
4
71
3
72
8
73
4
40
0
40
0
40
0
40
0
40
1
40
1
40
1
40
1
41
1
10
53.3032580876969
20
-1.88011785591709
30
0
41
1
10
53.3233040589665
20
-1.8453784068235
30
0
41
1
10
53.3433622691699
20
-1.81063545710512
30
0
41
1
10
53.3634287449451
20
-1.77589670545999
30
0
0
SPLINE
5
CF
100
AcDbEntity
8
1
62
256
6
ByLayer
370
18
48
1
60
0
100
AcDbSpline
70
4
71
3
72
24
73
20
40
0
40
0
40
0
40
0
40
0.139075873949247
40
0.139075873949247
40
0.28256322829104
40
0.28256322829104
40
0.426050582632832
40
0.426050582632832
40
0.497794259803728
40
0.497794259803728
40
0.569537936974624
40
0.569537936974624
40
0.713025291316416
40
0.713025291316416
40
0.856512645658208
40
0.856512645658208
40
0.928256322829104
40
0.928256322829104
40
1
40
1
40
1
40
1
41
1
10
52.9399007262424
20
0.415407677125131
30
0
41
1
10
52.9576076486192
20
0.426988797700005
30
0
41
1
10
52.976268267872
20
0.439479195789659
30
0
41
1
10
53.0165732042465
20
0.466165486471908
30
0
41
1
10
53.0384530563845
20
0.480479140362178
30
0
41
1
10
53.0837443192815
20
0.509149333563187
30
0
41
1
10
53.1072632871808
20
0.523607813280137
30
0
41
1
10
53.1441305752258
20
0.544935005083431
30
0
41
1
10
53.1566876698101
20
0.551979750950323
30
0
41
1
10
53.1824078834664
20
0.565818356786394
30
0
41
1
10
53.1956065452198
20
0.572621962319261
30
0
41
1
10
53.2359922287025
20
0.59239931667409
30
0
41
1
10
53.2634637757799
20
0.604601400996927
30
0
41
1
10
53.3197148805862
20
0.626318347964371
30
0
41
1
10
53.3485119217827
20
0.635786261043052
30
0
41
1
10
53.3928495180461
20
0.647432017804249
30
0
41
1
10
53.4078611365928
20
0.650897251198131
30
0
41
1
10
53.4379694758517
20
0.656871121213356
30
0
41
1
10
53.4530839316484
20
0.659387563266819
30
0
41
1
10
53.4682609151283
20
0.661439492529695
30
0
0
SPLINE
5
D0
100
AcDbEntity
8
1
62
256
6
ByLayer
370
18
48
1
60
0
100
AcDbSpline
70
4
71
3
72
10
73
6
40
0
40
0
40
0
40
0
40
0.5
40
0.5
40
1
40
1
40
1
40
1
41
1
10
53.4682609151283
20
0.661439492529695
30
0
41
1
10
53.5199934369216
20
0.668433733213362
30
0
41
1
10
53.5717150905434
20
0.676102663748395
30
0
41
1
10
53.6747786851258
20
0.693827610098907
30
0
41
1
10
53.7260553421728
20
0.703888813788893
30
0
41
1
10
53.7769371225874
20
0.715805274263147
30
0
0
SPLINE
5
D1
100
AcDbEntity
8
1
62
256
6
ByLayer
370
18
48
1
60
0
100
AcDbSpline
70
4
71
3
72
27
73
23
40
0
40
0
40
0
40
0
40
0.249999999999978
40
0.249999999999978
40
0.374999999999973
40
0.374999999999973
40
0.406249999999974
40
0.406249999999974
40
0.437499999999976
40
0.437499999999976
40
0.499999999999979
40
0.499999999999979
40
0.562499999999981
40
0.562499999999981
40
0.624999999999984
40
0.749999999999989
40
0.749999999999989
40
0.874999999999994
40
0.874999999999994
40
0.937499999999997
40
0.937499999999997
40
1
40
1
40
1
40
1
41
1
10
53.3634287449451
20
1.77589670546007
30
0
41
1
10
53.3947792787121
20
1.68568565863458
30
0
41
1
10
53.4263886291901
20
1.59526482868279
30
0
41
1
10
53.4743081112142
20
1.45946759443723
30
0
41
1
10
53.4903635212192
20
1.41417386513336
30
0
41
1
10
53.5105325899499
20
1.35753410768029
30
0
41
1
10
53.5145713807062
20
1.34620501465201
30
0
41
1
10
53.5226587862471
20
1.32354480988852
30
0
41
1
10
53.5267006256104
20
1.31221406135242
30
0
41
1
10
53.538948563228
20
1.27821292133115
30
0
41
1
10
53.5472208019652
20
1.25553733166433
30
0
41
1
10
53.5640204577588
20
1.21017597415587
30
0
41
1
10
53.5725432286335
20
1.18750400714572
30
0
41
1
10
53.5897199589928
20
1.14255022879109
30
0
41
1
10
53.6157360272343
20
1.07556094729415
30
0
41
1
10
53.6425897383542
20
1.00992254911617
30
0
41
1
10
53.6792860173179
20
0.923661269029253
30
0
41
1
10
53.6980776651185
20
0.881155379360138
30
0
41
1
10
53.7270456573776
20
0.818394501799247
30
0
41
1
10
53.7368315668942
20
0.797640283594518
30
0
41
1
10
53.7566774031284
20
0.756466970362254
30
0
41
1
10
53.7667529463892
20
0.736015454921898
30
0
41
1
10
53.7769371225875
20
0.715805274263175
30
0
0
SPLINE
5
D2
100
AcDbEntity
8
1
62
256
6
ByLayer
370
18
48
1
60
0
100
AcDbSpline
70
4
71
3
72
8
73
4
40
0
40
0
40
0
40
0
40
1
40
1
40
1
40
1
41
1
10
53.3032580877079
20
1.88011785589802
30
0
41
1
10
53.3233040589738
20
1.8453784068108
30
0
41
1
10
53.3433622691735
20
1.81063545709881
30
0
41
1
10
53.363428744945
20
1.77589670546007
30
0
0
SPLINE
5
D3
100
AcDbEntity
8
1
62
256
6
ByLayer
370
18
48
1
60
0
100
AcDbSpline
70
4
71
3
72
8
73
4
40
0
40
0
40
0
40
0
40
1
40
1
40
1
40
1
41
1
10
34.1547291665371
20
1.08864645257413
30
0
41
1
10
34.1547291665371
20
1.08196409873261
30
0
41
1
10
34.1547291665371
20
1.0749186594997
30
0
41
1
10
34.1547291665371
20
1.0675151121809
30
0
0
SPLINE
5
D4
100
AcDbEntity
8
1
62
256
6
ByLayer
370
18
48
1
60
0
100
AcDbSpline
70
4
71
3
72
58
73
54
40
0
40
0
40
0
40
0
40
0.0189151477589167
40
0.0189151477589167
40
0.0397232023788247
40
0.0397232023788247
40
0.0605312569987326
40
0.0605312569987326
40
0.0709352843086865
40
0.0709352843086865
40
0.0761372979636635
40
0.0774378013774077
40
0.0774378013774077
40
0.0780880530842798
40
0.0780880530842798
40
0.078738304791152
40
0.078738304791152
40
0.0813393116186405
40
0.0813393116186405
40
0.0917433389285945
40
0.0917433389285945
40
0.102147366238549
40
0.102147366238549
40
0.122955420858457
40
0.122955420858457
40
0.164571530098273
40
0.164571530098273
40
0.247803748577905
40
0.247803748577905
40
0.414268185537171
40
0.414268185537171
40
0.497500404016803
40
0.497500404016803
40
0.539116513256619
40
0.539116513256619
40
0.549520540566573
40
0.549520540566573
40
0.550821043980318
40
0.550821043980318
40
0.552121547394062
40
0.552121547394062
40
0.552446673247498
40
0.552446673247498
40
0.552771799100934
40
0.552771799100934
40
0.553422050807806
40
0.553422050807806
40
0.55472255422155
40
0.559924567876526
40
0.580732622496432
40
0.913661496414924
40
0.913661496414924
40
1
40
1
40
1
40
1
41
1
10
8.29492796502578
20
1.90250614448303
30
0
41
1
10
8.2909898079223
20
1.85514881539362
30
0
41
1
10
8.28564461522646
20
1.80754030396932
30
0
41
1
10
8.27071224636447
20
1.70716494564454
30
0
41
1
10
8.26060797927565
20
1.65439368059157
30
0
41
1
10
8.23685283822661
20
1.54812667728149
30
0
41
1
10
8.22330140992298
20
1.49472705927121
30
0
41
1
10
8.19890113260945
20
1.41551007675764
30
0
41
1
10
8.19018264787877
20
1.38919900360045
30
0
41
1
10
8.17634382530616
20
1.34987878358069
30
0
41
1
10
8.17041846987459
20
1.33352427511608
30
0
41
1
10
8.16430926468931
20
1.31720778252372
30
0
41
1
10
8.16246565382369
20
1.31231503375517
30
0
41
1
10
8.16152610434418
20
1.31072291229748
30
0
41
1
10
8.16166068711001
20
1.30718968253979
30
0
41
1
10
8.16268010224599
20
1.30562004828843
30
0
41
1
10
8.16779706922898
20
1.298635776906
30
0
41
1
10
8.1731905075502
20
1.29437262497834
30
0
41
1
10
8.1992225308189
20
1.27256672365374
30
0
41
1
10
8.22130300629152
20
1.25691226642755
30
0
41
1
10
8.2652550188991
20
1.22545930600597
30
0
41
1
10
8.28739413908815
20
1.21000557541629
30
0
41
1
10
8.35400324590401
20
1.16397656850162
30
0
41
1
10
8.39867400728664
20
1.13375456793494
30
0
41
1
10
8.53293745719907
20
1.04364549695143
30
0
41
1
10
8.62281025812771
20
0.984322819242948
30
0
41
1
10
8.89276123456003
20
0.807275633100204
30
0
41
1
10
9.07309646678155
20
0.690385231546458
30
0
41
1
10
9.61347942105132
20
0.341206962196054
30
0
41
1
10
9.9733644336408
20
0.111059032628162
30
0
41
1
10
10.5131626256953
20
-0.229617969109597
30
0
41
1
10
10.693245974192
20
-0.342337865898969
30
0
41
1
10
10.9619004322127
20
-0.511580604903202
30
0
41
1
10
11.0515136701151
20
-0.567837906923785
30
0
41
1
10
11.1612304574587
20
-0.639331594205572
30
0
41
1
10
11.1832879955304
20
-0.653592286212557
30
0
41
1
10
11.2066950652081
20
-0.670356471888795
30
0
41
1
10
11.2092619055616
20
-0.672228109993853
30
0
41
1
10
11.2141925193768
20
-0.67602550397234
30
0
41
1
10
11.2168889467728
20
-0.677941928532363
30
0
41
1
10
11.2187221073903
20
-0.680539190513542
30
0
41
1
10
11.2189209798667
20
-0.681125901757355
30
0
41
1
10
11.2177924777549
20
-0.681487253539842
30
0
41
1
10
11.2168765419317
20
-0.681329282458847
30
0
41
1
10
11.2143569798224
20
-0.680841260016905
30
0
41
1
10
11.2126396367647
20
-0.680370871479909
30
0
41
1
10
11.2075240836093
20
-0.6790992919926
30
0
41
1
10
11.1904728656135
20
-0.674858022863589
30
0
41
1
10
11.118870897585
20
-0.65698861512999
30
0
41
1
10
10.1785103242953
20
-0.419196820590088
30
0
41
1
10
9.26127048268651
20
-0.145365815057431
30
0
41
1
10
8.18713872708292
20
0.219564857778835
30
0
41
1
10
7.96658473670954
20
0.296878968307141
30
0
41
1
10
7.7466367606398
20
0.376303551088768
30
0
0
SPLINE
5
D5
100
AcDbEntity
8
1
62
256
6
ByLayer
370
18
48
1
60
0
100
AcDbSpline
70
4
71
3
72
22
73
18
40
0
40
0
40
0
40
0
40
0.244685550451629
40
0.244685550451629
40
0.367028325677479
40
0.367028325677479
40
0.489371100903329
40
0.489371100903329
40
0.550542488516253
40
0.550542488516253
40
0.611713876129178
40
0.611713876129178
40
0.734056651355029
40
0.734056651355029
40
0.978742201806801
40
0.978742201806801
40
1
40
1
40
1
40
1
41
1
10
53.4418128198044
20
0.186432380628759
30
0
41
1
10
53.4115757654033
20
0.204057336371562
30
0
41
1
10
53.3813630686259
20
0.221132097644727
30
0
41
1
10
53.3360909280101
20
0.245684750965836
30
0
41
1
10
53.3210081123852
20
0.253690569218094
30
0
41
1
10
53.2908576003439
20
0.269360690265529
30
0
41
1
10
53.2757905203572
20
0.277011069035609
30
0
41
1
10
53.2531973917807
20
0.28831741998971
30
0
41
1
10
53.2456672755865
20
0.292065271970756
30
0
41
1
10
53.2306062015087
20
0.299579988169739
30
0
41
1
10
53.2230744587569
20
0.303344652792021
30
0
41
1
10
53.2004883447574
20
0.31455825253704
30
0
41
1
10
53.1854830042875
20
0.321870183538351
30
0
41
1
10
53.1407233205848
20
0.342999570026848
30
0
41
1
10
53.1111915797418
20
0.356116746105783
30
0
41
1
10
53.0796770226052
20
0.368539964662858
30
0
41
1
10
53.0771624027913
20
0.369518994814911
30
0
41
1
10
53.0746522555316
20
0.370483954868433
30
0
0
SPLINE
5
D6
100
AcDbEntity
8
1
62
256
6
ByLayer
370
18
48
1
60
0
100
AcDbSpline
70
4
71
3
72
28
73
24
40
0
40
0
40
0
40
0
40
0.12499999999998
40
0.12499999999998
40
0.187499999999981
40
0.187499999999981
40
0.249999999999981
40
0.249999999999981
40
0.375000000000005
40
0.375000000000005
40
0.500000000000029
40
0.500000000000029
40
0.562500000000028
40
0.562500000000028
40
0.625000000000027
40
0.625000000000027
40
0.750000000000026
40
0.750000000000026
40
0.812500000000025
40
0.812500000000025
40
0.875000000000025
40
0.875000000000025
40
1
40
1
40
1
40
1
41
1
10
53.9990392958551
20
0.0931931110497715
30
0
41
1
10
53.9892591350733
20
0.0647063652977238
30
0
41
1
10
53.9788828995063
20
0.0365028996426418
30
0
41
1
10
53.9624458926242
20
-0.0053798283167907
30
0
41
1
10
53.9568210155897
20
-0.0192701173424155
30
0
41
1
10
53.9452772840136
20
-0.0469070276832042
30
0
41
1
10
53.9393386776852
20
-0.0606958223761183
30
0
41
1
10
53.9213505004477
20
-0.10122559734026
30
0
41
1
10
53.9090652265154
20
-0.127299158837474
30
0
41
1
10
53.8839708981635
20
-0.177563209429337
30
0
41
1
10
53.8711619735986
20
-0.201754453459301
30
0
41
1
10
53.8515669447231
20
-0.236549517085365
30
0
41
1
10
53.8449402551418
20
-0.247948458221231
30
0
41
1
10
53.8317578898415
20
-0.269888541734787
30
0
41
1
10
53.8251956493381
20
-0.28044540663123
30
0
41
1
10
53.8055976122246
20
-0.31089315734215
30
0
41
1
10
53.7926510027179
20
-0.329567963040375
30
0
41
1
10
53.7734076492455
20
-0.355090430415231
30
0
41
1
10
53.7670225025642
20
-0.363181314504516
30
0
41
1
10
53.7543089294559
20
-0.378499027932065
30
0
41
1
10
53.7479813951702
20
-0.385719631217569
30
0
41
1
10
53.7294341845655
20
-0.40566372813268
30
0
41
1
10
53.7175257008214
20
-0.41683145078099
30
0
41
1
10
53.7060306686728
20
-0.425902312783023
30
0
0
SPLINE
5
D7
100
AcDbEntity
8
1
62
256
6
ByLayer
370
18
48
1
60
0
100
AcDbSpline
70
4
71
3
72
92
73
88
40
0
40
0
40
0
40
0
40
0.0156249999999993
40
0.0156249999999993
40
0.0312499999999985
40
0.0312499999999985
40
0.0624999999999995
40
0.0624999999999995
40
0.0781249999999999
40
0.0781249999999999
40
0.0937500000000004
40
0.0937500000000004
40
0.125000000000007
40
0.125000000000007
40
0.140625000000007
40
0.140625000000007
40
0.156250000000007
40
0.156250000000007
40
0.187500000000006
40
0.187500000000006
40
0.20312500000001
40
0.20312500000001
40
0.218750000000014
40
0.218750000000014
40
0.250000000000023
40
0.250000000000023
40
0.265625000000027
40
0.265625000000027
40
0.281250000000031
40
0.281250000000031
40
0.31250000000003
40
0.31250000000003
40
0.32812500000003
40
0.32812500000003
40
0.343750000000029
40
0.375000000000029
40
0.406250000000028
40
0.406250000000028
40
0.421875000000027
40
0.421875000000027
40
0.437500000000027
40
0.437500000000027
40
0.468750000000026
40
0.468750000000026
40
0.484375000000023
40
0.484375000000023
40
0.500000000000019
40
0.500000000000019
40
0.562500000000015
40
0.562500000000015
40
0.593750000000015
40
0.593750000000015
40
0.625000000000015
40
0.625000000000015
40
0.656250000000015
40
0.656250000000015
40
0.687500000000015
40
0.687500000000015
40
0.718750000000015
40
0.718750000000015
40
0.734375000000015
40
0.734375000000015
40
0.750000000000015
40
0.750000000000015
40
0.781250000000014
40
0.781250000000014
40
0.796875000000012
40
0.796875000000012
40
0.812500000000009
40
0.812500000000009
40
0.843749999999998
40
0.843749999999998
40
0.859374999999993
40
0.859374999999993
40
0.874999999999987
40
0.874999999999987
40
0.906249999999984
40
0.906249999999984
40
0.921874999999986
40
0.921874999999986
40
0.937499999999989
40
0.937499999999989
40
0.968749999999994
40
0.968749999999994
40
0.984374999999997
40
0.984374999999997
40
1
40
1
40
1
40
1
41
1
10
53.7060306686732
20
-0.425902312782682
30
0
41
1
10
53.7057962916544
20
-0.432606022148207
30
0
41
1
10
53.7053939385234
20
-0.439541289888325
30
0
41
1
10
53.7042387725469
20
-0.453898122754424
30
0
41
1
10
53.7034800512908
20
-0.461364481720409
30
0
41
1
10
53.7006952240358
20
-0.484166529409777
30
0
41
1
10
53.6981777603724
20
-0.49985432694362
30
0
41
1
10
53.6934529321816
20
-0.524107473102703
30
0
41
1
10
53.6917192412945
20
-0.532312646746391
30
0
41
1
10
53.6879338238357
20
-0.548969963363817
30
0
41
1
10
53.6858699956219
20
-0.557467492786685
30
0
41
1
10
53.6792969723092
20
-0.582950709196098
30
0
41
1
10
53.6744211253651
20
-0.599906763819888
30
0
41
1
10
53.6664432689755
20
-0.625304785707641
30
0
41
1
10
53.6636726960865
20
-0.633764740636252
30
0
41
1
10
53.6579151781538
20
-0.650674318121389
30
0
41
1
10
53.6549239803397
20
-0.659132547938299
30
0
41
1
10
53.6457963041571
20
-0.684055644625147
30
0
41
1
10
53.6394574302401
20
-0.700222008670465
30
0
41
1
10
53.629621547957
20
-0.72385325001531
30
0
41
1
10
53.6262879485297
20
-0.731626711211987
30
0
41
1
10
53.6195156650438
20
-0.746969433537629
30
0
41
1
10
53.6160873342618
20
-0.754513635438258
30
0
41
1
10
53.6058022138605
20
-0.776527297122925
30
0
41
1
10
53.5989002581012
20
-0.790485029413873
30
0
41
1
10
53.5884978811726
20
-0.810414633110156
30
0
41
1
10
53.5850220473101
20
-0.816889171469057
30
0
41
1
10
53.5780552539203
20
-0.829503491722534
30
0
41
1
10
53.5745579105879
20
-0.835653283177948
30
0
41
1
10
53.5641598603012
20
-0.853404050565672
30
0
41
1
10
53.5573186529922
20
-0.864374870237555
30
0
41
1
10
53.5471882265798
20
-0.879581655041278
30
0
41
1
10
53.5438216649028
20
-0.884457393468495
30
0
41
1
10
53.5371978644434
20
-0.893697263618122
30
0
41
1
10
53.5274140859855
20
-0.906809991462779
30
0
41
1
10
53.5118299282931
20
-0.92506508108994
30
0
41
1
10
53.5000829724042
20
-0.935903321860678
30
0
41
1
10
53.4915342159377
20
-0.942565197901871
30
0
41
1
10
53.4887369747563
20
-0.94453217251143
30
0
41
1
10
53.4833023216005
20
-0.947921494864488
30
0
41
1
10
53.4806559566931
20
-0.949351016764126
30
0
41
1
10
53.4729217743855
20
-0.952851547538756
30
0
41
1
10
53.4680380625133
20
-0.954138141203146
30
0
41
1
10
53.4611044877234
20
-0.954461820509209
30
0
41
1
10
53.4588588305568
20
-0.954301126011188
30
0
41
1
10
53.4544983332828
20
-0.95342503504898
30
0
41
1
10
53.4523758310686
20
-0.952705028741832
30
0
41
1
10
53.4422141918958
20
-0.947719614748337
30
0
41
1
10
53.4354760731198
20
-0.939419049730191
30
0
41
1
10
53.4273694750952
20
-0.920132316691422
30
0
41
1
10
53.4249961724679
20
-0.912471970007886
30
0
41
1
10
53.421100091365
20
-0.895187655451167
30
0
41
1
10
53.419555096994
20
-0.885539197668351
30
0
41
1
10
53.4172780885146
20
-0.864176790195671
30
0
41
1
10
53.4165454143821
20
-0.852464370874714
30
0
41
1
10
53.4159705229004
20
-0.826772737929218
30
0
41
1
10
53.416137903629
20
-0.813133306637951
30
0
41
1
10
53.4173863412921
20
-0.784414985264817
30
0
41
1
10
53.4184665061045
20
-0.769315618782258
30
0
41
1
10
53.4208336012513
20
-0.745489677036232
30
0
41
1
10
53.4217537751353
20
-0.737307623152958
30
0
41
1
10
53.4238236097641
20
-0.720833919114455
30
0
41
1
10
53.4249736908312
20
-0.712526106184356
30
0
41
1
10
53.428771200765
20
-0.687394840274209
30
0
41
1
10
53.4317634586361
20
-0.670364786551886
30
0
41
1
10
53.4369928647123
20
-0.644403491296686
30
0
41
1
10
53.4388707184565
20
-0.635634878120271
30
0
41
1
10
53.4428298950497
20
-0.618216442174571
30
0
41
1
10
53.4449087084798
20
-0.609571094249475
30
0
41
1
10
53.451441723981
20
-0.583822524116016
30
0
41
1
10
53.4561909465924
20
-0.566905756617388
30
0
41
1
10
53.4639306807484
20
-0.541907335288869
30
0
41
1
10
53.4666251200788
20
-0.533605912016753
30
0
41
1
10
53.4721363903681
20
-0.517397294923683
30
0
41
1
10
53.4749596643515
20
-0.509466066652152
30
0
41
1
10
53.4836298159246
20
-0.486170794611837
30
0
41
1
10
53.489676304234
20
-0.471302694550417
30
0
41
1
10
53.4991496370119
20
-0.449961434324678
30
0
41
1
10
53.5023825093839
20
-0.442994808788114
30
0
41
1
10
53.5088869779347
20
-0.42958112489211
30
0
41
1
10
53.5121692673087
20
-0.423108544022881
30
0
41
1
10
53.5221042553316
20
-0.404361409243876
30
0
41
1
10
53.5288449485714
20
-0.392754284748349
30
0
41
1
10
53.5391265352619
20
-0.376617796828441
30
0
41
1
10
53.5425936833447
20
-0.371436368614127
30
0
41
1
10
53.5495159141708
20
-0.361594176494634
30
0
41
1
10
53.5529707887506
20
-0.356931442830927
30
0
41
1
10
53.5564192158469
20
-0.352515455585234
30
0
0
SPLINE
5
D8
100
AcDbEntity
8
1
62
256
6
ByLayer
370
18
48
1
60
0
100
AcDbSpline
70
4
71
3
72
8
73
4
40
0
40
0
40
0
40
0
40
1
40
1
40
1
40
1
41
1
10
53.5564192158472
20
-0.352515455584751
30
0
41
1
10
53.5506068754762
20
-0.33257491397157
30
0
41
1
10
53.5456709711363
20
-0.310189922096186
30
0
41
1
10
53.5415145284036
20
-0.285484391666131
30
0
0
SPLINE
5
D9
100
AcDbEntity
8
1
62
256
6
ByLayer
370
18
48
1
60
0
100
AcDbSpline
70
4
71
3
72
8
73
4
40
0
40
0
40
0
40
0
40
1
40
1
40
1
40
1
41
1
10
53.5415145284036
20
-0.285484391666159
30
0
41
1
10
53.5156408106503
20
-0.131693286533078
30
0
41
1
10
53.4823892723061
20
0.0256207251659646
30
0
41
1
10
53.4418128198043
20
0.186432380628787
30
0
0
SPLINE
5
DA
100
AcDbEntity
8
1
62
256
6
ByLayer
370
18
48
1
60
0
100
AcDbSpline
70
4
71
3
72
20
73
16
40
0
40
0
40
0
40
0
40
0.125
40
0.125
40
0.25
40
0.25
40
0.375
40
0.375
40
0.499999999999999
40
0.499999999999999
40
0.624999999999999
40
0.624999999999999
40
0.749999999999999
40
0.749999999999999
40
1
40
1
40
1
40
1
41
1
10
53.4418128198043
20
0.186432380628787
30
0
41
1
10
53.4341761010249
20
0.18342344210447
30
0
41
1
10
53.4265144147494
20
0.179947133233185
30
0
41
1
10
53.4111668900614
20
0.172213116372688
30
0
41
1
10
53.4034769604997
20
0.167900379234737
30
0
41
1
10
53.3881292228564
20
0.159091102993273
30
0
41
1
10
53.3804658772997
20
0.154535915626838
30
0
41
1
10
53.3651289474095
20
0.144598746612928
30
0
41
1
10
53.3574589794418
20
0.139261291354586
30
0
41
1
10
53.3421230677779
20
0.127793189630125
30
0
41
1
10
53.3344570632516
20
0.12166048768097
30
0
41
1
10
53.3191428639372
20
0.108643980901661
30
0
41
1
10
53.3114924398418
20
0.101756766088243
30
0
41
1
10
53.2887074596839
20
0.0801407908532212
30
0
41
1
10
53.2736987313947
20
0.064390966090059
30
0
41
1
10
53.2588898983558
20
0.0475965091814317
30
0
0
SPLINE
5
DB
100
AcDbEntity
8
1
62
256
6
ByLayer
370
18
48
1
60
0
100
AcDbSpline
70
4
71
3
72
12
73
8
40
0
40
0
40
0
40
0
40
0.25
40
0.25
40
0.5
40
0.5
40
1
40
1
40
1
40
1
41
1
10
53.3634287449452
20
-1.77589670545979
30
0
41
1
10
53.3555718170328
20
-1.78789335376766
30
0
41
1
10
53.3479855370351
20
-1.79907153385872
30
0
41
1
10
53.3333690526639
20
-1.81964883809624
30
0
41
1
10
53.3263272663949
20
-1.82905534387513
30
0
41
1
10
53.3064916940499
20
-1.85385039357649
30
0
41
1
10
53.294820352082
20
-1.86606803434427
30
0
41
1
10
53.2845164326214
20
-1.87400035980807
30
0
0
SPLINE
5
DC
100
AcDbEntity
8
1
62
256
6
ByLayer
370
18
48
1
60
0
100
AcDbSpline
70
4
71
3
72
27
73
23
40
0
40
0
40
0
40
0
40
0.249999999999978
40
0.249999999999978
40
0.374999999999973
40
0.374999999999973
40
0.406249999999972
40
0.406249999999972
40
0.437499999999971
40
0.437499999999971
40
0.499999999999968
40
0.499999999999968
40
0.562499999999965
40
0.562499999999965
40
0.624999999999963
40
0.74999999999997
40
0.74999999999997
40
0.874999999999978
40
0.874999999999978
40
0.937499999999989
40
0.937499999999989
40
1
40
1
40
1
40
1
41
1
10
53.3634287449451
20
-1.77589670545999
30
0
41
1
10
53.3947792787121
20
-1.68568565863447
30
0
41
1
10
53.4263886291902
20
-1.59526482868262
30
0
41
1
10
53.4743081112142
20
-1.45946759443697
30
0
41
1
10
53.4903635212192
20
-1.41417386513308
30
0
41
1
10
53.5105325899499
20
-1.35753410767995
30
0
41
1
10
53.5145713807064
20
-1.3462050146517
30
0
41
1
10
53.5226587862473
20
-1.32354480988818
30
0
41
1
10
53.5267006256105
20
-1.31221406135208
30
0
41
1
10
53.5389485632282
20
-1.27821292133078
30
0
41
1
10
53.5472208019654
20
-1.25553733166393
30
0
41
1
10
53.564020457759
20
-1.21017597415545
30
0
41
1
10
53.5725432286336
20
-1.18750400714541
30
0
41
1
10
53.589719958993
20
-1.1425502287909
30
0
41
1
10
53.6157360272344
20
-1.07556094729415
30
0
41
1
10
53.6425897383542
20
-1.00992254911625
30
0
41
1
10
53.6792860173179
20
-0.923661269029424
30
0
41
1
10
53.6980776651185
20
-0.881155379360308
30
0
41
1
10
53.7270456573776
20
-0.818394501799361
30
0
41
1
10
53.7368315668941
20
-0.797640283594603
30
0
41
1
10
53.7566774031284
20
-0.756466970362283
30
0
41
1
10
53.7667529463892
20
-0.736015454921812
30
0
41
1
10
53.7769371225875
20
-0.715805274263175
30
0
0
SPLINE
5
DD
100
AcDbEntity
8
1
62
256
6
ByLayer
370
18
48
1
60
0
100
AcDbSpline
70
4
71
3
72
8
73
4
40
0
40
0
40
0
40
0
40
1
40
1
40
1
40
1
41
1
10
53.7769371225875
20
-0.715805274263175
30
0
41
1
10
53.8358028038168
20
-0.552038039726312
30
0
41
1
10
53.8941252615875
20
-0.388079477477191
30
0
41
1
10
53.9518922070457
20
-0.223925259281714
30
0
0
SPLINE
5
DE
100
AcDbEntity
8
1
62
256
6
ByLayer
370
18
48
1
60
0
100
AcDbSpline
70
4
71
3
72
8
73
4
40
0
40
0
40
0
40
0
40
1
40
1
40
1
40
1
41
1
10
53.9518922070457
20
-0.223925259281685
30
0
41
1
10
53.9672903135272
20
-0.180169022715717
30
0
41
1
10
53.9830042127314
20
-0.136592976628691
30
0
41
1
10
53.999039295858
20
-0.0931931110635276
30
0
0
SPLINE
5
DF
100
AcDbEntity
8
1
62
256
6
ByLayer
370
18
48
1
60
0
100
AcDbSpline
70
4
71
3
72
8
73
4
40
0
40
0
40
0
40
0
40
1
40
1
40
1
40
1
41
1
10
53.9990392958591
20
0.0931931110526705
30
0
41
1
10
54.0003190633634
20
0.0311211837127701
30
0
41
1
10
54.0003214082078
20
-0.0310074528947837
30
0
41
1
10
53.999039295859
20
-0.0931931110575874
30
0
0
SPLINE
5
E0
100
AcDbEntity
8
1
62
256
6
ByLayer
370
18
48
1
60
0
100
AcDbSpline
70
4
71
3
72
18
73
14
40
0
40
0
40
0
40
0
40
0.499999999999928
40
0.499999999999928
40
0.749999999999962
40
0.749999999999962
40
0.874999999999909
40
0.874999999999909
40
0.937499999999812
40
0.968749999999835
40
0.984374999999917
40
0.984374999999917
40
1
40
1
40
1
40
1
41
1
10
53.2398429967104
20
1.98442451087988
30
0
41
1
10
53.2503972204661
20
1.96721006719389
30
0
41
1
10
53.2609340046254
20
1.94996412295174
30
0
41
1
10
53.2767814052413
20
1.92390011386789
30
0
41
1
10
53.2820731368994
20
1.91517500846297
30
0
41
1
10
53.2900466055266
20
1.90198681556163
30
0
41
1
10
53.2927153372621
20
1.89756361305084
30
0
41
1
10
53.2967083969865
20
1.89094425355376
30
0
41
1
10
53.2987004788995
20
1.88764260790464
30
0
41
1
10
53.3009987767204
20
1.8838416634502
30
0
41
1
10
53.3019752912432
20
1.88222944500114
30
0
41
1
10
53.3026239985004
20
1.881159177142
30
0
41
1
10
53.3029580487812
20
1.88060536137843
30
0
41
1
10
53.3032580877088
20
1.88011785589785
30
0
0
SPLINE
5
E1
100
AcDbEntity
8
1
62
256
6
ByLayer
370
18
48
1
60
0
100
AcDbSpline
70
4
71
3
72
24
73
20
40
0
40
0
40
0
40
0
40
0.215424371582138
40
0.215424371582138
40
0.430848743164276
40
0.430848743164276
40
0.538560928955345
40
0.538560928955345
40
0.646273114746413
40
0.646273114746413
40
0.753985300537482
40
0.753985300537482
40
0.807841393433017
40
0.807841393433017
40
0.861697486328551
40
0.861697486328551
40
0.969409672119632
40
0.969409672119632
40
1
40
1
40
1
40
1
41
1
10
53.3032580877113
20
1.88011785591686
30
0
41
1
10
53.103769633616
20
1.88337945166893
30
0
41
1
10
52.9050844243187
20
1.87793854365967
30
0
41
1
10
52.5080657601979
20
1.84979905859493
30
0
41
1
10
52.3097687842949
20
1.82721074938371
30
0
41
1
10
52.0117836203274
20
1.78064302670123
30
0
41
1
10
51.9123700302656
20
1.76303895123877
30
0
41
1
10
51.7131717535858
20
1.72364066641438
30
0
41
1
10
51.6133946259654
20
1.70187299359657
30
0
41
1
10
51.41337579947
20
1.65439600435207
30
0
41
1
10
51.3131278310097
20
1.62866926580983
30
0
41
1
10
51.1622736322288
20
1.58714010639096
30
0
41
1
10
51.1119581794131
20
1.57282691880397
30
0
41
1
10
51.0115664525256
20
1.54336190000248
30
0
41
1
10
50.9614437352686
20
1.52819643836057
30
0
41
1
10
50.8112640872794
20
1.48142698835127
30
0
41
1
10
50.7113952909575
20
1.44855834550364
30
0
41
1
10
50.5834114268505
20
1.40433536638705
30
0
41
1
10
50.5551189398443
20
1.39442649652031
30
0
41
1
10
50.526840257178
20
1.3843915359879
30
0
0
SPLINE
5
E2
100
AcDbEntity
8
1
62
256
6
ByLayer
370
18
48
1
60
0
100
AcDbSpline
70
4
71
3
72
26
73
22
40
0
40
0
40
0
40
0
40
0.0543735033001189
40
0.0543735033001189
40
0.148936152970113
40
0.148936152970113
40
0.243498802640107
40
0.243498802640107
40
0.432624101980096
40
0.432624101980096
40
0.527186751650085
40
0.527186751650085
40
0.57446807648508
40
0.57446807648508
40
0.621749401320074
40
0.621749401320074
40
0.716312050990053
40
0.716312050990053
40
0.810874700660031
40
0.810874700660031
40
1
40
1
40
1
40
1
41
1
10
37.3250046614761
20
-0.522726000597544
30
0
41
1
10
37.2677481987686
20
-0.493854628150331
30
0
41
1
10
37.2105389500656
20
-0.464809983140213
30
0
41
1
10
37.053927193766
20
-0.384847476010549
30
0
41
1
10
36.9546075037776
20
-0.333605134707739
30
0
41
1
10
36.7560118662601
20
-0.230521002672987
30
0
41
1
10
36.6567359174797
20
-0.178680796090674
30
0
41
1
10
36.3588101740001
20
-0.022605147057277
30
0
41
1
10
36.1600450212675
20
0.0821566259770918
30
0
41
1
10
35.8607536304798
20
0.238597145743398
30
0
41
1
10
35.7607848700301
20
0.290604158424855
30
0
41
1
10
35.6104463964839
20
0.368244461549324
30
0
41
1
10
35.5602691131178
20
0.394062664139682
30
0
41
1
10
35.4597633149784
20
0.445532636856171
30
0
41
1
10
35.4093926861
20
0.471206305066829
30
0
41
1
10
35.258450763245
20
0.547685729548419
30
0
41
1
10
35.1579979193668
20
0.598000551326805
30
0
41
1
10
34.9572743793291
20
0.696997596166597
30
0
41
1
10
34.8569941195998
20
0.745638505430009
30
0
41
1
10
34.5561946971205
20
0.88878436280018
30
0
41
1
10
34.3557233127115
20
0.980529683464653
30
0
41
1
10
34.1547291665371
20
1.06751511218081
30
0
0
SPLINE
5
E3
100
AcDbEntity
8
1
62
256
6
ByLayer
370
18
48
1
60
0
100
AcDbSpline
70
4
71
3
72
18
73
14
40
0
40
0
40
0
40
0
40
0.499999999999931
40
0.499999999999931
40
0.749999999999965
40
0.749999999999965
40
0.874999999999983
40
0.874999999999983
40
0.937499999999993
40
0.968749999999998
40
0.984374999999999
40
0.984374999999999
40
1
40
1
40
1
40
1
41
1
10
53.2398429967104
20
-1.98442451087988
30
0
41
1
10
53.2503972204639
20
-1.96721006719744
30
0
41
1
10
53.2609340046211
20
-1.94996412295882
30
0
41
1
10
53.2767814052337
20
-1.92390011388042
30
0
41
1
10
53.2820731368906
20
-1.91517500847735
30
0
41
1
10
53.2900466055162
20
-1.90198681557885
30
0
41
1
10
53.2927153372512
20
-1.89756361306905
30
0
41
1
10
53.2967083969747
20
-1.89094425357322
30
0
41
1
10
53.2987004788873
20
-1.88764260792468
30
0
41
1
10
53.3009987767079
20
-1.88384166347075
30
0
41
1
10
53.3019752912307
20
-1.88222944502189
30
0
41
1
10
53.3026239984878
20
-1.88115917716286
30
0
41
1
10
53.3029580487681
20
-1.88060536140009
30
0
41
1
10
53.303258087697
20
-1.88011785591709
30
0
0
SPLINE
5
E4
100
AcDbEntity
8
1
62
256
6
ByLayer
370
18
48
1
60
0
100
AcDbSpline
70
4
71
3
72
58
73
54
40
0
40
0
40
0
40
0
40
0.0094127508225385
40
0.0094127508225385
40
0.0736635861783447
40
0.0736635861783447
40
0.137914421534151
40
0.137914421534151
40
0.202165256889957
40
0.202165256889957
40
0.266416092245763
40
0.266416092245763
40
0.282478801084715
40
0.282478801084715
40
0.298541509923666
40
0.298541509923666
40
0.330666927601569
40
0.330666927601569
40
0.362792345279472
40
0.362792345279472
40
0.394917762957376
40
0.394917762957376
40
0.459168598313178
40
0.459168598313178
40
0.49129401599108
40
0.49129401599108
40
0.523419433668981
40
0.523419433668981
40
0.555544851346882
40
0.555544851346882
40
0.571607560185833
40
0.571607560185833
40
0.587670269024784
40
0.587670269024784
40
0.65192110438059
40
0.65192110438059
40
0.684046522058493
40
0.684046522058493
40
0.716171939736396
40
0.716171939736396
40
0.780422775092206
40
0.780422775092206
40
0.844673610448015
40
0.844673610448015
40
0.860736319286967
40
0.860736319286967
40
0.876799028125918
40
0.876799028125918
40
0.908924445803818
40
0.908924445803818
40
0.973175281159617
40
0.973175281159617
40
1
40
1
40
1
40
1
41
1
10
48.6091766842424
20
-0.540215874400587
30
0
41
1
10
48.5797236352619
20
-0.52539461640049
30
0
41
1
10
48.5502506186396
20
-0.510507933293894
30
0
41
1
10
48.3196741900248
20
-0.393649095537541
30
0
41
1
10
48.1198411532718
20
-0.290021621159639
30
0
41
1
10
47.7214489001563
20
-0.0818744618154312
30
0
41
1
10
47.5229184500265
20
0.0227156626610849
30
0
41
1
10
47.1260621661644
20
0.230723310833753
30
0
41
1
10
46.9277028901687
20
0.3340580174021
30
0
41
1
10
46.5300606470509
20
0.537336046055174
30
0
41
1
10
46.3307614606949
20
0.637249420835332
30
0
41
1
10
46.0801964216102
20
0.758361770895476
30
0
41
1
10
46.0300124647958
20
0.782397920603216
30
0
41
1
10
45.9294930114437
20
0.83008167875829
30
0
41
1
10
45.8791503569028
20
0.853730478315384
30
0
41
1
10
45.7285022588723
20
0.923736929114483
30
0
41
1
10
45.6283617388249
20
0.969238080934304
30
0
41
1
10
45.4285326233592
20
1.05773465220815
30
0
41
1
10
45.3288457460976
20
1.10072977374708
30
0
41
1
10
45.129767639305
20
1.18384710961661
30
0
41
1
10
45.0303842054458
20
1.22399520232472
30
0
41
1
10
44.7325027408702
20
1.34002366574921
30
0
41
1
10
44.5342571800483
20
1.41144569693515
30
0
41
1
10
44.2364429423812
20
1.50830531925681
30
0
41
1
10
44.1370930203533
20
1.53886619063465
30
0
41
1
10
43.9381252983727
20
1.59652376456651
30
0
41
1
10
43.8385046273564
20
1.62360391529273
30
0
41
1
10
43.6388179120587
20
1.67400083607737
30
0
41
1
10
43.5387718940179
20
1.69738506918148
30
0
41
1
10
43.3882445584252
20
1.7294567078404
30
0
41
1
10
43.3379682612479
20
1.73964902264075
30
0
41
1
10
43.2373474732262
20
1.75900630081892
30
0
41
1
10
43.1871171225007
20
1.76815323118984
30
0
41
1
10
42.9363205348079
20
1.81127084000934
30
0
41
1
10
42.7368099882246
20
1.83733092051861
30
0
41
1
10
42.4383348102287
20
1.86360331084279
30
0
41
1
10
42.3389653572152
20
1.8701859749755
30
0
41
1
10
42.1403669800823
20
1.87908034448532
30
0
41
1
10
42.041140281045
20
1.88139054034252
30
0
41
1
10
41.7434477904268
20
1.88172007543983
30
0
41
1
10
41.5449842063927
20
1.87311894328104
30
0
41
1
10
41.146740534865
20
1.83815430010284
30
0
41
1
10
40.9470000203943
20
1.81194579986408
30
0
41
1
10
40.6957769556722
20
1.76851270653262
30
0
41
1
10
40.6454137981918
20
1.75927982912168
30
0
41
1
10
40.5449206434373
20
1.73981704631731
30
0
41
1
10
40.494747941152
20
1.72958274428592
30
0
41
1
10
40.3444228008052
20
1.69744091264988
30
0
41
1
10
40.244466003027
20
1.67410969076889
30
0
41
1
10
39.9451689237436
20
1.5985951196854
30
0
41
1
10
39.7464149994114
20
1.54085417311262
30
0
41
1
10
39.464922875984
20
1.44933273152117
30
0
41
1
10
39.3820489175661
20
1.42120428138034
30
0
41
1
10
39.2991676125284
20
1.39195528876675
30
0
0
SPLINE
5
E5
100
AcDbEntity
8
1
62
256
6
ByLayer
370
18
48
1
60
0
100
AcDbSpline
70
4
71
3
72
46
73
42
40
0
40
0
40
0
40
0
40
0.0006344253444201
40
0.0006344253444201
40
0.0494339598956399
40
0.0494339598956399
40
0.0982334944468596
40
0.0982334944468596
40
0.195832563549304
40
0.195832563549304
40
0.244632098100527
40
0.244632098100527
40
0.293431632651749
40
0.293431632651749
40
0.31783139992736
40
0.31783139992736
40
0.342231167202972
40
0.342231167202972
40
0.391030701754194
40
0.391030701754194
40
0.439830236305417
40
0.439830236305417
40
0.488629770856639
40
0.488629770856639
40
0.537429305407862
40
0.537429305407862
40
0.56182907268347
40
0.56182907268347
40
0.586228839959079
40
0.586228839959079
40
0.683827909061524
40
0.683827909061524
40
0.732627443612746
40
0.732627443612746
40
0.781426978163969
40
0.781426978163969
40
0.879026047266414
40
0.879026047266414
40
0.976625116368859
40
0.976625116368859
40
1
40
1
40
1
40
1
41
1
10
42.0115594829865
20
-0.230670736079361
30
0
41
1
10
42.0102779174126
20
-0.230008496134303
30
0
41
1
10
42.0089963996907
20
-0.229346196254937
30
0
41
1
10
41.9091452113624
20
-0.17773558998789
30
0
41
1
10
41.8109025418969
20
-0.126356276153274
30
0
41
1
10
41.6145933929832
20
-0.0236071327680065
30
0
41
1
10
41.5164876792523
20
0.0276918344537762
30
0
41
1
10
41.2220235237804
20
0.180828329144674
30
0
41
1
10
41.0254992257701
20
0.281889181600491
30
0
41
1
10
40.7304289809147
20
0.431742652715911
30
0
41
1
10
40.6320530253875
20
0.481449750613621
30
0
41
1
10
40.4349681386782
20
0.579848852841224
30
0
41
1
10
40.3362284170026
20
0.628491032188577
30
0
41
1
10
40.1877299635704
20
0.700423975953925
30
0
41
1
10
40.1381687892647
20
0.724234565655905
30
0
41
1
10
40.0389051207588
20
0.771487478767455
30
0
41
1
10
39.9891647264195
20
0.794945335328947
30
0
41
1
10
39.8400345736652
20
0.864527918594831
30
0
41
1
10
39.7406819568764
20
0.909867754342145
30
0
41
1
10
39.5420201907982
20
0.998277051728024
30
0
41
1
10
39.4427215227009
20
1.04135666621022
30
0
41
1
10
39.2441589563438
20
1.12503990579361
30
0
41
1
10
39.1448924513675
20
1.16565370590155
30
0
41
1
10
38.9463859570307
20
1.24403642412128
30
0
41
1
10
38.8471833534134
20
1.28176354414433
30
0
41
1
10
38.698131515617
20
1.33613759977118
30
0
41
1
10
38.6483686685529
20
1.35390791416103
30
0
41
1
10
38.5489687989329
20
1.38862309224189
30
0
41
1
10
38.4993139685654
20
1.40557464178232
30
0
41
1
10
38.2512660830927
20
1.48827408495092
30
0
41
1
10
38.0535376330333
20
1.54796699296688
30
0
41
1
10
37.7582822399631
20
1.62554851651737
30
0
41
1
10
37.6601302905325
20
1.64934914084381
30
0
41
1
10
37.4638807764479
20
1.69323098111761
30
0
41
1
10
37.3657268614303
20
1.71338842940028
30
0
41
1
10
37.0710564776897
20
1.76830959033845
30
0
41
1
10
36.8744397668101
20
1.7974304099078
30
0
41
1
10
36.4801377904356
20
1.83893062325035
30
0
41
1
10
36.2824714774803
20
1.85127749388659
30
0
41
1
10
36.0360575500834
20
1.85545203999453
30
0
41
1
10
35.9883384858799
20
1.85573804081221
30
0
41
1
10
35.9406490044206
20
1.85551229637142
30
0
0
SPLINE
5
E6
100
AcDbEntity
8
1
62
256
6
ByLayer
370
13
48
1
60
0
100
AcDbSpline
70
4
71
3
72
29
73
25
40
0
40
0
40
0
40
0
40
0.0358800108065737
40
0.132292009725916
40
0.180498009185588
40
0.180498009185588
40
0.228704008645259
40
0.228704008645259
40
0.325116007564602
40
0.373322007024273
40
0.373322007024273
40
0.421528006483944
40
0.421528006483944
40
0.517940005403287
40
0.566146004862958
40
0.566146004862958
40
0.614352004322629
40
0.614352004322629
40
0.710764003241972
40
0.758970002701643
40
0.758970002701643
40
0.807176002161314
40
0.807176002161314
40
1
40
1
40
1
40
1
41
1
10
34.2555158601156
20
1.85169678932374
30
0
41
1
10
34.2555116671969
20
1.85165822825232
30
0
41
1
10
34.2554960859297
20
1.85042986972175
30
0
41
1
10
34.2554742133981
20
1.8433086592847
30
0
41
1
10
34.2554560956891
20
1.83277810771895
30
0
41
1
10
34.2554438735617
20
1.8246686730958
30
0
41
1
10
34.2554376927081
20
1.82006910292566
30
0
41
1
10
34.2554190342518
20
1.80471908571184
30
0
41
1
10
34.2554000888927
20
1.7862352308774
30
0
41
1
10
34.2553805869485
20
1.76306395346063
30
0
41
1
10
34.2553674430601
20
1.74656599556897
30
0
41
1
10
34.2553608026978
20
1.73779441692324
30
0
41
1
10
34.2553407317181
20
1.71002689369254
30
0
41
1
10
34.2553203181905
20
1.6793033083253
30
0
41
1
10
34.2552992012284
20
1.64415705781389
30
0
41
1
10
34.2552849416465
20
1.61973498684532
30
0
41
1
10
34.25527772551
20
1.60703525569355
30
0
41
1
10
34.2552558673672
20
1.5676254101252
30
0
41
1
10
34.2552335443748
20
1.52551870186465
30
0
41
1
10
34.2552102925697
20
1.47937608838848
30
0
41
1
10
34.2551945557969
20
1.44770967522652
30
0
41
1
10
34.2551865767925
20
1.43143816898524
30
0
41
1
10
34.2551462242876
20
1.34823020164106
30
0
41
1
10
34.2551123462234
20
1.2754930289521
30
0
41
1
10
34.2550759698114
20
1.19653411300885
30
0
0
SPLINE
5
E7
100
AcDbEntity
8
1
62
256
6
ByLayer
370
18
48
1
60
0
100
AcDbSpline
70
4
71
3
72
44
73
40
40
0
40
0
40
0
40
0
40
0.0045390565551131
40
0.0045390565551131
40
0.0533457351913023
40
0.0533457351913023
40
0.150959092463681
40
0.150959092463681
40
0.199765771099873
40
0.199765771099873
40
0.248572449736065
40
0.248572449736065
40
0.346185807008448
40
0.346185807008448
40
0.394992485644643
40
0.394992485644643
40
0.419395824962743
40
0.419395824962743
40
0.443799164280843
40
0.443799164280843
40
0.541412521553237
40
0.541412521553237
40
0.590219200189435
40
0.590219200189435
40
0.639025878825632
40
0.639025878825632
40
0.663429218143731
40
0.663429218143731
40
0.687832557461829
40
0.687832557461829
40
0.736639236098027
40
0.736639236098027
40
0.834252593370421
40
0.834252593370421
40
0.883059272006616
40
0.883059272006616
40
0.931865950642811
40
0.931865950642811
40
1
40
1
40
1
40
1
41
1
10
36.3137765289445
20
0.23705685155926
30
0
41
1
10
36.3230456590535
20
0.232300661538233
30
0
41
1
10
36.3323116179572
20
0.227543416787228
30
0
41
1
10
36.441165971906
20
0.171626415780508
30
0
41
1
10
36.5404568678086
20
0.120328559658049
30
0
41
1
10
36.837633018464
20
-0.0335684006358576
30
0
41
1
10
37.0348305931412
20
-0.136163809759211
30
0
41
1
10
37.3302174502669
20
-0.288259919698078
30
0
41
1
10
37.4286094844919
20
-0.338657172319159
30
0
41
1
10
37.6254003839067
20
-0.438511695238105
30
0
41
1
10
37.7237981403862
20
-0.487976990676913
30
0
41
1
10
38.0191643160229
20
-0.634725098389907
30
0
41
1
10
38.2163067867815
20
-0.730349566356722
30
0
41
1
10
38.5131888133314
20
-0.868858560300225
30
0
41
1
10
38.6123472616527
20
-0.914202205152094
30
0
41
1
10
38.7615181609764
20
-0.980724498259576
30
0
41
1
10
38.8113132909001
20
-1.0026509010697
30
0
41
1
10
38.9110624980604
20
-1.04597706052093
30
0
41
1
10
38.9609914444242
20
-1.06736535950017
30
0
41
1
10
39.2102723485273
20
-1.17257883201395
30
0
41
1
10
39.4091327816412
20
-1.25148007977379
30
0
41
1
10
39.7075038706964
20
-1.36082959638495
30
0
41
1
10
39.8069715733966
20
-1.39577233552905
30
0
41
1
10
40.0060471619739
20
-1.46237512102951
30
0
41
1
10
40.105659542477
20
-1.49405002868866
30
0
41
1
10
40.2553224637912
20
-1.53903654493772
30
0
41
1
10
40.305196852795
20
-1.55359039314325
30
0
41
1
10
40.404746134162
20
-1.58172220373689
30
0
41
1
10
40.4544486408943
20
-1.59530702019455
30
0
41
1
10
40.6033619769556
20
-1.63458046005326
30
0
41
1
10
40.7023813805659
20
-1.65880346731717
30
0
41
1
10
40.9988999536493
20
-1.72565558979133
30
0
41
1
10
41.1958589251387
20
-1.76246704965251
30
0
41
1
10
41.4910492043555
20
-1.80565872920724
30
0
41
1
10
41.5894053612516
20
-1.81803638831244
30
0
41
1
10
41.7862005663809
20
-1.83852904629114
30
0
41
1
10
41.8846387626926
20
-1.84666417319815
30
0
41
1
10
42.1207543447241
20
-1.86119824657794
30
0
41
1
10
42.2585198599079
20
-1.86561933564801
30
0
41
1
10
42.3966795910123
20
-1.86589154939432
30
0
0
SPLINE
5
E8
100
AcDbEntity
8
1
62
256
6
ByLayer
370
18
48
1
60
0
100
AcDbSpline
70
4
71
3
72
14
73
10
40
0
40
0
40
0
40
0
40
0.25
40
0.25
40
0.5
40
0.5
40
0.75
40
0.75
40
1
40
1
40
1
40
1
41
1
10
53.2802863646092
20
-1.8864883493948
30
0
41
1
10
53.2809812956728
20
-1.88536341558674
30
0
41
1
10
53.2816908112519
20
-1.88416865021995
30
0
41
1
10
53.2830632149185
20
-1.88173466730865
30
0
41
1
10
53.2837192017354
20
-1.88050356795426
30
0
41
1
10
53.2847631964176
20
-1.87836941715275
30
0
41
1
10
53.2851510927503
20
-1.87746358153396
30
0
41
1
10
53.285565977752
20
-1.87621989559406
30
0
41
1
10
53.2856059403998
20
-1.87586098441361
30
0
41
1
10
53.2855197076123
20
-1.87571934261194
30
0
0
SPLINE
5
E9
100
AcDbEntity
8
1
62
256
6
ByLayer
370
18
48
1
60
0
100
AcDbSpline
70
4
71
3
72
8
73
4
40
0
40
0
40
0
40
0
40
1
40
1
40
1
40
1
41
1
10
53.2271468587513
20
-1.97215869846193
30
0
41
1
10
53.2448319501495
20
-1.94376682896876
30
0
41
1
10
53.2625436346206
20
-1.91520975480898
30
0
41
1
10
53.2802863646093
20
-1.88648834939474
30
0
0
SPLINE
5
EA
100
AcDbEntity
8
1
62
256
6
ByLayer
370
18
48
1
60
0
100
AcDbSpline
70
4
71
3
72
40
73
36
40
0
40
0
40
0
40
0
40
0.0284981456363
40
0.0284981456363
40
0.0569962912726001
40
0.113992582545194
40
0.113992582545194
40
0.227985165090382
40
0.227985165090382
40
0.34197774763557
40
0.34197774763557
40
0.398974038908164
40
0.398974038908164
40
0.455970330180758
40
0.455970330180758
40
0.484468475817055
40
0.484468475817055
40
0.512966621453352
40
0.569962912725946
40
0.569962912725946
40
0.683955495271141
40
0.683955495271141
40
0.712453640907439
40
0.712453640907439
40
0.740951786543738
40
0.740951786543738
40
0.797948077816335
40
0.797948077816335
40
0.91194066036153
40
0.91194066036153
40
0.940438805997828
40
0.940438805997828
40
0.968936951634127
40
0.968936951634127
40
1
40
1
40
1
40
1
41
1
10
53.2802863668217
20
-1.88648834951113
30
0
41
1
10
53.2307393871513
20
-1.883882697237
30
0
41
1
10
53.181247141929
20
-1.88079567648904
30
0
41
1
10
53.0823762135131
20
-1.87349084923653
30
0
41
1
10
52.934229018845
20
-1.86092619471742
30
0
41
1
10
52.7864763250795
20
-1.84359348162047
30
0
41
1
10
52.4912714000855
20
-1.80269767571835
30
0
41
1
10
52.2948660059821
20
-1.7671116466289
30
0
41
1
10
51.9018419458736
20
-1.68044860295106
30
0
41
1
10
51.7052318152042
20
-1.62939104698464
30
0
41
1
10
51.4092065256771
20
-1.54177790879351
30
0
41
1
10
51.3103336609202
20
-1.51072690814897
30
0
41
1
10
51.1121732626843
20
-1.44509364942772
30
0
41
1
10
51.0129086840768
20
-1.41052316549306
30
0
41
1
10
50.8635451388779
20
-1.35610478828707
30
0
41
1
10
50.8137309834321
20
-1.33755552853572
30
0
41
1
10
50.7142198186601
20
-1.29973554969291
30
0
41
1
10
50.5650425000271
20
-1.24189399818036
30
0
41
1
10
50.4160430996161
20
-1.18087209715668
30
0
41
1
10
50.1180397496182
20
-1.05498641599763
30
0
41
1
10
49.9193544159719
20
-0.965955131789855
30
0
41
1
10
49.6703199235478
20
-0.849358485946482
30
0
41
1
10
49.6204524349741
20
-0.825760938268616
30
0
41
1
10
49.5207854858706
20
-0.778133867235425
30
0
41
1
10
49.4709903149637
20
-0.754106638518266
30
0
41
1
10
49.3216950643209
20
-0.681427393694577
30
0
41
1
10
49.2222880558681
20
-0.632172194272556
30
0
41
1
10
48.9241813267572
20
-0.482461822448187
30
0
41
1
10
48.7255855453671
20
-0.380080143133341
30
0
41
1
10
48.4767677172125
20
-0.250320606486184
30
0
41
1
10
48.426975343923
20
-0.224279245721192
30
0
41
1
10
48.3273167321516
20
-0.172047177726995
30
0
41
1
10
48.2774441863412
20
-0.145852723864437
30
0
41
1
10
48.1734522008181
20
-0.0911548500956485
30
0
41
1
10
48.1193084084011
20
-0.0626285671219762
30
0
41
1
10
48.0652413777548
20
-0.0341317377795463
30
0
0
SPLINE
5
EB
100
AcDbEntity
8
1
62
256
6
ByLayer
370
18
48
1
60
0
100
AcDbSpline
70
4
71
3
72
8
73
4
40
0
40
0
40
0
40
0
40
1
40
1
40
1
40
1
41
1
10
53.2580898886762
20
-0.219607389926949
30
0
41
1
10
53.2599906351436
20
-0.219976798907027
30
0
41
1
10
53.2610167042866
20
-0.225006466165951
30
0
41
1
10
53.2603999783123
20
-0.230815982815614
30
0
0
SPLINE
5
EC
100
AcDbEntity
8
1
62
256
6
ByLayer
370
18
48
1
60
0
100
AcDbSpline
70
4
71
3
72
43
73
39
40
0
40
0
40
0
40
0
40
0.0975229112163611
40
0.0975229112163611
40
0.195045822432722
40
0.195045822432722
40
0.292568733649084
40
0.292568733649084
40
0.341330189257262
40
0.341330189257262
40
0.39009164486544
40
0.39009164486544
40
0.414472372669531
40
0.414472372669531
40
0.438853100473623
40
0.487614556081801
40
0.487614556081801
40
0.585137467298157
40
0.585137467298157
40
0.633898922906332
40
0.633898922906332
40
0.682660378514507
40
0.682660378514507
40
0.731421834122682
40
0.731421834122682
40
0.780183289730858
40
0.780183289730858
40
0.804564017534945
40
0.804564017534945
40
0.828944745339033
40
0.828944745339033
40
0.877706200947208
40
0.877706200947208
40
0.926467656555383
40
0.926467656555383
40
0.975229112163559
40
0.975229112163559
40
1
40
1
40
1
40
1
41
1
10
53.2603999770991
20
-0.230815982177234
30
0
41
1
10
53.0634148553756
20
-0.127159258277743
30
0
41
1
10
52.8672742950089
20
-0.0233525588966756
30
0
41
1
10
52.4755526327081
20
0.182483856453985
30
0
41
1
10
52.279965402764
20
0.284505714767988
30
0
41
1
10
51.8886696637791
20
0.4852464510505
30
0
41
1
10
51.6929731626851
20
0.583986610572026
30
0
41
1
10
51.3985237749918
20
0.727997645093495
30
0
41
1
10
51.3002213889253
20
0.775315977583119
30
0
41
1
10
51.1031783306091
20
0.868288873909734
30
0
41
1
10
51.0044439345353
20
0.913941731549045
30
0
41
1
10
50.8558448405815
20
0.980940540281495
30
0
41
1
10
50.8062436100337
20
1.00301786887533
30
0
41
1
10
50.7071354906479
20
1.04652336650679
30
0
41
1
10
50.558516122911
20
1.11085517584098
30
0
41
1
10
50.409983969925
20
1.17230317296381
30
0
41
1
10
50.1129246537009
20
1.29108102803488
30
0
41
1
10
49.9148992197465
20
1.36481693659124
30
0
41
1
10
49.6173324873616
20
1.46552136141588
30
0
41
1
10
49.5179786324522
20
1.49746852430414
30
0
41
1
10
49.3199117032287
20
1.55737011545204
30
0
41
1
10
49.2211428708995
20
1.58528378732137
30
0
41
1
10
49.0234732189546
20
1.63767195652952
30
0
41
1
10
48.924511443575
20
1.66222919716407
30
0
41
1
10
48.7263673532201
20
1.70781076913596
30
0
41
1
10
48.627201508327
20
1.72883430820769
30
0
41
1
10
48.4783616788173
20
1.75729581666616
30
0
41
1
10
48.4287344403517
20
1.76626886881814
30
0
41
1
10
48.3294457563621
20
1.78312032209405
30
0
41
1
10
48.2797407185547
20
1.79100497959024
30
0
41
1
10
48.1310060603093
20
1.8128570072256
30
0
41
1
10
48.0323333939633
20
1.82493762749894
30
0
41
1
10
47.8352697806108
20
1.8452130391633
30
0
41
1
10
47.7368208869881
20
1.85352713900966
30
0
41
1
10
47.540077664526
20
1.86623229113221
30
0
41
1
10
47.4417949447137
20
1.87059900856673
30
0
41
1
10
47.2937659661293
20
1.87387562319125
30
0
41
1
10
47.2439334715976
20
1.87441180617282
30
0
41
1
10
47.194128833003
20
1.87435989803507
30
0
0
SPLINE
5
ED
100
AcDbEntity
8
1
62
256
6
ByLayer
370
13
48
1
60
0
100
AcDbSpline
70
4
71
3
72
15
73
11
40
0
40
0
40
0
40
0
40
0.194101168319837
40
0.638017289704792
40
0.638017289704792
40
0.74899632005103
40
0.74899632005103
40
0.859975350397268
40
0.859975350397268
40
1
40
1
40
1
40
1
41
1
10
34.2556481599292
20
-1.72541887804797
30
0
41
1
10
34.2556412937416
20
-1.74162500340799
30
0
41
1
10
34.2556173989374
20
-1.78977738757194
30
0
41
1
10
34.2555897477475
20
-1.82144014382132
30
0
41
1
10
34.2555637429354
20
-1.83861479216662
30
0
41
1
10
34.2555584332728
20
-1.84153022678288
30
0
41
1
10
34.255547708142
20
-1.84626100834805
30
0
41
1
10
34.2555422838547
20
-1.84808411068533
30
0
41
1
10
34.2555298805908
20
-1.85099619335281
30
0
41
1
10
34.2555228668399
20
-1.85176925010535
30
0
41
1
10
34.2555157582427
20
-1.85169579452716
30
0
0
SPLINE
5
EE
100
AcDbEntity
8
1
62
256
6
ByLayer
370
18
48
1
60
0
100
AcDbSpline
70
4
71
3
72
42
73
38
40
0
40
0
40
0
40
0
40
0.0606898076832196
40
0.0606898076832196
40
0.112873707256382
40
0.112873707256382
40
0.13896565704296
40
0.13896565704296
40
0.165057606829538
40
0.165057606829538
40
0.269425405975846
40
0.269425405975846
40
0.321609305548999
40
0.321609305548999
40
0.347701255335573
40
0.347701255335573
40
0.373793205122147
40
0.373793205122147
40
0.478161004268454
40
0.478161004268454
40
0.53034490384161
40
0.53034490384161
40
0.582528803414766
40
0.582528803414766
40
0.634712702987923
40
0.634712702987923
40
0.686896602561079
40
0.686896602561079
40
0.791264401707386
40
0.791264401707386
40
0.895632200853693
40
0.895632200853693
40
0.947816100426847
40
0.947816100426847
40
0.973908050213423
40
0.973908050213423
40
1
40
1
40
1
40
1
41
1
10
47.5796733670652
20
0.231128698558649
30
0
41
1
10
47.6942387830191
20
0.171614639882279
30
0
41
1
10
47.8089725824746
20
0.111615200552848
30
0
41
1
10
48.0228883312839
20
-0.0004787091784237
30
0
41
1
10
48.1219986339195
20
-0.0524963660599269
30
0
41
1
10
48.2711150031165
20
-0.130549979536028
30
0
41
1
10
48.3209337980021
20
-0.156594288605703
30
0
41
1
10
48.4205204841069
20
-0.208554085816729
30
0
41
1
10
48.4702765623339
20
-0.234463738719739
30
0
41
1
10
48.7189104882231
20
-0.363587789068219
30
0
41
1
10
48.9173516765618
20
-0.465534256058135
30
0
41
1
10
49.2152133066511
20
-0.614702520440829
30
0
41
1
10
49.3145354791009
20
-0.663796664732132
30
0
41
1
10
49.4636953844909
20
-0.736266917672594
30
0
41
1
10
49.5134443024746
20
-0.760229546133104
30
0
41
1
10
49.6130164193284
20
-0.807737480252968
30
0
41
1
10
49.6628477326987
20
-0.831286341282862
30
0
41
1
10
49.9117031852979
20
-0.94766850047327
30
0
41
1
10
50.1102384605364
20
-1.03661357314871
30
0
41
1
10
50.4080002330645
20
-1.16249753656706
30
0
41
1
10
50.5072494233183
20
-1.20320021990364
30
0
41
1
10
50.7058983776401
20
-1.28182377250494
30
0
41
1
10
50.8053222982694
20
-1.31975246715868
30
0
41
1
10
51.0043813913461
20
-1.39252290987216
30
0
41
1
10
51.1036926997025
20
-1.42725292767153
30
0
41
1
10
51.3021292624547
20
-1.49330507529908
30
0
41
1
10
51.4012354606058
20
-1.52461684386708
30
0
41
1
10
51.6982520024421
20
-1.61311541125337
30
0
41
1
10
51.8959029785602
20
-1.66489866222341
30
0
41
1
10
52.2917705054579
20
-1.7530976149969
30
0
41
1
10
52.4899804631544
20
-1.78949642361007
30
0
41
1
10
52.7885135981179
20
-1.83150351182613
30
0
41
1
10
52.8879952500342
20
-1.8433756233004
30
0
41
1
10
53.0370872277287
20
-1.85793846995085
30
0
41
1
10
53.0867736328816
20
-1.86225332186626
30
0
41
1
10
53.1861435089984
20
-1.86979956362489
30
0
41
1
10
53.2358133792259
20
-1.87300027523895
30
0
41
1
10
53.2855197076151
20
-1.87571934261212
30
0
0
SPLINE
5
EF
100
AcDbEntity
8
1
62
256
6
ByLayer
370
18
48
1
60
0
100
AcDbSpline
70
4
71
3
72
8
73
4
40
0
40
0
40
0
40
0
40
1
40
1
40
1
40
1
41
1
10
53.2855197076125
20
-1.87571934261209
30
0
41
1
10
53.28518514123
20
-1.87516980007058
30
0
41
1
10
53.2848507188072
20
-1.87459679625954
30
0
41
1
10
53.2845164326216
20
-1.87400035980761
30
0
0
SPLINE
5
F0
100
AcDbEntity
8
1
62
256
6
ByLayer
370
18
48
1
60
0
100
AcDbSpline
70
4
71
3
72
44
73
40
40
0
40
0
40
0
40
0
40
0.0625000000000002
40
0.0625000000000002
40
0.0937499999999996
40
0.0937499999999996
40
0.124999999999999
40
0.124999999999999
40
0.187499999999999
40
0.187499999999999
40
0.218749999999999
40
0.218749999999999
40
0.249999999999999
40
0.249999999999999
40
0.374999999999999
40
0.374999999999999
40
0.437499999999999
40
0.437499999999999
40
0.468749999999999
40
0.468749999999999
40
0.499999999999998
40
0.499999999999998
40
0.562499999999998
40
0.562499999999998
40
0.593749999999997
40
0.593749999999997
40
0.624999999999997
40
0.624999999999997
40
0.687499999999996
40
0.687499999999996
40
0.718749999999996
40
0.718749999999996
40
0.749999999999996
40
0.749999999999996
40
0.812499999999997
40
0.812499999999997
40
0.874999999999997
40
0.874999999999997
40
1
40
1
40
1
40
1
41
1
10
53.2603999783687
20
-0.230815982285122
30
0
41
1
10
53.2548624746379
20
-0.282978890015215
30
0
41
1
10
53.2500213619776
20
-0.334765009018014
30
0
41
1
10
53.2436355640698
20
-0.41186642251057
30
0
41
1
10
53.2416532485727
20
-0.437470493712738
30
0
41
1
10
53.2379564785955
20
-0.488482428243401
30
0
41
1
10
53.2362403500108
20
-0.513917678924201
30
0
41
1
10
53.2314726331266
20
-0.589714676865952
30
0
41
1
10
53.228804259577
20
-0.63948438383369
30
0
41
1
10
53.2254228014761
20
-0.712995974979975
30
0
41
1
10
53.2243995229984
20
-0.737309111462338
30
0
41
1
10
53.2225407570755
20
-0.785551022524743
30
0
41
1
10
53.2217040379144
20
-0.809521722627693
30
0
41
1
10
53.2179651735501
20
-0.927778424531795
30
0
41
1
10
53.2163585639496
20
-1.01730755121062
30
0
41
1
10
53.2153087837546
20
-1.14423186633437
30
0
41
1
10
53.2151918203061
20
-1.18530526002644
30
0
41
1
10
53.2153292260501
20
-1.24503620070675
30
0
41
1
10
53.2154275210601
20
-1.26463292319201
30
0
41
1
10
53.215727304759
20
-1.30318963647656
30
0
41
1
10
53.2159293035828
20
-1.32218198711149
30
0
41
1
10
53.2166872969806
20
-1.37787793102368
30
0
41
1
10
53.2173930051285
20
-1.41332616426044
30
0
41
1
10
53.2187673300713
20
-1.46399156174488
30
0
41
1
10
53.2192784416781
20
-1.48046164703402
30
0
41
1
10
53.2204137742687
20
-1.51256116835094
30
0
41
1
10
53.2210388177719
20
-1.52820677499972
30
0
41
1
10
53.2230902798176
20
-1.57368974354242
30
0
41
1
10
53.2246922199981
20
-1.60211290194252
30
0
41
1
10
53.2275192218438
20
-1.64191690375748
30
0
41
1
10
53.2285325929468
20
-1.65471249292611
30
0
41
1
10
53.2307179437682
20
-1.67935430539345
30
0
41
1
10
53.2318913266936
20
-1.69121104411374
30
0
41
1
10
53.2356606909664
20
-1.72519168048859
30
0
41
1
10
53.2385077327622
20
-1.74577494668657
30
0
41
1
10
53.245028200378
20
-1.78283626060824
30
0
41
1
10
53.2487056121255
20
-1.79932840268546
30
0
41
1
10
53.2612527437633
20
-1.84248474227513
30
0
41
1
10
53.2715204473467
20
-1.86253504601166
30
0
41
1
10
53.2845164326216
20
-1.87400035980761
30
0
0
SPLINE
5
F1
100
AcDbEntity
8
1
62
256
6
ByLayer
370
18
48
1
60
0
100
AcDbSpline
70
4
71
3
72
8
73
4
40
0
40
0
40
0
40
0
40
1
40
1
40
1
40
1
41
1
10
53.2802863668216
20
1.88648834951113
30
0
41
1
10
53.2468917920974
20
1.88473214458901
30
0
41
1
10
53.2135220817861
20
1.88275726669519
30
0
41
1
10
53.1801778625042
20
1.88053798927439
30
0
0
SPLINE
5
F2
100
AcDbEntity
8
1
62
256
6
ByLayer
370
18
48
1
60
0
100
AcDbSpline
70
4
71
3
72
38
73
34
40
0
40
0
40
0
40
0
40
0.100489615225034
40
0.100489615225034
40
0.151499610229371
40
0.151499610229371
40
0.202509605233708
40
0.202509605233708
40
0.304529595242375
40
0.304529595242375
40
0.355539590246712
40
0.355539590246712
40
0.406549585251049
40
0.406549585251049
40
0.457559580255386
40
0.457559580255386
40
0.508569575259722
40
0.508569575259722
40
0.610589565268396
40
0.610589565268396
40
0.63609456277056
40
0.63609456277056
40
0.661599560272724
40
0.661599560272724
40
0.712609555277047
40
0.712609555277047
40
0.814629545285687
40
0.814629545285687
40
0.865639540290007
40
0.865639540290007
40
0.916649535294326
40
0.916649535294326
40
1
40
1
40
1
40
1
41
1
10
42.5691471675154
20
-1.87347110470779
30
0
41
1
10
42.3734977558893
20
-1.87862403795549
30
0
41
1
10
42.1788108941856
20
-1.87536609431945
30
0
41
1
10
41.8859041751988
20
-1.85821460610495
30
0
41
1
10
41.7873935750369
20
-1.85035576453566
30
0
41
1
10
41.5904543684536
20
-1.83038692231111
30
0
41
1
10
41.492027016086
20
-1.81825477816827
30
0
41
1
10
41.1966274456586
20
-1.7757375060896
30
0
41
1
10
40.9995311622179
20
-1.73930047410394
30
0
41
1
10
40.7028066936519
20
-1.67290720876784
30
0
41
1
10
40.6037190582869
20
-1.64881983933393
30
0
41
1
10
40.4050272254484
20
-1.59669371481147
30
0
41
1
10
40.305365145284
20
-1.5686148884264
30
0
41
1
10
40.1056386777794
20
-1.50877783701526
30
0
41
1
10
40.0059427313853
20
-1.47715327848084
30
0
41
1
10
39.8067009363139
20
-1.41061880592747
30
0
41
1
10
39.7071507262087
20
-1.37569246752869
30
0
41
1
10
39.4085365317139
20
-1.2663279053462
30
0
41
1
10
39.209517786059
20
-1.18733906884313
30
0
41
1
10
38.960039923131
20
-1.08192201079049
30
0
41
1
10
38.9100732433319
20
-1.06048875732563
30
0
41
1
10
38.8102346577512
20
-1.01705669309769
30
0
41
1
10
38.7603959820545
20
-0.995072921458302
30
0
41
1
10
38.6110970827566
20
-0.928366138006254
30
0
41
1
10
38.5118568366397
20
-0.882882902573726
30
0
41
1
10
38.2147364663151
20
-0.743909813413211
30
0
41
1
10
38.0174437394165
20
-0.647916637729537
30
0
41
1
10
37.7218657246047
20
-0.500518470993796
30
0
41
1
10
37.6233996486833
20
-0.450820387659064
30
0
41
1
10
37.4264694339232
20
-0.350479564466525
30
0
41
1
10
37.3280069533745
20
-0.299827392329178
30
0
41
1
10
37.0684744795893
20
-0.165572385595766
30
0
41
1
10
36.907292077671
20
-0.0814496801213807
30
0
41
1
10
36.7455701199997
20
0.0028523370983748
30
0
0
SPLINE
5
F3
100
AcDbEntity
8
1
62
256
6
ByLayer
370
18
48
1
60
0
100
AcDbSpline
70
4
71
3
72
44
73
40
40
0
40
0
40
0
40
0
40
0.0225759592626133
40
0.0225759592626133
40
0.0481723564157034
40
0.0481723564157034
40
0.150557945028053
40
0.150557945028053
40
0.252943533640403
40
0.252943533640403
40
0.304136327946577
40
0.304136327946577
40
0.355329122252752
40
0.355329122252752
40
0.457714710865107
40
0.457714710865107
40
0.483311108018199
40
0.483311108018199
40
0.50890750517129
40
0.50890750517129
40
0.560100299477474
40
0.560100299477474
40
0.611293093783657
40
0.611293093783657
40
0.662485888089841
40
0.662485888089841
40
0.713678682396024
40
0.713678682396024
40
0.739275079549118
40
0.739275079549118
40
0.764871476702213
40
0.764871476702213
40
0.816064271008402
40
0.816064271008402
40
0.86725706531459
40
0.86725706531459
40
0.969642653926968
40
0.969642653926968
40
1
40
1
40
1
40
1
41
1
10
35.8059543318039
20
1.86305995384851
30
0
41
1
10
35.8497525603778
20
1.86424431151951
30
0
41
1
10
35.8935737530074
20
1.8650391361281
30
0
41
1
10
35.9871712470736
20
1.86582453482549
30
0
41
1
10
36.0369474543789
20
1.86568340158681
30
0
41
1
10
36.2852410081052
20
1.86212796064314
30
0
41
1
10
36.4827320576816
20
1.85026799311572
30
0
41
1
10
36.8766748938834
20
1.80966405921495
30
0
41
1
10
37.0731061869471
20
1.78095082956082
30
0
41
1
10
37.3674866197951
20
1.726565089942
30
0
41
1
10
37.4655413234213
20
1.70657129995377
30
0
41
1
10
37.6615926823286
20
1.66300610650828
30
0
41
1
10
37.75964739712
20
1.63936302445037
30
0
41
1
10
38.0546160300371
20
1.5622143766756
30
0
41
1
10
38.2521550085288
20
1.50274614777376
30
0
41
1
10
38.4999644409819
20
1.42024641842676
30
0
41
1
10
38.5495716513992
20
1.40333121341232
30
0
41
1
10
38.6488762963401
20
1.36868092959793
30
0
41
1
10
38.6985949357876
20
1.35093729092077
30
0
41
1
10
38.8475203932789
20
1.29663748767234
30
0
41
1
10
38.9466395280139
20
1.25895871736643
30
0
41
1
10
39.1449798602041
20
1.18064158289076
30
0
41
1
10
39.2441617168259
20
1.14004086161589
30
0
41
1
10
39.4425519250884
20
1.05634978820541
30
0
41
1
10
39.5417629042409
20
1.01324916506161
30
0
41
1
10
39.7402464831615
20
0.924765199350077
30
0
41
1
10
39.8395087885091
20
0.879370975908728
30
0
41
1
10
39.9885020439404
20
0.809688453768985
30
0
41
1
10
40.0382036484847
20
0.786191021373554
30
0
41
1
10
40.1373905394966
20
0.738852833880401
30
0
41
1
10
40.1869129940156
20
0.714997207703533
30
0
41
1
10
40.3352920441747
20
0.642916331726468
30
0
41
1
10
40.4339481125107
20
0.594159375933856
30
0
41
1
10
40.6308609035081
20
0.495506577850307
30
0
41
1
10
40.7291493001735
20
0.445661861052344
30
0
41
1
10
41.0239551588808
20
0.295356088542718
30
0
41
1
10
41.2202971066187
20
0.193935576103854
30
0
41
1
10
41.4745607545292
20
0.0610332601019934
30
0
41
1
10
41.5326913387228
20
0.0305463767386129
30
0
41
1
10
41.5908244884947
20
2.9507714032E-06
30
0
0
SPLINE
5
F4
100
AcDbEntity
8
1
62
256
6
ByLayer
370
18
48
1
60
0
100
AcDbSpline
70
4
71
3
72
42
73
38
40
0
40
0
40
0
40
0
40
0.0234464487714602
40
0.0234464487714602
40
0.0731210829343125
40
0.0731210829343125
40
0.172470351260011
40
0.172470351260011
40
0.22214498542286
40
0.22214498542286
40
0.246982302504281
40
0.246982302504281
40
0.271819619585703
40
0.271819619585703
40
0.321494253748547
40
0.321494253748547
40
0.37116888791139
40
0.37116888791139
40
0.420843522074234
40
0.420843522074234
40
0.470518156237077
40
0.470518156237077
40
0.56986742456277
40
0.56986742456277
40
0.619542058725619
40
0.619542058725619
40
0.669216692888468
40
0.669216692888468
40
0.718891327051317
40
0.718891327051317
40
0.768565961214167
40
0.768565961214167
40
0.867915229539859
40
0.867915229539859
40
0.967264497865552
40
0.967264497865552
40
1
40
1
40
1
40
1
41
1
10
46.9039912911446
20
1.8762261304596
30
0
41
1
10
46.9501525223368
20
1.87859439622253
30
0
41
1
10
46.9963136535513
20
1.88047414866773
30
0
41
1
10
47.1403436884468
20
1.88462511818687
30
0
41
1
10
47.2382714366688
20
1.88507716133935
30
0
41
1
10
47.5324514243
20
1.87979161267322
30
0
41
1
10
47.7290372318245
20
1.86745534909935
30
0
41
1
10
48.0243136916253
20
1.83810545998009
30
0
41
1
10
48.1228672058208
20
1.82640686510194
30
0
41
1
10
48.2714208509445
20
1.80512500033026
30
0
41
1
10
48.3210812356756
20
1.79742338601429
30
0
41
1
10
48.4202945181492
20
1.78092365382031
30
0
41
1
10
48.4698829389223
20
1.77212104577109
30
0
41
1
10
48.6186057528055
20
1.74415208422323
30
0
41
1
10
48.7176920018427
20
1.72343023319576
30
0
41
1
10
48.9156741343461
20
1.67840559347644
30
0
41
1
10
49.0145571425573
20
1.65409776114444
30
0
41
1
10
49.2120508034377
20
1.60219971599247
30
0
41
1
10
49.3107171709717
20
1.5745498491363
30
0
41
1
10
49.5085734709666
20
1.51516041610879
30
0
41
1
10
49.6078330831192
20
1.48344153093555
30
0
41
1
10
49.9051723344627
20
1.3833339122516
30
0
41
1
10
50.1030329970763
20
1.30991418146351
30
0
41
1
10
50.3998281778559
20
1.19149355365104
30
0
41
1
10
50.4987592803755
20
1.15062985795052
30
0
41
1
10
50.6966943405077
20
1.06630244687039
30
0
41
1
10
50.7957493912317
20
1.02281291303322
30
0
41
1
10
50.9937876568617
20
0.933528542774724
30
0
41
1
10
51.0925182210151
20
0.887863148492499
30
0
41
1
10
51.289664359876
20
0.794766449184181
30
0
41
1
10
51.3880714465563
20
0.747334678215566
30
0
41
1
10
51.6829895451463
20
0.602834372925173
30
0
41
1
10
51.8792042655296
20
0.503568344198072
30
0
41
1
10
52.2719549923873
20
0.30137436854173
30
0
41
1
10
52.4684813524827
20
0.198428205096462
30
0
41
1
10
52.7303988980179
20
0.0601235575849444
30
0
41
1
10
52.795363885866
20
0.0257295057396618
30
0
41
1
10
52.8604027062472
20
-0.0087431875564903
30
0
0
SPLINE
5
F5
100
AcDbEntity
8
1
62
256
6
ByLayer
370
18
48
1
60
0
100
AcDbSpline
70
4
71
3
72
8
73
4
40
0
40
0
40
0
40
0
40
1
40
1
40
1
40
1
41
1
10
53.2271291131668
20
-0.212824053748818
30
0
41
1
10
53.2374331617877
20
-0.21533755297844
30
0
41
1
10
53.2477511826059
20
-0.217598068362889
30
0
41
1
10
53.2580898886762
20
-0.219607389926949
30
0
0
SPLINE
5
F6
100
AcDbEntity
8
1
62
256
6
ByLayer
370
18
48
1
60
0
100
AcDbSpline
70
4
71
3
72
85
73
81
40
0
40
0
40
0
40
0
40
0.0469550374131313
40
0.0469550374131313
40
0.0709975444020392
40
0.0709975444020392
40
0.095040051390947
40
0.095040051390947
40
0.107061304885401
40
0.107061304885401
40
0.119082558379855
40
0.119082558379855
40
0.143125065368765
40
0.143125065368765
40
0.191210079346589
40
0.191210079346589
40
0.2152525863355
40
0.2152525863355
40
0.239295093324412
40
0.239295093324412
40
0.287380107302236
40
0.287380107302236
40
0.299401360796691
40
0.299401360796691
40
0.311422614291146
40
0.311422614291146
40
0.335465121280056
40
0.335465121280056
40
0.359507628268967
40
0.359507628268967
40
0.383550135257877
40
0.383550135257877
40
0.407592642246787
40
0.407592642246787
40
0.431635149235698
40
0.431635149235698
40
0.455677656224608
40
0.455677656224608
40
0.479720163213519
40
0.479720163213519
40
0.503762670202429
40
0.503762670202429
40
0.515783923696883
40
0.515783923696883
40
0.527805177191337
40
0.551847684180247
40
0.551847684180247
40
0.575890191169158
40
0.575890191169158
40
0.599932698158068
40
0.599932698158068
40
0.623975205146978
40
0.623975205146978
40
0.672060219124802
40
0.672060219124802
40
0.696102726113715
40
0.696102726113715
40
0.720145233102628
40
0.720145233102628
40
0.744187740091541
40
0.744187740091541
40
0.768230247080453
40
0.768230247080453
40
0.81631526105828
40
0.81631526105828
40
0.864400275036106
40
0.864400275036106
40
0.888442782025017
40
0.888442782025017
40
0.912485289013929
40
0.912485289013929
40
0.924506542508384
40
0.924506542508384
40
0.936527796002838
40
0.936527796002838
40
0.96057030299175
40
0.96057030299175
40
0.984612809980662
40
0.984612809980662
40
1
40
1
40
1
40
1
41
1
10
34.9110049108284
20
1.86802961359785
30
0
41
1
10
35.1041816068238
20
1.89871679110368
30
0
41
1
10
35.2972828337623
20
1.92120847453259
30
0
41
1
10
35.5894746239376
20
1.94267918056929
30
0
41
1
10
35.6884297428071
20
1.94777522237257
30
0
41
1
10
35.8864820475723
20
1.95348543963288
30
0
41
1
10
35.9856279660116
20
1.95408890467621
30
0
41
1
10
36.1347983084957
20
1.95157591336789
30
0
41
1
10
36.1846030757754
20
1.95016780200319
30
0
41
1
10
36.2839780924612
20
1.94623182651526
30
0
41
1
10
36.3335968465158
20
1.94370361237696
30
0
41
1
10
36.482275615584
20
1.93446311004297
30
0
41
1
10
36.5811603112337
20
1.9260958311788
30
0
41
1
10
36.8773207560637
20
1.89456021576382
30
0
41
1
10
37.0740804401053
20
1.86496764544285
30
0
41
1
10
37.3687729868326
20
1.80813610509097
30
0
41
1
10
37.4668983275006
20
1.78709338787022
30
0
41
1
10
37.6630673028921
20
1.74084199444434
30
0
41
1
10
37.761180138758
20
1.71568172554694
30
0
41
1
10
38.0562814728899
20
1.63474941945933
30
0
41
1
10
38.2537872320607
20
1.57338298672263
30
0
41
1
10
38.501583286876
20
1.48710058245675
30
0
41
1
10
38.5511916021916
20
1.46936572969517
30
0
41
1
10
38.6505163906476
20
1.43293276055923
30
0
41
1
10
38.7002749303722
20
1.41420845894211
30
0
41
1
10
38.8491745792119
20
1.35688797049724
30
0
41
1
10
38.9481203443908
20
1.31715105627086
30
0
41
1
10
39.1458444613199
20
1.23537329736078
30
0
41
1
10
39.2445673146175
20
1.19325740789515
30
0
41
1
10
39.4416989808189
20
1.10656158679248
30
0
41
1
10
39.5401126045001
20
1.06198792832421
30
0
41
1
10
39.736681977247
20
0.970466706093504
30
0
41
1
10
39.8348284430218
20
0.923503357390558
30
0
41
1
10
40.030970348743
20
0.827355306575015
30
0
41
1
10
40.1290018785491
20
0.778228967294524
30
0
41
1
10
40.325282761566
20
0.678374405538619
30
0
41
1
10
40.4234935797783
20
0.627581581185439
30
0
41
1
10
40.6201436886118
20
0.524400491085089
30
0
41
1
10
40.7186293160016
20
0.472092860980808
30
0
41
1
10
40.916273008124
20
0.366695739731853
30
0
41
1
10
41.0153912031635
20
0.313536263052043
30
0
41
1
10
41.1644733150055
20
0.233012427703386
30
0
41
1
10
41.2142883979794
20
0.20601227696929
30
0
41
1
10
41.313774173877
20
0.151901182124106
30
0
41
1
10
41.4627111223223
20
0.0706038569619807
30
0
41
1
10
41.6108258561887
20
-0.0109807565025051
30
0
41
1
10
41.8078144687221
20
-0.119568032497483
30
0
41
1
10
41.9061031332054
20
-0.173682008464198
30
0
41
1
10
42.1027107588752
20
-0.280746057560577
30
0
41
1
10
42.2009823600066
20
-0.33378773858584
30
0
41
1
10
42.3973844097227
20
-0.439046149375571
30
0
41
1
10
42.4955113099621
20
-0.491268734828168
30
0
41
1
10
42.7896988891011
20
-0.646645728530558
30
0
41
1
10
42.9856499294175
20
-0.748340261140982
30
0
41
1
10
43.2811769323388
20
-0.894760684257989
30
0
41
1
10
43.3799214442963
20
-0.942606167044232
30
0
41
1
10
43.5778473156906
20
-1.0364203626857
30
0
41
1
10
43.6770671889692
20
-1.08241533625326
30
0
41
1
10
43.8758272261147
20
-1.17231199871148
30
0
41
1
10
43.9748142895615
20
-1.21590343167841
30
0
41
1
10
44.1723540355921
20
-1.29988580118695
30
0
41
1
10
44.2709059105053
20
-1.34028042897953
30
0
41
1
10
44.5662820002454
20
-1.45628440691206
30
0
41
1
10
44.7627248735554
20
-1.52689928749183
30
0
41
1
10
45.1548846701587
20
-1.65452792997635
30
0
41
1
10
45.3506881110397
20
-1.71138980202565
30
0
41
1
10
45.645184853398
20
-1.78490060580489
30
0
41
1
10
45.7434875528446
20
-1.80743824810284
30
0
41
1
10
45.940621889797
20
-1.84836832965064
30
0
41
1
10
46.0394467212612
20
-1.86676829805595
30
0
41
1
10
46.1881691603184
20
-1.89119023623098
30
0
41
1
10
46.2378216929093
20
-1.89880280887741
30
0
41
1
10
46.3372807092493
20
-1.91296480094658
30
0
41
1
10
46.3869947674462
20
-1.91950025650712
30
0
41
1
10
46.5357731445792
20
-1.93743386746451
30
0
41
1
10
46.6345980680038
20
-1.9471820484604
30
0
41
1
10
46.8316014591968
20
-1.96222795439161
30
0
41
1
10
46.9298218462275
20
-1.96750399303468
30
0
41
1
10
47.0908506107131
20
-1.97245950099978
30
0
41
1
10
47.1536668994559
20
-1.9734754549481
30
0
41
1
10
47.2164697527149
20
-1.97358460765483
30
0
0
SPLINE
5
F7
100
AcDbEntity
8
1
62
256
6
ByLayer
370
18
48
1
60
0
100
AcDbSpline
70
4
71
3
72
126
73
122
40
0
40
0
40
0
40
0
40
0.0093220236228685
40
0.0093220236228685
40
0.0217846358608009
40
0.0217846358608009
40
0.0467098603366635
40
0.0467098603366635
40
0.0716350848125261
40
0.0716350848125261
40
0.0840976970504573
40
0.0840976970504573
40
0.0965603092883886
40
0.0965603092883886
40
0.121485533764251
40
0.121485533764251
40
0.133948146002181
40
0.133948146002181
40
0.146410758240111
40
0.146410758240111
40
0.158873370478042
40
0.158873370478042
40
0.171335982715972
40
0.171335982715972
40
0.196261207191834
40
0.196261207191834
40
0.208723819429766
40
0.208723819429766
40
0.221186431667697
40
0.221186431667697
40
0.24611165614356
40
0.24611165614356
40
0.271036880619422
40
0.271036880619422
40
0.283499492857353
40
0.283499492857353
40
0.295962105095285
40
0.295962105095285
40
0.320887329571145
40
0.320887329571145
40
0.333349941809075
40
0.333349941809075
40
0.345812554047005
40
0.345812554047005
40
0.358275166284935
40
0.358275166284935
40
0.370737778522865
40
0.370737778522865
40
0.395663002998726
40
0.395663002998726
40
0.408125615236655
40
0.408125615236655
40
0.420588227474584
40
0.420588227474584
40
0.445513451950442
40
0.445513451950442
40
0.4704386764263
40
0.4704386764263
40
0.482901288664229
40
0.482901288664229
40
0.495363900902158
40
0.495363900902158
40
0.507826513140087
40
0.507826513140087
40
0.520289125378016
40
0.520289125378016
40
0.545214349853877
40
0.545214349853877
40
0.570139574329737
40
0.570139574329737
40
0.595064798805597
40
0.595064798805597
40
0.607527411043527
40
0.607527411043527
40
0.619990023281457
40
0.619990023281457
40
0.64491524775732
40
0.64491524775732
40
0.65737785999525
40
0.65737785999525
40
0.66984047223318
40
0.66984047223318
40
0.68230308447111
40
0.68230308447111
40
0.694765696709041
40
0.694765696709041
40
0.719690921184901
40
0.719690921184901
40
0.732153533422831
40
0.732153533422831
40
0.744616145660761
40
0.744616145660761
40
0.769541370136621
40
0.769541370136621
40
0.794466594612482
40
0.794466594612482
40
0.806929206850412
40
0.806929206850412
40
0.819391819088342
40
0.819391819088342
40
0.8443170435642
40
0.8443170435642
40
0.85677965580213
40
0.85677965580213
40
0.869242268040061
40
0.869242268040061
40
0.881704880277991
40
0.881704880277991
40
0.894167492515921
40
0.894167492515921
40
0.919092716991781
40
0.919092716991781
40
0.93155532922971
40
0.93155532922971
40
0.944017941467639
40
0.944017941467639
40
0.968943165943495
40
0.968943165943495
40
0.993868390419351
40
0.993868390419351
40
1
40
1
40
1
40
1
41
1
10
50.7360854892003
20
-1.32111471831138
30
0
41
1
10
50.691781091956
20
-1.33927309529125
30
0
41
1
10
50.6475168774945
20
-1.35709927235158
30
0
41
1
10
50.5441813548923
20
-1.39800383055538
30
0
41
1
10
50.485189586696
20
-1.42088775450861
30
0
41
1
10
50.3085814908321
20
-1.48795023725066
30
0
41
1
10
50.191056713801
20
-1.53017949852335
30
0
41
1
10
49.9559479193174
20
-1.60919169877869
30
0
41
1
10
49.8383497093505
20
-1.64596941225139
30
0
41
1
10
49.6618446680197
20
-1.69705532177946
30
0
41
1
10
49.602991137852
20
-1.71340486674597
30
0
41
1
10
49.4854382568168
20
-1.7448998361599
30
0
41
1
10
49.4266857312806
20
-1.75999239289507
30
0
41
1
10
49.2501923118665
20
-1.80302624944798
30
0
41
1
10
49.1322870752407
20
-1.82878835607778
30
0
41
1
10
48.9547856090799
20
-1.86284346935074
30
0
41
1
10
48.8955093482574
20
-1.87343064516315
30
0
41
1
10
48.7767509461555
20
-1.89308059544177
30
0
41
1
10
48.7172531572186
20
-1.90213628801376
30
0
41
1
10
48.5981753704274
20
-1.9187658009059
30
0
41
1
10
48.538629840382
20
-1.92634365893576
30
0
41
1
10
48.419851830801
20
-1.9397971369533
30
0
41
1
10
48.3605603842613
20
-1.94569709312614
30
0
41
1
10
48.1828941352397
20
-1.96092724225343
30
0
41
1
10
48.0647097381876
20
-1.96778505468023
30
0
41
1
10
47.8876426460796
20
-1.97324539531178
30
0
41
1
10
47.8286556741171
20
-1.97426249620946
30
0
41
1
10
47.7108261418831
20
-1.9747001561386
30
0
41
1
10
47.652048005271
20
-1.97411787290542
30
0
41
1
10
47.4758283396001
20
-1.96993693154442
30
0
41
1
10
47.3584027179625
20
-1.96391700107637
30
0
41
1
10
47.1232559135822
20
-1.94556672175042
30
0
41
1
10
47.005506534303
20
-1.9332561010803
30
0
41
1
10
46.8286317039999
20
-1.91011142730557
30
0
41
1
10
46.7696672147096
20
-1.90160067458209
30
0
41
1
10
46.6517858709493
20
-1.88291664186124
30
0
41
1
10
46.5927991568214
20
-1.87277752169175
30
0
41
1
10
46.4155339692016
20
-1.84005223861882
30
0
41
1
10
46.296977051383
20
-1.81514333481095
30
0
41
1
10
46.1183044313273
20
-1.77332129096661
30
0
41
1
10
46.0585507885772
20
-1.75862002353674
30
0
41
1
10
45.9393828392604
20
-1.72786403312926
30
0
41
1
10
45.8798975212098
20
-1.71180865136762
30
0
41
1
10
45.7613235313037
20
-1.67814698242904
30
0
41
1
10
45.7021887968479
20
-1.66058120092578
30
0
41
1
10
45.5840051267952
20
-1.6242072630009
30
0
41
1
10
45.5249770878509
20
-1.60537900485809
30
0
41
1
10
45.3479994912828
20
-1.54708524832412
30
0
41
1
10
45.2301372580191
20
-1.5058353620951
30
0
41
1
10
45.0534039899435
20
-1.44060677200071
30
0
41
1
10
44.9944956303498
20
-1.41831536492413
30
0
41
1
10
44.8768334416646
20
-1.37243920541778
30
0
41
1
10
44.8181201947595
20
-1.3487967051918
30
0
41
1
10
44.6418755514884
20
-1.27634696781837
30
0
41
1
10
44.524303025761
20
-1.22593885907747
30
0
41
1
10
44.2886171486824
20
-1.12150284544899
30
0
41
1
10
44.1704653233914
20
-1.06754422916398
30
0
41
1
10
43.9928977052303
20
-0.983790099956536
30
0
41
1
10
43.9337226959496
20
-0.955284150038466
30
0
41
1
10
43.8152525854846
20
-0.897309433694431
30
0
41
1
10
43.7559185183938
20
-0.86790753831761
30
0
41
1
10
43.636997878749
20
-0.808362329486471
30
0
41
1
10
43.5773308876415
20
-0.778181102540998
30
0
41
1
10
43.4581361305099
20
-0.717386816085906
30
0
41
1
10
43.3986267604321
20
-0.686787265083012
30
0
41
1
10
43.2203148275833
20
-0.594471201195859
30
0
41
1
10
43.1016881727509
20
-0.532312386767472
30
0
41
1
10
42.8656340727847
20
-0.405475699660059
30
0
41
1
10
42.7478833722985
20
-0.341389821448416
30
0
41
1
10
42.5123708413657
20
-0.21292732779321
30
0
41
1
10
42.3946065428505
20
-0.148555982909045
30
0
41
1
10
42.2178891130887
20
-0.0519017774069255
30
0
41
1
10
42.1589639739496
20
-0.0196815355609488
30
0
41
1
10
42.0412845242527
20
0.0451536610339929
30
0
41
1
10
41.9824951244815
20
0.0777036974494933
30
0
41
1
10
41.8059107188654
20
0.175068471712848
30
0
41
1
10
41.6879841012166
20
0.239755123101929
30
0
41
1
10
41.5105060819918
20
0.335921209066896
30
0
41
1
10
41.4512461582658
20
0.367827698413578
30
0
41
1
10
41.332535066678
20
0.431361584769007
30
0
41
1
10
41.2730705475429
20
0.46296380860062
30
0
41
1
10
41.1540559970697
20
0.526089133251077
30
0
41
1
10
41.0945299852613
20
0.557715888854347
30
0
41
1
10
40.9752861729754
20
0.620449715886281
30
0
41
1
10
40.9157730258538
20
0.651481856467711
30
0
41
1
10
40.7374756357689
20
0.74344408887842
30
0
41
1
10
40.6189154871313
20
0.803208489279456
30
0
41
1
10
40.4413369085605
20
0.890298361745465
30
0
41
1
10
40.3821903426278
20
0.918907556988501
30
0
41
1
10
40.2640475359276
20
0.975386456177773
30
0
41
1
10
40.2051143779748
20
1.00335829479661
30
0
41
1
10
40.0285122037504
20
1.08609386904115
30
0
41
1
10
39.9108779949958
20
1.13942031398386
30
0
41
1
10
39.6753961768264
20
1.24183880992251
30
0
41
1
10
39.5575211349075
20
1.29089804612556
30
0
41
1
10
39.3805115236509
20
1.36129469909233
30
0
41
1
10
39.321500749518
20
1.38426289306875
30
0
41
1
10
39.2035714006539
20
1.42932383390587
30
0
41
1
10
39.1445807732427
20
1.45131988104936
30
0
41
1
10
38.9673296960497
20
1.51543948668365
30
0
41
1
10
38.8488293020494
20
1.55574546523059
30
0
41
1
10
38.6703095491396
20
1.61222258402557
30
0
41
1
10
38.610676485024
20
1.63038764199834
30
0
41
1
10
38.4911743458565
20
1.66540943750073
30
0
41
1
10
38.4313811933462
20
1.68222468235084
30
0
41
1
10
38.3123361992176
20
1.71454757827777
30
0
41
1
10
38.2529887620145
20
1.73003318736906
30
0
41
1
10
38.134399427346
20
1.75943239153648
30
0
41
1
10
38.0751804739739
20
1.773369264217
30
0
41
1
10
37.8976645640062
20
1.81285634527831
30
0
41
1
10
37.7794895340917
20
1.83607254461592
30
0
41
1
10
37.6023473551805
20
1.86627302255937
30
0
41
1
10
37.5433137836015
20
1.87556740105077
30
0
41
1
10
37.4254141077356
20
1.89268224932789
30
0
41
1
10
37.3665972377757
20
1.9005208164792
30
0
41
1
10
37.1900887318193
20
1.92163813845133
30
0
41
1
10
37.0723873970288
20
1.93255080681897
30
0
41
1
10
36.8365350750781
20
1.94799271945362
30
0
41
1
10
36.7183467355303
20
1.9525297543544
30
0
41
1
10
36.5708518482411
20
1.95422695591333
30
0
41
1
10
36.5417379610952
20
1.95436808982811
30
0
41
1
10
36.5126208709664
20
1.95431413471803
30
0
0
SPLINE
5
F8
100
AcDbEntity
8
1
62
256
6
ByLayer
370
18
48
1
60
0
100
AcDbSpline
70
4
71
3
72
127
73
123
40
0
40
0
40
0
40
0
40
0.018960772406756
40
0.018960772406756
40
0.0445834018898777
40
0.0445834018898777
40
0.0573947166314386
40
0.0573947166314386
40
0.0702060313729995
40
0.0702060313729995
40
0.0958286608561194
40
0.0958286608561194
40
0.108639975597679
40
0.108639975597679
40
0.121451290339239
40
0.121451290339239
40
0.134262605080799
40
0.134262605080799
40
0.147073919822358
40
0.147073919822358
40
0.159885234563918
40
0.159885234563918
40
0.172696549305478
40
0.172696549305478
40
0.185507864047038
40
0.185507864047038
40
0.198319178788598
40
0.198319178788598
40
0.223941808271717
40
0.223941808271717
40
0.249564437754837
40
0.249564437754837
40
0.262375752496396
40
0.262375752496396
40
0.275187067237955
40
0.275187067237955
40
0.300809696721075
40
0.300809696721075
40
0.313621011462634
40
0.313621011462634
40
0.326432326204194
40
0.326432326204194
40
0.339243640945754
40
0.339243640945754
40
0.352054955687314
40
0.352054955687314
40
0.377677585170433
40
0.377677585170433
40
0.390488899911992
40
0.390488899911992
40
0.403300214653551
40
0.403300214653551
40
0.428922844136669
40
0.428922844136669
40
0.441734158878228
40
0.441734158878228
40
0.454545473619787
40
0.454545473619787
40
0.467356788361346
40
0.467356788361346
40
0.480168103102905
40
0.480168103102905
40
0.505790732586024
40
0.505790732586024
40
0.518602047327583
40
0.518602047327583
40
0.531413362069143
40
0.531413362069143
40
0.557035991552264
40
0.557035991552264
40
0.582658621035384
40
0.582658621035384
40
0.595469935776945
40
0.595469935776945
40
0.608281250518505
40
0.608281250518505
40
0.633903880001625
40
0.633903880001625
40
0.646715194743186
40
0.646715194743186
40
0.659526509484745
40
0.659526509484745
40
0.672337824226305
40
0.672337824226305
40
0.685149138967865
40
0.697960453709425
40
0.697960453709425
40
0.710771768450984
40
0.710771768450984
40
0.723583083192544
40
0.723583083192544
40
0.736394397934104
40
0.736394397934104
40
0.762017027417224
40
0.762017027417224
40
0.787639656900345
40
0.787639656900345
40
0.800450971641905
40
0.800450971641905
40
0.813262286383465
40
0.813262286383465
40
0.838884915866586
40
0.838884915866586
40
0.864507545349707
40
0.864507545349707
40
0.890130174832828
40
0.890130174832828
40
0.902941489574387
40
0.902941489574387
40
0.915752804315947
40
0.915752804315947
40
0.928564119057507
40
0.928564119057507
40
0.941375433799067
40
0.941375433799067
40
0.966998063282185
40
0.966998063282185
40
0.979809378023744
40
0.979809378023744
40
0.992620692765303
40
0.992620692765303
40
1
40
1
40
1
40
1
41
1
10
27.9723098360819
20
-1.4181080685544
30
0
41
1
10
27.8844542991325
20
-1.45067090295117
30
0
41
1
10
27.7967670634633
20
-1.48184668770898
30
0
41
1
10
27.5907167467243
20
-1.55162285745351
30
0
41
1
10
27.4723927356357
20
-1.5889879766095
30
0
41
1
10
27.2950085840018
20
-1.64098169747791
30
0
41
1
10
27.235894135754
20
-1.65763572133753
30
0
41
1
10
27.1179048977496
20
-1.68977768460431
30
0
41
1
10
27.0589795010047
20
-1.7052115168745
30
0
41
1
10
26.8820717099725
20
-1.74928404667654
30
0
41
1
10
26.7640374796786
20
-1.77577033601258
30
0
41
1
10
26.5865630941274
20
-1.81098543558474
30
0
41
1
10
26.5273322672959
20
-1.82197137734593
30
0
41
1
10
26.40874109339
20
-1.84245231397074
30
0
41
1
10
26.3493647622022
20
-1.85193951595636
30
0
41
1
10
26.2306122786749
20
-1.86947891468768
30
0
41
1
10
26.1712731808968
20
-1.8775439780897
30
0
41
1
10
26.052348839153
20
-1.89207499583452
30
0
41
1
10
25.9927841964243
20
-1.89855398579243
30
0
41
1
10
25.8733948242631
20
-1.90991116784107
30
0
41
1
10
25.8134902309674
20
-1.91479397330232
30
0
41
1
10
25.6938257620436
20
-1.92291436380481
30
0
41
1
10
25.6340756979378
20
-1.92615315314933
30
0
41
1
10
25.5147362629466
20
-1.93101928065064
30
0
41
1
10
25.4551407054428
20
-1.93264701581413
30
0
41
1
10
25.3361814137065
20
-1.93431096654123
30
0
41
1
10
25.2768859157747
20
-1.93434618448984
30
0
41
1
10
25.0992200971445
20
-1.93202608001764
30
0
41
1
10
24.9809888063852
20
-1.92725583090333
30
0
41
1
10
24.744540140881
20
-1.91147178965395
30
0
41
1
10
24.626291236458
20
-1.9004793427581
30
0
41
1
10
24.4489271232149
20
-1.87939339010467
30
0
41
1
10
24.389854940891
20
-1.87157749567882
30
0
41
1
10
24.271831122697
20
-1.8543240746603
30
0
41
1
10
24.2128085831935
20
-1.84492021846836
30
0
41
1
10
24.0355654467211
20
-1.81445634851318
30
0
41
1
10
23.9171859559158
20
-1.79113512949746
30
0
41
1
10
23.739033588388
20
-1.75184803615531
30
0
41
1
10
23.67955627789
20
-1.73803327419478
30
0
41
1
10
23.560436267438
20
-1.70894364786628
30
0
41
1
10
23.5007880141019
20
-1.6936766587128
30
0
41
1
10
23.3815108736426
20
-1.66147018359609
30
0
41
1
10
23.3218216397986
20
-1.64458282770479
30
0
41
1
10
23.2021365919325
20
-1.60942738013028
30
0
41
1
10
23.1423329610715
20
-1.59119038143464
30
0
41
1
10
22.9632496405189
20
-1.53471589323431
30
0
41
1
10
22.8441474404267
20
-1.49470791095291
30
0
41
1
10
22.6658217887504
20
-1.43138349581085
30
0
41
1
10
22.6064245141672
20
-1.40973753466963
30
0
41
1
10
22.4879152949213
20
-1.36510876189126
30
0
41
1
10
22.4288137170343
20
-1.34210728942628
30
0
41
1
10
22.2515049368014
20
-1.27166279417926
30
0
41
1
10
22.1333884836944
20
-1.2226560758161
30
0
41
1
10
21.9560583156618
20
-1.14655595634883
30
0
41
1
10
21.8969193859264
20
-1.12076297448576
30
0
41
1
10
21.7785888398138
20
-1.06832425959291
30
0
41
1
10
21.7193887301418
20
-1.04169265813488
30
0
41
1
10
21.6010197466813
20
-0.987439511040691
30
0
41
1
10
21.5419185345129
20
-0.959705391987853
30
0
41
1
10
21.4236255476689
20
-0.903422085663266
30
0
41
1
10
21.3644238093588
20
-0.874891464780404
30
0
41
1
10
21.1865740852869
20
-0.788266854259007
30
0
41
1
10
21.0676644397948
20
-0.729169940141873
30
0
41
1
10
20.8885770913846
20
-0.638885024551428
30
0
41
1
10
20.8287668187716
20
-0.608506582787015
30
0
41
1
10
20.7089519604105
20
-0.547108767916825
30
0
41
1
10
20.6489561720784
20
-0.515961757561257
30
0
41
1
10
20.469689894564
20
-0.421839879984276
30
0
41
1
10
20.3505994118393
20
-0.358551812009551
30
0
41
1
10
20.1127853388821
20
-0.23179539868039
30
0
41
1
10
19.9940391096547
20
-0.168369471693808
30
0
41
1
10
19.8161548973094
20
-0.0731607148036915
30
0
41
1
10
19.756914586083
20
-0.0413836169392141
30
0
41
1
10
19.6387015690953
20
0.0225528188590545
30
0
41
1
10
19.5796561326645
20
0.0545732893508841
30
0
41
1
10
19.4024563031972
20
0.150322933482954
30
0
41
1
10
19.2842923353465
20
0.213843013056561
30
0
41
1
10
19.1067272276194
20
0.308144159227624
30
0
41
1
10
19.0474858598262
20
0.339415215810561
30
0
41
1
10
18.9289185809821
20
0.40167270846365
30
0
41
1
10
18.8695739151395
20
0.432624256366808
30
0
41
1
10
18.7509770111127
20
0.49457159705122
30
0
41
1
10
18.691713818494
20
0.525546296209825
30
0
41
1
10
18.5729660000253
20
0.586952131591545
30
0
41
1
10
18.4540491664622
20
0.647912409657351
30
0
41
1
10
18.3346822393529
20
0.707773519365617
30
0
41
1
10
18.2150506366928
20
0.767011952577747
30
0
41
1
10
18.1550392209981
20
0.796338902998912
30
0
41
1
10
18.0350232067649
20
0.854239510115804
30
0
41
1
10
17.9751064203457
20
0.88274357321481
30
0
41
1
10
17.8555880730627
20
0.939102646336039
30
0
41
1
10
17.796043441992
20
0.967052168918229
30
0
41
1
10
17.617594832942
20
1.04940761286898
30
0
41
1
10
17.4989109541259
20
1.10238926002344
30
0
41
1
10
17.2616980871567
20
1.203984359184
30
0
41
1
10
17.1431283489928
20
1.25254827077128
30
0
41
1
10
16.9654632614949
20
1.32229523937346
30
0
41
1
10
16.9063471308564
20
1.34512801696493
30
0
41
1
10
16.7881955020109
20
1.38975739433872
30
0
41
1
10
16.7291126028287
20
1.41149152412973
30
0
41
1
10
16.5517582348127
20
1.47484964207501
30
0
41
1
10
16.4333700490539
20
1.51461498556972
30
0
41
1
10
16.1959790288974
20
1.58888268963017
30
0
41
1
10
16.0769386964451
20
1.62336878063945
30
0
41
1
10
15.8389591747987
20
1.6877331390219
30
0
41
1
10
15.7196811123186
20
1.71724195550158
30
0
41
1
10
15.5398712826874
20
1.75703640845933
30
0
41
1
10
15.4798273687394
20
1.76955627544419
30
0
41
1
10
15.3600448259328
20
1.79298005397192
30
0
41
1
10
15.3002312278234
20
1.80390375679846
30
0
41
1
10
15.180779118866
20
1.82421402860081
30
0
41
1
10
15.1211283825531
20
1.83359607171985
30
0
41
1
10
15.002197932883
20
1.85092712523868
30
0
41
1
10
14.9428692179142
20
1.85884216833952
30
0
41
1
10
14.7649417147606
20
1.88016885787968
30
0
41
1
10
14.6464839701349
20
1.89120784899723
30
0
41
1
10
14.4687553043244
20
1.9030229850309
30
0
41
1
10
14.4095031885516
20
1.90617199324498
30
0
41
1
10
14.290998582297
20
1.91090912761601
30
0
41
1
10
14.2317294419637
20
1.9124971368058
30
0
41
1
10
14.1384297997177
20
1.91377215859498
30
0
41
1
10
14.1043658399529
20
1.91397781037367
30
0
41
1
10
14.0703058896483
20
1.91392035876859
30
0
0
SPLINE
5
F9
100
AcDbEntity
8
1
62
256
6
ByLayer
370
18
48
1
60
0
100
AcDbSpline
70
4
71
3
72
39
73
35
40
0
40
0
40
0
40
0
40
0.0463869815630037
40
0.0463869815630037
40
0.139814372827032
40
0.139814372827032
40
0.233241764091061
40
0.233241764091061
40
0.326669155355089
40
0.326669155355089
40
0.373382850987108
40
0.373382850987108
40
0.385061274895113
40
0.385061274895113
40
0.390900486849111
40
0.390900486849111
40
0.396739698803108
40
0.396739698803108
40
0.408418122711114
40
0.408418122711114
40
0.420096546619119
40
0.420096546619119
40
0.443453394435119
40
0.443453394435119
40
0.455131818343119
40
0.455131818343119
40
0.466810242251119
40
0.513523937883108
40
0.513523937883108
40
0.700378720411035
40
0.700378720411035
40
0.887233502938962
40
0.887233502938962
40
1
40
1
40
1
40
1
41
1
10
6.50989390381369
20
-1.90031198013381
30
0
41
1
10
6.53205691428886
20
-1.90032341987708
30
0
41
1
10
6.55451542930771
20
-1.90005703980586
30
0
41
1
10
6.62300596101605
20
-1.89851454180277
30
0
41
1
10
6.66985055416879
20
-1.89648551263201
30
0
41
1
10
6.76535019514955
20
-1.89079640760332
30
0
41
1
10
6.81404457722712
20
-1.88713140658194
30
0
41
1
10
6.91282866237182
20
-1.87844753270738
30
0
41
1
10
6.96280701771101
20
-1.8734392009118
30
0
41
1
10
7.03853309746981
20
-1.86509154660959
30
0
41
1
10
7.06390193403954
20
-1.86216928032638
30
0
41
1
10
7.0957613242721
20
-1.85835562145763
30
0
41
1
10
7.10213983304001
20
-1.85758456164558
30
0
41
1
10
7.11172067852254
20
-1.8564168870833
30
0
41
1
10
7.11491370364357
20
-1.85602068712444
30
0
41
1
10
7.12148427647421
20
-1.85531336096264
30
0
41
1
10
7.12483050291144
20
-1.85498810653925
30
0
41
1
10
7.13508005917885
20
-1.85411481373936
30
0
41
1
10
7.14225019269446
20
-1.85373226106992
30
0
41
1
10
7.15660824424131
20
-1.85323436347829
30
0
41
1
10
7.16391577529251
20
-1.85315831536408
30
0
41
1
10
7.18595013818199
20
-1.85326983459962
30
0
41
1
10
7.2002407299133
20
-1.85384558409862
30
0
41
1
10
7.22123241603089
20
-1.85523961570158
30
0
41
1
10
7.22815134722683
20
-1.85579060639253
30
0
41
1
10
7.24192382756601
20
-1.85689519103531
30
0
41
1
10
7.27633376799363
20
-1.85964543590396
30
0
41
1
10
7.3106482704039
20
-1.86233053297317
30
0
41
1
10
7.44757973936541
20
-1.8728194064681
30
0
41
1
10
7.55605386193801
20
-1.88040392297108
30
0
41
1
10
7.77081034441292
20
-1.89279868181873
30
0
41
1
10
7.8771787759211
20
-1.89760731445151
30
0
41
1
10
8.04587695166481
20
-1.90215014601222
30
0
41
1
10
8.10896675083572
20
-1.90314134291262
30
0
41
1
10
8.17170652014474
20
-1.90330084600839
30
0
0
SPLINE
5
FA
100
AcDbEntity
8
1
62
256
6
ByLayer
370
18
48
1
60
0
100
AcDbSpline
70
4
71
3
72
67
73
63
40
0
40
0
40
0
40
0
40
0.0331902155856098
40
0.0331902155856098
40
0.0912150503241649
40
0.0912150503241649
40
0.120227467693443
40
0.120227467693443
40
0.134733676378081
40
0.134733676378081
40
0.149239885062719
40
0.149239885062719
40
0.207264719801272
40
0.207264719801272
40
0.236277137170549
40
0.236277137170549
40
0.265289554539826
40
0.265289554539826
40
0.294301971909103
40
0.294301971909103
40
0.308808180593741
40
0.308808180593741
40
0.31606128493606
40
0.31606128493606
40
0.323314389278379
40
0.323314389278379
40
0.381339224016935
40
0.381339224016935
40
0.439364058755492
40
0.439364058755492
40
0.497388893494048
40
0.497388893494048
40
0.511895102178688
40
0.511895102178688
40
0.526401310863327
40
0.526401310863327
40
0.555413728232607
40
0.555413728232607
40
0.613438562971166
40
0.613438562971166
40
0.642450980340445
40
0.642450980340445
40
0.671463397709725
40
0.671463397709725
40
0.685969606394365
40
0.685969606394365
40
0.693222710736684
40
0.693222710736684
40
0.700475815079004
40
0.72948823244828
40
0.72948823244828
40
0.787513067186832
40
0.787513067186832
40
0.845537901925384
40
0.845537901925384
40
0.87455031929466
40
0.87455031929466
40
0.903562736663935
40
0.903562736663935
40
0.961587571402485
40
0.961587571402485
40
1
40
1
40
1
40
1
41
1
10
16.7395090254003
20
1.40613773977327
30
0
41
1
10
16.8934594741005
20
1.46251500984388
30
0
41
1
10
17.0470447993338
20
1.51487006669421
30
0
41
1
10
17.4688593860113
20
1.64691514586937
30
0
41
1
10
17.7369050454114
20
1.71770156095607
30
0
41
1
10
18.1408825927624
20
1.80166119556131
30
0
41
1
10
18.2758186802218
20
1.82597492501299
30
0
41
1
10
18.4790028030986
20
1.85659304900094
30
0
41
1
10
18.5468554003347
20
1.86582746558426
30
0
41
1
10
18.6828634392885
20
1.88230276686082
30
0
41
1
10
18.7507731403402
20
1.88951276509135
30
0
41
1
10
19.0895412900983
20
1.92038748517976
30
0
41
1
10
19.3584234002036
20
1.92859844372154
30
0
41
1
10
19.7609622336915
20
1.91658972419205
30
0
41
1
10
19.8950238432406
20
1.90854211675335
30
0
41
1
10
20.163185417914
20
1.88442174322631
30
0
41
1
10
20.2973060477422
20
1.86835108160704
30
0
41
1
10
20.5660343131808
20
1.82830568260994
30
0
41
1
10
20.700645007053
20
1.80433457411851
30
0
41
1
10
20.9031998640919
20
1.76253712284904
30
0
41
1
10
20.9708193504381
20
1.74762697379794
30
0
41
1
10
21.0724390238101
20
1.72380652669835
30
0
41
1
10
21.1063444776139
20
1.71562425345891
30
0
41
1
10
21.1742289768226
20
1.69878031819485
30
0
41
1
10
21.20823398235
20
1.69011248309584
30
0
41
1
10
21.5139110660432
20
1.61014768470076
30
0
41
1
10
21.7832675634014
20
1.52514094027438
30
0
41
1
10
22.3201902199499
20
1.33132969127124
30
0
41
1
10
22.5878712547688
20
1.22267630060787
30
0
41
1
10
23.1244257683942
20
0.985798082708328
30
0
41
1
10
23.3933616937291
20
0.857657671093591
30
0
41
1
10
23.7323001959425
20
0.688228944549252
30
0
41
1
10
23.8003127764631
20
0.653819332319017
30
0
41
1
10
23.935940620559
20
0.584502343166662
30
0
41
1
10
24.0036113137126
20
0.549578310194818
30
0
41
1
10
24.2062782400472
20
0.444169440951271
30
0
41
1
10
24.3409100497523
20
0.373011362478394
30
0
41
1
10
24.7440050328335
20
0.158086837527634
30
0
41
1
10
25.0115461855219
20
0.0126401834748435
30
0
41
1
10
25.4134948839885
20
-0.20420004329668
30
0
41
1
10
25.5475914903603
20
-0.276244280870543
30
0
41
1
10
25.8162919152796
20
-0.419332085988032
30
0
41
1
10
25.9509237678856
20
-0.490322688961072
30
0
41
1
10
26.1535998171997
20
-0.595400723763703
30
0
41
1
10
26.2212790083791
20
-0.630193733822665
30
0
41
1
10
26.323019335713
20
-0.681956698886836
30
0
41
1
10
26.3569943449382
20
-0.699152012173727
30
0
41
1
10
26.4248511563574
20
-0.733304907560864
30
0
41
1
10
26.5943071882836
20
-0.818116639341241
30
0
41
1
10
26.7628629512101
20
-0.900038418497076
30
0
41
1
10
27.1663990298532
20
-1.08998282059466
30
0
41
1
10
27.4340501012278
20
-1.20780755289181
30
0
41
1
10
27.9694683136621
20
-1.42173462572495
30
0
41
1
10
28.2373476745561
20
-1.51768635085256
30
0
41
1
10
28.6415081660378
20
-1.64214993131699
30
0
41
1
10
28.7766364894797
20
-1.68037113551455
30
0
41
1
10
29.0481228807854
20
-1.74972568409041
30
0
41
1
10
29.1832963743946
20
-1.78054602746914
30
0
41
1
10
29.5874702362778
20
-1.86126284253365
30
0
41
1
10
29.8551799525772
20
-1.89941211967323
30
0
41
1
10
30.2999646460082
20
-1.93595805365666
30
0
41
1
10
30.4770283437002
20
-1.94344992756942
30
0
41
1
10
30.6544678226653
20
-1.94376913547705
30
0
0
SPLINE
5
FB
100
AcDbEntity
8
1
62
256
6
ByLayer
370
18
48
1
60
0
100
AcDbSpline
70
4
71
3
72
55
73
51
40
0
40
0
40
0
40
0
40
0.0612752297640754
40
0.0612752297640754
40
0.155147706787678
40
0.155147706787678
40
0.202083945299478
40
0.202083945299478
40
0.249020183811278
40
0.249020183811278
40
0.342892660834876
40
0.342892660834876
40
0.354626720462824
40
0.354626720462824
40
0.366360780090773
40
0.366360780090773
40
0.389828899346669
40
0.389828899346669
40
0.436765137858461
40
0.436765137858461
40
0.483701376370252
40
0.483701376370252
40
0.530637614882044
40
0.530637614882044
40
0.554105734137939
40
0.554105734137939
40
0.565839793765887
40
0.565839793765887
40
0.577573853393835
40
0.624510091905626
40
0.624510091905626
40
0.671446330417418
40
0.671446330417418
40
0.718382568929209
40
0.718382568929209
40
0.741850688185105
40
0.753584747813054
40
0.753584747813054
40
0.765318807441003
40
0.765318807441003
40
0.812255045952804
40
0.812255045952804
40
0.906127522976405
40
0.906127522976405
40
0.953063761488205
40
0.953063761488205
40
0.964797821116154
40
0.964797821116154
40
0.976531880744103
40
1
40
1
40
1
40
1
41
1
10
40.5462915672736
20
1.80569166158304
30
0
41
1
10
40.8056678028094
20
1.86161940782742
30
0
41
1
10
41.0637544311365
20
1.9031408350719
30
0
41
1
10
41.7176938290184
20
1.97010511138416
30
0
41
1
10
42.113882918098
20
1.97535331353686
30
0
41
1
10
42.7159059888816
20
1.9278094946186
30
0
41
1
10
42.9151863147598
20
1.90292252405922
30
0
41
1
10
43.3122892645115
20
1.83611008097677
30
0
41
1
10
43.5101195810094
20
1.79419139442325
30
0
41
1
10
44.103314872854
20
1.64449629547849
30
0
41
1
10
44.4983480714298
20
1.51269997771342
30
0
41
1
10
44.9480946709394
20
1.33384743520608
30
0
41
1
10
44.9981406176429
20
1.31355092017776
30
0
41
1
10
45.0984005481035
20
1.27212897304153
30
0
41
1
10
45.1484909141531
20
1.25105447546952
30
0
41
1
10
45.2984715860846
20
1.18687165067823
30
0
41
1
10
45.3981557345508
20
1.14276703956941
30
0
41
1
10
45.6965181246346
20
1.0068804042875
30
0
41
1
10
45.894502559364
20
0.911517891642887
30
0
41
1
10
46.2899161879791
20
0.713452024093669
30
0
41
1
10
46.4873502818439
20
0.610755773252151
30
0
41
1
10
46.8830219895155
20
0.400386278323595
30
0
41
1
10
47.0812742411236
20
0.292743403262648
30
0
41
1
10
47.3801411418903
20
0.129106759835849
30
0
41
1
10
47.4800100159826
20
0.0741959114470205
30
0
41
1
10
47.6303000701544
20
-0.0085147570475215
30
0
41
1
10
47.6803833748242
20
-0.03609000872396
30
0
41
1
10
47.78032775168
20
-0.0910952327297139
30
0
41
1
10
48.0298003568326
20
-0.228338198667842
30
0
41
1
10
48.2775921908922
20
-0.363762818346743
30
0
41
1
10
48.6732144883052
20
-0.575805315914266
30
0
41
1
10
48.8706076243508
20
-0.679501948055304
30
0
41
1
10
49.265748796374
20
-0.880160968998752
30
0
41
1
10
49.463492946983
20
-0.977128007354196
30
0
41
1
10
49.7613606832624
20
-1.11581510993975
30
0
41
1
10
49.9106090908913
20
-1.18346551279228
30
0
41
1
10
50.0605241636659
20
-1.24824408383648
30
0
41
1
10
50.1606374736805
20
-1.29075486354785
30
0
41
1
10
50.2107024645921
20
-1.31163952837673
30
0
41
1
10
50.4604581878345
20
-1.41387442303207
30
0
41
1
10
50.6590926241021
20
-1.4889313481398
30
0
41
1
10
51.253163038775
20
-1.69239186156048
30
0
41
1
10
51.6467269142798
20
-1.79904784682302
30
0
41
1
10
52.2411102269983
20
-1.90826896762459
30
0
41
1
10
52.439926315973
20
-1.9362214253014
30
0
41
1
10
52.6900778968398
20
-1.959911844343
30
0
41
1
10
52.7401380563262
20
-1.96408161616418
30
0
41
1
10
52.8401540303742
20
-1.97126447566535
30
0
41
1
10
52.9901051186475
20
-1.98031192131344
30
0
41
1
10
53.1399304277638
20
-1.98416821752528
30
0
41
1
10
53.2398429967104
20
-1.98442451087988
30
0
0
SPLINE
5
FC
100
AcDbEntity
8
1
62
256
6
ByLayer
370
18
48
1
60
0
100
AcDbSpline
70
4
71
3
72
10
73
6
40
0
40
0
40
0
40
0
40
0.5
40
0.5
40
1
40
1
40
1
40
1
41
1
10
53.2271468587399
20
-1.97215869848156
30
0
41
1
10
53.229257357589
20
-1.97618647622167
30
0
41
1
10
53.2313703995001
20
-1.97922454098025
30
0
41
1
10
53.2356041131973
20
-1.98331745417377
30
0
41
1
10
53.2377267736854
20
-1.98437054720921
30
0
41
1
10
53.2398429967104
20
-1.98442451087988
30
0
0
SPLINE
5
FD
100
AcDbEntity
8
1
62
256
6
ByLayer
370
18
48
1
60
0
100
AcDbSpline
70
4
71
3
72
63
73
59
40
0
40
0
40
0
40
0
40
0.0547165673917283
40
0.0547165673917283
40
0.109433134783457
40
0.109433134783457
40
0.136791418479321
40
0.150470560327254
40
0.150470560327254
40
0.164149702175188
40
0.164149702175188
40
0.191507985871052
40
0.191507985871052
40
0.218866269566916
40
0.218866269566916
40
0.273582836958645
40
0.273582836958645
40
0.328299404350373
40
0.328299404350373
40
0.383015971742102
40
0.383015971742102
40
0.410374255437966
40
0.410374255437966
40
0.43773253913383
40
0.465090822829694
40
0.465090822829694
40
0.492449106525558
40
0.492449106525558
40
0.54716567391729
40
0.54716567391729
40
0.574523957613155
40
0.574523957613155
40
0.601882241309021
40
0.601882241309021
40
0.615561383156954
40
0.615561383156954
40
0.629240525004887
40
0.629240525004887
40
0.656598808700749
40
0.656598808700749
40
0.683957092396612
40
0.683957092396612
40
0.711315376092475
40
0.711315376092475
40
0.766031943484203
40
0.766031943484203
40
0.820748510875932
40
0.820748510875932
40
0.848106794571796
40
0.848106794571796
40
0.86178593641973
40
0.86178593641973
40
0.875465078267663
40
0.930181645659392
40
0.930181645659392
40
0.98489821305112
40
0.98489821305112
40
1
40
1
40
1
40
1
41
1
10
53.2271468587498
20
-1.97215869848142
30
0
41
1
10
53.0287193284996
20
-1.95955787221942
30
0
41
1
10
52.8309101198731
20
-1.93787251890632
30
0
41
1
10
52.43527478482
20
-1.87715999166147
30
0
41
1
10
52.237461951974
20
-1.8381324045441
30
0
41
1
10
51.9399238859524
20
-1.76707162184184
30
0
41
1
10
51.790946457177
20
-1.72841121133905
30
0
41
1
10
51.6414614634441
20
-1.68517499581907
30
0
41
1
10
51.5416700770452
20
-1.65534854280511
30
0
41
1
10
51.4918018476512
20
-1.63996197803658
30
0
41
1
10
51.3424868432326
20
-1.59250107064597
30
0
41
1
10
51.2432308029523
20
-1.55909519732248
30
0
41
1
10
51.0452402835016
20
-1.48884870650238
30
0
41
1
10
50.9465030924967
20
-1.45200779759716
30
0
41
1
10
50.6506581517733
20
-1.33688002593036
30
0
41
1
10
50.4539246338649
20
-1.25398442686438
30
0
41
1
10
50.0601940753695
20
-1.07781184528184
30
0
41
1
10
49.8631958557557
20
-0.984541845330284
30
0
41
1
10
49.4678525448826
20
-0.789254090634302
30
0
41
1
10
49.2695438067542
20
-0.687167116455129
30
0
41
1
10
48.9700753858742
20
-0.528958737549488
30
0
41
1
10
48.8705111234196
20
-0.47571594052144
30
0
41
1
10
48.6719496818178
20
-0.368605984546519
30
0
41
1
10
48.4738883043936
20
-0.260837201995628
30
0
41
1
10
48.2765291683083
20
-0.15230129751987
30
0
41
1
10
48.0793984343985
20
-0.0436088153436742
30
0
41
1
10
47.9809478295568
20
0.0108166052958438
30
0
41
1
10
47.685607562567
20
0.173714476448595
30
0
41
1
10
47.4887311339914
20
0.281812245313859
30
0
41
1
10
47.1925816833021
20
0.441621239722338
30
0
41
1
10
47.0937252355629
20
0.494499823786356
30
0
41
1
10
46.8956361171523
20
0.599295507276253
30
0
41
1
10
46.7964046087918
20
0.651214499173477
30
0
41
1
10
46.6470955200185
20
0.7280414266923
30
0
41
1
10
46.5972487160557
20
0.753474928957161
30
0
41
1
10
46.4973814000656
20
0.803955124102146
30
0
41
1
10
46.4474808391913
20
0.828940909588084
30
0
41
1
10
46.2980601056667
20
0.90298881269436
30
0
41
1
10
46.1987305212514
20
0.951186777924391
30
0
41
1
10
46.0004852975937
20
1.04504322009129
30
0
41
1
10
45.9015702936575
20
1.0907038834286
30
0
41
1
10
45.7040686230339
20
1.17938043675684
30
0
41
1
10
45.6054808018498
20
1.222392217112
30
0
41
1
10
45.3098856825851
20
1.34699167739217
30
0
41
1
10
45.1130515654935
20
1.42414994857211
30
0
41
1
10
44.7185044683524
20
1.56491153419066
30
0
41
1
10
44.5207925535952
20
1.62852453000636
30
0
41
1
10
44.2227271398614
20
1.71270245449398
30
0
41
1
10
44.1231227477288
20
1.73888856860972
30
0
41
1
10
43.9732605852912
20
1.7752310425108
30
0
41
1
10
43.923329725477
20
1.7868302141276
30
0
41
1
10
43.823680919807
20
1.8089330414694
30
0
41
1
10
43.5749357423018
20
1.86148737362507
30
0
41
1
10
43.3276918342685
20
1.90039442140483
30
0
41
1
10
42.9328566049513
20
1.94502376660492
30
0
41
1
10
42.7358487848856
20
1.95853573028936
30
0
41
1
10
42.4842146650818
20
1.96438332237307
30
0
41
1
10
42.429767405115
20
1.96496798288712
30
0
41
1
10
42.3752895541182
20
1.96487056598377
30
0
0
SPLINE
5
FE
100
AcDbEntity
8
1
62
256
6
ByLayer
370
18
48
1
60
0
100
AcDbSpline
70
4
71
3
72
16
73
12
40
0
40
0
40
0
40
0
40
0.265487353473744
40
0.265487353473744
40
0.449115515105308
40
0.449115515105308
40
0.54092959592109
40
0.54092959592109
40
0.632743676736872
40
0.632743676736872
40
1
40
1
40
1
40
1
41
1
10
34.1547423400883
20
-1.95007790460937
30
0
41
1
10
34.1547426191288
20
-1.95015203351281
30
0
41
1
10
34.1547428931073
20
-1.94619234928541
30
0
41
1
10
34.1547433469305
20
-1.93275403958532
30
0
41
1
10
34.1547435296811
20
-1.92534507876891
30
0
41
1
10
34.154743798558
20
-1.91130714705952
30
0
41
1
10
34.1547438873031
20
-1.90613987535815
30
0
41
1
10
34.1547440627869
20
-1.89481369768413
30
0
41
1
10
34.1547441495159
20
-1.88865257764274
30
0
41
1
10
34.1547445742673
20
-1.8555891968484
30
0
41
1
10
34.1547448887311
20
-1.82179468980155
30
0
41
1
10
34.1547451673457
20
-1.78070294835842
30
0
0
SPLINE
5
FF
100
AcDbEntity
8
1
62
256
6
ByLayer
370
18
48
1
60
0
100
AcDbSpline
70
4
71
3
72
8
73
4
40
0
40
0
40
0
40
0
40
1
40
1
40
1
40
1
41
1
10
34.154745167346
20
-1.78070294834402
30
0
41
1
10
34.154745167678
20
-1.78065396117401
30
0
41
1
10
34.1547463558584
20
-1.78060496343352
30
0
41
1
10
34.1547487306349
20
-1.78055596944927
30
0
0
SPLINE
5
100
100
AcDbEntity
8
1
62
256
6
ByLayer
370
18
48
1
60
0
100
AcDbSpline
70
4
71
3
72
28
73
24
40
0
40
0
40
0
40
0
40
0.12499999999991
40
0.12499999999991
40
0.187499999999865
40
0.187499999999865
40
0.24999999999982
40
0.24999999999982
40
0.37499999999973
40
0.37499999999973
40
0.437499999999757
40
0.437499999999757
40
0.499999999999784
40
0.499999999999784
40
0.624999999999838
40
0.624999999999838
40
0.687499999999865
40
0.687499999999865
40
0.749999999999892
40
0.749999999999892
40
0.874999999999946
40
0.874999999999946
40
1
40
1
40
1
40
1
41
1
10
34.1547487306347
20
-1.78055596945339
30
0
41
1
10
34.1549190755024
20
-1.77704158701351
30
0
41
1
10
34.1561803275715
20
-1.77355266364279
30
0
41
1
10
34.1596851281291
20
-1.76836556821593
30
0
41
1
10
34.1611370127606
20
-1.76663654677211
30
0
41
1
10
34.1645133794201
20
-1.76329314079641
30
0
41
1
10
34.1664426186189
20
-1.76166781237362
30
0
41
1
10
34.1729436251075
20
-1.75693490375349
30
0
41
1
10
34.17831185896
20
-1.75393706794534
30
0
41
1
10
34.1874121288834
20
-1.74998885296432
30
0
41
1
10
34.1906269206202
20
-1.74875638025748
30
0
41
1
10
34.1974208683585
20
-1.74646417538401
30
0
41
1
10
34.2010273315761
20
-1.74539785351888
30
0
41
1
10
34.2122013172371
20
-1.7425335722929
30
0
41
1
10
34.2200700700891
20
-1.74106782618821
30
0
41
1
10
34.2325002370805
20
-1.73955324113152
30
0
41
1
10
34.2367531072484
20
-1.73916577881755
30
0
41
1
10
34.2452273231771
20
-1.73864725414177
30
0
41
1
10
34.2494790974901
20
-1.73851185325253
30
0
41
1
10
34.2622780748485
20
-1.73847539605833
30
0
41
1
10
34.2709552349344
20
-1.738959772263
30
0
41
1
10
34.2874965227681
20
-1.74087460198555
30
0
41
1
10
34.2955205657381
20
-1.74230960885575
30
0
41
1
10
34.3030897547522
20
-1.74419311868101
30
0
0
SPLINE
5
101
100
AcDbEntity
8
1
62
256
6
ByLayer
370
18
48
1
60
0
100
AcDbSpline
70
4
71
3
72
14
73
10
40
0
40
0
40
0
40
0
40
0.357589755887261
40
0.357589755887261
40
0.715179511774522
40
0.715179511774522
40
0.893974389718153
40
0.893974389718153
40
1
40
1
40
1
40
1
41
1
10
34.3030897547522
20
-1.74419311868101
30
0
41
1
10
34.5013477953377
20
-1.79352746172506
30
0
41
1
10
34.699228983437
20
-1.83397035587254
30
0
41
1
10
35.094887698153
20
-1.8976294609366
30
0
41
1
10
35.292632392989
20
-1.92086675293007
30
0
41
1
10
35.5894746239377
20
-1.94267918056929
30
0
41
1
10
35.6884297428071
20
-1.94777522237257
30
0
41
1
10
35.8461785407207
20
-1.95232341437523
30
0
41
1
10
35.9049433020624
20
-1.95322470583304
30
0
41
1
10
35.9637879669156
20
-1.95332854401465
30
0
0
SPLINE
5
102
100
AcDbEntity
8
1
62
256
6
ByLayer
370
18
48
1
60
0
100
AcDbSpline
70
4
71
3
72
52
73
48
40
0
40
0
40
0
40
0
40
0.0037359951921844
40
0.0037359951921844
40
0.0244914952923504
40
0.0244914952923504
40
0.0452469953925161
40
0.0452469953925161
40
0.0867579955928436
40
0.0867579955928436
40
0.128268995793171
40
0.128268995793171
40
0.169779995993498
40
0.169779995993498
40
0.211290996193825
40
0.211290996193825
40
0.252801996394153
40
0.252801996394153
40
0.29431299659448
40
0.29431299659448
40
0.335823996794807
40
0.335823996794807
40
0.377334996995135
40
0.377334996995135
40
0.398090497095298
40
0.398090497095298
40
0.418845997195462
40
0.418845997195462
40
0.46035699739579
40
0.46035699739579
40
0.501867997596117
40
0.501867997596117
40
0.584889997996767
40
0.584889997996767
40
0.667911998397417
40
0.667911998397417
40
0.70942299859774
40
0.70942299859774
40
0.730178498697901
40
0.730178498697901
40
0.750933998798063
40
0.750933998798063
40
0.833955999198709
40
0.833955999198709
40
0.916977999599355
40
0.916977999599355
40
1
40
1
40
1
40
1
41
1
10
46.1118327500233
20
1.87860219031398
30
0
41
1
10
46.1207509166056
20
1.8801017922074
30
0
41
1
10
46.1296716552641
20
1.88158427185274
30
0
41
1
10
46.1881691603183
20
1.89119023623098
30
0
41
1
10
46.2378216929093
20
1.89880280887741
30
0
41
1
10
46.3372807092492
20
1.91296480094658
30
0
41
1
10
46.3869947674461
20
1.91950025650712
30
0
41
1
10
46.5357731445792
20
1.93743386746451
30
0
41
1
10
46.6345980680038
20
1.9471820484604
30
0
41
1
10
46.8316014591967
20
1.96222795439161
30
0
41
1
10
46.9298218462275
20
1.96750399303468
30
0
41
1
10
47.1261984602679
20
1.97354729764643
30
0
41
1
10
47.2243277615072
20
1.97432797476839
30
0
41
1
10
47.4205502407656
20
1.97149206874297
30
0
41
1
10
47.5186331305698
20
1.96787801523936
30
0
41
1
10
47.7146940395024
20
1.95624578329478
30
0
41
1
10
47.8126674041308
20
1.94822435839376
30
0
41
1
10
48.008547583583
20
1.92768507836914
30
0
41
1
10
48.1064995314186
20
1.91516906632358
30
0
41
1
10
48.3030312886533
20
1.88590817637612
30
0
41
1
10
48.4015779697604
20
1.86916142601498
30
0
41
1
10
48.5992493914183
20
1.83146868762068
30
0
41
1
10
48.698365135712
20
1.81051968261644
30
0
41
1
10
48.8474017528386
20
1.77582614701572
30
0
41
1
10
48.8971258565162
20
1.76371779456304
30
0
41
1
10
48.9962462136919
20
1.73849781993499
30
0
41
1
10
49.0456950085505
20
1.72537202187249
30
0
41
1
10
49.1937181567396
20
1.6844482943944
30
0
41
1
10
49.2920086739977
20
1.65513136044439
30
0
41
1
10
49.488503984002
20
1.59319212253146
30
0
41
1
10
49.5866739078357
20
1.56054457601903
30
0
41
1
10
49.8810050541013
20
1.45774960362075
30
0
41
1
10
50.0769748721716
20
1.38274584074045
30
0
41
1
10
50.4690278675323
20
1.22067873833078
30
0
41
1
10
50.6651139269963
20
1.13361130820763
30
0
41
1
10
50.9600027927894
20
0.994644884351317
30
0
41
1
10
51.0584436524503
20
0.946949927186239
30
0
41
1
10
51.2066133213557
20
0.87380125102942
30
0
41
1
10
51.2560851895505
20
0.849147111938038
30
0
41
1
10
51.3552030218546
20
0.799310354088647
30
0
41
1
10
51.404883191498
20
0.774109835646044
30
0
41
1
10
51.6527608325635
20
0.647338490585042
30
0
41
1
10
51.850077453498
20
0.543129499941273
30
0
41
1
10
52.2438918273377
20
0.331235424847733
30
0
41
1
10
52.4403751395708
20
0.223525767035767
30
0
41
1
10
52.833352211583
20
0.0061283200782896
30
0
41
1
10
53.0298630083754
20
-0.103531447316072
30
0
41
1
10
53.2271291131648
20
-0.212824053750069
30
0
0
SPLINE
5
103
100
AcDbEntity
8
1
62
256
6
ByLayer
370
18
48
1
60
0
100
AcDbSpline
70
4
71
3
72
8
73
4
40
0
40
0
40
0
40
0
40
1
40
1
40
1
40
1
41
1
10
53.2271291131591
20
-0.212824053747568
30
0
41
1
10
53.2358332365287
20
-0.125715330231827
30
0
41
1
10
53.2462780230927
20
-0.0388887209962832
30
0
41
1
10
53.2588898983508
20
0.047596509182199
30
0
0
SPLINE
5
104
100
AcDbEntity
8
1
62
256
6
ByLayer
370
18
48
1
60
0
100
AcDbSpline
70
4
71
3
72
58
73
54
40
0
40
0
40
0
40
0
40
0.0320389622298946
40
0.0320389622298946
40
0.0640779244597893
40
0.0640779244597893
40
0.128155848919573
40
0.128155848919573
40
0.160194811149464
40
0.160194811149464
40
0.192233773379356
40
0.192233773379356
40
0.256311697839146
40
0.256311697839146
40
0.320389622298935
40
0.320389622298935
40
0.352428584528827
40
0.352428584528827
40
0.384467546758719
40
0.384467546758719
40
0.400487027873667
40
0.400487027873667
40
0.416506508988616
40
0.416506508988616
40
0.448545471218514
40
0.448545471218514
40
0.480584433448411
40
0.480584433448411
40
0.512623395678309
40
0.512623395678309
40
0.576701320138098
40
0.576701320138098
40
0.640779244597887
40
0.640779244597887
40
0.672818206827782
40
0.672818206827782
40
0.704857169057677
40
0.704857169057677
40
0.768935093517466
40
0.768935093517466
40
0.800974055747358
40
0.800974055747358
40
0.83301301797725
40
0.83301301797725
40
0.865051980207142
40
0.865051980207142
40
0.897090942437033
40
0.897090942437033
40
0.961168866896817
40
0.961168866896817
40
0.993207829126712
40
0.993207829126712
40
1
40
1
40
1
40
1
41
1
10
53.2588898983498
20
0.0475965091745536
30
0
41
1
10
53.1997636276588
20
0.0805472508188529
30
0
41
1
10
53.1407613290118
20
0.113493628998214
30
0
41
1
10
53.0228395739468
20
0.179069108146137
30
0
41
1
10
52.963935412622
20
0.211727401743303
30
0
41
1
10
52.7873107420874
20
0.309169722877385
30
0
41
1
10
52.6696567341471
20
0.373383315609743
30
0
41
1
10
52.4932190477791
20
0.468429033551729
30
0
41
1
10
52.4344041557112
20
0.499881952219823
30
0
41
1
10
52.3169505987669
20
0.562648415214682
30
0
41
1
10
52.2583211688268
20
0.593976311541297
30
0
41
1
10
52.0822881186998
20
0.687018691091964
30
0
41
1
10
51.9648279919502
20
0.747949316275623
30
0
41
1
10
51.7293163854854
20
0.866972820920438
30
0
41
1
10
51.6112200845699
20
0.924995224190525
30
0
41
1
10
51.4337458224028
20
1.01008582155461
30
0
41
1
10
51.3746079930743
20
1.03824701984675
30
0
41
1
10
51.2561464624574
20
1.09378326642394
30
0
41
1
10
51.1968081876679
20
1.12113557258499
30
0
41
1
10
51.1075998349718
20
1.16147467579145
30
0
41
1
10
51.0778141599556
20
1.17481262558422
30
0
41
1
10
51.018316814842
20
1.20118244762258
30
0
41
1
10
50.9885912319368
20
1.21422113043388
30
0
41
1
10
50.8994754954052
20
1.2528910622085
30
0
41
1
10
50.8401434056501
20
1.27807189875222
30
0
41
1
10
50.7216114335752
20
1.32722522787901
30
0
41
1
10
50.6624142743521
20
1.35120225435139
30
0
41
1
10
50.5441813548923
20
1.39800383055538
30
0
41
1
10
50.485189586696
20
1.42088775450861
30
0
41
1
10
50.3085814908321
20
1.48795023725066
30
0
41
1
10
50.1910567138009
20
1.53017949852335
30
0
41
1
10
49.9559479193174
20
1.60919169877872
30
0
41
1
10
49.8383497093505
20
1.64596941225139
30
0
41
1
10
49.6618446680198
20
1.69705532177946
30
0
41
1
10
49.6029911378519
20
1.71340486674597
30
0
41
1
10
49.4854382568168
20
1.74489983615993
30
0
41
1
10
49.4266857312806
20
1.75999239289507
30
0
41
1
10
49.2501923118665
20
1.80302624944798
30
0
41
1
10
49.1322870752406
20
1.82878835607778
30
0
41
1
10
48.9547856090798
20
1.86284346935076
30
0
41
1
10
48.8955093482573
20
1.87343064516318
30
0
41
1
10
48.7767509461555
20
1.89308059544177
30
0
41
1
10
48.7172531572185
20
1.90213628801376
30
0
41
1
10
48.5981753704272
20
1.9187658009059
30
0
41
1
10
48.538629840382
20
1.92634365893579
30
0
41
1
10
48.419851830801
20
1.9397971369533
30
0
41
1
10
48.3605603842613
20
1.94569709312614
30
0
41
1
10
48.1828941352396
20
1.96092724225343
30
0
41
1
10
48.0647097381876
20
1.96778505468023
30
0
41
1
10
47.8876426460795
20
1.97324539531178
30
0
41
1
10
47.8286556741171
20
1.97426249620946
30
0
41
1
10
47.7572511414603
20
1.97452771751782
30
0
41
1
10
47.7447675154359
20
1.97453810457489
30
0
41
1
10
47.7322890925727
20
1.9745123896792
30
0
0
SPLINE
5
105
100
AcDbEntity
8
1
62
256
6
ByLayer
370
18
48
1
60
0
100
AcDbSpline
70
4
71
3
72
130
73
126
40
0
40
0
40
0
40
0
40
0.006541151122197
40
0.006541151122197
40
0.019024298824137
40
0.019024298824137
40
0.031507446526077
40
0.031507446526077
40
0.0564737419299595
40
0.0564737419299595
40
0.0689568896319017
40
0.0689568896319017
40
0.0814400373338442
40
0.0814400373338442
40
0.0939231850357865
40
0.0939231850357865
40
0.106406332737729
40
0.106406332737729
40
0.131372628141613
40
0.131372628141613
40
0.143855775843557
40
0.143855775843557
40
0.1563389235455
40
0.1563389235455
40
0.181305218949389
40
0.181305218949389
40
0.206271514353279
40
0.206271514353279
40
0.231237809757168
40
0.231237809757168
40
0.243720957459113
40
0.243720957459113
40
0.256204105161059
40
0.256204105161059
40
0.281170400564951
40
0.281170400564951
40
0.306136695968842
40
0.306136695968842
40
0.331102991372733
40
0.331102991372733
40
0.343586139074679
40
0.343586139074679
40
0.356069286776625
40
0.356069286776625
40
0.381035582180514
40
0.381035582180514
40
0.39351872988246
40
0.39351872988246
40
0.406001877584405
40
0.406001877584405
40
0.418485025286351
40
0.418485025286351
40
0.424726599137324
40
0.424726599137324
40
0.430968172988297
40
0.430968172988297
40
0.45593446839219
40
0.45593446839219
40
0.468417616094136
40
0.468417616094136
40
0.480900763796082
40
0.480900763796082
40
0.505867059199975
40
0.505867059199975
40
0.530833354603869
40
0.530833354603869
40
0.543316502305817
40
0.543316502305817
40
0.555799650007765
40
0.555799650007765
40
0.580765945411659
40
0.580765945411659
40
0.593249093113607
40
0.593249093113607
40
0.605732240815555
40
0.605732240815555
40
0.618215388517503
40
0.618215388517503
40
0.630698536219451
40
0.630698536219451
40
0.655664831623349
40
0.655664831623349
40
0.668147979325298
40
0.668147979325298
40
0.680631127027247
40
0.680631127027247
40
0.705597422431143
40
0.705597422431143
40
0.730563717835039
40
0.730563717835039
40
0.743046865536988
40
0.743046865536988
40
0.755530013238938
40
0.755530013238938
40
0.780496308642836
40
0.780496308642836
40
0.792979456344784
40
0.792979456344784
40
0.805462604046731
40
0.805462604046731
40
0.83042889945063
40
0.83042889945063
40
0.855395194854528
40
0.855395194854528
40
0.867878342556478
40
0.867878342556478
40
0.880361490258428
40
0.880361490258428
40
0.905327785662329
40
0.905327785662329
40
0.917810933364277
40
0.917810933364277
40
0.930294081066227
40
0.930294081066227
40
0.942777228768176
40
0.942777228768176
40
0.955260376470125
40
0.955260376470125
40
0.967743524172074
40
0.967743524172074
40
0.980226671874023
40
0.980226671874023
40
0.992709819575972
40
0.992709819575972
40
1
40
1
40
1
40
1
41
1
10
39.5322404025891
20
-1.30050276305298
30
0
41
1
10
39.5013408947811
20
-1.31309123653827
30
0
41
1
10
39.4704323197965
20
-1.32553323373563
30
0
41
1
10
39.3805115236508
20
-1.36129469909238
30
0
41
1
10
39.3215007495178
20
-1.38426289306884
30
0
41
1
10
39.2035714006537
20
-1.42932383390595
30
0
41
1
10
39.1445807732425
20
-1.45131988104942
30
0
41
1
10
38.9673296960495
20
-1.5154394866837
30
0
41
1
10
38.8488293020493
20
-1.55574546523064
30
0
41
1
10
38.6703095491394
20
-1.61222258402563
30
0
41
1
10
38.6106764850238
20
-1.6303876419984
30
0
41
1
10
38.4911743458563
20
-1.66540943750078
30
0
41
1
10
38.4313811933461
20
-1.68222468235089
30
0
41
1
10
38.3123361992175
20
-1.7145475782778
30
0
41
1
10
38.2529887620143
20
-1.73003318736912
30
0
41
1
10
38.1343994273458
20
-1.75943239153651
30
0
41
1
10
38.0751804739737
20
-1.77336926421702
30
0
41
1
10
37.897664564006
20
-1.81285634527833
30
0
41
1
10
37.7794895340915
20
-1.83607254461594
30
0
41
1
10
37.6023473551803
20
-1.8662730225594
30
0
41
1
10
37.5433137836013
20
-1.87556740105083
30
0
41
1
10
37.4254141077354
20
-1.89268224932792
30
0
41
1
10
37.3665972377755
20
-1.90052081647923
30
0
41
1
10
37.1900887318192
20
-1.92163813845136
30
0
41
1
10
37.0723873970286
20
-1.93255080681897
30
0
41
1
10
36.8365350750778
20
-1.94799271945362
30
0
41
1
10
36.7183467355301
20
-1.9525297543544
30
0
41
1
10
36.4815973509641
20
-1.95525399403448
30
0
41
1
10
36.3633268931183
20
-1.95341121718042
30
0
41
1
10
36.1851192524087
20
-1.94572471829238
30
0
41
1
10
36.1256019420921
20
-1.94234726490541
30
0
41
1
10
36.006291021383
20
-1.93396710667469
30
0
41
1
10
35.9464534455145
20
-1.92895873115782
30
0
41
1
10
35.7674066664978
20
-1.91160670230849
30
0
41
1
10
35.6483313463446
20
-1.8969659185355
30
0
41
1
10
35.4114924344578
20
-1.86122322379572
30
0
41
1
10
35.2934075520716
20
-1.84025085420595
30
0
41
1
10
35.0573170994512
20
-1.79258106115137
30
0
41
1
10
34.939311916442
20
-1.76589728662154
30
0
41
1
10
34.7623050339434
20
-1.72172722094675
30
0
41
1
10
34.7032947496248
20
-1.70632217715581
30
0
41
1
10
34.5854729092902
20
-1.67393596135233
30
0
41
1
10
34.5266281963042
20
-1.65697940805092
30
0
41
1
10
34.3499139494557
20
-1.60417172372158
30
0
41
1
10
34.2319514747436
20
-1.56630270404523
30
0
41
1
10
34.0544955795009
20
-1.50584529347424
30
0
41
1
10
33.9952555872994
20
-1.48508844179764
30
0
41
1
10
33.8766104657726
20
-1.44235418368444
30
0
41
1
10
33.8171920080631
20
-1.42039541666955
30
0
41
1
10
33.6982973324566
20
-1.37509842864461
30
0
41
1
10
33.6388719173214
20
-1.35168529474777
30
0
41
1
10
33.5495369607665
20
-1.31571004862636
30
0
41
1
10
33.5197289224616
20
-1.30357225640589
30
0
41
1
10
33.4600469572757
20
-1.27901280574628
30
0
41
1
10
33.4301586123502
20
-1.26658496168955
30
0
41
1
10
33.2809123874976
20
-1.20392087694435
30
0
41
1
10
33.1618742962263
20
-1.15203561952495
30
0
41
1
10
32.9836576957845
20
-1.07195116714891
30
0
41
1
10
32.9243115080732
20
-1.04487658148739
30
0
41
1
10
32.8057984481659
20
-0.989873662460212
30
0
41
1
10
32.7466962312967
20
-0.961838751139624
30
0
41
1
10
32.5696231775482
20
-0.876497980722405
30
0
41
1
10
32.4517278644129
20
-0.818220008689082
30
0
41
1
10
32.2158286794936
20
-0.699643257404546
30
0
41
1
10
32.0977963500048
20
-0.639398211358241
30
0
41
1
10
31.9206367672522
20
-0.547592740298427
30
0
41
1
10
31.8615942298793
20
-0.516698973013717
30
0
41
1
10
31.7436279086226
20
-0.454138026186854
30
0
41
1
10
31.6846305891659
20
-0.422603777604223
30
0
41
1
10
31.5074031219412
20
-0.327592427289375
30
0
41
1
10
31.3889736033172
20
-0.26364053397424
30
0
41
1
10
31.2106457328401
20
-0.167306544833934
30
0
41
1
10
31.1510912812413
20
-0.135124069210775
30
0
41
1
10
31.0317775631601
20
-0.0705779742939399
30
0
41
1
10
30.972004176238
20
-0.0382432004424516
30
0
41
1
10
30.8524322944838
20
0.0269772890303841
30
0
41
1
10
30.7927911073006
20
0.0596776541923134
30
0
41
1
10
30.6736844552663
20
0.124715150755918
30
0
41
1
10
30.6142211601747
20
0.157109446562487
30
0
41
1
10
30.4360141397862
20
0.25376328788937
30
0
41
1
10
30.3174331913726
20
0.317456681743977
30
0
41
1
10
30.1397712789811
20
0.411696104044495
30
0
41
1
10
30.0805781722369
20
0.442879418665086
30
0
41
1
10
29.9624023886008
20
0.505071856411604
30
0
41
1
10
29.9034620756701
20
0.536156063241236
30
0
41
1
10
29.7266112866983
20
0.628504100821829
30
0
41
1
10
29.6087372709168
20
0.688987509527266
30
0
41
1
10
29.3726512849625
20
0.807133768169251
30
0
41
1
10
29.2543981895018
20
0.864731651281915
30
0
41
1
10
29.0768520278519
20
0.949171559099824
30
0
41
1
10
29.0177171034813
20
0.977115110361581
30
0
41
1
10
28.8993804683852
20
1.03231448652255
30
0
41
1
10
28.8401404955597
20
1.05950831392258
30
0
41
1
10
28.6621255901023
20
1.13974076939672
30
0
41
1
10
28.5430417931672
20
1.19140792915422
30
0
41
1
10
28.3635727093951
20
1.26581089057879
30
0
41
1
10
28.3036064840901
20
1.29010843054672
30
0
41
1
10
28.1840587040297
20
1.33747419151285
30
0
41
1
10
28.1244319903859
20
1.36062556367278
30
0
41
1
10
27.9460790077234
20
1.42857843978351
30
0
41
1
10
27.8275560500021
20
1.47142041132665
30
0
41
1
10
27.590716746724
20
1.55162285745362
30
0
41
1
10
27.4723927356354
20
1.58898797660962
30
0
41
1
10
27.2950085840015
20
1.64098169747803
30
0
41
1
10
27.2358941357537
20
1.65763572133761
30
0
41
1
10
27.1179048977493
20
1.68977768460442
30
0
41
1
10
27.0589795010044
20
1.70521151687458
30
0
41
1
10
26.8820717099722
20
1.74928404667662
30
0
41
1
10
26.7640374796783
20
1.77577033601264
30
0
41
1
10
26.586563094127
20
1.8109854355848
30
0
41
1
10
26.5273322672956
20
1.82197137734599
30
0
41
1
10
26.4087410933897
20
1.8424523139708
30
0
41
1
10
26.3493647622019
20
1.85193951595642
30
0
41
1
10
26.2306122786746
20
1.86947891468773
30
0
41
1
10
26.1712731808965
20
1.87754397808973
30
0
41
1
10
26.0523488391527
20
1.89207499583455
30
0
41
1
10
25.9927841964239
20
1.89855398579246
30
0
41
1
10
25.8733948242628
20
1.9099111678411
30
0
41
1
10
25.8134902309671
20
1.91479397330235
30
0
41
1
10
25.6938257620433
20
1.92291436380484
30
0
41
1
10
25.6340756979374
20
1.92615315314936
30
0
41
1
10
25.5147362629462
20
1.93101928065064
30
0
41
1
10
25.4551407054424
20
1.93264701581413
30
0
41
1
10
25.3609248407704
20
1.93396486626733
30
0
41
1
10
25.326251427107
20
1.93417900080757
30
0
41
1
10
25.2916187915216
20
1.93411903877728
30
0
0
SPLINE
5
106
100
AcDbEntity
8
1
62
256
6
ByLayer
370
18
48
1
60
0
100
AcDbSpline
70
4
71
3
72
86
73
82
40
0
40
0
40
0
40
0
40
0.0077789670877449
40
0.0077789670877449
40
0.0474678084042367
40
0.0474678084042367
40
0.0871566497207286
40
0.0871566497207286
40
0.126845491037221
40
0.126845491037221
40
0.146689911695467
40
0.146689911695467
40
0.166534332353714
40
0.166534332353714
40
0.18637875301196
40
0.18637875301196
40
0.206223173670206
40
0.206223173670206
40
0.245912014986698
40
0.245912014986698
40
0.265756435644943
40
0.265756435644943
40
0.285600856303188
40
0.285600856303188
40
0.305445276961434
40
0.305445276961434
40
0.325289697619679
40
0.325289697619679
40
0.364978538936168
40
0.364978538936168
40
0.384822959594411
40
0.384822959594411
40
0.404667380252656
40
0.404667380252656
40
0.4245118009109
40
0.4245118009109
40
0.444356221569144
40
0.444356221569144
40
0.484045062885633
40
0.484045062885633
40
0.503889483543876
40
0.503889483543876
40
0.52373390420212
40
0.52373390420212
40
0.563422745518608
40
0.563422745518608
40
0.583267166176852
40
0.583267166176852
40
0.603111586835096
40
0.603111586835096
40
0.62295600749334
40
0.62295600749334
40
0.642800428151584
40
0.642800428151584
40
0.682489269468075
40
0.682489269468075
40
0.70233369012632
40
0.70233369012632
40
0.712255900455442
40
0.712255900455442
40
0.722178110784565
40
0.722178110784565
40
0.761866952101055
40
0.761866952101055
40
0.7817113727593
40
0.7817113727593
40
0.801555793417545
40
0.801555793417545
40
0.821400214075791
40
0.821400214075791
40
0.841244634734036
40
0.841244634734036
40
0.880933476050528
40
0.880933476050528
40
0.900777896708774
40
0.900777896708774
40
0.920622317367019
40
0.920622317367019
40
0.96031115868351
40
0.96031115868351
40
1
40
1
40
1
40
1
41
1
10
16.7395024403879
20
-1.40749332595641
30
0
41
1
10
16.7163374028674
20
-1.41595894119999
30
0
41
1
10
16.6931686477711
20
-1.42433215145363
30
0
41
1
10
16.5517582348122
20
-1.47484964207516
30
0
41
1
10
16.4333700490534
20
-1.51461498556989
30
0
41
1
10
16.1959790288969
20
-1.58888268963031
30
0
41
1
10
16.0769386964446
20
-1.6233687806396
30
0
41
1
10
15.8389591747982
20
-1.68773313902204
30
0
41
1
10
15.7196811123181
20
-1.71724195550172
30
0
41
1
10
15.5398712826868
20
-1.75703640845941
30
0
41
1
10
15.4798273687389
20
-1.76955627544427
30
0
41
1
10
15.3600448259323
20
-1.79298005397203
30
0
41
1
10
15.300231227823
20
-1.80390375679855
30
0
41
1
10
15.1807791188655
20
-1.82421402860089
30
0
41
1
10
15.1211283825526
20
-1.83359607171994
30
0
41
1
10
15.0021979328826
20
-1.85092712523877
30
0
41
1
10
14.9428692179137
20
-1.85884216833958
30
0
41
1
10
14.7649417147602
20
-1.88016885787974
30
0
41
1
10
14.6464839701344
20
-1.89120784899725
30
0
41
1
10
14.4687553043239
20
-1.90302298503093
30
0
41
1
10
14.409503188551
20
-1.90617199324501
30
0
41
1
10
14.2909985822965
20
-1.91090912761604
30
0
41
1
10
14.2317294419632
20
-1.9124971368058
30
0
41
1
10
14.113328821765
20
-1.91411518556751
30
0
41
1
10
14.0542351272092
20
-1.91413950478818
30
0
41
1
10
13.935932737245
20
-1.91258987134489
30
0
41
1
10
13.8767453236485
20
-1.9110194310648
30
0
41
1
10
13.698992264391
20
-1.90393569891015
30
0
41
1
10
13.5802166237136
20
-1.89605480088872
30
0
41
1
10
13.4014779300476
20
-1.879569741697
30
0
41
1
10
13.3418032879002
20
-1.87329890597874
30
0
41
1
10
13.2223452737215
20
-1.8591578578658
30
0
41
1
10
13.1626317587909
20
-1.85125250500531
30
0
41
1
10
13.0430164080106
20
-1.83382459836417
30
0
41
1
10
12.9830144022405
20
-1.82430382172714
30
0
41
1
10
12.863133521775
20
-1.80376914292003
30
0
41
1
10
12.8032855251922
20
-1.7927647928791
30
0
41
1
10
12.6239496800942
20
-1.75762784237892
30
0
41
1
10
12.5046291201168
20
-1.73141085710503
30
0
41
1
10
12.3260615031817
20
-1.68795720168435
30
0
41
1
10
12.2666636058832
20
-1.67273326010775
30
0
41
1
10
12.148106751376
20
-1.64079251458423
30
0
41
1
10
12.0888790190102
20
-1.62414096982241
30
0
41
1
10
11.9112210711603
20
-1.57228414276085
30
0
41
1
10
11.7928242760697
20
-1.53516862946932
30
0
41
1
10
11.6150362064223
20
-1.47604505299873
30
0
41
1
10
11.5557463137755
20
-1.45575750971366
30
0
41
1
10
11.4371359606605
20
-1.41399836044158
30
0
41
1
10
11.3778152409474
20
-1.39252920697641
30
0
41
1
10
11.2593352059711
20
-1.34813288490224
30
0
41
1
10
11.200107587363
20
-1.32529215709553
30
0
41
1
10
11.0814844803022
20
-1.27858272977187
30
0
41
1
10
11.0221078486307
20
-1.25468913019355
30
0
41
1
10
10.8437007829754
20
-1.18151441461379
30
0
41
1
10
10.7243700159058
20
-1.13077881861591
30
0
41
1
10
10.5447089080047
20
-1.05186846189537
30
0
41
1
10
10.4847005517682
20
-1.02511692197513
30
0
41
1
10
10.3946618300972
20
-0.984029591012302
30
0
41
1
10
10.3646434716487
20
-0.970166747807809
30
0
41
1
10
10.3047126999988
20
-0.942268517130827
30
0
41
1
10
10.2747771105352
20
-0.928230264975014
30
0
41
1
10
10.1252109719705
20
-0.857660649328011
30
0
41
1
10
10.0059295149043
20
-0.799969412059482
30
0
41
1
10
9.82726328134018
20
-0.712150683379775
30
0
41
1
10
9.76774750970046
20
-0.682669913329192
30
0
41
1
10
9.64880551985362
20
-0.623277974757428
30
0
41
1
10
9.58936688353691
20
-0.593389892516115
30
0
41
1
10
9.47068689406936
20
-0.532985138842207
30
0
41
1
10
9.41150470169711
20
-0.502357947540844
30
0
41
1
10
9.29317572908036
20
-0.440769968965981
30
0
41
1
10
9.23403359496504
20
-0.40980102767756
30
0
41
1
10
9.05653653939203
20
-0.316630643730065
30
0
41
1
10
8.93807218743393
20
-0.254240571520455
30
0
41
1
10
8.76017937462709
20
-0.160248748196977
30
0
41
1
10
8.70086168209636
20
-0.12882624120931
30
0
41
1
10
8.58229388275603
20
-0.0655859600075246
30
0
41
1
10
8.52302823972755
20
-0.0337975636738008
30
0
41
1
10
8.34511331027701
20
0.0617449036044775
30
0
41
1
10
8.22632280809054
20
0.125634284417117
30
0
41
1
10
7.9874069990735
20
0.25187862667758
30
0
41
1
10
7.86736579386195
20
0.314394877469795
30
0
41
1
10
7.74671764012558
20
0.37624979317394
30
0
0
SPLINE
5
107
100
AcDbEntity
8
1
62
256
6
ByLayer
370
18
48
1
60
0
100
AcDbSpline
70
4
71
3
72
91
73
87
40
0
40
0
40
0
40
0
40
0.0625000000000001
40
0.0625000000000001
40
0.125
40
0.125
40
0.1875
40
0.1875
40
0.203125000000001
40
0.203125000000001
40
0.218750000000002
40
0.218750000000002
40
0.250000000000006
40
0.250000000000006
40
0.281250000000011
40
0.281250000000011
40
0.296875000000013
40
0.296875000000013
40
0.312500000000015
40
0.312500000000015
40
0.343750000000022
40
0.343750000000022
40
0.375000000000028
40
0.375000000000028
40
0.38281250000003
40
0.38281250000003
40
0.390625000000031
40
0.390625000000031
40
0.406250000000035
40
0.421875000000039
40
0.421875000000039
40
0.429687500000041
40
0.429687500000041
40
0.437500000000043
40
0.437500000000043
40
0.46875000000005
40
0.46875000000005
40
0.476562500000052
40
0.476562500000052
40
0.484375000000054
40
0.484375000000054
40
0.500000000000058
40
0.515625000000061
40
0.515625000000061
40
0.531250000000065
40
0.531250000000065
40
0.562500000000072
40
0.562500000000072
40
0.578125000000074
40
0.578125000000074
40
0.593750000000076
40
0.593750000000076
40
0.625000000000078
40
0.625000000000078
40
0.656250000000081
40
0.656250000000081
40
0.687500000000083
40
0.687500000000083
40
0.718750000000085
40
0.718750000000085
40
0.750000000000087
40
0.750000000000087
40
0.765625000000086
40
0.765625000000086
40
0.769531250000086
40
0.769531250000086
40
0.771484375000088
40
0.771484375000088
40
0.773437500000089
40
0.773437500000089
40
0.777343750000093
40
0.777343750000093
40
0.781250000000096
40
0.781250000000096
40
0.789062500000098
40
0.789062500000098
40
0.792968750000098
40
0.792968750000098
40
0.796875000000097
40
0.812500000000088
40
0.812500000000088
40
0.875000000000059
40
0.875000000000059
40
0.937500000000029
40
0.937500000000029
40
1
40
1
40
1
40
1
41
1
10
7.74655988898846
20
0.376331476023978
30
0
41
1
10
7.64267939187198
20
0.430121115791906
30
0
41
1
10
7.53992331089373
20
0.484846321315672
30
0
41
1
10
7.33699841459307
20
0.596379626682818
30
0
41
1
10
7.2368256914217
20
0.653184786677485
30
0
41
1
10
7.03959482272805
20
0.769231449309132
30
0
41
1
10
6.94252744326212
20
0.828465965977472
30
0
41
1
10
6.82370222099527
20
0.904427877298332
30
0
41
1
10
6.80006401804965
20
0.919717247033987
30
0
41
1
10
6.75306238564389
20
0.950505171382673
30
0
41
1
10
6.72967462135085
20
0.96602021875546
30
0
41
1
10
6.66019158987498
20
1.0127504686414
30
0
41
1
10
6.61476025330921
20
1.04415620165835
30
0
41
1
10
6.5259897876239
20
1.1075520576201
30
0
41
1
10
6.48264823684846
20
1.13954146529213
30
0
41
1
10
6.41954050837344
20
1.18805366832916
30
0
41
1
10
6.39882332305851
20
1.2043127953522
30
0
41
1
10
6.35810389461227
20
1.23702913871907
30
0
41
1
10
6.33817172638132
20
1.25343121486066
30
0
41
1
10
6.28001940324745
20
1.30259000007217
30
0
41
1
10
6.24333550018042
20
1.33537359165859
30
0
41
1
10
6.17514026801538
20
1.40097761458353
30
0
41
1
10
6.14361458990339
20
1.43379751819958
30
0
41
1
10
6.10844833699474
20
1.47486758560404
30
0
41
1
10
6.10162938571369
20
1.4830839377305
30
0
41
1
10
6.0884564938049
20
1.49952227296308
30
0
41
1
10
6.08210188834448
20
1.50774731736172
30
0
41
1
10
6.06398105390954
20
1.53217453011712
30
0
41
1
10
6.04219464759802
20
1.56425019814765
30
0
41
1
10
6.02560397734973
20
1.59525913428015
30
0
41
1
10
6.01532160969384
20
1.6180789960415
30
0
41
1
10
6.01225476850533
20
1.62561272768093
30
0
41
1
10
6.00688486052397
20
1.64052712032642
30
0
41
1
10
6.00458302252636
20
1.64791444477561
30
0
41
1
10
5.99520398556894
20
1.68394919081157
30
0
41
1
10
5.99433716731207
20
1.71030542719185
30
0
41
1
10
6.0016540775739
20
1.74019104080318
30
0
41
1
10
6.0035384499146
20
1.74601487420455
30
0
41
1
10
6.00815570108367
20
1.75735549065243
30
0
41
1
10
6.01089812643974
20
1.76288351468327
30
0
41
1
10
6.02027252267925
20
1.7788014172238
30
0
41
1
10
6.03586420251477
20
1.79838853390888
30
0
41
1
10
6.057079047841
20
1.81503046928205
30
0
41
1
10
6.08088160057255
20
1.83033193895676
30
0
41
1
10
6.09413283190855
20
1.83732844344638
30
0
41
1
10
6.13666297812773
20
1.85615589881544
30
0
41
1
10
6.16885650237762
20
1.86599337469983
30
0
41
1
10
6.22155187883851
20
1.87770664870055
30
0
41
1
10
6.23985877151714
20
1.88109818616161
30
0
41
1
10
6.27779964074051
20
1.88697445016271
30
0
41
1
10
6.29747957101551
20
1.88946336951432
30
0
41
1
10
6.3579947555524
20
1.89568172167699
30
0
41
1
10
6.40004393920552
20
1.89816114936099
30
0
41
1
10
6.48677964437448
20
1.9006113399245
30
0
41
1
10
6.53147185655453
20
1.9005760117582
30
0
41
1
10
6.62300596101616
20
1.89851454180274
30
0
41
1
10
6.66985055416887
20
1.89648551263198
30
0
41
1
10
6.76535019514969
20
1.89079640760329
30
0
41
1
10
6.81404457722729
20
1.88713140658194
30
0
41
1
10
6.91282866237196
20
1.87844753270738
30
0
41
1
10
6.96280701771116
20
1.87343920091178
30
0
41
1
10
7.03853309746995
20
1.86509154660956
30
0
41
1
10
7.06390193403971
20
1.86216928032636
30
0
41
1
10
7.09576132427222
20
1.85835562145763
30
0
41
1
10
7.10213983304018
20
1.85758456164558
30
0
41
1
10
7.11172067852269
20
1.85641688708327
30
0
41
1
10
7.11491370364374
20
1.85602068712441
30
0
41
1
10
7.12148427647438
20
1.85531336096264
30
0
41
1
10
7.12483050291164
20
1.85498810653922
30
0
41
1
10
7.13508005917905
20
1.85411481373933
30
0
41
1
10
7.14225019269466
20
1.85373226106989
30
0
41
1
10
7.15660824424148
20
1.85323436347827
30
0
41
1
10
7.16391577529268
20
1.85315831536408
30
0
41
1
10
7.18595013818216
20
1.85326983459962
30
0
41
1
10
7.20024072991348
20
1.85384558409865
30
0
41
1
10
7.22123241603103
20
1.85523961570161
30
0
41
1
10
7.228151347227
20
1.85579060639256
30
0
41
1
10
7.24192382756615
20
1.85689519103534
30
0
41
1
10
7.27633376799375
20
1.85964543590396
30
0
41
1
10
7.31064827040405
20
1.86233053297317
30
0
41
1
10
7.44757973936552
20
1.8728194064681
30
0
41
1
10
7.55605386193812
20
1.88040392297108
30
0
41
1
10
7.77081034441298
20
1.89279868181873
30
0
41
1
10
7.87717877592115
20
1.89760731445151
30
0
41
1
10
8.08759147414261
20
1.903273466098
30
0
41
1
10
8.19169398872052
20
1.90413361685239
30
0
41
1
10
8.29492923659444
20
1.90250612467392
30
0
0
SPLINE
5
108
100
AcDbEntity
8
1
62
256
6
ByLayer
370
18
48
1
60
0
100
AcDbSpline
70
4
71
3
72
61
73
57
40
0
40
0
40
0
40
0
40
0.0363940756752995
40
0.0363940756752995
40
0.0727881513505989
40
0.0727881513505989
40
0.109182227025898
40
0.109182227025898
40
0.145576302701198
40
0.145576302701198
40
0.218364454051797
40
0.218364454051797
40
0.227462972970622
40
0.227462972970622
40
0.236561491889447
40
0.236561491889447
40
0.254758529727097
40
0.254758529727097
40
0.291152605402396
40
0.291152605402396
40
0.363940756752995
40
0.363940756752995
40
0.436728908103594
40
0.436728908103594
40
0.454925945941244
40
0.454925945941244
40
0.473122983778893
40
0.473122983778893
40
0.50951705945419
40
0.50951705945419
40
0.545911135129488
40
0.545911135129488
40
0.582305210804785
40
0.582305210804785
40
0.618699286480083
40
0.618699286480083
40
0.65509336215538
40
0.65509336215538
40
0.691487437830677
40
0.691487437830677
40
0.700585956749502
40
0.700585956749502
40
0.709684475668326
40
0.727881513505976
40
0.727881513505976
40
0.800669664856575
40
0.800669664856575
40
0.873457816207175
40
0.873457816207175
40
0.909851891882474
40
0.909851891882474
40
0.928048929720124
40
0.928048929720124
40
0.946245967557774
40
0.946245967557774
40
1
40
1
40
1
40
1
41
1
10
8.29492796502242
20
1.90250614444247
30
0
41
1
10
8.43136153186418
20
1.90038488598904
30
0
41
1
10
8.56715779044387
20
1.89415286728138
30
0
41
1
10
8.83777245831496
20
1.87362220369749
30
0
41
1
10
8.97258101668314
20
1.85930859586247
30
0
41
1
10
9.24183960368845
20
1.82291522287144
30
0
41
1
10
9.37630721768411
20
1.80085855230021
30
0
41
1
10
9.64513571590638
20
1.74922135314563
30
0
41
1
10
9.77945844251624
20
1.71960433197299
30
0
41
1
10
10.182914732087
20
1.61989711466143
30
0
41
1
10
10.452562681923
20
1.53901080710642
30
0
41
1
10
10.7581893055069
20
1.43292475665567
30
0
41
1
10
10.7921801662515
20
1.42092853970323
30
0
41
1
10
10.8602357143979
20
1.39652748685259
30
0
41
1
10
10.8943167732326
20
1.384117487483
30
0
41
1
10
10.9963875154976
20
1.34639129163767
30
0
41
1
10
11.0642862401932
20
1.3205423154339
30
0
41
1
10
11.2676220035583
20
1.24103927081313
30
0
41
1
10
11.4027122588992
20
1.18545044489571
30
0
41
1
10
11.807047934905
20
1.01172219618715
30
0
41
1
10
12.0753867450917
20
0.886651487931204
30
0
41
1
10
12.6128170015571
20
0.6234361224152
30
0
41
1
10
12.8817698126812
20
0.485045520635396
30
0
41
1
10
13.2203098172681
20
0.30714971367172
30
0
41
1
10
13.2881367938128
20
0.271329036841536
30
0
41
1
10
13.4240597453003
20
0.199255102564848
30
0
41
1
10
13.4922175464673
20
0.162962833706729
30
0
41
1
10
13.6960017030194
20
0.0542038255934472
30
0
41
1
10
13.8313043920946
20
-0.0182829238241027
30
0
41
1
10
14.1011770908838
20
-0.162521773814575
30
0
41
1
10
14.2357671136718
20
-0.234235511948214
30
0
41
1
10
14.5045454361778
20
-0.376315958883111
30
0
41
1
10
14.6387409204588
20
-0.446667782169783
30
0
41
1
10
14.9071667835182
20
-0.585211749108282
30
0
41
1
10
15.041393825795
20
-0.653410488189337
30
0
41
1
10
15.3102487787588
20
-0.78697744328943
30
0
41
1
10
15.4448393658298
20
-0.852411298639026
30
0
41
1
10
15.7148194389849
20
-0.979718419235638
30
0
41
1
10
15.8501906895026
20
-1.04162370657477
30
0
41
1
10
16.0201447495723
20
-1.11634358375682
30
0
41
1
10
16.0541940005989
20
-1.1311630592252
30
0
41
1
10
16.1221850217533
20
-1.16044775125746
30
0
41
1
10
16.2240605712059
20
-1.20386548831067
30
0
41
1
10
16.3256145414344
20
-1.24574732049283
30
0
41
1
10
16.663562338438
20
-1.38175351569731
30
0
41
1
10
16.9321996660356
20
-1.47891888056122
30
0
41
1
10
17.4688593860113
20
-1.64691514586937
30
0
41
1
10
17.7369050454112
20
-1.71770156095602
30
0
41
1
10
18.1408825927622
20
-1.80166119556125
30
0
41
1
10
18.2758186802217
20
-1.82597492501299
30
0
41
1
10
18.4790028030986
20
-1.85659304900094
30
0
41
1
10
18.5468554003347
20
-1.86582746558426
30
0
41
1
10
18.6828634392885
20
-1.88230276686082
30
0
41
1
10
18.7507731403401
20
-1.88951276509135
30
0
41
1
10
19.0186709286429
20
-1.91392848785648
30
0
41
1
10
19.217652109343
20
-1.92317656399862
30
0
41
1
10
19.4161185705265
20
-1.92354150796686
30
0
0
SPLINE
5
109
100
AcDbEntity
8
1
62
256
6
ByLayer
370
18
48
1
60
0
100
AcDbSpline
70
4
71
3
72
36
73
32
40
0
40
0
40
0
40
0
40
0.0865792652846046
40
0.0865792652846046
40
0.151823603478552
40
0.151823603478552
40
0.2170679416725
40
0.2170679416725
40
0.347556618060401
40
0.347556618060401
40
0.478045294448303
40
0.478045294448303
40
0.543289632642253
40
0.543289632642253
40
0.559600717190741
40
0.559600717190741
40
0.575911801739228
40
0.575911801739228
40
0.608533970836209
40
0.608533970836209
40
0.673778309030174
40
0.673778309030174
40
0.739022647224141
40
0.739022647224141
40
0.869511323612073
40
0.869511323612073
40
0.934755661806039
40
0.934755661806039
40
0.967377830903019
40
0.967377830903019
40
1
40
1
40
1
40
1
41
1
10
27.9721221993536
20
1.41893519674483
30
0
41
1
10
28.1499277580727
20
1.48484079450628
30
0
41
1
10
28.3280142859609
20
1.54560766261324
30
0
41
1
10
28.6415081660378
20
1.64214993131699
30
0
41
1
10
28.7766364894797
20
1.68037113551455
30
0
41
1
10
29.0481228807854
20
1.74972568409038
30
0
41
1
10
29.1832963743946
20
1.78054602746914
30
0
41
1
10
29.5874702362778
20
1.86126284253365
30
0
41
1
10
29.8551799525773
20
1.89941211967323
30
0
41
1
10
30.3904203241467
20
1.94339038505316
30
0
41
1
10
30.6578104782201
20
1.94925851712554
30
0
41
1
10
31.061014792477
20
1.93332217079123
30
0
41
1
10
31.1957717316429
20
1.92389622324038
30
0
41
1
10
31.3648516773469
20
1.9069050047994
30
0
41
1
10
31.3987003709294
20
1.90324647001404
30
0
41
1
10
31.46647214876
20
1.8954087877546
30
0
41
1
10
31.5004075153382
20
1.89122784209104
30
0
41
1
10
31.602035252682
20
1.87794612970103
30
0
41
1
10
31.6696390199644
20
1.86809370198873
30
0
41
1
10
31.8720860627155
20
1.83561717759412
30
0
41
1
10
32.0065767740992
20
1.81008252303235
30
0
41
1
10
32.2749419613867
20
1.75158883861425
30
0
41
1
10
32.4088042658975
20
1.71861608249213
30
0
41
1
10
32.8101314726717
20
1.60919873454114
30
0
41
1
10
33.0772958257133
20
1.52223165629184
30
0
41
1
10
33.4796166466195
20
1.37295974477379
30
0
41
1
10
33.6140067234939
20
1.32009130901278
30
0
41
1
10
33.8163038996103
20
1.23643450973464
30
0
41
1
10
33.8838580166891
20
1.20782797085417
30
0
41
1
10
34.019246244916
20
1.14920761817004
30
0
41
1
10
34.0871099253564
20
1.11917315989316
30
0
41
1
10
34.1547291665371
20
1.08864645257324
30
0
0
SPLINE
5
10A
100
AcDbEntity
8
1
62
256
6
ByLayer
370
18
48
1
60
0
100
AcDbSpline
70
4
71
3
72
39
73
35
40
0
40
0
40
0
40
0
40
0.0762572882137333
40
0.0762572882137333
40
0.0953216102671657
40
0.0953216102671657
40
0.114385932320598
40
0.152514576427463
40
0.152514576427463
40
0.305029152854933
40
0.305029152854933
40
0.381286441068669
40
0.381286441068669
40
0.400350763122106
40
0.400350763122106
40
0.419415085175543
40
0.419415085175543
40
0.457543729282417
40
0.457543729282417
40
0.53380101749616
40
0.53380101749616
40
0.610058305709904
40
0.610058305709904
40
0.686315593923647
40
0.686315593923647
40
0.724444238030517
40
0.724444238030517
40
0.74350856008395
40
0.74350856008395
40
0.762572882137383
40
0.762572882137383
40
0.915087458564866
40
0.915087458564866
40
1
40
1
40
1
40
1
41
1
10
34.1547291665371
20
1.12325546285476
30
0
41
1
10
34.3554901313554
20
1.03421655044568
30
0
41
1
10
34.5559329796861
20
0.93993405710782
30
0
41
1
10
34.806898336927
20
0.816783175402577
30
0
41
1
10
34.8571470142538
20
0.791871522759294
30
0
41
1
10
34.9575330763813
20
0.741642058658073
30
0
41
1
10
35.1078640998935
20
0.665730269823285
30
0
41
1
10
35.2575500684236
20
0.58830022647291
30
0
41
1
10
35.7554972852516
20
0.327623370316843
30
0
41
1
10
36.1506782001215
20
0.110915356192436
30
0
41
1
10
36.7458404004259
20
-0.213013657533821
30
0
41
1
10
36.9446363930109
20
-0.320782102458026
30
0
41
1
10
37.1944085245394
20
-0.453798157516218
30
0
41
1
10
37.2444263552924
20
-0.480317505993867
30
0
41
1
10
37.3446079142925
20
-0.533152781312793
30
0
41
1
10
37.3948197396068
20
-0.559493727217273
30
0
41
1
10
37.545350715799
20
-0.637970095742872
30
0
41
1
10
37.6453645240466
20
-0.689455702785637
30
0
41
1
10
37.9446365316015
20
-0.841019768827863
30
0
41
1
10
38.1431262532449
20
-0.93820014282619
30
0
41
1
10
38.5394164987195
20
-1.12274841094663
30
0
41
1
10
38.7372312966926
20
-1.21009841473307
30
0
41
1
10
39.1333832824618
20
-1.37321241197097
30
0
41
1
10
39.3317070785338
20
-1.44899483892365
30
0
41
1
10
39.6304745912888
20
-1.55265991269354
30
0
41
1
10
39.7302783640538
20
-1.58554558412956
30
0
41
1
10
39.8804259931016
20
-1.63219446364528
30
0
41
1
10
39.930576597792
20
-1.64730550015224
30
0
41
1
10
40.0309241842186
20
-1.67657112267096
30
0
41
1
10
40.0810124770753
20
-1.69069452877048
30
0
41
1
10
40.5311259494018
20
-1.81317619394576
30
0
41
1
10
40.9263587539018
20
-1.88907133241727
30
0
41
1
10
41.5423143253283
20
-1.95214601367167
30
0
41
1
10
41.7627640250092
20
-1.96377153745749
30
0
41
1
10
41.9841758125887
20
-1.96417565973937
30
0
0
SPLINE
5
10B
100
AcDbEntity
8
1
62
256
6
ByLayer
370
18
48
1
60
0
100
AcDbSpline
70
4
71
3
72
15
73
11
40
0
40
0
40
0
40
0
40
0.425617479069681
40
0.425617479069681
40
0.71280873953484
40
0.71280873953484
40
0.784606554651127
40
0.784606554651127
40
0.856404369767413
40
1
40
1
40
1
40
1
41
1
10
51.164434712106
20
1.65622675182456
30
0
41
1
10
51.4572096433139
20
1.74536950252829
30
0
41
1
10
51.7493570781812
20
1.81790668974392
30
0
41
1
10
52.2411102269983
20
1.90826896762459
30
0
41
1
10
52.439926315973
20
1.9362214253014
30
0
41
1
10
52.6900778968398
20
1.959911844343
30
0
41
1
10
52.7401380563262
20
1.96408161616418
30
0
41
1
10
52.8401540303742
20
1.97126447566535
30
0
41
1
10
52.9901051186475
20
1.98031192131344
30
0
41
1
10
53.1399304277638
20
1.98416821752528
30
0
41
1
10
53.2398429967104
20
1.98442451087988
30
0
0
SPLINE
5
10C
100
AcDbEntity
8
1
62
256
6
ByLayer
370
18
48
1
60
0
100
AcDbSpline
70
4
71
3
72
47
73
43
40
0
40
0
40
0
40
0
40
0.022578396374167
40
0.022578396374167
40
0.0877398366158954
40
0.0877398366158954
40
0.152901276857624
40
0.152901276857624
40
0.18548199697849
40
0.18548199697849
40
0.201772357038923
40
0.201772357038923
40
0.218062717099356
40
0.218062717099356
40
0.348385597582812
40
0.348385597582812
40
0.41354703782454
40
0.41354703782454
40
0.478708478066268
40
0.478708478066268
40
0.4949988381267
40
0.4949988381267
40
0.511289198187131
40
0.54386991830799
40
0.54386991830799
40
0.609031358549711
40
0.609031358549711
40
0.674192798791432
40
0.674192798791432
40
0.739354239033154
40
0.739354239033154
40
0.755644599093583
40
0.755644599093583
40
0.771934959154013
40
0.771934959154013
40
0.804515679274868
40
0.804515679274868
40
0.869677119516579
40
0.869677119516579
40
0.934838559758289
40
0.934838559758289
40
1
40
1
40
1
40
1
41
1
10
43.3356496825324
20
-1.89634264556986
30
0
41
1
10
43.2671296927592
20
-1.90618719475862
30
0
41
1
10
43.1986792938138
20
-1.91497707456131
30
0
41
1
10
42.9328566049508
20
-1.94502376660495
30
0
41
1
10
42.735848784885
20
-1.95853573028936
30
0
41
1
10
42.3414380198552
20
-1.9677012332391
30
0
41
1
10
42.1439894814551
20
-1.96335494141604
30
0
41
1
10
41.846590924968
20
-1.9433065744939
30
0
41
1
10
41.7472576127017
20
-1.93436681341782
30
0
41
1
10
41.5978270992301
20
-1.91755678553869
30
0
41
1
10
41.5479454346763
20
-1.91138666197216
30
0
41
1
10
41.4480155236575
20
-1.89791218210283
30
0
41
1
10
41.3980339682271
20
-1.89061576120136
30
0
41
1
10
40.9492335502281
20
-1.82019333614303
30
0
41
1
10
40.5548679998116
20
-1.72348482253051
30
0
41
1
10
39.963165926973
20
-1.53471891079542
30
0
41
1
10
39.7658717721458
20
-1.46454094182124
30
0
41
1
10
39.3698995904286
20
-1.31107961915171
30
0
41
1
10
39.1712459687151
20
-1.22776685272311
30
0
41
1
10
38.921321522041
20
-1.11625261760904
30
0
41
1
10
38.871288003914
20
-1.09359282745103
30
0
41
1
10
38.7714799785161
20
-1.04776491463096
30
0
41
1
10
38.6219992459565
20
-0.978190951200219
30
0
41
1
10
38.4731164718552
20
-0.906290498571593
30
0
41
1
10
38.1758609709841
20
-0.759900054867813
30
0
41
1
10
37.9783718109935
20
-0.658853763239449
30
0
41
1
10
37.5836252318471
20
-0.451911679042411
30
0
41
1
10
37.3863781299438
20
-0.345996584293545
30
0
41
1
10
36.9909534435492
20
-0.13141345121511
30
0
41
1
10
36.7927427402795
20
-0.0228055021655109
30
0
41
1
10
36.5435140028265
20
0.113050331086612
30
0
41
1
10
36.4935954825556
20
0.14022715311242
30
0
41
1
10
36.3935938014027
20
0.194556991125182
30
0
41
1
10
36.3435038216891
20
0.221713483594897
30
0
41
1
10
36.1935862008456
20
0.302755173911549
30
0
41
1
10
36.0939018853126
20
0.356325782526966
30
0
41
1
10
35.7954069869522
20
0.515282537589144
30
0
41
1
10
35.5972031816508
20
0.619002607186928
30
0
41
1
10
35.2011020251271
20
0.819712811657297
30
0
41
1
10
35.0031517646624
20
0.916609946648521
30
0
41
1
10
34.606122983879
20
1.10126624262307
30
0
41
1
10
34.407043769936
20
1.18903278900117
30
0
41
1
10
34.2069178320786
20
1.27140436527108
30
0
0
SPLINE
5
10D
100
AcDbEntity
8
1
62
256
6
ByLayer
370
18
48
1
60
0
100
AcDbSpline
70
4
71
3
72
16
73
12
40
0
40
0
40
0
40
0
40
0.250000000000211
40
0.250000000000211
40
0.375000000000176
40
0.375000000000176
40
0.500000000000141
40
0.500000000000141
40
0.75000000000007
40
0.75000000000007
40
1
40
1
40
1
40
1
41
1
10
34.2069178320778
20
1.27140436527142
30
0
41
1
10
34.1990901138899
20
1.27462624391762
30
0
41
1
10
34.1919971648058
20
1.2785475986172
30
0
41
1
10
34.1824283959578
20
1.28542687770263
30
0
41
1
10
34.1794030694162
20
1.28790699083908
30
0
41
1
10
34.1738824976139
20
1.29307451308585
30
0
41
1
10
34.1713698077551
20
1.2957705087689
30
0
41
1
10
34.1645620379501
20
1.30418405189207
30
0
41
1
10
34.1609700440824
20
1.31031184966741
30
0
41
1
10
34.1561496758573
20
1.32278740244985
30
0
41
1
10
34.154851412882
20
1.32922692606644
30
0
41
1
10
34.1547373746383
20
1.33571763336624
30
0
0
SPLINE
5
10E
100
AcDbEntity
8
1
62
256
6
ByLayer
370
18
48
1
60
0
100
AcDbSpline
70
4
71
3
72
8
73
4
40
0
40
0
40
0
40
0
40
1
40
1
40
1
40
1
41
1
10
34.1547373746137
20
1.33571763476135
30
0
41
1
10
34.1547363791115
20
1.33577430032028
30
0
41
1
10
34.1547358821472
20
1.33583096911286
30
0
41
1
10
34.1547358824767
20
1.33588763416555
30
0
0
SPLINE
5
10F
100
AcDbEntity
8
1
62
256
6
ByLayer
370
18
48
1
60
0
100
AcDbSpline
70
4
71
3
72
28
73
24
40
0
40
0
40
0
40
0
40
0.0947634192383197
40
0.0947634192383197
40
0.189526838476639
40
0.189526838476639
40
0.379053676953278
40
0.379053676953278
40
0.426435386572438
40
0.426435386572438
40
0.473817096191598
40
0.473817096191598
40
0.568580515429918
40
0.568580515429918
40
0.758107353906557
40
0.758107353906557
40
0.852870773144876
40
0.852870773144876
40
0.900252482764036
40
0.900252482764036
40
0.947634192383196
40
0.947634192383196
40
1
40
1
40
1
40
1
41
1
10
34.1547358824768
20
1.33588764084115
30
0
41
1
10
34.15473609675
20
1.37273731268465
30
0
41
1
10
34.1547363110803
20
1.40833362281918
30
0
41
1
10
34.1547367351505
20
1.47615055702519
30
0
41
1
10
34.1547369452596
20
1.50844081277913
30
0
41
1
10
34.1547375714254
20
1.60056315547035
30
0
41
1
10
34.1547379832616
20
1.65567445144936
30
0
41
1
10
34.1547384974626
20
1.71660978534018
30
0
41
1
10
34.1547386002778
20
1.72839695651706
30
0
41
1
10
34.1547388060361
20
1.75116057056437
30
0
41
1
10
34.1547389091421
20
1.76215356983599
30
0
41
1
10
34.1547392178032
20
1.79377959570292
30
0
41
1
10
34.1547394214826
20
1.81294201857082
30
0
41
1
10
34.1547400284518
20
1.86482899110897
30
0
41
1
10
34.1547404278055
20
1.8919853108448
30
0
41
1
10
34.1547410254749
20
1.92161010625483
30
0
41
1
10
34.154741224439
20
1.92962537135614
30
0
41
1
10
34.154741522989
20
1.93878826083167
30
0
41
1
10
34.1547416227274
20
1.94136858477825
30
0
41
1
10
34.1547418207803
20
1.94552891197028
30
0
41
1
10
34.1547419191899
20
1.94711399777066
30
0
41
1
10
34.1547421250996
20
1.9494247905096
30
0
41
1
10
34.1547422324955
20
1.95004585909723
30
0
41
1
10
34.1547423391521
20
1.95007764074234
30
0
0
SPLINE
5
110
100
AcDbEntity
8
SK1
62
256
6
ByLayer
370
18
48
1
60
0
100
AcDbSpline
70
4
71
3
72
8
73
4
40
0
40
0
40
0
40
0
40
1
40
1
40
1
40
1
41
1
10
-35.75
20
-1.32318741889972
30
0
41
1
10
-35.8336524948308
20
-1.25186830968261
30
0
41
1
10
-35.9170270283237
20
-1.18034040920344
30
0
41
1
10
-36
20
-1.10851087469447
30
0
0
SPLINE
5
111
100
AcDbEntity
8
SK1
62
256
6
ByLayer
370
18
48
1
60
0
100
AcDbSpline
70
4
71
3
72
22
73
18
40
0
40
0
40
0
40
0
40
0.0625000000000014
40
0.0625000000000014
40
0.125000000000003
40
0.125000000000003
40
0.250000000000003
40
0.250000000000003
40
0.375000000000003
40
0.375000000000003
40
0.500000000000003
40
0.500000000000003
40
0.625000000000002
40
0.625000000000002
40
0.750000000000002
40
0.750000000000002
40
1
40
1
40
1
40
1
41
1
10
-35.65
20
-1.49178416519871
30
0
41
1
10
-35.65
20
-1.48832834656542
30
0
41
1
10
-35.6502718586019
20
-1.48466675399916
30
0
41
1
10
-35.6512913504498
20
-1.47715408285984
30
0
41
1
10
-35.652030658643
20
-1.47333169551902
30
0
41
1
10
-35.6548298230237
20
-1.46169677301722
30
0
41
1
10
-35.6575061245997
20
-1.45362993455055
30
0
41
1
10
-35.6638376796887
20
-1.43779322820396
30
0
41
1
10
-35.6674983282837
20
-1.42996606037681
30
0
41
1
10
-35.6756151818521
20
-1.41446009407142
30
0
41
1
10
-35.6800682064548
20
-1.40680694765669
30
0
41
1
10
-35.6893906957632
20
-1.39208998406116
30
0
41
1
10
-35.6942952881823
20
-1.38496034306363
30
0
41
1
10
-35.7045485857552
20
-1.37111640919429
30
0
41
1
10
-35.7099306774388
20
-1.3643649357592
30
0
41
1
10
-35.7265024515808
20
-1.34502533238205
30
0
41
1
10
-35.7380004903212
20
-1.33341776938798
30
0
41
1
10
-35.7500000000001
20
-1.32318741889972
30
0
0
SPLINE
5
112
100
AcDbEntity
8
SK1
62
256
6
ByLayer
370
18
48
1
60
0
100
AcDbSpline
70
4
71
3
72
22
73
18
40
0
40
0
40
0
40
0
40
0.25
40
0.25
40
0.375
40
0.375
40
0.499999999999999
40
0.499999999999999
40
0.624999999999999
40
0.624999999999999
40
0.749999999999999
40
0.749999999999999
40
0.874999999999999
40
0.874999999999999
40
0.937499999999999
40
0.937499999999999
40
1
40
1
40
1
40
1
41
1
10
-35.75
20
-2.20987112118007
30
0
41
1
10
-35.7379956523282
20
-2.22010559636721
30
0
41
1
10
-35.7264866986603
20
-2.22925162235245
30
0
41
1
10
-35.7098921057741
20
-2.24139371911866
30
0
41
1
10
-35.7045257065493
20
-2.24513229441135
30
0
41
1
10
-35.6942964893128
20
-2.25185270534817
30
0
41
1
10
-35.6894060316865
20
-2.25485535560102
30
0
41
1
10
-35.6801144608566
20
-2.26006201626072
30
0
41
1
10
-35.6756964104889
20
-2.26227509784971
30
0
41
1
10
-35.6675285377628
20
-2.26567220703535
30
0
41
1
10
-35.6638529491705
20
-2.266828654736
30
0
41
1
10
-35.6575076548176
20
-2.26779388818238
30
0
41
1
10
-35.6548318331324
20
-2.26758520976563
30
0
41
1
10
-35.6520304488211
20
-2.26593061854737
30
0
41
1
10
-35.65129058319
20
-2.26515690211033
30
0
41
1
10
-35.650270741394
20
-2.26308352870169
30
0
41
1
10
-35.65
20
-2.26178887716577
30
0
41
1
10
-35.65
20
-2.26024337384155
30
0
0
SPLINE
5
113
100
AcDbEntity
8
SK1
62
256
6
ByLayer
370
18
48
1
60
0
100
AcDbSpline
70
4
71
3
72
8
73
4
40
0
40
0
40
0
40
0
40
1
40
1
40
1
40
1
41
1
10
-36
20
-1.99519457697468
30
0
41
1
10
-35.9170394943999
20
-2.0670133196266
30
0
41
1
10
-35.8336636292355
20
-2.13854251916968
30
0
41
1
10
-35.7499999999999
20
-2.20987112117996
30
0
0
SPLINE
5
114
100
AcDbEntity
8
1
62
256
6
ByLayer
370
18
48
1
60
0
100
AcDbSpline
70
4
71
3
72
23
73
19
40
0
40
0
40
0
40
0
40
2.51950863847E-05
40
7.63502458648E-05
40
0.0001321229266247
40
0.0001975468257289
40
0.000368453761709
40
0.0012743696209814
40
0.0034788712233301
40
0.0113836040137634
40
0.0682277710748744
40
0.158242228740964
40
0.242552745165687
40
0.319161150357296
40
0.389161645484729
40
0.545196563946491
40
0.76846398350901
40
1
40
1
40
1
40
1
41
1
10
31.858482031576
20
-0.0894033031850086
30
0
41
1
10
31.8584922617351
20
-0.0894040645587495
30
0
41
1
10
31.8585169620908
20
-0.0894040727975494
30
0
41
1
10
31.8585191256301
20
-0.0893901538213981
30
0
41
1
10
31.8584549065354
20
-0.0893513702466464
30
0
41
1
10
31.8582711893031
20
-0.0892652548014894
30
0
41
1
10
31.857278864393
20
-0.0888629328630088
30
0
41
1
10
31.8538159420603
20
-0.0876087667367074
30
0
41
1
10
31.8420412017377
20
-0.0834593572339486
30
0
41
1
10
31.7685551771243
20
-0.0581829911984926
30
0
41
1
10
31.5979895806444
20
0.0002992256331993
30
0
41
1
10
31.343178376624
20
0.0895596100977798
30
0
41
1
10
31.0673738078685
20
0.188382586399769
30
0
41
1
10
30.8141201353855
20
0.281032084813546
30
0
41
1
10
30.4830390173537
20
0.404381069181625
30
0
41
1
10
29.9931582363624
20
0.592022108844247
30
0
41
1
10
29.330539502299
20
0.856551249063102
30
0
41
1
10
28.8410770560438
20
1.06342805551711
30
0
41
1
10
28.5928314489524
20
1.17118964780639
30
0
0
SPLINE
5
115
100
AcDbEntity
8
1
62
256
6
ByLayer
370
18
48
1
60
0
100
AcDbSpline
70
4
71
3
72
25
73
21
40
0
40
0
40
0
40
0
40
5.668992707E-07
40
0.0001189005380533
40
0.0002108668820333
40
0.0002895441310431
40
0.0005534261316365
40
0.0022783336155826
40
0.0036244148989304
40
0.0060082670072304
40
0.0102030428670754
40
0.0185654849342034
40
0.0444560273339933
40
0.15722207836078
40
0.280946374927504
40
0.410709112865501
40
0.542093809095591
40
0.674577136807408
40
0.829540727572848
40
1
40
1
40
1
40
1
41
1
10
42.9477285879874
20
-0.0353560615098145
30
0
41
1
10
42.9477295617035
20
-0.035355833349348
30
0
41
1
10
42.9477385509924
20
-0.0353536952144964
30
0
41
1
10
42.9477139848108
20
-0.0353355587081978
30
0
41
1
10
42.9475959143943
20
-0.0352833069464111
30
0
41
1
10
42.9472724317173
20
-0.0351594906627213
30
0
41
1
10
42.9451233332626
20
-0.0344034556677286
30
0
41
1
10
42.9415454554794
20
-0.0331845746325428
30
0
41
1
10
42.9357704126966
20
-0.0311800848349435
30
0
41
1
10
42.9273470676933
20
-0.0282554863975975
30
0
41
1
10
42.9114628406954
20
-0.0227021416779962
30
0
41
1
10
42.8704042615034
20
-0.008325422537041
30
0
41
1
10
42.7130496866451
20
0.0468936050145601
30
0
41
1
10
42.4328172405308
20
0.146505960162415
30
0
41
1
10
42.0421880775855
20
0.288639449130443
30
0
41
1
10
41.6318432257385
20
0.44267926423106
30
0
41
1
10
41.2138372675069
20
0.604406641586422
30
0
41
1
10
40.7706724529802
20
0.781039929613144
30
0
41
1
10
40.2881698309699
20
0.97911687370069
30
0
41
1
10
39.9472328880538
20
1.1245116900576
30
0
41
1
10
39.7691555388407
20
1.2018841625071
30
0
0
SPLINE
5
116
100
AcDbEntity
8
1
62
256
6
ByLayer
370
18
48
1
60
0
100
AcDbSpline
70
4
71
3
72
24
73
20
40
0
40
0
40
0
40
0
40
7.8161920176E-06
40
0.0001121524154604
40
0.0001799914710487
40
0.0002308223208467
40
0.0003155809800683
40
0.000848562975561
40
0.0058193690030559
40
0.0144437688183641
40
0.0626838834081371
40
0.14431821699451
40
0.22336881219455
40
0.294599132818645
40
0.35800941404361
40
0.41886867729257
40
0.581128546695897
40
0.800127794835861
40
1
40
1
40
1
40
1
41
1
10
20.6553704830661
20
-0.105116502655932
30
0
41
1
10
20.655371598597
20
-0.105116990952609
30
0
41
1
10
20.6553867573792
20
-0.105123746393502
30
0
41
1
10
20.6553914995911
20
-0.105128829885416
30
0
41
1
10
20.6552657548392
20
-0.105081645125949
30
0
41
1
10
20.6551312037896
20
-0.105032834050149
30
0
41
1
10
20.6545172585164
20
-0.104806429569663
30
0
41
1
10
20.6485286986847
20
-0.102621861764305
30
0
41
1
10
20.6333712643127
20
-0.0974291925973034
30
0
41
1
10
20.5652600343098
20
-0.0741263211375838
30
0
41
1
10
20.4129257895352
20
-0.0221488219948185
30
0
41
1
10
20.182981796784
20
0.0579240273345363
30
0
41
1
10
19.9284224151097
20
0.148398098819172
30
0
41
1
10
19.6942967964535
20
0.233261261564906
30
0
41
1
10
19.4805058105827
20
0.312076143509131
30
0
41
1
10
19.1677263478744
20
0.429152029765504
30
0
41
1
10
18.6867621485181
20
0.614196720583379
30
0
41
1
10
18.0578241439241
20
0.866134327307208
30
0
41
1
10
17.6080862291644
20
1.05658940756723
30
0
41
1
10
17.3942239698705
20
1.14933276080256
30
0
0
SPLINE
5
117
100
AcDbEntity
8
1
62
256
6
ByLayer
370
18
48
1
60
0
100
AcDbSpline
70
4
71
3
72
14
73
10
40
0
40
0
40
0
40
0
40
0.0259878833210049
40
0.106817341922698
40
0.181172250360707
40
0.306851037550822
40
0.491357091664383
40
0.734592511846913
40
1
40
1
40
1
40
1
41
1
10
53.0796632919455
20
0.368943991368383
30
0
41
1
10
53.0612117499853
20
0.375745357694456
30
0
41
1
10
52.9854127662496
20
0.403817492300618
30
0
41
1
10
52.8573216825087
20
0.452809015234237
30
0
41
1
10
52.6588738161574
20
0.52890728508163
30
0
41
1
10
52.3878131738755
20
0.634682812105865
30
0
41
1
10
51.9988277661546
20
0.789885506764193
30
0
41
1
10
51.5135820763216
20
0.989371266020925
30
0
41
1
10
51.1594161501153
20
1.14051317120075
30
0
41
1
10
50.9751166560755
20
1.22064614129246
30
0
0
SPLINE
5
118
100
AcDbEntity
8
1
62
256
6
ByLayer
370
18
48
1
60
0
100
AcDbSpline
70
4
71
3
72
21
73
17
40
0
40
0
40
0
40
0
40
0.104718205192889
40
0.178101366694134
40
0.26618752090869
40
0.325135703329433
40
0.384753190146219
40
0.461271767885472
40
0.560579498788235
40
0.636119833839661
40
0.688220782348828
40
0.740317455137024
40
0.809360946739078
40
0.899141718297084
40
0.969242933294774
40
1
40
1
40
1
40
1
41
1
10
42.3749756509623
20
-1.8658474728594
30
0
41
1
10
42.5054242777206
20
-1.86607845867994
30
0
41
1
10
42.7272888461089
20
-1.86649386171211
30
0
41
1
10
43.0588901642474
20
-1.86729669101624
30
0
41
1
10
43.3334741365924
20
-1.86777738632546
30
0
41
1
10
43.5909095579729
20
-1.8679752498978
30
0
41
1
10
43.8339350375961
20
-1.86828506211992
30
0
41
1
10
44.1272368405928
20
-1.86915789847347
30
0
41
1
10
44.4403756918807
20
-1.86980650041451
30
0
41
1
10
44.7230964831602
20
-1.86970134053439
30
0
41
1
10
44.9470044689473
20
-1.86972672448545
30
0
41
1
10
45.1628187524039
20
-1.87006333191371
30
0
41
1
10
45.4255700420043
20
-1.8708203545865
30
0
41
1
10
45.7107512905424
20
-1.87194458716363
30
0
41
1
10
45.9482392903568
20
-1.87230960549468
30
0
41
1
10
46.0738828978972
20
-1.87230341830303
30
0
41
1
10
46.1121983709599
20
-1.87228820655318
30
0
0
SPLINE
5
119
100
AcDbEntity
8
1
62
256
6
ByLayer
370
18
48
1
60
0
100
AcDbSpline
70
4
71
3
72
12
73
8
40
0
40
0
40
0
40
0
40
0.29450242856339
40
0.511630244230222
40
0.640374690250979
40
0.815178224974823
40
1
40
1
40
1
40
1
41
1
10
35.9621234224628
20
1.85561329385641
30
0
41
1
10
35.7945131039501
20
1.85487386930609
30
0
41
1
10
35.5034295649875
20
1.85397371574092
30
0
41
1
10
35.138720485838
20
1.85465615568341
30
0
41
1
10
34.8430776584884
20
1.85441002405594
30
0
41
1
10
34.5648847683016
20
1.85372487161479
30
0
41
1
10
34.3604358083369
20
1.85237652809292
30
0
41
1
10
34.2553685104905
20
1.85149936376058
30
0
0
SPLINE
5
11A
100
AcDbEntity
8
1
62
256
6
ByLayer
370
18
48
1
60
0
100
AcDbSpline
70
4
71
3
72
21
73
17
40
0
40
0
40
0
40
0
40
0.120996141139405
40
0.200848541777929
40
0.307591240802806
40
0.37709450227412
40
0.422639661771522
40
0.468335722077777
40
0.539600253745118
40
0.635407788335416
40
0.708005552499744
40
0.763906887635054
40
0.815724447725191
40
0.891910674924236
40
0.978744930365031
40
1
40
1
40
1
40
1
41
1
10
47.215721009621
20
1.87438087277297
30
0
41
1
10
47.0592276301784
20
1.87360957422283
30
0
41
1
10
46.7994538203896
20
1.87268483137603
30
0
41
1
10
46.4016168037157
20
1.87179638118627
30
0
41
1
10
46.0703793014265
20
1.8724877632022
30
0
41
1
10
45.7835178466689
20
1.87208308962622
30
0
41
1
10
45.5756122977464
20
1.87139361848418
30
0
41
1
10
45.3654299085713
20
1.87065172838646
30
0
41
1
10
45.0902372913844
20
1.86983716372768
30
0
41
1
10
44.7802492741986
20
1.86966988914281
30
0
41
1
10
44.4901320516877
20
1.86977654086212
30
0
41
1
10
44.2569108374
20
1.86947086025287
30
0
41
1
10
44.0190515165251
20
1.86881552494174
30
0
41
1
10
43.74118104778
20
1.86807682626426
30
0
41
1
10
43.5028405375545
20
1.86792091638989
30
0
41
1
10
43.3630385956351
20
1.8677710808106
30
0
41
1
10
43.3355474699505
20
1.86773813143356
30
0
0
SPLINE
5
11B
100
AcDbEntity
8
1
62
256
6
ByLayer
370
18
48
1
60
0
100
AcDbSpline
70
4
71
3
72
10
73
6
40
0
40
0
40
0
40
0
40
0.481071960390392
40
0.936067477673643
40
1
40
1
40
1
40
1
41
1
10
34.2553685104905
20
-1.85149936376058
30
0
41
1
10
34.3604358083369
20
-1.85237652809292
30
0
41
1
10
34.5648847683016
20
-1.85372487161479
30
0
41
1
10
34.7837316476547
20
-1.85426386264913
30
0
41
1
10
34.8970578334937
20
-1.85442175669803
30
0
41
1
10
34.9110173769529
20
-1.85443920140088
30
0
0
LINE
5
82
100
AcDbEntity
8
4
62
256
6
ByLayer
370
18
48
0.05
60
0
100
AcDbLine
10
0
20
0
30
0
11
54
21
0
31
0
39
0
210
0
220
0
230
1
0
LINE
5
84
100
AcDbEntity
8
81
62
256
6
ByLayer
370
18
48
1
60
0
100
AcDbLine
10
54
20
0
30
0
11
57
21
0
31
0
39
0
210
0
220
0
230
1
0
LINE
5
85
100
AcDbEntity
8
80
62
256
6
ByLayer
370
18
48
1
60
0
100
AcDbLine
10
0
20
0
30
0
11
-3
21
0
31
0
39
0
210
0
220
0
230
1
0
LINE
5
86
100
AcDbEntity
8
SK4
62
256
6
ByLayer
370
18
48
0.05
60
0
100
AcDbLine
10
-39
20
0
30
0
11
57
21
0
31
0
39
0
210
0
220
0
230
1
0
LINE
5
88
100
AcDbEntity
8
1
62
256
6
ByLayer
370
18
48
1
60
0
100
AcDbLine
10
0
20
3
30
0
11
0
21
-3
31
0
39
0
210
0
220
0
230
1
0
LINE
5
89
100
AcDbEntity
8
1
62
256
6
ByLayer
370
13
48
1
60
0
100
AcDbLine
10
53.951892
20
0.223925
30
0
11
53.468261
21
0.661439
31
0
39
0
210
0
220
0
230
1
0
LINE
5
8A
100
AcDbEntity
8
1
62
256
6
ByLayer
370
13
48
1
60
0
100
AcDbLine
10
1.524131
20
-1.891338
30
0
11
1.524131
21
1.891338
31
0
39
0
210
0
220
0
230
1
0
LINE
5
8B
100
AcDbEntity
8
1
62
256
6
ByLayer
370
18
48
1
60
0
100
AcDbLine
10
34.154729
20
1.123255
30
0
11
34.154729
21
1.088646
31
0
39
0
210
0
220
0
230
1
0
LINE
5
8C
100
AcDbEntity
8
1
62
256
6
ByLayer
370
13
48
1
60
0
100
AcDbLine
10
0.761346
20
-2.445668
30
0
11
0.761346
21
2.445668
31
0
39
0
210
0
220
0
230
1
0
LINE
5
8D
100
AcDbEntity
8
SK1
62
256
6
ByLayer
370
18
48
1
60
0
100
AcDbLine
10
-36
20
-1.108505
30
0
11
-36
21
-1.995195
31
0
39
0
210
0
220
0
230
1
0
LINE
5
8F
100
AcDbEntity
8
SK1
62
256
6
ByLayer
370
13
48
1
60
0
100
AcDbLine
10
-35.75
20
-2.209871
30
0
11
-35.75
21
-1.323184
31
0
39
0
210
0
220
0
230
1
0
LINE
5
90
100
AcDbEntity
8
SK1
62
256
6
ByLayer
370
18
48
1
60
0
100
AcDbLine
10
-36
20
2.065
30
0
11
-36
21
-1.108511
31
0
39
0
210
0
220
0
230
1
0
LINE
5
91
100
AcDbEntity
8
SK1
62
256
6
ByLayer
370
18
48
1
60
0
100
AcDbLine
10
-35.65
20
-2.260243
30
0
11
-35.65
21
-1.491784
31
0
39
0
210
0
220
0
230
1
0
LINE
5
92
100
AcDbEntity
8
SK1
62
256
6
ByLayer
370
18
48
1
60
0
100
AcDbLine
10
-36
20
-2.065
30
0
11
-36
21
-1.995195
31
0
39
0
210
0
220
0
230
1
0
LINE
5
93
100
AcDbEntity
8
SK1
62
256
6
ByLayer
370
18
48
1
60
0
100
AcDbLine
10
0
20
3
30
0
11
0
21
-3
31
0
39
0
210
0
220
0
230
1
0
LINE
5
94
100
AcDbEntity
8
SK1
62
256
6
ByLayer
370
18
48
1
60
0
100
AcDbLine
10
-35.065
20
-3
30
0
11
-35.065
21
3
31
0
39
0
210
0
220
0
230
1
0
LINE
5
95
100
AcDbEntity
8
1
62
256
6
ByLayer
370
18
48
1
60
0
100
AcDbLine
10
1.524131
20
-1.891338
30
0
11
6.512299
21
-1.900317
31
0
39
0
210
0
220
0
230
1
0
LINE
5
96
100
AcDbEntity
8
1
62
256
6
ByLayer
370
18
48
1
60
0
100
AcDbLine
10
8.170296
20
-1.903301
30
0
11
14.070152
21
-1.913921
31
0
39
0
210
0
220
0
230
1
0
LINE
5
97
100
AcDbEntity
8
1
62
256
6
ByLayer
370
18
48
1
60
0
100
AcDbLine
10
19.416082
20
-1.923544
30
0
11
25.291689
21
-1.93412
31
0
39
0
210
0
220
0
230
1
0
LINE
5
98
100
AcDbEntity
8
1
62
256
6
ByLayer
370
18
48
1
60
0
100
AcDbLine
10
30.654449
20
-1.943773
30
0
11
34.154701
21
-1.950073
31
0
39
0
210
0
220
0
230
1
0
LINE
5
99
100
AcDbEntity
8
1
62
256
6
ByLayer
370
18
48
1
60
0
100
AcDbLine
10
35.963282
20
-1.953329
30
0
11
36.5132
21
-1.954318
31
0
39
0
210
0
220
0
230
1
0
LINE
5
9A
100
AcDbEntity
8
1
62
256
6
ByLayer
370
18
48
1
60
0
100
AcDbLine
10
41.984104
20
-1.964166
30
0
11
42.375027
21
-1.96487
31
0
39
0
210
0
220
0
230
1
0
LINE
5
9B
100
AcDbEntity
8
1
62
256
6
ByLayer
370
18
48
1
60
0
100
AcDbLine
10
47.216728
20
-1.973585
30
0
11
47.73347
21
-1.974515
31
0
39
0
210
0
220
0
230
1
0
LINE
5
9C
100
AcDbEntity
8
1
62
256
6
ByLayer
370
18
48
1
60
0
100
AcDbLine
10
47.73347
20
1.974515
30
0
11
47.216728
21
1.973585
31
0
39
0
210
0
220
0
230
1
0
LINE
5
9D
100
AcDbEntity
8
1
62
256
6
ByLayer
370
18
48
1
60
0
100
AcDbLine
10
42.375027
20
1.96487
30
0
11
41.984104
21
1.964166
31
0
39
0
210
0
220
0
230
1
0
LINE
5
9E
100
AcDbEntity
8
1
62
256
6
ByLayer
370
18
48
1
60
0
100
AcDbLine
10
36.5132
20
1.954318
30
0
11
35.963282
21
1.953329
31
0
39
0
210
0
220
0
230
1
0
LINE
5
9F
100
AcDbEntity
8
1
62
256
6
ByLayer
370
18
48
1
60
0
100
AcDbLine
10
34.154701
20
1.950073
30
0
11
30.654449
21
1.943773
31
0
39
0
210
0
220
0
230
1
0
LINE
5
A0
100
AcDbEntity
8
1
62
256
6
ByLayer
370
18
48
1
60
0
100
AcDbLine
10
25.291689
20
1.93412
30
0
11
19.416082
21
1.923544
31
0
39
0
210
0
220
0
230
1
0
LINE
5
A1
100
AcDbEntity
8
1
62
256
6
ByLayer
370
18
48
1
60
0
100
AcDbLine
10
14.070152
20
1.913921
30
0
11
8.170296
21
1.903301
31
0
39
0
210
0
220
0
230
1
0
LINE
5
A2
100
AcDbEntity
8
1
62
256
6
ByLayer
370
18
48
1
60
0
100
AcDbLine
10
6.512299
20
1.900317
30
0
11
1.524131
21
1.891338
31
0
39
0
210
0
220
0
230
1
0
LINE
5
A3
100
AcDbEntity
8
SK1
62
256
6
ByLayer
370
18
48
1
60
0
100
AcDbLine
10
-36
20
-2.065
30
0
11
-35.065
21
-3
31
0
39
0
210
0
220
0
230
1
0
LINE
5
A4
100
AcDbEntity
8
SK1
62
256
6
ByLayer
370
18
48
1
60
0
100
AcDbLine
10
-35.065
20
3
30
0
11
-36
21
2.065
31
0
39
0
210
0
220
0
230
1
0
LINE
5
A5
100
AcDbEntity
8
SK1
62
256
6
ByLayer
370
18
48
1
60
0
100
AcDbLine
10
-35.065
20
-3
30
0
11
0
21
-3
31
0
39
0
210
0
220
0
230
1
0
LINE
5
A6
100
AcDbEntity
8
SK1
62
256
6
ByLayer
370
18
48
1
60
0
100
AcDbLine
10
0
20
3
30
0
11
-35.065
21
3
31
0
39
0
210
0
220
0
230
1
0
LINE
5
A7
100
AcDbEntity
8
2
62
256
6
ByLayer
370
13
48
1
60
0
100
AcDbLine
10
61.5
20
30.767241
30
0
11
61.5
21
-9.4845
31
0
39
0
210
0
220
0
230
1
0
LINE
5
A9
100
AcDbEntity
8
2
62
256
6
ByLayer
370
13
48
1
60
0
100
AcDbLine
10
55.5875
20
1.9845
30
0
11
63.5
21
1.9845
31
0
39
0
210
0
220
0
230
1
0
LINE
5
AA
100
AcDbEntity
8
2
62
256
6
ByLayer
370
13
48
1
60
0
100
AcDbLine
10
55.5875
20
-1.9845
30
0
11
63.5
21
-1.9845
31
0
39
0
210
0
220
0
230
1
0
LINE
5
AB
100
AcDbEntity
8
1
62
256
6
ByLayer
370
18
48
1
60
1
100
AcDbLine
10
61.5
20
1.9845
30
0
11
61.039216
21
5.484498
31
0
39
0
210
0
220
0
230
1
0
LINE
5
AC
100
AcDbEntity
8
1
62
256
6
ByLayer
370
18
48
1
60
1
100
AcDbLine
10
61.039216
20
5.484498
30
0
11
61.960784
21
5.484502
31
0
39
0
210
0
220
0
230
1
0
LINE
5
AD
100
AcDbEntity
8
1
62
256
6
ByLayer
370
18
48
1
60
1
100
AcDbLine
10
61.960784
20
5.484502
30
0
11
61.5
21
1.9845
31
0
39
0
210
0
220
0
230
1
0
LINE
5
AE
100
AcDbEntity
8
1
62
256
6
ByLayer
370
18
48
1
60
1
100
AcDbLine
10
61.5
20
-1.9845
30
0
11
61.960784
21
-5.484498
31
0
39
0
210
0
220
0
230
1
0
LINE
5
AF
100
AcDbEntity
8
1
62
256
6
ByLayer
370
18
48
1
60
1
100
AcDbLine
10
61.960784
20
-5.484498
30
0
11
61.039216
21
-5.484502
31
0
39
0
210
0
220
0
230
1
0
LINE
5
B0
100
AcDbEntity
8
1
62
256
6
ByLayer
370
18
48
1
60
1
100
AcDbLine
10
61.039216
20
-5.484502
30
0
11
61.5
21
-1.9845
31
0
39
0
210
0
220
0
230
1
0
LINE
5
B1
100
AcDbEntity
8
SK2
62
256
6
ByLayer
370
13
48
1
60
0
100
AcDbLine
10
-44.5
20
13.841828
30
0
11
-44.5
21
-10.5
31
0
39
0
210
0
220
0
230
1
0
LINE
5
B3
100
AcDbEntity
8
SK2
62
256
6
ByLayer
370
13
48
1
60
0
100
AcDbLine
10
-37.5875
20
3
30
0
11
-46.5
21
3
31
0
39
0
210
0
220
0
230
1
0
LINE
5
B4
100
AcDbEntity
8
SK2
62
256
6
ByLayer
370
13
48
1
60
0
100
AcDbLine
10
-37.5875
20
-3
30
0
11
-46.5
21
-3
31
0
39
0
210
0
220
0
230
1
0
LINE
5
B5
100
AcDbEntity
8
1
62
256
6
ByLayer
370
18
48
1
60
1
100
AcDbLine
10
-44.5
20
3
30
0
11
-44.960784
21
6.499998
31
0
39
0
210
0
220
0
230
1
0
LINE
5
B6
100
AcDbEntity
8
1
62
256
6
ByLayer
370
18
48
1
60
1
100
AcDbLine
10
-44.960784
20
6.499998
30
0
11
-44.039216
21
6.500002
31
0
39
0
210
0
220
0
230
1
0
LINE
5
B7
100
AcDbEntity
8
1
62
256
6
ByLayer
370
18
48
1
60
1
100
AcDbLine
10
-44.039216
20
6.500002
30
0
11
-44.5
21
3
31
0
39
0
210
0
220
0
230
1
0
LINE
5
B8
100
AcDbEntity
8
1
62
256
6
ByLayer
370
18
48
1
60
1
100
AcDbLine
10
-44.5
20
-3
30
0
11
-44.039216
21
-6.499998
31
0
39
0
210
0
220
0
230
1
0
LINE
5
B9
100
AcDbEntity
8
1
62
256
6
ByLayer
370
18
48
1
60
1
100
AcDbLine
10
-44.039216
20
-6.499998
30
0
11
-44.960784
21
-6.500002
31
0
39
0
210
0
220
0
230
1
0
LINE
5
BA
100
AcDbEntity
8
1
62
256
6
ByLayer
370
18
48
1
60
1
100
AcDbLine
10
-44.960784
20
-6.500002
30
0
11
-44.5
21
-3
31
0
39
0
210
0
220
0
230
1
0
LINE
5
BB
100
AcDbEntity
8
SK2
62
256
6
ByLayer
370
13
48
1
60
0
100
AcDbLine
10
54.542759
20
1.491834
30
0
11
60.366201
21
17.498237
31
0
39
0
210
0
220
0
230
1
0
LINE
5
BC
100
AcDbEntity
8
SK2
62
256
6
ByLayer
370
13
48
1
60
0
100
AcDbLine
10
54.542759
20
-1.491834
30
0
11
60.366201
21
-17.498237
31
0
39
0
210
0
220
0
230
1
0
LINE
5
BD
100
AcDbEntity
8
1
62
256
6
ByLayer
370
18
48
1
60
1
100
AcDbLine
10
59.682411
20
15.61876
30
0
11
63.084257
21
14.675491
31
0
39
0
210
0
220
0
230
1
0
LINE
5
BE
100
AcDbEntity
8
1
62
256
6
ByLayer
370
18
48
1
60
1
100
AcDbLine
10
63.084257
20
14.675491
30
0
11
62.724209
21
13.827168
31
0
39
0
210
0
220
0
230
1
0
LINE
5
BF
100
AcDbEntity
8
1
62
256
6
ByLayer
370
18
48
1
60
1
100
AcDbLine
10
62.724209
20
13.827168
30
0
11
59.682411
21
15.61876
31
0
39
0
210
0
220
0
230
1
0
LINE
5
C0
100
AcDbEntity
8
1
62
256
6
ByLayer
370
18
48
1
60
1
100
AcDbLine
10
59.682411
20
-15.61876
30
0
11
62.724205
21
-13.82717
31
0
39
0
210
0
220
0
230
1
0
LINE
5
C1
100
AcDbEntity
8
1
62
256
6
ByLayer
370
18
48
1
60
1
100
AcDbLine
10
62.724205
20
-13.82717
30
0
11
63.08426
21
-14.67549
31
0
39
0
210
0
220
0
230
1
0
LINE
5
C2
100
AcDbEntity
8
1
62
256
6
ByLayer
370
18
48
1
60
1
100
AcDbLine
10
63.08426
20
-14.67549
30
0
11
59.682411
21
-15.61876
31
0
39
0
210
0
220
0
230
1
0
LINE
5
11C
100
AcDbEntity
8
1
62
256
6
ByLayer
370
13
48
0.05
60
0
100
AcDbLine
10
-42.5
20
0
30
0
11
59.777049
21
0
31
0
39
0
210
0
220
0
230
1
0
LINE
5
121
100
AcDbEntity
8
1
62
256
6
ByLayer
370
18
48
1
60
1
100
AcDbLine
10
61.5
20
1.9845
30
0
11
61.039216
21
5.484498
31
0
39
0
210
0
220
0
230
1
0
LINE
5
122
100
AcDbEntity
8
1
62
256
6
ByLayer
370
18
48
1
60
1
100
AcDbLine
10
61.039216
20
5.484498
30
0
11
61.960784
21
5.484502
31
0
39
0
210
0
220
0
230
1
0
LINE
5
123
100
AcDbEntity
8
1
62
256
6
ByLayer
370
18
48
1
60
1
100
AcDbLine
10
61.960784
20
5.484502
30
0
11
61.5
21
1.9845
31
0
39
0
210
0
220
0
230
1
0
LINE
5
125
100
AcDbEntity
8
1
62
256
6
ByLayer
370
18
48
1
60
1
100
AcDbLine
10
61.5
20
-1.9845
30
0
11
61.960784
21
-5.484498
31
0
39
0
210
0
220
0
230
1
0
LINE
5
126
100
AcDbEntity
8
1
62
256
6
ByLayer
370
18
48
1
60
1
100
AcDbLine
10
61.960784
20
-5.484498
30
0
11
61.039216
21
-5.484502
31
0
39
0
210
0
220
0
230
1
0
LINE
5
127
100
AcDbEntity
8
1
62
256
6
ByLayer
370
18
48
1
60
1
100
AcDbLine
10
61.039216
20
-5.484502
30
0
11
61.5
21
-1.9845
31
0
39
0
210
0
220
0
230
1
0
LINE
5
12B
100
AcDbEntity
8
1
62
256
6
ByLayer
370
18
48
1
60
1
100
AcDbLine
10
-44.5
20
3
30
0
11
-44.960784
21
6.499998
31
0
39
0
210
0
220
0
230
1
0
LINE
5
12C
100
AcDbEntity
8
1
62
256
6
ByLayer
370
18
48
1
60
1
100
AcDbLine
10
-44.960784
20
6.499998
30
0
11
-44.039216
21
6.500002
31
0
39
0
210
0
220
0
230
1
0
LINE
5
12D
100
AcDbEntity
8
1
62
256
6
ByLayer
370
18
48
1
60
1
100
AcDbLine
10
-44.039216
20
6.500002
30
0
11
-44.5
21
3
31
0
39
0
210
0
220
0
230
1
0
LINE
5
12F
100
AcDbEntity
8
1
62
256
6
ByLayer
370
18
48
1
60
1
100
AcDbLine
10
-44.5
20
-3
30
0
11
-44.039216
21
-6.499998
31
0
39
0
210
0
220
0
230
1
0
LINE
5
130
100
AcDbEntity
8
1
62
256
6
ByLayer
370
18
48
1
60
1
100
AcDbLine
10
-44.039216
20
-6.499998
30
0
11
-44.960784
21
-6.500002
31
0
39
0
210
0
220
0
230
1
0
LINE
5
131
100
AcDbEntity
8
1
62
256
6
ByLayer
370
18
48
1
60
1
100
AcDbLine
10
-44.960784
20
-6.500002
30
0
11
-44.5
21
-3
31
0
39
0
210
0
220
0
230
1
0
LINE
5
134
100
AcDbEntity
8
1
62
256
6
ByLayer
370
18
48
1
60
1
100
AcDbLine
10
59.682411
20
15.61876
30
0
11
63.084257
21
14.675491
31
0
39
0
210
0
220
0
230
1
0
LINE
5
135
100
AcDbEntity
8
1
62
256
6
ByLayer
370
18
48
1
60
1
100
AcDbLine
10
63.084257
20
14.675491
30
0
11
62.724209
21
13.827168
31
0
39
0
210
0
220
0
230
1
0
LINE
5
136
100
AcDbEntity
8
1
62
256
6
ByLayer
370
18
48
1
60
1
100
AcDbLine
10
62.724209
20
13.827168
30
0
11
59.682411
21
15.61876
31
0
39
0
210
0
220
0
230
1
0
LINE
5
138
100
AcDbEntity
8
1
62
256
6
ByLayer
370
18
48
1
60
1
100
AcDbLine
10
59.682411
20
-15.61876
30
0
11
62.724205
21
-13.82717
31
0
39
0
210
0
220
0
230
1
0
LINE
5
139
100
AcDbEntity
8
1
62
256
6
ByLayer
370
18
48
1
60
1
100
AcDbLine
10
62.724205
20
-13.82717
30
0
11
63.08426
21
-14.67549
31
0
39
0
210
0
220
0
230
1
0
LINE
5
13A
100
AcDbEntity
8
1
62
256
6
ByLayer
370
18
48
1
60
1
100
AcDbLine
10
63.08426
20
-14.67549
30
0
11
59.682411
21
-15.61876
31
0
39
0
210
0
220
0
230
1
0
MTEXT
5
11D
100
AcDbEntity
8
2
62
256
6
ByLayer
370
18
48
1
60
0
100
AcDbMText
10
60.158886
20
15.642937
30
0
210
0
220
0
230
1
1
%%c
40
3
41
0
44
1.084337
50
90
71
7
72
5
7
iso_b_vert
0
MTEXT
5
120
100
AcDbEntity
8
2
62
256
6
ByLayer
370
18
48
1
60
0
100
AcDbMText
10
60.158886
20
21.6195
30
0
210
0
220
0
230
1
1
\W0.7555;3.969
40
3
41
0
44
1.084337
50
90
71
7
72
5
7
iso_b_vert
0
MTEXT
5
129
100
AcDbEntity
8
SK2
62
256
6
ByLayer
370
18
48
1
60
0
100
AcDbMText
10
-45.841114
20
6.658437
30
0
210
0
220
0
230
1
1
%%c
40
3
41
0
44
1.084337
50
90
71
7
72
5
7
iso_b_vert
0
MTEXT
5
12A
100
AcDbEntity
8
SK2
62
256
6
ByLayer
370
18
48
1
60
0
100
AcDbMText
10
-45.841114
20
12.635
30
0
210
0
220
0
230
1
1
\W0.5404;6
40
3
41
0
44
1.084337
50
90
71
7
72
5
7
iso_b_vert
0
MTEXT
5
133
100
AcDbEntity
8
SK2
62
256
6
ByLayer
370
18
48
1
60
0
100
AcDbMText
10
67.179676
20
-2.114886
30
0
210
0
220
0
230
1
1
\W0.7071;140%%d
40
3
41
0
44
1.084337
50
0
71
7
72
5
7
iso_b_vert
0
MTEXT
5
13C
100
AcDbEntity
8
SK6
62
256
6
ByLayer
370
18
48
1
60
0
100
AcDbMText
10
-16.980601
20
-77.114886
30
0
210
0
220
0
230
1
1
\W0.7522;860.1-0397-032A1-SD S2BM
40
3
41
0
44
1.084337
50
0
71
7
72
5
7
iso_b_vert
0
HATCH
5
124
100
AcDbEntity
8
2
62
256
6
ByLayer
370
13
48
1
60
0
100
AcDbHatch
10
0
20
0
30
0
210
0
220
0
230
1
2
ANSI31
70
0
71
0
91
1
92
5
93
3
72
1
10
61.5
20
1.9845
11
61.0392162584472
21
5.48449830744681
72
1
10
61.0392162584472
20
5.48449830744681
11
61.9607837415528
21
5.48450169255318
72
1
10
61.9607837415528
20
5.48450169255318
11
61.5
21
1.9845
97
0
75
0
76
1
52
0
41
0.0062
77
0
78
1
53
45
43
0
44
0
45
-0.0139193969876572
46
0.0139193969876572
79
0
47
0
98
1
10
0
20
0
0
HATCH
5
128
100
AcDbEntity
8
2
62
256
6
ByLayer
370
13
48
1
60
0
100
AcDbHatch
10
0
20
0
30
0
210
0
220
0
230
1
2
ANSI31
70
0
71
0
91
1
92
5
93
3
72
1
10
61.5
20
-1.9845
11
61.9607837415528
21
-5.48449830744681
72
1
10
61.9607837415528
20
-5.48449830744681
11
61.0392162584472
21
-5.48450169255318
72
1
10
61.0392162584472
20
-5.48450169255318
11
61.5
21
-1.9845
97
0
75
0
76
1
52
0
41
0.0062
77
0
78
1
53
45
43
0
44
0
45
-0.0139193969876572
46
0.0139193969876572
79
0
47
0
98
1
10
0
20
0
0
HATCH
5
12E
100
AcDbEntity
8
SK2
62
256
6
ByLayer
370
13
48
1
60
0
100
AcDbHatch
10
0
20
0
30
0
210
0
220
0
230
1
2
ANSI31
70
0
71
0
91
1
92
5
93
3
72
1
10
-44.5
20
3
11
-44.9607837415528
21
6.49999830744682
72
1
10
-44.9607837415528
20
6.49999830744682
11
-44.0392162584472
21
6.50000169255318
72
1
10
-44.0392162584472
20
6.50000169255318
11
-44.5
21
3
97
0
75
0
76
1
52
0
41
0.0062
77
0
78
1
53
45
43
0
44
0
45
-0.0139193969876572
46
0.0139193969876572
79
0
47
0
98
1
10
0
20
0
0
HATCH
5
132
100
AcDbEntity
8
SK2
62
256
6
ByLayer
370
13
48
1
60
0
100
AcDbHatch
10
0
20
0
30
0
210
0
220
0
230
1
2
ANSI31
70
0
71
0
91
1
92
5
93
3
72
1
10
-44.5
20
-3
11
-44.0392162584472
21
-6.49999830744682
72
1
10
-44.0392162584472
20
-6.49999830744682
11
-44.9607837415528
21
-6.50000169255318
72
1
10
-44.9607837415528
20
-6.50000169255318
11
-44.5
21
-3
97
0
75
0
76
1
52
0
41
0.0062
77
0
78
1
53
45
43
0
44
0
45
-0.0139193969876572
46
0.0139193969876572
79
0
47
0
98
1
10
0
20
0
0
HATCH
5
137
100
AcDbEntity
8
SK2
62
256
6
ByLayer
370
13
48
1
60
0
100
AcDbHatch
10
0
20
0
30
0
210
0
220
0
230
1
2
ANSI31
70
0
71
0
91
1
92
5
93
3
72
1
10
59.682411195416
20
15.6187604117776
11
63.0842567298967
21
14.6754912200073
72
1
10
63.0842567298967
20
14.6754912200073
11
62.7242085145529
21
13.8271682222306
72
1
10
62.7242085145529
20
13.8271682222306
11
59.682411195416
21
15.6187604117776
97
0
75
0
76
1
52
0
41
0.0062
77
0
78
1
53
45
43
0
44
0
45
-0.0139193969876572
46
0.0139193969876572
79
0
47
0
98
1
10
0
20
0
0
HATCH
5
13B
100
AcDbEntity
8
SK2
62
256
6
ByLayer
370
13
48
1
60
0
100
AcDbHatch
10
0
20
0
30
0
210
0
220
0
230
1
2
ANSI31
70
0
71
0
91
1
92
5
93
3
72
1
10
59.682411195416
20
-15.6187604117776
11
62.7242053984934
21
-13.8271695447731
72
1
10
62.7242053984934
20
-13.8271695447731
11
63.0842598459563
21
-14.6754898974649
72
1
10
63.0842598459563
20
-14.6754898974649
11
59.682411195416
21
-15.6187604117776
97
0
75
0
76
1
52
0
41
0.0062
77
0
78
1
53
45
43
0
44
0
45
-0.0139193969876572
46
0.0139193969876572
79
0
47
0
98
1
10
0
20
0
0
DIMENSION
5
13F
100
AcDbEntity
8
SK2
62
256
6
ByLayer
370
18
48
1
60
0
100
AcDbDimension
2
_U0
10
21.6
20
-19.487579
30
0
11
37.8
21
-19.487579
31
0
70
32
71
1
72
1
41
1
210
0
220
0
230
1
3
Standard
100
AcDbAlignedDimension
13
54
23
-1.9845
33
0
14
21.6
24
-1.9845
34
0
50
0
100
AcDbRotatedDimension
1001
ACAD
1000
DSTYLE
1002
{
1070
   371
1070
    13
1070
   372
1070
    13
1070
   170
1070
     0
1070
   144
1040
1.0
1070
   277
1070
     2
1070
   284
1070
     8
1070
   278
1070
    46
1070
   146
1040
1.166667
1070
   345
1005
16
1070
   347
1005
16
1070
   346
1005
16
1070
   344
1005
0
1070
   343
1005
0
1070
   172
1070
     1
1070
    76
1070
     0
1070
    75
1070
     0
1070
   282
1070
     0
1070
   281
1070
     0
1070
     3
1000

1070
    71
1070
     0
1070
    74
1070
     0
1070
   279
1070
     0
1070
   173
1070
     1
1070
   340
1005
11E
1070
   271
1070
     2
1070
   272
1070
     2
1070
    77
1070
     1
1070
    73
1070
     1
1070
   171
1070
     3
1070
   274
1070
     4
1070
   177
1070
     2
1070
   176
1070
     2
1070
   178
1070
     2
1070
    78
1070
     8
1070
    48
1040
-0.1
1070
    41
1040
3.5
1070
   147
1040
1.5
1070
    42
1040
1.5875
1070
    44
1040
2.0
1070
   140
1040
3.0
1002
}
1001
ACAD_DSTYLE_DIM_LINETYPE
1070
   380
1005
16
1001
ACAD_DSTYLE_DIM_EXT1_LINETYPE
1070
   381
1005
16
1001
ACAD_DSTYLE_DIM_EXT2_LINETYPE
1070
   382
1005
16
0
DIMENSION
5
15A
100
AcDbEntity
8
SK2
62
256
6
ByLayer
370
18
48
1
60
0
100
AcDbDimension
2
_U1
10
6
20
-29.487579
30
0
11
30
21
-29.487579
31
0
70
32
71
1
72
1
41
1
210
0
220
0
230
1
3
Standard
100
AcDbAlignedDimension
13
54
23
-1.9845
33
0
14
6
24
-1.9845
34
0
50
0
100
AcDbRotatedDimension
1001
ACAD
1000
DSTYLE
1002
{
1070
   371
1070
    13
1070
   372
1070
    13
1070
     3
1000

1070
   170
1070
     0
1070
   144
1040
1.0
1070
   277
1070
     2
1070
   284
1070
     8
1070
   278
1070
    46
1070
   146
1040
1.166667
1070
   345
1005
16
1070
   347
1005
16
1070
   346
1005
16
1070
   344
1005
0
1070
   343
1005
0
1070
   172
1070
     1
1070
    76
1070
     0
1070
    75
1070
     0
1070
   282
1070
     0
1070
   281
1070
     0
1070
    71
1070
     0
1070
    74
1070
     0
1070
   279
1070
     0
1070
   173
1070
     1
1070
   340
1005
11E
1070
   271
1070
     2
1070
   272
1070
     2
1070
    77
1070
     1
1070
    73
1070
     1
1070
   171
1070
     3
1070
   274
1070
     4
1070
   177
1070
     2
1070
   176
1070
     2
1070
   178
1070
     2
1070
    78
1070
     8
1070
    48
1040
-0.1
1070
    41
1040
3.5
1070
   147
1040
1.5
1070
    42
1040
1.5875
1070
    44
1040
2.0
1070
   140
1040
3.0
1002
}
1001
ACAD_DSTYLE_DIM_LINETYPE
1070
   380
1005
16
1001
ACAD_DSTYLE_DIM_EXT1_LINETYPE
1070
   381
1005
16
1001
ACAD_DSTYLE_DIM_EXT2_LINETYPE
1070
   382
1005
16
0
DIMENSION
5
172
100
AcDbEntity
8
SK2
62
256
6
ByLayer
370
18
48
1
60
0
100
AcDbDimension
2
_U2
10
0
20
-37.487579
30
0
11
-18
21
-37.487579
31
0
70
32
71
1
72
1
41
1
210
0
220
0
230
1
3
Standard
100
AcDbAlignedDimension
13
-36
23
-3
33
0
14
0
24
-3
34
0
50
0
100
AcDbRotatedDimension
1001
ACAD
1000
DSTYLE
1002
{
1070
   371
1070
    13
1070
   372
1070
    13
1070
     3
1000

1070
   170
1070
     0
1070
   144
1040
1.0
1070
   277
1070
     2
1070
   284
1070
     8
1070
   278
1070
    46
1070
   146
1040
1.166667
1070
   345
1005
16
1070
   347
1005
16
1070
   346
1005
16
1070
   344
1005
0
1070
   343
1005
0
1070
   172
1070
     1
1070
    76
1070
     0
1070
    75
1070
     0
1070
   282
1070
     0
1070
   281
1070
     0
1070
    71
1070
     0
1070
    74
1070
     0
1070
   279
1070
     0
1070
   173
1070
     1
1070
   340
1005
11E
1070
   271
1070
     2
1070
   272
1070
     2
1070
    77
1070
     1
1070
    73
1070
     1
1070
   171
1070
     3
1070
   274
1070
     4
1070
   177
1070
     2
1070
   176
1070
     2
1070
   178
1070
     2
1070
    78
1070
     8
1070
    48
1040
-0.1
1070
    41
1040
3.5
1070
   147
1040
1.5
1070
    42
1040
1.5875
1070
    44
1040
2.0
1070
   140
1040
3.0
1002
}
1001
ACAD_DSTYLE_DIM_LINETYPE
1070
   380
1005
16
1001
ACAD_DSTYLE_DIM_EXT1_LINETYPE
1070
   381
1005
16
1001
ACAD_DSTYLE_DIM_EXT2_LINETYPE
1070
   382
1005
16
0
DIMENSION
5
18A
100
AcDbEntity
8
SK2
62
256
6
ByLayer
370
18
48
1
60
0
100
AcDbDimension
2
_U3
10
54
20
-45.487579
30
0
11
9
21
-45.487579
31
0
70
32
71
1
72
1
41
1
210
0
220
0
230
1
3
Standard
100
AcDbAlignedDimension
13
-36
23
-3
33
0
14
54
24
-1.9845
34
0
50
0
100
AcDbRotatedDimension
1001
ACAD
1000
DSTYLE
1002
{
1070
   371
1070
    13
1070
   372
1070
    13
1070
     3
1000

1070
   170
1070
     0
1070
   144
1040
1.0
1070
   277
1070
     2
1070
   284
1070
     8
1070
   278
1070
    46
1070
   146
1040
1.166667
1070
   345
1005
16
1070
   347
1005
16
1070
   346
1005
16
1070
   344
1005
0
1070
   343
1005
0
1070
   172
1070
     1
1070
    76
1070
     0
1070
    75
1070
     0
1070
   282
1070
     0
1070
   281
1070
     0
1070
    71
1070
     0
1070
    74
1070
     0
1070
   279
1070
     0
1070
   173
1070
     1
1070
   340
1005
11E
1070
   271
1070
     2
1070
   272
1070
     2
1070
    77
1070
     1
1070
    73
1070
     1
1070
   171
1070
     3
1070
   274
1070
     4
1070
   177
1070
     2
1070
   176
1070
     2
1070
   178
1070
     2
1070
    78
1070
     8
1070
    48
1040
-0.1
1070
    41
1040
3.5
1070
   147
1040
1.5
1070
    42
1040
1.5875
1070
    44
1040
2.0
1070
   140
1040
3.0
1002
}
1001
ACAD_DSTYLE_DIM_LINETYPE
1070
   380
1005
16
1001
ACAD_DSTYLE_DIM_EXT1_LINETYPE
1070
   381
1005
16
1001
ACAD_DSTYLE_DIM_EXT2_LINETYPE
1070
   382
1005
16
0
DIMENSION
5
1A2
100
AcDbEntity
8
2
62
256
6
ByLayer
370
18
48
1
60
0
100
AcDbDimension
2
_U4
10
0
20
-37.487579
30
0
11
27
21
-37.487579
31
0
70
32
71
1
72
1
41
1
210
0
220
0
230
1
3
Standard
100
AcDbAlignedDimension
13
54
23
-1.9845
33
0
14
0
24
-1.9845
34
0
50
0
100
AcDbRotatedDimension
1001
ACAD
1000
DSTYLE
1002
{
1070
   371
1070
    13
1070
   372
1070
    13
1070
     3
1000

1070
   170
1070
     0
1070
   144
1040
1.0
1070
   277
1070
     2
1070
   284
1070
     8
1070
   278
1070
    46
1070
   146
1040
1.166667
1070
   345
1005
16
1070
   347
1005
16
1070
   346
1005
16
1070
   344
1005
0
1070
   343
1005
0
1070
   172
1070
     1
1070
    76
1070
     0
1070
    75
1070
     0
1070
   282
1070
     0
1070
   281
1070
     0
1070
    71
1070
     0
1070
    74
1070
     0
1070
   279
1070
     0
1070
   173
1070
     1
1070
   340
1005
11E
1070
   271
1070
     2
1070
   272
1070
     2
1070
    77
1070
     1
1070
    73
1070
     1
1070
   171
1070
     3
1070
   274
1070
     4
1070
   177
1070
     2
1070
   176
1070
     2
1070
   178
1070
     2
1070
    78
1070
     8
1070
    48
1040
-0.1
1070
    41
1040
3.5
1070
   147
1040
1.5
1070
    42
1040
1.5875
1070
    44
1040
2.0
1070
   140
1040
3.0
1002
}
1001
ACAD_DSTYLE_DIM_LINETYPE
1070
   380
1005
16
1001
ACAD_DSTYLE_DIM_EXT1_LINETYPE
1070
   381
1005
16
1001
ACAD_DSTYLE_DIM_EXT2_LINETYPE
1070
   382
1005
16
0
ENDSEC
0
SECTION
2
OBJECTS
0
DICTIONARY
5
22a
330
0
100
AcDbDictionary
280
0
281
1
3
ACAD_GROUP
350
22b
3
ACAD_MLINESTYLE
350
22c
0
DICTIONARY
5
22b
330
0
100
AcDbDictionary
280
0
281
1
0
DICTIONARY
5
22c
330
0
100
AcDbDictionary
280
0
281
1
3
Standard
350
18
0
MLINESTYLE
5
18
330
22c
100
AcDbMlineStyle
2
Standard
70
0
3

62
256
51
90
52
90
71
2
49
-0.5
62
256
6
ByLayer
49
0.5
62
256
6
ByLayer
0
RASTERVARIABLES
5
218
330

100
AcDbRasterVariables
90
0
70
1
71
1
72
1
0
ENDSEC
0
EOF
