0
SECTION
2
HEADER
9
$ACADVER
1
AC1015
9
$DWGCODEPAGE
3
ANSI_1252
9
$HANDSEED
5
233
9
$ANGBASE
50
0
9
$ANGDIR
70
0
9
$ATTMODE
70
1
9
$AUNITS
70
0
9
$AUPREC
70
0
9
$CECOLOR
62
256
9
$CELTSCALE
40
1
9
$CELTYPE
6
ByLayer
9
$CELWEIGHT
370
18
9
$CLAYER
8
0
9
$CMLJUST
70
0
9
$CMLSCALE
40
1
9
$CMLSTYLE
2
Standard
9
$DIMSTYLE
2
Standard
9
$TEXTSIZE
40
0.2
9
$TEXTSTYLE
7
Standard
9
$LUNITS
70
2
9
$LUPREC
70
4
9
$EXTNAMES
290
1
9
$INSUNITS
70
4
9
$LTSCALE
40
1
9
$LWDISPLAY
290
1
9
$PDMODE
70
0
9
$PDSIZE
40
0
9
$PLINEGEN
70
0
0
ENDSEC
0
SECTION
2
CLASSES
0
CLASS
1
RASTERVARIABLES
2
AcDbRasterVariables
3
ISM
90
0
280
0
281
0
0
ENDSEC
0
SECTION
2
TABLES
0
TABLE
2
VPORT
5
229
100
AcDbSymbolTable
0
VPORT
5
1
100
AcDbSymbolTableRecord
100
AcDbViewportTableRecord
2
*Active
70
0
10
0
20
0
11
1
21
1
12
-1
22
1
13
0
23
0
14
0.5
24
0.5
15
10
25
10
16
0
26
0
36
1
17
0
27
0
37
0
0
ENDTAB
0
TABLE
2
LTYPE
5
22a
100
AcDbSymbolTable
0
LTYPE
5
14
100
AcDbSymbolTableRecord
100
AcDbLinetypeTableRecord
70
0
2
ByBlock
3

72
65
73
0
40
0
0
LTYPE
5
15
100
AcDbSymbolTableRecord
100
AcDbLinetypeTableRecord
70
0
2
ByLayer
3

72
65
73
0
40
0
0
LTYPE
5
16
100
AcDbSymbolTableRecord
100
AcDbLinetypeTableRecord
70
0
2
Continuous
3
Solid line
72
65
73
0
40
0
0
LTYPE
5
6E
100
AcDbSymbolTableRecord
100
AcDbLinetypeTableRecord
70
0
2
CENTER
3
____ _ ____ _ ____ _ ____
72
65
73
4
40
47.5
49
22
74
0
49
-8.5
74
0
49
8.5
74
0
49
-8.5
74
0
0
LTYPE
5
6F
100
AcDbSymbolTableRecord
100
AcDbLinetypeTableRecord
70
0
2
DASHED
3
__ __ __ __ __ __ __ __ __
72
65
73
2
40
25.72
49
12.86
74
0
49
-12.86
74
0
0
ENDTAB
0
TABLE
2
LAYER
5
22b
100
AcDbSymbolTable
0
LAYER
5
10
100
AcDbSymbolTableRecord
100
AcDbLayerTableRecord
2
0
70
0
62
7
6
Continuous
290
1
370
-3
390
0
0
LAYER
5
71
100
AcDbSymbolTableRecord
100
AcDbLayerTableRecord
2
80
70
0
62
-6
6
Continuous
290
1
370
-3
390
0
0
LAYER
5
73
100
AcDbSymbolTableRecord
100
AcDbLayerTableRecord
2
81
70
0
62
-3
6
Continuous
290
1
370
-3
390
0
0
LAYER
5
75
100
AcDbSymbolTableRecord
100
AcDbLayerTableRecord
2
1
70
0
62
4
6
Continuous
290
1
370
-3
390
0
0
LAYER
5
83
100
AcDbSymbolTableRecord
100
AcDbLayerTableRecord
2
4
70
0
62
-2
6
CENTER
290
1
370
-3
390
0
0
LAYER
5
9F
100
AcDbSymbolTableRecord
100
AcDbLayerTableRecord
2
2
70
0
62
7
6
Continuous
290
1
370
-3
390
0
0
LAYER
5
13D
100
AcDbSymbolTableRecord
100
AcDbLayerTableRecord
2
Defpoints
70
0
62
7
6
Continuous
290
0
370
-3
390
0
0
LAYER
5
215
100
AcDbSymbolTableRecord
100
AcDbLayerTableRecord
2
SK4
70
0
62
2
6
CENTER
290
1
370
-3
390
0
0
LAYER
5
216
100
AcDbSymbolTableRecord
100
AcDbLayerTableRecord
2
SK1
70
0
62
4
6
Continuous
290
1
370
-3
390
0
0
LAYER
5
217
100
AcDbSymbolTableRecord
100
AcDbLayerTableRecord
2
SK2
70
0
62
7
6
Continuous
290
1
370
-3
390
0
0
LAYER
5
218
100
AcDbSymbolTableRecord
100
AcDbLayerTableRecord
2
SK6
70
0
62
5
6
Continuous
290
1
370
-3
390
0
0
ENDTAB
0
TABLE
2
STYLE
5
22c
100
AcDbSymbolTable
0
STYLE
5
11
100
AcDbSymbolTableRecord
100
AcDbTextStyleTableRecord
2
Standard
3
txt
70
0
71
0
40
0
41
1
42
0
50
0
0
STYLE
5
119
100
AcDbSymbolTableRecord
100
AcDbTextStyleTableRecord
2
iso_b_vert
3
simplex.shx
70
0
71
0
40
0
41
1
42
0
50
0
0
STYLE
5
11A
100
AcDbSymbolTableRecord
100
AcDbTextStyleTableRecord
2
DWGDirectTextStyle
3
simplex
70
0
71
0
40
0
41
1
42
0
50
0
0
ENDTAB
0
TABLE
2
DIMSTYLE
5
22d
100
AcDbSymbolTable
100
AcDbDimStyleTable
0
DIMSTYLE
105
27
100
AcDbSymbolTableRecord
100
AcDbDimStyleTableRecord
2
Standard
70
0
3
<>
41
0.18
42
0.0625
44
0.18
140
0.18
147
0.09
73
0
74
0
77
1
271
2
275
0
278
52
280
0
340
11
0
ENDTAB
0
TABLE
2
VIEW
5
22e
100
AcDbSymbolTable
0
ENDTAB
0
TABLE
2
UCS
5
22f
100
AcDbSymbolTable
0
ENDTAB
0
TABLE
2
APPID
5
230
100
AcDbSymbolTable
0
APPID
5
12
100
AcDbSymbolTableRecord
100
AcDbRegAppTableRecord
2
ACAD
70
0
0
APPID
5
139
100
AcDbSymbolTableRecord
100
AcDbRegAppTableRecord
2
ACAD_DSTYLE_DIMBREAK
70
0
0
APPID
5
1D4
100
AcDbSymbolTableRecord
100
AcDbRegAppTableRecord
2
ACAD_DSTYLE_DIM_LINETYPE
70
0
0
APPID
5
1D5
100
AcDbSymbolTableRecord
100
AcDbRegAppTableRecord
2
ACAD_DSTYLE_DIM_EXT1_LINETYPE
70
0
0
APPID
5
1D6
100
AcDbSymbolTableRecord
100
AcDbRegAppTableRecord
2
ACAD_DSTYLE_DIM_EXT2_LINETYPE
70
0
0
APPID
5
211
100
AcDbSymbolTableRecord
100
AcDbRegAppTableRecord
2
ACAD_MLEADERVER
70
0
0
ENDTAB
0
TABLE
2
BLOCK_RECORD
5
231
100
AcDbSymbolTable
0
BLOCK_RECORD
5
1F
100
AcDbSymbolTableRecord
100
AcDbBlockTableRecord
2
*Model_Space
340
0
70
0
0
BLOCK_RECORD
5
1B
100
AcDbSymbolTableRecord
100
AcDbBlockTableRecord
2
*Paper_Space
340
0
70
0
0
BLOCK_RECORD
5
23
100
AcDbSymbolTableRecord
100
AcDbBlockTableRecord
2
*Paper_Space0
340
0
70
0
0
BLOCK_RECORD
5
13E
100
AcDbSymbolTableRecord
100
AcDbBlockTableRecord
2
*D1
340
0
70
0
0
BLOCK_RECORD
5
14B
100
AcDbSymbolTableRecord
100
AcDbBlockTableRecord
2
_U0
340
0
70
0
0
BLOCK_RECORD
5
159
100
AcDbSymbolTableRecord
100
AcDbBlockTableRecord
2
*D3
340
0
70
0
0
BLOCK_RECORD
5
165
100
AcDbSymbolTableRecord
100
AcDbBlockTableRecord
2
_U1
340
0
70
0
0
BLOCK_RECORD
5
171
100
AcDbSymbolTableRecord
100
AcDbBlockTableRecord
2
*D5
340
0
70
0
0
BLOCK_RECORD
5
17D
100
AcDbSymbolTableRecord
100
AcDbBlockTableRecord
2
_U2
340
0
70
0
0
BLOCK_RECORD
5
189
100
AcDbSymbolTableRecord
100
AcDbBlockTableRecord
2
*D7
340
0
70
0
0
BLOCK_RECORD
5
195
100
AcDbSymbolTableRecord
100
AcDbBlockTableRecord
2
_U3
340
0
70
0
0
BLOCK_RECORD
5
1A1
100
AcDbSymbolTableRecord
100
AcDbBlockTableRecord
2
*D9
340
0
70
0
0
BLOCK_RECORD
5
1AD
100
AcDbSymbolTableRecord
100
AcDbBlockTableRecord
2
_U4
340
0
70
0
0
ENDTAB
0
ENDSEC
0
SECTION
2
BLOCKS
0
BLOCK
5
20
100
AcDbEntity
8
0
100
AcDbBlockBegin
2
*Model_Space
70
0
10
0
20
0
30
0
3
*Model_Space
0
ENDBLK
5
21
100
AcDbEntity
8
0
100
AcDbBlockEnd
0
BLOCK
5
1C
100
AcDbEntity
8
0
100
AcDbBlockBegin
2
*Paper_Space
70
0
10
0
20
0
30
0
3
*Paper_Space
0
ENDBLK
5
1D
100
AcDbEntity
8
0
100
AcDbBlockEnd
0
BLOCK
5
24
100
AcDbEntity
8
0
100
AcDbBlockBegin
2
*Paper_Space0
70
0
10
0
20
0
30
0
3
*Paper_Space0
0
ENDBLK
5
25
100
AcDbEntity
8
0
100
AcDbBlockEnd
0
BLOCK
5
13F
100
AcDbEntity
8
0
100
AcDbBlockBegin
2
*D1
70
1
10
0
20
0
30
0
3
*D1
0
LINE
5
141
100
AcDbEntity
8
0
62
256
6
ByLayer
370
-2
48
1
60
0
100
AcDbLine
10
26
20
-3.3625
30
0
11
26
21
-21.000744
31
0
39
0
210
0
220
0
230
1
0
LINE
5
142
100
AcDbEntity
8
0
62
256
6
ByLayer
370
-2
48
1
60
0
100
AcDbLine
10
14.7
20
-3.3625
30
0
11
14.7
21
-21.000744
31
0
39
0
210
0
220
0
230
1
0
LINE
5
143
100
AcDbEntity
8
0
62
256
6
ByLayer
370
-2
48
1
60
0
100
AcDbLine
10
29.5
20
-19.000744
30
0
11
33
21
-19.000744
31
0
39
0
210
0
220
0
230
1
0
LINE
5
144
100
AcDbEntity
8
0
62
256
6
ByLayer
370
-2
48
1
60
0
100
AcDbLine
10
11.2
20
-19.000744
30
0
11
7.7
21
-19.000744
31
0
39
0
210
0
220
0
230
1
0
SOLID
5
145
100
AcDbEntity
8
0
62
256
6
ByLayer
370
-1
48
1
60
0
100
AcDbTrace
10
29.5
20
-18.417411
30
0
11
29.5
21
-19.584077
31
0
12
26
22
-19.000744
32
0
13
26
23
-19.000744
33
0
39
0
210
0
220
0
230
1
0
SOLID
5
146
100
AcDbEntity
8
0
62
256
6
ByLayer
370
-1
48
1
60
0
100
AcDbTrace
10
11.2
20
-19.584077
30
0
11
11.2
21
-18.417411
31
0
12
14.7
22
-19.000744
32
0
13
14.7
23
-19.000744
33
0
39
0
210
0
220
0
230
1
0
MTEXT
5
147
100
AcDbEntity
8
0
62
256
6
ByLayer
370
18
48
1
60
0
100
AcDbMText
10
20.35
20
-13.000744
30
0
210
0
220
0
230
1
1
\A1;11.3
40
3
41
0
44
1
50
0
71
5
72
5
7
iso_b_vert
0
POINT
5
148
100
AcDbEntity
8
Defpoints
62
0
6
ByLayer
370
-1
48
1
60
0
100
AcDbPoint
10
26
20
-1.775
30
0
39
0
210
0
220
0
230
1
50
360
0
POINT
5
149
100
AcDbEntity
8
Defpoints
62
0
6
ByLayer
370
-1
48
1
60
0
100
AcDbPoint
10
14.7
20
-1.775
30
0
39
0
210
0
220
0
230
1
50
360
0
POINT
5
14A
100
AcDbEntity
8
Defpoints
62
0
6
ByLayer
370
-1
48
1
60
0
100
AcDbPoint
10
14.7
20
-19.000744
30
0
39
0
210
0
220
0
230
1
50
360
0
ENDBLK
5
140
100
AcDbEntity
8
0
100
AcDbBlockEnd
0
BLOCK
5
154
100
AcDbEntity
8
0
100
AcDbBlockBegin
2
_U0
70
0
10
0
20
0
30
0
3
_U0
0
MTEXT
5
14C
100
AcDbEntity
8
SK2
62
256
6
ByLayer
370
18
48
1
60
0
100
AcDbMText
10
17.738429
20
-16.80313
30
0
210
0
220
0
230
1
1
\W0.5779;11.3
40
3
41
0
44
1.084337
50
0
71
7
72
5
7
iso_b_vert
0
MTEXT
5
14D
100
AcDbEntity
8
SK2
62
256
6
ByLayer
370
18
48
1
60
0
100
AcDbMText
10
15.638429
20
-16.80313
30
0
210
0
220
0
230
1
1
\W1.1313;{\H1.88x;(}
40
3
41
0
44
1.084337
50
0
71
7
72
5
7
iso_b_vert
0
MTEXT
5
14E
100
AcDbEntity
8
SK2
62
256
6
ByLayer
370
18
48
1
60
0
100
AcDbMText
10
23.279571
20
-16.80313
30
0
210
0
220
0
230
1
1
\W1.1313;{\H1.88x;)}
40
3
41
0
44
1.084337
50
0
71
7
72
5
7
iso_b_vert
0
LINE
5
14F
100
AcDbEntity
8
SK2
62
256
6
ByLayer
370
13
48
1
60
0
100
AcDbLine
10
26
20
-3.3625
30
0
11
26
21
-21.000744
31
0
39
0
210
0
220
0
230
1
0
LINE
5
150
100
AcDbEntity
8
SK2
62
256
6
ByLayer
370
13
48
1
60
0
100
AcDbLine
10
14.7
20
-3.3625
30
0
11
14.7
21
-21.000744
31
0
39
0
210
0
220
0
230
1
0
LINE
5
151
100
AcDbEntity
8
SK2
62
256
6
ByLayer
370
13
48
1
60
0
100
AcDbLine
10
26
20
-19.000744
30
0
11
14.7
21
-19.000744
31
0
39
0
210
0
220
0
230
1
0
SOLID
5
152
100
AcDbEntity
8
SK2
62
256
6
ByLayer
370
18
48
1
60
0
100
AcDbTrace
10
26
20
-19.000744
30
0
11
22.500002
21
-19.461528
31
0
12
22.499998
22
-18.53996
32
0
13
22.499998
23
-18.53996
33
0
39
0
210
0
220
0
230
1
0
SOLID
5
153
100
AcDbEntity
8
SK2
62
256
6
ByLayer
370
18
48
1
60
0
100
AcDbTrace
10
14.7
20
-19.000744
30
0
11
18.199998
21
-18.53996
31
0
12
18.200002
22
-19.461528
32
0
13
18.200002
23
-19.461528
33
0
39
0
210
0
220
0
230
1
0
ENDBLK
5
155
100
AcDbEntity
8
0
100
AcDbBlockEnd
0
BLOCK
5
15A
100
AcDbEntity
8
0
100
AcDbBlockBegin
2
*D3
70
1
10
0
20
0
30
0
3
*D3
0
LINE
5
15C
100
AcDbEntity
8
0
62
256
6
ByLayer
370
-2
48
1
60
0
100
AcDbLine
10
26
20
-3.3625
30
0
11
26
21
-31.000744
31
0
39
0
210
0
220
0
230
1
0
LINE
5
15D
100
AcDbEntity
8
0
62
256
6
ByLayer
370
-2
48
1
60
0
100
AcDbLine
10
6
20
-3.3625
30
0
11
6
21
-31.000744
31
0
39
0
210
0
220
0
230
1
0
LINE
5
15E
100
AcDbEntity
8
0
62
256
6
ByLayer
370
-2
48
1
60
0
100
AcDbLine
10
22.5
20
-29.000744
30
0
11
9.5
21
-29.000744
31
0
39
0
210
0
220
0
230
1
0
SOLID
5
15F
100
AcDbEntity
8
0
62
256
6
ByLayer
370
-1
48
1
60
0
100
AcDbTrace
10
22.5
20
-29.584077
30
0
11
22.5
21
-28.417411
31
0
12
26
22
-29.000744
32
0
13
26
23
-29.000744
33
0
39
0
210
0
220
0
230
1
0
SOLID
5
160
100
AcDbEntity
8
0
62
256
6
ByLayer
370
-1
48
1
60
0
100
AcDbTrace
10
9.5
20
-28.417411
30
0
11
9.5
21
-29.584077
31
0
12
6
22
-29.000744
32
0
13
6
23
-29.000744
33
0
39
0
210
0
220
0
230
1
0
MTEXT
5
161
100
AcDbEntity
8
0
62
256
6
ByLayer
370
18
48
1
60
0
100
AcDbMText
10
16
20
-23.000744
30
0
210
0
220
0
230
1
1
\A1;20
40
3
41
0
44
1
50
0
71
5
72
5
7
iso_b_vert
0
POINT
5
162
100
AcDbEntity
8
Defpoints
62
0
6
ByLayer
370
-1
48
1
60
0
100
AcDbPoint
10
26
20
-1.775
30
0
39
0
210
0
220
0
230
1
50
360
0
POINT
5
163
100
AcDbEntity
8
Defpoints
62
0
6
ByLayer
370
-1
48
1
60
0
100
AcDbPoint
10
6
20
-1.775
30
0
39
0
210
0
220
0
230
1
50
360
0
POINT
5
164
100
AcDbEntity
8
Defpoints
62
0
6
ByLayer
370
-1
48
1
60
0
100
AcDbPoint
10
6
20
-29.000744
30
0
39
0
210
0
220
0
230
1
50
360
0
ENDBLK
5
15B
100
AcDbEntity
8
0
100
AcDbBlockEnd
0
BLOCK
5
16C
100
AcDbEntity
8
0
100
AcDbBlockBegin
2
_U1
70
0
10
0
20
0
30
0
3
_U1
0
MTEXT
5
166
100
AcDbEntity
8
SK2
62
256
6
ByLayer
370
18
48
1
60
0
100
AcDbMText
10
14.367172
20
-28.11563
30
0
210
0
220
0
230
1
1
\W0.6740;20
40
3
41
0
44
1.084337
50
0
71
7
72
5
7
iso_b_vert
0
LINE
5
167
100
AcDbEntity
8
SK2
62
256
6
ByLayer
370
13
48
1
60
0
100
AcDbLine
10
26
20
-3.3625
30
0
11
26
21
-31.000744
31
0
39
0
210
0
220
0
230
1
0
LINE
5
168
100
AcDbEntity
8
SK2
62
256
6
ByLayer
370
13
48
1
60
0
100
AcDbLine
10
6
20
-3.3625
30
0
11
6
21
-31.000744
31
0
39
0
210
0
220
0
230
1
0
LINE
5
169
100
AcDbEntity
8
SK2
62
256
6
ByLayer
370
13
48
1
60
0
100
AcDbLine
10
26
20
-29.000744
30
0
11
6
21
-29.000744
31
0
39
0
210
0
220
0
230
1
0
SOLID
5
16A
100
AcDbEntity
8
SK2
62
256
6
ByLayer
370
18
48
1
60
0
100
AcDbTrace
10
26
20
-29.000744
30
0
11
22.500002
21
-29.461528
31
0
12
22.499998
22
-28.53996
32
0
13
22.499998
23
-28.53996
33
0
39
0
210
0
220
0
230
1
0
SOLID
5
16B
100
AcDbEntity
8
SK2
62
256
6
ByLayer
370
18
48
1
60
0
100
AcDbTrace
10
6
20
-29.000744
30
0
11
9.499998
21
-28.53996
31
0
12
9.500002
22
-29.461528
32
0
13
9.500002
23
-29.461528
33
0
39
0
210
0
220
0
230
1
0
ENDBLK
5
16D
100
AcDbEntity
8
0
100
AcDbBlockEnd
0
BLOCK
5
172
100
AcDbEntity
8
0
100
AcDbBlockBegin
2
*D5
70
1
10
0
20
0
30
0
3
*D5
0
LINE
5
174
100
AcDbEntity
8
0
62
256
6
ByLayer
370
-2
48
1
60
0
100
AcDbLine
10
-36
20
-4.5875
30
0
11
-36
21
-39.000744
31
0
39
0
210
0
220
0
230
1
0
LINE
5
175
100
AcDbEntity
8
0
62
256
6
ByLayer
370
-2
48
1
60
0
100
AcDbLine
10
0
20
-4.5875
30
0
11
0
21
-39.000744
31
0
39
0
210
0
220
0
230
1
0
LINE
5
176
100
AcDbEntity
8
0
62
256
6
ByLayer
370
-2
48
1
60
0
100
AcDbLine
10
-32.5
20
-37.000744
30
0
11
-3.5
21
-37.000744
31
0
39
0
210
0
220
0
230
1
0
SOLID
5
177
100
AcDbEntity
8
0
62
256
6
ByLayer
370
-1
48
1
60
0
100
AcDbTrace
10
-32.5
20
-36.417411
30
0
11
-32.5
21
-37.584077
31
0
12
-36
22
-37.000744
32
0
13
-36
23
-37.000744
33
0
39
0
210
0
220
0
230
1
0
SOLID
5
178
100
AcDbEntity
8
0
62
256
6
ByLayer
370
-1
48
1
60
0
100
AcDbTrace
10
-3.5
20
-37.584077
30
0
11
-3.5
21
-36.417411
31
0
12
0
22
-37.000744
32
0
13
0
23
-37.000744
33
0
39
0
210
0
220
0
230
1
0
MTEXT
5
179
100
AcDbEntity
8
0
62
256
6
ByLayer
370
18
48
1
60
0
100
AcDbMText
10
-18
20
-31.000744
30
0
210
0
220
0
230
1
1
\A1;36
40
3
41
0
44
1
50
0
71
5
72
5
7
iso_b_vert
0
POINT
5
17A
100
AcDbEntity
8
Defpoints
62
0
6
ByLayer
370
-1
48
1
60
0
100
AcDbPoint
10
-36
20
-3
30
0
39
0
210
0
220
0
230
1
50
360
0
POINT
5
17B
100
AcDbEntity
8
Defpoints
62
0
6
ByLayer
370
-1
48
1
60
0
100
AcDbPoint
10
0
20
-3
30
0
39
0
210
0
220
0
230
1
50
360
0
POINT
5
17C
100
AcDbEntity
8
Defpoints
62
0
6
ByLayer
370
-1
48
1
60
0
100
AcDbPoint
10
0
20
-37.000744
30
0
39
0
210
0
220
0
230
1
50
360
0
ENDBLK
5
173
100
AcDbEntity
8
0
100
AcDbBlockEnd
0
BLOCK
5
184
100
AcDbEntity
8
0
100
AcDbBlockBegin
2
_U2
70
0
10
0
20
0
30
0
3
_U2
0
MTEXT
5
17E
100
AcDbEntity
8
SK2
62
256
6
ByLayer
370
18
48
1
60
0
100
AcDbMText
10
-19.632828
20
-36.11563
30
0
210
0
220
0
230
1
1
\W0.6740;36
40
3
41
0
44
1.084337
50
0
71
7
72
5
7
iso_b_vert
0
LINE
5
17F
100
AcDbEntity
8
SK2
62
256
6
ByLayer
370
13
48
1
60
0
100
AcDbLine
10
-36
20
-4.5875
30
0
11
-36
21
-39.000744
31
0
39
0
210
0
220
0
230
1
0
LINE
5
180
100
AcDbEntity
8
SK2
62
256
6
ByLayer
370
13
48
1
60
0
100
AcDbLine
10
0
20
-4.5875
30
0
11
0
21
-39.000744
31
0
39
0
210
0
220
0
230
1
0
LINE
5
181
100
AcDbEntity
8
SK2
62
256
6
ByLayer
370
13
48
1
60
0
100
AcDbLine
10
-36
20
-37.000744
30
0
11
0
21
-37.000744
31
0
39
0
210
0
220
0
230
1
0
SOLID
5
182
100
AcDbEntity
8
SK2
62
256
6
ByLayer
370
18
48
1
60
0
100
AcDbTrace
10
-36
20
-37.000744
30
0
11
-32.500002
21
-36.53996
31
0
12
-32.499998
22
-37.461528
32
0
13
-32.499998
23
-37.461528
33
0
39
0
210
0
220
0
230
1
0
SOLID
5
183
100
AcDbEntity
8
SK2
62
256
6
ByLayer
370
18
48
1
60
0
100
AcDbTrace
10
0
20
-37.000744
30
0
11
-3.499998
21
-37.461528
31
0
12
-3.500002
22
-36.53996
32
0
13
-3.500002
23
-36.53996
33
0
39
0
210
0
220
0
230
1
0
ENDBLK
5
185
100
AcDbEntity
8
0
100
AcDbBlockEnd
0
BLOCK
5
18A
100
AcDbEntity
8
0
100
AcDbBlockBegin
2
*D7
70
1
10
0
20
0
30
0
3
*D7
0
LINE
5
18C
100
AcDbEntity
8
0
62
256
6
ByLayer
370
-2
48
1
60
0
100
AcDbLine
10
-36
20
-4.5875
30
0
11
-36
21
-47.000744
31
0
39
0
210
0
220
0
230
1
0
LINE
5
18D
100
AcDbEntity
8
0
62
256
6
ByLayer
370
-2
48
1
60
0
100
AcDbLine
10
26
20
-3.3625
30
0
11
26
21
-47.000744
31
0
39
0
210
0
220
0
230
1
0
LINE
5
18E
100
AcDbEntity
8
0
62
256
6
ByLayer
370
-2
48
1
60
0
100
AcDbLine
10
-32.5
20
-45.000744
30
0
11
22.5
21
-45.000744
31
0
39
0
210
0
220
0
230
1
0
SOLID
5
18F
100
AcDbEntity
8
0
62
256
6
ByLayer
370
-1
48
1
60
0
100
AcDbTrace
10
-32.5
20
-44.417411
30
0
11
-32.5
21
-45.584077
31
0
12
-36
22
-45.000744
32
0
13
-36
23
-45.000744
33
0
39
0
210
0
220
0
230
1
0
SOLID
5
190
100
AcDbEntity
8
0
62
256
6
ByLayer
370
-1
48
1
60
0
100
AcDbTrace
10
22.5
20
-45.584077
30
0
11
22.5
21
-44.417411
31
0
12
26
22
-45.000744
32
0
13
26
23
-45.000744
33
0
39
0
210
0
220
0
230
1
0
MTEXT
5
191
100
AcDbEntity
8
0
62
256
6
ByLayer
370
18
48
1
60
0
100
AcDbMText
10
-5
20
-39.000744
30
0
210
0
220
0
230
1
1
\A1;62
40
3
41
0
44
1
50
0
71
5
72
5
7
iso_b_vert
0
POINT
5
192
100
AcDbEntity
8
Defpoints
62
0
6
ByLayer
370
-1
48
1
60
0
100
AcDbPoint
10
-36
20
-3
30
0
39
0
210
0
220
0
230
1
50
360
0
POINT
5
193
100
AcDbEntity
8
Defpoints
62
0
6
ByLayer
370
-1
48
1
60
0
100
AcDbPoint
10
26
20
-1.775
30
0
39
0
210
0
220
0
230
1
50
360
0
POINT
5
194
100
AcDbEntity
8
Defpoints
62
0
6
ByLayer
370
-1
48
1
60
0
100
AcDbPoint
10
26
20
-45.000744
30
0
39
0
210
0
220
0
230
1
50
360
0
ENDBLK
5
18B
100
AcDbEntity
8
0
100
AcDbBlockEnd
0
BLOCK
5
19C
100
AcDbEntity
8
0
100
AcDbBlockBegin
2
_U3
70
0
10
0
20
0
30
0
3
_U3
0
MTEXT
5
196
100
AcDbEntity
8
SK2
62
256
6
ByLayer
370
18
48
1
60
0
100
AcDbMText
10
-6.632828
20
-44.11563
30
0
210
0
220
0
230
1
1
\W0.6740;62
40
3
41
0
44
1.084337
50
0
71
7
72
5
7
iso_b_vert
0
LINE
5
197
100
AcDbEntity
8
SK2
62
256
6
ByLayer
370
13
48
1
60
0
100
AcDbLine
10
-36
20
-4.5875
30
0
11
-36
21
-47.000744
31
0
39
0
210
0
220
0
230
1
0
LINE
5
198
100
AcDbEntity
8
SK2
62
256
6
ByLayer
370
13
48
1
60
0
100
AcDbLine
10
26
20
-3.3625
30
0
11
26
21
-47.000744
31
0
39
0
210
0
220
0
230
1
0
LINE
5
199
100
AcDbEntity
8
SK2
62
256
6
ByLayer
370
13
48
1
60
0
100
AcDbLine
10
-36
20
-45.000744
30
0
11
26
21
-45.000744
31
0
39
0
210
0
220
0
230
1
0
SOLID
5
19A
100
AcDbEntity
8
SK2
62
256
6
ByLayer
370
18
48
1
60
0
100
AcDbTrace
10
-36
20
-45.000744
30
0
11
-32.500002
21
-44.53996
31
0
12
-32.499998
22
-45.461528
32
0
13
-32.499998
23
-45.461528
33
0
39
0
210
0
220
0
230
1
0
SOLID
5
19B
100
AcDbEntity
8
SK2
62
256
6
ByLayer
370
18
48
1
60
0
100
AcDbTrace
10
26
20
-45.000744
30
0
11
22.500002
21
-45.461528
31
0
12
22.499998
22
-44.53996
32
0
13
22.499998
23
-44.53996
33
0
39
0
210
0
220
0
230
1
0
ENDBLK
5
19D
100
AcDbEntity
8
0
100
AcDbBlockEnd
0
BLOCK
5
1A2
100
AcDbEntity
8
0
100
AcDbBlockBegin
2
*D9
70
1
10
0
20
0
30
0
3
*D9
0
LINE
5
1A4
100
AcDbEntity
8
0
62
256
6
ByLayer
370
-2
48
1
60
0
100
AcDbLine
10
26
20
-3.3625
30
0
11
26
21
-39.000744
31
0
39
0
210
0
220
0
230
1
0
LINE
5
1A5
100
AcDbEntity
8
0
62
256
6
ByLayer
370
-2
48
1
60
0
100
AcDbLine
10
0
20
-3.3625
30
0
11
0
21
-39.000744
31
0
39
0
210
0
220
0
230
1
0
LINE
5
1A6
100
AcDbEntity
8
0
62
256
6
ByLayer
370
-2
48
1
60
0
100
AcDbLine
10
22.5
20
-37.000744
30
0
11
3.5
21
-37.000744
31
0
39
0
210
0
220
0
230
1
0
SOLID
5
1A7
100
AcDbEntity
8
0
62
256
6
ByLayer
370
-1
48
1
60
0
100
AcDbTrace
10
22.5
20
-37.584077
30
0
11
22.5
21
-36.417411
31
0
12
26
22
-37.000744
32
0
13
26
23
-37.000744
33
0
39
0
210
0
220
0
230
1
0
SOLID
5
1A8
100
AcDbEntity
8
0
62
256
6
ByLayer
370
-1
48
1
60
0
100
AcDbTrace
10
3.5
20
-36.417411
30
0
11
3.5
21
-37.584077
31
0
12
0
22
-37.000744
32
0
13
0
23
-37.000744
33
0
39
0
210
0
220
0
230
1
0
MTEXT
5
1A9
100
AcDbEntity
8
0
62
256
6
ByLayer
370
18
48
1
60
0
100
AcDbMText
10
13
20
-31.000744
30
0
210
0
220
0
230
1
1
\A1;26
40
3
41
0
44
1
50
0
71
5
72
5
7
iso_b_vert
0
POINT
5
1AA
100
AcDbEntity
8
Defpoints
62
0
6
ByLayer
370
-1
48
1
60
0
100
AcDbPoint
10
26
20
-1.775
30
0
39
0
210
0
220
0
230
1
50
360
0
POINT
5
1AB
100
AcDbEntity
8
Defpoints
62
0
6
ByLayer
370
-1
48
1
60
0
100
AcDbPoint
10
0
20
-1.775
30
0
39
0
210
0
220
0
230
1
50
360
0
POINT
5
1AC
100
AcDbEntity
8
Defpoints
62
0
6
ByLayer
370
-1
48
1
60
0
100
AcDbPoint
10
0
20
-37.000744
30
0
39
0
210
0
220
0
230
1
50
360
0
ENDBLK
5
1A3
100
AcDbEntity
8
0
100
AcDbBlockEnd
0
BLOCK
5
1B4
100
AcDbEntity
8
0
100
AcDbBlockBegin
2
_U4
70
0
10
0
20
0
30
0
3
_U4
0
MTEXT
5
1AE
100
AcDbEntity
8
2
62
256
6
ByLayer
370
18
48
1
60
0
100
AcDbMText
10
11.367172
20
-36.11563
30
0
210
0
220
0
230
1
1
\W0.6740;26
40
3
41
0
44
1.084337
50
0
71
7
72
5
7
iso_b_vert
0
LINE
5
1AF
100
AcDbEntity
8
2
62
256
6
ByLayer
370
13
48
1
60
0
100
AcDbLine
10
26
20
-3.3625
30
0
11
26
21
-39.000744
31
0
39
0
210
0
220
0
230
1
0
LINE
5
1B0
100
AcDbEntity
8
2
62
256
6
ByLayer
370
13
48
1
60
0
100
AcDbLine
10
0
20
-3.3625
30
0
11
0
21
-39.000744
31
0
39
0
210
0
220
0
230
1
0
LINE
5
1B1
100
AcDbEntity
8
2
62
256
6
ByLayer
370
13
48
1
60
0
100
AcDbLine
10
26
20
-37.000744
30
0
11
0
21
-37.000744
31
0
39
0
210
0
220
0
230
1
0
SOLID
5
1B2
100
AcDbEntity
8
2
62
256
6
ByLayer
370
18
48
1
60
0
100
AcDbTrace
10
26
20
-37.000744
30
0
11
22.500002
21
-37.461528
31
0
12
22.499998
22
-36.53996
32
0
13
22.499998
23
-36.53996
33
0
39
0
210
0
220
0
230
1
0
SOLID
5
1B3
100
AcDbEntity
8
2
62
256
6
ByLayer
370
18
48
1
60
0
100
AcDbTrace
10
0
20
-37.000744
30
0
11
3.499998
21
-36.53996
31
0
12
3.500002
22
-37.461528
32
0
13
3.500002
23
-37.461528
33
0
39
0
210
0
220
0
230
1
0
ENDBLK
5
1B5
100
AcDbEntity
8
0
100
AcDbBlockEnd
0
ENDSEC
0
SECTION
2
ENTITIES
0
ARC
5
BA
100
AcDbEntity
8
1
62
256
6
ByLayer
370
18
48
1
60
0
100
AcDbCircle
39
0
10
1.565139
20
-2.532176
30
0
40
0.799999999999996
210
0
220
0
230
1
100
AcDbArc
50
89.896868
51
168.017672
0
ARC
5
BB
100
AcDbEntity
8
1
62
256
6
ByLayer
370
18
48
1
60
0
100
AcDbCircle
39
0
10
1.565139
20
2.532176
30
0
40
0.799999999999996
210
0
220
0
230
1
100
AcDbArc
50
191.982328
51
270.103132
0
ARC
5
BC
100
AcDbEntity
8
1
62
256
6
ByLayer
370
18
48
1
60
0
100
AcDbCircle
39
0
10
0
20
-2.2
30
0
40
0.800000000000003
210
0
220
0
230
1
100
AcDbArc
50
270
51
348.017672
0
ARC
5
BD
100
AcDbEntity
8
1
62
256
6
ByLayer
370
18
48
1
60
0
100
AcDbCircle
39
0
10
0
20
2.2
30
0
40
0.800000000000003
210
0
220
0
230
1
100
AcDbArc
50
11.982328
51
90
0
ARC
5
BE
100
AcDbEntity
8
SK2
62
256
6
ByLayer
370
13
48
1
60
0
100
AcDbCircle
39
0
10
26
20
0
30
0
40
16.3979974517592
210
0
220
0
230
1
100
AcDbArc
50
10.541588
51
70.001344
0
ARC
5
BF
100
AcDbEntity
8
SK2
62
256
6
ByLayer
370
13
48
1
60
0
100
AcDbCircle
39
0
10
26
20
0
30
0
40
16.3979974517592
210
0
220
0
230
1
100
AcDbArc
50
289.998656
51
349.458412
0
ELLIPSE
5
C0
100
AcDbEntity
8
1
62
256
6
ByLayer
370
13
48
1
60
0
100
AcDbEllipse
10
14.754374
20
-1.333685
30
0
11
-0.00104571249532011
21
0.00994517397420133
31
0
210
0
220
0
230
1
40
0.633188
41
0.752687189763536
42
2.05978715682253
0
ELLIPSE
5
C1
100
AcDbEntity
8
1
62
256
6
ByLayer
370
18
48
1
60
0
100
AcDbEllipse
10
14.800342
20
-1.340139
30
0
11
-0.00333655269516144
21
-0.00942695158110038
31
0
210
0
220
0
230
1
40
0.400744
41
-2.42599380167276
42
-0.858001883757383
0
ELLIPSE
5
C2
100
AcDbEntity
8
1
62
256
6
ByLayer
370
13
48
1
60
0
100
AcDbEllipse
10
14.800872
20
0.59681
30
0
11
5.72728710749734E-05
21
0.00999983598956697
31
0
210
0
220
0
230
1
40
0.012715
41
-1.93402774872069
42
-0.361117806878338
0
ELLIPSE
5
C3
100
AcDbEntity
8
1
62
256
6
ByLayer
370
18
48
1
60
0
100
AcDbEllipse
10
14.845832
20
0.585211
30
0
11
-0.00483160026494505
21
-0.0087553206040546
31
0
210
0
220
0
230
1
40
0.18442
41
1.26534706418803
42
2.82710008896784
0
POINT
5
70
100
AcDbEntity
8
80
62
256
6
ByLayer
370
18
48
1
60
0
100
AcDbPoint
10
0
20
0
30
0
39
0
210
0
220
0
230
1
50
360
0
POINT
5
72
100
AcDbEntity
8
81
62
256
6
ByLayer
370
18
48
1
60
0
100
AcDbPoint
10
26
20
0
30
0
39
0
210
0
220
0
230
1
50
360
0
POINT
5
74
100
AcDbEntity
8
1
62
256
6
ByLayer
370
18
48
1
60
0
100
AcDbPoint
10
-224.976001
20
-200
30
0
39
0
210
0
220
0
230
1
50
360
0
POINT
5
76
100
AcDbEntity
8
1
62
256
6
ByLayer
370
13
48
1
60
1
100
AcDbPoint
10
-37.5
20
0
30
0
39
0
210
0
220
0
230
1
50
360
0
POINT
5
77
100
AcDbEntity
8
1
62
256
6
ByLayer
370
13
48
1
60
1
100
AcDbPoint
10
26.84427
20
0
30
0
39
0
210
0
220
0
230
1
50
360
0
POINT
5
78
100
AcDbEntity
8
1
62
256
6
ByLayer
370
18
48
1
60
1
100
AcDbPoint
10
26
20
-1.775
30
0
39
0
210
0
220
0
230
1
50
360
0
POINT
5
79
100
AcDbEntity
8
1
62
256
6
ByLayer
370
18
48
1
60
1
100
AcDbPoint
10
14.7
20
-1.775
30
0
39
0
210
0
220
0
230
1
50
360
0
POINT
5
7A
100
AcDbEntity
8
1
62
256
6
ByLayer
370
18
48
1
60
1
100
AcDbPoint
10
26
20
-1.775
30
0
39
0
210
0
220
0
230
1
50
360
0
POINT
5
7B
100
AcDbEntity
8
1
62
256
6
ByLayer
370
18
48
1
60
1
100
AcDbPoint
10
6
20
-1.775
30
0
39
0
210
0
220
0
230
1
50
360
0
POINT
5
7C
100
AcDbEntity
8
1
62
256
6
ByLayer
370
18
48
1
60
1
100
AcDbPoint
10
-36
20
-3
30
0
39
0
210
0
220
0
230
1
50
360
0
POINT
5
7D
100
AcDbEntity
8
1
62
256
6
ByLayer
370
18
48
1
60
1
100
AcDbPoint
10
0
20
-3
30
0
39
0
210
0
220
0
230
1
50
360
0
POINT
5
7E
100
AcDbEntity
8
1
62
256
6
ByLayer
370
18
48
1
60
1
100
AcDbPoint
10
-36
20
-3
30
0
39
0
210
0
220
0
230
1
50
360
0
POINT
5
7F
100
AcDbEntity
8
1
62
256
6
ByLayer
370
18
48
1
60
1
100
AcDbPoint
10
26
20
-1.775
30
0
39
0
210
0
220
0
230
1
50
360
0
POINT
5
80
100
AcDbEntity
8
1
62
256
6
ByLayer
370
18
48
1
60
1
100
AcDbPoint
10
26
20
-1.775
30
0
39
0
210
0
220
0
230
1
50
360
0
POINT
5
81
100
AcDbEntity
8
1
62
256
6
ByLayer
370
18
48
1
60
1
100
AcDbPoint
10
0
20
-1.775
30
0
39
0
210
0
220
0
230
1
50
360
0
SPLINE
5
C4
100
AcDbEntity
8
1
62
256
6
ByLayer
370
18
48
1
60
0
100
AcDbSpline
70
4
71
3
72
8
73
4
40
0
40
0
40
0
40
0
40
1
40
1
40
1
40
1
41
1
10
25.8057968045625
20
0.625457435916843
30
0
41
1
10
25.8566455421908
20
0.483894690330175
30
0
41
1
10
25.9070402016398
20
0.342172004722102
30
0
41
1
10
25.9569708579031
20
0.200285883206249
30
0
0
SPLINE
5
C5
100
AcDbEntity
8
1
62
256
6
ByLayer
370
18
48
1
60
0
100
AcDbSpline
70
4
71
3
72
8
73
4
40
0
40
0
40
0
40
0
40
1
40
1
40
1
40
1
41
1
10
25.9569708579031
20
0.20028588320622
30
0
41
1
10
25.9707433079377
20
0.161149215166489
30
0
41
1
10
25.9847983191124
20
0.12217339928543
30
0
41
1
10
25.9991407156276
20
0.0833548864207785
30
0
0
SPLINE
5
C6
100
AcDbEntity
8
1
62
256
6
ByLayer
370
18
48
1
60
0
100
AcDbSpline
70
4
71
3
72
19
73
15
40
0
40
0
40
0
40
0
40
0.499999999999924
40
0.749999999999888
40
0.749999999999888
40
0.874999999999872
40
0.874999999999872
40
0.937499999999865
40
0.968749999999862
40
0.984374999999895
40
0.984374999999895
40
0.992187499999947
40
0.992187499999947
40
1
40
1
40
1
40
1
41
1
10
25.3202733202001
20
1.77493174937573
30
0
41
1
10
25.3309219059705
20
1.75762429955475
30
0
41
1
10
25.3469101362677
20
1.73149648485702
30
0
41
1
10
25.3629209348994
20
1.70512364477747
30
0
41
1
10
25.3709298945634
20
1.69189704659871
30
0
41
1
10
25.3735999371922
20
1.68748190553657
30
0
41
1
10
25.3776065644117
20
1.68084780784147
30
0
41
1
10
25.3796107092023
20
1.67752700291098
30
0
41
1
10
25.3819537283126
20
1.67363927337254
30
0
41
1
10
25.3829592529351
20
1.67196955058356
30
0
41
1
10
25.3834622706967
20
1.67113404403017
30
0
41
1
10
25.3836327654995
20
1.67084989648643
30
0
41
1
10
25.3839465672386
20
1.67033576295486
30
0
41
1
10
25.3840881383306
20
1.67011060516927
30
0
41
1
10
25.3841525650692
20
1.67002325462616
30
0
0
SPLINE
5
C7
100
AcDbEntity
8
1
62
256
6
ByLayer
370
18
48
1
60
0
100
AcDbSpline
70
4
71
3
72
10
73
6
40
0
40
0
40
0
40
0
40
0.470092457011843
40
0.470092457011843
40
1
40
1
40
1
40
1
41
1
10
25.5999194013259
20
-0.308081712811429
30
0
41
1
10
25.6195617665166
20
-0.319974602009154
30
0
41
1
10
25.6396322401446
20
-0.332078281968165
30
0
41
1
10
25.6829601815209
20
-0.35814139529586
30
0
41
1
10
25.7063036873149
20
-0.372143997123857
30
0
41
1
10
25.7299312919973
20
-0.386308752541424
30
0
0
SPLINE
5
C8
100
AcDbEntity
8
1
62
256
6
ByLayer
370
13
48
1
60
0
100
AcDbSpline
70
4
71
3
72
14
73
10
40
0
40
0
40
0
40
0
40
0.25
40
0.25
40
0.5
40
0.5
40
0.75
40
0.75
40
1
40
1
40
1
40
1
41
1
10
14.7493055548853
20
-1.33894088173219
30
0
41
1
10
14.741899159907
20
-1.33937651018866
30
0
41
1
10
14.7354997615403
20
-1.33986739462284
30
0
41
1
10
14.7242485519175
20
-1.34091206854819
30
0
41
1
10
14.719395012681
20
-1.3414705083423
30
0
41
1
10
14.7114489696539
20
-1.34257631708877
30
0
41
1
10
14.7082862884095
20
-1.34312977518329
30
0
41
1
10
14.7034247412436
20
-1.34422552995409
30
0
41
1
10
14.701743472521
20
-1.34476724440506
30
0
41
1
10
14.7008256475481
20
-1.34528512983377
30
0
0
SPLINE
5
C9
100
AcDbEntity
8
1
62
256
6
ByLayer
370
18
48
1
60
0
100
AcDbSpline
70
4
71
3
72
11
73
7
40
0
40
0
40
0
40
0
40
0.349039986665142
40
0.349039986665142
40
0.698079973330281
40
1
40
1
40
1
40
1
41
1
10
25.3559529786458
20
1.68853662810531
30
0
41
1
10
25.3007338741795
20
1.68532916810491
30
0
41
1
10
25.245523815113
20
1.68125813373643
30
0
41
1
10
25.1350820443396
20
1.67113392280356
30
0
41
1
10
25.0320724582441
20
1.65992935147327
30
0
41
1
10
24.9289361871555
20
1.64546520252506
30
0
41
1
10
24.8810573495586
20
1.63805981505703
30
0
0
SPLINE
5
CA
100
AcDbEntity
8
1
62
256
6
ByLayer
370
18
48
1
60
0
100
AcDbSpline
70
4
71
3
72
20
73
16
40
0
40
0
40
0
40
0
40
0.0463323624729115
40
0.0463323624729115
40
0.205276968727431
40
0.205276968727431
40
0.284749271854687
40
0.284749271854687
40
0.364221574981944
40
0.364221574981944
40
0.523166181236456
40
0.523166181236456
40
0.682110787490968
40
0.682110787490968
40
1
40
1
40
1
40
1
41
1
10
16.8767314758336
20
-1.67501024552516
30
0
41
1
10
16.8447861069293
20
-1.67656780017808
30
0
41
1
10
16.8128286612753
20
-1.67780715350295
30
0
41
1
10
16.6711692458723
20
-1.68186059086818
30
0
41
1
10
16.5612800301502
20
-1.68132860310447
30
0
41
1
10
16.3958116660092
20
-1.67499120743472
30
0
41
1
10
16.3405489248133
20
-1.67195077689667
30
0
41
1
10
16.2297609500858
20
-1.6639877301796
30
0
41
1
10
16.1741980946732
20
-1.65905843897917
30
0
41
1
10
16.008008093124
20
-1.64151854718753
30
0
41
1
10
15.8975771321575
20
-1.62611861014483
30
0
41
1
10
15.6772036596458
20
-1.58820436453692
30
0
41
1
10
15.5672526642792
20
-1.56578607868337
30
0
41
1
10
15.2373066821432
20
-1.4884334824927
30
0
41
1
10
15.0171436993999
20
-1.42326298679311
30
0
41
1
10
14.7953017426931
20
-1.34529206234103
30
0
0
SPLINE
5
CB
100
AcDbEntity
8
1
62
256
6
ByLayer
370
13
48
1
60
0
100
AcDbSpline
70
4
71
3
72
10
73
6
40
0
40
0
40
0
40
0
40
0.5
40
0.5
40
1
40
1
40
1
40
1
41
1
10
14.7953017426931
20
-1.34529206234103
30
0
41
1
10
14.7872728871632
20
-1.34247015571322
30
0
41
1
10
14.7794127988915
20
-1.3405399188907
30
0
41
1
10
14.7640425277036
20
-1.33838803822383
30
0
41
1
10
14.7564615247411
20
-1.33817542661163
30
0
41
1
10
14.7493055548853
20
-1.33894088173219
30
0
0
SPLINE
5
CC
100
AcDbEntity
8
1
62
256
6
ByLayer
370
13
48
1
60
0
100
AcDbSpline
70
4
71
3
72
8
73
4
40
0
40
0
40
0
40
0
40
1
40
1
40
1
40
1
41
1
10
14.747818722118
20
-1.39072062859941
30
0
41
1
10
14.7483066897382
20
-1.37346492640901
30
0
41
1
10
14.7488022707818
20
-1.35620511061901
30
0
41
1
10
14.7493055548853
20
-1.33894088173213
30
0
0
SPLINE
5
CD
100
AcDbEntity
8
1
62
256
6
ByLayer
370
13
48
1
60
0
100
AcDbSpline
70
4
71
3
72
12
73
8
40
0
40
0
40
0
40
0
40
0.500000000000191
40
0.500000000000191
40
0.750000000000096
40
0.750000000000096
40
1
40
1
40
1
40
1
41
1
10
14.8509262770235
20
0.593261166590224
30
0
41
1
10
14.8433472656926
20
0.59744510137233
30
0
41
1
10
14.8353534118479
20
0.600606976533072
30
0
41
1
10
14.8227586468598
20
0.603869962679596
30
0
41
1
10
14.8184341965869
20
0.604709300525343
30
0
41
1
10
14.8097470095013
20
0.605840176519365
30
0
41
1
10
14.8053736995261
20
0.606137680760355
30
0
41
1
10
14.8009703408693
20
0.606164435258705
30
0
0
SPLINE
5
CE
100
AcDbEntity
8
1
62
256
6
ByLayer
370
13
48
1
60
0
100
AcDbSpline
70
4
71
3
72
24
73
20
40
0
40
0
40
0
40
0
40
0.125000000000001
40
0.125000000000001
40
0.187500000000001
40
0.187500000000001
40
0.250000000000001
40
0.250000000000001
40
0.375000000000001
40
0.375000000000001
40
0.500000000000001
40
0.500000000000001
40
0.625
40
0.625
40
0.75
40
0.75
40
0.875
40
0.875
40
1
40
1
40
1
40
1
41
1
10
14.8009703408693
20
0.606164435258705
30
0
41
1
10
14.7939303701965
20
0.606207209626746
30
0
41
1
10
14.7870543641983
20
0.605795829003114
30
0
41
1
10
14.7769674073149
20
0.604547902122135
30
0
41
1
10
14.7736237705899
20
0.604021080085914
30
0
41
1
10
14.7671775767487
20
0.602788085181743
30
0
41
1
10
14.7640590110953
20
0.602081293352683
30
0
41
1
10
14.7549912217033
20
0.599710747459312
30
0
41
1
10
14.7492874179136
20
0.597775568637132
30
0
41
1
10
14.7389855237457
20
0.593476685745799
30
0
41
1
10
14.7343283739721
20
0.591102875521756
30
0
41
1
10
14.7258643594332
20
0.585960543794471
30
0
41
1
10
14.722086271966
20
0.583199927740765
30
0
41
1
10
14.7155241794722
20
0.577507578823827
30
0
41
1
10
14.7127022201941
20
0.574552593706699
30
0
41
1
10
14.707889900536
20
0.568440124239459
30
0
41
1
10
14.705892557361
20
0.565262102914005
30
0
41
1
10
14.7027735611282
20
0.558830691590288
30
0
41
1
10
14.7016429716913
20
0.555574774526548
30
0
41
1
10
14.7009229482348
20
0.552279426323025
30
0
0
SPLINE
5
CF
100
AcDbEntity
8
1
62
256
6
ByLayer
370
18
48
1
60
0
100
AcDbSpline
70
4
71
3
72
28
73
24
40
0
40
0
40
0
40
0
40
0.125000000000013
40
0.125000000000013
40
0.187500000000014
40
0.187500000000014
40
0.250000000000015
40
0.250000000000015
40
0.375000000000017
40
0.375000000000017
40
0.500000000000019
40
0.500000000000019
40
0.56250000000002
40
0.56250000000002
40
0.625000000000021
40
0.625000000000021
40
0.75000000000001
40
0.75000000000001
40
0.812500000000004
40
0.812500000000004
40
0.874999999999999
40
0.874999999999999
40
1
40
1
40
1
40
1
41
1
10
25.9991407156177
20
0.0833548864242175
30
0
41
1
10
25.9901380210144
20
0.0571326720896934
30
0
41
1
10
25.9805707776998
20
0.03117875394517
30
0
41
1
10
25.9653933870601
20
-0.0073517645080585
30
0
41
1
10
25.960196068569
20
-0.0201283348644381
30
0
41
1
10
25.9495225742237
20
-0.0455450854044557
30
0
41
1
10
25.9440359194284
20
-0.0582054153344416
30
0
41
1
10
25.9274303820278
20
-0.095360371633177
30
0
41
1
10
25.916084753375
20
-0.119235814616104
30
0
41
1
10
25.8929005866758
20
-0.165199172633578
30
0
41
1
10
25.8810622260444
20
-0.187287977676618
30
0
41
1
10
25.8629421251193
20
-0.218993239028151
30
0
41
1
10
25.8568326551916
20
-0.229332866188514
30
0
41
1
10
25.8447262347038
20
-0.249130214201102
30
0
41
1
10
25.8387006448479
20
-0.258639502063772
30
0
41
1
10
25.8207081414068
20
-0.286010015353099
30
0
41
1
10
25.8088260123797
20
-0.302720855632742
30
0
41
1
10
25.7911686737154
20
-0.325404067683166
30
0
41
1
10
25.7853031753615
20
-0.332574633789846
30
0
41
1
10
25.7736549273264
20
-0.346047518510602
30
0
41
1
10
25.7679430946824
20
-0.352268690730909
30
0
41
1
10
25.7511253071053
20
-0.369426765498162
30
0
41
1
10
25.7403362271231
20
-0.378866411237453
30
0
41
1
10
25.7299312919972
20
-0.386308752541595
30
0
0
SPLINE
5
D0
100
AcDbEntity
8
1
62
256
6
ByLayer
370
18
48
1
60
0
100
AcDbSpline
70
4
71
3
72
71
73
67
40
0
40
0
40
0
40
0
40
0.0312499999999988
40
0.0312499999999988
40
0.0624999999999975
40
0.0624999999999975
40
0.0937499999999963
40
0.0937499999999963
40
0.124999999999995
40
0.124999999999995
40
0.156249999999994
40
0.156249999999994
40
0.187499999999993
40
0.187499999999993
40
0.218749999999991
40
0.218749999999991
40
0.24999999999999
40
0.24999999999999
40
0.281249999999989
40
0.281249999999989
40
0.312499999999988
40
0.312499999999988
40
0.343749999999987
40
0.343749999999987
40
0.374999999999985
40
0.406249999999985
40
0.406249999999985
40
0.437499999999984
40
0.437499999999984
40
0.499999999999988
40
0.499999999999988
40
0.531249999999987
40
0.531249999999987
40
0.562499999999987
40
0.593749999999987
40
0.593749999999987
40
0.609374999999988
40
0.609374999999988
40
0.624999999999989
40
0.656249999999993
40
0.656249999999993
40
0.671874999999995
40
0.671874999999995
40
0.687499999999996
40
0.687499999999996
40
0.750000000000002
40
0.750000000000002
40
0.765625000000004
40
0.765625000000004
40
0.781250000000005
40
0.781250000000005
40
0.812500000000011
40
0.812500000000011
40
0.828125000000012
40
0.828125000000012
40
0.843750000000013
40
0.843750000000013
40
0.875000000000011
40
0.875000000000011
40
0.906250000000008
40
0.906250000000008
40
0.937500000000005
40
0.937500000000005
40
0.968750000000003
40
0.968750000000003
40
1
40
1
40
1
40
1
41
1
10
25.7299312919973
20
-0.38630875254151
30
0
41
1
10
25.7289990559449
20
-0.396223561463131
30
0
41
1
10
25.727613558368
20
-0.40678111255906
30
0
41
1
10
25.7240592866411
20
-0.428226338696078
30
0
41
1
10
25.721885448484
20
-0.439212333130826
30
0
41
1
10
25.7167580005049
20
-0.461718935773405
30
0
41
1
10
25.7137736720865
20
-0.473332383375919
30
0
41
1
10
25.7072553587511
20
-0.496270429321726
30
0
41
1
10
25.7037077612087
20
-0.507675980219915
30
0
41
1
10
25.6960787964559
20
-0.530371607528281
30
0
41
1
10
25.6919714531487
20
-0.54171839181501
30
0
41
1
10
25.6835141848499
20
-0.563603748073774
30
0
41
1
10
25.679138524823
20
-0.574226812792716
30
0
41
1
10
25.6701250823464
20
-0.594873810102058
30
0
41
1
10
25.6654612567754
20
-0.604944706270715
30
0
41
1
10
25.6561349035297
20
-0.623993794186589
30
0
41
1
10
25.6514480332727
20
-0.633033238500246
30
0
41
1
10
25.6420369985609
20
-0.650198198195142
30
0
41
1
10
25.6372892256588
20
-0.658360599300238
30
0
41
1
10
25.6278814896286
20
-0.673577128464586
30
0
41
1
10
25.6232355542068
20
-0.680614295573406
30
0
41
1
10
25.6140539520228
20
-0.693588854966549
30
0
41
1
10
25.6095111481514
20
-0.699528699598005
30
0
41
1
10
25.6007242164511
20
-0.710082512535337
30
0
41
1
10
25.5921812931211
20
-0.719391249985705
30
0
41
1
10
25.5840953140378
20
-0.726278289174189
30
0
41
1
10
25.5762308577239
20
-0.731927303931826
30
0
41
1
10
25.5724056127645
20
-0.734125425619311
30
0
41
1
10
25.5615422768684
20
-0.738663353874557
30
0
41
1
10
25.555002419177
20
-0.739067953267636
30
0
41
1
10
25.5462051429061
20
-0.735519943052452
30
0
41
1
10
25.5434534819653
20
-0.733626675302219
30
0
41
1
10
25.5384424938044
20
-0.728501216947592
30
0
41
1
10
25.5338810150109
20
-0.72202499510567
30
0
41
1
10
25.5302121236998
20
-0.712776801879983
30
0
41
1
10
25.527813236673
20
-0.704715644192305
30
0
41
1
10
25.5270733633129
20
-0.701838115546877
30
0
41
1
10
25.5257383081309
20
-0.695794703283667
30
0
41
1
10
25.5239426580537
20
-0.68626308136092
30
0
41
1
10
25.5227598408942
20
-0.67533944300439
30
0
41
1
10
25.5220017110974
20
-0.663445552216785
30
0
41
1
10
25.5218200775397
20
-0.659318635414252
30
0
41
1
10
25.5216057907675
20
-0.650725019952688
30
0
41
1
10
25.5215735647458
20
-0.646235290579654
30
0
41
1
10
25.5218050339419
20
-0.623212689905529
30
0
41
1
10
25.5232008508993
20
-0.603071043980378
30
0
41
1
10
25.5266242809913
20
-0.575603232861312
30
0
41
1
10
25.5273982670767
20
-0.569974607176619
30
0
41
1
10
25.529093612471
20
-0.558701206619105
30
0
41
1
10
25.5300175534986
20
-0.553032090319306
30
0
41
1
10
25.5330184171744
20
-0.535929865482615
30
0
41
1
10
25.5353230205479
20
-0.524402376634129
30
0
41
1
10
25.5392611526239
20
-0.506922430003101
30
0
41
1
10
25.5406615523713
20
-0.501036386752219
30
0
41
1
10
25.543593335218
20
-0.489351098230628
30
0
41
1
10
25.5451214028481
20
-0.483561573163911
30
0
41
1
10
25.5498896738889
20
-0.466347834996981
30
0
41
1
10
25.5533130979947
20
-0.455077707040601
30
0
41
1
10
25.5606579976958
20
-0.432944708623296
30
0
41
1
10
25.5645923892363
20
-0.422065608317922
30
0
41
1
10
25.5727048730778
20
-0.401409874158446
30
0
41
1
10
25.576912912127
20
-0.391536986430168
30
0
41
1
10
25.5856291300349
20
-0.372659535267047
30
0
41
1
10
25.5901568737152
20
-0.363628406801013
30
0
41
1
10
25.5992639643146
20
-0.346879004237565
30
0
41
1
10
25.6038709984726
20
-0.339095113285794
30
0
41
1
10
25.6085291932392
20
-0.331866508017015
30
0
0
SPLINE
5
D1
100
AcDbEntity
8
1
62
256
6
ByLayer
370
18
48
1
60
0
100
AcDbSpline
70
4
71
3
72
8
73
4
40
0
40
0
40
0
40
0
40
1
40
1
40
1
40
1
41
1
10
25.6085291932392
20
-0.331866508017043
30
0
41
1
10
25.6009598056868
20
-0.310182834652551
30
0
41
1
10
25.5948327848416
20
-0.284571310978123
30
0
41
1
10
25.5899159929037
20
-0.255346331674559
30
0
0
SPLINE
5
D2
100
AcDbEntity
8
1
62
256
6
ByLayer
370
18
48
1
60
0
100
AcDbSpline
70
4
71
3
72
8
73
4
40
0
40
0
40
0
40
0
40
1
40
1
40
1
40
1
41
1
10
25.5899159929036
20
-0.255346331674644
30
0
41
1
10
25.5664625075199
20
-0.115940875110596
30
0
41
1
10
25.5362300511527
20
0.0267082914203343
30
0
41
1
10
25.4992660731296
20
0.17257846360846
30
0
0
SPLINE
5
D3
100
AcDbEntity
8
1
62
256
6
ByLayer
370
18
48
1
60
0
100
AcDbSpline
70
4
71
3
72
12
73
8
40
0
40
0
40
0
40
0
40
0.249999999999995
40
0.249999999999995
40
0.49999999999999
40
0.49999999999999
40
1
40
1
40
1
40
1
41
1
10
25.4344621295415
20
-1.58291921011667
30
0
41
1
10
25.4270791071361
20
-1.59433937670511
30
0
41
1
10
25.4199528104816
20
-1.60498787697014
30
0
41
1
10
25.4062291647255
20
-1.62460164162559
30
0
41
1
10
25.3996099501261
20
-1.63358933947094
30
0
41
1
10
25.3809792555699
20
-1.65728407559166
30
0
41
1
10
25.370050526229
20
-1.66895045990748
30
0
41
1
10
25.3604349671569
20
-1.67650094565363
30
0
0
SPLINE
5
D4
100
AcDbEntity
8
1
62
256
6
ByLayer
370
18
48
1
60
0
100
AcDbSpline
70
4
71
3
72
8
73
4
40
0
40
0
40
0
40
0
40
1
40
1
40
1
40
1
41
1
10
25.8057968045625
20
-0.625457435916843
30
0
41
1
10
25.8566455421908
20
-0.483894690330175
30
0
41
1
10
25.9070402016398
20
-0.34217200472213
30
0
41
1
10
25.9569708579031
20
-0.200285883206249
30
0
0
SPLINE
5
D5
100
AcDbEntity
8
1
62
256
6
ByLayer
370
18
48
1
60
0
100
AcDbSpline
70
4
71
3
72
8
73
4
40
0
40
0
40
0
40
0
40
1
40
1
40
1
40
1
41
1
10
25.9569708579031
20
-0.20028588320622
30
0
41
1
10
25.9707433079356
20
-0.161149215172486
30
0
41
1
10
25.9847983191081
20
-0.122173399297424
30
0
41
1
10
25.999140715621
20
-0.0833548864386557
30
0
0
SPLINE
5
D6
100
AcDbEntity
8
1
62
256
6
ByLayer
370
18
48
1
60
0
100
AcDbSpline
70
4
71
3
72
8
73
4
40
0
40
0
40
0
40
0
40
1
40
1
40
1
40
1
41
1
10
25.999140715622
20
0.0833548864275144
30
0
41
1
10
26.0002856123908
20
0.0278245273543973
30
0
41
1
10
26.000287245025
20
-0.0277453405121264
30
0
41
1
10
25.9991407156218
20
-0.0833548864333125
30
0
0
SPLINE
5
D7
100
AcDbEntity
8
1
62
256
6
ByLayer
370
18
48
1
60
0
100
AcDbSpline
70
4
71
3
72
24
73
20
40
0
40
0
40
0
40
0
40
0.125000000000007
40
0.125000000000007
40
0.250000000000014
40
0.250000000000014
40
0.500000000000021
40
0.500000000000021
40
0.531250000000019
40
0.531250000000019
40
0.562500000000018
40
0.562500000000018
40
0.625000000000015
40
0.625000000000015
40
0.75000000000001
40
0.75000000000001
40
0.875000000000005
40
0.875000000000005
40
1
40
1
40
1
40
1
41
1
10
25.4344621295414
20
-1.58291921011693
30
0
41
1
10
25.4485294875274
20
-1.54232004143765
30
0
41
1
10
25.4627047271681
20
-1.50161959155187
30
0
41
1
10
25.4912990944473
20
-1.42005697101683
30
0
41
1
10
25.5057276815024
20
-1.37917030763191
30
0
41
1
10
25.5493412155635
20
-1.25651782001842
30
0
41
1
10
25.5788573902652
20
-1.17479352469846
30
0
41
1
10
25.6125450696687
20
-1.08296359198792
30
0
41
1
10
25.6162940540536
20
-1.07276313586209
30
0
41
1
10
25.6238034847574
20
-1.05236772620873
30
0
41
1
10
25.627557587674
20
-1.04216973373116
30
0
41
1
10
25.6389051090974
20
-1.01161653631766
30
0
41
1
10
25.646573314274
20
-0.991297053955066
30
0
41
1
10
25.6699595898631
20
-0.930517685774134
30
0
41
1
10
25.6859125497894
20
-0.890620821977478
30
0
41
1
10
25.7186182856111
20
-0.812359925163605
30
0
41
1
10
25.7353847829416
20
-0.773958813805962
30
0
41
1
10
25.7698561036574
20
-0.698607408927899
30
0
41
1
10
25.7875586842325
20
-0.661653407019685
30
0
41
1
10
25.8057968045625
20
-0.625457435916871
30
0
0
SPLINE
5
D8
100
AcDbEntity
8
1
62
256
6
ByLayer
370
18
48
1
60
0
100
AcDbSpline
70
4
71
3
72
8
73
4
40
0
40
0
40
0
40
0
40
1
40
1
40
1
40
1
41
1
10
25.3841525650799
20
-1.67002325461172
30
0
41
1
10
25.4009110626093
20
-1.64098851864341
30
0
41
1
10
25.4176824788436
20
-1.61195092652847
30
0
41
1
10
25.4344621295413
20
-1.58291921011693
30
0
0
SPLINE
5
D9
100
AcDbEntity
8
1
62
256
6
ByLayer
370
18
48
1
60
0
100
AcDbSpline
70
4
71
3
72
8
73
4
40
0
40
0
40
0
40
0
40
1
40
1
40
1
40
1
41
1
10
14.6999853142016
20
1.51239753284341
30
0
41
1
10
14.6999853142016
20
1.48329189947248
30
0
41
1
10
14.6999853142022
20
1.45425610615501
30
0
41
1
10
14.6999853142022
20
1.42528925283244
30
0
0
SPLINE
5
DA
100
AcDbEntity
8
1
62
256
6
ByLayer
370
18
48
1
60
0
100
AcDbSpline
70
4
71
3
72
24
73
20
40
0
40
0
40
0
40
0
40
0.0274088457844118
40
0.0274088457844118
40
0.115826223440378
40
0.115826223440378
40
0.29266097875231
40
0.29266097875231
40
0.469495734064242
40
0.469495734064242
40
0.557913111720208
40
0.557913111720208
40
0.646330489376174
40
0.646330489376174
40
0.823165244688107
40
0.823165244688107
40
0.911582622344054
40
0.911582622344054
40
1
40
1
40
1
40
1
41
1
10
25.1026569046059
20
0.397656182782953
30
0
41
1
10
25.1060762778717
20
0.399203782518015
30
0
41
1
10
25.1095173076994
20
0.400779924301247
30
0
41
1
10
25.1241520431539
20
0.407560368808845
30
0
41
1
10
25.1356022048669
20
0.413052343201258
30
0
41
1
10
25.1703208374019
20
0.430065650106854
30
0
41
1
10
25.1939781109748
20
0.442131741184284
30
0
41
1
10
25.2428009837927
20
0.466725338428546
30
0
41
1
10
25.2679692575273
20
0.479249545746342
30
0
41
1
10
25.3072739577033
20
0.497559872464876
30
0
41
1
10
25.3206819339368
20
0.503601692879641
30
0
41
1
10
25.3476416276169
20
0.515151568933476
30
0
41
1
10
25.3612379481959
20
0.520675400161792
30
0
41
1
10
25.4024263482398
20
0.536316743137206
30
0
41
1
10
25.4304151343475
20
0.54551154231126
30
0
41
1
10
25.4732773834454
20
0.557107202632125
30
0
41
1
10
25.4877103394838
20
0.560609510858427
30
0
41
1
10
25.5168916364877
20
0.566799932495712
30
0
41
1
10
25.5316388767589
20
0.569484385702538
30
0
41
1
10
25.5463972307896
20
0.57170892522285
30
0
0
SPLINE
5
DB
100
AcDbEntity
8
1
62
256
6
ByLayer
370
18
48
1
60
0
100
AcDbSpline
70
4
71
3
72
10
73
6
40
0
40
0
40
0
40
0
40
0.5
40
0.5
40
1
40
1
40
1
40
1
41
1
10
25.5463972307896
20
0.57170892522285
30
0
41
1
10
25.5900992590904
20
0.578296169902757
30
0
41
1
10
25.6336775927467
20
0.585753136105865
30
0
41
1
10
25.7203396392631
20
0.603276825313998
30
0
41
1
10
25.7633427978469
20
0.613305881984473
30
0
41
1
10
25.8057968045623
20
0.625457435916758
30
0
0
SPLINE
5
DC
100
AcDbEntity
8
1
62
256
6
ByLayer
370
18
48
1
60
0
100
AcDbSpline
70
4
71
3
72
24
73
20
40
0
40
0
40
0
40
0
40
0.124999999999997
40
0.124999999999997
40
0.249999999999994
40
0.249999999999994
40
0.499999999999989
40
0.499999999999989
40
0.531249999999987
40
0.531249999999987
40
0.562499999999985
40
0.562499999999985
40
0.624999999999988
40
0.624999999999988
40
0.749999999999992
40
0.749999999999992
40
0.874999999999996
40
0.874999999999996
40
1
40
1
40
1
40
1
41
1
10
25.4344621295414
20
1.58291921011687
30
0
41
1
10
25.4485294875274
20
1.54232004143759
30
0
41
1
10
25.4627047271681
20
1.50161959155184
30
0
41
1
10
25.4912990944473
20
1.4200569710168
30
0
41
1
10
25.5057276815025
20
1.37917030763188
30
0
41
1
10
25.5493412155635
20
1.25651782001839
30
0
41
1
10
25.5788573902652
20
1.17479352469843
30
0
41
1
10
25.6125450696687
20
1.08296359198789
30
0
41
1
10
25.6162940540536
20
1.07276313586203
30
0
41
1
10
25.6238034847574
20
1.0523677262087
30
0
41
1
10
25.627557587674
20
1.04216973373113
30
0
41
1
10
25.6389051090975
20
1.01161653631763
30
0
41
1
10
25.646573314274
20
0.991297053955037
30
0
41
1
10
25.6699595898631
20
0.930517685774106
30
0
41
1
10
25.6859125497894
20
0.890620821977478
30
0
41
1
10
25.7186182856112
20
0.812359925163605
30
0
41
1
10
25.7353847829416
20
0.773958813805962
30
0
41
1
10
25.7698561036574
20
0.698607408927927
30
0
41
1
10
25.7875586842325
20
0.661653407019685
30
0
41
1
10
25.8057968045625
20
0.625457435916871
30
0
0
SPLINE
5
DD
100
AcDbEntity
8
1
62
256
6
ByLayer
370
18
48
1
60
0
100
AcDbSpline
70
4
71
3
72
8
73
4
40
0
40
0
40
0
40
0
40
1
40
1
40
1
40
1
41
1
10
25.3841525650722
20
1.67002325462505
30
0
41
1
10
25.4009110626042
20
1.64098851865231
30
0
41
1
10
25.417682478841
20
1.61195092653287
30
0
41
1
10
25.4344621295413
20
1.58291921011687
30
0
0
SPLINE
5
DE
100
AcDbEntity
8
1
62
256
6
ByLayer
370
18
48
1
60
0
100
AcDbSpline
70
4
71
3
72
24
73
20
40
0
40
0
40
0
40
0
40
0.148588419952198
40
0.148588419952198
40
0.297176839904396
40
0.297176839904396
40
0.371471049880495
40
0.371471049880495
40
0.408618154868541
40
0.408618154868541
40
0.445765259856587
40
0.445765259856587
40
0.594353679808785
40
0.594353679808785
40
0.742942099760983
40
0.742942099760983
40
0.891530519713181
40
0.891530519713181
40
1
40
1
40
1
40
1
41
1
10
25.3841525650472
20
1.6700232546124
30
0
41
1
10
25.2736691362291
20
1.67238827075926
30
0
41
1
10
25.1631681886933
20
1.67104709088173
30
0
41
1
10
24.9416241653318
20
1.66087369291213
30
0
41
1
10
24.8305720548234
20
1.65202378660396
30
0
41
1
10
24.6633698390356
20
1.63321115704502
30
0
41
1
10
24.607547093205
20
1.62601931585658
30
0
41
1
10
24.5236359463932
20
1.61382528953692
30
0
41
1
10
24.4956125499093
20
1.60952245666456
30
0
41
1
10
24.4396466327833
20
1.60046964740508
30
0
41
1
10
24.4116967743378
20
1.59571898337407
30
0
41
1
10
24.2720970307806
20
1.5708527598064
30
0
41
1
10
24.1609021305482
20
1.54737267286575
30
0
41
1
10
23.9390334706422
20
1.493687200083
30
0
41
1
10
23.8283996267447
20
1.46351537196753
30
0
41
1
10
23.6074261642624
20
1.39688416656264
30
0
41
1
10
23.4970390225052
20
1.36043057807177
30
0
41
1
10
23.3058871913581
20
1.29219857592412
30
0
41
1
10
23.22515701438
20
1.26182207141085
30
0
41
1
10
23.1443344928596
20
1.22990162761738
30
0
0
SPLINE
5
DF
100
AcDbEntity
8
1
62
256
6
ByLayer
370
18
48
1
60
0
100
AcDbSpline
70
4
71
3
72
18
73
14
40
0
40
0
40
0
40
0
40
0.124999999999996
40
0.124999999999996
40
0.249999999999991
40
0.249999999999991
40
0.374999999999987
40
0.374999999999987
40
0.499999999999982
40
0.499999999999982
40
0.749999999999991
40
0.749999999999991
40
1
40
1
40
1
40
1
41
1
10
25.4992660731296
20
0.17257846360846
30
0
41
1
10
25.4917495935841
20
0.167110582536225
30
0
41
1
10
25.4842283866204
20
0.161206741872036
30
0
41
1
10
25.4693169014933
20
0.148670198652155
30
0
41
1
10
25.461908557576
20
0.14202401426391
30
0
41
1
10
25.44719392383
20
0.128015943885742
30
0
41
1
10
25.4398871672432
20
0.120666573296859
30
0
41
1
10
25.425373849771
20
0.105451984014735
30
0
41
1
10
25.4181666190835
20
0.097598179232449
30
0
41
1
10
25.3967042737357
20
0.0732465718981246
30
0
41
1
10
25.382614160391
20
0.0558448091574064
30
0
41
1
10
25.3549402226624
20
0.0183723671227369
30
0
41
1
10
25.3413538078438
20
-0.0016461911614556
30
0
41
1
10
25.3280406423273
20
-0.0229295824078974
30
0
0
SPLINE
5
E0
100
AcDbEntity
8
1
62
256
6
ByLayer
370
18
48
1
60
0
100
AcDbSpline
70
4
71
3
72
26
73
22
40
0
40
0
40
0
40
0
40
0.16539521109695
40
0.16539521109695
40
0.248092816645414
40
0.248092816645414
40
0.330790422193878
40
0.330790422193878
40
0.496185633290807
40
0.496185633290807
40
0.661580844387736
40
0.661580844387736
40
0.74427844993619
40
0.74427844993619
40
0.826976055484644
40
0.826976055484644
40
0.909673661033098
40
0.909673661033098
40
0.992371266581551
40
0.992371266581551
40
1
40
1
40
1
40
1
41
1
10
25.4992660731296
20
0.172578463608346
30
0
41
1
10
25.4647667496968
20
0.195131115102015
30
0
41
1
10
25.4300631887787
20
0.217226390756935
30
0
41
1
10
25.3778582333744
20
0.249623554885744
30
0
41
1
10
25.3604678597198
20
0.260285501692493
30
0
41
1
10
25.3257016362901
20
0.281432829182847
30
0
41
1
10
25.3083254433473
20
0.291922381740562
30
0
41
1
10
25.2562302226168
20
0.322985506576231
30
0
41
1
10
25.221550276554
20
0.343083964156563
30
0
41
1
10
25.152336618145
20
0.381503122866434
30
0
41
1
10
25.1177982467385
20
0.399880463975904
30
0
41
1
10
25.0661142963292
20
0.425943794767505
30
0
41
1
10
25.0489080268515
20
0.434367595714292
30
0
41
1
10
25.0145246019821
20
0.450861259024407
30
0
41
1
10
24.9973565647311
20
0.458972658759763
30
0
41
1
10
24.9631272259998
20
0.474868848018815
30
0
41
1
10
24.9460670095359
20
0.482626291395888
30
0
41
1
10
24.9121977541942
20
0.497261751712642
30
0
41
1
10
24.8953833429689
20
0.504158578389763
30
0
41
1
10
24.877176924589
20
0.511134592051405
30
0
41
1
10
24.8756400871048
20
0.511719582137374
30
0
41
1
10
24.8741042623002
20
0.512300214660058
30
0
0
SPLINE
5
E1
100
AcDbEntity
8
1
62
256
6
ByLayer
370
18
48
1
60
0
100
AcDbSpline
70
4
71
3
72
64
73
60
40
0
40
0
40
0
40
0
40
0.0047895729271289
40
0.0047895729271289
40
0.0234793980316376
40
0.0234793980316376
40
0.0421692231361464
40
0.0421692231361464
40
0.0608590482406552
40
0.0608590482406552
40
0.079548873345164
40
0.079548873345164
40
0.0982386984496729
40
0.0982386984496729
40
0.100574926587736
40
0.101743040656768
40
0.102327097691284
40
0.102327097691284
40
0.1029111547258
40
0.1029111547258
40
0.104079268794832
40
0.104079268794832
40
0.105247382863863
40
0.105247382863863
40
0.107583611001927
40
0.107583611001927
40
0.116928523554181
40
0.116928523554181
40
0.135618348658689
40
0.135618348658689
40
0.172997998867706
40
0.172997998867706
40
0.247757299285739
40
0.247757299285739
40
0.397275900121806
40
0.397275900121806
40
0.472035200539839
40
0.472035200539839
40
0.490725025644347
40
0.490725025644347
40
0.500069938196602
40
0.500069938196602
40
0.501238052265633
40
0.501238052265633
40
0.502406166334665
40
0.502406166334665
40
0.502698194851923
40
0.502698194851923
40
0.502990223369181
40
0.502990223369181
40
0.503574280403697
40
0.503574280403697
40
0.504742394472729
40
0.509414850748855
40
0.546794500957868
40
0.546794500957868
40
0.845831702629968
40
0.845831702629968
40
1
40
1
40
1
40
1
41
1
10
8.4333714450768
20
1.59356702179056
30
0
41
1
10
8.43323790565
20
1.58506889325935
30
0
41
1
10
8.43292947138895
20
1.57656975652429
30
0
41
1
10
8.43058479176489
20
1.53495116731406
30
0
41
1
10
8.42635500049843
20
1.5016836446388
30
0
41
1
10
8.41461300707016
20
1.43412454295691
30
0
41
1
10
8.40709392406268
20
1.3998374689952
30
0
41
1
10
8.3897197714094
20
1.32973952669536
30
0
41
1
10
8.37978278773267
20
1.29395878328299
30
0
41
1
10
8.35630439886469
20
1.22134307975401
30
0
41
1
10
8.34340424375495
20
1.18459100197066
30
0
41
1
10
8.31434676989772
20
1.11069417685891
30
0
41
1
10
8.29757234584469
20
1.073822447862
30
0
41
1
10
8.27677885759633
20
1.03230883108694
30
0
41
1
10
8.27327399252749
20
1.0253910216492
30
0
41
1
10
8.26911850035992
20
1.01732095712859
30
0
41
1
10
8.2673237006841
20
1.01386264011955
30
0
41
1
10
8.26612409800825
20
1.01155711861381
30
0
41
1
10
8.26528259258885
20
1.0104377360062
30
0
41
1
10
8.26550080365979
20
1.00626646770485
30
0
41
1
10
8.26789024389012
20
1.00390612313689
30
0
41
1
10
8.2718078344738
20
0.999586310679177
30
0
41
1
10
8.27389728855974
20
0.99756737679806
30
0
41
1
10
8.28027522440726
20
0.991628807457971
30
0
41
1
10
8.28469097703288
20
0.987841523741366
30
0
41
1
10
8.30692218829506
20
0.969164465611499
30
0
41
1
10
8.32527791729777
20
0.955008048165695
30
0
41
1
10
8.38047564083877
20
0.912722051903614
30
0
41
1
10
8.41769364410581
20
0.885163047566692
30
0
41
1
10
8.52960588758839
20
0.802924924679019
30
0
41
1
10
8.60470023284927
20
0.748861538004888
30
0
41
1
10
8.83010235944988
20
0.587018738706263
30
0
41
1
10
8.98049869101854
20
0.479560184263931
30
0
41
1
10
9.43121462194122
20
0.157296169258871
30
0
41
1
10
9.73122115609399
20
-0.057146729900154
30
0
41
1
10
10.1818226000681
20
-0.376129405862912
30
0
41
1
10
10.3325064129869
20
-0.481640659516472
30
0
41
1
10
10.5187993461736
20
-0.615380762897018
30
0
41
1
10
10.5559770762109
20
-0.642206686942103
30
0
41
1
10
10.6109659303646
20
-0.683113725672825
30
0
41
1
10
10.6293644218612
20
-0.696684683997489
30
0
41
1
10
10.6488868149218
20
-0.713000333643095
30
0
41
1
10
10.651037882355
20
-0.714837037233451
30
0
41
1
10
10.6551724740491
20
-0.718603219502683
30
0
41
1
10
10.657465398655
20
-0.720495956340926
30
0
41
1
10
10.658924527557
20
-0.7232444553797
30
0
41
1
10
10.6590423847438
20
-0.723911686942671
30
0
41
1
10
10.6580446746677
20
-0.72443298752259
30
0
41
1
10
10.6573079374336
20
-0.724372499114651
30
0
41
1
10
10.6552501371796
20
-0.724152017095122
30
0
41
1
10
10.6538439509706
20
-0.723841796844624
30
0
41
1
10
10.6496644648904
20
-0.723058537040004
30
0
41
1
10
10.635733259399
20
-0.720446037809921
30
0
41
1
10
10.532657891087
20
-0.701053152185722
30
0
41
1
10
10.4324767665893
20
-0.681761094873849
30
0
41
1
10
9.63183049188805
20
-0.52441618419661
30
0
41
1
10
8.92605886365189
20
-0.363163582249882
30
0
41
1
10
7.86538066976681
20
-0.0865083784874798
30
0
41
1
10
7.50608342876117
20
0.0132625920299461
30
0
41
1
10
7.14835643106699
20
0.118495502868342
30
0
0
SPLINE
5
E2
100
AcDbEntity
8
1
62
256
6
ByLayer
370
13
48
1
60
0
100
AcDbSpline
70
4
71
3
72
14
73
10
40
0
40
0
40
0
40
0
40
0.25
40
0.25
40
0.5
40
0.5
40
0.75
40
0.75
40
1
40
1
40
1
40
1
41
1
10
14.7493055548853
20
-1.32687885280657
30
0
41
1
10
14.7417908186542
20
-1.32795116758342
30
0
41
1
10
14.7353106445389
20
-1.32917579455622
30
0
41
1
10
14.7239392463265
20
-1.33183344731006
30
0
41
1
10
14.7190524893857
20
-1.33327793694653
30
0
41
1
10
14.7110874895738
20
-1.33619982871744
30
0
41
1
10
14.7079354679464
20
-1.33769325547738
30
0
41
1
10
14.7031370437736
20
-1.34072497194208
30
0
41
1
10
14.7015132912053
20
-1.34225861413052
30
0
41
1
10
14.700671914653
20
-1.34376669168469
30
0
0
SPLINE
5
E3
100
AcDbEntity
8
1
62
256
6
ByLayer
370
13
48
1
60
0
100
AcDbSpline
70
4
71
3
72
12
73
8
40
0
40
0
40
0
40
0
40
0.499999999999846
40
0.499999999999846
40
0.749999999999923
40
0.749999999999923
40
1
40
1
40
1
40
1
41
1
10
14.8003813279605
20
-1.33214711447039
30
0
41
1
10
14.7914484227936
20
-1.32931558535628
30
0
41
1
10
14.7827123033056
20
-1.32747504652571
30
0
41
1
10
14.769911034109
20
-1.32613201379962
30
0
41
1
10
14.7656949920469
20
-1.3259236182094
30
0
41
1
10
14.7573740055951
20
-1.32601261809785
30
0
41
1
10
14.753267587305
20
-1.32631349085915
30
0
41
1
10
14.7493055548853
20
-1.32687885280657
30
0
0
SPLINE
5
E4
100
AcDbEntity
8
1
62
256
6
ByLayer
370
13
48
1
60
0
100
AcDbSpline
70
4
71
3
72
24
73
20
40
0
40
0
40
0
40
0
40
0.124999999999973
40
0.124999999999973
40
0.249999999999946
40
0.249999999999946
40
0.374999999999918
40
0.374999999999918
40
0.499999999999891
40
0.499999999999891
40
0.624999999999864
40
0.624999999999864
40
0.749999999999837
40
0.749999999999837
40
0.812499999999877
40
0.812499999999877
40
0.874999999999918
40
0.874999999999918
40
1
40
1
40
1
40
1
41
1
10
14.7007510553105
20
0.549909940883737
30
0
41
1
10
14.7014084906624
20
0.552582328571646
30
0
41
1
10
14.702484771769
20
0.555217762122396
30
0
41
1
10
14.7055083698436
20
0.560414053069081
30
0
41
1
10
14.707468524797
20
0.562982456246658
30
0
41
1
10
14.712225693739
20
0.567914639074871
30
0
41
1
10
14.7150278644474
20
0.570294115696242
30
0
41
1
10
14.7215638696708
20
0.574869748116129
30
0
41
1
10
14.7253326892135
20
0.577083470913777
30
0
41
1
10
14.7338174016204
20
0.581211972420846
30
0
41
1
10
14.7384923173607
20
0.583113765277716
30
0
41
1
10
14.748843211806
20
0.586553185726814
30
0
41
1
10
14.7545839351459
20
0.588100522032931
30
0
41
1
10
14.7637222269674
20
0.589995144676436
30
0
41
1
10
14.7668656928062
20
0.590559649561527
30
0
41
1
10
14.7733644584069
20
0.591544124506839
30
0
41
1
10
14.7767381359857
20
0.591964905642499
30
0
41
1
10
14.7869205070543
20
0.592961686138864
30
0
41
1
10
14.7938623160503
20
0.593290031397345
30
0
41
1
10
14.8009703408693
20
0.593256232242737
30
0
0
SPLINE
5
E5
100
AcDbEntity
8
1
62
256
6
ByLayer
370
18
48
1
60
0
100
AcDbSpline
70
4
71
3
72
19
73
15
40
0
40
0
40
0
40
0
40
0.499999999999998
40
0.749999999999999
40
0.749999999999999
40
0.875000000000034
40
0.875000000000034
40
0.937500000000052
40
0.968750000000062
40
0.984375000000067
40
0.984375000000067
40
0.992187500000034
40
0.992187500000034
40
1
40
1
40
1
40
1
41
1
10
25.3202733202001
20
-1.77493174937573
30
0
41
1
10
25.3309219059751
20
-1.75762429954739
30
0
41
1
10
25.3469101362792
20
-1.7314964848384
30
0
41
1
10
25.3629209349177
20
-1.70512364474743
30
0
41
1
10
25.3709298945851
20
-1.6918970465629
30
0
41
1
10
25.373599937215
20
-1.68748190549888
30
0
41
1
10
25.3776065644363
20
-1.68084780780083
30
0
41
1
10
25.3796107092277
20
-1.67752700286886
30
0
41
1
10
25.3819537283391
20
-1.6736392733286
30
0
41
1
10
25.382959252962
20
-1.67196955053885
30
0
41
1
10
25.3834622707239
20
-1.67113404398506
30
0
41
1
10
25.3836327655268
20
-1.6708498964411
30
0
41
1
10
25.3839465672624
20
-1.67033576291652
30
0
41
1
10
25.3840881383489
20
-1.67011060514113
30
0
41
1
10
25.3841525650798
20
-1.67002325461183
30
0
0
SPLINE
5
E6
100
AcDbEntity
8
1
62
256
6
ByLayer
370
18
48
1
60
0
100
AcDbSpline
70
4
71
3
72
62
73
58
40
0
40
0
40
0
40
0
40
0.0109518840976692
40
0.0109518840976692
40
0.035075008875777
40
0.035075008875777
40
0.0591981336538848
40
0.0591981336538848
40
0.0833212584319926
40
0.0833212584319926
40
0.131567507988208
40
0.131567507988208
40
0.179813757544424
40
0.179813757544424
40
0.22806000710064
40
0.22806000710064
40
0.252183131878747
40
0.252183131878747
40
0.276306256656855
40
0.276306256656855
40
0.324552506213071
40
0.324552506213071
40
0.372798755769286
40
0.372798755769286
40
0.421045005325502
40
0.421045005325502
40
0.469291254881718
40
0.469291254881718
40
0.493414379659824
40
0.493414379659824
40
0.505475942048876
40
0.505475942048876
40
0.517537504437929
40
0.517537504437929
40
0.565783753994135
40
0.565783753994135
40
0.614030003550342
40
0.614030003550342
40
0.662276253106549
40
0.662276253106549
40
0.710522502662755
40
0.710522502662755
40
0.758768752218962
40
0.758768752218962
40
0.782891876997066
40
0.782891876997066
40
0.807015001775171
40
0.807015001775171
40
0.85526125133138
40
0.85526125133138
40
0.879384376109483
40
0.879384376109483
40
0.903507500887586
40
0.903507500887586
40
0.951753750443793
40
0.951753750443793
40
1
40
1
40
1
40
1
41
1
10
21.6235627132467
20
-0.486868032037535
30
0
41
1
10
21.598123276463
20
-0.472696370526563
30
0
41
1
10
21.572677277118
20
-0.458464249815989
30
0
41
1
10
21.4911931185473
20
-0.412703914886947
30
0
41
1
10
21.4351717990234
20
-0.380950588277585
30
0
41
1
10
21.3231303206266
20
-0.317036737304932
30
0
41
1
10
21.2671286896674
20
-0.284891689700686
30
0
41
1
10
21.1551073654366
20
-0.220316296358646
30
0
41
1
10
21.0990545160776
20
-0.187864828100572
30
0
41
1
10
20.9311229390752
20
-0.09039585112032
30
0
41
1
10
20.8194147313103
20
-0.0252998884713236
30
0
41
1
10
20.596335981021
20
0.10488151550922
30
0
41
1
10
20.4849160624139
20
0.169884888112932
30
0
41
1
10
20.2617963811812
20
0.298812634847792
30
0
41
1
10
20.1500980028056
20
0.362732525999689
30
0
41
1
10
19.9820974891465
20
0.45738869347926
30
0
41
1
10
19.9260915311615
20
0.488731107977515
30
0
41
1
10
19.8144509749575
20
0.550672685575194
30
0
41
1
10
19.7587511248201
20
0.581293167112563
30
0
41
1
10
19.5919213341444
20
0.67193134345942
30
0
41
1
10
19.4810648348965
20
0.730737268294121
30
0
41
1
10
19.259640177358
20
0.844525115482696
30
0
41
1
10
19.1491105717846
20
0.899605315089076
30
0
41
1
10
18.9281913292803
20
1.00568368504312
30
0
41
1
10
18.8177446511648
20
1.05657436697769
30
0
41
1
10
18.5964275631535
20
1.15339775013302
30
0
41
1
10
18.4855251775381
20
1.19928835141843
30
0
41
1
10
18.3187163669605
20
1.26433338668906
30
0
41
1
10
18.2630344540865
20
1.28537754283471
30
0
41
1
10
18.1793295260489
20
1.31589315419771
30
0
41
1
10
18.1513977514091
20
1.3258900741387
30
0
41
1
10
18.095467104444
20
1.34552373441775
30
0
41
1
10
18.0674452396019
20
1.35516814664797
30
0
41
1
10
17.9274900372436
20
1.40235065186869
30
0
41
1
10
17.8160266142666
20
1.43673371062283
30
0
41
1
10
17.5937591955017
20
1.49876799255742
30
0
41
1
10
17.4830268883955
20
1.5265329130786
30
0
41
1
10
17.2618719637492
20
1.57494480029331
30
0
41
1
10
17.1514543223606
20
1.59556644369962
30
0
41
1
10
16.9304963069271
20
1.6294106336631
30
0
41
1
10
16.8199769245373
20
1.64271849159414
30
0
41
1
10
16.5986175822371
20
1.66216231602809
30
0
41
1
10
16.4877172800072
20
1.66821711646457
30
0
41
1
10
16.3207060497872
20
1.67168173698215
30
0
41
1
10
16.2649249426273
20
1.67190161327369
30
0
41
1
10
16.1530971151894
20
1.67046871863786
30
0
41
1
10
16.0970187009042
20
1.66881766540706
30
0
41
1
10
15.9289428612535
20
1.66101186825958
30
0
41
1
10
15.8169929876583
20
1.65200056412991
30
0
41
1
10
15.648974624932
20
1.63278225592333
30
0
41
1
10
15.5929746861038
20
1.62542630581473
30
0
41
1
10
15.4811464872404
20
1.60884996547392
30
0
41
1
10
15.425284109556
20
1.59962364695235
30
0
41
1
10
15.2578230032838
20
1.56918060996907
30
0
41
1
10
15.1464036755582
20
1.54520061627179
30
0
41
1
10
14.9234130575585
20
1.49036299001998
30
0
41
1
10
14.8118443328301
20
1.45948731288291
30
0
41
1
10
14.6999853142022
20
1.42528925283207
30
0
0
SPLINE
5
E7
100
AcDbEntity
8
1
62
256
6
ByLayer
370
13
48
1
60
0
100
AcDbSpline
70
4
71
3
72
10
73
6
40
0
40
0
40
0
40
0
40
0.5
40
0.5
40
1
40
1
40
1
40
1
41
1
10
14.8459191345893
20
0.581728179055233
30
0
41
1
10
14.839093454731
20
0.585473182950182
30
0
41
1
10
14.8318973533289
20
0.5882993586346
30
0
41
1
10
14.8167881895888
20
0.592184253441275
30
0
41
1
10
14.8088895565799
20
0.593211463416708
30
0
41
1
10
14.8009703408693
20
0.593256232242737
30
0
0
SPLINE
5
E8
100
AcDbEntity
8
1
62
256
6
ByLayer
370
13
48
1
60
0
100
AcDbSpline
70
4
71
3
72
34
73
30
40
0
40
0
40
0
40
0
40
0.0625
40
0.0625
40
0.125
40
0.125
40
0.25
40
0.25
40
0.3125
40
0.34375
40
0.34375
40
0.375
40
0.375
40
0.4375
40
0.4375
40
0.5
40
0.5
40
0.625
40
0.625
40
0.6875
40
0.71875
40
0.71875
40
0.75
40
0.75
40
0.875
40
0.875
40
0.9375
40
0.9375
40
1
40
1
40
1
40
1
41
1
10
14.8009703408693
20
0.593256232242737
30
0
41
1
10
14.8009599091097
20
0.551082067250405
30
0
41
1
10
14.8009490396929
20
0.508358846307402
30
0
41
1
10
14.8009266614999
20
0.421819235211132
30
0
41
1
10
14.8009151186925
20
0.377876188020679
30
0
41
1
10
14.8008802037853
20
0.245904297593512
30
0
41
1
10
14.8008564964456
20
0.157424517078908
30
0
41
1
10
14.8008209316211
20
0.0239757652746277
30
0
41
1
10
14.8008031375653
20
-0.0429317745437743
30
0
41
1
10
14.8007853531382
20
-0.110118644014676
30
0
41
1
10
14.800773495522
20
-0.154973059165712
30
0
41
1
10
14.8007675591626
20
-0.177459072044854
30
0
41
1
10
14.8007498490651
20
-0.244600491823491
30
0
41
1
10
14.8007381464941
20
-0.289050727376207
30
0
41
1
10
14.8007148608007
20
-0.377331254779904
30
0
41
1
10
14.8007032503575
20
-0.421262937544356
30
0
41
1
10
14.8006688067168
20
-0.550536298930126
30
0
41
1
10
14.8006462613166
20
-0.633824491770326
30
0
41
1
10
14.8006118079398
20
-0.754513854156841
30
0
41
1
10
14.8005944155068
20
-0.813792630985461
30
0
41
1
10
14.8005764632768
20
-0.871443867178385
30
0
41
1
10
14.800564329735
20
-0.909509727738509
30
0
41
1
10
14.8005581763559
20
-0.928368536608872
30
0
41
1
10
14.8005271778073
20
-1.02088289015808
30
0
41
1
10
14.8005014317138
20
-1.08992817862676
30
0
41
1
10
14.8004594643596
20
-1.18626985221965
30
0
41
1
10
14.8004449149449
20
-1.21717338688069
30
0
41
1
10
14.800414332648
20
-1.2765258756107
30
0
41
1
10
14.8003982769437
20
-1.3050118634352
30
0
41
1
10
14.8003813279604
20
-1.33214711447039
30
0
0
SPLINE
5
E9
100
AcDbEntity
8
1
62
256
6
ByLayer
370
18
48
1
60
0
100
AcDbSpline
70
4
71
3
72
18
73
14
40
0
40
0
40
0
40
0
40
0.358487141188552
40
0.358487141188552
40
0.537730711782823
40
0.537730711782823
40
0.716974282377096
40
0.716974282377096
40
0.806596067674232
40
0.806596067674232
40
0.896217852971368
40
0.896217852971368
40
1
40
1
40
1
40
1
41
1
10
14.8003813279604
20
-1.33214711447036
30
0
41
1
10
15.0221906948591
20
-1.41018870820631
30
0
41
1
10
15.2423352498097
20
-1.47555107917154
30
0
41
1
10
15.5722708634882
20
-1.55334691425745
30
0
41
1
10
15.6822224494792
20
-1.57593923800925
30
0
41
1
10
15.9025928219283
20
-1.61426405743666
30
0
41
1
10
16.0130208622594
20
-1.62989911981401
30
0
41
1
10
16.1792040442691
20
-1.64782827786448
30
0
41
1
10
16.2347636639616
20
-1.65289381696607
30
0
41
1
10
16.3455481822388
20
-1.66114089606646
30
0
41
1
10
16.4008102623415
20
-1.66432910836139
30
0
41
1
10
16.5198378151307
20
-1.66921880365902
30
0
41
1
10
16.5835686385151
20
-1.67061221970752
30
0
41
1
10
16.6472010209465
20
-1.67077938136535
30
0
0
SPLINE
5
EA
100
AcDbEntity
8
1
62
256
6
ByLayer
370
18
48
1
60
0
100
AcDbSpline
70
4
71
3
72
11
73
7
40
0
40
0
40
0
40
0
40
0.194198445358872
40
0.597099222679436
40
0.597099222679436
40
1
40
1
40
1
40
1
41
1
10
25.1556088691206
20
1.66110595101341
30
0
41
1
10
25.1689186040366
20
1.66246649798458
30
0
41
1
10
25.209838761748
20
1.66648232896543
30
0
41
1
10
25.2507526012207
20
1.66998225089733
30
0
41
1
10
25.3059670886549
20
1.67423315181105
30
0
41
1
10
25.3335624477603
20
1.67610222237897
30
0
41
1
10
25.3611869794868
20
1.67777571313795
30
0
0
SPLINE
5
EB
100
AcDbEntity
8
1
62
256
6
ByLayer
370
18
48
1
60
0
100
AcDbSpline
70
4
71
3
72
14
73
10
40
0
40
0
40
0
40
0
40
0.25
40
0.25
40
0.5
40
0.5
40
0.75
40
0.75
40
1
40
1
40
1
40
1
41
1
10
25.3559529786458
20
-1.68853662810531
30
0
41
1
10
25.3566493180303
20
-1.68741763413917
30
0
41
1
10
25.3573659501217
20
-1.68621876547897
30
0
41
1
10
25.3587532204095
20
-1.68376933516399
30
0
41
1
10
25.3594175507097
20
-1.68252553358892
30
0
41
1
10
25.3604668222671
20
-1.68037621239665
30
0
41
1
10
25.3608446578027
20
-1.67948270732307
30
0
41
1
10
25.3612407629011
20
-1.67826646837639
30
0
41
1
10
25.361273838037
20
-1.67791780343202
30
0
41
1
10
25.3611869794868
20
-1.67777571313795
30
0
0
SPLINE
5
EC
100
AcDbEntity
8
1
62
256
6
ByLayer
370
18
48
1
60
0
100
AcDbSpline
70
4
71
3
72
10
73
6
40
0
40
0
40
0
40
0
40
0.212243052642591
40
0.212243052642591
40
1
40
1
40
1
40
1
41
1
10
16.4043091538357
20
1.66420439324244
30
0
41
1
10
16.421539102689
20
1.66509129407851
30
0
41
1
10
16.438758019376
20
1.66588801606616
30
0
41
1
10
16.5198378375339
20
1.66921880457932
30
0
41
1
10
16.5835686832231
20
1.67061222068503
30
0
41
1
10
16.647201087905
20
1.67077938154122
30
0
0
SPLINE
5
ED
100
AcDbEntity
8
1
62
256
6
ByLayer
370
18
48
1
60
0
100
AcDbSpline
70
4
71
3
72
46
73
42
40
0
40
0
40
0
40
0
40
0.026746405593554
40
0.026746405593554
40
0.0627928350160168
40
0.0627928350160168
40
0.134885693860942
40
0.134885693860942
40
0.206978552705868
40
0.206978552705868
40
0.243024982128331
40
0.243024982128331
40
0.279071411550794
40
0.279071411550794
40
0.351164270395716
40
0.351164270395716
40
0.423257129240638
40
0.423257129240638
40
0.459303558663097
40
0.459303558663097
40
0.477326773374328
40
0.477326773374328
40
0.49534998808556
40
0.49534998808556
40
0.567442846930481
40
0.567442846930481
40
0.711628564620326
40
0.711628564620326
40
0.783721423465248
40
0.783721423465248
40
0.819767852887707
40
0.819767852887707
40
0.855814282310166
40
0.855814282310166
40
0.891860711732625
40
0.891860711732625
40
0.927907141155085
40
0.963953570577544
40
0.981976785288772
40
0.981976785288772
40
1
40
1
40
1
40
1
41
1
10
20.7883403458865
20
0.210977934092682
30
0
41
1
10
20.8293718238093
20
0.187144138419257
30
0
41
1
10
20.8704236994764
20
0.163229552005504
30
0
41
1
10
20.9668718487912
20
0.106932757487272
30
0
41
1
10
21.0223499008787
20
0.0744637787447004
30
0
41
1
10
21.1882728422962
20
-0.0227405125996256
30
0
41
1
10
21.2983835985244
20
-0.087374974034617
30
0
41
1
10
21.5179707601382
20
-0.215701508094782
30
0
41
1
10
21.6274417063966
20
-0.279393864419291
30
0
41
1
10
21.7914509481192
20
-0.37370342277373
30
0
41
1
10
21.8460965731486
20
-0.404929110234605
30
0
41
1
10
21.9554159916409
20
-0.466861981215288
30
0
41
1
10
22.0100807009035
20
-0.497576192861942
30
0
41
1
10
22.1740908265641
20
-0.588903506624376
30
0
41
1
10
22.2834676883055
20
-0.64869319223817
30
0
41
1
10
22.5026647080196
20
-0.765525983257618
30
0
41
1
10
22.6124844952655
20
-0.822567004764778
30
0
41
1
10
22.7778479346481
20
-0.905550897830437
30
0
41
1
10
22.8330750352788
20
-0.932782409776308
30
0
41
1
10
22.9161153431559
20
-0.972918717858079
30
0
41
1
10
22.9438311803633
20
-0.986179812938843
30
0
41
1
10
22.99915628293
20
-1.0123691407222
30
0
41
1
10
23.0267881270847
20
-1.02530818754752
30
0
41
1
10
23.1648088191176
20
-1.08920804649023
30
0
41
1
10
23.2747788308743
20
-1.13778716458319
30
0
41
1
10
23.6037348068541
20
-1.27543069120153
30
0
41
1
10
23.8217942306889
20
-1.35642457864228
30
0
41
1
10
24.1492973638728
20
-1.45960721844165
30
0
41
1
10
24.2585892003108
20
-1.49093242543518
30
0
41
1
10
24.4229604904947
20
-1.53298271807327
30
0
41
1
10
24.4778187435393
20
-1.54618299550344
30
0
41
1
10
24.5877595569921
20
-1.57095691915714
30
0
41
1
10
24.6428377146538
20
-1.58252460272817
30
0
41
1
10
24.7531967356088
20
-1.60391101519778
30
0
41
1
10
24.8085187129978
20
-1.61373887885929
30
0
41
1
10
24.9192460850943
20
-1.63157654899842
30
0
41
1
10
25.0298521173307
20
-1.64756584770245
30
0
41
1
10
25.1679311013731
20
-1.66289739189887
30
0
41
1
10
25.2507526012207
20
-1.66998225089733
30
0
41
1
10
25.3059670886549
20
-1.67423315181105
30
0
41
1
10
25.3335624477602
20
-1.67610222237897
30
0
41
1
10
25.3611869794867
20
-1.67777571313795
30
0
0
SPLINE
5
EE
100
AcDbEntity
8
1
62
256
6
ByLayer
370
18
48
1
60
0
100
AcDbSpline
70
4
71
3
72
8
73
4
40
0
40
0
40
0
40
0
40
1
40
1
40
1
40
1
41
1
10
25.3611869794868
20
-1.67777571313795
30
0
41
1
10
25.3609362282776
20
-1.67736551387776
30
0
41
1
10
25.3606855588634
20
-1.67694058645
30
0
41
1
10
25.3604349671561
20
-1.67650094565573
30
0
0
SPLINE
5
EF
100
AcDbEntity
8
1
62
256
6
ByLayer
370
18
48
1
60
0
100
AcDbSpline
70
4
71
3
72
28
73
24
40
0
40
0
40
0
40
0
40
0.125
40
0.125
40
0.249999999999999
40
0.249999999999999
40
0.374999999999999
40
0.374999999999999
40
0.499999999999999
40
0.499999999999999
40
0.531249999999998
40
0.531249999999998
40
0.562499999999998
40
0.624999999999998
40
0.624999999999998
40
0.749999999999998
40
0.749999999999998
40
0.781249999999998
40
0.781249999999998
40
0.812499999999998
40
0.874999999999999
40
0.874999999999999
40
1
40
1
40
1
40
1
41
1
10
25.3318839748955
20
-0.271628150601657
30
0
41
1
10
25.3232662249929
20
-0.362380444158475
30
0
41
1
10
25.3169268704546
20
-0.450868271883507
30
0
41
1
10
25.3073128566006
20
-0.623381645785884
30
0
41
1
10
25.3040427505893
20
-0.707408019927556
30
0
41
1
10
25.2996173005173
20
-0.870733147300768
30
0
41
1
10
25.2985148185329
20
-0.947777706570122
30
0
41
1
10
25.2977946021378
20
-1.09291622507217
30
0
41
1
10
25.2981784428679
20
-1.1610250340367
30
0
41
1
10
25.2995167670715
20
-1.24036700233213
30
0
41
1
10
25.2998283370104
20
-1.25590007037388
30
0
41
1
10
25.3005368416835
20
-1.28611470299026
30
0
41
1
10
25.3017296310815
20
-1.33024598092771
30
0
41
1
10
25.3033225968944
20
-1.37086215547481
30
0
41
1
10
25.3071201851587
20
-1.44746966758305
30
0
41
1
10
25.3104471385191
20
-1.49240597350573
30
0
41
1
10
25.3161456115808
20
-1.54064962653464
30
0
41
1
10
25.317365649497
20
-1.54990659451056
30
0
41
1
10
25.3199580224906
20
-1.5674524935875
30
0
41
1
10
25.3240823755584
20
-1.59238466166261
30
0
41
1
10
25.3289806189994
20
-1.61322864130318
30
0
41
1
10
25.3400235497211
20
-1.6495573569571
30
0
41
1
10
25.3490329290106
20
-1.66665673368436
30
0
41
1
10
25.3604349671561
20
-1.67650094565573
30
0
0
SPLINE
5
F0
100
AcDbEntity
8
1
62
256
6
ByLayer
370
18
48
1
60
0
100
AcDbSpline
70
4
71
3
72
8
73
4
40
0
40
0
40
0
40
0
40
1
40
1
40
1
40
1
41
1
10
25.30887052561
20
-1.76383409562763
30
0
41
1
10
25.3245350688723
20
-1.73890617313106
30
0
41
1
10
25.3402276680806
20
-1.7138066731855
30
0
41
1
10
25.3559529786458
20
-1.68853662810528
30
0
0
SPLINE
5
F1
100
AcDbEntity
8
1
62
256
6
ByLayer
370
18
48
1
60
0
100
AcDbSpline
70
4
71
3
72
40
73
36
40
0
40
0
40
0
40
0
40
0.0389271704033521
40
0.0389271704033521
40
0.0778543408067039
40
0.116781511210056
40
0.116781511210056
40
0.155708681613408
40
0.155708681613408
40
0.19463585201676
40
0.19463585201676
40
0.233563022420112
40
0.233563022420112
40
0.311417363226816
40
0.311417363226816
40
0.467126044840228
40
0.467126044840228
40
0.544980385646936
40
0.564443970848611
40
0.564443970848611
40
0.583907556050286
40
0.583907556050286
40
0.622834726453637
40
0.622834726453637
40
0.700689067260337
40
0.700689067260337
40
0.778543408067038
40
0.778543408067038
40
0.817470578470386
40
0.817470578470386
40
0.856397748873735
40
0.856397748873735
40
0.934252089680432
40
0.934252089680432
40
1
40
1
40
1
40
1
41
1
10
25.3559529786458
20
-1.68853662810531
30
0
41
1
10
25.3007338741795
20
-1.68532916810491
30
0
41
1
10
25.245523815113
20
-1.68125813373643
30
0
41
1
10
25.1350820443396
20
-1.67113392280356
30
0
41
1
10
25.0246160746314
20
-1.65911830480064
30
0
41
1
10
24.9140044158748
20
-1.6433541389269
30
0
41
1
10
24.8032697693201
20
-1.62572924078154
30
0
41
1
10
24.7479448039362
20
-1.61600160580309
30
0
41
1
10
24.6375817791644
20
-1.59480332310457
30
0
41
1
10
24.5825029752974
20
-1.58332337968224
30
0
41
1
10
24.4725664566871
20
-1.55870835261325
30
0
41
1
10
24.4177121185409
20
-1.54557973150091
30
0
41
1
10
24.2533507601787
20
-1.50372572649789
30
0
41
1
10
24.1440685674257
20
-1.47250244245293
30
0
41
1
10
23.8165917139427
20
-1.36954222150612
30
0
41
1
10
23.5985471295089
20
-1.28858787994449
30
0
41
1
10
23.2696019600404
20
-1.15083417381268
30
0
41
1
10
23.1321424933372
20
-1.09002780803786
30
0
41
1
10
22.9939800647746
20
-1.02520045231716
30
0
41
1
10
22.9386533839417
20
-0.998953826366488
30
0
41
1
10
22.9109362518467
20
-0.985661940456453
30
0
41
1
10
22.8278933147925
20
-0.945428602238167
30
0
41
1
10
22.7726655911043
20
-0.91812594439827
30
0
41
1
10
22.6073022530742
20
-0.834910474219129
30
0
41
1
10
22.4974853353237
20
-0.777690539867962
30
0
41
1
10
22.278297991377
20
-0.660451370390803
30
0
41
1
10
22.1689274876991
20
-0.600434947527958
30
0
41
1
10
22.0049264419511
20
-0.508734109925285
30
0
41
1
10
21.9502648716533
20
-0.477889485517068
30
0
41
1
10
21.8409570251078
20
-0.415675278702565
30
0
41
1
10
21.7863194623244
20
-0.384299383444585
30
0
41
1
10
21.6223264821164
20
-0.289533029507368
30
0
41
1
10
21.5128598706813
20
-0.225520366308928
30
0
41
1
10
21.3103509011585
20
-0.106533201954107
30
0
41
1
10
21.2174041741392
20
-0.0517031276581861
30
0
41
1
10
21.1241162511093
20
0.0032980883734979
30
0
0
SPLINE
5
F2
100
AcDbEntity
8
1
62
256
6
ByLayer
370
18
48
1
60
0
100
AcDbSpline
70
4
71
3
72
30
73
26
40
0
40
0
40
0
40
0
40
0.0624999999999663
40
0.0624999999999663
40
0.124999999999933
40
0.124999999999933
40
0.249999999999865
40
0.249999999999865
40
0.312499999999862
40
0.312499999999862
40
0.374999999999859
40
0.374999999999859
40
0.499999999999852
40
0.499999999999852
40
0.562499999999897
40
0.562499999999897
40
0.624999999999941
40
0.624999999999941
40
0.750000000000031
40
0.750000000000031
40
0.812500000000023
40
0.812500000000023
40
0.875000000000015
40
0.875000000000015
40
1
40
1
40
1
40
1
41
1
10
14.700922948236
20
0.552279426321377
30
0
41
1
10
14.7014858372918
20
0.556157307498836
30
0
41
1
10
14.7022989970451
20
0.559990453088233
30
0
41
1
10
14.7044319637382
20
0.567566852373204
30
0
41
1
10
14.7057641712567
20
0.57133503676306
30
0
41
1
10
14.7104457522679
20
0.582242049873201
30
0
41
1
10
14.7144640053374
20
0.589028101122096
30
0
41
1
10
14.7218418810656
20
0.598485929164326
30
0
41
1
10
14.7245319090953
20
0.601513199486476
30
0
41
1
10
14.7302198778721
20
0.607156515378193
30
0
41
1
10
14.7332346301171
20
0.609795818981638
30
0
41
1
10
14.7427869078468
20
0.617174013950716
30
0
41
1
10
14.7499231481883
20
0.621405521101735
30
0
41
1
10
14.7611232169432
20
0.626340675966816
30
0
41
1
10
14.7649536654336
20
0.627764772026552
30
0
41
1
10
14.7728096780236
20
0.630170240276783
30
0
41
1
10
14.7768626248411
20
0.631156038338503
30
0
41
1
10
14.7891169613171
20
0.633381112189056
30
0
41
1
10
14.7973419690186
20
0.633901967367279
30
0
41
1
10
14.8097617923158
20
0.633255879478213
30
0
41
1
10
14.813934397252
20
0.632793741539388
30
0
41
1
10
14.8220849057837
20
0.631405453274596
30
0
41
1
10
14.8260880018055
20
0.630480164058383
30
0
41
1
10
14.8378840650479
20
0.627019903476167
30
0
41
1
10
14.8455285603648
20
0.623766853595612
30
0
41
1
10
14.8526372181775
20
0.619652050639246
30
0
0
SPLINE
5
F3
100
AcDbEntity
8
1
62
256
6
ByLayer
370
18
48
1
60
0
100
AcDbSpline
70
4
71
3
72
110
73
106
40
0
40
0
40
0
40
0
40
0.0204807406457682
40
0.0204807406457682
40
0.0458911193153108
40
0.0458911193153108
40
0.0713014979848535
40
0.0713014979848535
40
0.0840066873196255
40
0.0840066873196255
40
0.0967118766543975
40
0.0967118766543975
40
0.12212225532394
40
0.12212225532394
40
0.147532633993483
40
0.147532633993483
40
0.172943012663026
40
0.172943012663026
40
0.185648201997797
40
0.185648201997797
40
0.198353391332568
40
0.198353391332568
40
0.22376377000211
40
0.22376377000211
40
0.249174148671651
40
0.249174148671651
40
0.261879338006421
40
0.261879338006421
40
0.274584527341191
40
0.274584527341191
40
0.299994906010731
40
0.299994906010731
40
0.325405284680271
40
0.325405284680271
40
0.350815663349811
40
0.350815663349811
40
0.376226042019351
40
0.376226042019351
40
0.388931231354121
40
0.388931231354121
40
0.401636420688892
40
0.401636420688892
40
0.414341610023663
40
0.414341610023663
40
0.427046799358433
40
0.427046799358433
40
0.452457178027975
40
0.452457178027975
40
0.465162367362746
40
0.465162367362746
40
0.477867556697516
40
0.477867556697516
40
0.503277935367056
40
0.503277935367056
40
0.528688314036596
40
0.528688314036596
40
0.554098692706136
40
0.554098692706136
40
0.579509071375677
40
0.579509071375677
40
0.592214260710446
40
0.592214260710446
40
0.604919450045216
40
0.604919450045216
40
0.630329828714755
40
0.630329828714755
40
0.655740207384294
40
0.655740207384294
40
0.668445396719063
40
0.668445396719063
40
0.681150586053832
40
0.681150586053832
40
0.70656096472337
40
0.70656096472337
40
0.731971343392907
40
0.731971343392907
40
0.744676532727676
40
0.744676532727676
40
0.757381722062445
40
0.757381722062445
40
0.782792100731985
40
0.782792100731985
40
0.808202479401525
40
0.808202479401525
40
0.833612858071065
40
0.833612858071065
40
0.859023236740605
40
0.859023236740605
40
0.884433615410145
40
0.884433615410145
40
0.897138804744915
40
0.897138804744915
40
0.909843994079685
40
0.909843994079685
40
0.922549183414455
40
0.922549183414455
40
0.935254372749225
40
0.935254372749225
40
0.947959562083995
40
0.947959562083995
40
0.960664751418765
40
0.960664751418765
40
0.986075130088304
40
0.986075130088304
40
1
40
1
40
1
40
1
41
1
10
23.0065604352521
20
-1.27010489076568
30
0
41
1
10
22.9307655632967
20
-1.30280939643947
30
0
41
1
10
22.8549552682886
20
-1.33409724521451
30
0
41
1
10
22.6849347000358
20
-1.40092695742067
30
0
41
1
10
22.5906381365229
20
-1.4356369008801
30
0
41
1
10
22.4019658821408
20
-1.50064850471037
30
0
41
1
10
22.3076061279193
20
-1.53094318613105
30
0
41
1
10
22.1654053755679
20
-1.57246812130415
30
0
41
1
10
22.1179101399741
20
-1.58567214296139
30
0
41
1
10
22.0227034170108
20
-1.61077850980425
30
0
41
1
10
21.9749223869228
20
-1.6226963631168
30
0
41
1
10
21.8318713165185
20
-1.65629983780275
30
0
41
1
10
21.7368585878496
20
-1.67587529420143
30
0
41
1
10
21.5477179622058
20
-1.70952606653177
30
0
41
1
10
21.4534390684277
20
-1.72350789676642
30
0
41
1
10
21.2649387250714
20
-1.74568600206237
30
0
41
1
10
21.1707540175681
20
-1.75390363947108
30
0
41
1
10
21.0294481824044
20
-1.76194767457662
30
0
41
1
10
20.9823493342471
20
-1.76391711266416
30
0
41
1
10
20.8882141645568
20
-1.76642673163309
30
0
41
1
10
20.8411762308322
20
-1.76696438703931
30
0
41
1
10
20.6999689108656
20
-1.76639809653045
30
0
41
1
10
20.6056499501942
20
-1.76312001739544
30
0
41
1
10
20.4163932193001
20
-1.75078143219031
30
0
41
1
10
20.3214320007402
20
-1.74173287796916
30
0
41
1
10
20.1785004710931
20
-1.72376626357777
30
0
41
1
10
20.1307281288622
20
-1.71702310997554
30
0
41
1
10
20.0354592247331
20
-1.70210455547414
30
0
41
1
10
19.9879432374876
20
-1.69393453884689
30
0
41
1
10
19.84556419528
20
-1.66740472597033
30
0
41
1
10
19.750900033397
20
-1.64701609192258
30
0
41
1
10
19.5618672664563
20
-1.60109837857141
30
0
41
1
10
19.4674492463752
20
-1.5756125074235
30
0
41
1
10
19.2790864893911
20
-1.51940299534212
30
0
41
1
10
19.1851131041336
20
-1.4886775269577
30
0
41
1
10
18.9967982217714
20
-1.42266099164291
30
0
41
1
10
18.9025211063651
20
-1.38732317414898
30
0
41
1
10
18.7607650864088
20
-1.33099155765848
30
0
41
1
10
18.7134538118713
20
-1.3116636013535
30
0
41
1
10
18.6187585627582
20
-1.27184524346038
30
0
41
1
10
18.5713886867341
20
-1.25133760698594
30
0
41
1
10
18.4765488478455
20
-1.20916533896292
30
0
41
1
10
18.4290680793322
20
-1.18751296122383
30
0
41
1
10
18.3338637183542
20
-1.1432153713387
30
0
41
1
10
18.2860778887512
20
-1.12052676400714
30
0
41
1
10
18.1429657063707
20
-1.05128614173492
30
0
41
1
10
18.0478818435259
20
-1.00358975421551
30
0
41
1
10
17.9056270318787
20
-0.929947437565005
30
0
41
1
10
17.8582816061028
20
-0.905034832336696
30
0
41
1
10
17.7637859178778
20
-0.854407333732041
30
0
41
1
10
17.7166276037951
20
-0.828703235816477
30
0
41
1
10
17.5752326127301
20
-0.750695983592919
30
0
41
1
10
17.4810318935557
20
-0.697565169403219
30
0
41
1
10
17.2925351394153
20
-0.589417062244678
30
0
41
1
10
17.1982042395703
20
-0.534456172090103
30
0
41
1
10
17.0094552972857
20
-0.422636240977425
30
0
41
1
10
16.9151678830885
20
-0.365559903576951
30
0
41
1
10
16.7259110959266
20
-0.250423104654914
30
0
41
1
10
16.6309652357245
20
-0.192330127259453
30
0
41
1
10
16.4879119240819
20
-0.104656977843263
30
0
41
1
10
16.4400467327405
20
-0.0753105783985575
30
0
41
1
10
16.3445014220022
20
-0.0166809316318677
30
0
41
1
10
16.2968382370783
20
0.0126072588144268
30
0
41
1
10
16.154240207284
20
0.100501754464631
30
0
41
1
10
16.0596161443458
20
0.158994651358796
30
0
41
1
10
15.8705156383172
20
0.274564520957512
30
0
41
1
10
15.7761019611883
20
0.331750048849216
30
0
41
1
10
15.6345241639541
20
0.416385964102602
30
0
41
1
10
15.5873399426237
20
0.444409802864925
30
0
41
1
10
15.4930396427886
20
0.500162906620204
30
0
41
1
10
15.4459381756295
20
0.527914943557505
30
0
41
1
10
15.3046534391787
20
0.610590494617725
30
0
41
1
10
15.210400898012
20
0.664793344137792
30
0
41
1
10
15.0213590622057
20
0.770737311830828
30
0
41
1
10
14.9265849535463
20
0.822503989440861
30
0
41
1
10
14.7839634586202
20
0.898215258605603
30
0
41
1
10
14.7363605863082
20
0.923150381963836
30
0
41
1
10
14.6410629156337
20
0.972455724736079
30
0
41
1
10
14.5932899845024
20
0.996841810276322
30
0
41
1
10
14.4501241528216
20
1.06854061254663
30
0
41
1
10
14.3550034672227
20
1.11429376711419
30
0
41
1
10
14.165192342452
20
1.20157862900317
30
0
41
1
10
14.0704568348917
20
1.2430605326951
30
0
41
1
10
13.8814713134489
20
1.32193957759003
30
0
41
1
10
13.7873189631637
20
1.35942478766569
30
0
41
1
10
13.5988043287267
20
1.42952401395945
30
0
41
1
10
13.5044898956317
20
1.4622013566285
30
0
41
1
10
13.3155424127524
20
1.52265543364339
30
0
41
1
10
13.2208777091104
20
1.55041584092828
30
0
41
1
10
13.0788155723609
20
1.58846426628949
30
0
41
1
10
13.0314358657853
20
1.60053308611131
30
0
41
1
10
12.9364914561306
20
1.62333490490966
30
0
41
1
10
12.8889227902596
20
1.6340665100382
30
0
41
1
10
12.7935685230874
20
1.65417111121658
30
0
41
1
10
12.7457241496417
20
1.66355461541465
30
0
41
1
10
12.6500782769065
20
1.68088789041175
30
0
41
1
10
12.6023416752196
20
1.68882700680555
30
0
41
1
10
12.5070184770896
20
1.70326375219864
30
0
41
1
10
12.4594352790999
20
1.70976395596694
30
0
41
1
10
12.3644811794525
20
1.72135562614685
30
0
41
1
10
12.3171213978423
20
1.72644848740899
30
0
41
1
10
12.1752247295105
20
1.7395618407391
30
0
41
1
10
12.0807956487844
20
1.74540038105226
30
0
41
1
10
11.934621054352
20
1.74998734010003
30
0
41
1
10
11.882873692026
20
1.75074990767837
30
0
41
1
10
11.8311220396069
20
1.75065452149326
30
0
0
SPLINE
5
F4
100
AcDbEntity
8
1
62
256
6
ByLayer
370
18
48
1
60
0
100
AcDbSpline
70
4
71
3
72
14
73
10
40
0
40
0
40
0
40
0
40
0.063670416705377
40
0.063670416705377
40
0.375780277803585
40
0.375780277803585
40
0.687890138901792
40
0.687890138901792
40
1
40
1
40
1
40
1
41
1
10
14.0723387537866
20
1.2812479533217
30
0
41
1
10
14.0857585853172
20
1.28688785823874
30
0
41
1
10
14.0991721013338
20
1.29248371946838
30
0
41
1
10
14.1782621372595
20
1.32523073578304
30
0
41
1
10
14.2437595378825
20
1.35134173186961
30
0
41
1
10
14.3744639037199
20
1.40131750639424
30
0
41
1
10
14.4396697183646
20
1.42518253481734
30
0
41
1
10
14.5699355784953
20
1.4705524874251
30
0
41
1
10
14.6349957286656
20
1.49205976426228
30
0
41
1
10
14.6999853141932
20
1.51239753284065
30
0
0
SPLINE
5
F5
100
AcDbEntity
8
1
62
256
6
ByLayer
370
18
48
1
60
0
100
AcDbSpline
70
4
71
3
72
66
73
62
40
0
40
0
40
0
40
0
40
0.0156249999999997
40
0.0156249999999997
40
0.0312499999999993
40
0.0624999999999986
40
0.0624999999999986
40
0.0781249999999983
40
0.0781249999999983
40
0.0937499999999979
40
0.0937499999999979
40
0.124999999999996
40
0.124999999999996
40
0.187499999999992
40
0.187499999999992
40
0.21874999999999
40
0.21874999999999
40
0.234374999999989
40
0.234374999999989
40
0.249999999999989
40
0.249999999999989
40
0.28124999999999
40
0.28124999999999
40
0.29687499999999
40
0.29687499999999
40
0.31249999999999
40
0.31249999999999
40
0.374999999999995
40
0.374999999999995
40
0.437499999999999
40
0.437499999999999
40
0.46875
40
0.46875
40
0.484375000000001
40
0.484375000000001
40
0.500000000000002
40
0.500000000000002
40
0.562500000000002
40
0.562500000000002
40
0.625000000000002
40
0.625000000000002
40
0.656250000000002
40
0.656250000000002
40
0.664062500000003
40
0.664062500000003
40
0.671875000000003
40
0.687500000000003
40
0.687500000000003
40
0.750000000000001
40
0.750000000000001
40
0.8125
40
0.8125
40
0.828125
40
0.828125
40
0.84375
40
0.84375
40
0.875
40
0.875
40
0.9375
40
0.9375
40
1
40
1
40
1
40
1
41
1
10
14.6999853142022
20
1.48392761413837
30
0
41
1
10
14.7558342027569
20
1.50229903228862
30
0
41
1
10
14.8117012161541
20
1.5198351541047
30
0
41
1
10
14.9233035822924
20
1.55312442875225
30
0
41
1
10
15.090562871535
20
1.60040339943126
30
0
41
1
10
15.2576397951208
20
1.63955717821423
30
0
41
1
10
15.4249257344057
20
1.67309050541317
30
0
41
1
10
15.4807232502806
20
1.68333136239815
30
0
41
1
10
15.5924372288206
20
1.7019092290895
30
0
41
1
10
15.6482392750305
20
1.71022674577722
30
0
41
1
10
15.8152632831933
20
1.73222557488339
30
0
41
1
10
15.9262215346797
20
1.74297435449131
30
0
41
1
10
16.2584932106355
20
1.76347134109665
30
0
41
1
10
16.4791924795076
20
1.76146238860585
30
0
41
1
10
16.8115526791155
20
1.7348375019298
30
0
41
1
10
16.9225611474986
20
1.72202839243209
30
0
41
1
10
17.089739115422
20
1.69691606867826
30
0
41
1
10
17.1456020908346
20
1.68755524284771
30
0
41
1
10
17.2571044200334
20
1.66697016326103
30
0
41
1
10
17.3128043769961
20
1.65573844489782
30
0
41
1
10
17.479818970509
20
1.61927781023283
30
0
41
1
10
17.5910453542631
20
1.59128254399118
30
0
41
1
10
17.757992936705
20
1.54394843250483
30
0
41
1
10
17.8136604913811
20
1.52728016364435
30
0
41
1
10
17.9250834574889
20
1.49219580503609
30
0
41
1
10
17.9808750193061
20
1.47376716364715
30
0
41
1
10
18.2597927651501
20
1.377475712668
30
0
41
1
10
18.4806656481184
20
1.28794411526647
30
0
41
1
10
18.9212801852153
20
1.08835986449543
30
0
41
1
10
19.1410069497289
20
0.978299922649228
30
0
41
1
10
19.4719765732057
20
0.800714846663169
30
0
41
1
10
19.5825331299387
20
0.739439608815246
30
0
41
1
10
19.7490383457004
20
0.644816748137401
30
0
41
1
10
19.804652085561
20
0.612824537732024
30
0
41
1
10
19.9161597908198
20
0.548010557730322
30
0
41
1
10
19.9718342928339
20
0.515316288173551
30
0
41
1
10
20.2494672014246
20
0.350922912912353
30
0
41
1
10
20.4697312129113
20
0.216208203687501
30
0
41
1
10
20.9098275033478
20
-0.0542451600641982
30
0
41
1
10
21.1296203693055
20
-0.19004869959528
30
0
41
1
10
21.4610775988785
20
-0.391067483268756
30
0
41
1
10
21.5718662955665
20
-0.457612325950493
30
0
41
1
10
21.7110083728806
20
-0.539758312016147
30
0
41
1
10
21.7388917737422
20
-0.556148436612261
30
0
41
1
10
21.7945657772628
20
-0.588716082894166
30
0
41
1
10
21.8779714954091
20
-0.637269111990548
30
0
41
1
10
21.9610939145826
20
-0.684883506603995
30
0
41
1
10
22.2376788545619
20
-0.841328435204218
30
0
41
1
10
22.4574025460256
20
-0.959192756971191
30
0
41
1
10
22.8969288058902
20
-1.17621361992613
30
0
41
1
10
23.1167270934605
20
-1.27537238533654
30
0
41
1
10
23.3935538875171
20
-1.38492989108192
30
0
41
1
10
23.4490218188339
20
-1.40612317085259
30
0
41
1
10
23.5602128572152
20
-1.44700480150053
30
0
41
1
10
23.6160138145133
20
-1.46671725352147
30
0
41
1
10
23.7827555007076
20
-1.52312025706081
30
0
41
1
10
23.8933276408563
20
-1.55719261211834
30
0
41
1
10
24.223913808979
20
-1.64857803233511
30
0
41
1
10
24.4428199104745
20
-1.69505766957826
30
0
41
1
10
24.8806878696908
20
-1.75793569405644
30
0
41
1
10
25.0996325333771
20
-1.77432099678819
30
0
41
1
10
25.3202733202001
20
-1.77493174937573
30
0
0
SPLINE
5
F6
100
AcDbEntity
8
1
62
256
6
ByLayer
370
18
48
1
60
0
100
AcDbSpline
70
4
71
3
72
10
73
6
40
0
40
0
40
0
40
0
40
0.5
40
0.5
40
1
40
1
40
1
40
1
41
1
10
25.3088705256022
20
-1.76383409564119
30
0
41
1
10
25.3107659449254
20
-1.76747293520452
30
0
41
1
10
25.3126635452711
20
-1.7702187097695
30
0
41
1
10
25.316465596303
20
-1.77392155072408
30
0
41
1
10
25.3183721272483
20
-1.77487734681651
30
0
41
1
10
25.3202733202001
20
-1.77493174937573
30
0
0
SPLINE
5
F7
100
AcDbEntity
8
1
62
256
6
ByLayer
370
18
48
1
60
0
100
AcDbSpline
70
4
71
3
72
61
73
57
40
0
40
0
40
0
40
0
40
0.0760268345622148
40
0.0760268345622148
40
0.15205366912443
40
0.15205366912443
40
0.190067086405537
40
0.190067086405537
40
0.209073795046091
40
0.209073795046091
40
0.228080503686646
40
0.228080503686646
40
0.266093920967757
40
0.266093920967757
40
0.285100629608312
40
0.285100629608312
40
0.304107338248868
40
0.304107338248868
40
0.380134172811086
40
0.380134172811086
40
0.39914088145164
40
0.39914088145164
40
0.418147590092193
40
0.418147590092193
40
0.456161007373301
40
0.456161007373301
40
0.494174424654408
40
0.494174424654408
40
0.513181133294962
40
0.513181133294962
40
0.532187841935516
40
0.532187841935516
40
0.608214676497727
40
0.608214676497727
40
0.646228093778834
40
0.646228093778834
40
0.68424151105994
40
0.68424151105994
40
0.703248219700493
40
0.71275157402077
40
0.71275157402077
40
0.722254928341047
40
0.722254928341047
40
0.760268345622155
40
0.760268345622155
40
0.836295180184373
40
0.836295180184373
40
0.912322014746591
40
0.912322014746591
40
0.931328723387145
40
0.931328723387145
40
0.950335432027699
40
0.950335432027699
40
0.988348849308806
40
0.988348849308806
40
1
40
1
40
1
40
1
41
1
10
25.3088705256084
20
-1.76383409564104
30
0
41
1
10
25.0887849983395
20
-1.74817443787069
30
0
41
1
10
24.8702917893521
20
-1.71699379281108
30
0
41
1
10
24.4334598687706
20
-1.62595764417088
30
0
41
1
10
24.2154975573375
20
-1.56586113369894
30
0
41
1
10
23.8865733105757
20
-1.45526859788166
30
0
41
1
10
23.7765668951046
20
-1.41503217376223
30
0
41
1
10
23.6107026777941
20
-1.34981437839909
30
0
41
1
10
23.5553418872287
20
-1.32729044058002
30
0
41
1
10
23.4448199638108
20
-1.28089420709785
30
0
41
1
10
23.389600749613
20
-1.25699939944647
30
0
41
1
10
23.2239947417274
20
-1.18332005661554
30
0
41
1
10
23.1136628966735
20
-1.13153885890546
30
0
41
1
10
22.948042566096
20
-1.05015555459482
30
0
41
1
10
22.8928141916588
20
-1.02241005677567
30
0
41
1
10
22.7822532353321
20
-0.96575749178993
30
0
41
1
10
22.7268740310587
20
-0.936825500932997
30
0
41
1
10
22.4502672221749
20
-0.789827235482903
30
0
41
1
10
22.2298871354159
20
-0.664773565987559
30
0
41
1
10
21.9535438453049
20
-0.502168627709722
30
0
41
1
10
21.8982366982871
20
-0.469325625885489
30
0
41
1
10
21.7875370614827
20
-0.403001446910849
30
0
41
1
10
21.7322120224872
20
-0.369572454817103
30
0
41
1
10
21.5664377464732
20
-0.268919015450052
30
0
41
1
10
21.4560845120728
20
-0.201235470683145
30
0
41
1
10
21.2353176181631
20
-0.0653344658581432
30
0
41
1
10
21.1249019358971
20
0.0028796394155108
30
0
41
1
10
20.9589629543152
20
0.105163592724438
30
0
41
1
10
20.9035299213306
20
0.139292771664032
30
0
41
1
10
20.7929691777542
20
0.207155774048033
30
0
41
1
10
20.7378164090988
20
0.240905051198354
30
0
41
1
10
20.4625461985048
20
0.408521866336059
30
0
41
1
10
20.2439151082284
20
0.539017738383421
30
0
41
1
10
19.9160996055155
20
0.725989453234035
30
0
41
1
10
19.8068514674802
20
0.786853225081444
30
0
41
1
10
19.5880526597307
20
0.905118059582037
30
0
41
1
10
19.4785018209792
20
0.962516809406623
30
0
41
1
10
19.3135554465176
20
1.04542414076886
30
0
41
1
10
19.2309272098909
20
1.08608065155789
30
0
41
1
10
19.1480127506092
20
1.12546033680604
30
0
41
1
10
19.0926666618641
20
1.15142032615231
30
0
41
1
10
19.0649385217562
20
1.1642628332942
30
0
41
1
10
18.9265287751331
20
1.22752821000839
30
0
41
1
10
18.8163139685559
20
1.27521873273875
30
0
41
1
10
18.486629689596
20
1.40910358470325
30
0
41
1
10
18.2681737139857
20
1.48617668299994
30
0
41
1
10
17.8308908892893
20
1.61341160045558
30
0
41
1
10
17.6120135895567
20
1.66352137339158
30
0
41
1
10
17.3360586894377
20
1.70757885610214
30
0
41
1
10
17.2807502567856
20
1.71546176618278
30
0
41
1
10
17.1698534359291
20
1.72932910648072
30
0
41
1
10
17.114493109156
20
1.73528405007292
30
0
41
1
10
16.9488441100059
20
1.75020348053312
30
0
41
1
10
16.8388937554729
20
1.75623785135349
30
0
41
1
10
16.6956128021832
20
1.75905733748161
30
0
41
1
10
16.6620240755835
20
1.75935433405493
30
0
41
1
10
16.6284534263627
20
1.75928839285518
30
0
0
SPLINE
5
F8
100
AcDbEntity
8
1
62
256
6
ByLayer
370
18
48
1
60
0
100
AcDbSpline
70
4
71
3
72
8
73
4
40
0
40
0
40
0
40
0
40
1
40
1
40
1
40
1
41
1
10
25.3025338046114
20
-0.255930321098617
30
0
41
1
10
25.309439225645
20
-0.178236769549841
30
0
41
1
10
25.3178107464336
20
-0.100551252369854
30
0
41
1
10
25.3280406423272
20
-0.0229295824078974
30
0
0
SPLINE
5
F9
100
AcDbEntity
8
1
62
256
6
ByLayer
370
18
48
1
60
0
100
AcDbSpline
70
4
71
3
72
46
73
42
40
0
40
0
40
0
40
0
40
0.0626527096843417
40
0.0626527096843417
40
0.125305419368683
40
0.125305419368683
40
0.187958129053025
40
0.187958129053025
40
0.250610838737367
40
0.250610838737367
40
0.281937193579539
40
0.281937193579539
40
0.313263548421712
40
0.313263548421712
40
0.344589903263884
40
0.344589903263884
40
0.375916258106057
40
0.375916258106057
40
0.438568967790402
40
0.438568967790402
40
0.501221677474747
40
0.501221677474747
40
0.563874387159092
40
0.563874387159092
40
0.626527096843437
40
0.626527096843437
40
0.689179806527782
40
0.689179806527782
40
0.720506161369956
40
0.720506161369956
40
0.75183251621213
40
0.75183251621213
40
0.814485225896475
40
0.814485225896475
40
0.87713793558082
40
0.87713793558082
40
0.939790645265166
40
0.939790645265166
40
0.971117000107338
40
0.971117000107338
40
1
40
1
40
1
40
1
41
1
10
25.3280406423272
20
-0.0229295824078974
30
0
41
1
10
25.2335194413875
20
0.0358953604721819
30
0
41
1
10
25.139197499663
20
0.094471908995871
30
0
41
1
10
24.9507311174352
20
0.210787488139005
30
0
41
1
10
24.8565797967458
20
0.268517491434608
30
0
41
1
10
24.6686635199704
20
0.3834770736878
30
0
41
1
10
24.5747624447758
20
0.440483314633013
30
0
41
1
10
24.3865059720916
20
0.552644659668289
30
0
41
1
10
24.2921957345408
20
0.607873038303524
30
0
41
1
10
24.150312849615
20
0.689208927760205
30
0
41
1
10
24.1029551735089
20
0.716079524386288
30
0
41
1
10
24.0081654150196
20
0.769414120629506
30
0
41
1
10
23.9607383479516
20
0.795885314007762
30
0
41
1
10
23.8656993189251
20
0.848246479705409
30
0
41
1
10
23.8180080343498
20
0.874159747062976
30
0
41
1
10
23.7227945880676
20
0.925044990762245
30
0
41
1
10
23.6752702570497
20
0.950031387471824
30
0
41
1
10
23.5329029408451
20
1.02359046715128
30
0
41
1
10
23.4382357130971
20
1.07072566632902
30
0
41
1
10
23.249370472373
20
1.16125358135901
30
0
41
1
10
23.1553221149665
20
1.20482456618336
30
0
41
1
10
22.9672561260897
20
1.28766293375927
30
0
41
1
10
22.87321892955
20
1.32691837716064
30
0
41
1
10
22.6849347000359
20
1.40092695742067
30
0
41
1
10
22.5906381365229
20
1.4356369008801
30
0
41
1
10
22.4019658821408
20
1.50064850471037
30
0
41
1
10
22.3076061279193
20
1.53094318613105
30
0
41
1
10
22.1654053755679
20
1.57246812130415
30
0
41
1
10
22.1179101399742
20
1.58567214296139
30
0
41
1
10
22.0227034170108
20
1.61077850980425
30
0
41
1
10
21.9749223869228
20
1.6226963631168
30
0
41
1
10
21.8318713165185
20
1.65629983780275
30
0
41
1
10
21.7368585878496
20
1.67587529420143
30
0
41
1
10
21.5477179622058
20
1.70952606653177
30
0
41
1
10
21.4534390684277
20
1.72350789676639
30
0
41
1
10
21.2649387250714
20
1.74568600206237
30
0
41
1
10
21.1707540175681
20
1.75390363947108
30
0
41
1
10
21.0294481824044
20
1.76194767457662
30
0
41
1
10
20.9823493342471
20
1.76391711266416
30
0
41
1
10
20.8918852848315
20
1.76632886052809
30
0
41
1
10
20.84851402638
20
1.76687615344784
30
0
41
1
10
20.8051203010288
20
1.76680653926644
30
0
0
SPLINE
5
FA
100
AcDbEntity
8
1
62
256
6
ByLayer
370
18
48
1
60
0
100
AcDbSpline
70
4
71
3
72
72
73
68
40
0
40
0
40
0
40
0
40
0.0050163335786835
40
0.0050163335786835
40
0.0464739863462321
40
0.0464739863462321
40
0.0879316391137804
40
0.0879316391137804
40
0.129389291881329
40
0.129389291881329
40
0.150118118265103
40
0.150118118265103
40
0.170846944648877
40
0.170846944648877
40
0.191575771032652
40
0.191575771032652
40
0.212304597416426
40
0.212304597416426
40
0.2330334238002
40
0.2330334238002
40
0.253762250183975
40
0.253762250183975
40
0.295219902951525
40
0.295219902951525
40
0.336677555719076
40
0.336677555719076
40
0.357406382102852
40
0.357406382102852
40
0.378135208486629
40
0.378135208486629
40
0.419592861254184
40
0.419592861254184
40
0.440321687637961
40
0.440321687637961
40
0.461050514021739
40
0.461050514021739
40
0.502508166789296
40
0.502508166789296
40
0.543965819556853
40
0.543965819556853
40
0.58542347232441
40
0.58542347232441
40
0.606152298708189
40
0.606152298708189
40
0.626881125091967
40
0.626881125091967
40
0.668338777859525
40
0.668338777859525
40
0.689067604243304
40
0.689067604243304
40
0.709796430627084
40
0.709796430627084
40
0.730525257010863
40
0.730525257010863
40
0.751254083394643
40
0.751254083394643
40
0.792711736162203
40
0.792711736162203
40
0.834169388929762
40
0.834169388929762
40
0.875627041697322
40
0.875627041697322
40
0.917084694464881
40
0.917084694464881
40
0.958542347232441
40
0.958542347232441
40
1
40
1
40
1
40
1
41
1
10
14.0102751895621
20
-1.26809371422755
30
0
41
1
10
13.9988346829519
20
-1.27292586939583
30
0
41
1
10
13.9873976015629
20
-1.27772791326831
30
0
41
1
10
13.8814713134489
20
-1.32193957759003
30
0
41
1
10
13.7873189631637
20
-1.35942478766572
30
0
41
1
10
13.5988043287267
20
-1.42952401395948
30
0
41
1
10
13.5044898956317
20
-1.4622013566285
30
0
41
1
10
13.3155424127524
20
-1.52265543364339
30
0
41
1
10
13.2208777091104
20
-1.55041584092828
30
0
41
1
10
13.0788155723609
20
-1.58846426628949
30
0
41
1
10
13.0314358657854
20
-1.60053308611131
30
0
41
1
10
12.9364914561307
20
-1.62333490490966
30
0
41
1
10
12.8889227902596
20
-1.6340665100382
30
0
41
1
10
12.7935685230874
20
-1.65417111121658
30
0
41
1
10
12.7457241496417
20
-1.66355461541465
30
0
41
1
10
12.6500782769065
20
-1.68088789041175
30
0
41
1
10
12.6023416752196
20
-1.68882700680555
30
0
41
1
10
12.5070184770896
20
-1.70326375219864
30
0
41
1
10
12.4594352790999
20
-1.70976395596694
30
0
41
1
10
12.3644811794526
20
-1.72135562614685
30
0
41
1
10
12.3171213978423
20
-1.72644848740899
30
0
41
1
10
12.1752247295105
20
-1.7395618407391
30
0
41
1
10
12.0807956487844
20
-1.74540038105226
30
0
41
1
10
11.8919394991291
20
-1.75132668738306
30
0
41
1
10
11.7975086180672
20
-1.75142194507922
30
0
41
1
10
11.6558266647224
20
-1.74729292663136
30
0
41
1
10
11.6086129825422
20
-1.7452022461693
30
0
41
1
10
11.5142183833184
20
-1.73957169539557
30
0
41
1
10
11.4670251046043
20
-1.73603179219742
30
0
41
1
10
11.3252548962395
20
-1.72326519651304
30
0
41
1
10
11.2304899054862
20
-1.71189858758666
30
0
41
1
10
11.0878198862741
20
-1.69059969684005
30
0
41
1
10
11.0401736091702
20
-1.68279270788085
30
0
41
1
10
10.944685099675
20
-1.66576231205539
30
0
41
1
10
10.8967983770971
20
-1.65652784185318
30
0
41
1
10
10.7532723641635
20
-1.62667808858117
30
0
41
1
10
10.6581777572001
20
-1.60397647835848
30
0
41
1
10
10.4682757520869
20
-1.55364433470183
30
0
41
1
10
10.3735309001224
20
-1.52598376010363
30
0
41
1
10
10.1842373774484
20
-1.46595782589668
30
0
41
1
10
10.0896839184559
20
-1.43360643573649
30
0
41
1
10
9.94818168075679
20
-1.38137511859367
30
0
41
1
10
9.90104660285709
20
-1.3633656931525
30
0
41
1
10
9.80670709452244
20
-1.32628626565293
30
0
41
1
10
9.75950691349777
20
-1.30721296735422
30
0
41
1
10
9.61778199883003
20
-1.24843570372178
30
0
41
1
10
9.52312745311684
20
-1.20718184183951
30
0
41
1
10
9.38075806618122
20
-1.14234873861486
30
0
41
1
10
9.33324408557613
20
-1.1202373600014
30
0
41
1
10
9.23816072965627
20
-1.07491846949151
30
0
41
1
10
9.19059372860789
20
-1.05170566660897
30
0
41
1
10
9.09528041230743
20
-1.00432626860825
30
0
41
1
10
9.04750225551763
20
-0.980163249915336
30
0
41
1
10
8.95177747987458
20
-0.931038483907514
30
0
41
1
10
8.90400076015817
20
-0.906154205604366
30
0
41
1
10
8.76088697832176
20
-0.83060633389826
30
0
41
1
10
8.66574578452796
20
-0.779079677429877
30
0
41
1
10
8.4759170730149
20
-0.673863982313833
30
0
41
1
10
8.38131845455814
20
-0.620034872430438
30
0
41
1
10
8.19225165911402
20
-0.510721717597221
30
0
41
1
10
8.09777063346576
20
-0.455260423367633
30
0
41
1
10
7.9087563259728
20
-0.342986937787799
30
0
41
1
10
7.81427491573268
20
-0.286089976265657
30
0
41
1
10
7.6251301771654
20
-0.171135056943456
30
0
41
1
10
7.53041728805189
20
-0.113156650464276
30
0
41
1
10
7.34005586421915
20
0.0026966019097756
30
0
41
1
10
7.24446023597241
20
0.0606585327932976
30
0
41
1
10
7.14835643106699
20
0.118495502868342
30
0
0
SPLINE
5
FB
100
AcDbEntity
8
1
62
256
6
ByLayer
370
18
48
1
60
0
100
AcDbSpline
70
4
71
3
72
84
73
80
40
0
40
0
40
0
40
0
40
0.0624999999999559
40
0.0624999999999559
40
0.124999999999912
40
0.124999999999912
40
0.156249999999891
40
0.156249999999891
40
0.187499999999871
40
0.187499999999871
40
0.218749999999851
40
0.218749999999851
40
0.24999999999983
40
0.24999999999983
40
0.28124999999981
40
0.28124999999981
40
0.289062499999805
40
0.289062499999805
40
0.296874999999801
40
0.296874999999801
40
0.312499999999792
40
0.328124999999782
40
0.328124999999782
40
0.335937499999778
40
0.335937499999778
40
0.343749999999773
40
0.343749999999773
40
0.374999999999756
40
0.374999999999756
40
0.390624999999747
40
0.390624999999747
40
0.406249999999739
40
0.42187499999973
40
0.42187499999973
40
0.429687499999727
40
0.429687499999727
40
0.437499999999724
40
0.437499999999724
40
0.46874999999971
40
0.46874999999971
40
0.499999999999696
40
0.499999999999696
40
0.515624999999689
40
0.515624999999689
40
0.531249999999682
40
0.531249999999682
40
0.562499999999665
40
0.562499999999665
40
0.624999999999632
40
0.624999999999632
40
0.656249999999613
40
0.656249999999613
40
0.687499999999595
40
0.687499999999595
40
0.689453124999596
40
0.689453124999596
40
0.691406249999598
40
0.691406249999598
40
0.695312499999597
40
0.695312499999597
40
0.699218749999596
40
0.699218749999596
40
0.703124999999595
40
0.703124999999595
40
0.710937499999597
40
0.710937499999597
40
0.7148437499996
40
0.7148437499996
40
0.718749999999603
40
0.718749999999603
40
0.749999999999647
40
0.749999999999647
40
0.812499999999735
40
0.812499999999735
40
0.874999999999823
40
0.874999999999823
40
0.937499999999912
40
0.937499999999912
40
1
40
1
40
1
40
1
41
1
10
7.14835756178843
20
0.118495595210789
30
0
41
1
10
7.05898267671881
20
0.172353643086979
30
0
41
1
10
6.97127769071543
20
0.227742968705655
30
0
41
1
10
6.79993010578366
20
0.342212957308305
30
0
41
1
10
6.71627486576574
20
0.401282183823667
30
0
41
1
10
6.59475195385116
20
0.493461399803522
30
0
41
1
10
6.55490914107989
20
0.52478806666403
30
0
41
1
10
6.47680395786105
20
0.5888655781674
30
0
41
1
10
6.43853949831498
20
0.621614527149177
30
0
41
1
10
6.36395534031021
20
0.688863052357704
30
0
41
1
10
6.32763119968212
20
0.723358593610044
30
0
41
1
10
6.25749882358247
20
0.794614251623642
30
0
41
1
10
6.22428120537785
20
0.830783825149496
30
0
41
1
10
6.16257579936973
20
0.904267698185436
30
0
41
1
10
6.13404983256473
20
0.941606222741427
30
0
41
1
10
6.1021705002866
20
0.989256521534344
30
0
41
1
10
6.09598536033201
20
0.998835938676734
30
0
41
1
10
6.08402687507629
20
1.01810163875004
30
0
41
1
10
6.07824728461631
20
1.02780079267498
30
0
41
1
10
6.06172620116388
20
1.05680252287701
30
0
41
1
10
6.04177309708686
20
1.09537357260851
30
0
41
1
10
6.02635216758321
20
1.13373903776659
30
0
41
1
10
6.01666488101577
20
1.16243188164705
30
0
41
1
10
6.01374933050371
20
1.17198261372522
30
0
41
1
10
6.0085811107877
20
1.19105620238759
30
0
41
1
10
6.00632251164075
20
1.20061220803996
30
0
41
1
10
5.99687680870409
20
1.24784026734039
30
0
41
1
10
5.99518201875927
20
1.28380286079036
30
0
41
1
10
6.0014742462659
20
1.33505670835956
30
0
41
1
10
6.00504719699836
20
1.35169414440418
30
0
41
1
10
6.01517960110243
20
1.38406197853942
30
0
41
1
10
6.02808854618456
20
1.41486958900862
30
0
41
1
10
6.04602211157001
20
1.44287488008484
30
0
41
1
10
6.06119885554216
20
1.46292350722948
30
0
41
1
10
6.06654582746461
20
1.46944698592227
30
0
41
1
10
6.07779330037391
20
1.48218890441569
30
0
41
1
10
6.08370806646533
20
1.48842036256806
30
0
41
1
10
6.11435714847212
20
1.51860281437055
30
0
41
1
10
6.14236128322185
20
1.53979047644083
30
0
41
1
10
6.20365158870146
20
1.5777503542123
30
0
41
1
10
6.23695227363754
20
1.59450969178545
30
0
41
1
10
6.29010370604988
20
1.61701531680996
30
0
41
1
10
6.30833189931792
20
1.62406077997235
30
0
41
1
10
6.34537648649757
20
1.63723418623408
30
0
41
1
10
6.36423905768783
20
1.64338193172611
30
0
41
1
10
6.42172794283385
20
1.66067258917656
30
0
41
1
10
6.461250100017
20
1.67067024858267
30
0
41
1
10
6.58271185317508
20
1.69702614747953
30
0
41
1
10
6.66751168514733
20
1.7097953719493
30
0
41
1
10
6.79882382141051
20
1.72397448040789
30
0
41
1
10
6.84326367965144
20
1.72785100553685
30
0
41
1
10
6.93293723147104
20
1.73413236341904
30
0
41
1
10
6.97822570261613
20
1.73654261310998
30
0
41
1
10
7.0267653656125
20
1.73843675128089
30
0
41
1
10
7.02962226329242
20
1.73854570407414
30
0
41
1
10
7.03533877768834
20
1.73875876945235
30
0
41
1
10
7.03818777670176
20
1.73886399902426
30
0
41
1
10
7.04685728264812
20
1.73916007239433
30
0
41
1
10
7.05286402561134
20
1.73932098461839
30
0
41
1
10
7.06539192760874
20
1.73955885811617
30
0
41
1
10
7.07178253004921
20
1.73965099248639
30
0
41
1
10
7.08468704490139
20
1.73975098050306
30
0
41
1
10
7.09118273636119
20
1.73978129944948
30
0
41
1
10
7.11083833770593
20
1.73979844354173
30
0
41
1
10
7.12362691079187
20
1.73972382153519
30
0
41
1
10
7.14241469024057
20
1.73948432427105
30
0
41
1
10
7.14861941195142
20
1.73938296500236
30
0
41
1
10
7.16093295874731
20
1.73915250534486
30
0
41
1
10
7.1670629849057
20
1.73902873569671
30
0
41
1
10
7.22228574118014
20
1.73788474509078
30
0
41
1
10
7.27112814905877
20
1.73655431547761
30
0
41
1
10
7.4168806584525
20
1.7314382722364
30
0
41
1
10
7.51288799358883
20
1.72653231702029
30
0
41
1
10
7.70278097966667
20
1.71274231596365
30
0
41
1
10
7.79673084532882
20
1.70383904107538
30
0
41
1
10
7.98209692091666
20
1.68125901863729
30
0
41
1
10
8.07360724347961
20
1.66758015017913
30
0
41
1
10
8.25473884402248
20
1.63476484460472
30
0
41
1
10
8.3443753544428
20
1.61563438862453
30
0
41
1
10
8.43337602731003
20
1.59356303401893
30
0
0
SPLINE
5
FC
100
AcDbEntity
8
1
62
256
6
ByLayer
370
18
48
1
60
0
100
AcDbSpline
70
4
71
3
72
56
73
52
40
0
40
0
40
0
40
0
40
0.0624999999999983
40
0.0624999999999983
40
0.124999999999997
40
0.124999999999997
40
0.249999999999996
40
0.249999999999996
40
0.281249999999995
40
0.281249999999995
40
0.312499999999994
40
0.312499999999994
40
0.343749999999993
40
0.343749999999993
40
0.374999999999993
40
0.374999999999993
40
0.437499999999991
40
0.437499999999991
40
0.46874999999999
40
0.46874999999999
40
0.499999999999989
40
0.499999999999989
40
0.56249999999999
40
0.56249999999999
40
0.593749999999991
40
0.593749999999991
40
0.609374999999991
40
0.609374999999991
40
0.624999999999991
40
0.624999999999991
40
0.687499999999991
40
0.687499999999991
40
0.718749999999992
40
0.718749999999992
40
0.749999999999992
40
0.749999999999992
40
0.812499999999995
40
0.812499999999995
40
0.843749999999996
40
0.843749999999996
40
0.874999999999996
40
0.874999999999996
40
0.890624999999997
40
0.890624999999997
40
0.906249999999999
40
0.906249999999999
40
0.937499999999999
40
0.937499999999999
40
0.96875
40
0.96875
40
1
40
1
40
1
40
1
41
1
10
8.4333714451044
20
1.59356702354682
30
0
41
1
10
8.56535598748388
20
1.56113433921939
30
0
41
1
10
8.69649894453221
20
1.52379803285549
30
0
41
1
10
8.95772737008323
20
1.43999013899261
30
0
41
1
10
9.08785094530225
20
1.39354623860851
30
0
41
1
10
9.47800984668791
20
1.24200386906776
30
0
41
1
10
9.73757830570779
20
1.12443777923019
30
0
41
1
10
10.0647325781249
20
0.960606217996542
30
0
41
1
10
10.1302817120157
20
0.926973080201435
30
0
41
1
10
10.2617097280888
20
0.85807262858998
30
0
41
1
10
10.3276974636105
20
0.822744331027707
30
0
41
1
10
10.4591258308242
20
0.751095745698478
30
0
41
1
10
10.5246529746635
20
0.714728019308154
30
0
41
1
10
10.6554821707445
20
0.641146650761385
30
0
41
1
10
10.7207869537804
20
0.603937797077691
30
0
41
1
10
10.9163804534956
20
0.491079126198997
30
0
41
1
10
11.0463458654176
20
0.414191889726879
30
0
41
1
10
11.241182115251
20
0.297256760759723
30
0
41
1
10
11.3061069815986
20
0.258007765706338
30
0
41
1
10
11.4360592702188
20
0.179205286286617
30
0
41
1
10
11.5010893159322
20
0.139656606073828
30
0
41
1
10
11.6963467672133
20
0.02057552578529
30
0
41
1
10
11.8267371610449
20
-0.0594004685914626
30
0
41
1
10
12.0231965633856
20
-0.179359747464304
30
0
41
1
10
12.0888271588436
20
-0.219348139251593
30
0
41
1
10
12.1876007549546
20
-0.279146459892701
30
0
41
1
10
12.2205345968051
20
-0.299020911389476
30
0
41
1
10
12.2862689410848
20
-0.338556895300513
30
0
41
1
10
12.3190928760735
20
-0.358232871531214
30
0
41
1
10
12.4829947169373
20
-0.456161373140475
30
0
41
1
10
12.6134276623372
20
-0.533043829639354
30
0
41
1
10
12.8085895238299
20
-0.645354399279114
30
0
41
1
10
12.8735606394609
20
-0.68229121646516
30
0
41
1
10
13.0034819416279
20
-0.754950184954964
30
0
41
1
10
13.0684332839974
20
-0.790671803633074
30
0
41
1
10
13.2632640917702
20
-0.896010974770405
30
0
41
1
10
13.3931209337758
20
-0.963798504791072
30
0
41
1
10
13.5883940475239
20
-1.06101661866336
30
0
41
1
10
13.6535650210162
20
-1.0926802797614
30
0
41
1
10
13.7842123805958
20
-1.15431845842969
30
0
41
1
10
13.849690040075
20
-1.18429259411624
30
0
41
1
10
13.9481430989254
20
-1.22796702734212
30
0
41
1
10
13.9810003831201
20
-1.24231030722274
30
0
41
1
10
14.0468059808305
20
-1.27054917500533
30
0
41
1
10
14.0797280406674
20
-1.28443295852969
30
0
41
1
10
14.1782621372595
20
-1.32523073578301
30
0
41
1
10
14.2437595378825
20
-1.35134173186961
30
0
41
1
10
14.3744639037199
20
-1.40131750639424
30
0
41
1
10
14.4396697183646
20
-1.42518253481734
30
0
41
1
10
14.5699355784953
20
-1.4705524874251
30
0
41
1
10
14.6349957286656
20
-1.49205976426228
30
0
41
1
10
14.6999853141932
20
-1.51239753284065
30
0
0
SPLINE
5
FD
100
AcDbEntity
8
1
62
256
6
ByLayer
370
18
48
1
60
0
100
AcDbSpline
70
4
71
3
72
19
73
15
40
0
40
0
40
0
40
0
40
0.103177858027686
40
0.103177858027686
40
0.206355716055372
40
0.412711432110744
40
0.412711432110744
40
0.515889290138425
40
0.515889290138425
40
0.619067148166107
40
0.619067148166107
40
0.825422864221478
40
0.825422864221478
40
1
40
1
40
1
40
1
41
1
10
14.6999853142022
20
-1.48392761413837
30
0
41
1
10
14.755834202757
20
-1.50229903228862
30
0
41
1
10
14.8117012161541
20
-1.5198351541047
30
0
41
1
10
14.9233035822925
20
-1.55312442875225
30
0
41
1
10
15.090562871535
20
-1.60040339943126
30
0
41
1
10
15.2576397951209
20
-1.63955717821423
30
0
41
1
10
15.4249257344057
20
-1.67309050541317
30
0
41
1
10
15.4807232502805
20
-1.68333136239815
30
0
41
1
10
15.5924372288206
20
-1.7019092290895
30
0
41
1
10
15.6482392750306
20
-1.71022674577722
30
0
41
1
10
15.8152632831933
20
-1.73222557488339
30
0
41
1
10
15.9262215346796
20
-1.74297435449131
30
0
41
1
10
16.1306794799614
20
-1.75558684020419
30
0
41
1
10
16.2242343399323
20
-1.7585625272186
30
0
41
1
10
16.3177712043456
20
-1.75872864598028
30
0
0
SPLINE
5
FE
100
AcDbEntity
8
1
62
256
6
ByLayer
370
18
48
1
60
0
100
AcDbSpline
70
4
71
3
72
8
73
4
40
0
40
0
40
0
40
0
40
1
40
1
40
1
40
1
41
1
10
24.837811214526
20
1.74851608322868
30
0
41
1
10
24.9981638047482
20
1.76558521245076
30
0
41
1
10
25.15876415009
20
1.77448467816566
30
0
41
1
10
25.3202733202001
20
1.77493174937573
30
0
0
SPLINE
5
FF
100
AcDbEntity
8
1
62
256
6
ByLayer
370
18
48
1
60
0
100
AcDbSpline
70
4
71
3
72
27
73
23
40
0
40
0
40
0
40
0
40
0.0211670876651491
40
0.0211670876651491
40
0.0823441446860777
40
0.0823441446860777
40
0.143521201707006
40
0.143521201707006
40
0.265875315748863
40
0.265875315748863
40
0.388229429790721
40
0.388229429790721
40
0.510583543832577
40
0.510583543832577
40
0.632937657874434
40
0.632937657874434
40
0.755291771916291
40
0.755291771916291
40
0.816468828937217
40
0.816468828937217
40
0.877645885958143
40
1
40
1
40
1
40
1
41
1
10
17.4484961561826
20
-1.68928834081044
30
0
41
1
10
17.4294273976405
20
-1.69255864135528
30
0
41
1
10
17.4103455915175
20
-1.6957186068274
30
0
41
1
10
17.3360586894376
20
-1.70757885610214
30
0
41
1
10
17.2807502567855
20
-1.71546176618278
30
0
41
1
10
17.1698534359291
20
-1.72932910648075
30
0
41
1
10
17.114493109156
20
-1.73528405007292
30
0
41
1
10
16.9488441100059
20
-1.75020348053312
30
0
41
1
10
16.8388937554729
20
-1.75623785135349
30
0
41
1
10
16.6195583665545
20
-1.76055393853926
30
0
41
1
10
16.5101518119926
20
-1.75883253953609
30
0
41
1
10
16.2914126291662
20
-1.74773561501328
30
0
41
1
10
16.1820771015661
20
-1.73836408583045
30
0
41
1
10
15.9631457329499
20
-1.71205824039731
30
0
41
1
10
15.8535596274901
20
-1.69512199638427
30
0
41
1
10
15.6338451264707
20
-1.65368053687087
30
0
41
1
10
15.5237001069684
20
-1.62917529104504
30
0
41
1
10
15.3576208054928
20
-1.58687006335356
30
0
41
1
10
15.3021088121183
20
-1.57184093190372
30
0
41
1
10
15.1912541009332
20
-1.54010720665431
30
0
41
1
10
15.0250376209769
20
-1.4899452555029
30
0
41
1
10
14.8588106745023
20
-1.43231089669027
30
0
41
1
10
14.747818722118
20
-1.39072062859941
30
0
0
SPLINE
5
100
100
AcDbEntity
8
1
62
256
6
ByLayer
370
18
48
1
60
0
100
AcDbSpline
70
4
71
3
72
14
73
10
40
0
40
0
40
0
40
0
40
0.25
40
0.25
40
0.5
40
0.5
40
0.75
40
0.75
40
1
40
1
40
1
40
1
41
1
10
14.747818722118
20
-1.39072062859941
30
0
41
1
10
14.741410303278
20
-1.38831930263055
30
0
41
1
10
14.7355592571281
20
-1.38551866134935
30
0
41
1
10
14.7249299457673
20
-1.37912519791243
30
0
41
1
10
14.7201211890831
20
-1.375486263809
30
0
41
1
10
14.7120496564756
20
-1.36770335729861
30
0
41
1
10
14.708724190914
20
-1.36353565828722
30
0
41
1
10
14.7035438366314
20
-1.35460829905074
30
0
41
1
10
14.7017828247073
20
-1.35000529397041
30
0
41
1
10
14.7008256475485
20
-1.34528512983434
30
0
0
SPLINE
5
101
100
AcDbEntity
8
1
62
256
6
ByLayer
370
18
48
1
60
0
100
AcDbSpline
70
4
71
3
72
8
73
4
40
0
40
0
40
0
40
0
40
1
40
1
40
1
40
1
41
1
10
14.7008256475468
20
-1.34528512983539
30
0
41
1
10
14.7007237216633
20
-1.34478249884825
30
0
41
1
10
14.7006718756614
20
-1.34427424483832
30
0
41
1
10
14.700671914653
20
-1.34376669167628
30
0
0
SPLINE
5
102
100
AcDbEntity
8
1
62
256
6
ByLayer
370
18
48
1
60
0
100
AcDbSpline
70
4
71
3
72
36
73
32
40
0
40
0
40
0
40
0
40
0.0312500000000002
40
0.0312500000000002
40
0.0625000000000003
40
0.0625000000000003
40
0.125
40
0.125
40
0.25
40
0.25
40
0.3125
40
0.3125
40
0.34375
40
0.34375
40
0.375
40
0.375
40
0.5
40
0.5
40
0.5625
40
0.5625
40
0.59375
40
0.59375
40
0.625
40
0.625
40
0.75
40
0.875
40
0.875
40
0.90625
40
0.90625
40
0.9375
40
1
40
1
40
1
40
1
41
1
10
14.700671914653
20
-1.34376669168449
30
0
41
1
10
14.7006729983522
20
-1.3296601901958
30
0
41
1
10
14.7006740614822
20
-1.3152385154342
30
0
41
1
10
14.7006761506947
20
-1.28576315890481
30
0
41
1
10
14.700677177221
20
-1.27070095084071
30
0
41
1
10
14.7006801906705
20
-1.22482359267949
30
0
41
1
10
14.7006821174255
20
-1.19323941722902
30
0
41
1
10
14.7006877073977
20
-1.09556143856489
30
0
41
1
10
14.7006911814298
20
-1.02655781585114
30
0
41
1
10
14.7006962113766
20
-0.917219072389912
30
0
41
1
10
14.7006978575239
20
-0.879796702669978
30
0
41
1
10
14.7007003035363
20
-0.822161192321744
30
0
41
1
10
14.7007011161558
20
-0.802669410860659
30
0
41
1
10
14.700702724259
20
-0.763496261963496
30
0
41
1
10
14.7007035211671
20
-0.743782314274057
30
0
41
1
10
14.7007074792022
20
-0.644584998119825
30
0
41
1
10
14.7007105637406
20
-0.563229218240451
30
0
41
1
10
14.7007152069033
20
-0.438248743024587
30
0
41
1
10
14.7007167567858
20
-0.396095423558222
30
0
41
1
10
14.7007190974829
20
-0.332113508083211
30
0
41
1
10
14.7007198803305
20
-0.310660750379952
30
0
41
1
10
14.7007214529988
20
-0.267500660698602
30
0
41
1
10
14.7007222443397
20
-0.245751493372325
30
0
41
1
10
14.7007261923591
20
-0.137178141807169
30
0
41
1
10
14.7007324894612
20
0.0362191350412218
30
0
41
1
10
14.7007388063231
20
0.208998177874491
30
0
41
1
10
14.7007427223978
20
0.316785693270447
30
0
41
1
10
14.7007435050247
20
0.338367854447682
30
0
41
1
10
14.7007450567145
20
0.381292351002259
30
0
41
1
10
14.7007473643984
20
0.445334875993098
30
0
41
1
10
14.7007496036664
20
0.508352997555392
30
0
41
1
10
14.7007510553104
20
0.54990994088385
30
0
0
SPLINE
5
103
100
AcDbEntity
8
1
62
256
6
ByLayer
370
18
48
1
60
0
100
AcDbSpline
70
4
71
3
72
8
73
4
40
0
40
0
40
0
40
0
40
1
40
1
40
1
40
1
41
1
10
14.7007510553103
20
0.549909940882316
30
0
41
1
10
14.7007510829709
20
0.55070179422259
30
0
41
1
10
14.7008091278358
20
0.551495289584892
30
0
41
1
10
14.7009229482375
20
0.552279426331665
30
0
0
SPLINE
5
104
100
AcDbEntity
8
1
62
256
6
ByLayer
370
18
48
1
60
0
100
AcDbSpline
70
4
71
3
72
16
73
12
40
0
40
0
40
0
40
0
40
0.0823582262568393
40
0.0823582262568393
40
0.197063447974732
40
0.197063447974732
40
0.311768669692624
40
0.311768669692624
40
0.541179113128419
40
0.541179113128419
40
1
40
1
40
1
40
1
41
1
10
16.2801542320149
20
-0.24092962752789
30
0
41
1
10
16.2406608397612
20
-0.218151124569573
30
0
41
1
10
16.2011068668846
20
-0.195256134701253
30
0
41
1
10
16.106393454938
20
-0.140267841228166
30
0
41
1
10
16.0513904179982
20
-0.108192298148481
30
0
41
1
10
15.9415803825535
20
-0.0440008246588661
30
0
41
1
10
15.8867597408675
20
-0.0119039639520224
30
0
41
1
10
15.7223398445602
20
0.0840747397768098
30
0
41
1
10
15.6128014368729
20
0.147675683549807
30
0
41
1
10
15.2842473613689
20
0.336927399314419
30
0
41
1
10
15.0654552487336
20
0.46127664607701
30
0
41
1
10
14.8459191345893
20
0.581728179055261
30
0
0
SPLINE
5
105
100
AcDbEntity
8
1
62
256
6
ByLayer
370
13
48
1
60
0
100
AcDbSpline
70
4
71
3
72
8
73
4
40
0
40
0
40
0
40
0
40
1
40
1
40
1
40
1
41
1
10
14.8526372181774
20
0.619652050639246
30
0
41
1
10
14.8520771950623
20
0.610863926028827
30
0
41
1
10
14.851506933419
20
0.602067198575895
30
0
41
1
10
14.8509262770235
20
0.59326116658977
30
0
0
SPLINE
5
106
100
AcDbEntity
8
1
62
256
6
ByLayer
370
18
48
1
60
0
100
AcDbSpline
70
4
71
3
72
12
73
8
40
0
40
0
40
0
40
0
40
0.599879814954586
40
0.599879814954586
40
0.899819722431888
40
0.899819722431888
40
1
40
1
40
1
40
1
41
1
10
14.8509262770235
20
0.59326116658977
30
0
41
1
10
15.0701093479161
20
0.472541119605893
30
0
41
1
10
15.2885543390181
20
0.347835414533506
30
0
41
1
10
15.6165833784037
20
0.157897529870809
30
0
41
1
10
15.7259439237237
20
0.0940393282689058
30
0
41
1
10
15.8719303279536
20
0.0083077325369345
30
0
41
1
10
15.9084880400896
20
-0.0132061506105003
30
0
41
1
10
15.9450737756283
20
-0.0347365043048171
30
0
0
SPLINE
5
107
100
AcDbEntity
8
1
62
256
6
ByLayer
370
18
48
1
60
0
100
AcDbSpline
70
4
71
3
72
48
73
44
40
0
40
0
40
0
40
0
40
0.118014979607372
40
0.118014979607372
40
0.177022469411059
40
0.177022469411059
40
0.236029959214745
40
0.236029959214745
40
0.295037449018431
40
0.295037449018431
40
0.324541193920274
40
0.324541193920274
40
0.354044938822117
40
0.354044938822117
40
0.38354868372396
40
0.38354868372396
40
0.413052428625803
40
0.413052428625803
40
0.472059918429487
40
0.472059918429487
40
0.53106740823317
40
0.53106740823317
40
0.590074898036853
40
0.590074898036853
40
0.649082387840537
40
0.649082387840537
40
0.663834260291458
40
0.663834260291458
40
0.678586132742378
40
0.678586132742378
40
0.70808987764422
40
0.70808987764422
40
0.767097367447906
40
0.767097367447906
40
0.826104857251592
40
0.826104857251592
40
0.885112347055278
40
0.885112347055278
40
0.944119836858964
40
0.944119836858964
40
0.973623581760809
40
0.973623581760809
40
1
40
1
40
1
40
1
41
1
10
14.8526372181774
20
0.619652050639246
30
0
41
1
10
15.0715019903711
20
0.4929635202013
30
0
41
1
10
15.2891996459446
20
0.363321125900114
30
0
41
1
10
15.6149865843912
20
0.166145053984593
30
0
41
1
10
15.7234253941792
20
0.0999161311250987
30
0
41
1
10
15.9401770942936
20
-0.0332442771421597
30
0
41
1
10
16.0485109062427
20
-0.100142481908165
30
0
41
1
10
16.2659859464633
20
-0.233093471961183
30
0
41
1
10
16.3750573703797
20
-0.299261542979224
30
0
41
1
10
16.5393279943326
20
-0.397785447136897
30
0
41
1
10
16.5942481124929
20
-0.430540143830257
30
0
41
1
10
16.7040946604673
20
-0.495622804038703
30
0
41
1
10
16.7588709182884
20
-0.527854884791935
30
0
41
1
10
16.8681339097425
20
-0.591699509534465
30
0
41
1
10
16.922600080103
20
-0.623343761507755
30
0
41
1
10
17.0313805954428
20
-0.685795090190652
30
0
41
1
10
17.0857223456309
20
-0.716560238190084
30
0
41
1
10
17.248715013234
20
-0.807333263668255
30
0
41
1
10
17.3572928304805
20
-0.865887027057994
30
0
41
1
10
17.5743152680056
20
-0.979095642176674
30
0
41
1
10
17.6827090513834
20
-1.0338197115851
30
0
41
1
10
17.899434469021
20
-1.13918931214047
30
0
41
1
10
18.0078804403996
20
-1.18967566856927
30
0
41
1
10
18.225678494388
20
-1.28528968717177
30
0
41
1
10
18.334923046563
20
-1.33055792940831
30
0
41
1
10
18.4719926597075
20
-1.38378915883109
30
0
41
1
10
18.499436593768
20
-1.39426147865785
30
0
41
1
10
18.554216694008
20
-1.41477296352036
30
0
41
1
10
18.5815759216042
20
-1.42482119117594
30
0
41
1
10
18.6635833152675
20
-1.45432722736902
30
0
41
1
10
18.7181673576562
20
-1.47314038238534
30
0
41
1
10
18.8817512444605
20
-1.52697768172848
30
0
41
1
10
18.9905464831778
20
-1.55944397616131
30
0
41
1
10
19.2076553575624
20
-1.61762371625514
30
0
41
1
10
19.3159601713757
20
-1.6433368855682
30
0
41
1
10
19.5323182865931
20
-1.68777308315848
30
0
41
1
10
19.6404214108114
20
-1.70645704871268
30
0
41
1
10
19.8571361014188
20
-1.73639325234399
30
0
41
1
10
19.9657456930777
20
-1.74764974112804
30
0
41
1
10
20.1294395850539
20
-1.75883756202691
30
0
41
1
10
20.1841258996134
20
-1.76162066056028
30
0
41
1
10
20.2879382256377
20
-1.76508399047597
30
0
41
1
10
20.3371052089107
20
-1.76595410382862
30
0
41
1
10
20.3861523373759
20
-1.76605230268004
30
0
0
SPLINE
5
108
100
AcDbEntity
8
1
62
256
6
ByLayer
370
18
48
1
60
0
100
AcDbSpline
70
4
71
3
72
8
73
4
40
0
40
0
40
0
40
0
40
1
40
1
40
1
40
1
41
1
10
25.3025338046174
20
-0.255930321098759
30
0
41
1
10
25.311502676708
20
-0.257648955863203
30
0
41
1
10
25.3204896496656
20
-0.259129484785802
30
0
41
1
10
25.3295010545538
20
-0.260373425029712
30
0
0
SPLINE
5
109
100
AcDbEntity
8
1
62
256
6
ByLayer
370
18
48
1
60
0
100
AcDbSpline
70
4
71
3
72
52
73
48
40
0
40
0
40
0
40
0
40
0.03515994556807
40
0.03515994556807
40
0.0919152428875963
40
0.0919152428875963
40
0.120292891547358
40
0.120292891547358
40
0.14867054020712
40
0.14867054020712
40
0.205425837526644
40
0.205425837526644
40
0.262181134846168
40
0.262181134846168
40
0.318936432165691
40
0.318936432165691
40
0.375691729485215
40
0.375691729485215
40
0.404069378144977
40
0.404069378144977
40
0.432447026804739
40
0.432447026804739
40
0.460824675464501
40
0.460824675464501
40
0.489202324124263
40
0.489202324124263
40
0.545957621443789
40
0.545957621443789
40
0.602712918763315
40
0.602712918763315
40
0.631090567423078
40
0.631090567423078
40
0.659468216082841
40
0.659468216082841
40
0.716223513402368
40
0.716223513402368
40
0.772978810721894
40
0.772978810721894
40
0.829734108041421
40
0.829734108041421
40
0.886489405360947
40
0.886489405360947
40
0.91486705402071
40
0.91486705402071
40
0.943244702680474
40
0.943244702680474
40
1
40
1
40
1
40
1
41
1
10
19.5476106078265
20
1.6893718746465
30
0
41
1
10
19.614621422077
20
1.70145357360343
30
0
41
1
10
19.6816513064723
20
1.71215240120006
30
0
41
1
10
19.8571361014187
20
1.73639325234396
30
0
41
1
10
19.9657456930777
20
1.74764974112804
30
0
41
1
10
20.1294395850539
20
1.75883756202691
30
0
41
1
10
20.1841258996133
20
1.76162066056028
30
0
41
1
10
20.293748070077
20
1.76527781532144
30
0
41
1
10
20.3487665303481
20
1.76614968516299
30
0
41
1
10
20.5132449255049
20
1.76586462586582
30
0
41
1
10
20.6223136340308
20
1.76183040972316
30
0
41
1
10
20.8394537623926
20
1.74611269519357
30
0
41
1
10
20.9476093379657
20
1.73441746333296
30
0
41
1
10
21.1642141754401
20
1.70386180383599
30
0
41
1
10
21.2725832476526
20
1.68500825611605
30
0
41
1
10
21.4892995752016
20
1.64014203368464
30
0
41
1
10
21.597643306334
20
1.61412328416208
30
0
41
1
10
21.7601419125579
20
1.56952552927024
30
0
41
1
10
21.8143241605094
20
1.55373878119715
30
0
41
1
10
21.9229976262599
20
1.52053027511678
30
0
41
1
10
21.9774783099977
20
1.50310374111012
30
0
41
1
10
22.0867438182227
20
1.46662538315746
30
0
41
1
10
22.1415432216983
20
1.44756779762048
30
0
41
1
10
22.2513850676649
20
1.40784028456076
30
0
41
1
10
22.3062524288258
20
1.38723391086887
30
0
41
1
10
22.4707126432269
20
1.32322140455219
30
0
41
1
10
22.5801594565936
20
1.27762170295796
30
0
41
1
10
22.7988022338854
20
1.18067830826482
30
0
41
1
10
22.9080109969563
20
1.12933883637842
30
0
41
1
10
23.0721335549209
20
1.04854654272887
30
0
41
1
10
23.1269508568226
20
1.02095256863575
30
0
41
1
10
23.2362794044621
20
0.964880951077816
30
0
41
1
10
23.2908330855827
20
0.936383980401899
30
0
41
1
10
23.4542924746379
20
0.84971464847834
30
0
41
1
10
23.5629966744946
20
0.79036764007509
30
0
41
1
10
23.7799804834946
20
0.668766901451789
30
0
41
1
10
23.8882586512812
20
0.606509735487577
30
0
41
1
10
24.104608998925
20
0.47942160783515
30
0
41
1
10
24.2126590440459
20
0.414553979745136
30
0
41
1
10
24.4289529615968
20
0.282839722772991
30
0
41
1
10
24.5372572337782
20
0.216089026198119
30
0
41
1
10
24.7004427346359
20
0.115424484982043
30
0
41
1
10
24.7549507496253
20
0.0817660938824361
30
0
41
1
10
24.8642151480493
20
0.0142765496199218
30
0
41
1
10
24.9190132364821
20
-0.0195815198513571
30
0
41
1
10
25.0835279021646
20
-0.121178947751844
30
0
41
1
10
25.1930413813391
20
-0.188750175455795
30
0
41
1
10
25.3025338046172
20
-0.25593032110109
30
0
0
SPLINE
5
10A
100
AcDbEntity
8
1
62
256
6
ByLayer
370
18
48
1
60
0
100
AcDbSpline
70
4
71
3
72
46
73
42
40
0
40
0
40
0
40
0
40
0.0150161405885937
40
0.0150161405885937
40
0.0822023864721671
40
0.0822023864721671
40
0.149388632355741
40
0.149388632355741
40
0.216574878239314
40
0.216574878239314
40
0.283761124122888
40
0.283761124122888
40
0.317354247064676
40
0.317354247064676
40
0.350947370006464
40
0.350947370006464
40
0.384540492948252
40
0.384540492948252
40
0.418133615890041
40
0.418133615890041
40
0.485319861773617
40
0.485319861773617
40
0.552506107657194
40
0.552506107657194
40
0.619692353540771
40
0.619692353540771
40
0.686878599424347
40
0.686878599424347
40
0.720471722366136
40
0.720471722366136
40
0.754064845307924
40
0.754064845307924
40
0.821251091191501
40
0.854844214133289
40
0.854844214133289
40
0.888437337075077
40
0.922030460016866
40
0.922030460016866
40
0.955623582958654
40
0.955623582958654
40
1
40
1
40
1
40
1
41
1
10
20.0160479497262
20
1.67425459422134
30
0
41
1
10
20.0406265988278
20
1.676138560223
30
0
41
1
10
20.0652165666643
20
1.67782259021854
30
0
41
1
10
20.1997313806753
20
1.68592790729667
30
0
41
1
10
20.3093644740789
20
1.68856123135598
30
0
41
1
10
20.5281841158014
20
1.68690174643459
30
0
41
1
10
20.6373491307629
20
1.68260598275106
30
0
41
1
10
20.8553061447311
20
1.66761432153913
30
0
41
1
10
20.9641748434293
20
1.65677351949859
30
0
41
1
10
21.1828057145532
20
1.62649857521558
30
0
41
1
10
21.2924982096342
20
1.607231880065
30
0
41
1
10
21.4574631078141
20
1.57330288272689
30
0
41
1
10
21.5125609911374
20
1.56113429907694
30
0
41
1
10
21.6222942064053
20
1.5353397781129
30
0
41
1
10
21.6769943360879
20
1.52170812013176
30
0
41
1
10
21.7860984123651
20
1.49305312523595
30
0
41
1
10
21.8405181040658
20
1.47799426191511
30
0
41
1
10
21.9492506393518
20
1.44612100017878
30
0
41
1
10
22.0035548199024
20
1.42933623591779
30
0
41
1
10
22.1663474635354
20
1.37662697464742
30
0
41
1
10
22.274708823193
20
1.338346707982
30
0
41
1
10
22.4912466019319
20
1.25640317768264
30
0
41
1
10
22.5994197547242
20
1.21272786212896
30
0
41
1
10
22.8156567705208
20
1.12050788916895
30
0
41
1
10
22.9237320583587
20
1.0719625931201
30
0
41
1
10
23.140335789407
20
0.970113273457599
30
0
41
1
10
23.2488661595263
20
0.916815999200111
30
0
41
1
10
23.4125757418288
20
0.833685612775071
30
0
41
1
10
23.4672972451923
20
0.80544227099773
30
0
41
1
10
23.5770565665536
20
0.747947390873861
30
0
41
1
10
23.6321818584272
20
0.718648294427908
30
0
41
1
10
23.797232097284
20
0.629774638418951
30
0
41
1
10
23.9616990224608
20
0.538924908047903
30
0
41
1
10
24.1255838469124
20
0.44574613173225
30
0
41
1
10
24.234727945692
20
0.383143336029718
30
0
41
1
10
24.3437596339055
20
0.320058237909819
30
0
41
1
10
24.4527209872087
20
0.25621523240784
30
0
41
1
10
24.561752881225
20
0.192140696410917
30
0
41
1
10
24.6163055648194
20
0.159988725200122
30
0
41
1
10
24.74306540886
20
0.0852003617226842
30
0
41
1
10
24.815320103164
20
0.0425134749330027
30
0
41
1
10
24.8877099072461
20
-0.000238273630373
30
0
0
SPLINE
5
10B
100
AcDbEntity
8
1
62
256
6
ByLayer
370
18
48
1
60
0
100
AcDbSpline
70
4
71
3
72
46
73
42
40
0
40
0
40
0
40
0
40
0.117916763061061
40
0.117916763061061
40
0.151387326734131
40
0.151387326734131
40
0.184857890407202
40
0.184857890407202
40
0.218328454080273
40
0.218328454080273
40
0.251799017753344
40
0.251799017753344
40
0.318740145099482
40
0.318740145099482
40
0.352210708772551
40
0.352210708772551
40
0.385681272445619
40
0.385681272445619
40
0.452622399791758
40
0.452622399791758
40
0.519563527137896
40
0.519563527137896
40
0.586504654484034
40
0.586504654484034
40
0.653445781830172
40
0.653445781830172
40
0.686916345503239
40
0.686916345503239
40
0.720386909176306
40
0.720386909176306
40
0.753857472849374
40
0.753857472849374
40
0.787328036522441
40
0.787328036522441
40
0.854269163868579
40
0.854269163868579
40
0.921210291214717
40
0.921210291214717
40
0.988151418560855
40
0.988151418560855
40
1
40
1
40
1
40
1
41
1
10
25.2535865363819
20
-0.226028155082645
30
0
41
1
10
25.0609478249202
20
-0.113690899473596
30
0
41
1
10
24.8691904978423
20
-0.0008515187209923
30
0
41
1
10
24.6234787647089
20
0.143352971484802
30
0
41
1
10
24.5691832252778
20
0.17519320225216
30
0
41
1
10
24.4606030867868
20
0.238704008624751
30
0
41
1
10
24.4063176026496
20
0.270373105890144
30
0
41
1
10
24.2976581201619
20
0.333387509489938
30
0
41
1
10
24.2432834360342
20
0.364731613479108
30
0
41
1
10
24.1343739313434
20
0.426987380260385
30
0
41
1
10
24.0798382955085
20
0.457897981035188
30
0
41
1
10
23.9159601140843
20
0.549923861291148
30
0
41
1
10
23.8063512660509
20
0.610342556555622
30
0
41
1
10
23.6411875020911
20
0.699149690569868
30
0
41
1
10
23.5859541108055
20
0.728474771186001
30
0
41
1
10
23.4759788945793
20
0.786039555176814
30
0
41
1
10
23.421149426297
20
0.814327142338925
30
0
41
1
10
23.2571155413093
20
0.897616336166692
30
0
41
1
10
23.1483760606428
20
0.951046320627199
30
0
41
1
10
22.931377377414
20
1.0532191142708
30
0
41
1
10
22.8231119722581
20
1.10194657765803
30
0
41
1
10
22.6065123308056
20
1.19457108059956
30
0
41
1
10
22.4981649193832
20
1.23848038775262
30
0
41
1
10
22.2812865069187
20
1.32095772577509
30
0
41
1
10
22.172760956311
20
1.3595415277938
30
0
41
1
10
22.0097296690335
20
1.41276096421333
30
0
41
1
10
21.9553470952605
20
1.42972434504992
30
0
41
1
10
21.8464629063659
20
1.46197424294041
30
0
41
1
10
21.7919691852383
20
1.47722621432925
30
0
41
1
10
21.6827206788387
20
1.50623418782948
30
0
41
1
10
21.6279513024434
20
1.52003623654085
30
0
41
1
10
21.518085436855
20
1.54620234722992
30
0
41
1
10
21.4629179191281
20
1.55856790399076
30
0
41
1
10
21.2976764234592
20
1.59312547402402
30
0
41
1
10
21.1878007449799
20
1.61285076167141
30
0
41
1
10
20.968804335792
20
1.64412692907808
30
0
41
1
10
20.8597525107469
20
1.6554746405121
30
0
41
1
10
20.6414508651933
20
1.67142123826346
30
0
41
1
10
20.5321232535235
20
1.67619694936201
30
0
41
1
10
20.4031612346994
20
1.67777383778679
30
0
41
1
10
20.3837608289741
20
1.6779031897054
30
0
41
1
10
20.3643531562282
20
1.6779218418653
30
0
0
SPLINE
5
10C
100
AcDbEntity
8
1
62
256
6
ByLayer
370
18
48
1
60
0
100
AcDbSpline
70
4
71
3
72
10
73
6
40
0
40
0
40
0
40
0
40
0.5
40
0.5
40
1
40
1
40
1
40
1
41
1
10
25.3295010545539
20
-0.260373425029712
30
0
41
1
10
25.3304612220128
20
-0.260505967175789
30
0
41
1
10
25.3311997695155
20
-0.261873246559134
30
0
41
1
10
25.3320478762298
20
-0.265950955486488
30
0
41
1
10
25.3321648807341
20
-0.268669971329189
30
0
41
1
10
25.3318839748933
20
-0.27162815062357
30
0
0
SPLINE
5
10D
100
AcDbEntity
8
SK1
62
256
6
ByLayer
370
18
48
1
60
0
100
AcDbSpline
70
4
71
3
72
8
73
4
40
0
40
0
40
0
40
0
40
1
40
1
40
1
40
1
41
1
10
-35.75
20
-1.88722135504028
30
0
41
1
10
-35.8336532347428
20
-1.80243514561593
30
0
41
1
10
-35.9170278569481
20
-1.71740136840745
30
0
41
1
10
-36
20
-1.63200995879279
30
0
0
SPLINE
5
10E
100
AcDbEntity
8
SK1
62
256
6
ByLayer
370
18
48
1
60
0
100
AcDbSpline
70
4
71
3
72
22
73
18
40
0
40
0
40
0
40
0
40
0.0625000000000006
40
0.0625000000000006
40
0.125000000000001
40
0.125000000000001
40
0.25
40
0.25
40
0.374999999999999
40
0.374999999999999
40
0.499999999999999
40
0.499999999999999
40
0.624999999999998
40
0.624999999999998
40
0.749999999999999
40
0.749999999999999
40
1
40
1
40
1
40
1
41
1
10
-35.65
20
-2.04575998108484
30
0
41
1
10
-35.65
20
-2.04342465021364
30
0
41
1
10
-35.6502718586019
20
-2.04082821230094
30
0
41
1
10
-35.6512913504498
20
-2.03529288548469
30
0
41
1
10
-35.652030658643
20
-2.03237713503725
30
0
41
1
10
-35.6548298230237
20
-2.02325407200272
30
0
41
1
10
-35.6575061245997
20
-2.0165964882604
30
0
41
1
10
-35.6638376796887
20
-2.00304065420627
30
0
41
1
10
-35.6674983282837
20
-1.99610133815307
30
0
41
1
10
-35.6756151818521
20
-1.98196822464917
30
0
41
1
10
-35.6800682064548
20
-1.97479327350911
30
0
41
1
10
-35.6893906957631
20
-1.96066210061767
30
0
41
1
10
-35.6942952881823
20
-1.95364555801203
30
0
41
1
10
-35.7045485857552
20
-1.93970600269032
30
0
41
1
10
-35.7099306774388
20
-1.93274301266447
30
0
41
1
10
-35.7265024515808
20
-1.9123073133791
30
0
41
1
10
-35.7380004903212
20
-1.89938338253094
30
0
41
1
10
-35.7500000000001
20
-1.88722135504031
30
0
0
SPLINE
5
10F
100
AcDbEntity
8
SK1
62
256
6
ByLayer
370
18
48
1
60
0
100
AcDbSpline
70
4
71
3
72
22
73
18
40
0
40
0
40
0
40
0
40
0.249999999999997
40
0.249999999999997
40
0.374999999999998
40
0.374999999999998
40
0.499999999999998
40
0.499999999999998
40
0.624999999999999
40
0.624999999999999
40
0.749999999999999
40
0.749999999999999
40
0.875
40
0.875
40
0.9375
40
0.9375
40
1
40
1
40
1
40
1
41
1
10
-35.75
20
-2.31294315932692
30
0
41
1
10
-35.7379956523281
20
-2.32511009033493
30
0
41
1
10
-35.7264866986603
20
-2.33685909999428
30
0
41
1
10
-35.7098921057742
20
-2.35385554491532
30
0
41
1
10
-35.7045257065493
20
-2.35936175539291
30
0
41
1
10
-35.6942964893127
20
-2.36986427782273
30
0
41
1
10
-35.6894060316865
20
-2.37488896808713
30
0
41
1
10
-35.6801144608566
20
-2.38442944953243
30
0
41
1
10
-35.6756964104891
20
-2.3889626949472
30
0
41
1
10
-35.6675285377629
20
-2.39732095719253
30
0
41
1
10
-35.6638529491705
20
-2.40107001338564
30
0
41
1
10
-35.6575076548177
20
-2.40749761324057
30
0
41
1
10
-35.6548318331324
20
-2.41018136708419
30
0
41
1
10
-35.6520304488211
20
-2.41292639766667
30
0
41
1
10
-35.65129058319
20
-2.41363627662696
30
0
41
1
10
-35.650270741394
20
-2.41457052562706
30
0
41
1
10
-35.65
20
-2.41478582826639
30
0
41
1
10
-35.65
20
-2.41471887813316
30
0
0
SPLINE
5
110
100
AcDbEntity
8
SK1
62
256
6
ByLayer
370
18
48
1
60
0
100
AcDbSpline
70
4
71
3
72
8
73
4
40
0
40
0
40
0
40
0
40
1
40
1
40
1
40
1
41
1
10
-36
20
-2.05773176307929
30
0
41
1
10
-35.9170274967383
20
-2.1431235434066
30
0
41
1
10
-35.8336529130935
20
-2.22815727590799
30
0
41
1
10
-35.7499999999999
20
-2.31294315932684
30
0
0
SPLINE
5
111
100
AcDbEntity
8
SK1
62
256
6
ByLayer
370
18
48
1
60
0
100
AcDbSpline
70
4
71
3
72
18
73
14
40
0
40
0
40
0
40
0
40
0.305213468727482
40
0.305213468727482
40
0.457820203091221
40
0.457820203091221
40
0.610426937454959
40
0.610426937454959
40
0.763033671818698
40
0.763033671818698
40
0.915640406182437
40
0.915640406182437
40
1
40
1
40
1
40
1
41
1
10
-35.75
20
2.31294315932692
30
0
41
1
10
-35.7379956523281
20
2.32511009033493
30
0
41
1
10
-35.7264866986603
20
2.33685909999428
30
0
41
1
10
-35.7098921057742
20
2.35385554491532
30
0
41
1
10
-35.7045257065493
20
2.35936175539291
30
0
41
1
10
-35.6942964893127
20
2.36986427782273
30
0
41
1
10
-35.6894060316865
20
2.37488896808713
30
0
41
1
10
-35.6801144608566
20
2.38442944953243
30
0
41
1
10
-35.6756964104891
20
2.3889626949472
30
0
41
1
10
-35.6675285377629
20
2.39732095719253
30
0
41
1
10
-35.6638529491705
20
2.40107001338564
30
0
41
1
10
-35.6589264919263
20
2.40606037224165
30
0
41
1
10
-35.6573245006161
20
2.40767496094273
30
0
41
1
10
-35.6559269310289
20
2.40907290198558
30
0
0
SPLINE
5
112
100
AcDbEntity
8
SK1
62
256
6
ByLayer
370
18
48
1
60
0
100
AcDbSpline
70
4
71
3
72
8
73
4
40
0
40
0
40
0
40
0
40
1
40
1
40
1
40
1
41
1
10
-36
20
2.05773176307929
30
0
41
1
10
-35.9170274967383
20
2.1431235434066
30
0
41
1
10
-35.8336529130935
20
2.22815727590799
30
0
41
1
10
-35.7499999999999
20
2.31294315932684
30
0
0
SPLINE
5
113
100
AcDbEntity
8
1
62
256
6
ByLayer
370
18
48
1
60
0
100
AcDbSpline
70
4
71
3
72
21
73
17
40
0
40
0
40
0
40
0
40
2.69540974144E-05
40
7.06282445334E-05
40
0.0001365851787985
40
0.0002359025544597
40
0.0007796229564944
40
0.0107817838957122
40
0.0331778895841406
40
0.116584561455927
40
0.254123858790889
40
0.368501098282264
40
0.467449533381735
40
0.60704854782798
40
0.798401361259005
40
1
40
1
40
1
40
1
41
1
10
17.3348492662443
20
-0.0172229659610821
30
0
41
1
10
17.334846365626
20
-0.0172219808845284
30
0
41
1
10
17.334834946059
20
-0.0172181491406604
30
0
41
1
10
17.3347870536069
20
-0.0172022717981406
30
0
41
1
10
17.3346451844777
20
-0.0171557518976329
30
0
41
1
10
17.3340093804984
20
-0.0169518893576992
30
0
41
1
10
17.322526254716
20
-0.013289872374628
30
0
41
1
10
17.2876985283247
20
-0.001723869897063
30
0
41
1
10
17.1601617016139
20
0.042022400540759
30
0
41
1
10
16.8947701246212
20
0.134730122794338
30
0
41
1
10
16.5279058405139
20
0.266548786508196
30
0
41
1
10
16.145995389795
20
0.407936056699242
30
0
41
1
10
15.7629579413138
20
0.553206811451872
30
0
41
1
10
15.2980380484253
20
0.734362242493233
30
0
41
1
10
14.7246341015944
20
0.965549704606104
30
0
41
1
10
14.3042553521198
20
1.14283199969117
30
0
41
1
10
14.0892573642614
20
1.23548148447193
30
0
0
SPLINE
5
114
100
AcDbEntity
8
1
62
256
6
ByLayer
370
18
48
1
60
0
100
AcDbSpline
70
4
71
3
72
11
73
7
40
0
40
0
40
0
40
0
40
0.0963222614782488
40
0.325984257912653
40
0.638678224765147
40
1
40
1
40
1
40
1
41
1
10
24.8756327591333
20
0.51197302593468
30
0
41
1
10
24.8151577737502
20
0.534924439164143
30
0
41
1
10
24.6106784886673
20
0.613073955831936
30
0
41
1
10
24.2114698830427
20
0.769780540808426
30
0
41
1
10
23.6489511603053
20
0.997432253393725
30
0
41
1
10
23.231994431816
20
1.17345118961782
30
0
41
1
10
23.0091826169411
20
1.26953194564132
30
0
0
SPLINE
5
115
100
AcDbEntity
8
1
62
256
6
ByLayer
370
18
48
1
60
0
100
AcDbSpline
70
4
71
3
72
17
73
13
40
0
40
0
40
0
40
0
40
0.170454827036798
40
0.290369467497515
40
0.373277928799978
40
0.471087061893189
40
0.58468662187202
40
0.682276307231669
40
0.781259491728056
40
0.878166959522196
40
0.974405059529111
40
1
40
1
40
1
40
1
41
1
10
16.6275268228816
20
-1.67072203490977
30
0
41
1
10
16.7934608736983
20
-1.67124518784715
30
0
41
1
10
17.0761335501034
20
-1.67196304842517
30
0
41
1
10
17.4395264858232
20
-1.67264585031819
30
0
41
1
10
17.7322029408214
20
-1.6727921432431
30
0
41
1
10
18.0187298196108
20
-1.67389321494497
30
0
41
1
10
18.3195505340147
20
-1.67424069953415
30
0
41
1
10
18.6215116724148
20
-1.67538515637182
30
0
41
1
10
18.9072259303257
20
-1.67577070010592
30
0
41
1
10
19.1916201008513
20
-1.6752570491405
30
0
41
1
10
19.4045719464872
20
-1.67562492445182
30
0
41
1
10
19.5231792213892
20
-1.67615750557303
30
0
41
1
10
19.5480964296824
20
-1.6762780332993
30
0
0
SPLINE
5
116
100
AcDbEntity
8
1
62
256
6
ByLayer
370
18
48
1
60
0
100
AcDbSpline
70
4
71
3
72
16
73
12
40
0
40
0
40
0
40
0
40
0.179709418668346
40
0.310534653059574
40
0.406264864091592
40
0.502660910375183
40
0.601121718929987
40
0.698196382429751
40
0.837385811601845
40
0.94966962856106
40
1
40
1
40
1
40
1
41
1
10
20.385085809458
20
1.67789517895281
30
0
41
1
10
20.2092087979669
20
1.67834048990579
30
0
41
1
10
19.9052950021382
20
1.67854335050259
30
0
41
1
10
19.5076931811369
20
1.67580337486024
30
0
41
1
10
19.1916201037947
20
1.67525623082324
30
0
41
1
10
18.9072259190338
20
1.6757738394538
30
0
41
1
10
18.6215117153291
20
1.67537322542748
30
0
41
1
10
18.2939190180678
20
1.67419537676855
30
0
41
1
10
17.9527959775881
20
1.67359701567011
30
0
41
1
10
17.6574197556782
20
1.67279236820534
30
0
41
1
10
17.4982711953446
20
1.67258449242914
30
0
41
1
10
17.4490136201092
20
1.67252652961034
30
0
0
LINE
5
82
100
AcDbEntity
8
4
62
256
6
ByLayer
370
18
48
0.05
60
0
100
AcDbLine
10
0
20
0
30
0
11
26
21
0
31
0
39
0
210
0
220
0
230
1
0
LINE
5
84
100
AcDbEntity
8
81
62
256
6
ByLayer
370
18
48
1
60
0
100
AcDbLine
10
26
20
0
30
0
11
29
21
0
31
0
39
0
210
0
220
0
230
1
0
LINE
5
85
100
AcDbEntity
8
80
62
256
6
ByLayer
370
18
48
1
60
0
100
AcDbLine
10
0
20
0
30
0
11
-3
21
0
31
0
39
0
210
0
220
0
230
1
0
LINE
5
86
100
AcDbEntity
8
SK4
62
256
6
ByLayer
370
18
48
0.05
60
0
100
AcDbLine
10
-39
20
0
30
0
11
29
21
0
31
0
39
0
210
0
220
0
230
1
0
LINE
5
88
100
AcDbEntity
8
1
62
256
6
ByLayer
370
18
48
1
60
0
100
AcDbLine
10
0
20
3
30
0
11
0
21
-3
31
0
39
0
210
0
220
0
230
1
0
LINE
5
89
100
AcDbEntity
8
1
62
256
6
ByLayer
370
13
48
1
60
0
100
AcDbLine
10
25.956971
20
0.200286
30
0
11
25.546397
21
0.571709
31
0
39
0
210
0
220
0
230
1
0
LINE
5
8A
100
AcDbEntity
8
1
62
256
6
ByLayer
370
18
48
1
60
0
100
AcDbLine
10
14.699985
20
-1.483928
30
0
11
14.699985
21
-1.512398
31
0
39
0
210
0
220
0
230
1
0
LINE
5
8B
100
AcDbEntity
8
1
62
256
6
ByLayer
370
13
48
1
60
0
100
AcDbLine
10
1.566579
20
-1.732177
30
0
11
1.566579
21
1.732177
31
0
39
0
210
0
220
0
230
1
0
LINE
5
8C
100
AcDbEntity
8
1
62
256
6
ByLayer
370
13
48
1
60
0
100
AcDbLine
10
0.782569
20
-2.366088
30
0
11
0.782569
21
2.366088
31
0
39
0
210
0
220
0
230
1
0
LINE
5
8D
100
AcDbEntity
8
SK1
62
256
6
ByLayer
370
18
48
1
60
0
100
AcDbLine
10
-36
20
-1.63197
30
0
11
-36
21
-2.057732
31
0
39
0
210
0
220
0
230
1
0
LINE
5
8F
100
AcDbEntity
8
SK1
62
256
6
ByLayer
370
13
48
1
60
0
100
AcDbLine
10
-35.75
20
-2.312943
30
0
11
-35.75
21
-1.887217
31
0
39
0
210
0
220
0
230
1
0
LINE
5
90
100
AcDbEntity
8
SK1
62
256
6
ByLayer
370
18
48
1
60
0
100
AcDbLine
10
-35.65
20
-2.414719
30
0
11
-35.65
21
-2.04576
31
0
39
0
210
0
220
0
230
1
0
LINE
5
91
100
AcDbEntity
8
SK1
62
256
6
ByLayer
370
18
48
1
60
0
100
AcDbLine
10
-36
20
2.057732
30
0
11
-36
21
-1.63201
31
0
39
0
210
0
220
0
230
1
0
LINE
5
92
100
AcDbEntity
8
SK1
62
256
6
ByLayer
370
18
48
1
60
0
100
AcDbLine
10
0
20
3
30
0
11
0
21
-3
31
0
39
0
210
0
220
0
230
1
0
LINE
5
93
100
AcDbEntity
8
SK1
62
256
6
ByLayer
370
18
48
1
60
0
100
AcDbLine
10
-35.065
20
-3
30
0
11
-35.065
21
3
31
0
39
0
210
0
220
0
230
1
0
LINE
5
94
100
AcDbEntity
8
1
62
256
6
ByLayer
370
18
48
1
60
0
100
AcDbLine
10
1.566579
20
-1.732177
30
0
11
11.831111
21
-1.750653
31
0
39
0
210
0
220
0
230
1
0
LINE
5
95
100
AcDbEntity
8
1
62
256
6
ByLayer
370
18
48
1
60
0
100
AcDbLine
10
16.317686
20
-1.758729
30
0
11
16.628543
21
-1.759289
31
0
39
0
210
0
220
0
230
1
0
LINE
5
96
100
AcDbEntity
8
1
62
256
6
ByLayer
370
18
48
1
60
0
100
AcDbLine
10
20.386341
20
-1.766053
30
0
11
20.804615
21
-1.766806
31
0
39
0
210
0
220
0
230
1
0
LINE
5
97
100
AcDbEntity
8
1
62
256
6
ByLayer
370
18
48
1
60
0
100
AcDbLine
10
20.804615
20
1.766806
30
0
11
20.386341
21
1.766053
31
0
39
0
210
0
220
0
230
1
0
LINE
5
98
100
AcDbEntity
8
1
62
256
6
ByLayer
370
18
48
1
60
0
100
AcDbLine
10
16.628543
20
1.759289
30
0
11
16.317686
21
1.758729
31
0
39
0
210
0
220
0
230
1
0
LINE
5
99
100
AcDbEntity
8
1
62
256
6
ByLayer
370
18
48
1
60
0
100
AcDbLine
10
11.831111
20
1.750653
30
0
11
1.566579
21
1.732177
31
0
39
0
210
0
220
0
230
1
0
LINE
5
9A
100
AcDbEntity
8
SK1
62
256
6
ByLayer
370
18
48
1
60
0
100
AcDbLine
10
-35.656227
20
-2.408773
30
0
11
-35.065
21
-3
31
0
39
0
210
0
220
0
230
1
0
LINE
5
9B
100
AcDbEntity
8
SK1
62
256
6
ByLayer
370
18
48
1
60
0
100
AcDbLine
10
-35.065
20
3
30
0
11
-35.656227
21
2.408773
31
0
39
0
210
0
220
0
230
1
0
LINE
5
9C
100
AcDbEntity
8
SK1
62
256
6
ByLayer
370
18
48
1
60
0
100
AcDbLine
10
-35.065
20
-3
30
0
11
0
21
-3
31
0
39
0
210
0
220
0
230
1
0
LINE
5
9D
100
AcDbEntity
8
SK1
62
256
6
ByLayer
370
18
48
1
60
0
100
AcDbLine
10
0
20
3
30
0
11
-35.065
21
3
31
0
39
0
210
0
220
0
230
1
0
LINE
5
9E
100
AcDbEntity
8
2
62
256
6
ByLayer
370
13
48
1
60
0
100
AcDbLine
10
33.5
20
28.315913
30
0
11
33.5
21
-9.275
31
0
39
0
210
0
220
0
230
1
0
LINE
5
A0
100
AcDbEntity
8
2
62
256
6
ByLayer
370
13
48
1
60
0
100
AcDbLine
10
27.5875
20
1.775
30
0
11
35.5
21
1.775
31
0
39
0
210
0
220
0
230
1
0
LINE
5
A1
100
AcDbEntity
8
2
62
256
6
ByLayer
370
13
48
1
60
0
100
AcDbLine
10
27.5875
20
-1.775
30
0
11
35.5
21
-1.775
31
0
39
0
210
0
220
0
230
1
0
LINE
5
A2
100
AcDbEntity
8
1
62
256
6
ByLayer
370
18
48
1
60
1
100
AcDbLine
10
33.5
20
1.775
30
0
11
33.039216
21
5.274998
31
0
39
0
210
0
220
0
230
1
0
LINE
5
A3
100
AcDbEntity
8
1
62
256
6
ByLayer
370
18
48
1
60
1
100
AcDbLine
10
33.039216
20
5.274998
30
0
11
33.960784
21
5.275002
31
0
39
0
210
0
220
0
230
1
0
LINE
5
A4
100
AcDbEntity
8
1
62
256
6
ByLayer
370
18
48
1
60
1
100
AcDbLine
10
33.960784
20
5.275002
30
0
11
33.5
21
1.775
31
0
39
0
210
0
220
0
230
1
0
LINE
5
A5
100
AcDbEntity
8
1
62
256
6
ByLayer
370
18
48
1
60
1
100
AcDbLine
10
33.5
20
-1.775
30
0
11
33.960784
21
-5.274998
31
0
39
0
210
0
220
0
230
1
0
LINE
5
A6
100
AcDbEntity
8
1
62
256
6
ByLayer
370
18
48
1
60
1
100
AcDbLine
10
33.960784
20
-5.274998
30
0
11
33.039216
21
-5.275002
31
0
39
0
210
0
220
0
230
1
0
LINE
5
A7
100
AcDbEntity
8
1
62
256
6
ByLayer
370
18
48
1
60
1
100
AcDbLine
10
33.039216
20
-5.275002
30
0
11
33.5
21
-1.775
31
0
39
0
210
0
220
0
230
1
0
LINE
5
A8
100
AcDbEntity
8
SK2
62
256
6
ByLayer
370
13
48
1
60
0
100
AcDbLine
10
-44.5
20
13.841828
30
0
11
-44.5
21
-10.5
31
0
39
0
210
0
220
0
230
1
0
LINE
5
AA
100
AcDbEntity
8
SK2
62
256
6
ByLayer
370
13
48
1
60
0
100
AcDbLine
10
-37.5875
20
3
30
0
11
-46.5
21
3
31
0
39
0
210
0
220
0
230
1
0
LINE
5
AB
100
AcDbEntity
8
SK2
62
256
6
ByLayer
370
13
48
1
60
0
100
AcDbLine
10
-37.5875
20
-3
30
0
11
-46.5
21
-3
31
0
39
0
210
0
220
0
230
1
0
LINE
5
AC
100
AcDbEntity
8
1
62
256
6
ByLayer
370
18
48
1
60
1
100
AcDbLine
10
-44.5
20
3
30
0
11
-44.960784
21
6.499998
31
0
39
0
210
0
220
0
230
1
0
LINE
5
AD
100
AcDbEntity
8
1
62
256
6
ByLayer
370
18
48
1
60
1
100
AcDbLine
10
-44.960784
20
6.499998
30
0
11
-44.039216
21
6.500002
31
0
39
0
210
0
220
0
230
1
0
LINE
5
AE
100
AcDbEntity
8
1
62
256
6
ByLayer
370
18
48
1
60
1
100
AcDbLine
10
-44.039216
20
6.500002
30
0
11
-44.5
21
3
31
0
39
0
210
0
220
0
230
1
0
LINE
5
AF
100
AcDbEntity
8
1
62
256
6
ByLayer
370
18
48
1
60
1
100
AcDbLine
10
-44.5
20
-3
30
0
11
-44.039216
21
-6.499998
31
0
39
0
210
0
220
0
230
1
0
LINE
5
B0
100
AcDbEntity
8
1
62
256
6
ByLayer
370
18
48
1
60
1
100
AcDbLine
10
-44.039216
20
-6.499998
30
0
11
-44.960784
21
-6.500002
31
0
39
0
210
0
220
0
230
1
0
LINE
5
B1
100
AcDbEntity
8
1
62
256
6
ByLayer
370
18
48
1
60
1
100
AcDbLine
10
-44.960784
20
-6.500002
30
0
11
-44.5
21
-3
31
0
39
0
210
0
220
0
230
1
0
LINE
5
B2
100
AcDbEntity
8
SK2
62
256
6
ByLayer
370
13
48
1
60
0
100
AcDbLine
10
26.542922
20
1.491775
30
0
11
32.29208
21
17.28861
31
0
39
0
210
0
220
0
230
1
0
LINE
5
B3
100
AcDbEntity
8
SK2
62
256
6
ByLayer
370
13
48
1
60
0
100
AcDbLine
10
26.542922
20
-1.491775
30
0
11
32.29208
21
-17.28861
31
0
39
0
210
0
220
0
230
1
0
LINE
5
B4
100
AcDbEntity
8
1
62
256
6
ByLayer
370
18
48
1
60
1
100
AcDbLine
10
31.608084
20
15.409209
30
0
11
35.009159
21
14.463166
31
0
39
0
210
0
220
0
230
1
0
LINE
5
B5
100
AcDbEntity
8
1
62
256
6
ByLayer
370
18
48
1
60
1
100
AcDbLine
10
35.009159
20
14.463166
30
0
11
34.648419
21
13.615137
31
0
39
0
210
0
220
0
230
1
0
LINE
5
B6
100
AcDbEntity
8
1
62
256
6
ByLayer
370
18
48
1
60
1
100
AcDbLine
10
34.648419
20
13.615137
30
0
11
31.608084
21
15.409209
31
0
39
0
210
0
220
0
230
1
0
LINE
5
B7
100
AcDbEntity
8
1
62
256
6
ByLayer
370
18
48
1
60
1
100
AcDbLine
10
31.608084
20
-15.409209
30
0
11
34.648416
21
-13.615138
31
0
39
0
210
0
220
0
230
1
0
LINE
5
B8
100
AcDbEntity
8
1
62
256
6
ByLayer
370
18
48
1
60
1
100
AcDbLine
10
34.648416
20
-13.615138
30
0
11
35.009162
21
-14.463165
31
0
39
0
210
0
220
0
230
1
0
LINE
5
B9
100
AcDbEntity
8
1
62
256
6
ByLayer
370
18
48
1
60
1
100
AcDbLine
10
35.009162
20
-14.463165
30
0
11
31.608084
21
-15.409209
31
0
39
0
210
0
220
0
230
1
0
LINE
5
117
100
AcDbEntity
8
1
62
256
6
ByLayer
370
13
48
0.05
60
0
100
AcDbLine
10
-42.5
20
0
30
0
11
31.84427
21
0
31
0
39
0
210
0
220
0
230
1
0
LINE
5
11C
100
AcDbEntity
8
1
62
256
6
ByLayer
370
18
48
1
60
1
100
AcDbLine
10
33.5
20
1.775
30
0
11
33.039216
21
5.274998
31
0
39
0
210
0
220
0
230
1
0
LINE
5
11D
100
AcDbEntity
8
1
62
256
6
ByLayer
370
18
48
1
60
1
100
AcDbLine
10
33.039216
20
5.274998
30
0
11
33.960784
21
5.275002
31
0
39
0
210
0
220
0
230
1
0
LINE
5
11E
100
AcDbEntity
8
1
62
256
6
ByLayer
370
18
48
1
60
1
100
AcDbLine
10
33.960784
20
5.275002
30
0
11
33.5
21
1.775
31
0
39
0
210
0
220
0
230
1
0
LINE
5
120
100
AcDbEntity
8
1
62
256
6
ByLayer
370
18
48
1
60
1
100
AcDbLine
10
33.5
20
-1.775
30
0
11
33.960784
21
-5.274998
31
0
39
0
210
0
220
0
230
1
0
LINE
5
121
100
AcDbEntity
8
1
62
256
6
ByLayer
370
18
48
1
60
1
100
AcDbLine
10
33.960784
20
-5.274998
30
0
11
33.039216
21
-5.275002
31
0
39
0
210
0
220
0
230
1
0
LINE
5
122
100
AcDbEntity
8
1
62
256
6
ByLayer
370
18
48
1
60
1
100
AcDbLine
10
33.039216
20
-5.275002
30
0
11
33.5
21
-1.775
31
0
39
0
210
0
220
0
230
1
0
LINE
5
126
100
AcDbEntity
8
1
62
256
6
ByLayer
370
18
48
1
60
1
100
AcDbLine
10
-44.5
20
3
30
0
11
-44.960784
21
6.499998
31
0
39
0
210
0
220
0
230
1
0
LINE
5
127
100
AcDbEntity
8
1
62
256
6
ByLayer
370
18
48
1
60
1
100
AcDbLine
10
-44.960784
20
6.499998
30
0
11
-44.039216
21
6.500002
31
0
39
0
210
0
220
0
230
1
0
LINE
5
128
100
AcDbEntity
8
1
62
256
6
ByLayer
370
18
48
1
60
1
100
AcDbLine
10
-44.039216
20
6.500002
30
0
11
-44.5
21
3
31
0
39
0
210
0
220
0
230
1
0
LINE
5
12A
100
AcDbEntity
8
1
62
256
6
ByLayer
370
18
48
1
60
1
100
AcDbLine
10
-44.5
20
-3
30
0
11
-44.039216
21
-6.499998
31
0
39
0
210
0
220
0
230
1
0
LINE
5
12B
100
AcDbEntity
8
1
62
256
6
ByLayer
370
18
48
1
60
1
100
AcDbLine
10
-44.039216
20
-6.499998
30
0
11
-44.960784
21
-6.500002
31
0
39
0
210
0
220
0
230
1
0
LINE
5
12C
100
AcDbEntity
8
1
62
256
6
ByLayer
370
18
48
1
60
1
100
AcDbLine
10
-44.960784
20
-6.500002
30
0
11
-44.5
21
-3
31
0
39
0
210
0
220
0
230
1
0
LINE
5
12F
100
AcDbEntity
8
1
62
256
6
ByLayer
370
18
48
1
60
1
100
AcDbLine
10
31.608084
20
15.409209
30
0
11
35.009159
21
14.463166
31
0
39
0
210
0
220
0
230
1
0
LINE
5
130
100
AcDbEntity
8
1
62
256
6
ByLayer
370
18
48
1
60
1
100
AcDbLine
10
35.009159
20
14.463166
30
0
11
34.648419
21
13.615137
31
0
39
0
210
0
220
0
230
1
0
LINE
5
131
100
AcDbEntity
8
1
62
256
6
ByLayer
370
18
48
1
60
1
100
AcDbLine
10
34.648419
20
13.615137
30
0
11
31.608084
21
15.409209
31
0
39
0
210
0
220
0
230
1
0
LINE
5
133
100
AcDbEntity
8
1
62
256
6
ByLayer
370
18
48
1
60
1
100
AcDbLine
10
31.608084
20
-15.409209
30
0
11
34.648416
21
-13.615138
31
0
39
0
210
0
220
0
230
1
0
LINE
5
134
100
AcDbEntity
8
1
62
256
6
ByLayer
370
18
48
1
60
1
100
AcDbLine
10
34.648416
20
-13.615138
30
0
11
35.009162
21
-14.463165
31
0
39
0
210
0
220
0
230
1
0
LINE
5
135
100
AcDbEntity
8
1
62
256
6
ByLayer
370
18
48
1
60
1
100
AcDbLine
10
35.009162
20
-14.463165
30
0
11
31.608084
21
-15.409209
31
0
39
0
210
0
220
0
230
1
0
MTEXT
5
118
100
AcDbEntity
8
2
62
256
6
ByLayer
370
18
48
1
60
0
100
AcDbMText
10
32.158886
20
15.433438
30
0
210
0
220
0
230
1
1
%%c
40
3
41
0
44
1.084337
50
90
71
7
72
5
7
iso_b_vert
0
MTEXT
5
11B
100
AcDbEntity
8
2
62
256
6
ByLayer
370
18
48
1
60
0
100
AcDbMText
10
32.158886
20
21.41
30
0
210
0
220
0
230
1
1
\W0.7346;3.55
40
3
41
0
44
1.084337
50
90
71
7
72
5
7
iso_b_vert
0
MTEXT
5
124
100
AcDbEntity
8
SK2
62
256
6
ByLayer
370
18
48
1
60
0
100
AcDbMText
10
-45.841114
20
6.658437
30
0
210
0
220
0
230
1
1
%%c
40
3
41
0
44
1.084337
50
90
71
7
72
5
7
iso_b_vert
0
MTEXT
5
125
100
AcDbEntity
8
SK2
62
256
6
ByLayer
370
18
48
1
60
0
100
AcDbMText
10
-45.841114
20
12.635
30
0
210
0
220
0
230
1
1
\W0.5404;6
40
3
41
0
44
1.084337
50
90
71
7
72
5
7
iso_b_vert
0
MTEXT
5
12E
100
AcDbEntity
8
SK2
62
256
6
ByLayer
370
18
48
1
60
0
100
AcDbMText
10
38.957341
20
-2.114886
30
0
210
0
220
0
230
1
1
\W0.7071;140%%d
40
3
41
0
44
1.084337
50
0
71
7
72
5
7
iso_b_vert
0
MTEXT
5
137
100
AcDbEntity
8
SK6
62
256
6
ByLayer
370
18
48
1
60
0
100
AcDbMText
10
-30.341883
20
-77.114886
30
0
210
0
220
0
230
1
1
\W0.7307;860.1-0355-011A1-SD S2BM
40
3
41
0
44
1.084337
50
0
71
7
72
5
7
iso_b_vert
0
HATCH
5
11F
100
AcDbEntity
8
2
62
256
6
ByLayer
370
13
48
1
60
0
100
AcDbHatch
10
0
20
0
30
0
210
0
220
0
230
1
2
ANSI31
70
0
71
0
91
1
92
5
93
3
72
1
10
33.5
20
1.77500000000001
11
33.0392162584472
21
5.27499830744682
72
1
10
33.0392162584472
20
5.27499830744682
11
33.9607837415528
21
5.27500169255319
72
1
10
33.9607837415528
20
5.27500169255319
11
33.5
21
1.77500000000001
97
0
75
0
76
1
52
0
41
0.0062
77
0
78
1
53
45
43
0
44
0
45
-0.0139193969876572
46
0.0139193969876572
79
0
47
0
98
1
10
0
20
0
0
HATCH
5
123
100
AcDbEntity
8
2
62
256
6
ByLayer
370
13
48
1
60
0
100
AcDbHatch
10
0
20
0
30
0
210
0
220
0
230
1
2
ANSI31
70
0
71
0
91
1
92
5
93
3
72
1
10
33.5
20
-1.77499999999998
11
33.9607837415528
21
-5.27499830744679
72
1
10
33.9607837415528
20
-5.27499830744679
11
33.0392162584472
21
-5.27500169255316
72
1
10
33.0392162584472
20
-5.27500169255316
11
33.5
21
-1.77499999999998
97
0
75
0
76
1
52
0
41
0.0062
77
0
78
1
53
45
43
0
44
0
45
-0.0139193969876572
46
0.0139193969876572
79
0
47
0
98
1
10
0
20
0
0
HATCH
5
129
100
AcDbEntity
8
SK2
62
256
6
ByLayer
370
13
48
1
60
0
100
AcDbHatch
10
0
20
0
30
0
210
0
220
0
230
1
2
ANSI31
70
0
71
0
91
1
92
5
93
3
72
1
10
-44.5
20
3
11
-44.9607837415528
21
6.49999830744682
72
1
10
-44.9607837415528
20
6.49999830744682
11
-44.0392162584472
21
6.50000169255318
72
1
10
-44.0392162584472
20
6.50000169255318
11
-44.5
21
3
97
0
75
0
76
1
52
0
41
0.0062
77
0
78
1
53
45
43
0
44
0
45
-0.0139193969876572
46
0.0139193969876572
79
0
47
0
98
1
10
0
20
0
0
HATCH
5
12D
100
AcDbEntity
8
SK2
62
256
6
ByLayer
370
13
48
1
60
0
100
AcDbHatch
10
0
20
0
30
0
210
0
220
0
230
1
2
ANSI31
70
0
71
0
91
1
92
5
93
3
72
1
10
-44.5
20
-3
11
-44.0392162584472
21
-6.49999830744682
72
1
10
-44.0392162584472
20
-6.49999830744682
11
-44.9607837415528
21
-6.50000169255318
72
1
10
-44.9607837415528
20
-6.50000169255318
11
-44.5
21
-3
97
0
75
0
76
1
52
0
41
0.0062
77
0
78
1
53
45
43
0
44
0
45
-0.0139193969876572
46
0.0139193969876572
79
0
47
0
98
1
10
0
20
0
0
HATCH
5
132
100
AcDbEntity
8
SK2
62
256
6
ByLayer
370
13
48
1
60
0
100
AcDbHatch
10
0
20
0
30
0
210
0
220
0
230
1
2
ANSI31
70
0
71
0
91
1
92
5
93
3
72
1
10
31.60808387662
20
15.4092087941171
11
35.0091591023396
21
14.4631659210896
72
1
10
35.0091591023396
20
14.4631659210896
11
34.6484192517061
21
13.6151368024304
72
1
10
34.6484192517061
20
13.6151368024304
11
31.60808387662
21
15.4092087941171
97
0
75
0
76
1
52
0
41
0.0062
77
0
78
1
53
45
43
0
44
0
45
-0.0139193969876572
46
0.0139193969876572
79
0
47
0
98
1
10
0
20
0
0
HATCH
5
136
100
AcDbEntity
8
SK2
62
256
6
ByLayer
370
13
48
1
60
0
100
AcDbHatch
10
0
20
0
30
0
210
0
220
0
230
1
2
ANSI31
70
0
71
0
91
1
92
5
93
3
72
1
10
31.6080838766201
20
-15.4092087941171
11
34.6484161367261
21
-13.6151381275133
72
1
10
34.6484161367261
20
-13.6151381275133
11
35.0091622173197
21
-14.4631645960067
72
1
10
35.0091622173197
20
-14.4631645960067
11
31.6080838766201
21
-15.4092087941171
97
0
75
0
76
1
52
0
41
0.0062
77
0
78
1
53
45
43
0
44
0
45
-0.0139193969876572
46
0.0139193969876572
79
0
47
0
98
1
10
0
20
0
0
DIMENSION
5
13A
100
AcDbEntity
8
SK2
62
256
6
ByLayer
370
18
48
1
60
0
100
AcDbDimension
2
_U0
10
14.7
20
-19.000744
30
0
11
20.35
21
-19.000744
31
0
70
32
71
1
72
1
41
1
210
0
220
0
230
1
3
Standard
100
AcDbAlignedDimension
13
26
23
-1.775
33
0
14
14.7
24
-1.775
34
0
50
0
100
AcDbRotatedDimension
1001
ACAD
1000
DSTYLE
1002
{
1070
   371
1070
    13
1070
   372
1070
    13
1070
   170
1070
     0
1070
   144
1040
1.0
1070
   277
1070
     2
1070
   284
1070
     8
1070
   278
1070
    46
1070
   146
1040
1.166667
1070
   345
1005
16
1070
   347
1005
16
1070
   346
1005
16
1070
   344
1005
0
1070
   343
1005
0
1070
   172
1070
     1
1070
    76
1070
     0
1070
    75
1070
     0
1070
   282
1070
     0
1070
   281
1070
     0
1070
     3
1000

1070
    71
1070
     0
1070
    74
1070
     0
1070
   279
1070
     0
1070
   173
1070
     1
1070
   340
1005
119
1070
   271
1070
     2
1070
   272
1070
     2
1070
    77
1070
     1
1070
    73
1070
     1
1070
   171
1070
     3
1070
   274
1070
     4
1070
   177
1070
     2
1070
   176
1070
     2
1070
   178
1070
     2
1070
    78
1070
     8
1070
    48
1040
-0.1
1070
    41
1040
3.5
1070
   147
1040
1.5
1070
    42
1040
1.5875
1070
    44
1040
2.0
1070
   140
1040
3.0
1002
}
1001
ACAD_DSTYLE_DIM_LINETYPE
1070
   380
1005
16
1001
ACAD_DSTYLE_DIM_EXT1_LINETYPE
1070
   381
1005
16
1001
ACAD_DSTYLE_DIM_EXT2_LINETYPE
1070
   382
1005
16
0
DIMENSION
5
156
100
AcDbEntity
8
SK2
62
256
6
ByLayer
370
18
48
1
60
0
100
AcDbDimension
2
_U1
10
6
20
-29.000744
30
0
11
16
21
-29.000744
31
0
70
32
71
1
72
1
41
1
210
0
220
0
230
1
3
Standard
100
AcDbAlignedDimension
13
26
23
-1.775
33
0
14
6
24
-1.775
34
0
50
0
100
AcDbRotatedDimension
1001
ACAD
1000
DSTYLE
1002
{
1070
   371
1070
    13
1070
   372
1070
    13
1070
     3
1000

1070
   170
1070
     0
1070
   144
1040
1.0
1070
   277
1070
     2
1070
   284
1070
     8
1070
   278
1070
    46
1070
   146
1040
1.166667
1070
   345
1005
16
1070
   347
1005
16
1070
   346
1005
16
1070
   344
1005
0
1070
   343
1005
0
1070
   172
1070
     1
1070
    76
1070
     0
1070
    75
1070
     0
1070
   282
1070
     0
1070
   281
1070
     0
1070
    71
1070
     0
1070
    74
1070
     0
1070
   279
1070
     0
1070
   173
1070
     1
1070
   340
1005
119
1070
   271
1070
     2
1070
   272
1070
     2
1070
    77
1070
     1
1070
    73
1070
     1
1070
   171
1070
     3
1070
   274
1070
     4
1070
   177
1070
     2
1070
   176
1070
     2
1070
   178
1070
     2
1070
    78
1070
     8
1070
    48
1040
-0.1
1070
    41
1040
3.5
1070
   147
1040
1.5
1070
    42
1040
1.5875
1070
    44
1040
2.0
1070
   140
1040
3.0
1002
}
1001
ACAD_DSTYLE_DIM_LINETYPE
1070
   380
1005
16
1001
ACAD_DSTYLE_DIM_EXT1_LINETYPE
1070
   381
1005
16
1001
ACAD_DSTYLE_DIM_EXT2_LINETYPE
1070
   382
1005
16
0
DIMENSION
5
16E
100
AcDbEntity
8
SK2
62
256
6
ByLayer
370
18
48
1
60
0
100
AcDbDimension
2
_U2
10
0
20
-37.000744
30
0
11
-18
21
-37.000744
31
0
70
32
71
1
72
1
41
1
210
0
220
0
230
1
3
Standard
100
AcDbAlignedDimension
13
-36
23
-3
33
0
14
0
24
-3
34
0
50
0
100
AcDbRotatedDimension
1001
ACAD
1000
DSTYLE
1002
{
1070
   371
1070
    13
1070
   372
1070
    13
1070
     3
1000

1070
   170
1070
     0
1070
   144
1040
1.0
1070
   277
1070
     2
1070
   284
1070
     8
1070
   278
1070
    46
1070
   146
1040
1.166667
1070
   345
1005
16
1070
   347
1005
16
1070
   346
1005
16
1070
   344
1005
0
1070
   343
1005
0
1070
   172
1070
     1
1070
    76
1070
     0
1070
    75
1070
     0
1070
   282
1070
     0
1070
   281
1070
     0
1070
    71
1070
     0
1070
    74
1070
     0
1070
   279
1070
     0
1070
   173
1070
     1
1070
   340
1005
119
1070
   271
1070
     2
1070
   272
1070
     2
1070
    77
1070
     1
1070
    73
1070
     1
1070
   171
1070
     3
1070
   274
1070
     4
1070
   177
1070
     2
1070
   176
1070
     2
1070
   178
1070
     2
1070
    78
1070
     8
1070
    48
1040
-0.1
1070
    41
1040
3.5
1070
   147
1040
1.5
1070
    42
1040
1.5875
1070
    44
1040
2.0
1070
   140
1040
3.0
1002
}
1001
ACAD_DSTYLE_DIM_LINETYPE
1070
   380
1005
16
1001
ACAD_DSTYLE_DIM_EXT1_LINETYPE
1070
   381
1005
16
1001
ACAD_DSTYLE_DIM_EXT2_LINETYPE
1070
   382
1005
16
0
DIMENSION
5
186
100
AcDbEntity
8
SK2
62
256
6
ByLayer
370
18
48
1
60
0
100
AcDbDimension
2
_U3
10
26
20
-45.000744
30
0
11
-5
21
-45.000744
31
0
70
32
71
1
72
1
41
1
210
0
220
0
230
1
3
Standard
100
AcDbAlignedDimension
13
-36
23
-3
33
0
14
26
24
-1.775
34
0
50
0
100
AcDbRotatedDimension
1001
ACAD
1000
DSTYLE
1002
{
1070
   371
1070
    13
1070
   372
1070
    13
1070
     3
1000

1070
   170
1070
     0
1070
   144
1040
1.0
1070
   277
1070
     2
1070
   284
1070
     8
1070
   278
1070
    46
1070
   146
1040
1.166667
1070
   345
1005
16
1070
   347
1005
16
1070
   346
1005
16
1070
   344
1005
0
1070
   343
1005
0
1070
   172
1070
     1
1070
    76
1070
     0
1070
    75
1070
     0
1070
   282
1070
     0
1070
   281
1070
     0
1070
    71
1070
     0
1070
    74
1070
     0
1070
   279
1070
     0
1070
   173
1070
     1
1070
   340
1005
119
1070
   271
1070
     2
1070
   272
1070
     2
1070
    77
1070
     1
1070
    73
1070
     1
1070
   171
1070
     3
1070
   274
1070
     4
1070
   177
1070
     2
1070
   176
1070
     2
1070
   178
1070
     2
1070
    78
1070
     8
1070
    48
1040
-0.1
1070
    41
1040
3.5
1070
   147
1040
1.5
1070
    42
1040
1.5875
1070
    44
1040
2.0
1070
   140
1040
3.0
1002
}
1001
ACAD_DSTYLE_DIM_LINETYPE
1070
   380
1005
16
1001
ACAD_DSTYLE_DIM_EXT1_LINETYPE
1070
   381
1005
16
1001
ACAD_DSTYLE_DIM_EXT2_LINETYPE
1070
   382
1005
16
0
DIMENSION
5
19E
100
AcDbEntity
8
2
62
256
6
ByLayer
370
18
48
1
60
0
100
AcDbDimension
2
_U4
10
0
20
-37.000744
30
0
11
13
21
-37.000744
31
0
70
32
71
1
72
1
41
1
210
0
220
0
230
1
3
Standard
100
AcDbAlignedDimension
13
26
23
-1.775
33
0
14
0
24
-1.775
34
0
50
0
100
AcDbRotatedDimension
1001
ACAD
1000
DSTYLE
1002
{
1070
   371
1070
    13
1070
   372
1070
    13
1070
     3
1000

1070
   170
1070
     0
1070
   144
1040
1.0
1070
   277
1070
     2
1070
   284
1070
     8
1070
   278
1070
    46
1070
   146
1040
1.166667
1070
   345
1005
16
1070
   347
1005
16
1070
   346
1005
16
1070
   344
1005
0
1070
   343
1005
0
1070
   172
1070
     1
1070
    76
1070
     0
1070
    75
1070
     0
1070
   282
1070
     0
1070
   281
1070
     0
1070
    71
1070
     0
1070
    74
1070
     0
1070
   279
1070
     0
1070
   173
1070
     1
1070
   340
1005
119
1070
   271
1070
     2
1070
   272
1070
     2
1070
    77
1070
     1
1070
    73
1070
     1
1070
   171
1070
     3
1070
   274
1070
     4
1070
   177
1070
     2
1070
   176
1070
     2
1070
   178
1070
     2
1070
    78
1070
     8
1070
    48
1040
-0.1
1070
    41
1040
3.5
1070
   147
1040
1.5
1070
    42
1040
1.5875
1070
    44
1040
2.0
1070
   140
1040
3.0
1002
}
1001
ACAD_DSTYLE_DIM_LINETYPE
1070
   380
1005
16
1001
ACAD_DSTYLE_DIM_EXT1_LINETYPE
1070
   381
1005
16
1001
ACAD_DSTYLE_DIM_EXT2_LINETYPE
1070
   382
1005
16
0
ENDSEC
0
SECTION
2
OBJECTS
0
DICTIONARY
5
226
330
0
100
AcDbDictionary
280
0
281
1
3
ACAD_GROUP
350
227
3
ACAD_MLINESTYLE
350
228
0
DICTIONARY
5
227
330
0
100
AcDbDictionary
280
0
281
1
0
DICTIONARY
5
228
330
0
100
AcDbDictionary
280
0
281
1
3
Standard
350
18
0
MLINESTYLE
5
18
330
228
100
AcDbMlineStyle
2
Standard
70
0
3

62
256
51
90
52
90
71
2
49
-0.5
62
256
6
ByLayer
49
0.5
62
256
6
ByLayer
0
RASTERVARIABLES
5
214
330

100
AcDbRasterVariables
90
0
70
1
71
1
72
1
0
ENDSEC
0
EOF
