0
SECTION
2
HEADER
9
$ACADVER
1
AC1015
9
$DWGCODEPAGE
3
ANSI_1252
9
$HANDSEED
5
233
9
$ANGBASE
50
0
9
$ANGDIR
70
0
9
$ATTMODE
70
1
9
$AUNITS
70
0
9
$AUPREC
70
0
9
$CECOLOR
62
256
9
$CELTSCALE
40
1
9
$CELTYPE
6
ByLayer
9
$CELWEIGHT
370
18
9
$CLAYER
8
0
9
$CMLJUST
70
0
9
$CMLSCALE
40
1
9
$CMLSTYLE
2
Standard
9
$DIMSTYLE
2
Standard
9
$TEXTSIZE
40
0.2
9
$TEXTSTYLE
7
Standard
9
$LUNITS
70
2
9
$LUPREC
70
4
9
$EXTNAMES
290
1
9
$INSUNITS
70
4
9
$LTSCALE
40
1
9
$LWDISPLAY
290
1
9
$PDMODE
70
0
9
$PDSIZE
40
0
9
$PLINEGEN
70
0
0
ENDSEC
0
SECTION
2
CLASSES
0
CLASS
1
RASTERVARIABLES
2
AcDbRasterVariables
3
ISM
90
0
280
0
281
0
0
ENDSEC
0
SECTION
2
TABLES
0
TABLE
2
VPORT
5
229
100
AcDbSymbolTable
0
VPORT
5
1
100
AcDbSymbolTableRecord
100
AcDbViewportTableRecord
2
*Active
70
0
10
0
20
0
11
1
21
1
12
-1
22
1
13
0
23
0
14
0.5
24
0.5
15
10
25
10
16
0
26
0
36
1
17
0
27
0
37
0
0
ENDTAB
0
TABLE
2
LTYPE
5
22a
100
AcDbSymbolTable
0
LTYPE
5
14
100
AcDbSymbolTableRecord
100
AcDbLinetypeTableRecord
70
0
2
ByBlock
3

72
65
73
0
40
0
0
LTYPE
5
15
100
AcDbSymbolTableRecord
100
AcDbLinetypeTableRecord
70
0
2
ByLayer
3

72
65
73
0
40
0
0
LTYPE
5
16
100
AcDbSymbolTableRecord
100
AcDbLinetypeTableRecord
70
0
2
Continuous
3
Solid line
72
65
73
0
40
0
0
LTYPE
5
6E
100
AcDbSymbolTableRecord
100
AcDbLinetypeTableRecord
70
0
2
CENTER
3
____ _ ____ _ ____ _ ____
72
65
73
4
40
47.5
49
22
74
0
49
-8.5
74
0
49
8.5
74
0
49
-8.5
74
0
0
LTYPE
5
6F
100
AcDbSymbolTableRecord
100
AcDbLinetypeTableRecord
70
0
2
DASHED
3
__ __ __ __ __ __ __ __ __
72
65
73
2
40
25.72
49
12.86
74
0
49
-12.86
74
0
0
ENDTAB
0
TABLE
2
LAYER
5
22b
100
AcDbSymbolTable
0
LAYER
5
10
100
AcDbSymbolTableRecord
100
AcDbLayerTableRecord
2
0
70
0
62
7
6
Continuous
290
1
370
-3
390
0
0
LAYER
5
71
100
AcDbSymbolTableRecord
100
AcDbLayerTableRecord
2
80
70
0
62
-6
6
Continuous
290
1
370
-3
390
0
0
LAYER
5
73
100
AcDbSymbolTableRecord
100
AcDbLayerTableRecord
2
81
70
0
62
-3
6
Continuous
290
1
370
-3
390
0
0
LAYER
5
75
100
AcDbSymbolTableRecord
100
AcDbLayerTableRecord
2
1
70
0
62
4
6
Continuous
290
1
370
-3
390
0
0
LAYER
5
83
100
AcDbSymbolTableRecord
100
AcDbLayerTableRecord
2
4
70
0
62
-2
6
CENTER
290
1
370
-3
390
0
0
LAYER
5
9F
100
AcDbSymbolTableRecord
100
AcDbLayerTableRecord
2
2
70
0
62
7
6
Continuous
290
1
370
-3
390
0
0
LAYER
5
13D
100
AcDbSymbolTableRecord
100
AcDbLayerTableRecord
2
Defpoints
70
0
62
7
6
Continuous
290
0
370
-3
390
0
0
LAYER
5
215
100
AcDbSymbolTableRecord
100
AcDbLayerTableRecord
2
SK4
70
0
62
2
6
CENTER
290
1
370
-3
390
0
0
LAYER
5
216
100
AcDbSymbolTableRecord
100
AcDbLayerTableRecord
2
SK1
70
0
62
4
6
Continuous
290
1
370
-3
390
0
0
LAYER
5
217
100
AcDbSymbolTableRecord
100
AcDbLayerTableRecord
2
SK2
70
0
62
7
6
Continuous
290
1
370
-3
390
0
0
LAYER
5
218
100
AcDbSymbolTableRecord
100
AcDbLayerTableRecord
2
SK6
70
0
62
5
6
Continuous
290
1
370
-3
390
0
0
ENDTAB
0
TABLE
2
STYLE
5
22c
100
AcDbSymbolTable
0
STYLE
5
11
100
AcDbSymbolTableRecord
100
AcDbTextStyleTableRecord
2
Standard
3
txt
70
0
71
0
40
0
41
1
42
0
50
0
0
STYLE
5
119
100
AcDbSymbolTableRecord
100
AcDbTextStyleTableRecord
2
iso_b_vert
3
simplex.shx
70
0
71
0
40
0
41
1
42
0
50
0
0
STYLE
5
11A
100
AcDbSymbolTableRecord
100
AcDbTextStyleTableRecord
2
DWGDirectTextStyle
3
simplex
70
0
71
0
40
0
41
1
42
0
50
0
0
ENDTAB
0
TABLE
2
DIMSTYLE
5
22d
100
AcDbSymbolTable
100
AcDbDimStyleTable
0
DIMSTYLE
105
27
100
AcDbSymbolTableRecord
100
AcDbDimStyleTableRecord
2
Standard
70
0
3
<>
41
0.18
42
0.0625
44
0.18
140
0.18
147
0.09
73
0
74
0
77
1
271
2
275
0
278
52
280
0
340
11
0
ENDTAB
0
TABLE
2
VIEW
5
22e
100
AcDbSymbolTable
0
ENDTAB
0
TABLE
2
UCS
5
22f
100
AcDbSymbolTable
0
ENDTAB
0
TABLE
2
APPID
5
230
100
AcDbSymbolTable
0
APPID
5
12
100
AcDbSymbolTableRecord
100
AcDbRegAppTableRecord
2
ACAD
70
0
0
APPID
5
139
100
AcDbSymbolTableRecord
100
AcDbRegAppTableRecord
2
ACAD_DSTYLE_DIMBREAK
70
0
0
APPID
5
1D4
100
AcDbSymbolTableRecord
100
AcDbRegAppTableRecord
2
ACAD_DSTYLE_DIM_LINETYPE
70
0
0
APPID
5
1D5
100
AcDbSymbolTableRecord
100
AcDbRegAppTableRecord
2
ACAD_DSTYLE_DIM_EXT1_LINETYPE
70
0
0
APPID
5
1D6
100
AcDbSymbolTableRecord
100
AcDbRegAppTableRecord
2
ACAD_DSTYLE_DIM_EXT2_LINETYPE
70
0
0
APPID
5
211
100
AcDbSymbolTableRecord
100
AcDbRegAppTableRecord
2
ACAD_MLEADERVER
70
0
0
ENDTAB
0
TABLE
2
BLOCK_RECORD
5
231
100
AcDbSymbolTable
0
BLOCK_RECORD
5
1F
100
AcDbSymbolTableRecord
100
AcDbBlockTableRecord
2
*Model_Space
340
0
70
0
0
BLOCK_RECORD
5
1B
100
AcDbSymbolTableRecord
100
AcDbBlockTableRecord
2
*Paper_Space
340
0
70
0
0
BLOCK_RECORD
5
23
100
AcDbSymbolTableRecord
100
AcDbBlockTableRecord
2
*Paper_Space0
340
0
70
0
0
BLOCK_RECORD
5
13E
100
AcDbSymbolTableRecord
100
AcDbBlockTableRecord
2
*D1
340
0
70
0
0
BLOCK_RECORD
5
14B
100
AcDbSymbolTableRecord
100
AcDbBlockTableRecord
2
_U0
340
0
70
0
0
BLOCK_RECORD
5
159
100
AcDbSymbolTableRecord
100
AcDbBlockTableRecord
2
*D3
340
0
70
0
0
BLOCK_RECORD
5
165
100
AcDbSymbolTableRecord
100
AcDbBlockTableRecord
2
_U1
340
0
70
0
0
BLOCK_RECORD
5
171
100
AcDbSymbolTableRecord
100
AcDbBlockTableRecord
2
*D5
340
0
70
0
0
BLOCK_RECORD
5
17D
100
AcDbSymbolTableRecord
100
AcDbBlockTableRecord
2
_U2
340
0
70
0
0
BLOCK_RECORD
5
189
100
AcDbSymbolTableRecord
100
AcDbBlockTableRecord
2
*D7
340
0
70
0
0
BLOCK_RECORD
5
195
100
AcDbSymbolTableRecord
100
AcDbBlockTableRecord
2
_U3
340
0
70
0
0
BLOCK_RECORD
5
1A1
100
AcDbSymbolTableRecord
100
AcDbBlockTableRecord
2
*D9
340
0
70
0
0
BLOCK_RECORD
5
1AD
100
AcDbSymbolTableRecord
100
AcDbBlockTableRecord
2
_U4
340
0
70
0
0
ENDTAB
0
ENDSEC
0
SECTION
2
BLOCKS
0
BLOCK
5
20
100
AcDbEntity
8
0
100
AcDbBlockBegin
2
*Model_Space
70
0
10
0
20
0
30
0
3
*Model_Space
0
ENDBLK
5
21
100
AcDbEntity
8
0
100
AcDbBlockEnd
0
BLOCK
5
1C
100
AcDbEntity
8
0
100
AcDbBlockBegin
2
*Paper_Space
70
0
10
0
20
0
30
0
3
*Paper_Space
0
ENDBLK
5
1D
100
AcDbEntity
8
0
100
AcDbBlockEnd
0
BLOCK
5
24
100
AcDbEntity
8
0
100
AcDbBlockBegin
2
*Paper_Space0
70
0
10
0
20
0
30
0
3
*Paper_Space0
0
ENDBLK
5
25
100
AcDbEntity
8
0
100
AcDbBlockEnd
0
BLOCK
5
13F
100
AcDbEntity
8
0
100
AcDbBlockBegin
2
*D1
70
1
10
0
20
0
30
0
3
*D1
0
LINE
5
141
100
AcDbEntity
8
0
62
256
6
ByLayer
370
-2
48
1
60
0
100
AcDbLine
10
26
20
-3.3875
30
0
11
26
21
-21.029201
31
0
39
0
210
0
220
0
230
1
0
LINE
5
142
100
AcDbEntity
8
0
62
256
6
ByLayer
370
-2
48
1
60
0
100
AcDbLine
10
14.6
20
-3.3875
30
0
11
14.6
21
-21.029201
31
0
39
0
210
0
220
0
230
1
0
LINE
5
143
100
AcDbEntity
8
0
62
256
6
ByLayer
370
-2
48
1
60
0
100
AcDbLine
10
29.5
20
-19.029201
30
0
11
33
21
-19.029201
31
0
39
0
210
0
220
0
230
1
0
LINE
5
144
100
AcDbEntity
8
0
62
256
6
ByLayer
370
-2
48
1
60
0
100
AcDbLine
10
11.1
20
-19.029201
30
0
11
7.6
21
-19.029201
31
0
39
0
210
0
220
0
230
1
0
SOLID
5
145
100
AcDbEntity
8
0
62
256
6
ByLayer
370
-1
48
1
60
0
100
AcDbTrace
10
29.5
20
-18.445868
30
0
11
29.5
21
-19.612534
31
0
12
26
22
-19.029201
32
0
13
26
23
-19.029201
33
0
39
0
210
0
220
0
230
1
0
SOLID
5
146
100
AcDbEntity
8
0
62
256
6
ByLayer
370
-1
48
1
60
0
100
AcDbTrace
10
11.1
20
-19.612534
30
0
11
11.1
21
-18.445868
31
0
12
14.6
22
-19.029201
32
0
13
14.6
23
-19.029201
33
0
39
0
210
0
220
0
230
1
0
MTEXT
5
147
100
AcDbEntity
8
0
62
256
6
ByLayer
370
18
48
1
60
0
100
AcDbMText
10
20.3
20
-13.029201
30
0
210
0
220
0
230
1
1
\A1;11.4
40
3
41
0
44
1
50
0
71
5
72
5
7
iso_b_vert
0
POINT
5
148
100
AcDbEntity
8
Defpoints
62
0
6
ByLayer
370
-1
48
1
60
0
100
AcDbPoint
10
26
20
-1.8
30
0
39
0
210
0
220
0
230
1
50
360
0
POINT
5
149
100
AcDbEntity
8
Defpoints
62
0
6
ByLayer
370
-1
48
1
60
0
100
AcDbPoint
10
14.6
20
-1.8
30
0
39
0
210
0
220
0
230
1
50
360
0
POINT
5
14A
100
AcDbEntity
8
Defpoints
62
0
6
ByLayer
370
-1
48
1
60
0
100
AcDbPoint
10
14.6
20
-19.029201
30
0
39
0
210
0
220
0
230
1
50
360
0
ENDBLK
5
140
100
AcDbEntity
8
0
100
AcDbBlockEnd
0
BLOCK
5
154
100
AcDbEntity
8
0
100
AcDbBlockBegin
2
_U0
70
0
10
0
20
0
30
0
3
_U0
0
MTEXT
5
14C
100
AcDbEntity
8
SK2
62
256
6
ByLayer
370
18
48
1
60
0
100
AcDbMText
10
17.530486
20
-16.831586
30
0
210
0
220
0
230
1
1
\W0.5983;11.4
40
3
41
0
44
1.084337
50
0
71
7
72
5
7
iso_b_vert
0
MTEXT
5
14D
100
AcDbEntity
8
SK2
62
256
6
ByLayer
370
18
48
1
60
0
100
AcDbMText
10
15.430486
20
-16.831586
30
0
210
0
220
0
230
1
1
\W1.1313;{\H1.88x;(}
40
3
41
0
44
1.084337
50
0
71
7
72
5
7
iso_b_vert
0
MTEXT
5
14E
100
AcDbEntity
8
SK2
62
256
6
ByLayer
370
18
48
1
60
0
100
AcDbMText
10
23.387514
20
-16.831586
30
0
210
0
220
0
230
1
1
\W1.1313;{\H1.88x;)}
40
3
41
0
44
1.084337
50
0
71
7
72
5
7
iso_b_vert
0
LINE
5
14F
100
AcDbEntity
8
SK2
62
256
6
ByLayer
370
13
48
1
60
0
100
AcDbLine
10
26
20
-3.3875
30
0
11
26
21
-21.029201
31
0
39
0
210
0
220
0
230
1
0
LINE
5
150
100
AcDbEntity
8
SK2
62
256
6
ByLayer
370
13
48
1
60
0
100
AcDbLine
10
14.6
20
-3.3875
30
0
11
14.6
21
-21.029201
31
0
39
0
210
0
220
0
230
1
0
LINE
5
151
100
AcDbEntity
8
SK2
62
256
6
ByLayer
370
13
48
1
60
0
100
AcDbLine
10
26
20
-19.029201
30
0
11
14.6
21
-19.029201
31
0
39
0
210
0
220
0
230
1
0
SOLID
5
152
100
AcDbEntity
8
SK2
62
256
6
ByLayer
370
18
48
1
60
0
100
AcDbTrace
10
26
20
-19.029201
30
0
11
22.500002
21
-19.489985
31
0
12
22.499998
22
-18.568417
32
0
13
22.499998
23
-18.568417
33
0
39
0
210
0
220
0
230
1
0
SOLID
5
153
100
AcDbEntity
8
SK2
62
256
6
ByLayer
370
18
48
1
60
0
100
AcDbTrace
10
14.6
20
-19.029201
30
0
11
18.099998
21
-18.568417
31
0
12
18.100002
22
-19.489985
32
0
13
18.100002
23
-19.489985
33
0
39
0
210
0
220
0
230
1
0
ENDBLK
5
155
100
AcDbEntity
8
0
100
AcDbBlockEnd
0
BLOCK
5
15A
100
AcDbEntity
8
0
100
AcDbBlockBegin
2
*D3
70
1
10
0
20
0
30
0
3
*D3
0
LINE
5
15C
100
AcDbEntity
8
0
62
256
6
ByLayer
370
-2
48
1
60
0
100
AcDbLine
10
26
20
-3.3875
30
0
11
26
21
-31.029201
31
0
39
0
210
0
220
0
230
1
0
LINE
5
15D
100
AcDbEntity
8
0
62
256
6
ByLayer
370
-2
48
1
60
0
100
AcDbLine
10
6
20
-3.3875
30
0
11
6
21
-31.029201
31
0
39
0
210
0
220
0
230
1
0
LINE
5
15E
100
AcDbEntity
8
0
62
256
6
ByLayer
370
-2
48
1
60
0
100
AcDbLine
10
22.5
20
-29.029201
30
0
11
9.5
21
-29.029201
31
0
39
0
210
0
220
0
230
1
0
SOLID
5
15F
100
AcDbEntity
8
0
62
256
6
ByLayer
370
-1
48
1
60
0
100
AcDbTrace
10
22.5
20
-29.612534
30
0
11
22.5
21
-28.445868
31
0
12
26
22
-29.029201
32
0
13
26
23
-29.029201
33
0
39
0
210
0
220
0
230
1
0
SOLID
5
160
100
AcDbEntity
8
0
62
256
6
ByLayer
370
-1
48
1
60
0
100
AcDbTrace
10
9.5
20
-28.445868
30
0
11
9.5
21
-29.612534
31
0
12
6
22
-29.029201
32
0
13
6
23
-29.029201
33
0
39
0
210
0
220
0
230
1
0
MTEXT
5
161
100
AcDbEntity
8
0
62
256
6
ByLayer
370
18
48
1
60
0
100
AcDbMText
10
16
20
-23.029201
30
0
210
0
220
0
230
1
1
\A1;20
40
3
41
0
44
1
50
0
71
5
72
5
7
iso_b_vert
0
POINT
5
162
100
AcDbEntity
8
Defpoints
62
0
6
ByLayer
370
-1
48
1
60
0
100
AcDbPoint
10
26
20
-1.8
30
0
39
0
210
0
220
0
230
1
50
360
0
POINT
5
163
100
AcDbEntity
8
Defpoints
62
0
6
ByLayer
370
-1
48
1
60
0
100
AcDbPoint
10
6
20
-1.8
30
0
39
0
210
0
220
0
230
1
50
360
0
POINT
5
164
100
AcDbEntity
8
Defpoints
62
0
6
ByLayer
370
-1
48
1
60
0
100
AcDbPoint
10
6
20
-29.029201
30
0
39
0
210
0
220
0
230
1
50
360
0
ENDBLK
5
15B
100
AcDbEntity
8
0
100
AcDbBlockEnd
0
BLOCK
5
16C
100
AcDbEntity
8
0
100
AcDbBlockBegin
2
_U1
70
0
10
0
20
0
30
0
3
_U1
0
MTEXT
5
166
100
AcDbEntity
8
SK2
62
256
6
ByLayer
370
18
48
1
60
0
100
AcDbMText
10
14.367172
20
-28.144086
30
0
210
0
220
0
230
1
1
\W0.6740;20
40
3
41
0
44
1.084337
50
0
71
7
72
5
7
iso_b_vert
0
LINE
5
167
100
AcDbEntity
8
SK2
62
256
6
ByLayer
370
13
48
1
60
0
100
AcDbLine
10
26
20
-3.3875
30
0
11
26
21
-31.029201
31
0
39
0
210
0
220
0
230
1
0
LINE
5
168
100
AcDbEntity
8
SK2
62
256
6
ByLayer
370
13
48
1
60
0
100
AcDbLine
10
6
20
-3.3875
30
0
11
6
21
-31.029201
31
0
39
0
210
0
220
0
230
1
0
LINE
5
169
100
AcDbEntity
8
SK2
62
256
6
ByLayer
370
13
48
1
60
0
100
AcDbLine
10
26
20
-29.029201
30
0
11
6
21
-29.029201
31
0
39
0
210
0
220
0
230
1
0
SOLID
5
16A
100
AcDbEntity
8
SK2
62
256
6
ByLayer
370
18
48
1
60
0
100
AcDbTrace
10
26
20
-29.029201
30
0
11
22.500002
21
-29.489985
31
0
12
22.499998
22
-28.568417
32
0
13
22.499998
23
-28.568417
33
0
39
0
210
0
220
0
230
1
0
SOLID
5
16B
100
AcDbEntity
8
SK2
62
256
6
ByLayer
370
18
48
1
60
0
100
AcDbTrace
10
6
20
-29.029201
30
0
11
9.499998
21
-28.568417
31
0
12
9.500002
22
-29.489985
32
0
13
9.500002
23
-29.489985
33
0
39
0
210
0
220
0
230
1
0
ENDBLK
5
16D
100
AcDbEntity
8
0
100
AcDbBlockEnd
0
BLOCK
5
172
100
AcDbEntity
8
0
100
AcDbBlockBegin
2
*D5
70
1
10
0
20
0
30
0
3
*D5
0
LINE
5
174
100
AcDbEntity
8
0
62
256
6
ByLayer
370
-2
48
1
60
0
100
AcDbLine
10
-36
20
-4.5875
30
0
11
-36
21
-39.029201
31
0
39
0
210
0
220
0
230
1
0
LINE
5
175
100
AcDbEntity
8
0
62
256
6
ByLayer
370
-2
48
1
60
0
100
AcDbLine
10
0
20
-4.5875
30
0
11
0
21
-39.029201
31
0
39
0
210
0
220
0
230
1
0
LINE
5
176
100
AcDbEntity
8
0
62
256
6
ByLayer
370
-2
48
1
60
0
100
AcDbLine
10
-32.5
20
-37.029201
30
0
11
-3.5
21
-37.029201
31
0
39
0
210
0
220
0
230
1
0
SOLID
5
177
100
AcDbEntity
8
0
62
256
6
ByLayer
370
-1
48
1
60
0
100
AcDbTrace
10
-32.5
20
-36.445868
30
0
11
-32.5
21
-37.612534
31
0
12
-36
22
-37.029201
32
0
13
-36
23
-37.029201
33
0
39
0
210
0
220
0
230
1
0
SOLID
5
178
100
AcDbEntity
8
0
62
256
6
ByLayer
370
-1
48
1
60
0
100
AcDbTrace
10
-3.5
20
-37.612534
30
0
11
-3.5
21
-36.445868
31
0
12
0
22
-37.029201
32
0
13
0
23
-37.029201
33
0
39
0
210
0
220
0
230
1
0
MTEXT
5
179
100
AcDbEntity
8
0
62
256
6
ByLayer
370
18
48
1
60
0
100
AcDbMText
10
-18
20
-31.029201
30
0
210
0
220
0
230
1
1
\A1;36
40
3
41
0
44
1
50
0
71
5
72
5
7
iso_b_vert
0
POINT
5
17A
100
AcDbEntity
8
Defpoints
62
0
6
ByLayer
370
-1
48
1
60
0
100
AcDbPoint
10
-36
20
-3
30
0
39
0
210
0
220
0
230
1
50
360
0
POINT
5
17B
100
AcDbEntity
8
Defpoints
62
0
6
ByLayer
370
-1
48
1
60
0
100
AcDbPoint
10
0
20
-3
30
0
39
0
210
0
220
0
230
1
50
360
0
POINT
5
17C
100
AcDbEntity
8
Defpoints
62
0
6
ByLayer
370
-1
48
1
60
0
100
AcDbPoint
10
0
20
-37.029201
30
0
39
0
210
0
220
0
230
1
50
360
0
ENDBLK
5
173
100
AcDbEntity
8
0
100
AcDbBlockEnd
0
BLOCK
5
184
100
AcDbEntity
8
0
100
AcDbBlockBegin
2
_U2
70
0
10
0
20
0
30
0
3
_U2
0
MTEXT
5
17E
100
AcDbEntity
8
SK2
62
256
6
ByLayer
370
18
48
1
60
0
100
AcDbMText
10
-19.632828
20
-36.144086
30
0
210
0
220
0
230
1
1
\W0.6740;36
40
3
41
0
44
1.084337
50
0
71
7
72
5
7
iso_b_vert
0
LINE
5
17F
100
AcDbEntity
8
SK2
62
256
6
ByLayer
370
13
48
1
60
0
100
AcDbLine
10
-36
20
-4.5875
30
0
11
-36
21
-39.029201
31
0
39
0
210
0
220
0
230
1
0
LINE
5
180
100
AcDbEntity
8
SK2
62
256
6
ByLayer
370
13
48
1
60
0
100
AcDbLine
10
0
20
-4.5875
30
0
11
0
21
-39.029201
31
0
39
0
210
0
220
0
230
1
0
LINE
5
181
100
AcDbEntity
8
SK2
62
256
6
ByLayer
370
13
48
1
60
0
100
AcDbLine
10
-36
20
-37.029201
30
0
11
0
21
-37.029201
31
0
39
0
210
0
220
0
230
1
0
SOLID
5
182
100
AcDbEntity
8
SK2
62
256
6
ByLayer
370
18
48
1
60
0
100
AcDbTrace
10
-36
20
-37.029201
30
0
11
-32.500002
21
-36.568417
31
0
12
-32.499998
22
-37.489985
32
0
13
-32.499998
23
-37.489985
33
0
39
0
210
0
220
0
230
1
0
SOLID
5
183
100
AcDbEntity
8
SK2
62
256
6
ByLayer
370
18
48
1
60
0
100
AcDbTrace
10
0
20
-37.029201
30
0
11
-3.499998
21
-37.489985
31
0
12
-3.500002
22
-36.568417
32
0
13
-3.500002
23
-36.568417
33
0
39
0
210
0
220
0
230
1
0
ENDBLK
5
185
100
AcDbEntity
8
0
100
AcDbBlockEnd
0
BLOCK
5
18A
100
AcDbEntity
8
0
100
AcDbBlockBegin
2
*D7
70
1
10
0
20
0
30
0
3
*D7
0
LINE
5
18C
100
AcDbEntity
8
0
62
256
6
ByLayer
370
-2
48
1
60
0
100
AcDbLine
10
-36
20
-4.5875
30
0
11
-36
21
-47.029201
31
0
39
0
210
0
220
0
230
1
0
LINE
5
18D
100
AcDbEntity
8
0
62
256
6
ByLayer
370
-2
48
1
60
0
100
AcDbLine
10
26
20
-3.3875
30
0
11
26
21
-47.029201
31
0
39
0
210
0
220
0
230
1
0
LINE
5
18E
100
AcDbEntity
8
0
62
256
6
ByLayer
370
-2
48
1
60
0
100
AcDbLine
10
-32.5
20
-45.029201
30
0
11
22.5
21
-45.029201
31
0
39
0
210
0
220
0
230
1
0
SOLID
5
18F
100
AcDbEntity
8
0
62
256
6
ByLayer
370
-1
48
1
60
0
100
AcDbTrace
10
-32.5
20
-44.445868
30
0
11
-32.5
21
-45.612534
31
0
12
-36
22
-45.029201
32
0
13
-36
23
-45.029201
33
0
39
0
210
0
220
0
230
1
0
SOLID
5
190
100
AcDbEntity
8
0
62
256
6
ByLayer
370
-1
48
1
60
0
100
AcDbTrace
10
22.5
20
-45.612534
30
0
11
22.5
21
-44.445868
31
0
12
26
22
-45.029201
32
0
13
26
23
-45.029201
33
0
39
0
210
0
220
0
230
1
0
MTEXT
5
191
100
AcDbEntity
8
0
62
256
6
ByLayer
370
18
48
1
60
0
100
AcDbMText
10
-5
20
-39.029201
30
0
210
0
220
0
230
1
1
\A1;62
40
3
41
0
44
1
50
0
71
5
72
5
7
iso_b_vert
0
POINT
5
192
100
AcDbEntity
8
Defpoints
62
0
6
ByLayer
370
-1
48
1
60
0
100
AcDbPoint
10
-36
20
-3
30
0
39
0
210
0
220
0
230
1
50
360
0
POINT
5
193
100
AcDbEntity
8
Defpoints
62
0
6
ByLayer
370
-1
48
1
60
0
100
AcDbPoint
10
26
20
-1.8
30
0
39
0
210
0
220
0
230
1
50
360
0
POINT
5
194
100
AcDbEntity
8
Defpoints
62
0
6
ByLayer
370
-1
48
1
60
0
100
AcDbPoint
10
26
20
-45.029201
30
0
39
0
210
0
220
0
230
1
50
360
0
ENDBLK
5
18B
100
AcDbEntity
8
0
100
AcDbBlockEnd
0
BLOCK
5
19C
100
AcDbEntity
8
0
100
AcDbBlockBegin
2
_U3
70
0
10
0
20
0
30
0
3
_U3
0
MTEXT
5
196
100
AcDbEntity
8
SK2
62
256
6
ByLayer
370
18
48
1
60
0
100
AcDbMText
10
-6.632828
20
-44.144086
30
0
210
0
220
0
230
1
1
\W0.6740;62
40
3
41
0
44
1.084337
50
0
71
7
72
5
7
iso_b_vert
0
LINE
5
197
100
AcDbEntity
8
SK2
62
256
6
ByLayer
370
13
48
1
60
0
100
AcDbLine
10
-36
20
-4.5875
30
0
11
-36
21
-47.029201
31
0
39
0
210
0
220
0
230
1
0
LINE
5
198
100
AcDbEntity
8
SK2
62
256
6
ByLayer
370
13
48
1
60
0
100
AcDbLine
10
26
20
-3.3875
30
0
11
26
21
-47.029201
31
0
39
0
210
0
220
0
230
1
0
LINE
5
199
100
AcDbEntity
8
SK2
62
256
6
ByLayer
370
13
48
1
60
0
100
AcDbLine
10
-36
20
-45.029201
30
0
11
26
21
-45.029201
31
0
39
0
210
0
220
0
230
1
0
SOLID
5
19A
100
AcDbEntity
8
SK2
62
256
6
ByLayer
370
18
48
1
60
0
100
AcDbTrace
10
-36
20
-45.029201
30
0
11
-32.500002
21
-44.568417
31
0
12
-32.499998
22
-45.489985
32
0
13
-32.499998
23
-45.489985
33
0
39
0
210
0
220
0
230
1
0
SOLID
5
19B
100
AcDbEntity
8
SK2
62
256
6
ByLayer
370
18
48
1
60
0
100
AcDbTrace
10
26
20
-45.029201
30
0
11
22.500002
21
-45.489985
31
0
12
22.499998
22
-44.568417
32
0
13
22.499998
23
-44.568417
33
0
39
0
210
0
220
0
230
1
0
ENDBLK
5
19D
100
AcDbEntity
8
0
100
AcDbBlockEnd
0
BLOCK
5
1A2
100
AcDbEntity
8
0
100
AcDbBlockBegin
2
*D9
70
1
10
0
20
0
30
0
3
*D9
0
LINE
5
1A4
100
AcDbEntity
8
0
62
256
6
ByLayer
370
-2
48
1
60
0
100
AcDbLine
10
26
20
-3.3875
30
0
11
26
21
-39.029201
31
0
39
0
210
0
220
0
230
1
0
LINE
5
1A5
100
AcDbEntity
8
0
62
256
6
ByLayer
370
-2
48
1
60
0
100
AcDbLine
10
0
20
-3.3875
30
0
11
0
21
-39.029201
31
0
39
0
210
0
220
0
230
1
0
LINE
5
1A6
100
AcDbEntity
8
0
62
256
6
ByLayer
370
-2
48
1
60
0
100
AcDbLine
10
22.5
20
-37.029201
30
0
11
3.5
21
-37.029201
31
0
39
0
210
0
220
0
230
1
0
SOLID
5
1A7
100
AcDbEntity
8
0
62
256
6
ByLayer
370
-1
48
1
60
0
100
AcDbTrace
10
22.5
20
-37.612534
30
0
11
22.5
21
-36.445868
31
0
12
26
22
-37.029201
32
0
13
26
23
-37.029201
33
0
39
0
210
0
220
0
230
1
0
SOLID
5
1A8
100
AcDbEntity
8
0
62
256
6
ByLayer
370
-1
48
1
60
0
100
AcDbTrace
10
3.5
20
-36.445868
30
0
11
3.5
21
-37.612534
31
0
12
0
22
-37.029201
32
0
13
0
23
-37.029201
33
0
39
0
210
0
220
0
230
1
0
MTEXT
5
1A9
100
AcDbEntity
8
0
62
256
6
ByLayer
370
18
48
1
60
0
100
AcDbMText
10
13
20
-31.029201
30
0
210
0
220
0
230
1
1
\A1;26
40
3
41
0
44
1
50
0
71
5
72
5
7
iso_b_vert
0
POINT
5
1AA
100
AcDbEntity
8
Defpoints
62
0
6
ByLayer
370
-1
48
1
60
0
100
AcDbPoint
10
26
20
-1.8
30
0
39
0
210
0
220
0
230
1
50
360
0
POINT
5
1AB
100
AcDbEntity
8
Defpoints
62
0
6
ByLayer
370
-1
48
1
60
0
100
AcDbPoint
10
0
20
-1.8
30
0
39
0
210
0
220
0
230
1
50
360
0
POINT
5
1AC
100
AcDbEntity
8
Defpoints
62
0
6
ByLayer
370
-1
48
1
60
0
100
AcDbPoint
10
0
20
-37.029201
30
0
39
0
210
0
220
0
230
1
50
360
0
ENDBLK
5
1A3
100
AcDbEntity
8
0
100
AcDbBlockEnd
0
BLOCK
5
1B4
100
AcDbEntity
8
0
100
AcDbBlockBegin
2
_U4
70
0
10
0
20
0
30
0
3
_U4
0
MTEXT
5
1AE
100
AcDbEntity
8
2
62
256
6
ByLayer
370
18
48
1
60
0
100
AcDbMText
10
11.367172
20
-36.144086
30
0
210
0
220
0
230
1
1
\W0.6740;26
40
3
41
0
44
1.084337
50
0
71
7
72
5
7
iso_b_vert
0
LINE
5
1AF
100
AcDbEntity
8
2
62
256
6
ByLayer
370
13
48
1
60
0
100
AcDbLine
10
26
20
-3.3875
30
0
11
26
21
-39.029201
31
0
39
0
210
0
220
0
230
1
0
LINE
5
1B0
100
AcDbEntity
8
2
62
256
6
ByLayer
370
13
48
1
60
0
100
AcDbLine
10
0
20
-3.3875
30
0
11
0
21
-39.029201
31
0
39
0
210
0
220
0
230
1
0
LINE
5
1B1
100
AcDbEntity
8
2
62
256
6
ByLayer
370
13
48
1
60
0
100
AcDbLine
10
26
20
-37.029201
30
0
11
0
21
-37.029201
31
0
39
0
210
0
220
0
230
1
0
SOLID
5
1B2
100
AcDbEntity
8
2
62
256
6
ByLayer
370
18
48
1
60
0
100
AcDbTrace
10
26
20
-37.029201
30
0
11
22.500002
21
-37.489985
31
0
12
22.499998
22
-36.568417
32
0
13
22.499998
23
-36.568417
33
0
39
0
210
0
220
0
230
1
0
SOLID
5
1B3
100
AcDbEntity
8
2
62
256
6
ByLayer
370
18
48
1
60
0
100
AcDbTrace
10
0
20
-37.029201
30
0
11
3.499998
21
-36.568417
31
0
12
3.500002
22
-37.489985
32
0
13
3.500002
23
-37.489985
33
0
39
0
210
0
220
0
230
1
0
ENDBLK
5
1B5
100
AcDbEntity
8
0
100
AcDbBlockEnd
0
ENDSEC
0
SECTION
2
ENTITIES
0
ARC
5
BA
100
AcDbEntity
8
1
62
256
6
ByLayer
370
18
48
1
60
0
100
AcDbCircle
39
0
10
1.559622
20
-2.557182
30
0
40
0.799999999999992
210
0
220
0
230
1
100
AcDbArc
50
89.896868
51
167.100653
0
ARC
5
BB
100
AcDbEntity
8
1
62
256
6
ByLayer
370
18
48
1
60
0
100
AcDbCircle
39
0
10
1.559622
20
2.557182
30
0
40
0.799999999999992
210
0
220
0
230
1
100
AcDbArc
50
192.899347
51
270.103132
0
ARC
5
BC
100
AcDbEntity
8
1
62
256
6
ByLayer
370
18
48
1
60
0
100
AcDbCircle
39
0
10
0
20
-2.2
30
0
40
0.799999999999999
210
0
220
0
230
1
100
AcDbArc
50
270
51
347.100653
0
ARC
5
BD
100
AcDbEntity
8
1
62
256
6
ByLayer
370
18
48
1
60
0
100
AcDbCircle
39
0
10
0
20
2.2
30
0
40
0.799999999999999
210
0
220
0
230
1
100
AcDbArc
50
12.899347
51
90
0
ARC
5
BE
100
AcDbEntity
8
SK2
62
256
6
ByLayer
370
13
48
1
60
0
100
AcDbCircle
39
0
10
26
20
0
30
0
40
16.4458580897789
210
0
220
0
230
1
100
AcDbArc
50
10.51056
51
70.004116
0
ARC
5
BF
100
AcDbEntity
8
SK2
62
256
6
ByLayer
370
13
48
1
60
0
100
AcDbCircle
39
0
10
26
20
0
30
0
40
16.4458580897789
210
0
220
0
230
1
100
AcDbArc
50
289.995884
51
349.48944
0
ELLIPSE
5
C0
100
AcDbEntity
8
1
62
256
6
ByLayer
370
13
48
1
60
0
100
AcDbEllipse
10
14.653799
20
-1.318143
30
0
11
-0.000795805496044023
21
0.00996828438661669
31
0
210
0
220
0
230
1
40
0.640724
41
0.796021733088594
42
2.09765011835157
0
ELLIPSE
5
C1
100
AcDbEntity
8
1
62
256
6
ByLayer
370
13
48
1
60
0
100
AcDbEllipse
10
14.700248
20
-1.325718
30
0
11
-0.00350061012635162
21
-0.00936726901200582
31
0
210
0
220
0
230
1
40
0.394855
41
-2.39162054488737
42
-0.823489090537993
0
ELLIPSE
5
C2
100
AcDbEntity
8
1
62
256
6
ByLayer
370
13
48
1
60
0
100
AcDbEllipse
10
14.700784
20
0.65114
30
0
11
5.42932014091605E-05
21
0.00999985261132787
31
0
210
0
220
0
230
1
40
0.01305
41
-1.96306827313607
42
-0.390005679057117
0
ELLIPSE
5
C3
100
AcDbEntity
8
1
62
256
6
ByLayer
370
18
48
1
60
0
100
AcDbEllipse
10
14.746212
20
0.639424
30
0
11
-0.00484032692413263
21
-0.00875049914390698
31
0
210
0
220
0
230
1
40
0.20017
41
1.24071480479192
42
2.80245083958506
0
POINT
5
70
100
AcDbEntity
8
80
62
256
6
ByLayer
370
18
48
1
60
0
100
AcDbPoint
10
0
20
0
30
0
39
0
210
0
220
0
230
1
50
360
0
POINT
5
72
100
AcDbEntity
8
81
62
256
6
ByLayer
370
18
48
1
60
0
100
AcDbPoint
10
26
20
0
30
0
39
0
210
0
220
0
230
1
50
360
0
POINT
5
74
100
AcDbEntity
8
1
62
256
6
ByLayer
370
18
48
1
60
0
100
AcDbPoint
10
-224.952071
20
-200
30
0
39
0
210
0
220
0
230
1
50
360
0
POINT
5
76
100
AcDbEntity
8
1
62
256
6
ByLayer
370
13
48
1
60
1
100
AcDbPoint
10
-37.5
20
0
30
0
39
0
210
0
220
0
230
1
50
360
0
POINT
5
77
100
AcDbEntity
8
1
62
256
6
ByLayer
370
13
48
1
60
1
100
AcDbPoint
10
26.834434
20
0
30
0
39
0
210
0
220
0
230
1
50
360
0
POINT
5
78
100
AcDbEntity
8
1
62
256
6
ByLayer
370
18
48
1
60
1
100
AcDbPoint
10
26
20
-1.8
30
0
39
0
210
0
220
0
230
1
50
360
0
POINT
5
79
100
AcDbEntity
8
1
62
256
6
ByLayer
370
18
48
1
60
1
100
AcDbPoint
10
14.6
20
-1.8
30
0
39
0
210
0
220
0
230
1
50
360
0
POINT
5
7A
100
AcDbEntity
8
1
62
256
6
ByLayer
370
18
48
1
60
1
100
AcDbPoint
10
26
20
-1.8
30
0
39
0
210
0
220
0
230
1
50
360
0
POINT
5
7B
100
AcDbEntity
8
1
62
256
6
ByLayer
370
18
48
1
60
1
100
AcDbPoint
10
6
20
-1.8
30
0
39
0
210
0
220
0
230
1
50
360
0
POINT
5
7C
100
AcDbEntity
8
1
62
256
6
ByLayer
370
18
48
1
60
1
100
AcDbPoint
10
-36
20
-3
30
0
39
0
210
0
220
0
230
1
50
360
0
POINT
5
7D
100
AcDbEntity
8
1
62
256
6
ByLayer
370
18
48
1
60
1
100
AcDbPoint
10
0
20
-3
30
0
39
0
210
0
220
0
230
1
50
360
0
POINT
5
7E
100
AcDbEntity
8
1
62
256
6
ByLayer
370
18
48
1
60
1
100
AcDbPoint
10
-36
20
-3
30
0
39
0
210
0
220
0
230
1
50
360
0
POINT
5
7F
100
AcDbEntity
8
1
62
256
6
ByLayer
370
18
48
1
60
1
100
AcDbPoint
10
26
20
-1.8
30
0
39
0
210
0
220
0
230
1
50
360
0
POINT
5
80
100
AcDbEntity
8
1
62
256
6
ByLayer
370
18
48
1
60
1
100
AcDbPoint
10
26
20
-1.8
30
0
39
0
210
0
220
0
230
1
50
360
0
POINT
5
81
100
AcDbEntity
8
1
62
256
6
ByLayer
370
18
48
1
60
1
100
AcDbPoint
10
0
20
-1.8
30
0
39
0
210
0
220
0
230
1
50
360
0
SPLINE
5
C4
100
AcDbEntity
8
1
62
256
6
ByLayer
370
18
48
1
60
0
100
AcDbSpline
70
4
71
3
72
8
73
4
40
0
40
0
40
0
40
0
40
1
40
1
40
1
40
1
41
1
10
25.8042359513278
20
0.630996910987591
30
0
41
1
10
25.8554024341949
20
0.488527798229882
30
0
41
1
10
25.9061153344688
20
0.345898920085432
30
0
41
1
10
25.9563648136479
20
0.203106811139008
30
0
0
SPLINE
5
C5
100
AcDbEntity
8
1
62
256
6
ByLayer
370
18
48
1
60
0
100
AcDbSpline
70
4
71
3
72
8
73
4
40
0
40
0
40
0
40
0
40
1
40
1
40
1
40
1
41
1
10
25.9563648136478
20
0.20310681113898
30
0
41
1
10
25.9703312341581
20
0.163418944286008
30
0
41
1
10
25.9845842031853
20
0.123894172351129
30
0
41
1
10
25.9991286130309
20
0.0845288989044093
30
0
0
SPLINE
5
C6
100
AcDbEntity
8
1
62
256
6
ByLayer
370
18
48
1
60
0
100
AcDbSpline
70
4
71
3
72
18
73
14
40
0
40
0
40
0
40
0
40
0.500000000000034
40
0.500000000000034
40
0.750000000000087
40
0.750000000000087
40
0.87500000000008
40
0.87500000000008
40
0.937500000000074
40
0.968750000000037
40
0.984375000000019
40
0.984375000000019
40
1
40
1
40
1
40
1
41
1
10
25.3106492007395
20
1.7999300947105
30
0
41
1
10
25.3212778951406
20
1.78266520586109
30
0
41
1
10
25.3319456564383
20
1.76522742169482
30
0
41
1
10
25.3479569061389
20
1.73892352829799
30
0
41
1
10
25.3532898890696
20
1.73014314636757
30
0
41
1
10
25.3612513011076
20
1.7170176129724
30
0
41
1
10
25.3638963291915
20
1.71265484316515
30
0
41
1
10
25.3678568431874
20
1.70611601917727
30
0
41
1
10
25.3698404419378
20
1.70283759020242
30
0
41
1
10
25.3721890373922
20
1.69893890764519
30
0
41
1
10
25.3732043028794
20
1.69724934198925
30
0
41
1
10
25.373883168242
20
1.69611862325493
30
0
41
1
10
25.3742561216937
20
1.69548927149594
30
0
41
1
10
25.374525560907
20
1.69506004084633
30
0
0
SPLINE
5
C7
100
AcDbEntity
8
1
62
256
6
ByLayer
370
18
48
1
60
0
100
AcDbSpline
70
4
71
3
72
10
73
6
40
0
40
0
40
0
40
0
40
0.458362082707571
40
0.458362082707571
40
1
40
1
40
1
40
1
41
1
10
25.5935017805739
20
-0.307890368525563
30
0
41
1
10
25.6135476588092
20
-0.320009106137633
30
0
41
1
10
25.6339818362151
20
-0.332325643892005
30
0
41
1
10
25.679155906241
20
-0.35950945272711
30
0
41
1
10
25.7040093252577
20
-0.374436705455906
30
0
41
1
10
25.7291456041932
20
-0.38954345058616
30
0
0
SPLINE
5
C8
100
AcDbEntity
8
1
62
256
6
ByLayer
370
13
48
1
60
0
100
AcDbSpline
70
4
71
3
72
14
73
10
40
0
40
0
40
0
40
0
40
0.25
40
0.25
40
0.5
40
0.5
40
0.75
40
0.75
40
1
40
1
40
1
40
1
41
1
10
14.648678812529
20
-1.32359608799206
30
0
41
1
10
14.6412360163684
20
-1.32384938310369
30
0
41
1
10
14.6348211684341
20
-1.3241297961473
30
0
41
1
10
14.6235694235599
20
-1.32470988961052
30
0
41
1
10
14.6187337950312
20
-1.32501175385303
30
0
41
1
10
14.6108517693472
20
-1.32558823276438
30
0
41
1
10
14.6077341611499
20
-1.32586646885034
30
0
41
1
10
14.6029911359654
20
-1.3263927158026
30
0
41
1
10
14.6013850320354
20
-1.32664000089082
30
0
41
1
10
14.6005563347674
20
-1.32686269953589
30
0
0
SPLINE
5
C9
100
AcDbEntity
8
1
62
256
6
ByLayer
370
18
48
1
60
0
100
AcDbSpline
70
4
71
3
72
8
73
4
40
0
40
0
40
0
40
0
40
1
40
1
40
1
40
1
41
1
10
25.3469226490147
20
1.71215766852254
30
0
41
1
10
25.2969411753344
20
1.70921132016659
30
0
41
1
10
25.2470245092063
20
1.70555241838611
30
0
41
1
10
25.1971658750879
20
1.70108962391745
30
0
0
SPLINE
5
CA
100
AcDbEntity
8
1
62
256
6
ByLayer
370
18
48
1
60
0
100
AcDbSpline
70
4
71
3
72
20
73
16
40
0
40
0
40
0
40
0
40
0.0724997795245746
40
0.0724997795245746
40
0.227083149603808
40
0.227083149603808
40
0.304374834643424
40
0.304374834643424
40
0.38166651968304
40
0.38166651968304
40
0.53624988976228
40
0.53624988976228
40
0.69083325984152
40
0.69083325984152
40
1
40
1
40
1
40
1
41
1
10
16.854868743942
20
-1.69931811065172
30
0
41
1
10
16.8029690310637
20
-1.7017534494619
30
0
41
1
10
16.7510363128039
20
-1.70334465850721
30
0
41
1
10
16.5882158792482
20
-1.7056003446223
30
0
41
1
10
16.4771343029327
20
-1.70332837592218
30
0
41
1
10
16.3097959862744
20
-1.69417453958738
30
0
41
1
10
16.2538914385073
20
-1.69016028775343
30
0
41
1
10
16.1418088525726
20
-1.6801809425973
30
0
41
1
10
16.0858788551667
20
-1.67423810884492
30
0
41
1
10
15.9183589942712
20
-1.65358186896015
30
0
41
1
10
15.8070364529383
20
-1.63601871257185
30
0
41
1
10
15.5848619175448
20
-1.59362682498281
30
0
41
1
10
15.4740004922112
20
-1.56889438857991
30
0
41
1
10
15.14125391001
20
-1.48440843298513
30
0
41
1
10
14.9191287277065
20
-1.41423324188568
30
0
41
1
10
14.6951559814124
20
-1.33107050142127
30
0
0
SPLINE
5
CB
100
AcDbEntity
8
1
62
256
6
ByLayer
370
13
48
1
60
0
100
AcDbSpline
70
4
71
3
72
10
73
6
40
0
40
0
40
0
40
0
40
0.5
40
0.5
40
1
40
1
40
1
40
1
41
1
10
14.6951559814124
20
-1.33107050142127
30
0
41
1
10
14.6870405158361
20
-1.32805716891258
30
0
41
1
10
14.6790953432507
20
-1.32593635820919
30
0
41
1
10
14.6635595277197
20
-1.32340732969672
30
0
41
1
10
14.6558962472314
20
-1.3230072266806
30
0
41
1
10
14.648678812529
20
-1.32359608799206
30
0
0
SPLINE
5
CC
100
AcDbEntity
8
1
62
256
6
ByLayer
370
13
48
1
60
0
100
AcDbSpline
70
4
71
3
72
8
73
4
40
0
40
0
40
0
40
0
40
1
40
1
40
1
40
1
41
1
10
14.6471868086154
20
-1.37476509213363
30
0
41
1
10
14.6476763099864
20
-1.35771316524219
30
0
41
1
10
14.6481736111643
20
-1.34065693742414
30
0
41
1
10
14.648678812529
20
-1.32359608799197
30
0
0
SPLINE
5
CD
100
AcDbEntity
8
1
62
256
6
ByLayer
370
13
48
1
60
0
100
AcDbSpline
70
4
71
3
72
12
73
8
40
0
40
0
40
0
40
0
40
0.500000000000189
40
0.500000000000189
40
0.750000000000094
40
0.750000000000094
40
1
40
1
40
1
40
1
41
1
10
14.751358867341
20
0.647354117995064
30
0
41
1
10
14.7437203406757
20
0.651580999253071
30
0
41
1
10
14.7356506137781
20
0.654775911209441
30
0
41
1
10
14.7229176848163
20
0.658073590720278
30
0
41
1
10
14.7185435297265
20
0.658921526244768
30
0
41
1
10
14.7097608159612
20
0.66006255504243
30
0
41
1
10
14.7053381500546
20
0.660362309048907
30
0
41
1
10
14.7008837921398
20
0.66038818699127
30
0
0
SPLINE
5
CE
100
AcDbEntity
8
1
62
256
6
ByLayer
370
13
48
1
60
0
100
AcDbSpline
70
4
71
3
72
24
73
20
40
0
40
0
40
0
40
0
40
0.124999999999895
40
0.124999999999895
40
0.187499999999903
40
0.187499999999903
40
0.24999999999991
40
0.24999999999991
40
0.374999999999925
40
0.374999999999925
40
0.49999999999994
40
0.49999999999994
40
0.624999999999955
40
0.624999999999955
40
0.74999999999997
40
0.74999999999997
40
0.874999999999985
40
0.874999999999985
40
1
40
1
40
1
40
1
41
1
10
14.7008837921398
20
0.66038818699127
30
0
41
1
10
14.6937655722835
20
0.660429540848895
30
0
41
1
10
14.686814762563
20
0.660032960382949
30
0
41
1
10
14.6766203521518
20
0.658829656954453
30
0
41
1
10
14.6732430496568
20
0.658321774001223
30
0
41
1
10
14.6667389867735
20
0.657134362676317
30
0
41
1
10
14.6635934336524
20
0.6564537954782
30
0
41
1
10
14.6544501724537
20
0.654171214270491
30
0
41
1
10
14.6487085255905
20
0.652309176725879
30
0
41
1
10
14.6383585752852
20
0.648177973179997
30
0
41
1
10
14.6336849048806
20
0.645896812401304
30
0
41
1
10
14.6252032652003
20
0.640953604711683
30
0
41
1
10
14.6214372816036
20
0.638307914691779
30
0
41
1
10
14.6149053136962
20
0.632848122255183
30
0
41
1
10
14.6121048700322
20
0.630013217038027
30
0
41
1
10
14.6073510381952
20
0.62414684549185
30
0
41
1
10
14.6053926730072
20
0.62109700914084
30
0
41
1
10
14.6023730762651
20
0.614937378418915
30
0
41
1
10
14.6012988275887
20
0.611818161268161
30
0
41
1
10
14.6006439779791
20
0.608660101214412
30
0
0
SPLINE
5
CF
100
AcDbEntity
8
1
62
256
6
ByLayer
370
18
48
1
60
0
100
AcDbSpline
70
4
71
3
72
28
73
24
40
0
40
0
40
0
40
0
40
0.125000000000018
40
0.125000000000018
40
0.187500000000021
40
0.187500000000021
40
0.250000000000024
40
0.250000000000024
40
0.375000000000018
40
0.375000000000018
40
0.500000000000011
40
0.500000000000011
40
0.562500000000008
40
0.562500000000008
40
0.625000000000005
40
0.625000000000005
40
0.749999999999999
40
0.749999999999999
40
0.812500000000002
40
0.812500000000002
40
0.875000000000006
40
0.875000000000006
40
1
40
1
40
1
40
1
41
1
10
25.9991286130208
20
0.0845288989079904
30
0
41
1
10
25.990107543989
20
0.0582531652412683
30
0
41
1
10
25.9805274351414
20
0.0322431102968608
30
0
41
1
10
25.9653388269072
20
-0.0063756188071409
30
0
41
1
10
25.9601391304474
20
-0.0191822672820479
30
0
41
1
10
25.9494637833093
20
-0.0446606403435794
30
0
41
1
10
25.9439738995604
20
-0.0573615138271464
30
0
41
1
10
25.9273543007411
20
-0.0946565218945921
30
0
41
1
10
25.9160010047013
20
-0.118633370724495
30
0
41
1
10
25.8928050375341
20
-0.164818763368231
30
0
41
1
10
25.8809625183538
20
-0.187028112547466
30
0
41
1
10
25.8628402420652
20
-0.218934550575142
30
0
41
1
10
25.8567185205686
20
-0.229366145482089
30
0
41
1
10
25.8445755927823
20
-0.249371126351662
30
0
41
1
10
25.8385313969952
20
-0.258987280080021
30
0
41
1
10
25.8204821546588
20
-0.286689538009227
30
0
41
1
10
25.8085609481237
20
-0.303636093691892
30
0
41
1
10
25.7908439886498
20
-0.326707128234489
30
0
41
1
10
25.7849656909863
20
-0.334004396109606
30
0
41
1
10
25.7732617577727
20
-0.347780064771285
30
0
41
1
10
25.7674872331832
20
-0.354196050114979
30
0
41
1
10
25.7505286675408
20
-0.371892335991277
30
0
41
1
10
25.739645431204
20
-0.381704038259926
30
0
41
1
10
25.7291456041929
20
-0.389543450586444
30
0
0
SPLINE
5
D0
100
AcDbEntity
8
1
62
256
6
ByLayer
370
18
48
1
60
0
100
AcDbSpline
70
4
71
3
72
70
73
66
40
0
40
0
40
0
40
0
40
0.015625
40
0.015625
40
0.0312499999999999
40
0.0312499999999999
40
0.0624999999999999
40
0.0624999999999999
40
0.0937499999999999
40
0.0937499999999999
40
0.125
40
0.125
40
0.15625
40
0.15625
40
0.1875
40
0.1875
40
0.21875
40
0.21875
40
0.25
40
0.25
40
0.28125
40
0.28125
40
0.3125
40
0.3125
40
0.34375
40
0.34375
40
0.375
40
0.40625
40
0.40625
40
0.4375
40
0.4375
40
0.5
40
0.5
40
0.53125
40
0.53125
40
0.5625
40
0.59375
40
0.59375
40
0.625
40
0.625
40
0.6875
40
0.6875
40
0.71875
40
0.71875
40
0.75
40
0.75
40
0.78125
40
0.78125
40
0.8125
40
0.8125
40
0.828124999999998
40
0.828124999999998
40
0.843749999999996
40
0.843749999999996
40
0.874999999999997
40
0.874999999999997
40
0.890624999999998
40
0.890624999999998
40
0.906249999999998
40
0.906249999999998
40
0.937499999999999
40
0.937499999999999
40
0.968749999999999
40
0.968749999999999
40
1
40
1
40
1
40
1
41
1
10
25.7291456041931
20
-0.389543450586331
30
0
41
1
10
25.7286036631142
20
-0.394524973818704
30
0
41
1
10
25.7279504636842
20
-0.399671714821778
30
0
41
1
10
25.7264506328053
20
-0.410054959380915
30
0
41
1
10
25.7256027836224
20
-0.415309796879654
30
0
41
1
10
25.7227729496575
20
-0.431261620178987
30
0
41
1
10
25.7205060152041
20
-0.442144915028876
30
0
41
1
10
25.7152184784365
20
-0.464420659738892
30
0
41
1
10
25.712180804759
20
-0.475849262611661
30
0
41
1
10
25.7056032763248
20
-0.498360307146214
30
0
41
1
10
25.7020403043411
20
-0.509550352206929
30
0
41
1
10
25.694402760281
20
-0.531809784513428
30
0
41
1
10
25.6903159150645
20
-0.542897170291639
30
0
41
1
10
25.6819248742437
20
-0.564264205005145
30
0
41
1
10
25.6775900517028
20
-0.574637412361966
30
0
41
1
10
25.6686701164636
20
-0.594798670963769
30
0
41
1
10
25.6640657460019
20
-0.604618527577628
30
0
41
1
10
25.6548696386277
20
-0.62318469550894
30
0
41
1
10
25.6502498337087
20
-0.631998386085002
30
0
41
1
10
25.640975694033
20
-0.648738506509886
30
0
41
1
10
25.6362981056796
20
-0.656700894057565
30
0
41
1
10
25.6270335025434
20
-0.671544553152245
30
0
41
1
10
25.6224577930338
20
-0.678413338119384
30
0
41
1
10
25.6134140651818
20
-0.691085195773468
30
0
41
1
10
25.6089367969522
20
-0.696893834260976
30
0
41
1
10
25.6002718562969
20
-0.707228232125516
30
0
41
1
10
25.5918443620811
20
-0.716356665672976
30
0
41
1
10
25.5838615766456
20
-0.723142534301729
30
0
41
1
10
25.5760942266601
20
-0.728734485102677
30
0
41
1
10
25.5723061270229
20
-0.730932185360928
30
0
41
1
10
25.5615319155355
20
-0.735537010995017
30
0
41
1
10
25.5550346741378
20
-0.736070107991964
30
0
41
1
10
25.5462708147078
20
-0.732889759739237
30
0
41
1
10
25.543510122874
20
-0.731141549682633
30
0
41
1
10
25.538470113591
20
-0.726346662564708
30
0
41
1
10
25.5338693373852
20
-0.720248603913461
30
0
41
1
10
25.5301349160538
20
-0.711496315616046
30
0
41
1
10
25.5268525982584
20
-0.701322011633067
30
0
41
1
10
25.5254417258152
20
-0.695504108320563
30
0
41
1
10
25.5220503833834
20
-0.676383742890351
30
0
41
1
10
25.5208301372919
20
-0.661300027566995
30
0
41
1
10
25.5207631082327
20
-0.634698968345248
30
0
41
1
10
25.5210428533551
20
-0.625342999564339
30
0
41
1
10
25.5222059836117
20
-0.605861993530908
30
0
41
1
10
25.5230890525549
20
-0.595705765049814
30
0
41
1
10
25.5255010011838
20
-0.574523075403192
30
0
41
1
10
25.5270483761139
20
-0.563408538166499
30
0
41
1
10
25.5307204712616
20
-0.541107258888786
30
0
41
1
10
25.5328504582873
20
-0.529839410232171
30
0
41
1
10
25.536501228741
20
-0.512765393427571
30
0
41
1
10
25.5377944216062
20
-0.50704523699909
30
0
41
1
10
25.5405397204384
20
-0.495546529155092
30
0
41
1
10
25.5419917803479
20
-0.489771950238918
30
0
41
1
10
25.5465072781313
20
-0.4726869176653
30
0
41
1
10
25.5497547639669
20
-0.461504045478819
30
0
41
1
10
25.5549813168557
20
-0.44503130644361
30
0
41
1
10
25.5567829311622
20
-0.439590851169981
30
0
41
1
10
25.5605073963288
20
-0.42881157498465
30
0
41
1
10
25.5624342975755
20
-0.423463763404811
30
0
41
1
10
25.5683042426124
20
-0.407827982636405
30
0
41
1
10
25.5723645918301
20
-0.397859672439381
30
0
41
1
10
25.5807714798113
20
-0.378775710818587
30
0
41
1
10
25.5851433550814
20
-0.369612480903697
30
0
41
1
10
25.5940567689763
20
-0.352359071855091
30
0
41
1
10
25.5985641746518
20
-0.34432567626655
30
0
41
1
10
25.6031198297622
20
-0.336838986874568
30
0
0
SPLINE
5
D1
100
AcDbEntity
8
1
62
256
6
ByLayer
370
18
48
1
60
0
100
AcDbSpline
70
4
71
3
72
8
73
4
40
0
40
0
40
0
40
0
40
1
40
1
40
1
40
1
41
1
10
25.6031198297623
20
-0.336838986874483
30
0
41
1
10
25.5953955785465
20
-0.314786999936786
30
0
41
1
10
25.5891487698443
20
-0.288713484934504
30
0
41
1
10
25.5841401618207
20
-0.258942758883961
30
0
0
SPLINE
5
D2
100
AcDbEntity
8
1
62
256
6
ByLayer
370
18
48
1
60
0
100
AcDbSpline
70
4
71
3
72
8
73
4
40
0
40
0
40
0
40
0
40
1
40
1
40
1
40
1
41
1
10
25.5841401618207
20
-0.25894275888399
30
0
41
1
10
25.5602936908681
20
-0.117201430621975
30
0
41
1
10
25.5295366238327
20
0.0278458233560457
30
0
41
1
10
25.4919177604578
20
0.176175657983436
30
0
0
SPLINE
5
D3
100
AcDbEntity
8
1
62
256
6
ByLayer
370
18
48
1
60
0
100
AcDbSpline
70
4
71
3
72
12
73
8
40
0
40
0
40
0
40
0
40
0.25
40
0.25
40
0.5
40
0.5
40
1
40
1
40
1
40
1
41
1
10
25.4260516314368
20
-1.60585022338137
30
0
41
1
10
25.4186050009412
20
-1.61735204193715
30
0
41
1
10
25.4114171112172
20
-1.62807562559067
30
0
41
1
10
25.3975742532979
20
-1.64782591580863
30
0
41
1
10
25.3908983910384
20
-1.65687357404519
30
0
41
1
10
25.3721072360658
20
-1.68072459189082
30
0
41
1
10
25.3610807648435
20
-1.69246781895134
30
0
41
1
10
25.3513756726692
20
-1.70006912934076
30
0
0
SPLINE
5
D4
100
AcDbEntity
8
1
62
256
6
ByLayer
370
18
48
1
60
0
100
AcDbSpline
70
4
71
3
72
8
73
4
40
0
40
0
40
0
40
0
40
1
40
1
40
1
40
1
41
1
10
25.8042359513278
20
-0.630996910987591
30
0
41
1
10
25.8554024341949
20
-0.488527798229882
30
0
41
1
10
25.9061153344688
20
-0.345898920085404
30
0
41
1
10
25.9563648136479
20
-0.20310681113898
30
0
0
SPLINE
5
D5
100
AcDbEntity
8
1
62
256
6
ByLayer
370
18
48
1
60
0
100
AcDbSpline
70
4
71
3
72
8
73
4
40
0
40
0
40
0
40
0
40
1
40
1
40
1
40
1
41
1
10
25.9563648136479
20
-0.20310681113898
30
0
41
1
10
25.9703312341559
20
-0.163418944292204
30
0
41
1
10
25.9845842031809
20
-0.123894172363464
30
0
41
1
10
25.9991286130241
20
-0.0845288989228266
30
0
0
SPLINE
5
D6
100
AcDbEntity
8
1
62
256
6
ByLayer
370
18
48
1
60
0
100
AcDbSpline
70
4
71
3
72
8
73
4
40
0
40
0
40
0
40
0
40
1
40
1
40
1
40
1
41
1
10
25.9991286130252
20
0.0845288989113726
30
0
41
1
10
26.0002896046666
20
0.0282178982285473
30
0
41
1
10
26.0002913212521
20
-0.0281346395420599
30
0
41
1
10
25.9991286130251
20
-0.0845288989174264
30
0
0
SPLINE
5
D7
100
AcDbEntity
8
1
62
256
6
ByLayer
370
18
48
1
60
0
100
AcDbSpline
70
4
71
3
72
22
73
18
40
0
40
0
40
0
40
0
40
0.124999999999992
40
0.124999999999992
40
0.249999999999985
40
0.249999999999985
40
0.499999999999976
40
0.499999999999976
40
0.562499999999979
40
0.562499999999979
40
0.624999999999982
40
0.624999999999982
40
0.749999999999988
40
0.749999999999988
40
0.874999999999994
40
0.874999999999994
40
1
40
1
40
1
40
1
41
1
10
25.4260516314367
20
-1.60585022338159
30
0
41
1
10
25.4403621687608
20
-1.56451827316144
30
0
41
1
10
25.4547935837336
20
-1.52307664866314
30
0
41
1
10
25.4839170071293
20
-1.440022130345
30
0
41
1
10
25.4986202430523
20
-1.39838149970339
30
0
41
1
10
25.5430660871903
20
-1.2735094173328
30
0
41
1
10
25.5731608164858
20
-1.19030929968935
30
0
41
1
10
25.6113558169865
20
-1.08645559903039
30
0
41
1
10
25.6190212816338
20
-1.06569740862108
30
0
41
1
10
25.6343990041647
20
-1.02420273671754
30
0
41
1
10
25.6421924620388
20
-1.00350457042478
30
0
41
1
10
25.6659639244842
20
-0.941590734816401
30
0
41
1
10
25.6821723291974
20
-0.900993894571968
30
0
41
1
10
25.7154372438854
20
-0.821311131809978
30
0
41
1
10
25.7324985415319
20
-0.782206737556095
30
0
41
1
10
25.7675961587608
20
-0.705470293080481
30
0
41
1
10
25.7856329534179
20
-0.6678400985096
30
0
41
1
10
25.8042359513278
20
-0.630996910987591
30
0
0
SPLINE
5
D8
100
AcDbEntity
8
1
62
256
6
ByLayer
370
18
48
1
60
0
100
AcDbSpline
70
4
71
3
72
8
73
4
40
0
40
0
40
0
40
0
40
1
40
1
40
1
40
1
41
1
10
25.3745255607714
20
-1.69506004106253
30
0
41
1
10
25.391688101372
20
-1.66532381391133
30
0
41
1
10
25.4088655768403
20
-1.63558328040043
30
0
41
1
10
25.4260516314367
20
-1.60585022338159
30
0
0
SPLINE
5
D9
100
AcDbEntity
8
1
62
256
6
ByLayer
370
18
48
1
60
0
100
AcDbSpline
70
4
71
3
72
8
73
4
40
0
40
0
40
0
40
0
40
1
40
1
40
1
40
1
41
1
10
14.5998854812441
20
1.50381780961439
30
0
41
1
10
14.5998854812441
20
1.47483707972455
30
0
41
1
10
14.5998854812445
20
1.44595330543308
30
0
41
1
10
14.5998854812445
20
1.41716585362047
30
0
0
SPLINE
5
DA
100
AcDbEntity
8
1
62
256
6
ByLayer
370
18
48
1
60
0
100
AcDbSpline
70
4
71
3
72
20
73
16
40
0
40
0
40
0
40
0
40
0.0834088003941436
40
0.0834088003941436
40
0.17506792035473
40
0.17506792035473
40
0.266727040315315
40
0.266727040315315
40
0.633363520157659
40
0.633363520157659
40
0.725022640118254
40
0.725022640118254
40
0.816681760078849
40
0.816681760078849
40
1
40
1
40
1
40
1
41
1
10
25.0974418000199
20
0.40620144073236
30
0
41
1
10
25.1079747344745
20
0.41076694196147
30
0
41
1
10
25.1186605989601
20
0.4155621865211
30
0
41
1
10
25.1414377921652
20
0.426068427601706
30
0
41
1
10
25.1535652589484
20
0.431822094425684
30
0
41
1
10
25.1783007797499
20
0.443728112581482
30
0
41
1
10
25.1909608820024
20
0.449906045641626
30
0
41
1
10
25.2548832229849
20
0.481088386322284
30
0
41
1
10
25.3080206044709
20
0.507044594155872
30
0
41
1
10
25.3795369358263
20
0.534415923616422
30
0
41
1
10
25.3941488371819
20
0.539631871042388
30
0
41
1
10
25.4234652450522
20
0.549247723408939
30
0
41
1
10
25.4382159198439
20
0.553669127203534
30
0
41
1
10
25.4827643424048
20
0.565706228427871
30
0
41
1
10
25.5128535628797
20
0.572114259377912
30
0
41
1
10
25.5433888162988
20
0.576703143406235
30
0
0
SPLINE
5
DB
100
AcDbEntity
8
1
62
256
6
ByLayer
370
18
48
1
60
0
100
AcDbSpline
70
4
71
3
72
12
73
8
40
0
40
0
40
0
40
0
40
0.5
40
0.5
40
0.75
40
0.75
40
1
40
1
40
1
40
1
41
1
10
25.5433888162988
20
0.576703143406235
30
0
41
1
10
25.5873229474408
20
0.583305631026946
30
0
41
1
10
25.6310936187947
20
0.59079257502313
30
0
41
1
10
25.6963775329398
20
0.604036329764938
30
0
41
1
10
25.7180761339071
20
0.608790195244694
30
0
41
1
10
25.7613118493531
20
0.619171705352954
30
0
41
1
10
25.7828713187596
20
0.624805037635866
30
0
41
1
10
25.8042359513278
20
0.630996910987562
30
0
0
SPLINE
5
DC
100
AcDbEntity
8
1
62
256
6
ByLayer
370
18
48
1
60
0
100
AcDbSpline
70
4
71
3
72
22
73
18
40
0
40
0
40
0
40
0
40
0.124999999999994
40
0.124999999999994
40
0.249999999999989
40
0.249999999999989
40
0.499999999999978
40
0.499999999999978
40
0.56249999999998
40
0.56249999999998
40
0.624999999999983
40
0.624999999999983
40
0.749999999999988
40
0.749999999999988
40
0.874999999999994
40
0.874999999999994
40
1
40
1
40
1
40
1
41
1
10
25.4260516314367
20
1.60585022338162
30
0
41
1
10
25.4403621687607
20
1.56451827316147
30
0
41
1
10
25.4547935837336
20
1.52307664866314
30
0
41
1
10
25.4839170071292
20
1.440022130345
30
0
41
1
10
25.4986202430523
20
1.39838149970342
30
0
41
1
10
25.5430660871903
20
1.27350941733283
30
0
41
1
10
25.5731608164858
20
1.19030929968935
30
0
41
1
10
25.6113558169865
20
1.08645559903042
30
0
41
1
10
25.6190212816338
20
1.06569740862108
30
0
41
1
10
25.6343990041647
20
1.02420273671757
30
0
41
1
10
25.6421924620389
20
1.00350457042478
30
0
41
1
10
25.6659639244841
20
0.94159073481643
30
0
41
1
10
25.6821723291974
20
0.900993894571997
30
0
41
1
10
25.7154372438854
20
0.821311131809978
30
0
41
1
10
25.7324985415319
20
0.782206737556095
30
0
41
1
10
25.7675961587608
20
0.705470293080481
30
0
41
1
10
25.7856329534179
20
0.6678400985096
30
0
41
1
10
25.8042359513278
20
0.630996910987591
30
0
0
SPLINE
5
DD
100
AcDbEntity
8
1
62
256
6
ByLayer
370
18
48
1
60
0
100
AcDbSpline
70
4
71
3
72
8
73
4
40
0
40
0
40
0
40
0
40
1
40
1
40
1
40
1
41
1
10
25.3745255609274
20
1.69506004079204
30
0
41
1
10
25.3916881014762
20
1.66532381373096
30
0
41
1
10
25.4088655768924
20
1.63558328031027
30
0
41
1
10
25.4260516314367
20
1.60585022338159
30
0
0
SPLINE
5
DE
100
AcDbEntity
8
1
62
256
6
ByLayer
370
18
48
1
60
0
100
AcDbSpline
70
4
71
3
72
24
73
20
40
0
40
0
40
0
40
0
40
0.148809533541685
40
0.148809533541685
40
0.223214300312524
40
0.223214300312524
40
0.297619067083363
40
0.297619067083363
40
0.446428600625035
40
0.446428600625035
40
0.595238134166706
40
0.595238134166706
40
0.744047667708378
40
0.744047667708378
40
0.892857201250049
40
0.892857201250049
40
0.967261968020885
40
0.967261968020885
40
1
40
1
40
1
40
1
41
1
10
25.3745255610277
20
1.69506004105679
30
0
41
1
10
25.2626621154188
20
1.69753843185828
30
0
41
1
10
25.1504965294265
20
1.69615694678123
30
0
41
1
10
24.9814374924437
20
1.68812790942951
30
0
41
1
10
24.9248630603423
20
1.68445141447435
30
0
41
1
10
24.8120447126687
20
1.67519906020544
30
0
41
1
10
24.755756314009
20
1.66963854815765
30
0
41
1
10
24.5872493506085
20
1.65019721634653
30
0
41
1
10
24.4753704107882
20
1.63352271775625
30
0
41
1
10
24.2520152501479
20
1.59284247473258
30
0
41
1
10
24.1405448994795
20
1.568824806024
30
0
41
1
10
23.9176740260306
20
1.5135770920395
30
0
41
1
10
23.8063319774563
20
1.48244332443897
30
0
41
1
10
23.5832943631074
20
1.41350269455614
30
0
41
1
10
23.471602000625
20
1.37563585604735
30
0
41
1
10
23.3034585823406
20
1.31389724334971
30
0
41
1
10
23.2473060659165
20
1.29250016474361
30
0
41
1
10
23.1662935127764
20
1.26060424959161
30
0
41
1
10
23.1415171898514
20
1.25071077402592
30
0
41
1
10
23.1167193017452
20
1.24067074682657
30
0
0
SPLINE
5
DF
100
AcDbEntity
8
1
62
256
6
ByLayer
370
18
48
1
60
0
100
AcDbSpline
70
4
71
3
72
59
73
55
40
0
40
0
40
0
40
0
40
0.0073713855831972
40
0.0073713855831972
40
0.0258309730930215
40
0.0258309730930215
40
0.0442905606028458
40
0.0442905606028458
40
0.0627501481126701
40
0.0627501481126701
40
0.0996693231323185
40
0.0996693231323185
40
0.104284220009775
40
0.106591668448503
40
0.106591668448503
40
0.107168530558185
40
0.107168530558185
40
0.107745392667867
40
0.107745392667867
40
0.108899116887231
40
0.108899116887231
40
0.113514013764687
40
0.113514013764687
40
0.118128910642143
40
0.118128910642143
40
0.136588498151967
40
0.136588498151967
40
0.173507673171616
40
0.173507673171616
40
0.247346023210914
40
0.247346023210914
40
0.395022723289509
40
0.395022723289509
40
0.468861073328807
40
0.468861073328807
40
0.487320660838631
40
0.487320660838631
40
0.491935557716087
40
0.491935557716087
40
0.496550454593543
40
0.496550454593543
40
0.497127316703225
40
0.497127316703225
40
0.497704178812908
40
0.497704178812908
40
0.498857903032272
40
0.498857903032272
40
0.501165351471
40
0.505780248348457
40
0.542699423368113
40
0.542699423368113
40
0.838052823525361
40
0.838052823525361
40
1
40
1
40
1
40
1
41
1
10
8.49197983958973
20
1.59942770163971
30
0
41
1
10
8.49196623817855
20
1.58679087787098
30
0
41
1
10
8.4915427766
20
1.57410188082062
30
0
41
1
10
8.48861420152647
20
1.52942692726126
30
0
41
1
10
8.48415304651843
20
1.49692308769488
30
0
41
1
10
8.47205586024245
20
1.43147342802158
30
0
41
1
10
8.46441825905268
20
1.39839650758174
30
0
41
1
10
8.44695839410826
20
1.33102483611424
30
0
41
1
10
8.43720608404232
20
1.29669606183282
30
0
41
1
10
8.40293359245868
20
1.192703550201
30
0
41
1
10
8.3753511706669
20
1.12064675120462
30
0
41
1
10
8.33496554172416
20
1.03976804002102
30
0
41
1
10
8.32807673805377
20
1.0262928732482
30
0
41
1
10
8.32096804753587
20
1.01281996811915
30
0
41
1
10
8.31797664096769
20
1.00720618781708
30
0
41
1
10
8.31726751565836
20
1.00615028318802
30
0
41
1
10
8.31636725154229
20
1.00372000423764
30
0
41
1
10
8.31683390787555
20
1.00217534103459
30
0
41
1
10
8.31905389497322
20
0.998348600323368
30
0
41
1
10
8.32111594196465
20
0.996238310728643
30
0
41
1
10
8.33143047270926
20
0.985756218017031
30
0
41
1
10
8.34057332122921
20
0.978426078679888
30
0
41
1
10
8.35872297671443
20
0.963625918636126
30
0
41
1
10
8.36790504574196
20
0.956378582330643
30
0
41
1
10
8.41402133731555
20
0.920436313622332
30
0
41
1
10
8.45151986573975
20
0.892540757612068
30
0
41
1
10
8.56423113884966
20
0.809254967329053
30
0
41
1
10
8.63991571701575
20
0.754598818546697
30
0
41
1
10
8.86713295032661
20
0.590997692775659
30
0
41
1
10
9.01879309731882
20
0.482394810143688
30
0
41
1
10
9.47318000467089
20
0.156666837420232
30
0
41
1
10
9.77552064706964
20
-0.0600800528435173
30
0
41
1
10
10.2297055702058
20
-0.382587679168495
30
0
41
1
10
10.3816168471558
20
-0.489232391138557
30
0
41
1
10
10.5693492595271
20
-0.624661231838559
30
0
41
1
10
10.6068229601723
20
-0.651815623474761
30
0
41
1
10
10.6528799303317
20
-0.686474067300082
30
0
41
1
10
10.6620472019828
20
-0.693443184435608
30
0
41
1
10
10.6801346894919
20
-0.70759386430592
30
0
41
1
10
10.6895576177175
20
-0.714471070771765
30
0
41
1
10
10.698198265536
20
-0.723499260262201
30
0
41
1
10
10.6991988660014
20
-0.724538054047315
30
0
41
1
10
10.7001695119358
20
-0.726783437328351
30
0
41
1
10
10.6986319904139
20
-0.727181216801654
30
0
41
1
10
10.6945141333472
20
-0.726671243246614
30
0
41
1
10
10.6917265609011
20
-0.726035695037297
30
0
41
1
10
10.6834181422356
20
-0.724504322864931
30
0
41
1
10
10.6668022979239
20
-0.721437719052233
30
0
41
1
10
10.5615874476897
20
-0.701942549996829
30
0
41
1
10
10.4620189155961
20
-0.683056722915495
30
0
41
1
10
9.66623668701266
20
-0.529000412678243
30
0
41
1
10
8.96440910761572
20
-0.370902813390927
30
0
41
1
10
7.88781554336811
20
-0.0938464476688239
30
0
41
1
10
7.50839942909855
20
0.0105347631396455
30
0
41
1
10
7.13067898540612
20
0.121018307647176
30
0
0
SPLINE
5
E0
100
AcDbEntity
8
1
62
256
6
ByLayer
370
18
48
1
60
0
100
AcDbSpline
70
4
71
3
72
16
73
12
40
0
40
0
40
0
40
0
40
0.250000000000014
40
0.250000000000014
40
0.375000000000011
40
0.375000000000011
40
0.500000000000009
40
0.500000000000009
40
0.750000000000004
40
0.750000000000004
40
1
40
1
40
1
40
1
41
1
10
25.4919177604578
20
0.176175657983436
30
0
41
1
10
25.4765712972809
20
0.164558449724467
30
0
41
1
10
25.4614063339085
20
0.151338573604562
30
0
41
1
10
25.4389764271839
20
0.129367158316171
30
0
41
1
10
25.4315518878432
20
0.121703077221667
30
0
41
1
10
25.4168066490006
20
0.105851390697865
30
0
41
1
10
25.4094852497443
20
0.097675633764652
30
0
41
1
10
25.3876877144197
20
0.0723133526209097
30
0
41
1
10
25.373383207844
20
0.0541954389400985
30
0
41
1
10
25.3452962795997
20
0.0152587436290901
30
0
41
1
10
25.3315115184535
20
-0.0055140433945553
30
0
41
1
10
25.3180083415684
20
-0.0275772616691654
30
0
0
SPLINE
5
E1
100
AcDbEntity
8
1
62
256
6
ByLayer
370
18
48
1
60
0
100
AcDbSpline
70
4
71
3
72
26
73
22
40
0
40
0
40
0
40
0
40
0.1626577695397
40
0.1626577695397
40
0.24398665430955
40
0.24398665430955
40
0.3253155390794
40
0.3253155390794
40
0.4879733086191
40
0.4879733086191
40
0.6506310781588
40
0.6506310781588
40
0.73195996292865
40
0.73195996292865
40
0.813288847698501
40
0.813288847698501
40
0.894617732468351
40
0.894617732468351
40
0.975946617238201
40
0.975946617238201
40
1
40
1
40
1
40
1
41
1
10
25.4919177604578
20
0.17617565798335
30
0
41
1
10
25.4560101222201
20
0.199903718840545
30
0
41
1
10
25.4198850047262
20
0.223167174386646
30
0
41
1
10
25.365528100844
20
0.257275192500884
30
0
41
1
10
25.347412906172
20
0.268502246593641
30
0
41
1
10
25.311187692047
20
0.290761204723424
30
0
41
1
10
25.2930773965682
20
0.301803517301977
30
0
41
1
10
25.2387570337841
20
0.334533623265543
30
0
41
1
10
25.2025592044302
20
0.355759941134039
30
0
41
1
10
25.1302105145173
20
0.396441451317486
30
0
41
1
10
25.0940009947706
20
0.415981504562154
30
0
41
1
10
25.0401553555809
20
0.443593503414547
30
0
41
1
10
25.0222754325257
20
0.452506915999663
30
0
41
1
10
24.986613222034
20
0.46992030101913
30
0
41
1
10
24.9688210199412
20
0.478462257281137
30
0
41
1
10
24.9333071903687
20
0.495247320070717
30
0
41
1
10
24.9155924774083
20
0.503461146915811
30
0
41
1
10
24.8803548318529
20
0.519076702476752
30
0
41
1
10
24.8628309251201
20
0.526482556200392
30
0
41
1
10
24.8402716219049
20
0.535454650754957
30
0
41
1
10
24.8351291791926
20
0.537461732962981
30
0
41
1
10
24.8299974226124
20
0.539423372578341
30
0
0
SPLINE
5
E2
100
AcDbEntity
8
1
62
256
6
ByLayer
370
13
48
1
60
0
100
AcDbSpline
70
4
71
3
72
14
73
10
40
0
40
0
40
0
40
0
40
0.25
40
0.25
40
0.5
40
0.5
40
0.75
40
0.75
40
1
40
1
40
1
40
1
41
1
10
14.648678812529
20
-1.31153411976669
30
0
41
1
10
14.6411396874438
20
-1.31243452133805
30
0
41
1
10
14.6346532813445
20
-1.31345882193639
30
0
41
1
10
14.623295782455
20
-1.31567163988137
30
0
41
1
10
14.6184316390226
20
-1.31686917810404
30
0
41
1
10
14.610535087049
20
-1.31928003627078
30
0
41
1
10
14.6074284142477
20
-1.32050696839545
30
0
41
1
10
14.6027451034086
20
-1.32298597733316
30
0
41
1
10
14.6011921746186
20
-1.32423332823461
30
0
41
1
10
14.6004336856144
20
-1.32545424145332
30
0
0
SPLINE
5
E3
100
AcDbEntity
8
1
62
256
6
ByLayer
370
13
48
1
60
0
100
AcDbSpline
70
4
71
3
72
10
73
6
40
0
40
0
40
0
40
0
40
0.5
40
0.5
40
1
40
1
40
1
40
1
41
1
10
14.7002886267203
20
-1.317921524881
30
0
41
1
10
14.6912587995083
20
-1.31489934427026
30
0
41
1
10
14.6824277835984
20
-1.31286902012934
30
0
41
1
10
14.6651753520543
20
-1.310702622468
30
0
41
1
10
14.6566697430444
20
-1.31057975884133
30
0
41
1
10
14.648678812529
20
-1.31153411976669
30
0
0
SPLINE
5
E4
100
AcDbEntity
8
1
62
256
6
ByLayer
370
13
48
1
60
0
100
AcDbSpline
70
4
71
3
72
24
73
20
40
0
40
0
40
0
40
0
40
0.124999999999988
40
0.124999999999988
40
0.249999999999977
40
0.249999999999977
40
0.374999999999965
40
0.374999999999965
40
0.499999999999954
40
0.499999999999954
40
0.624999999999942
40
0.624999999999942
40
0.749999999999931
40
0.749999999999931
40
0.812499999999978
40
0.812499999999978
40
0.875000000000025
40
0.875000000000025
40
1
40
1
40
1
40
1
41
1
10
14.6005050194489
20
0.606549075110422
30
0
41
1
10
14.6011023383903
20
0.609062179467088
30
0
41
1
10
14.6021267046496
20
0.611539202751999
30
0
41
1
10
14.6050587373825
20
0.616420785054601
30
0
41
1
10
14.6069817584174
20
0.618836277999918
30
0
41
1
10
14.6116843070019
20
0.623476330921108
30
0
41
1
10
14.6144663010729
20
0.625713523902732
30
0
41
1
10
14.6209738073455
20
0.630013704036458
30
0
41
1
10
14.6247299712127
20
0.632091532901853
30
0
41
1
10
14.6332295599551
20
0.635977551409667
30
0
41
1
10
14.6379190005901
20
0.637766681092216
30
0
41
1
10
14.6483126749849
20
0.641001832733423
30
0
41
1
10
14.6540866742564
20
0.64245842210272
30
0
41
1
10
14.6632930262838
20
0.644243059234469
30
0
41
1
10
14.6664608502173
20
0.644774747027668
30
0
41
1
10
14.6730118801638
20
0.645702050407294
30
0
41
1
10
14.6764157514143
20
0.646098713321408
30
0
41
1
10
14.6866953905537
20
0.64703855992849
30
0
41
1
10
14.693704921692
20
0.647348025211272
30
0
41
1
10
14.7008837921398
20
0.647316037556635
30
0
0
SPLINE
5
E5
100
AcDbEntity
8
1
62
256
6
ByLayer
370
18
48
1
60
0
100
AcDbSpline
70
4
71
3
72
18
73
14
40
0
40
0
40
0
40
0
40
0.499999999999966
40
0.499999999999966
40
0.749999999999983
40
0.749999999999983
40
0.87499999999999
40
0.87499999999999
40
0.937499999999994
40
0.96875000000003
40
0.984375000000015
40
0.984375000000015
40
1
40
1
40
1
40
1
41
1
10
25.3106492007395
20
-1.79993009471053
30
0
41
1
10
25.3212778951127
20
-1.78266520590645
30
0
41
1
10
25.3319456563822
20
-1.76522742178662
30
0
41
1
10
25.3479569060408
20
-1.73892352845923
30
0
41
1
10
25.3532898889578
20
-1.73014314655183
30
0
41
1
10
25.3612513009755
20
-1.71701761319036
30
0
41
1
10
25.3638963290531
20
-1.71265484339327
30
0
41
1
10
25.3678568430383
20
-1.70611601942369
30
0
41
1
10
25.3698404417825
20
-1.70283759045952
30
0
41
1
10
25.3721890372287
20
-1.69893890791693
30
0
41
1
10
25.3732043027122
20
-1.69724934226753
30
0
41
1
10
25.3738831680724
20
-1.69611862353764
30
0
41
1
10
25.3742561214987
20
-1.69548927182609
30
0
41
1
10
25.3745255607713
20
-1.69506004106268
30
0
0
SPLINE
5
E6
100
AcDbEntity
8
1
62
256
6
ByLayer
370
18
48
1
60
0
100
AcDbSpline
70
4
71
3
72
62
73
58
40
0
40
0
40
0
40
0
40
0.0134662331920079
40
0.0134662331920079
40
0.0381295773622061
40
0.0381295773622061
40
0.0627929215324044
40
0.0627929215324044
40
0.112119609872803
40
0.112119609872803
40
0.161446298213202
40
0.161446298213202
40
0.2107729865536
40
0.2107729865536
40
0.260099674893999
40
0.260099674893999
40
0.309426363234398
40
0.309426363234398
40
0.334089707404597
40
0.334089707404597
40
0.358753051574796
40
0.358753051574796
40
0.408079739915195
40
0.408079739915195
40
0.432743084085395
40
0.432743084085395
40
0.457406428255594
40
0.457406428255594
40
0.506733116595995
40
0.506733116595995
40
0.531396460766194
40
0.531396460766194
40
0.556059804936393
40
0.556059804936393
40
0.605386493276792
40
0.605386493276792
40
0.630049837446993
40
0.630049837446993
40
0.654713181617193
40
0.654713181617193
40
0.679376525787394
40
0.679376525787394
40
0.704039869957594
40
0.704039869957594
40
0.753366558297995
40
0.753366558297995
40
0.802693246638396
40
0.802693246638396
40
0.852019934978797
40
0.852019934978797
40
0.901346623319198
40
0.901346623319198
40
0.926009967489398
40
0.926009967489398
40
0.950673311659599
40
0.950673311659599
40
1
40
1
40
1
40
1
41
1
10
21.4363520762654
20
-0.391697116787412
30
0
41
1
10
21.4057497650701
20
-0.374058882761886
30
0
41
1
10
21.3751203769087
20
-0.356338793265479
30
0
41
1
10
21.2883016189598
20
-0.30595290737017
30
0
41
1
10
21.2320349795682
20
-0.273111199819937
30
0
41
1
10
21.1192254751888
20
-0.207009513509831
30
0
41
1
10
21.0626662958844
20
-0.173739755495262
30
0
41
1
10
20.8936290254638
20
-0.0741154274066957
30
0
41
1
10
20.7814309961038
20
-0.007680314456934
30
0
41
1
10
20.5577412390423
20
0.124779744132439
30
0
41
1
10
20.4461985337035
20
0.19070591894905
30
0
41
1
10
20.2233120454742
20
0.321194684184377
30
0
41
1
10
20.1119466229482
20
0.385700004405976
30
0
41
1
10
19.8891109911405
20
0.512985511756426
30
0
41
1
10
19.7776366903307
20
0.57573632981422
30
0
41
1
10
19.5540516425966
20
0.698500000453635
30
0
41
1
10
19.4419312389145
20
0.758505496147222
30
0
41
1
10
19.2730075517299
20
0.846089748851284
30
0
41
1
10
19.2165482510158
20
0.874925731951123
30
0
41
1
10
19.1035789836071
20
0.931627900268865
30
0
41
1
10
19.0471099856676
20
0.959458662333276
30
0
41
1
10
18.8776777351325
20
1.04118815857535
30
0
41
1
10
18.7648769020069
20
1.09324128469353
30
0
41
1
10
18.5956331484098
20
1.16719353200224
30
0
41
1
10
18.5392069169757
20
1.19115872717873
30
0
41
1
10
18.4263257810897
20
1.23776104550802
30
0
41
1
10
18.3698564609159
20
1.26041345424448
30
0
41
1
10
18.2004337409652
20
1.32618025380509
30
0
41
1
10
18.0874698141594
20
1.36706907231559
30
0
41
1
10
17.9179989178361
20
1.42332619567924
30
0
41
1
10
17.8615138765386
20
1.4412211232214
30
0
41
1
10
17.7485291951502
20
1.4753023471373
30
0
41
1
10
17.6920273879555
20
1.49151607725344
30
0
41
1
10
17.5227699238103
20
1.5376697357849
30
0
41
1
10
17.4101403712849
20
1.56501817736108
30
0
41
1
10
17.2411649168498
20
1.60028879473617
30
0
41
1
10
17.1848358891188
20
1.61109373068808
30
0
41
1
10
17.0721107155688
20
1.63074023207508
30
0
41
1
10
17.015709955855
20
1.63957404301971
30
0
41
1
10
16.9028115029002
20
1.65540791709941
30
0
41
1
10
16.8462980188541
20
1.66242001430288
30
0
41
1
10
16.7336256000251
20
1.67450142102854
30
0
41
1
10
16.6774040031256
20
1.67956819220566
30
0
41
1
10
16.5089883891959
20
1.69181151546385
30
0
41
1
10
16.397045761195
20
1.69603535647784
30
0
41
1
10
16.1733597249387
20
1.69685951724617
30
0
41
1
10
16.0616786841473
20
1.69351073804819
30
0
41
1
10
15.8383302623909
20
1.67898489948996
30
0
41
1
10
15.726612963574
20
1.66781449925389
30
0
41
1
10
15.5026301268662
20
1.63772105680445
30
0
41
1
10
15.3903412608437
20
1.61881857035559
30
0
41
1
10
15.2213554011579
20
1.5848285822085
30
0
41
1
10
15.1648801486614
20
1.57255475676328
30
0
41
1
10
15.0519108762331
20
1.54621752185702
30
0
41
1
10
14.9954207674143
20
1.53215422941494
30
0
41
1
10
14.8259314791282
20
1.48732364549818
30
0
41
1
10
14.712892473473
20
1.4538708722875
30
0
41
1
10
14.5998854812466
20
1.41716585360749
30
0
0
SPLINE
5
E7
100
AcDbEntity
8
1
62
256
6
ByLayer
370
18
48
1
60
0
100
AcDbSpline
70
4
71
3
72
14
73
10
40
0
40
0
40
0
40
0
40
0.25
40
0.25
40
0.5
40
0.5
40
0.75
40
0.75
40
1
40
1
40
1
40
1
41
1
10
25.3469226490925
20
-1.71215766852714
30
0
41
1
10
25.3476192897248
20
-1.71103945345877
30
0
41
1
10
25.3483369833601
20
-1.70983996666666
30
0
41
1
10
25.3497265053105
20
-1.70738800427668
30
0
41
1
10
25.3503920072037
20
-1.70614227765606
30
0
41
1
10
25.3514421045027
20
-1.70399015855747
30
0
41
1
10
25.3518183217141
20
-1.70309856452701
30
0
41
1
10
25.352211927733
20
-1.70188528147426
30
0
41
1
10
25.3522440287155
20
-1.70153790202337
30
0
41
1
10
25.3521570658305
20
-1.70139556041335
30
0
0
SPLINE
5
E8
100
AcDbEntity
8
1
62
256
6
ByLayer
370
13
48
1
60
0
100
AcDbSpline
70
4
71
3
72
12
73
8
40
0
40
0
40
0
40
0
40
0.500000000000212
40
0.500000000000212
40
0.750000000000106
40
0.750000000000106
40
1
40
1
40
1
40
1
41
1
10
14.7462997102178
20
0.635671573928846
30
0
41
1
10
14.7394203798622
20
0.639455219023773
30
0
41
1
10
14.7321559421184
20
0.642310932813274
30
0
41
1
10
14.7206997845984
20
0.645255435325879
30
0
41
1
10
14.7167654995515
20
0.646011752536992
30
0
41
1
10
14.7088665515765
20
0.647028377428853
30
0
41
1
10
14.7048892496694
20
0.647294585784948
30
0
41
1
10
14.7008837921398
20
0.647316037556635
30
0
0
SPLINE
5
E9
100
AcDbEntity
8
1
62
256
6
ByLayer
370
13
48
1
60
0
100
AcDbSpline
70
4
71
3
72
34
73
30
40
0
40
0
40
0
40
0
40
0.0624999999999998
40
0.0624999999999998
40
0.125
40
0.125
40
0.249999999999999
40
0.249999999999999
40
0.312499999999999
40
0.343749999999999
40
0.343749999999999
40
0.374999999999999
40
0.374999999999999
40
0.437499999999999
40
0.437499999999999
40
0.499999999999999
40
0.499999999999999
40
0.624999999999999
40
0.624999999999999
40
0.687499999999999
40
0.718749999999999
40
0.718749999999999
40
0.749999999999999
40
0.749999999999999
40
0.874999999999999
40
0.874999999999999
40
0.9375
40
0.9375
40
1
40
1
40
1
40
1
41
1
10
14.7008837921398
20
0.647316037556635
30
0
41
1
10
14.7008730029303
20
0.605126324971366
30
0
41
1
10
14.7008617789673
20
0.562327431149782
30
0
41
1
10
14.7008387061919
20
0.475516133390215
30
0
41
1
10
14.700826827438
20
0.431394688191148
30
0
41
1
10
14.7007909651349
20
0.298772036638269
30
0
41
1
10
14.7007666786208
20
0.209610968562458
30
0
41
1
10
14.7007303497809
20
0.0747763598367044
30
0
41
1
10
14.700712199718
20
0.0070844752745245
30
0
41
1
10
14.7006941014104
20
-0.0610264894753811
30
0
41
1
10
14.7006820441152
20
-0.106528608160715
30
0
41
1
10
14.7006760156207
20
-0.129343384839615
30
0
41
1
10
14.7006580510095
20
-0.197490931612833
30
0
41
1
10
14.7006462002216
20
-0.242667200228965
30
0
41
1
10
14.7006226592839
20
-0.33250987576784
30
0
41
1
10
14.7006109418175
20
-0.37727961255618
30
0
41
1
10
14.7005762392133
20
-0.509192607200276
30
0
41
1
10
14.7005536014839
20
-0.594418560044971
30
0
41
1
10
14.7005190904259
20
-0.71827554339589
30
0
41
1
10
14.7005016892014
20
-0.779203714268647
30
0
41
1
10
14.7004837491306
20
-0.838604681220517
30
0
41
1
10
14.7004716271918
20
-0.877859770963937
30
0
41
1
10
14.70046548036
20
-0.897328251873546
30
0
41
1
10
14.7004345179902
20
-0.992924721993518
30
0
41
1
10
14.7004088160132
20
-1.06455300283707
30
0
41
1
10
14.7003668696712
20
-1.16494213080224
30
0
41
1
10
14.700352319691
20
-1.19722380689271
30
0
41
1
10
14.7003217088849
20
-1.25939205632488
30
0
41
1
10
14.7003056280396
20
-1.28931300024237
30
0
41
1
10
14.7002886267203
20
-1.317921524881
30
0
0
SPLINE
5
EA
100
AcDbEntity
8
1
62
256
6
ByLayer
370
18
48
1
60
0
100
AcDbSpline
70
4
71
3
72
18
73
14
40
0
40
0
40
0
40
0
40
0.344619620980601
40
0.344619620980601
40
0.516929431470901
40
0.516929431470901
40
0.689239241961202
40
0.689239241961202
40
0.775394147206347
40
0.775394147206347
40
0.861549052451494
40
0.861549052451494
40
1
40
1
40
1
40
1
41
1
10
14.7002886267203
20
-1.317921524881
30
0
41
1
10
14.924221378138
20
-1.4011177472421
30
0
41
1
10
15.1463221809022
20
-1.47145219392613
30
0
41
1
10
15.4790511222939
20
-1.55633731816152
30
0
41
1
10
15.5899110508719
20
-1.58122980617082
30
0
41
1
10
15.8120786732082
20
-1.62400625399027
30
0
41
1
10
15.9233964992938
20
-1.64179256412603
30
0
41
1
10
16.0909070454668
20
-1.66282139758698
30
0
41
1
10
16.1468334970479
20
-1.6688949572605
30
0
41
1
10
16.2589076910332
20
-1.67914891876151
30
0
41
1
10
16.3148098204158
20
-1.68330665397141
30
0
41
1
10
16.4602224477797
20
-1.69165068013817
30
0
41
1
10
16.5495522906114
20
-1.69433638527443
30
0
41
1
10
16.6386959892983
20
-1.69457596245027
30
0
0
SPLINE
5
EB
100
AcDbEntity
8
1
62
256
6
ByLayer
370
18
48
1
60
0
100
AcDbSpline
70
4
71
3
72
8
73
4
40
0
40
0
40
0
40
0
40
1
40
1
40
1
40
1
41
1
10
25.2961914738632
20
1.69766588456912
30
0
41
1
10
25.3148335536023
20
1.69901161329969
30
0
41
1
10
25.3334851370049
20
1.70024860013089
30
0
41
1
10
25.3521570658304
20
1.70139556041332
30
0
0
SPLINE
5
EC
100
AcDbEntity
8
1
62
256
6
ByLayer
370
18
48
1
60
0
100
AcDbSpline
70
4
71
3
72
18
73
14
40
0
40
0
40
0
40
0
40
0.0014424878873424
40
0.0014424878873424
40
0.11239332256653
40
0.11239332256653
40
0.223344157245717
40
0.223344157245717
40
0.334294991924905
40
0.334294991924905
40
0.55619666128327
40
0.55619666128327
40
1
40
1
40
1
40
1
41
1
10
16.2403162457166
20
-0.230687086600767
30
0
41
1
10
16.2395951485378
20
-0.230265002397033
30
0
41
1
10
16.2388740312751
20
-0.229842880731496
30
0
41
1
10
16.1826856725716
20
-0.196949804133993
30
0
41
1
10
16.1270156682834
20
-0.164210682014812
30
0
41
1
10
16.0159949470395
20
-0.0986956400026884
30
0
41
1
10
15.9606128932451
20
-0.0658927418877227
30
0
41
1
10
15.8500424473544
20
-0.0002977501333987
30
0
41
1
10
15.7948397406134
20
0.0324752514612214
30
0
41
1
10
15.6292657704616
20
0.130412882347485
30
0
41
1
10
15.5189480115047
20
0.19522739983978
30
0
41
1
10
15.1880149303824
20
0.387809557610893
30
0
41
1
10
14.9675862614899
20
0.513963539714553
30
0
41
1
10
14.7462997102178
20
0.635671573928846
30
0
0
SPLINE
5
ED
100
AcDbEntity
8
1
62
256
6
ByLayer
370
18
48
1
60
0
100
AcDbSpline
70
4
71
3
72
10
73
6
40
0
40
0
40
0
40
0
40
0.5
40
0.5
40
1
40
1
40
1
40
1
41
1
10
25.3197120930224
20
-0.268160163397823
30
0
41
1
10
25.3206734311469
20
-0.268293268569607
30
0
41
1
10
25.3214112317419
20
-0.269669265700827
30
0
41
1
10
25.322258162928
20
-0.273759287351794
30
0
41
1
10
25.3223753144359
20
-0.276483234308103
30
0
41
1
10
25.3220957482598
20
-0.279448060419241
30
0
0
SPLINE
5
EE
100
AcDbEntity
8
1
62
256
6
ByLayer
370
13
48
1
60
0
100
AcDbSpline
70
4
71
3
72
8
73
4
40
0
40
0
40
0
40
0
40
1
40
1
40
1
40
1
41
1
10
14.7530774234971
20
0.676287074609519
30
0
41
1
10
14.7525151362082
20
0.666651560977016
30
0
41
1
10
14.751942342032
20
0.657007480888723
30
0
41
1
10
14.751358867341
20
0.647354117995064
30
0
0
SPLINE
5
EF
100
AcDbEntity
8
1
62
256
6
ByLayer
370
18
48
1
60
0
100
AcDbSpline
70
4
71
3
72
14
73
10
40
0
40
0
40
0
40
0
40
0.565290925470523
40
0.565290925470523
40
0.847936388205785
40
0.847936388205785
40
0.989259119573422
40
0.989259119573422
40
1
40
1
40
1
40
1
41
1
10
14.751358867341
20
0.647354117995064
30
0
41
1
10
14.9724796509059
20
0.525296267317373
30
0
41
1
10
15.1927472154402
20
0.398696289552362
30
0
41
1
10
15.5234349811636
20
0.20528694668954
30
0
41
1
10
15.6336678653009
20
0.140166533892653
30
0
41
1
10
15.7991144670068
20
0.0417337626560652
30
0
41
1
10
15.8542749205936
20
0.0087901304613922
30
0
41
1
10
15.9137202017979
20
-0.0266849393631787
30
0
41
1
10
15.9179196438856
20
-0.0291907347083225
30
0
41
1
10
15.9221196752335
20
-0.0316965547743564
30
0
0
SPLINE
5
F0
100
AcDbEntity
8
1
62
256
6
ByLayer
370
18
48
1
60
0
100
AcDbSpline
70
4
71
3
72
8
73
4
40
0
40
0
40
0
40
0
40
1
40
1
40
1
40
1
41
1
10
25.2990670388066
20
-1.78859544149998
30
0
41
1
10
25.314987974748
20
-1.76329474771401
30
0
41
1
10
25.3309382161165
20
-1.73781513521007
30
0
41
1
10
25.3469226490925
20
-1.71215766852708
30
0
0
SPLINE
5
F1
100
AcDbEntity
8
1
62
256
6
ByLayer
370
18
48
1
60
0
100
AcDbSpline
70
4
71
3
72
43
73
39
40
0
40
0
40
0
40
0
40
0.0392911832012771
40
0.0392911832012771
40
0.0785823664025541
40
0.0785823664025541
40
0.157164732805108
40
0.157164732805108
40
0.196455916006386
40
0.196455916006386
40
0.235747099207665
40
0.235747099207665
40
0.314329465610222
40
0.314329465610222
40
0.353620648811503
40
0.373266240412145
40
0.373266240412145
40
0.392911832012787
40
0.392911832012787
40
0.471494198415352
40
0.471494198415352
40
0.550076564817916
40
0.550076564817916
40
0.628658931220481
40
0.628658931220481
40
0.707241297623045
40
0.707241297623045
40
0.78582366402561
40
0.78582366402561
40
0.825114847226892
40
0.825114847226892
40
0.844760438827532
40
0.844760438827532
40
0.864406030428171
40
0.864406030428171
40
0.942988396830718
40
0.942988396830718
40
1
40
1
40
1
40
1
41
1
10
25.3469226490147
20
-1.71215766852254
30
0
41
1
10
25.2913876748008
20
-1.7088839479232
30
0
41
1
10
25.2359327099208
20
-1.70473053162851
30
0
41
1
10
25.1251642102302
20
-1.69441371977251
30
0
41
1
10
25.0698455496745
20
-1.68829772368545
30
0
41
1
10
24.9040115422508
20
-1.66712714888655
30
0
41
1
10
24.7936185242052
20
-1.64925190173042
30
0
41
1
10
24.6279703414642
20
-1.61696201339782
30
0
41
1
10
24.5727410000053
20
-1.60528128506016
30
0
41
1
10
24.462287966934
20
-1.58017429513976
30
0
41
1
10
24.4070713758487
20
-1.56675669541192
30
0
41
1
10
24.2412916956793
20
-1.52387729575639
30
0
41
1
10
24.1306104651325
20
-1.49175064262781
30
0
41
1
10
23.9641010009222
20
-1.43847080519282
30
0
41
1
10
23.8806993910309
20
-1.41056319416137
30
0
41
1
10
23.7970155282485
20
-1.38078972184903
30
0
41
1
10
23.7411572554511
20
-1.36052981681493
30
0
41
1
10
23.7131863593522
20
-1.35019136399163
30
0
41
1
10
23.5736045409673
20
-1.29765855525164
30
0
41
1
10
23.4624486249832
20
-1.25281626559729
30
0
41
1
10
23.2407455372135
20
-1.15805584006901
30
0
41
1
10
23.130195092087
20
-1.10813668317172
30
0
41
1
10
22.9094144149938
20
-1.00370338439799
30
0
41
1
10
22.7991908847574
20
-0.949183273640614
30
0
41
1
10
22.5786371722691
20
-0.836161005300625
30
0
41
1
10
22.468305273931
20
-0.777655970819552
30
0
41
1
10
22.2471259625859
20
-0.657275727095453
30
0
41
1
10
22.1362798690831
20
-0.595404940577765
30
0
41
1
10
21.9693025250183
20
-0.500450800889865
30
0
41
1
10
21.9135190157732
20
-0.468442388990866
30
0
41
1
10
21.8296706039214
20
-0.419919588989785
30
0
41
1
10
21.8016764188305
20
-0.403649159596768
30
0
41
1
10
21.7457896471112
20
-0.371043002772694
30
0
41
1
10
21.7178811022192
20
-0.354699291071341
30
0
41
1
10
21.5784875751924
20
-0.272825443161707
30
0
41
1
10
21.4674419494297
20
-0.206851579505297
30
0
41
1
10
21.2762651668787
20
-0.0928173625121929
30
0
41
1
10
21.1960155876663
20
-0.0448091349113326
30
0
41
1
10
21.1158268923166
20
0.0031387029782195
30
0
0
SPLINE
5
F2
100
AcDbEntity
8
1
62
256
6
ByLayer
370
18
48
1
60
0
100
AcDbSpline
70
4
71
3
72
46
73
42
40
0
40
0
40
0
40
0
40
0.0420206293470856
40
0.0420206293470856
40
0.112230557380947
40
0.112230557380947
40
0.147335521397877
40
0.147335521397877
40
0.182440485414807
40
0.182440485414807
40
0.252650413448671
40
0.252650413448671
40
0.322860341482535
40
0.322860341482535
40
0.357965305499467
40
0.357965305499467
40
0.393070269516399
40
0.393070269516399
40
0.463280197550263
40
0.463280197550263
40
0.533490125584127
40
0.533490125584127
40
0.551042607592592
40
0.551042607592592
40
0.568595089601057
40
0.568595089601057
40
0.603700053617988
40
0.603700053617988
40
0.673909981651848
40
0.673909981651848
40
0.814329837719569
40
0.849434801736501
40
0.849434801736501
40
0.884539765753433
40
0.919644729770365
40
0.919644729770365
40
0.954749693787297
40
0.954749693787297
40
0.989854657804229
40
0.989854657804229
40
1
40
1
40
1
40
1
41
1
10
20.1712082543376
20
1.70775984195092
30
0
41
1
10
20.23758370632
20
1.71037290877715
30
0
41
1
10
20.3039105971541
20
1.71158632630735
30
0
41
1
10
20.480969457221
20
1.71138693593383
30
0
41
1
10
20.5916160414538
20
1.7076672986679
30
0
41
1
10
20.7574954346759
20
1.69705830147595
30
0
41
1
10
20.812793172603
20
1.69264705414201
30
0
41
1
10
20.9235672057143
20
1.68180147218612
30
0
41
1
10
20.9790506270533
20
1.67534775439887
30
0
41
1
10
21.1449973038427
20
1.65276494741676
30
0
41
1
10
21.2552380452687
20
1.63354100391845
30
0
41
1
10
21.4750739047979
20
1.58856808456551
30
0
41
1
10
21.5846400263693
20
1.56279179372353
30
0
41
1
10
21.7484779437837
20
1.51981390082071
30
0
41
1
10
21.8030365108304
20
1.50471928069444
30
0
41
1
10
21.912266622611
20
1.47265774712528
30
0
41
1
10
21.9669240115078
20
1.45572335800503
30
0
41
1
10
22.1310778004105
20
1.40237917787718
30
0
41
1
10
22.2407471711803
20
1.36342659751151
30
0
41
1
10
22.4606173053832
20
1.27959191905845
30
0
41
1
10
22.5708152233153
20
1.23469688984443
30
0
41
1
10
22.7089167055015
20
1.1751633595203
30
0
41
1
10
22.7365559157728
20
1.16308541888409
30
0
41
1
10
22.7918825658785
20
1.1385872881477
30
0
41
1
10
22.8195864023842
20
1.12615946387766
30
0
41
1
10
22.9025414306886
20
1.08847445691603
30
0
41
1
10
22.957699875528
20
1.06278796474641
30
0
41
1
10
23.1228249165935
20
0.984105403174055
30
0
41
1
10
23.2324490393002
20
0.929501756218485
30
0
41
1
10
23.5609265656516
20
0.760349395041771
30
0
41
1
10
23.8339409294901
20
0.61044023182211
30
0
41
1
10
24.1072999695923
20
0.452862190756491
30
0
41
1
10
24.216686362199
20
0.389248474309085
30
0
41
1
10
24.3261156605545
20
0.325055224112333
30
0
41
1
10
24.4358138387074
20
0.259886256357589
30
0
41
1
10
24.5457699815058
20
0.194365665003119
30
0
41
1
10
24.6008792073303
20
0.161430082715071
30
0
41
1
10
24.7114119498982
20
0.0952985711500958
30
0
41
1
10
24.7668646078992
20
0.0620867631807585
30
0
41
1
10
24.8382064726481
20
0.0193578345472361
30
0
41
1
10
24.8541984170926
20
0.0097796859992911
30
0
41
1
10
24.8701874993447
20
0.0002039982775273
30
0
0
SPLINE
5
F3
100
AcDbEntity
8
1
62
256
6
ByLayer
370
18
48
1
60
0
100
AcDbSpline
70
4
71
3
72
8
73
4
40
0
40
0
40
0
40
0
40
1
40
1
40
1
40
1
41
1
10
25.292347773366
20
-0.263629006255115
30
0
41
1
10
25.3014482443639
20
-0.265384159418403
30
0
41
1
10
25.3105675051385
20
-0.266894019977286
30
0
41
1
10
25.3197120930224
20
-0.268160163397823
30
0
0
SPLINE
5
F4
100
AcDbEntity
8
1
62
256
6
ByLayer
370
18
48
1
60
0
100
AcDbSpline
70
4
71
3
72
49
73
45
40
0
40
0
40
0
40
0
40
0.0496553693372742
40
0.0834345869485956
40
0.0834345869485956
40
0.117213804559917
40
0.117213804559917
40
0.150993022171239
40
0.150993022171239
40
0.18477223978256
40
0.218551457393882
40
0.252330675005203
40
0.252330675005203
40
0.387447545450483
40
0.387447545450483
40
0.455005980673123
40
0.455005980673123
40
0.488785198284443
40
0.488785198284443
40
0.505674807090104
40
0.505674807090104
40
0.522564415895766
40
0.522564415895766
40
0.590122851118415
40
0.590122851118415
40
0.657681286341064
40
0.657681286341064
40
0.691460503952387
40
0.691460503952387
40
0.72523972156371
40
0.72523972156371
40
0.792798156786352
40
0.792798156786352
40
0.860356592008995
40
0.860356592008995
40
0.877246200814655
40
0.877246200814655
40
0.894135809620315
40
0.894135809620315
40
0.927915027231637
40
0.927915027231637
40
0.995473462454286
40
0.995473462454286
40
1
40
1
40
1
40
1
41
1
10
25.2341834383035
20
-0.2275400078899
30
0
41
1
10
25.1529097682436
20
-0.179479779882172
30
0
41
1
10
25.0163529413854
20
-0.0984135045320897
30
0
41
1
10
24.879664847648
20
-0.0170262475552363
30
0
41
1
10
24.7689104475739
20
0.0489320214108204
30
0
41
1
10
24.7134258111562
20
0.0819815781923126
30
0
41
1
10
24.6027977086084
20
0.147822256257797
30
0
41
1
10
24.5476406370377
20
0.180620529160194
30
0
41
1
10
24.4375895625981
20
0.245883294642084
30
0
41
1
10
24.3277974720983
20
0.310808447893237
30
0
41
1
10
24.1635152788427
20
0.406769915055634
30
0
41
1
10
24.0540832283955
20
0.469610064452184
30
0
41
1
10
23.7805744515878
20
0.625209013446892
30
0
41
1
10
23.5620093828045
20
0.744915741697042
30
0
41
1
10
23.2333218858714
20
0.913920220316101
30
0
41
1
10
23.1236294920452
20
0.968498867314196
30
0
41
1
10
22.9584125833097
20
1.04718421276328
30
0
41
1
10
22.9032248899291
20
1.07287773534819
30
0
41
1
10
22.8202280063828
20
1.11058150864639
30
0
41
1
10
22.7925071862612
20
1.12301860806139
30
0
41
1
10
22.737135768667
20
1.14754328382421
30
0
41
1
10
22.7094742340953
20
1.15963606451922
30
0
41
1
10
22.5712617458304
20
1.21925173650033
30
0
41
1
10
22.4609774212003
20
1.26424615131936
30
0
41
1
10
22.2409361185428
20
1.34834671161798
30
0
41
1
10
22.13118320311
20
1.38746778831555
30
0
41
1
10
21.9669049474254
20
1.44111405109067
30
0
41
1
10
21.9122060493165
20
1.45815688919652
30
0
41
1
10
21.8028946505002
20
1.49045239308171
30
0
41
1
10
21.748295269809
20
1.50566936753475
30
0
41
1
10
21.5843303070911
20
1.54899207734982
30
0
41
1
10
21.4746848969411
20
1.57501113766963
30
0
41
1
10
21.254708631036
20
1.62055080080069
30
0
41
1
10
21.1444070609195
20
1.64009307254466
30
0
41
1
10
21.0060529660361
20
1.65935806994256
30
0
41
1
10
20.9783585966868
20
1.66294968382883
30
0
41
1
10
20.9229161808561
20
1.66959674394678
30
0
41
1
10
20.8951618279564
20
1.67265690218227
30
0
41
1
10
20.8120225193869
20
1.68107102370416
30
0
41
1
10
20.7566843403032
20
1.68566940349353
30
0
41
1
10
20.5906841962271
20
1.69684324652485
30
0
41
1
10
20.4799609688768
20
1.70095283717535
30
0
41
1
10
20.361697751616
20
1.70153015644897
30
0
41
1
10
20.3542710771953
20
1.70155036674569
30
0
41
1
10
20.3468439833464
20
1.70155437844284
30
0
0
SPLINE
5
F5
100
AcDbEntity
8
1
62
256
6
ByLayer
370
18
48
1
60
0
100
AcDbSpline
70
4
71
3
72
8
73
4
40
0
40
0
40
0
40
0
40
1
40
1
40
1
40
1
41
1
10
16.4867228306223
20
1.69180244549449
30
0
41
1
10
16.5375106160072
20
1.69351807679595
30
0
41
1
10
16.5882165403048
20
1.69444202335904
30
0
41
1
10
16.6388624045536
20
1.69457640685675
30
0
0
SPLINE
5
F6
100
AcDbEntity
8
1
62
256
6
ByLayer
370
18
48
1
60
0
100
AcDbSpline
70
4
71
3
72
44
73
40
40
0
40
0
40
0
40
0
40
0.136131258693263
40
0.136131258693263
40
0.20812032046882
40
0.20812032046882
40
0.22611758591271
40
0.22611758591271
40
0.244114851356599
40
0.244114851356599
40
0.280109382244378
40
0.280109382244378
40
0.352098444019935
40
0.352098444019935
40
0.424087505795492
40
0.424087505795492
40
0.496076567571049
40
0.496076567571049
40
0.568065629346607
40
0.568065629346607
40
0.640054691122164
40
0.640054691122164
40
0.658051956566055
40
0.658051956566055
40
0.676049222009946
40
0.676049222009946
40
0.712043752897728
40
0.712043752897728
40
0.784032814673295
40
0.784032814673295
40
0.820027345561079
40
0.820027345561079
40
0.856021876448862
40
0.856021876448862
40
0.928010938224433
40
0.964005469112217
40
0.982002734556108
40
0.982002734556108
40
1
40
1
40
1
40
1
41
1
10
20.7346034608804
20
0.240392054737782
30
0
41
1
10
20.9435951364777
20
0.117549104991582
30
0
41
1
10
21.152221933919
20
-0.0071001811471376
30
0
41
1
10
21.4725338330267
20
-0.197133964954162
30
0
41
1
10
21.5835771751426
20
-0.262774248027483
30
0
41
1
10
21.7229690424047
20
-0.344245282453272
30
0
41
1
10
21.7508774171734
20
-0.360508922761738
30
0
41
1
10
21.8067635129316
20
-0.392956828277107
30
0
41
1
10
21.8347571930311
20
-0.409148806135249
30
0
41
1
10
21.9186032453538
20
-0.457446341762392
30
0
41
1
10
21.9743836184455
20
-0.489316429519363
30
0
41
1
10
22.141354131714
20
-0.583876236444411
30
0
41
1
10
22.2521997787232
20
-0.645510737594748
30
0
41
1
10
22.473383158115
20
-0.765472873919862
30
0
41
1
10
22.5837191259516
20
-0.823796810227208
30
0
41
1
10
22.8042844008571
20
-0.936511458903851
30
0
41
1
10
22.9145155488211
20
-0.990904738128563
30
0
41
1
10
23.1353076789292
20
-1.09514223732219
30
0
41
1
10
23.2458617760197
20
-1.14499264123529
30
0
41
1
10
23.4675648155055
20
-1.23967124495172
30
0
41
1
10
23.5787177778564
20
-1.28449958845803
30
0
41
1
10
23.7182908204782
20
-1.33704940791262
30
0
41
1
10
23.746259497789
20
-1.34739292599807
30
0
41
1
10
23.8021144431253
20
-1.36766701487303
30
0
41
1
10
23.8300077298086
20
-1.37760057446135
30
0
41
1
10
23.9135949973108
20
-1.40678508174403
30
0
41
1
10
23.9691958459116
20
-1.42541998164845
30
0
41
1
10
24.1357094741613
20
-1.47881168205493
30
0
41
1
10
24.2463995272209
20
-1.51104383536102
30
0
41
1
10
24.4121962228053
20
-1.5541261422874
30
0
41
1
10
24.4674204356077
20
-1.56761780990368
30
0
41
1
10
24.5778872515296
20
-1.59288901178988
30
0
41
1
10
24.6331219313275
20
-1.60466022154552
30
0
41
1
10
24.7987859695782
20
-1.63723971676555
30
0
41
1
10
24.9643936891651
20
-1.66437769590422
30
0
41
1
10
25.1580322929404
20
-1.68622607147663
30
0
41
1
10
25.2411678884301
20
-1.69344823873576
30
0
41
1
10
25.2966306234171
20
-1.69778261170424
30
0
41
1
10
25.3243713176656
20
-1.69968876569163
30
0
41
1
10
25.3521570658304
20
-1.70139556041332
30
0
0
SPLINE
5
F7
100
AcDbEntity
8
1
62
256
6
ByLayer
370
18
48
1
60
0
100
AcDbSpline
70
4
71
3
72
8
73
4
40
0
40
0
40
0
40
0
40
1
40
1
40
1
40
1
41
1
10
25.3521570658305
20
-1.70139556041332
30
0
41
1
10
25.351896516112
20
-1.70096909035721
30
0
41
1
10
25.3516360532045
20
-1.7005269412854
30
0
41
1
10
25.3513756726685
20
-1.70006912934278
30
0
0
SPLINE
5
F8
100
AcDbEntity
8
1
62
256
6
ByLayer
370
18
48
1
60
0
100
AcDbSpline
70
4
71
3
72
28
73
24
40
0
40
0
40
0
40
0
40
0.125
40
0.125
40
0.249999999999999
40
0.249999999999999
40
0.374999999999999
40
0.374999999999999
40
0.499999999999998
40
0.499999999999998
40
0.531249999999998
40
0.531249999999998
40
0.562499999999998
40
0.624999999999998
40
0.624999999999998
40
0.749999999999999
40
0.749999999999999
40
0.781249999999999
40
0.781249999999999
40
0.812499999999999
40
0.874999999999999
40
0.874999999999999
40
1
40
1
40
1
40
1
41
1
10
25.3220957482606
20
-0.279448060411397
30
0
41
1
10
25.3134382734124
20
-0.371261411545646
30
0
41
1
10
25.3070724244308
20
-0.460767656249828
30
0
41
1
10
25.2974225587736
20
-0.635236356328761
30
0
41
1
10
25.29414312525
20
-0.720199625437061
30
0
41
1
10
25.2897115993787
20
-0.885315736950758
30
0
41
1
10
25.2886117235244
20
-0.963236164236889
30
0
41
1
10
25.2879093512217
20
-1.10996389421999
30
0
41
1
10
25.2883078756142
20
-1.17880790062648
30
0
41
1
10
25.2896729839533
20
-1.25899601450465
30
0
41
1
10
25.2899905551663
20
-1.27470568748117
30
0
41
1
10
25.2907118732493
20
-1.30525635120193
30
0
41
1
10
25.2919252740213
20
-1.34987704689695
30
0
41
1
10
25.2935432452684
20
-1.39094004722236
30
0
41
1
10
25.2973975392289
20
-1.46838702964041
30
0
41
1
10
25.3007711815052
20
-1.51381089519597
30
0
41
1
10
25.3065428633879
20
-1.5625792842807
30
0
41
1
10
25.3077788891794
20
-1.57194182031625
30
0
41
1
10
25.3104056140722
20
-1.58969268076038
30
0
41
1
10
25.3145840835479
20
-1.6149168506459
30
0
41
1
10
25.3195447601409
20
-1.63600768120531
30
0
41
1
10
25.3307252655156
20
-1.67277218905343
30
0
41
1
10
25.3398433683739
20
-1.69008479734518
30
0
41
1
10
25.3513756726684
20
-1.70006912934278
30
0
0
SPLINE
5
F9
100
AcDbEntity
8
1
62
256
6
ByLayer
370
18
48
1
60
0
100
AcDbSpline
70
4
71
3
72
30
73
26
40
0
40
0
40
0
40
0
40
0.0625000000000355
40
0.0625000000000355
40
0.125000000000071
40
0.125000000000071
40
0.250000000000142
40
0.250000000000142
40
0.312500000000177
40
0.312500000000177
40
0.375000000000213
40
0.375000000000213
40
0.500000000000204
40
0.500000000000204
40
0.562500000000153
40
0.562500000000153
40
0.625000000000102
40
0.625000000000102
40
0.749999999999999
40
0.749999999999999
40
0.812499999999999
40
0.812499999999999
40
0.875
40
0.875
40
1
40
1
40
1
40
1
41
1
10
14.6006439779797
20
0.608660101212507
30
0
41
1
10
14.6011558901868
20
0.612547307981146
30
0
41
1
10
14.601923560061
20
0.616388867446403
30
0
41
1
10
14.6039741472443
20
0.623980718968653
30
0
41
1
10
14.6052688655203
20
0.627756863913021
30
0
41
1
10
14.6098717577075
20
0.638725412733379
30
0
41
1
10
14.6138595029272
20
0.645544341367327
30
0
41
1
10
14.6212141657396
20
0.655045622129762
30
0
41
1
10
14.6239073407686
20
0.658094534337209
30
0
41
1
10
14.6296109239914
20
0.663776593927849
30
0
41
1
10
14.6326372988222
20
0.666433007748566
30
0
41
1
10
14.6422343996383
20
0.673857548886588
30
0
41
1
10
14.6494198389079
20
0.678117551116969
30
0
41
1
10
14.6607157202237
20
0.683086617451039
30
0
41
1
10
14.6645801311024
20
0.684519893478011
30
0
41
1
10
14.6725079114865
20
0.686940094403695
30
0
41
1
10
14.6765985676172
20
0.687931458604936
30
0
41
1
10
14.6889765355548
20
0.690168475760032
30
0
41
1
10
14.6972850771802
20
0.69068877929729
30
0
41
1
10
14.7098318434224
20
0.690029542137069
30
0
41
1
10
14.7140457897086
20
0.689560863616208
30
0
41
1
10
14.7222731109698
20
0.688156269333092
30
0
41
1
10
14.7263131945052
20
0.687221018601434
30
0
41
1
10
14.7382158046289
20
0.683724680123134
30
0
41
1
10
14.7459250311681
20
0.680438467148292
30
0
41
1
10
14.7530774234971
20
0.676287074609519
30
0
0
SPLINE
5
FA
100
AcDbEntity
8
1
62
256
6
ByLayer
370
18
48
1
60
0
100
AcDbSpline
70
4
71
3
72
54
73
50
40
0
40
0
40
0
40
0
40
0.0586957799281779
40
0.0586957799281779
40
0.117391559856356
40
0.117391559856356
40
0.176087339784534
40
0.176087339784534
40
0.234783119712712
40
0.234783119712712
40
0.293478899640889
40
0.293478899640889
40
0.308152844622935
40
0.308152844622935
40
0.322826789604981
40
0.322826789604981
40
0.352174679569073
40
0.352174679569073
40
0.381522569533164
40
0.381522569533164
40
0.410870459497256
40
0.410870459497256
40
0.469566239425439
40
0.469566239425439
40
0.528262019353622
40
0.528262019353622
40
0.586957799281806
40
0.586957799281806
40
0.616305689245897
40
0.616305689245897
40
0.630979634227942
40
0.630979634227942
40
0.645653579209986
40
0.645653579209986
40
0.704349359138167
40
0.704349359138167
40
0.763045139066347
40
0.763045139066347
40
0.821740918994528
40
0.821740918994528
40
0.880436698922709
40
0.880436698922709
40
0.939132478850889
40
0.939132478850889
40
0.96848036881498
40
0.96848036881498
40
0.99782825877907
40
0.99782825877907
40
1
40
1
40
1
40
1
41
1
10
14.7530774234971
20
0.676287074609547
30
0
41
1
10
14.8635118442027
20
0.612188712962705
30
0
41
1
10
14.9736517326755
20
0.547213918317681
30
0
41
1
10
15.1935025460633
20
0.415803018891495
30
0
41
1
10
15.3032245121814
20
0.349384395478722
30
0
41
1
10
15.5224196254626
20
0.215388877447651
30
0
41
1
10
15.6318640447545
20
0.147765375240823
30
0
41
1
10
15.8506456247864
20
0.0115810389264652
30
0
41
1
10
15.960004388753
20
-0.0569466956627025
30
0
41
1
10
16.1795875988247
20
-0.19335085817724
30
0
41
1
10
16.2897395199207
20
-0.261345003658647
30
0
41
1
10
16.4280239594351
20
-0.34584637029937
30
0
41
1
10
16.4557102738108
20
-0.362722617826194
30
0
41
1
10
16.5111453100933
20
-0.396421526800282
30
0
41
1
10
16.538892742909
20
-0.413243295296951
30
0
41
1
10
16.6219529761144
20
-0.463448429189214
30
0
41
1
10
16.6771807568009
20
-0.496623925864213
30
0
41
1
10
16.7873501900286
20
-0.562382896804365
30
0
41
1
10
16.8422705021751
20
-0.594999009804724
30
0
41
1
10
16.9519698530997
20
-0.659412021156044
30
0
41
1
10
17.0067773265902
20
-0.691165755528914
30
0
41
1
10
17.1711889333717
20
-0.784922929537458
30
0
41
1
10
17.2807402566493
20
-0.845492282560997
30
0
41
1
10
17.4997649439089
20
-0.962776025770296
30
0
41
1
10
17.6091846501739
20
-1.01956343376926
30
0
41
1
10
17.8280272715631
20
-1.12908390617031
30
0
41
1
10
17.9375710427995
20
-1.18164917374224
30
0
41
1
10
18.1026493924159
20
-1.25644305546069
30
0
41
1
10
18.1577817371225
20
-1.2807259748908
30
0
41
1
10
18.240633365061
20
-1.31617485574222
30
0
41
1
10
18.2682762335582
20
-1.3278282944575
30
0
41
1
10
18.3236140515577
20
-1.3508057226133
30
0
41
1
10
18.3513233569077
20
-1.3621357019783
30
0
41
1
10
18.4895842581583
20
-1.41772638448043
30
0
41
1
10
18.5996312271628
20
-1.45890529010126
30
0
41
1
10
18.8194365447777
20
-1.53411574184733
30
0
41
1
10
18.9291190178776
20
-1.56823873037365
30
0
41
1
10
19.1480847878791
20
-1.62959932834932
30
0
41
1
10
19.2573584977661
20
-1.65683715753372
30
0
41
1
10
19.4757540847207
20
-1.70415457618597
30
0
41
1
10
19.5849283627687
20
-1.72419292546917
30
0
41
1
10
19.8039189017926
20
-1.75661728268912
30
0
41
1
10
19.9137343566685
20
-1.76900708927155
30
0
41
1
10
20.0793596294916
20
-1.78169530869963
30
0
41
1
10
20.1347546903567
20
-1.78494738602632
30
0
41
1
10
20.2456392754727
20
-1.78946415399958
30
0
41
1
10
20.3009433537775
20
-1.79072279019374
30
0
41
1
10
20.3602006585755
20
-1.79101271171942
30
0
41
1
10
20.3642828257512
20
-1.79102728014664
30
0
41
1
10
20.368364263918
20
-1.79103644134892
30
0
0
SPLINE
5
FB
100
AcDbEntity
8
1
62
256
6
ByLayer
370
18
48
1
60
0
100
AcDbSpline
70
4
71
3
72
104
73
100
40
0
40
0
40
0
40
0
40
0.0139450721610338
40
0.0139450721610338
40
0.0395322990517042
40
0.0395322990517042
40
0.0651195259423746
40
0.0651195259423746
40
0.0779131393877104
40
0.0779131393877104
40
0.0907067528330463
40
0.0907067528330463
40
0.116293979723719
40
0.116293979723719
40
0.141881206614392
40
0.141881206614392
40
0.167468433505065
40
0.167468433505065
40
0.180262046950401
40
0.180262046950401
40
0.193055660395737
40
0.193055660395737
40
0.218642887286409
40
0.218642887286409
40
0.24423011417708
40
0.24423011417708
40
0.257023727622416
40
0.257023727622416
40
0.269817341067752
40
0.269817341067752
40
0.295404567958424
40
0.295404567958424
40
0.320991794849096
40
0.320991794849096
40
0.346579021739768
40
0.346579021739768
40
0.372166248630439
40
0.372166248630439
40
0.397753475521111
40
0.397753475521111
40
0.410547088966447
40
0.410547088966447
40
0.423340702411783
40
0.423340702411783
40
0.448927929302453
40
0.448927929302453
40
0.461721542747788
40
0.461721542747788
40
0.474515156193123
40
0.474515156193123
40
0.500102383083794
40
0.500102383083794
40
0.525689609974464
40
0.525689609974464
40
0.551276836865134
40
0.551276836865134
40
0.576864063755804
40
0.576864063755804
40
0.602451290646475
40
0.602451290646475
40
0.628038517537145
40
0.628038517537145
40
0.653625744427816
40
0.653625744427816
40
0.66641935787315
40
0.66641935787315
40
0.679212971318484
40
0.679212971318484
40
0.704800198209155
40
0.704800198209155
40
0.730387425099825
40
0.730387425099825
40
0.743181038545161
40
0.743181038545161
40
0.755974651990497
40
0.755974651990497
40
0.781561878881167
40
0.781561878881167
40
0.807149105771837
40
0.807149105771837
40
0.832736332662507
40
0.832736332662507
40
0.858323559553178
40
0.858323559553178
40
0.883910786443848
40
0.883910786443848
40
0.896704399889183
40
0.896704399889183
40
0.909498013334517
40
0.909498013334517
40
0.935085240225184
40
0.935085240225184
40
0.947878853670518
40
0.947878853670518
40
0.960672467115852
40
0.960672467115852
40
0.986259694006518
40
0.986259694006518
40
1
40
1
40
1
40
1
41
1
10
22.9214711850786
20
-1.31749853592788
30
0
41
1
10
22.8701784327714
20
-1.33935331711135
30
0
41
1
10
22.8188677897187
20
-1.36054803780783
30
0
41
1
10
22.6733102134785
20
-1.41871726009737
30
0
41
1
10
22.5789338986277
20
-1.45405266897382
30
0
41
1
10
22.3900316786498
20
-1.52022253790724
30
0
41
1
10
22.2955361588543
20
-1.55106494730475
30
0
41
1
10
22.1531120241707
20
-1.59337313394326
30
0
41
1
10
22.1055377991132
20
-1.60683056259305
30
0
41
1
10
22.0101624613391
20
-1.63242599755168
30
0
41
1
10
21.9623536213988
20
-1.64456318691228
30
0
41
1
10
21.8193885218441
20
-1.67875787027361
30
0
41
1
10
21.7244126902687
20
-1.69869113523654
30
0
41
1
10
21.5352934717874
20
-1.73297993640597
30
0
41
1
10
21.4410126560309
20
-1.7472500090571
30
0
41
1
10
21.2524763216404
20
-1.76993056125932
30
0
41
1
10
21.1582582267187
20
-1.77836201520719
30
0
41
1
10
21.016864478949
20
-1.78666004857828
30
0
41
1
10
20.9697290926684
20
-1.78870290152383
30
0
41
1
10
20.8755008143321
20
-1.79133657165838
30
0
41
1
10
20.8284086427468
20
-1.79192522626334
30
0
41
1
10
20.6870237283252
20
-1.79147716651352
30
0
41
1
10
20.5925677392184
20
-1.78823075781105
30
0
41
1
10
20.4029813084996
20
-1.7758450842841
30
0
41
1
10
20.3078310725422
20
-1.76671658369003
30
0
41
1
10
20.1645533052325
20
-1.74854202286266
30
0
41
1
10
20.1167850373549
20
-1.74173319369061
30
0
41
1
10
20.0216165602666
20
-1.72668417008302
30
0
41
1
10
19.9741445876651
20
-1.71843986564241
30
0
41
1
10
19.8318836966749
20
-1.69165378040245
30
0
41
1
10
19.7372762892626
20
-1.67105149578745
30
0
41
1
10
19.5483050946668
20
-1.62461242805094
30
0
41
1
10
19.4538936801157
20
-1.59881629953415
30
0
41
1
10
19.2654544573786
20
-1.54191622148579
30
0
41
1
10
19.1714095094663
20
-1.51080242936391
30
0
41
1
10
18.9828999349836
20
-1.44388711458461
30
0
41
1
10
18.8884957862002
20
-1.4080427442116
30
0
41
1
10
18.699163178355
20
-1.33179999932978
30
0
41
1
10
18.6042553029018
20
-1.2913885621482
30
0
41
1
10
18.4616158633862
20
-1.22712529022272
30
0
41
1
10
18.413998130266
20
-1.2051229944658
30
0
41
1
10
18.3185015240763
20
-1.1600886277451
30
0
41
1
10
18.2707642139488
20
-1.13711108786703
30
0
41
1
10
18.1278910552777
20
-1.06703265685837
30
0
41
1
10
18.0329364439677
20
-1.01873356221427
30
0
41
1
10
17.8908187134861
20
-0.944132480172982
30
0
41
1
10
17.8435085105411
20
-0.918892921657431
30
0
41
1
10
17.7490589874148
20
-0.86760276111508
30
0
41
1
10
17.7019127835526
20
-0.841561061536538
30
0
41
1
10
17.5605294493323
20
-0.762504318348959
30
0
41
1
10
17.4663042293714
20
-0.708622783695688
30
0
41
1
10
17.2776817662666
20
-0.59887896798125
30
0
41
1
10
17.1832525977378
20
-0.543067869072559
30
0
41
1
10
16.9942037795317
20
-0.429488667693704
30
0
41
1
10
16.8997100193844
20
-0.371513171245027
30
0
41
1
10
16.709960851482
20
-0.254461907096953
30
0
41
1
10
16.6147100330587
20
-0.195350727275212
30
0
41
1
10
16.4233211112662
20
-0.0763629432454422
30
0
41
1
10
16.3279580253535
20
-0.0170667361745416
30
0
41
1
10
16.1381437977283
20
0.101575930896246
30
0
41
1
10
16.0436283031455
20
0.160808066469002
30
0
41
1
10
15.8546664471134
20
0.277937448786616
30
0
41
1
10
15.7602794937234
20
0.335934860104032
30
0
41
1
10
15.6186710967998
20
0.421823710500718
30
0
41
1
10
15.5714646063872
20
0.45027051387612
30
0
41
1
10
15.4770901996484
20
0.50687007577676
30
0
41
1
10
15.4299361102034
20
0.53504415670966
30
0
41
1
10
15.2884532567347
20
0.618995416579764
30
0
41
1
10
15.1940193762141
20
0.674070048347573
30
0
41
1
10
15.0045134915947
20
0.781795778204156
30
0
41
1
10
14.9094560100459
20
0.834470822973884
30
0
41
1
10
14.7663177078511
20
0.911546250536048
30
0
41
1
10
14.7184841925638
20
0.936957654211966
30
0
41
1
10
14.6228766286991
20
0.987107080322346
30
0
41
1
10
14.5752106219591
20
1.01176652584877
30
0
41
1
10
14.4324354379984
20
1.08424566776719
30
0
41
1
10
14.3375250922936
20
1.13053887086622
30
0
41
1
10
14.1480299782378
20
1.21891805612768
30
0
41
1
10
14.0534021916293
20
1.26095730516857
30
0
41
1
10
13.8645056532198
20
1.34091983215521
30
0
41
1
10
13.7703296509095
20
1.3789261759909
30
0
41
1
10
13.5816636342354
20
1.45006219845601
30
0
41
1
10
13.4872185756589
20
1.48324993141364
30
0
41
1
10
13.2978885111063
20
1.54467844649312
30
0
41
1
10
13.2029738752936
20
1.5729040456192
30
0
41
1
10
13.060418642519
20
1.61158075900218
30
0
41
1
10
13.012855414943
20
1.62384822847693
30
0
41
1
10
12.9175096865419
20
1.64702700001089
30
0
41
1
10
12.8696636340666
20
1.65794991570712
30
0
41
1
10
12.7261898108163
20
1.68855208717332
30
0
41
1
10
12.6308876544857
20
1.70601735510445
30
0
41
1
10
12.4882848986122
20
1.72786449922304
30
0
41
1
10
12.4408136802431
20
1.73442441877111
30
0
41
1
10
12.3460480625516
20
1.7461221512616
30
0
41
1
10
12.2987637737458
20
1.75126111935154
30
0
41
1
10
12.1570421287518
20
1.7644924033178
30
0
41
1
10
12.062666291145
20
1.77038403108153
30
0
41
1
10
11.917517490639
20
1.77496014581115
30
0
41
1
10
11.8667863509161
20
1.77572053534411
30
0
41
1
10
11.8160318909353
20
1.77564350762398
30
0
0
SPLINE
5
FC
100
AcDbEntity
8
1
62
256
6
ByLayer
370
18
48
1
60
0
100
AcDbSpline
70
4
71
3
72
10
73
6
40
0
40
0
40
0
40
0
40
0.315771048659046
40
0.315771048659046
40
1
40
1
40
1
40
1
41
1
10
14.044412982415
20
1.29084358937271
30
0
41
1
10
14.1031181785043
20
1.31603786179792
30
0
41
1
10
14.1617154615119
20
1.34038371945769
30
0
41
1
10
14.347022323955
20
1.41473254409485
30
0
41
1
10
14.4734271231648
20
1.4615125346736
30
0
41
1
10
14.5998854812406
20
1.50381780961317
30
0
0
SPLINE
5
FD
100
AcDbEntity
8
1
62
256
6
ByLayer
370
18
48
1
60
0
100
AcDbSpline
70
4
71
3
72
64
73
60
40
0
40
0
40
0
40
0
40
0.0156249999999992
40
0.0156249999999992
40
0.0312499999999984
40
0.0312499999999984
40
0.0624999999999967
40
0.0624999999999967
40
0.124999999999994
40
0.124999999999994
40
0.140624999999994
40
0.140624999999994
40
0.156249999999994
40
0.187499999999993
40
0.187499999999993
40
0.249999999999993
40
0.249999999999993
40
0.281249999999992
40
0.281249999999992
40
0.296874999999993
40
0.296874999999993
40
0.312499999999993
40
0.312499999999993
40
0.374999999999997
40
0.374999999999997
40
0.437500000000001
40
0.437500000000001
40
0.468750000000003
40
0.468750000000003
40
0.484375000000004
40
0.484375000000004
40
0.500000000000005
40
0.500000000000005
40
0.562500000000007
40
0.562500000000007
40
0.62500000000001
40
0.62500000000001
40
0.64062500000001
40
0.64062500000001
40
0.65625000000001
40
0.65625000000001
40
0.687500000000009
40
0.687500000000009
40
0.750000000000007
40
0.750000000000007
40
0.812500000000006
40
0.812500000000006
40
0.828125000000005
40
0.828125000000005
40
0.843750000000005
40
0.875000000000004
40
0.875000000000004
40
0.937500000000002
40
0.937500000000002
40
0.96875
40
0.96875
40
0.984375
40
0.984375
40
1
40
1
40
1
40
1
41
1
10
14.5998854812445
20
1.47377167189222
30
0
41
1
10
14.6562418775575
20
1.49347033348255
30
0
41
1
10
14.7125879413553
20
1.51231923377526
30
0
41
1
10
14.8253111349573
20
1.54826995438967
30
0
41
1
10
14.8816377630436
20
1.56535451600735
30
0
41
1
10
15.0502879856821
20
1.61379644170711
30
0
41
1
10
15.1624041142769
20
1.64238166938137
30
0
41
1
10
15.4984640447096
20
1.71666537265057
30
0
41
1
10
15.7221331309392
20
1.750888310542
30
0
41
1
10
16.0034282293563
20
1.77340238743048
30
0
41
1
10
16.0598079500601
20
1.7768907472763
30
0
41
1
10
16.1721477564239
20
1.78179356117138
30
0
41
1
10
16.3402551769321
20
1.78605976878657
30
0
41
1
10
16.5073987222049
20
1.78115006942892
30
0
41
1
10
16.8410651849642
20
1.75932499467766
30
0
41
1
10
17.0626946439153
20
1.72876703259206
30
0
41
1
10
17.3965348168799
20
1.65988223357203
30
0
41
1
10
17.5080356352223
20
1.63307497720649
30
0
41
1
10
17.6759156758371
20
1.58718061479391
30
0
41
1
10
17.7319809287128
20
1.57093522958311
30
0
41
1
10
17.8443764938075
20
1.53656493473511
30
0
41
1
10
17.9007382532299
20
1.51842605417616
30
0
41
1
10
18.1814135928096
20
1.42376154676376
30
0
41
1
10
18.4038568244595
20
1.33490353252253
30
0
41
1
10
18.8480150206912
20
1.13527814235286
30
0
41
1
10
19.0697051257015
20
1.02449057990319
30
0
41
1
10
19.4040359387008
20
0.844703867489244
30
0
41
1
10
19.5157834481788
20
0.782510825466886
30
0
41
1
10
19.6842038632243
20
0.686235714952034
30
0
41
1
10
19.7405212635923
20
0.653619949424552
30
0
41
1
10
19.8527106487283
20
0.587925019168097
30
0
41
1
10
19.9086744326229
20
0.554794179960737
30
0
41
1
10
20.1879844176613
20
0.387960070241775
30
0
41
1
10
20.4098306932802
20
0.250760907066393
30
0
41
1
10
20.8536534339499
20
-0.0256720592644513
30
0
41
1
10
21.0755642399274
20
-0.165012152506563
30
0
41
1
10
21.3549781171726
20
-0.33731042125828
30
0
41
1
10
21.4109643244649
20
-0.371672740968421
30
0
41
1
10
21.5232014458137
20
-0.440108987230275
30
0
41
1
10
21.579503093077
20
-0.474212371528608
30
0
41
1
10
21.7477433991926
20
-0.575259928014447
30
0
41
1
10
21.8593754116428
20
-0.641158190313973
30
0
41
1
10
22.193347209273
20
-0.833567715639902
30
0
41
1
10
22.4147436261362
20
-0.95482928553875
30
0
41
1
10
22.8582919170618
20
-1.17886518076213
30
0
41
1
10
23.0804680627886
20
-1.28160263719505
30
0
41
1
10
23.3608810935718
20
-1.39539039449676
30
0
41
1
10
23.41715207919
20
-1.41743358866134
30
0
41
1
10
23.529257450128
20
-1.45969760895613
30
0
41
1
10
23.6970231295971
20
-1.5204719733309
30
0
41
1
10
23.8638741840801
20
-1.5732456163102
30
0
41
1
10
24.1970156138794
20
-1.66779232955173
30
0
41
1
10
24.418364698094
20
-1.71618136851163
30
0
41
1
10
24.7515075574124
20
-1.76550045792655
30
0
41
1
10
24.8627467332002
20
-1.77805403194509
30
0
41
1
10
25.0302232182518
20
-1.79084358357596
30
0
41
1
10
25.0861520022563
20
-1.79409981238547
30
0
41
1
10
25.1982746266215
20
-1.79856203251748
30
0
41
1
10
25.2544996560188
20
-1.79976594524925
30
0
41
1
10
25.3106492007395
20
-1.79993009471048
30
0
0
SPLINE
5
FE
100
AcDbEntity
8
1
62
256
6
ByLayer
370
18
48
1
60
0
100
AcDbSpline
70
4
71
3
72
10
73
6
40
0
40
0
40
0
40
0
40
0.5
40
0.5
40
1
40
1
40
1
40
1
41
1
10
25.2990670387979
20
-1.78859544151496
30
0
41
1
10
25.3009922701626
20
-1.79230482800051
30
0
41
1
10
25.3029197181921
20
-1.79510565325523
30
0
41
1
10
25.3067815835425
20
-1.79888756833557
30
0
41
1
10
25.3087181130613
20
-1.79986736651185
30
0
41
1
10
25.3106492007396
20
-1.79993009471048
30
0
0
SPLINE
5
FF
100
AcDbEntity
8
1
62
256
6
ByLayer
370
18
48
1
60
0
100
AcDbSpline
70
4
71
3
72
56
73
52
40
0
40
0
40
0
40
0
40
0.0766621287648368
40
0.0766621287648368
40
0.0958276609560461
40
0.0958276609560461
40
0.114993193147255
40
0.114993193147255
40
0.153324257529675
40
0.153324257529675
40
0.191655321912096
40
0.191655321912096
40
0.229986386294516
40
0.229986386294516
40
0.268317450676936
40
0.268317450676936
40
0.306648515059356
40
0.306648515059356
40
0.383310643824198
40
0.383310643824198
40
0.402476176015409
40
0.402476176015409
40
0.421641708206619
40
0.421641708206619
40
0.45997277258904
40
0.45997277258904
40
0.536634901353882
40
0.536634901353882
40
0.613297030118724
40
0.613297030118724
40
0.651628094501145
40
0.651628094501145
40
0.689959158883566
40
0.689959158883566
40
0.709124691074777
40
0.709124691074777
40
0.728290223265987
40
0.728290223265987
40
0.76662128764841
40
0.76662128764841
40
0.843283416413256
40
0.843283416413256
40
0.919945545178101
40
0.919945545178101
40
0.939111077369312
40
0.939111077369312
40
0.958276609560523
40
0.958276609560523
40
0.996607673942945
40
0.996607673942945
40
1
40
1
40
1
40
1
41
1
10
25.2990670388048
20
-1.78859544151479
30
0
41
1
10
25.0768500491166
20
-1.77250968449255
30
0
41
1
10
24.8562647723168
20
-1.74038061696533
30
0
41
1
10
24.5805862665622
20
-1.68170221860313
30
0
41
1
10
24.5254620927443
20
-1.66903551839553
30
0
41
1
10
24.4152467861554
20
-1.64182708093614
30
0
41
1
10
24.3601460885395
20
-1.62728970906235
30
0
41
1
10
24.1947062920298
20
-1.58097270894857
30
0
41
1
10
24.0843049429122
20
-1.54643474389763
30
0
41
1
10
23.8627689693741
20
-1.47032841470485
30
0
41
1
10
23.7515919907684
20
-1.42878142996699
30
0
41
1
10
23.5280773467254
20
-1.33899975012457
30
0
41
1
10
23.4168636529192
20
-1.29122133946871
30
0
41
1
10
23.1950972006621
20
-1.19050801749259
30
0
41
1
10
23.084549056465
20
-1.13756901503436
30
0
41
1
10
22.8638058687614
20
-1.02697987412222
30
0
41
1
10
22.7536063380508
20
-0.969332605159309
30
0
41
1
10
22.4227932580878
20
-0.79033255911898
30
0
41
1
10
22.2019686110526
20
-0.662926407355116
30
0
41
1
10
21.9235273259415
20
-0.49640277624124
30
0
41
1
10
21.8676893935613
20
-0.462710454411621
30
0
41
1
10
21.7559032112397
20
-0.394668329247679
30
0
41
1
10
21.7001736640597
20
-0.360459935930805
30
0
41
1
10
21.5333065094677
20
-0.257550291260912
30
0
41
1
10
21.4224994371157
20
-0.188549180227511
30
0
41
1
10
21.0907858096751
20
0.0186625156705702
30
0
41
1
10
20.8706247356562
20
0.157143889969689
30
0
41
1
10
20.4289954183612
20
0.429491309685659
30
0
41
1
10
20.2074719306332
20
0.563314114594959
30
0
41
1
10
19.8717997184931
20
0.756541506073972
30
0
41
1
10
19.7602026481133
20
0.819197902435661
30
0
41
1
10
19.537210318799
20
0.940478464420551
30
0
41
1
10
19.4258173237228
20
0.999102813787601
30
0
41
1
10
19.2584597387539
20
1.08344061530551
30
0
41
1
10
19.2026289235685
20
1.11095361256591
30
0
41
1
10
19.0908271916134
20
1.16471344278426
30
0
41
1
10
19.0348315095943
20
1.19096959581967
30
0
41
1
10
18.8674181067932
20
1.26735396658981
30
0
41
1
10
18.7562931955745
20
1.31523580008397
30
0
41
1
10
18.4237677530695
20
1.44932103486059
30
0
41
1
10
18.2032724635601
20
1.52603156202159
30
0
41
1
10
17.7614808227926
20
1.65141812296614
30
0
41
1
10
17.5401310987741
20
1.7000409503645
30
0
41
1
10
17.2606858061168
20
1.74140716638175
30
0
41
1
10
17.2046237151277
20
1.74871026485096
30
0
41
1
10
17.0929401434213
20
1.76125908330172
30
0
41
1
10
17.0372261853683
20
1.76652014835332
30
0
41
1
10
16.8703960120506
20
1.77928251704279
30
0
41
1
10
16.7596013658218
20
1.78376531384424
30
0
41
1
10
16.6392410987795
20
1.78429661205988
30
0
41
1
10
16.6294567262637
20
1.78430850165108
30
0
41
1
10
16.6196737265371
20
1.78428911722571
30
0
0
SPLINE
5
100
100
AcDbEntity
8
1
62
256
6
ByLayer
370
18
48
1
60
0
100
AcDbSpline
70
4
71
3
72
52
73
48
40
0
40
0
40
0
40
0
40
0.0205680529313012
40
0.0205680529313012
40
0.0781816968765236
40
0.0781816968765236
40
0.106988518849135
40
0.106988518849135
40
0.135795340821746
40
0.135795340821746
40
0.193408984766966
40
0.193408984766966
40
0.251022628712186
40
0.251022628712186
40
0.308636272657405
40
0.308636272657405
40
0.366249916602625
40
0.366249916602625
40
0.395056738575234
40
0.395056738575234
40
0.423863560547842
40
0.423863560547842
40
0.452670382520451
40
0.452670382520451
40
0.481477204493059
40
0.481477204493059
40
0.539090848438274
40
0.539090848438274
40
0.596704492383488
40
0.596704492383488
40
0.654318136328703
40
0.654318136328703
40
0.711931780273917
40
0.711931780273917
40
0.740738602246526
40
0.740738602246526
40
0.755142013232829
40
0.755142013232829
40
0.769545424219132
40
0.769545424219132
40
0.827159068164349
40
0.827159068164349
40
0.884772712109566
40
0.884772712109566
40
0.942386356054783
40
0.942386356054783
40
1
40
1
40
1
40
1
41
1
10
19.5772613561465
20
1.72158831783668
30
0
41
1
10
19.6162849880742
20
1.72834197788308
30
0
41
1
10
19.6553338551926
20
1.73461736136841
30
0
41
1
10
19.8039189017926
20
1.75661728268912
30
0
41
1
10
19.9137343566685
20
1.76900708927155
30
0
41
1
10
20.0793596294916
20
1.78169530869963
30
0
41
1
10
20.1347546903568
20
1.78494738602632
30
0
41
1
10
20.2456392754727
20
1.78946415399958
30
0
41
1
10
20.3009433537775
20
1.79072279019374
30
0
41
1
10
20.4664665653821
20
1.79153262692535
30
0
41
1
10
20.5762793936754
20
1.78812252950795
30
0
41
1
10
20.7950204533362
20
1.77341405648704
30
0
41
1
10
20.9040414762296
20
1.76210345775405
30
0
41
1
10
21.1225368365063
20
1.73204446292482
30
0
41
1
10
21.2319234995434
20
1.71330289905561
30
0
41
1
10
21.4508238601142
20
1.66836278456253
30
0
41
1
10
21.5603309583794
20
1.64215655412391
30
0
41
1
10
21.7246954900525
20
1.59702088536625
30
0
41
1
10
21.7795247664756
20
1.5810149619015
30
0
41
1
10
21.8895504079502
20
1.54728711904059
30
0
41
1
10
21.9447332758048
20
1.52955832975252
30
0
41
1
10
22.0554572915009
20
1.49238693993783
30
0
41
1
10
22.1108060002745
20
1.47300672484812
30
0
41
1
10
22.2212082246114
20
1.43278288543999
30
0
41
1
10
22.2763051911519
20
1.41192451623732
30
0
41
1
10
22.4413058260583
20
1.34715685580179
30
0
41
1
10
22.5509149601257
20
1.30105422566396
30
0
41
1
10
22.7694967103458
20
1.20317281387329
30
0
41
1
10
22.878484128298
20
1.15140168042413
30
0
41
1
10
23.0964932885156
20
1.04295239693485
30
0
41
1
10
23.205512507028
20
0.986269528728911
30
0
41
1
10
23.4242957294116
20
0.868958194354917
30
0
41
1
10
23.5340569917997
20
0.808337792290217
30
0
41
1
10
23.6993416187422
20
0.71455713472713
30
0
41
1
10
23.7545445822991
20
0.682822128749081
30
0
41
1
10
23.8375326813554
20
0.634526277385845
30
0
41
1
10
23.8652446199615
20
0.618301149856478
30
0
41
1
10
23.9205714498218
20
0.585720463279188
30
0
41
1
10
23.9482008931695
20
0.569356565486174
30
0
41
1
10
24.086190338216
20
0.487188704881561
30
0
41
1
10
24.1960492017589
20
0.420295529520416
30
0
41
1
10
24.4151840894931
20
0.284959715665053
30
0
41
1
10
24.5245231557296
20
0.216617108093175
30
0
41
1
10
24.7434198094737
20
0.0796723926559935
30
0
41
1
10
24.8529401297544
20
0.0110114824749132
30
0
41
1
10
25.0723177050639
20
-0.126375754011804
30
0
41
1
10
25.182173028009
20
-0.195105441077175
30
0
41
1
10
25.2923477733641
20
-0.263629006256792
30
0
0
SPLINE
5
101
100
AcDbEntity
8
1
62
256
6
ByLayer
370
18
48
1
60
0
100
AcDbSpline
70
4
71
3
72
8
73
4
40
0
40
0
40
0
40
0
40
1
40
1
40
1
40
1
41
1
10
25.2923477733592
20
-0.263629006254803
30
0
41
1
10
25.2992945435072
20
-0.184889892088734
30
0
41
1
10
25.307717503514
20
-0.106187279954241
30
0
41
1
10
25.3180083415684
20
-0.0275772616691654
30
0
0
SPLINE
5
102
100
AcDbEntity
8
1
62
256
6
ByLayer
370
18
48
1
60
0
100
AcDbSpline
70
4
71
3
72
48
73
44
40
0
40
0
40
0
40
0
40
0.0625938883466508
40
0.0625938883466508
40
0.125187776693302
40
0.125187776693302
40
0.187781665039952
40
0.187781665039952
40
0.250375553386603
40
0.250375553386603
40
0.281672497559929
40
0.281672497559929
40
0.312969441733254
40
0.312969441733254
40
0.344266385906579
40
0.344266385906579
40
0.375563330079905
40
0.375563330079905
40
0.438157218426555
40
0.438157218426555
40
0.469454162599881
40
0.469454162599881
40
0.500751106773206
40
0.500751106773206
40
0.563344995119857
40
0.563344995119857
40
0.625938883466508
40
0.625938883466508
40
0.688532771813159
40
0.688532771813159
40
0.719829715986484
40
0.719829715986484
40
0.751126660159809
40
0.751126660159809
40
0.813720548506464
40
0.813720548506464
40
0.876314436853118
40
0.876314436853118
40
0.938908325199772
40
0.938908325199772
40
0.9702052693731
40
0.9702052693731
40
1
40
1
40
1
40
1
41
1
10
25.3180083415684
20
-0.0275772616691654
30
0
41
1
10
25.2234347018901
20
0.0321084709885042
30
0
41
1
10
25.1290651444422
20
0.091558327867034
30
0
41
1
10
24.940503854861
20
0.209634434912488
30
0
41
1
10
24.8462976439614
20
0.268239401572515
30
0
41
1
10
24.658242267645
20
0.384911678534536
30
0
41
1
10
24.56427423569
20
0.442786273665717
30
0
41
1
10
24.3758771645262
20
0.556700264139977
30
0
41
1
10
24.281493931929
20
0.61281287273917
30
0
41
1
10
24.1394824599347
20
0.69546582831731
30
0
41
1
10
24.092077735479
20
0.722772240398683
30
0
41
1
10
23.9971788952506
20
0.776961296885332
30
0
41
1
10
23.9496920626967
20
0.803854526635689
30
0
41
1
10
23.8545307873835
20
0.857063259088704
30
0
41
1
10
23.8067940306097
20
0.883394265394998
30
0
41
1
10
23.7115788563312
20
0.935059942544626
30
0
41
1
10
23.6640531763387
20
0.960434259012601
30
0
41
1
10
23.5216786728859
20
1.03514767005339
30
0
41
1
10
23.4270058470896
20
1.08304450481296
30
0
41
1
10
23.2853198021408
20
1.15203346306046
30
0
41
1
10
23.2381646051389
20
1.17457775447301
30
0
41
1
10
23.143985595134
20
1.21873743950005
30
0
41
1
10
23.0969512016101
20
1.24033893143988
30
0
41
1
10
22.9558282447458
20
1.30349337440106
30
0
41
1
10
22.8617341006926
20
1.34341735978902
30
0
41
1
10
22.6733102134784
20
1.41871726009737
30
0
41
1
10
22.5789338986277
20
1.45405266897382
30
0
41
1
10
22.3900316786499
20
1.52022253790724
30
0
41
1
10
22.2955361588544
20
1.55106494730472
30
0
41
1
10
22.1531120241707
20
1.59337313394326
30
0
41
1
10
22.1055377991132
20
1.60683056259305
30
0
41
1
10
22.0101624613391
20
1.63242599755168
30
0
41
1
10
21.9623536213988
20
1.64456318691228
30
0
41
1
10
21.8193885218441
20
1.67875787027361
30
0
41
1
10
21.7244126902687
20
1.69869113523654
30
0
41
1
10
21.5352934717874
20
1.73297993640597
30
0
41
1
10
21.4410126560309
20
1.7472500090571
30
0
41
1
10
21.2524763216404
20
1.76993056125932
30
0
41
1
10
21.1582582267187
20
1.77836201520719
30
0
41
1
10
21.016864478949
20
1.78666004857828
30
0
41
1
10
20.9697290926684
20
1.78870290152383
30
0
41
1
10
20.8777622331369
20
1.79127336524866
30
0
41
1
10
20.8329294221349
20
1.79186703927851
30
0
41
1
10
20.7880663908373
20
1.79179227955854
30
0
0
SPLINE
5
103
100
AcDbEntity
8
1
62
256
6
ByLayer
370
18
48
1
60
0
100
AcDbSpline
70
4
71
3
72
66
73
62
40
0
40
0
40
0
40
0
40
0.0102276398729581
40
0.0102276398729581
40
0.0514681548782552
40
0.0514681548782552
40
0.092708669883552
40
0.092708669883552
40
0.133949184888849
40
0.133949184888849
40
0.154569442391499
40
0.154569442391499
40
0.175189699894148
40
0.175189699894148
40
0.216430214899445
40
0.216430214899445
40
0.237050472402093
40
0.237050472402093
40
0.25767072990474
40
0.25767072990474
40
0.298911244910035
40
0.298911244910035
40
0.340151759915329
40
0.340151759915329
40
0.360772017417977
40
0.360772017417977
40
0.381392274920624
40
0.381392274920624
40
0.422632789925919
40
0.422632789925919
40
0.443253047428566
40
0.443253047428566
40
0.463873304931213
40
0.463873304931213
40
0.505113819936506
40
0.505113819936506
40
0.546354334941799
40
0.546354334941799
40
0.587594849947091
40
0.587594849947091
40
0.628835364952384
40
0.628835364952384
40
0.670075879957676
40
0.670075879957676
40
0.690696137460322
40
0.690696137460322
40
0.711316394962967
40
0.711316394962967
40
0.752556909968257
40
0.752556909968257
40
0.793797424973548
40
0.793797424973548
40
0.835037939978838
40
0.835037939978838
40
0.876278454984129
40
0.876278454984129
40
0.917518969989419
40
0.917518969989419
40
0.95875948499471
40
0.95875948499471
40
1
40
1
40
1
40
1
41
1
10
14.0292555925366
20
-1.27081140026911
30
0
41
1
10
14.0058112690232
20
-1.28098130303772
30
0
41
1
10
13.9823770752132
20
-1.29102322292422
30
0
41
1
10
13.8645056532198
20
-1.34091983215521
30
0
41
1
10
13.7703296509095
20
-1.37892617599087
30
0
41
1
10
13.5816636342354
20
-1.45006219845598
30
0
41
1
10
13.4872185756589
20
-1.48324993141364
30
0
41
1
10
13.2978885111063
20
-1.54467844649312
30
0
41
1
10
13.2029738752936
20
-1.5729040456192
30
0
41
1
10
13.060418642519
20
-1.61158075900218
30
0
41
1
10
13.012855414943
20
-1.62384822847693
30
0
41
1
10
12.917509686542
20
-1.64702700001089
30
0
41
1
10
12.8696636340666
20
-1.65794991570712
30
0
41
1
10
12.7261898108163
20
-1.68855208717332
30
0
41
1
10
12.6308876544857
20
-1.70601735510445
30
0
41
1
10
12.4882848986122
20
-1.72786449922304
30
0
41
1
10
12.4408136802431
20
-1.73442441877111
30
0
41
1
10
12.3460480625516
20
-1.7461221512616
30
0
41
1
10
12.2987637737458
20
-1.75126111935154
30
0
41
1
10
12.1570421287518
20
-1.7644924033178
30
0
41
1
10
12.0626662911451
20
-1.77038403108153
30
0
41
1
10
11.8737932539069
20
-1.77633864238194
30
0
41
1
10
11.7792913401463
20
-1.77640847947944
30
0
41
1
10
11.6373971510625
20
-1.77216174111862
30
0
41
1
10
11.5900943429978
20
-1.77001863490924
30
0
41
1
10
11.495479890863
20
-1.76425506858959
30
0
41
1
10
11.4481565852887
20
-1.76063459229488
30
0
41
1
10
11.3059428127671
20
-1.74757779291397
30
0
41
1
10
11.2108134334367
20
-1.73595202694636
30
0
41
1
10
11.0674815763874
20
-1.71414328745954
30
0
41
1
10
11.0195255967502
20
-1.70613306805376
30
0
41
1
10
10.9237672664207
20
-1.68872471089134
30
0
41
1
10
10.8759858784838
20
-1.67933123362747
30
0
41
1
10
10.733013759365
20
-1.64905064963
30
0
41
1
10
10.6382009411341
20
-1.62604214089174
30
0
41
1
10
10.4487278250892
20
-1.57499949245027
30
0
41
1
10
10.3541277846381
20
-1.54693690292291
30
0
41
1
10
10.1649780587371
20
-1.48599327071724
30
0
41
1
10
10.0704264094435
20
-1.45312342805161
30
0
41
1
10
9.88158226570391
20
-1.38234361303719
30
0
41
1
10
9.78714609264608
20
-1.34455781280022
30
0
41
1
10
9.59769199754641
20
-1.26476867586916
30
0
41
1
10
9.50271599058772
20
-1.2227268462068
30
0
41
1
10
9.35973944965997
20
-1.15658161663149
30
0
41
1
10
9.3120023426105
20
-1.13401105202894
30
0
41
1
10
9.21642508674572
20
-1.08773332214372
30
0
41
1
10
9.16851038179448
20
-1.06398600926028
30
0
41
1
10
9.02512609928726
20
-0.991610582432145
30
0
41
1
10
8.92992014244163
20
-0.941919889042737
30
0
41
1
10
8.73999452272616
20
-0.84012336323201
30
0
41
1
10
8.64526428979616
20
-0.788034435291792
30
0
41
1
10
8.45618066700266
20
-0.681641774182424
30
0
41
1
10
8.36190963690234
20
-0.627209908028334
30
0
41
1
10
8.1734189597297
20
-0.516632390832797
30
0
41
1
10
8.0791889137567
20
-0.460505483457894
30
0
41
1
10
7.89059237870615
20
-0.346843250451201
30
0
41
1
10
7.79627367170932
20
-0.289230566769902
30
0
41
1
10
7.60735786641612
20
-0.172798959105791
30
0
41
1
10
7.51271457888919
20
-0.114053305085946
30
0
41
1
10
7.32242501013107
20
0.0034422049399154
30
0
41
1
10
7.22682814471213
20
0.062272753109113
30
0
41
1
10
7.13067898541351
20
0.121018307645016
30
0
0
SPLINE
5
104
100
AcDbEntity
8
1
62
256
6
ByLayer
370
18
48
1
60
0
100
AcDbSpline
70
4
71
3
72
92
73
88
40
0
40
0
40
0
40
0
40
0.0624999999999842
40
0.0624999999999842
40
0.124999999999968
40
0.124999999999968
40
0.15624999999996
40
0.15624999999996
40
0.171874999999958
40
0.171874999999958
40
0.187499999999956
40
0.187499999999956
40
0.218749999999948
40
0.218749999999948
40
0.24999999999994
40
0.24999999999994
40
0.281249999999932
40
0.281249999999932
40
0.312499999999924
40
0.312499999999924
40
0.328124999999921
40
0.328124999999921
40
0.335937499999919
40
0.335937499999919
40
0.343749999999917
40
0.343749999999917
40
0.374999999999909
40
0.374999999999909
40
0.382812499999907
40
0.382812499999907
40
0.390624999999905
40
0.406249999999901
40
0.421874999999897
40
0.421874999999897
40
0.437499999999892
40
0.437499999999892
40
0.468749999999885
40
0.468749999999885
40
0.484374999999882
40
0.484374999999882
40
0.499999999999879
40
0.499999999999879
40
0.531249999999871
40
0.531249999999871
40
0.562499999999863
40
0.562499999999863
40
0.593749999999855
40
0.593749999999855
40
0.624999999999846
40
0.624999999999846
40
0.656249999999838
40
0.656249999999838
40
0.671874999999836
40
0.671874999999836
40
0.679687499999833
40
0.679687499999833
40
0.683593749999832
40
0.683593749999832
40
0.685546874999833
40
0.685546874999833
40
0.686523437499833
40
0.687499999999834
40
0.687499999999834
40
0.689453124999835
40
0.689453124999835
40
0.691406249999836
40
0.691406249999836
40
0.693359374999837
40
0.693359374999837
40
0.695312499999838
40
0.695312499999838
40
0.703124999999842
40
0.703124999999842
40
0.710937499999846
40
0.710937499999846
40
0.71874999999985
40
0.749999999999867
40
0.749999999999867
40
0.8124999999999
40
0.8124999999999
40
0.874999999999934
40
0.874999999999934
40
0.937499999999967
40
0.937499999999967
40
0.968749999999983
40
0.968749999999983
40
1
40
1
40
1
40
1
41
1
10
7.13068150467302
20
0.121023381644932
30
0
41
1
10
7.04040725294541
20
0.176192778296382
30
0
41
1
10
6.95177943606205
20
0.233031212088463
30
0
41
1
10
6.77858403636066
20
0.350794088603152
30
0
41
1
10
6.69400151608804
20
0.411703541172983
30
0
41
1
10
6.5711649007888
20
0.507110448313625
30
0
41
1
10
6.53089764764999
20
0.539591973869335
30
0
41
1
10
6.47172457867404
20
0.589542034892702
30
0
41
1
10
6.45220562092771
20
0.606397450194066
30
0
41
1
10
6.413625744397
20
0.64056612184865
30
0
41
1
10
6.39458041325474
20
0.657868017291122
30
0
41
1
10
6.33870984740705
20
0.710069804678483
30
0
41
1
10
6.30298259036837
20
0.745402111327593
30
0
41
1
10
6.23520598631734
20
0.817352999745623
30
0
41
1
10
6.20314969464087
20
0.853969033016767
30
0
41
1
10
6.14368775890981
20
0.928833530032165
30
0
41
1
10
6.11626568605391
20
0.967075945552153
30
0
41
1
10
6.06770586569286
20
1.04578150055093
30
0
41
1
10
6.04730854532738
20
1.0850908646766
30
0
41
1
10
6.02382023539229
20
1.14389922660521
30
0
41
1
10
6.01717748997785
20
1.16348111578867
30
0
41
1
10
6.00921107453325
20
1.19282325064211
30
0
41
1
10
6.00690161007691
20
1.20256039438064
30
0
41
1
10
6.00302360406846
20
1.22178132632646
30
0
41
1
10
6.00144812091469
20
1.23128995081154
30
0
41
1
10
5.99539788479595
20
1.27832368443606
30
0
41
1
10
5.99639084335158
20
1.31432378489711
30
0
41
1
10
6.00521214251933
20
1.35725620537968
30
0
41
1
10
6.00736132225344
20
1.36574495916298
30
0
41
1
10
6.01234982775179
20
1.38228973452416
30
0
41
1
10
6.02088329952173
20
1.40654734355294
30
0
41
1
10
6.04011994935658
20
1.44431673760241
30
0
41
1
10
6.06043908181749
20
1.47193775729872
30
0
41
1
10
6.08305256585535
20
1.49836134148546
30
0
41
1
10
6.09533678347941
20
1.51077965735223
30
0
41
1
10
6.13469901509435
20
1.54597628505456
30
0
41
1
10
6.16427621318067
20
1.56672327132819
30
0
41
1
10
6.21255062693288
20
1.59470889802611
30
0
41
1
10
6.22929924242976
20
1.603510078715
30
0
41
1
10
6.26398131778029
20
1.62016919358504
30
0
41
1
10
6.28189866333136
20
1.62801477570605
30
0
41
1
10
6.33664322666755
20
1.65005433055128
30
0
41
1
10
6.37465445541699
20
1.66286232818467
30
0
41
1
10
6.4530519143986
20
1.68557303445778
30
0
41
1
10
6.49344256214491
20
1.69546988685153
30
0
41
1
10
6.57617698222319
20
1.71291501488292
30
0
41
1
10
6.61852292108065
20
1.72046042063366
30
0
41
1
10
6.70487052839502
20
1.73359488787426
30
0
41
1
10
6.74891930811299
20
1.73918544663755
30
0
41
1
10
6.8380001745025
20
1.7486582295391
30
0
41
1
10
6.88308009005519
20
1.75254876386538
30
0
41
1
10
6.95140022563521
20
1.75730717558895
30
0
41
1
10
6.97429219631056
20
1.75871318691372
30
0
41
1
10
7.00877614704223
20
1.76057050049465
30
0
41
1
10
7.02029585424032
20
1.76114768136469
30
0
41
1
10
7.03761081299785
20
1.76195280401387
30
0
41
1
10
7.04338583336789
20
1.76221138758805
30
0
41
1
10
7.05206439302086
20
1.76258344002906
30
0
41
1
10
7.05499068120696
20
1.76270138969394
30
0
41
1
10
7.05947769241018
20
1.76286035867707
30
0
41
1
10
7.06248202143397
20
1.76296333977422
30
0
41
1
10
7.06560406256685
20
1.76304688926749
30
0
41
1
10
7.07029125638957
20
1.7631708227795
30
0
41
1
10
7.07345952124629
20
1.76323934536407
30
0
41
1
10
7.07982506025778
20
1.76336075221661
30
0
41
1
10
7.08302974509814
20
1.76341253525408
30
0
41
1
10
7.08950682910626
20
1.7634904061602
30
0
41
1
10
7.09278054303763
20
1.76351605730676
30
0
41
1
10
7.09934319754069
20
1.7635616997326
30
0
41
1
10
7.10265735291557
20
1.76357611140736
30
0
41
1
10
7.11920525230175
20
1.76361180304025
30
0
41
1
10
7.13218529732276
20
1.76353235605143
30
0
41
1
10
7.1576948164662
20
1.76316034049208
30
0
41
1
10
7.17014654266336
20
1.76285977777516
30
0
41
1
10
7.1950188827195
20
1.76224618742444
30
0
41
1
10
7.25712097086546
20
1.76061043694165
30
0
41
1
10
7.31882146185293
20
1.75844369516287
30
0
41
1
10
7.46607585497489
20
1.75203716381247
30
0
41
1
10
7.56317632439226
20
1.7461490106771
30
0
41
1
10
7.75464784308784
20
1.73020545545791
30
0
41
1
10
7.84912607550382
20
1.72014637044666
30
0
41
1
10
8.03596413659801
20
1.69499434020068
30
0
41
1
10
8.12833042231429
20
1.67990210069007
30
0
41
1
10
8.26567909336802
20
1.65297631147192
30
0
41
1
10
8.31125563992074
20
1.64328843623954
30
0
41
1
10
8.4019033903605
20
1.62246877764397
30
0
41
1
10
8.44699749607216
20
1.61133272386945
30
0
41
1
10
8.49190135188653
20
1.59945078352436
30
0
0
SPLINE
5
105
100
AcDbEntity
8
1
62
256
6
ByLayer
370
18
48
1
60
0
100
AcDbSpline
70
4
71
3
72
46
73
42
40
0
40
0
40
0
40
0
40
0.062499999999998
40
0.062499999999998
40
0.124999999999996
40
0.124999999999996
40
0.187499999999994
40
0.187499999999994
40
0.218749999999992
40
0.218749999999992
40
0.24999999999999
40
0.24999999999999
40
0.374999999999981
40
0.374999999999981
40
0.437499999999978
40
0.437499999999978
40
0.499999999999974
40
0.499999999999974
40
0.531249999999973
40
0.531249999999973
40
0.546874999999973
40
0.546874999999973
40
0.562499999999974
40
0.562499999999974
40
0.624999999999978
40
0.624999999999978
40
0.687499999999982
40
0.687499999999982
40
0.749999999999986
40
0.749999999999986
40
0.81249999999999
40
0.81249999999999
40
0.843749999999993
40
0.843749999999993
40
0.859374999999995
40
0.859374999999995
40
0.874999999999997
40
0.874999999999997
40
0.937499999999998
40
0.937499999999998
40
1
40
1
40
1
40
1
41
1
10
8.49197984513842
20
1.5994328781108
30
0
41
1
10
8.62053895526216
20
1.5657072966203
30
0
41
1
10
8.74842442401246
20
1.5272913807774
30
0
41
1
10
9.00343530920728
20
1.44167498797248
30
0
41
1
10
9.13058812142239
20
1.39449245923399
30
0
41
1
10
9.38500567789549
20
1.29224377792784
30
0
41
1
10
9.51222934895824
20
1.23714146097538
30
0
41
1
10
9.70349248113811
20
1.14893484005384
30
0
41
1
10
9.76731969031781
20
1.11860790719751
30
0
41
1
10
9.8952287433878
20
1.05622540395814
30
0
41
1
10
9.95935022992524
20
1.02416308858116
30
0
41
1
10
10.2803935456594
20
0.859840141060886
30
0
41
1
10
10.5339721985246
20
0.717550462385702
30
0
41
1
10
10.9139565528191
20
0.494943835494127
30
0
41
1
10
11.0404559208243
20
0.41906423947654
30
0
41
1
10
11.2937568541937
20
0.264926356218467
30
0
41
1
10
11.4205659399208
20
0.186678337042139
30
0
41
1
10
11.6116337701128
20
0.0685243530519415
30
0
41
1
10
11.6754437652828
20
0.0289736328672348
30
0
41
1
10
11.7713836612281
20
-0.0305361592529607
30
0
41
1
10
11.8034021103119
20
-0.0504017020518575
30
0
41
1
10
11.8675271181647
20
-0.0901733364732706
30
0
41
1
10
11.8996168197403
20
-0.110068918706673
30
0
41
1
10
12.0596867989135
20
-0.20921617244889
30
0
41
1
10
12.1870064756025
20
-0.287779365067451
30
0
41
1
10
12.4410430197523
20
-0.442058454202908
30
0
41
1
10
12.5676585096792
20
-0.517942543721375
30
0
41
1
10
12.8206552853142
20
-0.666319156463629
30
0
41
1
10
12.9470363944681
20
-0.738808079926713
30
0
41
1
10
13.2004298718388
20
-0.879078061546068
30
0
41
1
10
13.3273515665023
20
-0.946996603921889
30
0
41
1
10
13.5184765033854
20
-1.04490838910758
30
0
41
1
10
13.5823125294317
20
-1.07687864236678
30
0
41
1
10
13.6783309126782
20
-1.1237221919672
30
0
41
1
10
13.7104131318556
20
-1.13916545762009
30
0
41
1
10
13.7744816330526
20
-1.16955871338681
30
0
41
1
10
13.8064751290117
20
-1.18451066383901
30
0
41
1
10
13.9662568754444
20
-1.25803915816112
30
0
41
1
10
14.0934376836236
20
-1.31298930746504
30
0
41
1
10
14.347022323955
20
-1.41473254409485
30
0
41
1
10
14.4734271231648
20
-1.4615125346736
30
0
41
1
10
14.5998854812406
20
-1.50381780961317
30
0
0
SPLINE
5
106
100
AcDbEntity
8
1
62
256
6
ByLayer
370
18
48
1
60
0
100
AcDbSpline
70
4
71
3
72
18
73
14
40
0
40
0
40
0
40
0
40
0.100290825704803
40
0.100290825704803
40
0.200581651409606
40
0.200581651409606
40
0.401163302819212
40
0.401163302819212
40
0.802326605638424
40
0.802326605638424
40
0.902617431343223
40
0.902617431343223
40
1
40
1
40
1
40
1
41
1
10
14.5998854812445
20
-1.47377167189222
30
0
41
1
10
14.6562418775576
20
-1.49347033348255
30
0
41
1
10
14.7125879413553
20
-1.51231923377526
30
0
41
1
10
14.8253111349573
20
-1.54826995438967
30
0
41
1
10
14.8816377630436
20
-1.56535451600735
30
0
41
1
10
15.050287985682
20
-1.61379644170711
30
0
41
1
10
15.1624041142769
20
-1.64238166938134
30
0
41
1
10
15.4984640447096
20
-1.71666537265057
30
0
41
1
10
15.7221331309392
20
-1.750888310542
30
0
41
1
10
16.0034282293563
20
-1.77340238743048
30
0
41
1
10
16.0598079500602
20
-1.7768907472763
30
0
41
1
10
16.1705189283066
20
-1.78172247469382
30
0
41
1
10
16.224933571379
20
-1.78313228981145
30
0
41
1
10
16.2792465002303
20
-1.78358056466703
30
0
0
SPLINE
5
107
100
AcDbEntity
8
1
62
256
6
ByLayer
370
18
48
1
60
0
100
AcDbSpline
70
4
71
3
72
12
73
8
40
0
40
0
40
0
40
0
40
0.221790696513374
40
0.221790696513374
40
0.610895348256687
40
0.610895348256687
40
1
40
1
40
1
40
1
41
1
10
24.8790309278878
20
1.77831224819929
30
0
41
1
10
24.910789808981
20
1.78139323426859
30
0
41
1
10
24.9425770411441
20
1.78415037343947
30
0
41
1
10
25.0302232182518
20
1.79084358357596
30
0
41
1
10
25.0861520022563
20
1.79409981238547
30
0
41
1
10
25.1982746266215
20
1.79856203251748
30
0
41
1
10
25.2544996560188
20
1.79976594524925
30
0
41
1
10
25.3106492007395
20
1.79993009471048
30
0
0
SPLINE
5
108
100
AcDbEntity
8
1
62
256
6
ByLayer
370
18
48
1
60
0
100
AcDbSpline
70
4
71
3
72
26
73
22
40
0
40
0
40
0
40
0
40
0.0477324610085134
40
0.0477324610085134
40
0.107249182195484
40
0.107249182195484
40
0.166765903382455
40
0.166765903382455
40
0.28579934575639
40
0.28579934575639
40
0.404832788130326
40
0.404832788130326
40
0.523866230504262
40
0.523866230504262
40
0.642899672878198
40
0.642899672878198
40
0.702416394065165
40
0.702416394065165
40
0.761933115252133
40
0.761933115252133
40
1
40
1
40
1
40
1
41
1
10
17.4507921010472
20
-1.71136732587286
30
0
41
1
10
17.4061323071495
20
-1.71923932164702
30
0
41
1
10
17.3613979371219
20
-1.72649877509306
30
0
41
1
10
17.2606858061168
20
-1.74140716638175
30
0
41
1
10
17.2046237151276
20
-1.74871026485098
30
0
41
1
10
17.0929401434212
20
-1.76125908330172
30
0
41
1
10
17.0372261853683
20
-1.76652014835332
30
0
41
1
10
16.8703960120506
20
-1.77928251704279
30
0
41
1
10
16.7596013658218
20
-1.78376531384424
30
0
41
1
10
16.5384526482086
20
-1.78474151572499
30
0
41
1
10
16.4280743627572
20
-1.7812324015282
30
0
41
1
10
16.2072398360026
20
-1.76631688325048
30
0
41
1
10
16.0967804129708
20
-1.75491487512281
30
0
41
1
10
15.8754318047965
20
-1.72429042162082
30
0
41
1
10
15.7645530666879
20
-1.70506554773183
30
0
41
1
10
15.5976872525093
20
-1.67033939104803
30
0
41
1
10
15.5419696291692
20
-1.65778362860735
30
0
41
1
10
15.4302656987846
20
-1.63072904870057
30
0
41
1
10
15.3742314513626
20
-1.61621546597647
30
0
41
1
10
15.0945322361949
20
-1.53923656559761
30
0
41
1
10
14.8713263527494
20
-1.46341456050322
30
0
41
1
10
14.6471868086153
20
-1.37476509213363
30
0
0
SPLINE
5
109
100
AcDbEntity
8
1
62
256
6
ByLayer
370
18
48
1
60
0
100
AcDbSpline
70
4
71
3
72
14
73
10
40
0
40
0
40
0
40
0
40
0.25
40
0.25
40
0.5
40
0.5
40
0.75
40
0.75
40
1
40
1
40
1
40
1
41
1
10
14.6471868086154
20
-1.37476509213366
30
0
41
1
10
14.6407490682195
20
-1.37221890035923
30
0
41
1
10
14.6348820882769
20
-1.36925283143816
30
0
41
1
10
14.6242470158109
20
-1.36248894875575
30
0
41
1
10
14.6194512265155
20
-1.35864370234035
30
0
41
1
10
14.6114392574295
20
-1.35043365657199
30
0
41
1
10
14.6081567677273
20
-1.34604004381748
30
0
41
1
10
14.6030994647726
20
-1.33664216441318
30
0
41
1
10
14.6014200795451
20
-1.33181607887738
30
0
41
1
10
14.6005563347676
20
-1.32686269953604
30
0
0
SPLINE
5
10A
100
AcDbEntity
8
1
62
256
6
ByLayer
370
18
48
1
60
0
100
AcDbSpline
70
4
71
3
72
8
73
4
40
0
40
0
40
0
40
0
40
1
40
1
40
1
40
1
41
1
10
14.6005563347661
20
-1.32686269953649
30
0
41
1
10
14.6004749235858
20
-1.32639582498106
30
0
41
1
10
14.6004336548771
20
-1.32592477566104
30
0
41
1
10
14.6004336856144
20
-1.32545424144942
30
0
0
SPLINE
5
10B
100
AcDbEntity
8
1
62
256
6
ByLayer
370
18
48
1
60
0
100
AcDbSpline
70
4
71
3
72
36
73
32
40
0
40
0
40
0
40
0
40
0.0312500000000002
40
0.0312500000000002
40
0.0625000000000004
40
0.0625000000000004
40
0.125000000000001
40
0.125000000000001
40
0.250000000000001
40
0.250000000000001
40
0.312500000000001
40
0.312500000000001
40
0.343750000000001
40
0.343750000000001
40
0.375000000000001
40
0.375000000000001
40
0.5
40
0.5
40
0.5625
40
0.5625
40
0.59375
40
0.59375
40
0.625
40
0.625
40
0.75
40
0.875
40
0.875
40
0.90625
40
0.90625
40
0.9375
40
1
40
1
40
1
40
1
41
1
10
14.6004336856145
20
-1.32545424145314
30
0
41
1
10
14.6004346527139
20
-1.31064751808327
30
0
41
1
10
14.6004356011481
20
-1.29553107704262
30
0
41
1
10
14.6004374644402
20
-1.26467707272945
30
0
41
1
10
14.6004383794066
20
-1.24893552704
30
0
41
1
10
14.6004410647144
20
-1.20104907810679
30
0
41
1
10
14.6004427809035
20
-1.1681575290491
30
0
41
1
10
14.6004477590196
20
-1.06665009154958
30
0
41
1
10
14.6004508514733
20
-0.995216486937636
30
0
41
1
10
14.6004553327389
20
-0.882414617853556
30
0
41
1
10
14.6004567999769
20
-0.843868322469319
30
0
41
1
10
14.6004589818937
20
-0.784593579717267
30
0
41
1
10
14.6004597069609
20
-0.764565438862491
30
0
41
1
10
14.6004611423933
20
-0.724347359523279
30
0
41
1
10
14.6004618540981
20
-0.704121887573251
30
0
41
1
10
14.6004653910084
20
-0.60242079426007
30
0
41
1
10
14.6004681540213
20
-0.519233361030615
30
0
41
1
10
14.6004723268239
20
-0.391757562399363
30
0
41
1
10
14.6004737219605
20
-0.348814677637563
30
0
41
1
10
14.6004758326627
20
-0.283712778616973
30
0
41
1
10
14.6004765392021
20
-0.261897432140444
30
0
41
1
10
14.6004779598453
20
-0.218033965487962
30
0
41
1
10
14.6004786753306
20
-0.195943278898738
30
0
41
1
10
14.6004822482745
20
-0.0857253778239055
30
0
41
1
10
14.600487967866
20
0.0898978490191951
30
0
41
1
10
14.6004937463117
20
0.264119984161823
30
0
41
1
10
14.6004973406286
20
0.37255714360839
30
0
41
1
10
14.6004980595691
20
0.39425674425695
30
0
41
1
10
14.6004994865669
20
0.437400363709884
30
0
41
1
10
14.6005016106832
20
0.501732967400358
30
0
41
1
10
14.6005036773217
20
0.564926300372775
30
0
41
1
10
14.6005050194504
20
0.606549075105875
30
0
0
SPLINE
5
10C
100
AcDbEntity
8
1
62
256
6
ByLayer
370
18
48
1
60
0
100
AcDbSpline
70
4
71
3
72
8
73
4
40
0
40
0
40
0
40
0
40
1
40
1
40
1
40
1
41
1
10
14.6005050194503
20
0.606549075115765
30
0
41
1
10
14.600505042188
20
0.60725422905071
30
0
41
1
10
14.6005518531091
20
0.607960550748714
30
0
41
1
10
14.6006439779812
20
0.608660101220693
30
0
0
SPLINE
5
10D
100
AcDbEntity
8
SK1
62
256
6
ByLayer
370
18
48
1
60
0
100
AcDbSpline
70
4
71
3
72
8
73
4
40
0
40
0
40
0
40
0
40
1
40
1
40
1
40
1
41
1
10
-35.75
20
-1.88123339273531
30
0
41
1
10
-35.8336532248198
20
-1.79655976302536
30
0
41
1
10
-35.9170278458356
20
-1.71163888555748
30
0
41
1
10
-36
20
-1.62636083770917
30
0
0
SPLINE
5
10E
100
AcDbEntity
8
SK1
62
256
6
ByLayer
370
18
48
1
60
0
100
AcDbSpline
70
4
71
3
72
22
73
18
40
0
40
0
40
0
40
0
40
0.0625000000000028
40
0.0625000000000028
40
0.125000000000006
40
0.125000000000006
40
0.250000000000005
40
0.250000000000005
40
0.375000000000004
40
0.375000000000004
40
0.500000000000003
40
0.500000000000003
40
0.625000000000002
40
0.625000000000002
40
0.750000000000002
40
0.750000000000002
40
1
40
1
40
1
40
1
41
1
10
-35.65
20
-2.04002583825462
30
0
41
1
10
-35.65
20
-2.03767395697511
30
0
41
1
10
-35.6502718586019
20
-2.03506149796908
30
0
41
1
10
-35.6512913504498
20
-2.02949588246176
30
0
41
1
10
-35.652030658643
20
-2.02656595528327
30
0
41
1
10
-35.6548298230237
20
-2.0174028158535
30
0
41
1
10
-35.6575061245997
20
-2.01072157006635
30
0
41
1
10
-35.6638376796887
20
-1.99712531179426
30
0
41
1
10
-35.6674983282837
20
-1.99016898824553
30
0
41
1
10
-35.6756151818521
20
-1.97600697308479
30
0
41
1
10
-35.6800682064548
20
-1.96882023187589
30
0
41
1
10
-35.6893906957631
20
-1.95467052927373
30
0
41
1
10
-35.6942952881823
20
-1.94764712836908
30
0
41
1
10
-35.7045485857552
20
-1.93369816833629
30
0
41
1
10
-35.7099306774388
20
-1.92673263816366
30
0
41
1
10
-35.7265024515808
20
-1.90629574662728
30
0
41
1
10
-35.7380004903212
20
-1.89337927284265
30
0
41
1
10
-35.7500000000001
20
-1.88123339273537
30
0
0
SPLINE
5
10F
100
AcDbEntity
8
SK1
62
256
6
ByLayer
370
18
48
1
60
0
100
AcDbSpline
70
4
71
3
72
22
73
18
40
0
40
0
40
0
40
0
40
0.25
40
0.25
40
0.375
40
0.375
40
0.5
40
0.5
40
0.625
40
0.625
40
0.75
40
0.75
40
0.875
40
0.875
40
0.9375
40
0.9375
40
1
40
1
40
1
40
1
41
1
10
-35.75
20
-2.31335461174717
30
0
41
1
10
-35.7379956523281
20
-2.3255053888615
30
0
41
1
10
-35.7264866986603
20
-2.3372290899043
30
0
41
1
10
-35.7098921057742
20
-2.35417457647264
30
0
41
1
10
-35.7045257065493
20
-2.35966170889122
30
0
41
1
10
-35.6942964893128
20
-2.37012243267878
30
0
41
1
10
-35.6894060316865
20
-2.37512432441053
30
0
41
1
10
-35.6801144608566
20
-2.38461500177823
30
0
41
1
10
-35.6756964104891
20
-2.3891211445451
30
0
41
1
10
-35.6675285377629
20
-2.39742043240625
30
0
41
1
10
-35.6638529491706
20
-2.40113819622113
30
0
41
1
10
-35.6575076548177
20
-2.40749874054328
30
0
41
1
10
-35.6548318331324
20
-2.41014643645752
30
0
41
1
10
-35.6520304488211
20
-2.41283559701054
30
0
41
1
10
-35.65129058319
20
-2.41352647097256
30
0
41
1
10
-35.650270741394
20
-2.41442180579759
30
0
41
1
10
-35.65
20
-2.41461737774904
30
0
41
1
10
-35.65
20
-2.41453089473143
30
0
0
SPLINE
5
110
100
AcDbEntity
8
SK1
62
256
6
ByLayer
370
18
48
1
60
0
100
AcDbSpline
70
4
71
3
72
8
73
4
40
0
40
0
40
0
40
0
40
1
40
1
40
1
40
1
41
1
10
-36
20
-2.05848205672086
30
0
41
1
10
-35.9170272355951
20
-2.14376073176896
30
0
41
1
10
-35.8336526799091
20
-2.2286815335946
30
0
41
1
10
-35.7499999999999
20
-2.31335461174709
30
0
0
SPLINE
5
111
100
AcDbEntity
8
SK1
62
256
6
ByLayer
370
18
48
1
60
0
100
AcDbSpline
70
4
71
3
72
18
73
14
40
0
40
0
40
0
40
0
40
0.328717326573329
40
0.328717326573329
40
0.493075989859996
40
0.493075989859996
40
0.657434653146663
40
0.657434653146663
40
0.82179331643333
40
0.82179331643333
40
0.986151979719997
40
0.986151979719997
40
1
40
1
40
1
40
1
41
1
10
-35.75
20
2.31335461174717
30
0
41
1
10
-35.7379956523281
20
2.3255053888615
30
0
41
1
10
-35.7264866986603
20
2.3372290899043
30
0
41
1
10
-35.7098921057742
20
2.35417457647264
30
0
41
1
10
-35.7045257065493
20
2.35966170889122
30
0
41
1
10
-35.6942964893128
20
2.37012243267878
30
0
41
1
10
-35.6894060316865
20
2.37512432441053
30
0
41
1
10
-35.6801144608566
20
2.38461500177823
30
0
41
1
10
-35.6756964104891
20
2.3891211445451
30
0
41
1
10
-35.6675285377629
20
2.39742043240625
30
0
41
1
10
-35.6638529491706
20
2.40113819622113
30
0
41
1
10
-35.660412990971
20
2.40458642184754
30
0
41
1
10
-35.6601492068553
20
2.40485059461497
30
0
41
1
10
-35.6598891359041
20
2.40511079388435
30
0
0
SPLINE
5
112
100
AcDbEntity
8
SK1
62
256
6
ByLayer
370
18
48
1
60
0
100
AcDbSpline
70
4
71
3
72
8
73
4
40
0
40
0
40
0
40
0
40
1
40
1
40
1
40
1
41
1
10
-36
20
2.05848205672086
30
0
41
1
10
-35.9170272355951
20
2.14376073176896
30
0
41
1
10
-35.8336526799091
20
2.2286815335946
30
0
41
1
10
-35.7499999999999
20
2.31335461174709
30
0
0
SPLINE
5
113
100
AcDbEntity
8
1
62
256
6
ByLayer
370
18
48
1
60
0
100
AcDbSpline
70
4
71
3
72
21
73
17
40
0
40
0
40
0
40
0
40
6.68868436075E-05
40
0.0001302533865789
40
0.0001863876302922
40
0.0002350561363055
40
0.0003473463967264
40
0.0013384142915471
40
0.0349672998635511
40
0.110375832442657
40
0.247734889397592
40
0.365057347384332
40
0.464640763311664
40
0.601897184776195
40
0.792967964804386
40
1
40
1
40
1
40
1
41
1
10
17.3580403289583
20
-0.015170094902273
30
0
41
1
10
17.3580393384606
20
-0.0151699529785088
30
0
41
1
10
17.3580244233315
20
-0.0151651689657797
30
0
41
1
10
17.3579607875163
20
-0.0151440915357455
30
0
41
1
10
17.3578677083152
20
-0.0151131147137562
30
0
41
1
10
17.357706712225
20
-0.0150595016951911
30
0
41
1
10
17.3564988413039
20
-0.0146602439979802
30
0
41
1
10
17.317656864129
20
-0.0018346856759308
30
0
41
1
10
17.1952705475759
20
0.0397762575385912
30
0
41
1
10
16.9184072759595
20
0.136349206665812
30
0
41
1
10
16.5493171018121
20
0.268825669515195
30
0
41
1
10
16.1541485619138
20
0.415073776464823
30
0
41
1
10
15.7604915609597
20
0.564459974403064
30
0
41
1
10
15.2865480287341
20
0.749293625156412
30
0
41
1
10
14.6963043617332
20
0.987666713157921
30
0
41
1
10
14.2602949714983
20
1.1720306726312
30
0
41
1
10
14.0342949858501
20
1.26977064455173
30
0
0
SPLINE
5
114
100
AcDbEntity
8
1
62
256
6
ByLayer
370
18
48
1
60
0
100
AcDbSpline
70
4
71
3
72
13
73
9
40
0
40
0
40
0
40
0
40
0.0730881530423736
40
0.207177222318564
40
0.325379041716513
40
0.491971868008043
40
0.716840905362857
40
1
40
1
40
1
40
1
41
1
10
24.8321897793917
20
0.539027738878275
30
0
41
1
10
24.7846574859017
20
0.557021878364765
30
0
41
1
10
24.6500436247683
20
0.608343951780228
30
0
41
1
10
24.4393313991318
20
0.690803066943971
30
0
41
1
10
24.1685326449945
20
0.798067124024499
30
0
41
1
10
23.839928506658
20
0.930730388182184
30
0
41
1
10
23.4064298483553
20
1.10993056450536
30
0
41
1
10
23.0814437027537
20
1.24833472184906
30
0
41
1
10
22.9007577097597
20
1.3265564441262
30
0
0
SPLINE
5
115
100
AcDbEntity
8
1
62
256
6
ByLayer
370
18
48
1
60
0
100
AcDbSpline
70
4
71
3
72
15
73
11
40
0
40
0
40
0
40
0
40
0.159091405984899
40
0.274243257290124
40
0.351634061491071
40
0.433786676953432
40
0.528326974743405
40
0.631492485398178
40
0.840223372928717
40
1
40
1
40
1
40
1
41
1
10
16.6190138471315
20
-1.69451759360047
30
0
41
1
10
16.775984201608
20
-1.69500675298221
30
0
41
1
10
17.0465758006987
20
-1.6956923572335
30
0
41
1
10
17.3935412087832
20
-1.69627604588251
30
0
41
1
10
17.6645906991835
20
-1.69647175559433
30
0
41
1
10
17.9153029933615
20
-1.69739996291136
30
0
41
1
10
18.191448600393
20
-1.69782256095164
30
0
41
1
10
18.5924909218775
20
-1.69928122958368
30
0
41
1
10
19.057908734645
20
-1.69842537425217
30
0
41
1
10
19.4215192115168
20
-1.70007660315255
30
0
41
1
10
19.5791730472999
20
-1.7006119513193
30
0
0
SPLINE
5
116
100
AcDbEntity
8
1
62
256
6
ByLayer
370
18
48
1
60
0
100
AcDbSpline
70
4
71
3
72
16
73
12
40
0
40
0
40
0
40
0
40
0.176968754103263
40
0.300292004238464
40
0.38470190316637
40
0.470046007787511
40
0.556875920057725
40
0.782345158717997
40
0.850989729454121
40
0.955723860308148
40
1
40
1
40
1
40
1
41
1
10
20.3682751421748
20
1.70153299916026
30
0
41
1
10
20.1962095016011
20
1.70207618892621
30
0
41
1
10
19.9042368861416
20
1.70230685223996
30
0
41
1
10
19.5301948388583
20
1.70007487021706
30
0
41
1
10
19.2452339901178
20
1.69889843777821
30
0
41
1
10
18.995752066773
20
1.69917940040148
30
0
41
1
10
18.6091161751207
20
1.69949499070694
30
0
41
1
10
18.2387220505711
20
1.69805625137127
30
0
41
1
10
17.8509115122202
20
1.69715841425102
30
0
41
1
10
17.6393049318574
20
1.69650632119556
30
0
41
1
10
17.4944226559925
20
1.69628125041271
30
0
41
1
10
17.4513726006716
20
1.69622388206372
30
0
0
LINE
5
82
100
AcDbEntity
8
4
62
256
6
ByLayer
370
18
48
0.05
60
0
100
AcDbLine
10
0
20
0
30
0
11
26
21
0
31
0
39
0
210
0
220
0
230
1
0
LINE
5
84
100
AcDbEntity
8
81
62
256
6
ByLayer
370
18
48
1
60
0
100
AcDbLine
10
26
20
0
30
0
11
29
21
0
31
0
39
0
210
0
220
0
230
1
0
LINE
5
85
100
AcDbEntity
8
80
62
256
6
ByLayer
370
18
48
1
60
0
100
AcDbLine
10
0
20
0
30
0
11
-3
21
0
31
0
39
0
210
0
220
0
230
1
0
LINE
5
86
100
AcDbEntity
8
SK4
62
256
6
ByLayer
370
18
48
0.05
60
0
100
AcDbLine
10
-39
20
0
30
0
11
29
21
0
31
0
39
0
210
0
220
0
230
1
0
LINE
5
88
100
AcDbEntity
8
1
62
256
6
ByLayer
370
18
48
1
60
0
100
AcDbLine
10
0
20
3
30
0
11
0
21
-3
31
0
39
0
210
0
220
0
230
1
0
LINE
5
89
100
AcDbEntity
8
1
62
256
6
ByLayer
370
13
48
1
60
0
100
AcDbLine
10
25.956365
20
0.203107
30
0
11
25.543389
21
0.576703
31
0
39
0
210
0
220
0
230
1
0
LINE
5
8A
100
AcDbEntity
8
1
62
256
6
ByLayer
370
18
48
1
60
0
100
AcDbLine
10
14.599885
20
-1.473772
30
0
11
14.599885
21
-1.503818
31
0
39
0
210
0
220
0
230
1
0
LINE
5
8B
100
AcDbEntity
8
1
62
256
6
ByLayer
370
13
48
1
60
0
100
AcDbLine
10
1.561062
20
-1.757184
30
0
11
1.561062
21
1.757184
31
0
39
0
210
0
220
0
230
1
0
LINE
5
8C
100
AcDbEntity
8
1
62
256
6
ByLayer
370
13
48
1
60
0
100
AcDbLine
10
0.779811
20
-2.378591
30
0
11
0.779811
21
2.378591
31
0
39
0
210
0
220
0
230
1
0
LINE
5
8D
100
AcDbEntity
8
SK1
62
256
6
ByLayer
370
18
48
1
60
0
100
AcDbLine
10
-36
20
-1.626319
30
0
11
-36
21
-2.058482
31
0
39
0
210
0
220
0
230
1
0
LINE
5
8F
100
AcDbEntity
8
SK1
62
256
6
ByLayer
370
13
48
1
60
0
100
AcDbLine
10
-35.75
20
-2.313355
30
0
11
-35.75
21
-1.881181
31
0
39
0
210
0
220
0
230
1
0
LINE
5
90
100
AcDbEntity
8
SK1
62
256
6
ByLayer
370
18
48
1
60
0
100
AcDbLine
10
-35.65
20
-2.414531
30
0
11
-35.65
21
-2.040026
31
0
39
0
210
0
220
0
230
1
0
LINE
5
91
100
AcDbEntity
8
SK1
62
256
6
ByLayer
370
18
48
1
60
0
100
AcDbLine
10
-36
20
2.058482
30
0
11
-36
21
-1.626361
31
0
39
0
210
0
220
0
230
1
0
LINE
5
92
100
AcDbEntity
8
SK1
62
256
6
ByLayer
370
18
48
1
60
0
100
AcDbLine
10
0
20
3
30
0
11
0
21
-3
31
0
39
0
210
0
220
0
230
1
0
LINE
5
93
100
AcDbEntity
8
SK1
62
256
6
ByLayer
370
18
48
1
60
0
100
AcDbLine
10
-35.065
20
-3
30
0
11
-35.065
21
3
31
0
39
0
210
0
220
0
230
1
0
LINE
5
94
100
AcDbEntity
8
1
62
256
6
ByLayer
370
18
48
1
60
0
100
AcDbLine
10
1.561062
20
-1.757184
30
0
11
11.815525
21
-1.775642
31
0
39
0
210
0
220
0
230
1
0
LINE
5
95
100
AcDbEntity
8
1
62
256
6
ByLayer
370
18
48
1
60
0
100
AcDbLine
10
16.308018
20
-1.783728
30
0
11
16.619862
21
-1.78429
31
0
39
0
210
0
220
0
230
1
0
LINE
5
96
100
AcDbEntity
8
1
62
256
6
ByLayer
370
18
48
1
60
0
100
AcDbLine
10
20.368573
20
-1.791037
30
0
11
20.78777
21
-1.791792
31
0
39
0
210
0
220
0
230
1
0
LINE
5
97
100
AcDbEntity
8
1
62
256
6
ByLayer
370
18
48
1
60
0
100
AcDbLine
10
20.78777
20
1.791792
30
0
11
20.368573
21
1.791037
31
0
39
0
210
0
220
0
230
1
0
LINE
5
98
100
AcDbEntity
8
1
62
256
6
ByLayer
370
18
48
1
60
0
100
AcDbLine
10
16.619862
20
1.78429
30
0
11
16.308018
21
1.783728
31
0
39
0
210
0
220
0
230
1
0
LINE
5
99
100
AcDbEntity
8
1
62
256
6
ByLayer
370
18
48
1
60
0
100
AcDbLine
10
11.815525
20
1.775642
30
0
11
1.561062
21
1.757184
31
0
39
0
210
0
220
0
230
1
0
LINE
5
9A
100
AcDbEntity
8
SK1
62
256
6
ByLayer
370
18
48
1
60
0
100
AcDbLine
10
-35.660521
20
-2.404479
30
0
11
-35.065
21
-3
31
0
39
0
210
0
220
0
230
1
0
LINE
5
9B
100
AcDbEntity
8
SK1
62
256
6
ByLayer
370
18
48
1
60
0
100
AcDbLine
10
-35.065
20
3
30
0
11
-35.660521
21
2.404479
31
0
39
0
210
0
220
0
230
1
0
LINE
5
9C
100
AcDbEntity
8
SK1
62
256
6
ByLayer
370
18
48
1
60
0
100
AcDbLine
10
-35.065
20
-3
30
0
11
0
21
-3
31
0
39
0
210
0
220
0
230
1
0
LINE
5
9D
100
AcDbEntity
8
SK1
62
256
6
ByLayer
370
18
48
1
60
0
100
AcDbLine
10
0
20
3
30
0
11
-35.065
21
3
31
0
39
0
210
0
220
0
230
1
0
LINE
5
9E
100
AcDbEntity
8
2
62
256
6
ByLayer
370
13
48
1
60
0
100
AcDbLine
10
33.5
20
26.099084
30
0
11
33.5
21
-9.3
31
0
39
0
210
0
220
0
230
1
0
LINE
5
A0
100
AcDbEntity
8
2
62
256
6
ByLayer
370
13
48
1
60
0
100
AcDbLine
10
27.5875
20
1.8
30
0
11
35.5
21
1.8
31
0
39
0
210
0
220
0
230
1
0
LINE
5
A1
100
AcDbEntity
8
2
62
256
6
ByLayer
370
13
48
1
60
0
100
AcDbLine
10
27.5875
20
-1.8
30
0
11
35.5
21
-1.8
31
0
39
0
210
0
220
0
230
1
0
LINE
5
A2
100
AcDbEntity
8
1
62
256
6
ByLayer
370
18
48
1
60
1
100
AcDbLine
10
33.5
20
1.8
30
0
11
33.039216
21
5.299998
31
0
39
0
210
0
220
0
230
1
0
LINE
5
A3
100
AcDbEntity
8
1
62
256
6
ByLayer
370
18
48
1
60
1
100
AcDbLine
10
33.039216
20
5.299998
30
0
11
33.960784
21
5.300002
31
0
39
0
210
0
220
0
230
1
0
LINE
5
A4
100
AcDbEntity
8
1
62
256
6
ByLayer
370
18
48
1
60
1
100
AcDbLine
10
33.960784
20
5.300002
30
0
11
33.5
21
1.8
31
0
39
0
210
0
220
0
230
1
0
LINE
5
A5
100
AcDbEntity
8
1
62
256
6
ByLayer
370
18
48
1
60
1
100
AcDbLine
10
33.5
20
-1.8
30
0
11
33.960784
21
-5.299998
31
0
39
0
210
0
220
0
230
1
0
LINE
5
A6
100
AcDbEntity
8
1
62
256
6
ByLayer
370
18
48
1
60
1
100
AcDbLine
10
33.960784
20
-5.299998
30
0
11
33.039216
21
-5.300002
31
0
39
0
210
0
220
0
230
1
0
LINE
5
A7
100
AcDbEntity
8
1
62
256
6
ByLayer
370
18
48
1
60
1
100
AcDbLine
10
33.039216
20
-5.300002
30
0
11
33.5
21
-1.8
31
0
39
0
210
0
220
0
230
1
0
LINE
5
A8
100
AcDbEntity
8
SK2
62
256
6
ByLayer
370
13
48
1
60
0
100
AcDbLine
10
-44.5
20
13.841828
30
0
11
-44.5
21
-10.5
31
0
39
0
210
0
220
0
230
1
0
LINE
5
AA
100
AcDbEntity
8
SK2
62
256
6
ByLayer
370
13
48
1
60
0
100
AcDbLine
10
-37.5875
20
3
30
0
11
-46.5
21
3
31
0
39
0
210
0
220
0
230
1
0
LINE
5
AB
100
AcDbEntity
8
SK2
62
256
6
ByLayer
370
13
48
1
60
0
100
AcDbLine
10
-37.5875
20
-3
30
0
11
-46.5
21
-3
31
0
39
0
210
0
220
0
230
1
0
LINE
5
AC
100
AcDbEntity
8
1
62
256
6
ByLayer
370
18
48
1
60
1
100
AcDbLine
10
-44.5
20
3
30
0
11
-44.960784
21
6.499998
31
0
39
0
210
0
220
0
230
1
0
LINE
5
AD
100
AcDbEntity
8
1
62
256
6
ByLayer
370
18
48
1
60
1
100
AcDbLine
10
-44.960784
20
6.499998
30
0
11
-44.039216
21
6.500002
31
0
39
0
210
0
220
0
230
1
0
LINE
5
AE
100
AcDbEntity
8
1
62
256
6
ByLayer
370
18
48
1
60
1
100
AcDbLine
10
-44.039216
20
6.500002
30
0
11
-44.5
21
3
31
0
39
0
210
0
220
0
230
1
0
LINE
5
AF
100
AcDbEntity
8
1
62
256
6
ByLayer
370
18
48
1
60
1
100
AcDbLine
10
-44.5
20
-3
30
0
11
-44.039216
21
-6.499998
31
0
39
0
210
0
220
0
230
1
0
LINE
5
B0
100
AcDbEntity
8
1
62
256
6
ByLayer
370
18
48
1
60
1
100
AcDbLine
10
-44.039216
20
-6.499998
30
0
11
-44.960784
21
-6.500002
31
0
39
0
210
0
220
0
230
1
0
LINE
5
B1
100
AcDbEntity
8
1
62
256
6
ByLayer
370
18
48
1
60
1
100
AcDbLine
10
-44.960784
20
-6.500002
30
0
11
-44.5
21
-3
31
0
39
0
210
0
220
0
230
1
0
LINE
5
B2
100
AcDbEntity
8
SK2
62
256
6
ByLayer
370
13
48
1
60
0
100
AcDbLine
10
26.54285
20
1.491801
30
0
11
32.30761
21
17.33389
31
0
39
0
210
0
220
0
230
1
0
LINE
5
B3
100
AcDbEntity
8
SK2
62
256
6
ByLayer
370
13
48
1
60
0
100
AcDbLine
10
26.54285
20
-1.491801
30
0
11
32.30761
21
-17.33389
31
0
39
0
210
0
220
0
230
1
0
LINE
5
B4
100
AcDbEntity
8
1
62
256
6
ByLayer
370
18
48
1
60
1
100
AcDbLine
10
31.623705
20
15.454455
30
0
11
35.024971
21
14.509099
31
0
39
0
210
0
220
0
230
1
0
LINE
5
B5
100
AcDbEntity
8
1
62
256
6
ByLayer
370
18
48
1
60
1
100
AcDbLine
10
35.024971
20
14.509099
30
0
11
34.664402
21
13.660997
31
0
39
0
210
0
220
0
230
1
0
LINE
5
B6
100
AcDbEntity
8
1
62
256
6
ByLayer
370
18
48
1
60
1
100
AcDbLine
10
34.664402
20
13.660997
30
0
11
31.623705
21
15.454455
31
0
39
0
210
0
220
0
230
1
0
LINE
5
B7
100
AcDbEntity
8
1
62
256
6
ByLayer
370
18
48
1
60
1
100
AcDbLine
10
31.623705
20
-15.454455
30
0
11
34.664399
21
-13.660999
31
0
39
0
210
0
220
0
230
1
0
LINE
5
B8
100
AcDbEntity
8
1
62
256
6
ByLayer
370
18
48
1
60
1
100
AcDbLine
10
34.664399
20
-13.660999
30
0
11
35.024974
21
-14.509098
31
0
39
0
210
0
220
0
230
1
0
LINE
5
B9
100
AcDbEntity
8
1
62
256
6
ByLayer
370
18
48
1
60
1
100
AcDbLine
10
35.024974
20
-14.509098
30
0
11
31.623705
21
-15.454455
31
0
39
0
210
0
220
0
230
1
0
LINE
5
117
100
AcDbEntity
8
1
62
256
6
ByLayer
370
13
48
0.05
60
0
100
AcDbLine
10
-42.5
20
0
30
0
11
31.834434
21
0
31
0
39
0
210
0
220
0
230
1
0
LINE
5
11C
100
AcDbEntity
8
1
62
256
6
ByLayer
370
18
48
1
60
1
100
AcDbLine
10
33.5
20
1.8
30
0
11
33.039216
21
5.299998
31
0
39
0
210
0
220
0
230
1
0
LINE
5
11D
100
AcDbEntity
8
1
62
256
6
ByLayer
370
18
48
1
60
1
100
AcDbLine
10
33.039216
20
5.299998
30
0
11
33.960784
21
5.300002
31
0
39
0
210
0
220
0
230
1
0
LINE
5
11E
100
AcDbEntity
8
1
62
256
6
ByLayer
370
18
48
1
60
1
100
AcDbLine
10
33.960784
20
5.300002
30
0
11
33.5
21
1.8
31
0
39
0
210
0
220
0
230
1
0
LINE
5
120
100
AcDbEntity
8
1
62
256
6
ByLayer
370
18
48
1
60
1
100
AcDbLine
10
33.5
20
-1.8
30
0
11
33.960784
21
-5.299998
31
0
39
0
210
0
220
0
230
1
0
LINE
5
121
100
AcDbEntity
8
1
62
256
6
ByLayer
370
18
48
1
60
1
100
AcDbLine
10
33.960784
20
-5.299998
30
0
11
33.039216
21
-5.300002
31
0
39
0
210
0
220
0
230
1
0
LINE
5
122
100
AcDbEntity
8
1
62
256
6
ByLayer
370
18
48
1
60
1
100
AcDbLine
10
33.039216
20
-5.300002
30
0
11
33.5
21
-1.8
31
0
39
0
210
0
220
0
230
1
0
LINE
5
126
100
AcDbEntity
8
1
62
256
6
ByLayer
370
18
48
1
60
1
100
AcDbLine
10
-44.5
20
3
30
0
11
-44.960784
21
6.499998
31
0
39
0
210
0
220
0
230
1
0
LINE
5
127
100
AcDbEntity
8
1
62
256
6
ByLayer
370
18
48
1
60
1
100
AcDbLine
10
-44.960784
20
6.499998
30
0
11
-44.039216
21
6.500002
31
0
39
0
210
0
220
0
230
1
0
LINE
5
128
100
AcDbEntity
8
1
62
256
6
ByLayer
370
18
48
1
60
1
100
AcDbLine
10
-44.039216
20
6.500002
30
0
11
-44.5
21
3
31
0
39
0
210
0
220
0
230
1
0
LINE
5
12A
100
AcDbEntity
8
1
62
256
6
ByLayer
370
18
48
1
60
1
100
AcDbLine
10
-44.5
20
-3
30
0
11
-44.039216
21
-6.499998
31
0
39
0
210
0
220
0
230
1
0
LINE
5
12B
100
AcDbEntity
8
1
62
256
6
ByLayer
370
18
48
1
60
1
100
AcDbLine
10
-44.039216
20
-6.499998
30
0
11
-44.960784
21
-6.500002
31
0
39
0
210
0
220
0
230
1
0
LINE
5
12C
100
AcDbEntity
8
1
62
256
6
ByLayer
370
18
48
1
60
1
100
AcDbLine
10
-44.960784
20
-6.500002
30
0
11
-44.5
21
-3
31
0
39
0
210
0
220
0
230
1
0
LINE
5
12F
100
AcDbEntity
8
1
62
256
6
ByLayer
370
18
48
1
60
1
100
AcDbLine
10
31.623705
20
15.454455
30
0
11
35.024971
21
14.509099
31
0
39
0
210
0
220
0
230
1
0
LINE
5
130
100
AcDbEntity
8
1
62
256
6
ByLayer
370
18
48
1
60
1
100
AcDbLine
10
35.024971
20
14.509099
30
0
11
34.664402
21
13.660997
31
0
39
0
210
0
220
0
230
1
0
LINE
5
131
100
AcDbEntity
8
1
62
256
6
ByLayer
370
18
48
1
60
1
100
AcDbLine
10
34.664402
20
13.660997
30
0
11
31.623705
21
15.454455
31
0
39
0
210
0
220
0
230
1
0
LINE
5
133
100
AcDbEntity
8
1
62
256
6
ByLayer
370
18
48
1
60
1
100
AcDbLine
10
31.623705
20
-15.454455
30
0
11
34.664399
21
-13.660999
31
0
39
0
210
0
220
0
230
1
0
LINE
5
134
100
AcDbEntity
8
1
62
256
6
ByLayer
370
18
48
1
60
1
100
AcDbLine
10
34.664399
20
-13.660999
30
0
11
35.024974
21
-14.509098
31
0
39
0
210
0
220
0
230
1
0
LINE
5
135
100
AcDbEntity
8
1
62
256
6
ByLayer
370
18
48
1
60
1
100
AcDbLine
10
35.024974
20
-14.509098
30
0
11
31.623705
21
-15.454455
31
0
39
0
210
0
220
0
230
1
0
MTEXT
5
118
100
AcDbEntity
8
2
62
256
6
ByLayer
370
18
48
1
60
0
100
AcDbMText
10
32.158886
20
15.458437
30
0
210
0
220
0
230
1
1
%%c
40
3
41
0
44
1.084337
50
90
71
7
72
5
7
iso_b_vert
0
MTEXT
5
11B
100
AcDbEntity
8
2
62
256
6
ByLayer
370
18
48
1
60
0
100
AcDbMText
10
32.158886
20
21.435
30
0
210
0
220
0
230
1
1
\W0.7121;3.6
40
3
41
0
44
1.084337
50
90
71
7
72
5
7
iso_b_vert
0
MTEXT
5
124
100
AcDbEntity
8
SK2
62
256
6
ByLayer
370
18
48
1
60
0
100
AcDbMText
10
-45.841114
20
6.658437
30
0
210
0
220
0
230
1
1
%%c
40
3
41
0
44
1.084337
50
90
71
7
72
5
7
iso_b_vert
0
MTEXT
5
125
100
AcDbEntity
8
SK2
62
256
6
ByLayer
370
18
48
1
60
0
100
AcDbMText
10
-45.841114
20
12.635
30
0
210
0
220
0
230
1
1
\W0.5404;6
40
3
41
0
44
1.084337
50
90
71
7
72
5
7
iso_b_vert
0
MTEXT
5
12E
100
AcDbEntity
8
SK2
62
256
6
ByLayer
370
18
48
1
60
0
100
AcDbMText
10
39.005201
20
-2.114886
30
0
210
0
220
0
230
1
1
\W0.7071;140%%d
40
3
41
0
44
1.084337
50
0
71
7
72
5
7
iso_b_vert
0
MTEXT
5
137
100
AcDbEntity
8
SK6
62
256
6
ByLayer
370
18
48
1
60
0
100
AcDbMText
10
-30.317953
20
-77.114886
30
0
210
0
220
0
230
1
1
\W0.7307;860.1-0360-011A1-SD S2BM
40
3
41
0
44
1.084337
50
0
71
7
72
5
7
iso_b_vert
0
HATCH
5
11F
100
AcDbEntity
8
2
62
256
6
ByLayer
370
13
48
1
60
0
100
AcDbHatch
10
0
20
0
30
0
210
0
220
0
230
1
2
ANSI31
70
0
71
0
91
1
92
5
93
3
72
1
10
33.5
20
1.79999999999998
11
33.0392162584472
21
5.2999983074468
72
1
10
33.0392162584472
20
5.2999983074468
11
33.9607837415528
21
5.30000169255317
72
1
10
33.9607837415528
20
5.30000169255317
11
33.5
21
1.79999999999998
97
0
75
0
76
1
52
0
41
0.0062
77
0
78
1
53
45
43
0
44
0
45
-0.0139193969876572
46
0.0139193969876572
79
0
47
0
98
1
10
0
20
0
0
HATCH
5
123
100
AcDbEntity
8
2
62
256
6
ByLayer
370
13
48
1
60
0
100
AcDbHatch
10
0
20
0
30
0
210
0
220
0
230
1
2
ANSI31
70
0
71
0
91
1
92
5
93
3
72
1
10
33.5
20
-1.80000000000001
11
33.9607837415528
21
-5.29999830744683
72
1
10
33.9607837415528
20
-5.29999830744683
11
33.0392162584472
21
-5.3000016925532
72
1
10
33.0392162584472
20
-5.3000016925532
11
33.5
21
-1.80000000000001
97
0
75
0
76
1
52
0
41
0.0062
77
0
78
1
53
45
43
0
44
0
45
-0.0139193969876572
46
0.0139193969876572
79
0
47
0
98
1
10
0
20
0
0
HATCH
5
129
100
AcDbEntity
8
SK2
62
256
6
ByLayer
370
13
48
1
60
0
100
AcDbHatch
10
0
20
0
30
0
210
0
220
0
230
1
2
ANSI31
70
0
71
0
91
1
92
5
93
3
72
1
10
-44.5
20
3
11
-44.9607837415528
21
6.49999830744682
72
1
10
-44.9607837415528
20
6.49999830744682
11
-44.0392162584472
21
6.50000169255318
72
1
10
-44.0392162584472
20
6.50000169255318
11
-44.5
21
3
97
0
75
0
76
1
52
0
41
0.0062
77
0
78
1
53
45
43
0
44
0
45
-0.0139193969876572
46
0.0139193969876572
79
0
47
0
98
1
10
0
20
0
0
HATCH
5
12D
100
AcDbEntity
8
SK2
62
256
6
ByLayer
370
13
48
1
60
0
100
AcDbHatch
10
0
20
0
30
0
210
0
220
0
230
1
2
ANSI31
70
0
71
0
91
1
92
5
93
3
72
1
10
-44.5
20
-3
11
-44.0392162584472
21
-6.49999830744682
72
1
10
-44.0392162584472
20
-6.49999830744682
11
-44.9607837415528
21
-6.50000169255318
72
1
10
-44.9607837415528
20
-6.50000169255318
11
-44.5
21
-3
97
0
75
0
76
1
52
0
41
0.0062
77
0
78
1
53
45
43
0
44
0
45
-0.0139193969876572
46
0.0139193969876572
79
0
47
0
98
1
10
0
20
0
0
HATCH
5
132
100
AcDbEntity
8
SK2
62
256
6
ByLayer
370
13
48
1
60
0
100
AcDbHatch
10
0
20
0
30
0
210
0
220
0
230
1
2
ANSI31
70
0
71
0
91
1
92
5
93
3
72
1
10
31.6237046363955
20
15.4544554893316
11
35.0249708104911
21
14.5090993545533
72
1
10
35.0249708104911
20
14.5090993545533
11
34.6644021947317
21
13.6609974153631
72
1
10
34.6644021947317
20
13.6609974153631
11
31.6237046363955
21
15.4544554893316
97
0
75
0
76
1
52
0
41
0.0062
77
0
78
1
53
45
43
0
44
0
45
-0.0139193969876572
46
0.0139193969876572
79
0
47
0
98
1
10
0
20
0
0
HATCH
5
136
100
AcDbEntity
8
SK2
62
256
6
ByLayer
370
13
48
1
60
0
100
AcDbHatch
10
0
20
0
30
0
210
0
220
0
230
1
2
ANSI31
70
0
71
0
91
1
92
5
93
3
72
1
10
31.6237046363955
20
-15.4544554893316
11
34.6643990794842
21
-13.660998739817
72
1
10
34.6643990794842
20
-13.660998739817
11
35.0249739257386
21
-14.5090980300994
72
1
10
35.0249739257386
20
-14.5090980300994
11
31.6237046363955
21
-15.4544554893316
97
0
75
0
76
1
52
0
41
0.0062
77
0
78
1
53
45
43
0
44
0
45
-0.0139193969876572
46
0.0139193969876572
79
0
47
0
98
1
10
0
20
0
0
DIMENSION
5
13A
100
AcDbEntity
8
SK2
62
256
6
ByLayer
370
18
48
1
60
0
100
AcDbDimension
2
_U0
10
14.6
20
-19.029201
30
0
11
20.3
21
-19.029201
31
0
70
32
71
1
72
1
41
1
210
0
220
0
230
1
3
Standard
100
AcDbAlignedDimension
13
26
23
-1.8
33
0
14
14.6
24
-1.8
34
0
50
0
100
AcDbRotatedDimension
1001
ACAD
1000
DSTYLE
1002
{
1070
   371
1070
    13
1070
   372
1070
    13
1070
   170
1070
     0
1070
   144
1040
1.0
1070
   277
1070
     2
1070
   284
1070
     8
1070
   278
1070
    46
1070
   146
1040
1.166667
1070
   345
1005
16
1070
   347
1005
16
1070
   346
1005
16
1070
   344
1005
0
1070
   343
1005
0
1070
   172
1070
     1
1070
    76
1070
     0
1070
    75
1070
     0
1070
   282
1070
     0
1070
   281
1070
     0
1070
     3
1000

1070
    71
1070
     0
1070
    74
1070
     0
1070
   279
1070
     0
1070
   173
1070
     1
1070
   340
1005
119
1070
   271
1070
     2
1070
   272
1070
     2
1070
    77
1070
     1
1070
    73
1070
     1
1070
   171
1070
     3
1070
   274
1070
     4
1070
   177
1070
     2
1070
   176
1070
     2
1070
   178
1070
     2
1070
    78
1070
     8
1070
    48
1040
-0.1
1070
    41
1040
3.5
1070
   147
1040
1.5
1070
    42
1040
1.5875
1070
    44
1040
2.0
1070
   140
1040
3.0
1002
}
1001
ACAD_DSTYLE_DIM_LINETYPE
1070
   380
1005
16
1001
ACAD_DSTYLE_DIM_EXT1_LINETYPE
1070
   381
1005
16
1001
ACAD_DSTYLE_DIM_EXT2_LINETYPE
1070
   382
1005
16
0
DIMENSION
5
156
100
AcDbEntity
8
SK2
62
256
6
ByLayer
370
18
48
1
60
0
100
AcDbDimension
2
_U1
10
6
20
-29.029201
30
0
11
16
21
-29.029201
31
0
70
32
71
1
72
1
41
1
210
0
220
0
230
1
3
Standard
100
AcDbAlignedDimension
13
26
23
-1.8
33
0
14
6
24
-1.8
34
0
50
0
100
AcDbRotatedDimension
1001
ACAD
1000
DSTYLE
1002
{
1070
   371
1070
    13
1070
   372
1070
    13
1070
     3
1000

1070
   170
1070
     0
1070
   144
1040
1.0
1070
   277
1070
     2
1070
   284
1070
     8
1070
   278
1070
    46
1070
   146
1040
1.166667
1070
   345
1005
16
1070
   347
1005
16
1070
   346
1005
16
1070
   344
1005
0
1070
   343
1005
0
1070
   172
1070
     1
1070
    76
1070
     0
1070
    75
1070
     0
1070
   282
1070
     0
1070
   281
1070
     0
1070
    71
1070
     0
1070
    74
1070
     0
1070
   279
1070
     0
1070
   173
1070
     1
1070
   340
1005
119
1070
   271
1070
     2
1070
   272
1070
     2
1070
    77
1070
     1
1070
    73
1070
     1
1070
   171
1070
     3
1070
   274
1070
     4
1070
   177
1070
     2
1070
   176
1070
     2
1070
   178
1070
     2
1070
    78
1070
     8
1070
    48
1040
-0.1
1070
    41
1040
3.5
1070
   147
1040
1.5
1070
    42
1040
1.5875
1070
    44
1040
2.0
1070
   140
1040
3.0
1002
}
1001
ACAD_DSTYLE_DIM_LINETYPE
1070
   380
1005
16
1001
ACAD_DSTYLE_DIM_EXT1_LINETYPE
1070
   381
1005
16
1001
ACAD_DSTYLE_DIM_EXT2_LINETYPE
1070
   382
1005
16
0
DIMENSION
5
16E
100
AcDbEntity
8
SK2
62
256
6
ByLayer
370
18
48
1
60
0
100
AcDbDimension
2
_U2
10
0
20
-37.029201
30
0
11
-18
21
-37.029201
31
0
70
32
71
1
72
1
41
1
210
0
220
0
230
1
3
Standard
100
AcDbAlignedDimension
13
-36
23
-3
33
0
14
0
24
-3
34
0
50
0
100
AcDbRotatedDimension
1001
ACAD
1000
DSTYLE
1002
{
1070
   371
1070
    13
1070
   372
1070
    13
1070
     3
1000

1070
   170
1070
     0
1070
   144
1040
1.0
1070
   277
1070
     2
1070
   284
1070
     8
1070
   278
1070
    46
1070
   146
1040
1.166667
1070
   345
1005
16
1070
   347
1005
16
1070
   346
1005
16
1070
   344
1005
0
1070
   343
1005
0
1070
   172
1070
     1
1070
    76
1070
     0
1070
    75
1070
     0
1070
   282
1070
     0
1070
   281
1070
     0
1070
    71
1070
     0
1070
    74
1070
     0
1070
   279
1070
     0
1070
   173
1070
     1
1070
   340
1005
119
1070
   271
1070
     2
1070
   272
1070
     2
1070
    77
1070
     1
1070
    73
1070
     1
1070
   171
1070
     3
1070
   274
1070
     4
1070
   177
1070
     2
1070
   176
1070
     2
1070
   178
1070
     2
1070
    78
1070
     8
1070
    48
1040
-0.1
1070
    41
1040
3.5
1070
   147
1040
1.5
1070
    42
1040
1.5875
1070
    44
1040
2.0
1070
   140
1040
3.0
1002
}
1001
ACAD_DSTYLE_DIM_LINETYPE
1070
   380
1005
16
1001
ACAD_DSTYLE_DIM_EXT1_LINETYPE
1070
   381
1005
16
1001
ACAD_DSTYLE_DIM_EXT2_LINETYPE
1070
   382
1005
16
0
DIMENSION
5
186
100
AcDbEntity
8
SK2
62
256
6
ByLayer
370
18
48
1
60
0
100
AcDbDimension
2
_U3
10
26
20
-45.029201
30
0
11
-5
21
-45.029201
31
0
70
32
71
1
72
1
41
1
210
0
220
0
230
1
3
Standard
100
AcDbAlignedDimension
13
-36
23
-3
33
0
14
26
24
-1.8
34
0
50
0
100
AcDbRotatedDimension
1001
ACAD
1000
DSTYLE
1002
{
1070
   371
1070
    13
1070
   372
1070
    13
1070
     3
1000

1070
   170
1070
     0
1070
   144
1040
1.0
1070
   277
1070
     2
1070
   284
1070
     8
1070
   278
1070
    46
1070
   146
1040
1.166667
1070
   345
1005
16
1070
   347
1005
16
1070
   346
1005
16
1070
   344
1005
0
1070
   343
1005
0
1070
   172
1070
     1
1070
    76
1070
     0
1070
    75
1070
     0
1070
   282
1070
     0
1070
   281
1070
     0
1070
    71
1070
     0
1070
    74
1070
     0
1070
   279
1070
     0
1070
   173
1070
     1
1070
   340
1005
119
1070
   271
1070
     2
1070
   272
1070
     2
1070
    77
1070
     1
1070
    73
1070
     1
1070
   171
1070
     3
1070
   274
1070
     4
1070
   177
1070
     2
1070
   176
1070
     2
1070
   178
1070
     2
1070
    78
1070
     8
1070
    48
1040
-0.1
1070
    41
1040
3.5
1070
   147
1040
1.5
1070
    42
1040
1.5875
1070
    44
1040
2.0
1070
   140
1040
3.0
1002
}
1001
ACAD_DSTYLE_DIM_LINETYPE
1070
   380
1005
16
1001
ACAD_DSTYLE_DIM_EXT1_LINETYPE
1070
   381
1005
16
1001
ACAD_DSTYLE_DIM_EXT2_LINETYPE
1070
   382
1005
16
0
DIMENSION
5
19E
100
AcDbEntity
8
2
62
256
6
ByLayer
370
18
48
1
60
0
100
AcDbDimension
2
_U4
10
0
20
-37.029201
30
0
11
13
21
-37.029201
31
0
70
32
71
1
72
1
41
1
210
0
220
0
230
1
3
Standard
100
AcDbAlignedDimension
13
26
23
-1.8
33
0
14
0
24
-1.8
34
0
50
0
100
AcDbRotatedDimension
1001
ACAD
1000
DSTYLE
1002
{
1070
   371
1070
    13
1070
   372
1070
    13
1070
     3
1000

1070
   170
1070
     0
1070
   144
1040
1.0
1070
   277
1070
     2
1070
   284
1070
     8
1070
   278
1070
    46
1070
   146
1040
1.166667
1070
   345
1005
16
1070
   347
1005
16
1070
   346
1005
16
1070
   344
1005
0
1070
   343
1005
0
1070
   172
1070
     1
1070
    76
1070
     0
1070
    75
1070
     0
1070
   282
1070
     0
1070
   281
1070
     0
1070
    71
1070
     0
1070
    74
1070
     0
1070
   279
1070
     0
1070
   173
1070
     1
1070
   340
1005
119
1070
   271
1070
     2
1070
   272
1070
     2
1070
    77
1070
     1
1070
    73
1070
     1
1070
   171
1070
     3
1070
   274
1070
     4
1070
   177
1070
     2
1070
   176
1070
     2
1070
   178
1070
     2
1070
    78
1070
     8
1070
    48
1040
-0.1
1070
    41
1040
3.5
1070
   147
1040
1.5
1070
    42
1040
1.5875
1070
    44
1040
2.0
1070
   140
1040
3.0
1002
}
1001
ACAD_DSTYLE_DIM_LINETYPE
1070
   380
1005
16
1001
ACAD_DSTYLE_DIM_EXT1_LINETYPE
1070
   381
1005
16
1001
ACAD_DSTYLE_DIM_EXT2_LINETYPE
1070
   382
1005
16
0
ENDSEC
0
SECTION
2
OBJECTS
0
DICTIONARY
5
226
330
0
100
AcDbDictionary
280
0
281
1
3
ACAD_GROUP
350
227
3
ACAD_MLINESTYLE
350
228
0
DICTIONARY
5
227
330
0
100
AcDbDictionary
280
0
281
1
0
DICTIONARY
5
228
330
0
100
AcDbDictionary
280
0
281
1
3
Standard
350
18
0
MLINESTYLE
5
18
330
228
100
AcDbMlineStyle
2
Standard
70
0
3

62
256
51
90
52
90
71
2
49
-0.5
62
256
6
ByLayer
49
0.5
62
256
6
ByLayer
0
RASTERVARIABLES
5
214
330

100
AcDbRasterVariables
90
0
70
1
71
1
72
1
0
ENDSEC
0
EOF
