0
SECTION
2
HEADER
9
$ACADVER
1
AC1015
9
$DWGCODEPAGE
3
ANSI_1252
9
$HANDSEED
5
235
9
$ANGBASE
50
0
9
$ANGDIR
70
0
9
$ATTMODE
70
1
9
$AUNITS
70
0
9
$AUPREC
70
0
9
$CECOLOR
62
256
9
$CELTSCALE
40
1
9
$CELTYPE
6
ByLayer
9
$CELWEIGHT
370
18
9
$CLAYER
8
0
9
$CMLJUST
70
0
9
$CMLSCALE
40
1
9
$CMLSTYLE
2
Standard
9
$DIMSTYLE
2
Standard
9
$TEXTSIZE
40
0.2
9
$TEXTSTYLE
7
Standard
9
$LUNITS
70
2
9
$LUPREC
70
4
9
$EXTNAMES
290
1
9
$INSUNITS
70
4
9
$LTSCALE
40
1
9
$LWDISPLAY
290
1
9
$PDMODE
70
0
9
$PDSIZE
40
0
9
$PLINEGEN
70
0
0
ENDSEC
0
SECTION
2
CLASSES
0
CLASS
1
RASTERVARIABLES
2
AcDbRasterVariables
3
ISM
90
0
280
0
281
0
0
ENDSEC
0
SECTION
2
TABLES
0
TABLE
2
VPORT
5
22b
100
AcDbSymbolTable
0
VPORT
5
1
100
AcDbSymbolTableRecord
100
AcDbViewportTableRecord
2
*Active
70
0
10
0
20
0
11
1
21
1
12
-1
22
1
13
0
23
0
14
0.5
24
0.5
15
10
25
10
16
0
26
0
36
1
17
0
27
0
37
0
0
ENDTAB
0
TABLE
2
LTYPE
5
22c
100
AcDbSymbolTable
0
LTYPE
5
14
100
AcDbSymbolTableRecord
100
AcDbLinetypeTableRecord
70
0
2
ByBlock
3

72
65
73
0
40
0
0
LTYPE
5
15
100
AcDbSymbolTableRecord
100
AcDbLinetypeTableRecord
70
0
2
ByLayer
3

72
65
73
0
40
0
0
LTYPE
5
16
100
AcDbSymbolTableRecord
100
AcDbLinetypeTableRecord
70
0
2
Continuous
3
Solid line
72
65
73
0
40
0
0
LTYPE
5
6E
100
AcDbSymbolTableRecord
100
AcDbLinetypeTableRecord
70
0
2
CENTER
3
____ _ ____ _ ____ _ ____
72
65
73
4
40
47.5
49
22
74
0
49
-8.5
74
0
49
8.5
74
0
49
-8.5
74
0
0
LTYPE
5
6F
100
AcDbSymbolTableRecord
100
AcDbLinetypeTableRecord
70
0
2
DASHED
3
__ __ __ __ __ __ __ __ __
72
65
73
2
40
25.72
49
12.86
74
0
49
-12.86
74
0
0
ENDTAB
0
TABLE
2
LAYER
5
22d
100
AcDbSymbolTable
0
LAYER
5
10
100
AcDbSymbolTableRecord
100
AcDbLayerTableRecord
2
0
70
0
62
7
6
Continuous
290
1
370
-3
390
0
0
LAYER
5
71
100
AcDbSymbolTableRecord
100
AcDbLayerTableRecord
2
81
70
0
62
-3
6
Continuous
290
1
370
-3
390
0
0
LAYER
5
73
100
AcDbSymbolTableRecord
100
AcDbLayerTableRecord
2
80
70
0
62
-6
6
Continuous
290
1
370
-3
390
0
0
LAYER
5
75
100
AcDbSymbolTableRecord
100
AcDbLayerTableRecord
2
1
70
0
62
4
6
Continuous
290
1
370
-3
390
0
0
LAYER
5
85
100
AcDbSymbolTableRecord
100
AcDbLayerTableRecord
2
4
70
0
62
-2
6
CENTER
290
1
370
-3
390
0
0
LAYER
5
A6
100
AcDbSymbolTableRecord
100
AcDbLayerTableRecord
2
2
70
0
62
7
6
Continuous
290
1
370
-3
390
0
0
LAYER
5
140
100
AcDbSymbolTableRecord
100
AcDbLayerTableRecord
2
Defpoints
70
0
62
7
6
Continuous
290
0
370
-3
390
0
0
LAYER
5
217
100
AcDbSymbolTableRecord
100
AcDbLayerTableRecord
2
SK4
70
0
62
2
6
CENTER
290
1
370
-3
390
0
0
LAYER
5
218
100
AcDbSymbolTableRecord
100
AcDbLayerTableRecord
2
SK1
70
0
62
4
6
Continuous
290
1
370
-3
390
0
0
LAYER
5
219
100
AcDbSymbolTableRecord
100
AcDbLayerTableRecord
2
SK2
70
0
62
7
6
Continuous
290
1
370
-3
390
0
0
LAYER
5
21a
100
AcDbSymbolTableRecord
100
AcDbLayerTableRecord
2
SK6
70
0
62
5
6
Continuous
290
1
370
-3
390
0
0
ENDTAB
0
TABLE
2
STYLE
5
22e
100
AcDbSymbolTable
0
STYLE
5
11
100
AcDbSymbolTableRecord
100
AcDbTextStyleTableRecord
2
Standard
3
txt
70
0
71
0
40
0
41
1
42
0
50
0
0
STYLE
5
11C
100
AcDbSymbolTableRecord
100
AcDbTextStyleTableRecord
2
iso_b_vert
3
simplex.shx
70
0
71
0
40
0
41
1
42
0
50
0
0
STYLE
5
11D
100
AcDbSymbolTableRecord
100
AcDbTextStyleTableRecord
2
DWGDirectTextStyle
3
simplex
70
0
71
0
40
0
41
1
42
0
50
0
0
ENDTAB
0
TABLE
2
DIMSTYLE
5
22f
100
AcDbSymbolTable
100
AcDbDimStyleTable
0
DIMSTYLE
105
27
100
AcDbSymbolTableRecord
100
AcDbDimStyleTableRecord
2
Standard
70
0
3
<>
41
0.18
42
0.0625
44
0.18
140
0.18
147
0.09
73
0
74
0
77
1
271
2
275
0
278
52
280
0
340
11
0
ENDTAB
0
TABLE
2
VIEW
5
230
100
AcDbSymbolTable
0
ENDTAB
0
TABLE
2
UCS
5
231
100
AcDbSymbolTable
0
ENDTAB
0
TABLE
2
APPID
5
232
100
AcDbSymbolTable
0
APPID
5
12
100
AcDbSymbolTableRecord
100
AcDbRegAppTableRecord
2
ACAD
70
0
0
APPID
5
13C
100
AcDbSymbolTableRecord
100
AcDbRegAppTableRecord
2
ACAD_DSTYLE_DIMBREAK
70
0
0
APPID
5
1D6
100
AcDbSymbolTableRecord
100
AcDbRegAppTableRecord
2
ACAD_DSTYLE_DIM_LINETYPE
70
0
0
APPID
5
1D7
100
AcDbSymbolTableRecord
100
AcDbRegAppTableRecord
2
ACAD_DSTYLE_DIM_EXT1_LINETYPE
70
0
0
APPID
5
1D8
100
AcDbSymbolTableRecord
100
AcDbRegAppTableRecord
2
ACAD_DSTYLE_DIM_EXT2_LINETYPE
70
0
0
APPID
5
213
100
AcDbSymbolTableRecord
100
AcDbRegAppTableRecord
2
ACAD_MLEADERVER
70
0
0
ENDTAB
0
TABLE
2
BLOCK_RECORD
5
233
100
AcDbSymbolTable
0
BLOCK_RECORD
5
1F
100
AcDbSymbolTableRecord
100
AcDbBlockTableRecord
2
*Model_Space
340
0
70
0
0
BLOCK_RECORD
5
1B
100
AcDbSymbolTableRecord
100
AcDbBlockTableRecord
2
*Paper_Space
340
0
70
0
0
BLOCK_RECORD
5
23
100
AcDbSymbolTableRecord
100
AcDbBlockTableRecord
2
*Paper_Space0
340
0
70
0
0
BLOCK_RECORD
5
141
100
AcDbSymbolTableRecord
100
AcDbBlockTableRecord
2
*D1
340
0
70
0
0
BLOCK_RECORD
5
14D
100
AcDbSymbolTableRecord
100
AcDbBlockTableRecord
2
_U0
340
0
70
0
0
BLOCK_RECORD
5
15B
100
AcDbSymbolTableRecord
100
AcDbBlockTableRecord
2
*D3
340
0
70
0
0
BLOCK_RECORD
5
167
100
AcDbSymbolTableRecord
100
AcDbBlockTableRecord
2
_U1
340
0
70
0
0
BLOCK_RECORD
5
173
100
AcDbSymbolTableRecord
100
AcDbBlockTableRecord
2
*D5
340
0
70
0
0
BLOCK_RECORD
5
17F
100
AcDbSymbolTableRecord
100
AcDbBlockTableRecord
2
_U2
340
0
70
0
0
BLOCK_RECORD
5
18B
100
AcDbSymbolTableRecord
100
AcDbBlockTableRecord
2
*D7
340
0
70
0
0
BLOCK_RECORD
5
197
100
AcDbSymbolTableRecord
100
AcDbBlockTableRecord
2
_U3
340
0
70
0
0
BLOCK_RECORD
5
1A3
100
AcDbSymbolTableRecord
100
AcDbBlockTableRecord
2
*D9
340
0
70
0
0
BLOCK_RECORD
5
1AF
100
AcDbSymbolTableRecord
100
AcDbBlockTableRecord
2
_U4
340
0
70
0
0
ENDTAB
0
ENDSEC
0
SECTION
2
BLOCKS
0
BLOCK
5
20
100
AcDbEntity
8
0
100
AcDbBlockBegin
2
*Model_Space
70
0
10
0
20
0
30
0
3
*Model_Space
0
ENDBLK
5
21
100
AcDbEntity
8
0
100
AcDbBlockEnd
0
BLOCK
5
1C
100
AcDbEntity
8
0
100
AcDbBlockBegin
2
*Paper_Space
70
0
10
0
20
0
30
0
3
*Paper_Space
0
ENDBLK
5
1D
100
AcDbEntity
8
0
100
AcDbBlockEnd
0
BLOCK
5
24
100
AcDbEntity
8
0
100
AcDbBlockBegin
2
*Paper_Space0
70
0
10
0
20
0
30
0
3
*Paper_Space0
0
ENDBLK
5
25
100
AcDbEntity
8
0
100
AcDbBlockEnd
0
BLOCK
5
142
100
AcDbEntity
8
0
100
AcDbBlockBegin
2
*D1
70
1
10
0
20
0
30
0
3
*D1
0
LINE
5
144
100
AcDbEntity
8
0
62
256
6
ByLayer
370
-2
48
1
60
0
100
AcDbLine
10
30
20
-3.1375
30
0
11
30
21
-20.504445
31
0
39
0
210
0
220
0
230
1
0
LINE
5
145
100
AcDbEntity
8
0
62
256
6
ByLayer
370
-2
48
1
60
0
100
AcDbLine
10
14
20
-3.1375
30
0
11
14
21
-20.504445
31
0
39
0
210
0
220
0
230
1
0
LINE
5
146
100
AcDbEntity
8
0
62
256
6
ByLayer
370
-2
48
1
60
0
100
AcDbLine
10
26.5
20
-18.504445
30
0
11
17.5
21
-18.504445
31
0
39
0
210
0
220
0
230
1
0
SOLID
5
147
100
AcDbEntity
8
0
62
256
6
ByLayer
370
-1
48
1
60
0
100
AcDbTrace
10
26.5
20
-19.087778
30
0
11
26.5
21
-17.921112
31
0
12
30
22
-18.504445
32
0
13
30
23
-18.504445
33
0
39
0
210
0
220
0
230
1
0
SOLID
5
148
100
AcDbEntity
8
0
62
256
6
ByLayer
370
-1
48
1
60
0
100
AcDbTrace
10
17.5
20
-17.921112
30
0
11
17.5
21
-19.087778
31
0
12
14
22
-18.504445
32
0
13
14
23
-18.504445
33
0
39
0
210
0
220
0
230
1
0
MTEXT
5
149
100
AcDbEntity
8
0
62
256
6
ByLayer
370
18
48
1
60
0
100
AcDbMText
10
22
20
-12.504445
30
0
210
0
220
0
230
1
1
\A1;16
40
3
41
0
44
1
50
0
71
5
72
5
7
iso_b_vert
0
POINT
5
14A
100
AcDbEntity
8
Defpoints
62
0
6
ByLayer
370
-1
48
1
60
0
100
AcDbPoint
10
30
20
-1.55
30
0
39
0
210
0
220
0
230
1
50
360
0
POINT
5
14B
100
AcDbEntity
8
Defpoints
62
0
6
ByLayer
370
-1
48
1
60
0
100
AcDbPoint
10
14
20
-1.55
30
0
39
0
210
0
220
0
230
1
50
360
0
POINT
5
14C
100
AcDbEntity
8
Defpoints
62
0
6
ByLayer
370
-1
48
1
60
0
100
AcDbPoint
10
14
20
-18.504445
30
0
39
0
210
0
220
0
230
1
50
360
0
ENDBLK
5
143
100
AcDbEntity
8
0
100
AcDbBlockEnd
0
BLOCK
5
156
100
AcDbEntity
8
0
100
AcDbBlockBegin
2
_U0
70
0
10
0
20
0
30
0
3
_U0
0
MTEXT
5
14E
100
AcDbEntity
8
SK2
62
256
6
ByLayer
370
18
48
1
60
0
100
AcDbMText
10
20.742115
20
-16.30683
30
0
210
0
220
0
230
1
1
\W0.5321;16
40
3
41
0
44
1.084337
50
0
71
7
72
5
7
iso_b_vert
0
MTEXT
5
14F
100
AcDbEntity
8
SK2
62
256
6
ByLayer
370
18
48
1
60
0
100
AcDbMText
10
18.642115
20
-16.30683
30
0
210
0
220
0
230
1
1
\W1.1313;{\H1.88x;(}
40
3
41
0
44
1.084337
50
0
71
7
72
5
7
iso_b_vert
0
MTEXT
5
150
100
AcDbEntity
8
SK2
62
256
6
ByLayer
370
18
48
1
60
0
100
AcDbMText
10
23.575885
20
-16.30683
30
0
210
0
220
0
230
1
1
\W1.1313;{\H1.88x;)}
40
3
41
0
44
1.084337
50
0
71
7
72
5
7
iso_b_vert
0
LINE
5
151
100
AcDbEntity
8
SK2
62
256
6
ByLayer
370
13
48
1
60
0
100
AcDbLine
10
30
20
-3.1375
30
0
11
30
21
-20.504445
31
0
39
0
210
0
220
0
230
1
0
LINE
5
152
100
AcDbEntity
8
SK2
62
256
6
ByLayer
370
13
48
1
60
0
100
AcDbLine
10
14
20
-3.1375
30
0
11
14
21
-20.504445
31
0
39
0
210
0
220
0
230
1
0
LINE
5
153
100
AcDbEntity
8
SK2
62
256
6
ByLayer
370
13
48
1
60
0
100
AcDbLine
10
30
20
-18.504445
30
0
11
14
21
-18.504445
31
0
39
0
210
0
220
0
230
1
0
SOLID
5
154
100
AcDbEntity
8
SK2
62
256
6
ByLayer
370
18
48
1
60
0
100
AcDbTrace
10
30
20
-18.504445
30
0
11
26.500002
21
-18.965229
31
0
12
26.499998
22
-18.043661
32
0
13
26.499998
23
-18.043661
33
0
39
0
210
0
220
0
230
1
0
SOLID
5
155
100
AcDbEntity
8
SK2
62
256
6
ByLayer
370
18
48
1
60
0
100
AcDbTrace
10
14
20
-18.504445
30
0
11
17.499998
21
-18.043661
31
0
12
17.500002
22
-18.965229
32
0
13
17.500002
23
-18.965229
33
0
39
0
210
0
220
0
230
1
0
ENDBLK
5
157
100
AcDbEntity
8
0
100
AcDbBlockEnd
0
BLOCK
5
15C
100
AcDbEntity
8
0
100
AcDbBlockBegin
2
*D3
70
1
10
0
20
0
30
0
3
*D3
0
LINE
5
15E
100
AcDbEntity
8
0
62
256
6
ByLayer
370
-2
48
1
60
0
100
AcDbLine
10
30
20
-3.1375
30
0
11
30
21
-30.504445
31
0
39
0
210
0
220
0
230
1
0
LINE
5
15F
100
AcDbEntity
8
0
62
256
6
ByLayer
370
-2
48
1
60
0
100
AcDbLine
10
2
20
-3.1375
30
0
11
2
21
-30.504445
31
0
39
0
210
0
220
0
230
1
0
LINE
5
160
100
AcDbEntity
8
0
62
256
6
ByLayer
370
-2
48
1
60
0
100
AcDbLine
10
26.5
20
-28.504445
30
0
11
5.5
21
-28.504445
31
0
39
0
210
0
220
0
230
1
0
SOLID
5
161
100
AcDbEntity
8
0
62
256
6
ByLayer
370
-1
48
1
60
0
100
AcDbTrace
10
26.5
20
-29.087778
30
0
11
26.5
21
-27.921112
31
0
12
30
22
-28.504445
32
0
13
30
23
-28.504445
33
0
39
0
210
0
220
0
230
1
0
SOLID
5
162
100
AcDbEntity
8
0
62
256
6
ByLayer
370
-1
48
1
60
0
100
AcDbTrace
10
5.5
20
-27.921112
30
0
11
5.5
21
-29.087778
31
0
12
2
22
-28.504445
32
0
13
2
23
-28.504445
33
0
39
0
210
0
220
0
230
1
0
MTEXT
5
163
100
AcDbEntity
8
0
62
256
6
ByLayer
370
18
48
1
60
0
100
AcDbMText
10
16
20
-22.504445
30
0
210
0
220
0
230
1
1
\A1;28
40
3
41
0
44
1
50
0
71
5
72
5
7
iso_b_vert
0
POINT
5
164
100
AcDbEntity
8
Defpoints
62
0
6
ByLayer
370
-1
48
1
60
0
100
AcDbPoint
10
30
20
-1.55
30
0
39
0
210
0
220
0
230
1
50
360
0
POINT
5
165
100
AcDbEntity
8
Defpoints
62
0
6
ByLayer
370
-1
48
1
60
0
100
AcDbPoint
10
2
20
-1.55
30
0
39
0
210
0
220
0
230
1
50
360
0
POINT
5
166
100
AcDbEntity
8
Defpoints
62
0
6
ByLayer
370
-1
48
1
60
0
100
AcDbPoint
10
2
20
-28.504445
30
0
39
0
210
0
220
0
230
1
50
360
0
ENDBLK
5
15D
100
AcDbEntity
8
0
100
AcDbBlockEnd
0
BLOCK
5
16E
100
AcDbEntity
8
0
100
AcDbBlockBegin
2
_U1
70
0
10
0
20
0
30
0
3
_U1
0
MTEXT
5
168
100
AcDbEntity
8
SK2
62
256
6
ByLayer
370
18
48
1
60
0
100
AcDbMText
10
14.367172
20
-27.61933
30
0
210
0
220
0
230
1
1
\W0.6740;28
40
3
41
0
44
1.084337
50
0
71
7
72
5
7
iso_b_vert
0
LINE
5
169
100
AcDbEntity
8
SK2
62
256
6
ByLayer
370
13
48
1
60
0
100
AcDbLine
10
30
20
-3.1375
30
0
11
30
21
-30.504445
31
0
39
0
210
0
220
0
230
1
0
LINE
5
16A
100
AcDbEntity
8
SK2
62
256
6
ByLayer
370
13
48
1
60
0
100
AcDbLine
10
2
20
-3.1375
30
0
11
2
21
-30.504445
31
0
39
0
210
0
220
0
230
1
0
LINE
5
16B
100
AcDbEntity
8
SK2
62
256
6
ByLayer
370
13
48
1
60
0
100
AcDbLine
10
30
20
-28.504445
30
0
11
2
21
-28.504445
31
0
39
0
210
0
220
0
230
1
0
SOLID
5
16C
100
AcDbEntity
8
SK2
62
256
6
ByLayer
370
18
48
1
60
0
100
AcDbTrace
10
30
20
-28.504445
30
0
11
26.500002
21
-28.965229
31
0
12
26.499998
22
-28.043661
32
0
13
26.499998
23
-28.043661
33
0
39
0
210
0
220
0
230
1
0
SOLID
5
16D
100
AcDbEntity
8
SK2
62
256
6
ByLayer
370
18
48
1
60
0
100
AcDbTrace
10
2
20
-28.504445
30
0
11
5.499998
21
-28.043661
31
0
12
5.500002
22
-28.965229
32
0
13
5.500002
23
-28.965229
33
0
39
0
210
0
220
0
230
1
0
ENDBLK
5
16F
100
AcDbEntity
8
0
100
AcDbBlockEnd
0
BLOCK
5
174
100
AcDbEntity
8
0
100
AcDbBlockBegin
2
*D5
70
1
10
0
20
0
30
0
3
*D5
0
LINE
5
176
100
AcDbEntity
8
0
62
256
6
ByLayer
370
-2
48
1
60
0
100
AcDbLine
10
-36
20
-4.5875
30
0
11
-36
21
-38.504445
31
0
39
0
210
0
220
0
230
1
0
LINE
5
177
100
AcDbEntity
8
0
62
256
6
ByLayer
370
-2
48
1
60
0
100
AcDbLine
10
0
20
-4.5875
30
0
11
0
21
-38.504445
31
0
39
0
210
0
220
0
230
1
0
LINE
5
178
100
AcDbEntity
8
0
62
256
6
ByLayer
370
-2
48
1
60
0
100
AcDbLine
10
-32.5
20
-36.504445
30
0
11
-3.5
21
-36.504445
31
0
39
0
210
0
220
0
230
1
0
SOLID
5
179
100
AcDbEntity
8
0
62
256
6
ByLayer
370
-1
48
1
60
0
100
AcDbTrace
10
-32.5
20
-35.921112
30
0
11
-32.5
21
-37.087778
31
0
12
-36
22
-36.504445
32
0
13
-36
23
-36.504445
33
0
39
0
210
0
220
0
230
1
0
SOLID
5
17A
100
AcDbEntity
8
0
62
256
6
ByLayer
370
-1
48
1
60
0
100
AcDbTrace
10
-3.5
20
-37.087778
30
0
11
-3.5
21
-35.921112
31
0
12
0
22
-36.504445
32
0
13
0
23
-36.504445
33
0
39
0
210
0
220
0
230
1
0
MTEXT
5
17B
100
AcDbEntity
8
0
62
256
6
ByLayer
370
18
48
1
60
0
100
AcDbMText
10
-18
20
-30.504445
30
0
210
0
220
0
230
1
1
\A1;36
40
3
41
0
44
1
50
0
71
5
72
5
7
iso_b_vert
0
POINT
5
17C
100
AcDbEntity
8
Defpoints
62
0
6
ByLayer
370
-1
48
1
60
0
100
AcDbPoint
10
-36
20
-3
30
0
39
0
210
0
220
0
230
1
50
360
0
POINT
5
17D
100
AcDbEntity
8
Defpoints
62
0
6
ByLayer
370
-1
48
1
60
0
100
AcDbPoint
10
0
20
-3
30
0
39
0
210
0
220
0
230
1
50
360
0
POINT
5
17E
100
AcDbEntity
8
Defpoints
62
0
6
ByLayer
370
-1
48
1
60
0
100
AcDbPoint
10
0
20
-36.504445
30
0
39
0
210
0
220
0
230
1
50
360
0
ENDBLK
5
175
100
AcDbEntity
8
0
100
AcDbBlockEnd
0
BLOCK
5
186
100
AcDbEntity
8
0
100
AcDbBlockBegin
2
_U2
70
0
10
0
20
0
30
0
3
_U2
0
MTEXT
5
180
100
AcDbEntity
8
SK2
62
256
6
ByLayer
370
18
48
1
60
0
100
AcDbMText
10
-19.632828
20
-35.61933
30
0
210
0
220
0
230
1
1
\W0.6740;36
40
3
41
0
44
1.084337
50
0
71
7
72
5
7
iso_b_vert
0
LINE
5
181
100
AcDbEntity
8
SK2
62
256
6
ByLayer
370
13
48
1
60
0
100
AcDbLine
10
-36
20
-4.5875
30
0
11
-36
21
-38.504445
31
0
39
0
210
0
220
0
230
1
0
LINE
5
182
100
AcDbEntity
8
SK2
62
256
6
ByLayer
370
13
48
1
60
0
100
AcDbLine
10
0
20
-4.5875
30
0
11
0
21
-38.504445
31
0
39
0
210
0
220
0
230
1
0
LINE
5
183
100
AcDbEntity
8
SK2
62
256
6
ByLayer
370
13
48
1
60
0
100
AcDbLine
10
-36
20
-36.504445
30
0
11
0
21
-36.504445
31
0
39
0
210
0
220
0
230
1
0
SOLID
5
184
100
AcDbEntity
8
SK2
62
256
6
ByLayer
370
18
48
1
60
0
100
AcDbTrace
10
-36
20
-36.504445
30
0
11
-32.500002
21
-36.043661
31
0
12
-32.499998
22
-36.965229
32
0
13
-32.499998
23
-36.965229
33
0
39
0
210
0
220
0
230
1
0
SOLID
5
185
100
AcDbEntity
8
SK2
62
256
6
ByLayer
370
18
48
1
60
0
100
AcDbTrace
10
0
20
-36.504445
30
0
11
-3.499998
21
-36.965229
31
0
12
-3.500002
22
-36.043661
32
0
13
-3.500002
23
-36.043661
33
0
39
0
210
0
220
0
230
1
0
ENDBLK
5
187
100
AcDbEntity
8
0
100
AcDbBlockEnd
0
BLOCK
5
18C
100
AcDbEntity
8
0
100
AcDbBlockBegin
2
*D7
70
1
10
0
20
0
30
0
3
*D7
0
LINE
5
18E
100
AcDbEntity
8
0
62
256
6
ByLayer
370
-2
48
1
60
0
100
AcDbLine
10
-36
20
-4.5875
30
0
11
-36
21
-46.504445
31
0
39
0
210
0
220
0
230
1
0
LINE
5
18F
100
AcDbEntity
8
0
62
256
6
ByLayer
370
-2
48
1
60
0
100
AcDbLine
10
30
20
-3.1375
30
0
11
30
21
-46.504445
31
0
39
0
210
0
220
0
230
1
0
LINE
5
190
100
AcDbEntity
8
0
62
256
6
ByLayer
370
-2
48
1
60
0
100
AcDbLine
10
-32.5
20
-44.504445
30
0
11
26.5
21
-44.504445
31
0
39
0
210
0
220
0
230
1
0
SOLID
5
191
100
AcDbEntity
8
0
62
256
6
ByLayer
370
-1
48
1
60
0
100
AcDbTrace
10
-32.5
20
-43.921112
30
0
11
-32.5
21
-45.087778
31
0
12
-36
22
-44.504445
32
0
13
-36
23
-44.504445
33
0
39
0
210
0
220
0
230
1
0
SOLID
5
192
100
AcDbEntity
8
0
62
256
6
ByLayer
370
-1
48
1
60
0
100
AcDbTrace
10
26.5
20
-45.087778
30
0
11
26.5
21
-43.921112
31
0
12
30
22
-44.504445
32
0
13
30
23
-44.504445
33
0
39
0
210
0
220
0
230
1
0
MTEXT
5
193
100
AcDbEntity
8
0
62
256
6
ByLayer
370
18
48
1
60
0
100
AcDbMText
10
-3
20
-38.504445
30
0
210
0
220
0
230
1
1
\A1;66
40
3
41
0
44
1
50
0
71
5
72
5
7
iso_b_vert
0
POINT
5
194
100
AcDbEntity
8
Defpoints
62
0
6
ByLayer
370
-1
48
1
60
0
100
AcDbPoint
10
-36
20
-3
30
0
39
0
210
0
220
0
230
1
50
360
0
POINT
5
195
100
AcDbEntity
8
Defpoints
62
0
6
ByLayer
370
-1
48
1
60
0
100
AcDbPoint
10
30
20
-1.55
30
0
39
0
210
0
220
0
230
1
50
360
0
POINT
5
196
100
AcDbEntity
8
Defpoints
62
0
6
ByLayer
370
-1
48
1
60
0
100
AcDbPoint
10
30
20
-44.504445
30
0
39
0
210
0
220
0
230
1
50
360
0
ENDBLK
5
18D
100
AcDbEntity
8
0
100
AcDbBlockEnd
0
BLOCK
5
19E
100
AcDbEntity
8
0
100
AcDbBlockBegin
2
_U3
70
0
10
0
20
0
30
0
3
_U3
0
MTEXT
5
198
100
AcDbEntity
8
SK2
62
256
6
ByLayer
370
18
48
1
60
0
100
AcDbMText
10
-4.632828
20
-43.61933
30
0
210
0
220
0
230
1
1
\W0.6740;66
40
3
41
0
44
1.084337
50
0
71
7
72
5
7
iso_b_vert
0
LINE
5
199
100
AcDbEntity
8
SK2
62
256
6
ByLayer
370
13
48
1
60
0
100
AcDbLine
10
-36
20
-4.5875
30
0
11
-36
21
-46.504445
31
0
39
0
210
0
220
0
230
1
0
LINE
5
19A
100
AcDbEntity
8
SK2
62
256
6
ByLayer
370
13
48
1
60
0
100
AcDbLine
10
30
20
-3.1375
30
0
11
30
21
-46.504445
31
0
39
0
210
0
220
0
230
1
0
LINE
5
19B
100
AcDbEntity
8
SK2
62
256
6
ByLayer
370
13
48
1
60
0
100
AcDbLine
10
-36
20
-44.504445
30
0
11
30
21
-44.504445
31
0
39
0
210
0
220
0
230
1
0
SOLID
5
19C
100
AcDbEntity
8
SK2
62
256
6
ByLayer
370
18
48
1
60
0
100
AcDbTrace
10
-36
20
-44.504445
30
0
11
-32.500002
21
-44.043661
31
0
12
-32.499998
22
-44.965229
32
0
13
-32.499998
23
-44.965229
33
0
39
0
210
0
220
0
230
1
0
SOLID
5
19D
100
AcDbEntity
8
SK2
62
256
6
ByLayer
370
18
48
1
60
0
100
AcDbTrace
10
30
20
-44.504445
30
0
11
26.500002
21
-44.965229
31
0
12
26.499998
22
-44.043661
32
0
13
26.499998
23
-44.043661
33
0
39
0
210
0
220
0
230
1
0
ENDBLK
5
19F
100
AcDbEntity
8
0
100
AcDbBlockEnd
0
BLOCK
5
1A4
100
AcDbEntity
8
0
100
AcDbBlockBegin
2
*D9
70
1
10
0
20
0
30
0
3
*D9
0
LINE
5
1A6
100
AcDbEntity
8
0
62
256
6
ByLayer
370
-2
48
1
60
0
100
AcDbLine
10
30
20
-3.1375
30
0
11
30
21
-38.504445
31
0
39
0
210
0
220
0
230
1
0
LINE
5
1A7
100
AcDbEntity
8
0
62
256
6
ByLayer
370
-2
48
1
60
0
100
AcDbLine
10
0
20
-3.1375
30
0
11
0
21
-38.504445
31
0
39
0
210
0
220
0
230
1
0
LINE
5
1A8
100
AcDbEntity
8
0
62
256
6
ByLayer
370
-2
48
1
60
0
100
AcDbLine
10
26.5
20
-36.504445
30
0
11
3.5
21
-36.504445
31
0
39
0
210
0
220
0
230
1
0
SOLID
5
1A9
100
AcDbEntity
8
0
62
256
6
ByLayer
370
-1
48
1
60
0
100
AcDbTrace
10
26.5
20
-37.087778
30
0
11
26.5
21
-35.921112
31
0
12
30
22
-36.504445
32
0
13
30
23
-36.504445
33
0
39
0
210
0
220
0
230
1
0
SOLID
5
1AA
100
AcDbEntity
8
0
62
256
6
ByLayer
370
-1
48
1
60
0
100
AcDbTrace
10
3.5
20
-35.921112
30
0
11
3.5
21
-37.087778
31
0
12
0
22
-36.504445
32
0
13
0
23
-36.504445
33
0
39
0
210
0
220
0
230
1
0
MTEXT
5
1AB
100
AcDbEntity
8
0
62
256
6
ByLayer
370
18
48
1
60
0
100
AcDbMText
10
15
20
-30.504445
30
0
210
0
220
0
230
1
1
\A1;30
40
3
41
0
44
1
50
0
71
5
72
5
7
iso_b_vert
0
POINT
5
1AC
100
AcDbEntity
8
Defpoints
62
0
6
ByLayer
370
-1
48
1
60
0
100
AcDbPoint
10
30
20
-1.55
30
0
39
0
210
0
220
0
230
1
50
360
0
POINT
5
1AD
100
AcDbEntity
8
Defpoints
62
0
6
ByLayer
370
-1
48
1
60
0
100
AcDbPoint
10
0
20
-1.55
30
0
39
0
210
0
220
0
230
1
50
360
0
POINT
5
1AE
100
AcDbEntity
8
Defpoints
62
0
6
ByLayer
370
-1
48
1
60
0
100
AcDbPoint
10
0
20
-36.504445
30
0
39
0
210
0
220
0
230
1
50
360
0
ENDBLK
5
1A5
100
AcDbEntity
8
0
100
AcDbBlockEnd
0
BLOCK
5
1B6
100
AcDbEntity
8
0
100
AcDbBlockBegin
2
_U4
70
0
10
0
20
0
30
0
3
_U4
0
MTEXT
5
1B0
100
AcDbEntity
8
2
62
256
6
ByLayer
370
18
48
1
60
0
100
AcDbMText
10
13.367172
20
-35.61933
30
0
210
0
220
0
230
1
1
\W0.6740;30
40
3
41
0
44
1.084337
50
0
71
7
72
5
7
iso_b_vert
0
LINE
5
1B1
100
AcDbEntity
8
2
62
256
6
ByLayer
370
13
48
1
60
0
100
AcDbLine
10
30
20
-3.1375
30
0
11
30
21
-38.504445
31
0
39
0
210
0
220
0
230
1
0
LINE
5
1B2
100
AcDbEntity
8
2
62
256
6
ByLayer
370
13
48
1
60
0
100
AcDbLine
10
0
20
-3.1375
30
0
11
0
21
-38.504445
31
0
39
0
210
0
220
0
230
1
0
LINE
5
1B3
100
AcDbEntity
8
2
62
256
6
ByLayer
370
13
48
1
60
0
100
AcDbLine
10
30
20
-36.504445
30
0
11
0
21
-36.504445
31
0
39
0
210
0
220
0
230
1
0
SOLID
5
1B4
100
AcDbEntity
8
2
62
256
6
ByLayer
370
18
48
1
60
0
100
AcDbTrace
10
30
20
-36.504445
30
0
11
26.500002
21
-36.965229
31
0
12
26.499998
22
-36.043661
32
0
13
26.499998
23
-36.043661
33
0
39
0
210
0
220
0
230
1
0
SOLID
5
1B5
100
AcDbEntity
8
2
62
256
6
ByLayer
370
18
48
1
60
0
100
AcDbTrace
10
0
20
-36.504445
30
0
11
3.499998
21
-36.043661
31
0
12
3.500002
22
-36.965229
32
0
13
3.500002
23
-36.965229
33
0
39
0
210
0
220
0
230
1
0
ENDBLK
5
1B7
100
AcDbEntity
8
0
100
AcDbBlockEnd
0
ENDSEC
0
SECTION
2
ENTITIES
0
ARC
5
C1
100
AcDbEntity
8
1
62
256
6
ByLayer
370
18
48
1
60
0
100
AcDbCircle
39
0
10
1.596879
20
-2.299886
30
0
40
0.800000000000003
210
0
220
0
230
1
100
AcDbArc
50
89.896868
51
176.42078
0
ARC
5
C2
100
AcDbEntity
8
1
62
256
6
ByLayer
370
18
48
1
60
0
100
AcDbCircle
39
0
10
1.596879
20
2.299886
30
0
40
0.800000000000003
210
0
220
0
230
1
100
AcDbArc
50
183.57922
51
270.103132
0
ARC
5
C3
100
AcDbEntity
8
1
62
256
6
ByLayer
370
18
48
1
60
0
100
AcDbCircle
39
0
10
0
20
-2.2
30
0
40
0.799999999999996
210
0
220
0
230
1
100
AcDbArc
50
270
51
356.42078
0
ARC
5
C4
100
AcDbEntity
8
1
62
256
6
ByLayer
370
18
48
1
60
0
100
AcDbCircle
39
0
10
0
20
2.2
30
0
40
0.799999999999996
210
0
220
0
230
1
100
AcDbArc
50
3.57922
51
90
0
ARC
5
C5
100
AcDbEntity
8
SK2
62
256
6
ByLayer
370
13
48
1
60
0
100
AcDbCircle
39
0
10
30
20
0
30
0
40
16.35
210
0
220
0
230
1
100
AcDbArc
50
10.57289
51
70.005022
0
ARC
5
C6
100
AcDbEntity
8
SK2
62
256
6
ByLayer
370
13
48
1
60
0
100
AcDbCircle
39
0
10
30
20
0
30
0
40
16.35
210
0
220
0
230
1
100
AcDbArc
50
289.994978
51
349.42711
0
ELLIPSE
5
C7
100
AcDbEntity
8
1
62
256
6
ByLayer
370
18
48
1
60
0
100
AcDbEllipse
10
14.599885
20
-1.546577
30
0
11
-0.1
21
1.22460635382238E-17
31
0
210
0
220
0
230
1
40
1
41
-1.2896187164301
42
-0.418088711746006
0
ELLIPSE
5
C8
100
AcDbEntity
8
1
62
256
6
ByLayer
370
18
48
1
60
0
100
AcDbEllipse
10
14.599885
20
1.546577
30
0
11
-0.1
21
1.22460635382238E-17
31
0
210
0
220
0
230
1
40
1
41
0.413843355308064
42
1.57809178849807
0
POINT
5
70
100
AcDbEntity
8
81
62
256
6
ByLayer
370
18
48
1
60
0
100
AcDbPoint
10
30
20
0
30
0
39
0
210
0
220
0
230
1
50
360
0
POINT
5
72
100
AcDbEntity
8
80
62
256
6
ByLayer
370
18
48
1
60
0
100
AcDbPoint
10
0
20
0
30
0
39
0
210
0
220
0
230
1
50
360
0
POINT
5
74
100
AcDbEntity
8
1
62
256
6
ByLayer
370
18
48
1
60
0
100
AcDbPoint
10
-223
20
-200
30
0
39
0
210
0
220
0
230
1
50
360
0
POINT
5
76
100
AcDbEntity
8
1
62
256
6
ByLayer
370
13
48
1
60
1
100
AcDbPoint
10
-37.5
20
0
30
0
39
0
210
0
220
0
230
1
50
360
0
POINT
5
77
100
AcDbEntity
8
1
62
256
6
ByLayer
370
13
48
1
60
1
100
AcDbPoint
10
30.93012
20
0
30
0
39
0
210
0
220
0
230
1
50
360
0
POINT
5
78
100
AcDbEntity
8
1
62
256
6
ByLayer
370
18
48
1
60
1
100
AcDbPoint
10
30
20
-1.55
30
0
39
0
210
0
220
0
230
1
50
360
0
POINT
5
79
100
AcDbEntity
8
1
62
256
6
ByLayer
370
18
48
1
60
1
100
AcDbPoint
10
14
20
-1.55
30
0
39
0
210
0
220
0
230
1
50
360
0
POINT
5
7A
100
AcDbEntity
8
1
62
256
6
ByLayer
370
18
48
1
60
1
100
AcDbPoint
10
30
20
-1.55
30
0
39
0
210
0
220
0
230
1
50
360
0
POINT
5
7B
100
AcDbEntity
8
1
62
256
6
ByLayer
370
18
48
1
60
1
100
AcDbPoint
10
2
20
-1.55
30
0
39
0
210
0
220
0
230
1
50
360
0
POINT
5
7C
100
AcDbEntity
8
1
62
256
6
ByLayer
370
18
48
1
60
1
100
AcDbPoint
10
-36
20
-3
30
0
39
0
210
0
220
0
230
1
50
360
0
POINT
5
7D
100
AcDbEntity
8
1
62
256
6
ByLayer
370
18
48
1
60
1
100
AcDbPoint
10
0
20
-3
30
0
39
0
210
0
220
0
230
1
50
360
0
POINT
5
7E
100
AcDbEntity
8
1
62
256
6
ByLayer
370
18
48
1
60
1
100
AcDbPoint
10
-36
20
-3
30
0
39
0
210
0
220
0
230
1
50
360
0
POINT
5
7F
100
AcDbEntity
8
1
62
256
6
ByLayer
370
18
48
1
60
1
100
AcDbPoint
10
30
20
-1.55
30
0
39
0
210
0
220
0
230
1
50
360
0
POINT
5
80
100
AcDbEntity
8
1
62
256
6
ByLayer
370
18
48
1
60
1
100
AcDbPoint
10
30
20
-1.55
30
0
39
0
210
0
220
0
230
1
50
360
0
POINT
5
81
100
AcDbEntity
8
1
62
256
6
ByLayer
370
18
48
1
60
1
100
AcDbPoint
10
0
20
-1.55
30
0
39
0
210
0
220
0
230
1
50
360
0
SPLINE
5
C9
100
AcDbEntity
8
1
62
256
6
ByLayer
370
18
48
1
60
0
100
AcDbSpline
70
4
71
3
72
8
73
4
40
0
40
0
40
0
40
0
40
1
40
1
40
1
40
1
41
1
10
29.8200733904507
20
0.574940197353953
30
0
41
1
10
29.8732183129551
20
0.42721530358051
30
0
41
1
10
29.9257977474999
20
0.279291226660945
30
0
41
1
10
29.9777968860306
20
0.131162750719568
30
0
0
SPLINE
5
CA
100
AcDbEntity
8
1
62
256
6
ByLayer
370
18
48
1
60
0
100
AcDbSpline
70
4
71
3
72
8
73
4
40
0
40
0
40
0
40
0
40
1
40
1
40
1
40
1
41
1
10
29.9777968860306
20
0.131162750719568
30
0
41
1
10
29.9848494877145
20
0.111072203676258
30
0
41
1
10
29.9920124651039
20
0.0910506178630328
30
0
41
1
10
29.9992841515428
20
0.0710951251106451
30
0
0
SPLINE
5
CB
100
AcDbEntity
8
1
62
256
6
ByLayer
370
18
48
1
60
0
100
AcDbSpline
70
4
71
3
72
28
73
24
40
0
40
0
40
0
40
0
40
0.0741277435725399
40
0.0741277435725399
40
0.189861775625973
40
0.189861775625973
40
0.247728791652689
40
0.247728791652689
40
0.305595807679405
40
0.305595807679405
40
0.421329839732838
40
0.421329839732838
40
0.479196855759554
40
0.479196855759554
40
0.53706387178627
40
0.53706387178627
40
0.652797903839703
40
0.652797903839703
40
0.768531935893135
40
0.768531935893135
40
0.884265967946568
40
0.884265967946568
40
1
40
1
40
1
40
1
41
1
10
29.2036365242138
20
0.2893175552571
30
0
41
1
10
29.2063715029098
20
0.294863278880143
30
0
41
1
10
29.209557453184
20
0.300647837406984
30
0
41
1
10
29.2188904978612
20
0.316039324166951
30
0
41
1
10
29.2256939678957
20
0.325969908172226
30
0
41
1
10
29.2378742922079
20
0.341546480216238
30
0
41
1
10
29.2422739007164
20
0.346866353188403
30
0
41
1
10
29.2515576700766
20
0.357551292385494
30
0
41
1
10
29.2564591755982
20
0.362940011972228
30
0
41
1
10
29.2719106745379
20
0.379256706878721
30
0
41
1
10
29.283195281314
20
0.390342963644031
30
0
41
1
10
29.3017983203799
20
0.407097911649657
30
0
41
1
10
29.3083081525644
20
0.412725820660569
30
0
41
1
10
29.3218171915121
20
0.423873411374501
30
0
41
1
10
29.3287744853058
20
0.429360290867038
30
0
41
1
10
29.3502816042656
20
0.445492251441436
30
0
41
1
10
29.3654576284666
20
0.45582001704156
30
0
41
1
10
29.3977714842637
20
0.475108849793543
30
0
41
1
10
29.4150889085145
20
0.484115967886311
30
0
41
1
10
29.4504920092785
20
0.499501665145886
30
0
41
1
10
29.4687015166656
20
0.5059756653649
30
0
41
1
10
29.50616009942
20
0.516343095496495
30
0
41
1
10
29.5254535421091
20
0.520241485670937
30
0
41
1
10
29.5447963957644
20
0.522874123951226
30
0
0
SPLINE
5
CC
100
AcDbEntity
8
1
62
256
6
ByLayer
370
18
48
1
60
0
100
AcDbSpline
70
4
71
3
72
12
73
8
40
0
40
0
40
0
40
0
40
0.500000000000072
40
0.500000000000072
40
0.750000000000036
40
0.750000000000036
40
1
40
1
40
1
40
1
41
1
10
29.5447963957643
20
0.522874123951283
30
0
41
1
10
29.591107701181
20
0.529177274335552
30
0
41
1
10
29.6373154156205
20
0.536500581517913
30
0
41
1
10
29.7061705558556
20
0.549470428561563
30
0
41
1
10
29.7290489791543
20
0.554123735754871
30
0
41
1
10
29.7746673041814
20
0.56405411176371
30
0
41
1
10
29.7974167706041
20
0.56928811083074
30
0
41
1
10
29.8200733904507
20
0.574940197353897
30
0
0
SPLINE
5
CD
100
AcDbEntity
8
1
62
256
6
ByLayer
370
18
48
1
60
0
100
AcDbSpline
70
4
71
3
72
22
73
18
40
0
40
0
40
0
40
0
40
0.25
40
0.25
40
0.375
40
0.375
40
0.4375
40
0.4375
40
0.5
40
0.5
40
0.750000000000001
40
0.750000000000001
40
0.87500000000001
40
0.87500000000001
40
0.937500000000005
40
0.937500000000005
40
1
40
1
40
1
40
1
41
1
10
29.5083627164812
20
1.37929533305336
30
0
41
1
10
29.5321101648359
20
1.31093485944248
30
0
41
1
10
29.5560696508258
20
1.24225326234199
30
0
41
1
10
29.5923013050755
20
1.13918132784187
30
0
41
1
10
29.6044273283763
20
1.10480962943598
30
0
41
1
10
29.6226848051814
20
1.05323852428876
30
0
41
1
10
29.6287774240972
20
1.03604552050985
30
0
41
1
10
29.6411434202461
20
1.00166113693572
30
0
41
1
10
29.6474086418975
20
0.984455480117845
30
0
41
1
10
29.6789810230144
20
0.898959323804462
30
0
41
1
10
29.7051787685161
20
0.831912739654996
30
0
41
1
10
29.7465828162749
20
0.733672200658077
30
0
41
1
10
29.7607331553074
20
0.701311083164001
30
0
41
1
10
29.7825595568617
20
0.653378920334518
30
0
41
1
10
29.7899353471402
20
0.637503371606812
30
0
41
1
10
29.8048981054438
20
0.605958703138327
30
0
41
1
10
29.8124650399083
20
0.590332259577309
30
0
41
1
10
29.8200733904507
20
0.574940197353982
30
0
0
SPLINE
5
CE
100
AcDbEntity
8
1
62
256
6
ByLayer
370
18
48
1
60
0
100
AcDbSpline
70
4
71
3
72
8
73
4
40
0
40
0
40
0
40
0
40
1
40
1
40
1
40
1
41
1
10
29.4699284791653
20
1.44587992473643
30
0
41
1
10
29.4827348095498
20
1.42368678218631
30
0
41
1
10
29.4955462326474
20
1.40149171739426
30
0
41
1
10
29.5083627164819
20
1.37929533305336
30
0
0
SPLINE
5
CF
100
AcDbEntity
8
1
62
256
6
ByLayer
370
18
48
1
60
0
100
AcDbSpline
70
4
71
3
72
8
73
4
40
0
40
0
40
0
40
0
40
1
40
1
40
1
40
1
41
1
10
14.499885391689
20
0.66874110812347
30
0
41
1
10
14.499885391689
20
0.664979744176719
30
0
41
1
10
14.499885391689
20
0.660686825200941
30
0
41
1
10
14.499885391689
20
0.655873227399837
30
0
0
SPLINE
5
D0
100
AcDbEntity
8
1
62
256
6
ByLayer
370
18
48
1
60
0
100
AcDbSpline
70
4
71
3
72
16
73
12
40
0
40
0
40
0
40
0
40
0.499999999999925
40
0.499999999999925
40
0.749999999999961
40
0.87500000000005
40
0.87500000000005
40
0.937500000000097
40
0.968750000000048
40
0.968750000000048
40
1
40
1
40
1
40
1
41
1
10
29.4069808571196
20
1.54994012385765
30
0
41
1
10
29.4174640566099
20
1.53277844011254
30
0
41
1
10
29.4279538768666
20
1.5155200333175
30
0
41
1
10
29.4437027117865
20
1.48948057192558
30
0
41
1
10
29.4515808494601
20
1.47642247529467
30
0
41
1
10
29.4594657243327
20
1.46330495368542
30
0
41
1
10
29.4634093801055
20
1.4567361525836
30
0
41
1
10
29.4653817989432
20
1.45344865660127
30
0
41
1
10
29.46735248256
20
1.45016190762937
30
0
41
1
10
29.4686654853043
20
1.44797171675299
30
0
41
1
10
29.4693524257825
20
1.44681817237776
30
0
41
1
10
29.469928479166
20
1.44587992473652
30
0
0
SPLINE
5
D1
100
AcDbEntity
8
1
62
256
6
ByLayer
370
18
48
1
60
0
100
AcDbSpline
70
4
71
3
72
28
73
24
40
0
40
0
40
0
40
0
40
0.103327128868263
40
0.103327128868263
40
0.206654257736525
40
0.206654257736525
40
0.309981386604788
40
0.309981386604788
40
0.413308515473051
40
0.413308515473051
40
0.516635644341313
40
0.516635644341313
40
0.568299208775452
40
0.568299208775452
40
0.619962773209591
40
0.619962773209591
40
0.723289902077883
40
0.723289902077883
40
0.826617030946174
40
0.826617030946174
40
0.929944159814466
40
0.929944159814466
40
1
40
1
40
1
40
1
41
1
10
29.4699284791661
20
1.44587992473612
30
0
41
1
10
29.3923976910916
20
1.44751761531188
30
0
41
1
10
29.3148602274158
20
1.44751567695371
30
0
41
1
10
29.1597208792084
20
1.44444980633818
30
0
41
1
10
29.0821740521416
20
1.44146506013087
30
0
41
1
10
28.9269856480445
20
1.43235472050898
30
0
41
1
10
28.849312584381
20
1.42619636801507
30
0
41
1
10
28.693698494493
20
1.4106961130899
30
0
41
1
10
28.6157884267344
20
1.40141530511877
30
0
41
1
10
28.4595695900444
20
1.37963775038983
30
0
41
1
10
28.3812526646323
20
1.36711829816659
30
0
41
1
10
28.2633811891167
20
1.3459287298875
30
0
41
1
10
28.2240481759216
20
1.33846927534188
30
0
41
1
10
28.1455674649003
20
1.32283758808742
30
0
41
1
10
28.1063806452324
20
1.31466172532876
30
0
41
1
10
27.9890023566596
20
1.28910757575491
30
0
41
1
10
27.9109997007777
20
1.2706872641599
30
0
41
1
10
27.7552758706829
20
1.23105875973695
30
0
41
1
10
27.6775511567694
20
1.20983529709898
30
0
41
1
10
27.5223140633201
20
1.16486253100285
30
0
41
1
10
27.4447950296187
20
1.14109557166958
30
0
41
1
10
27.3147520519049
20
1.09907764093913
30
0
41
1
10
27.2622170727633
20
1.08151679379122
30
0
41
1
10
27.209674145122
20
1.06341968310895
30
0
0
SPLINE
5
D2
100
AcDbEntity
8
1
62
256
6
ByLayer
370
18
48
1
60
0
100
AcDbSpline
70
4
71
3
72
24
73
20
40
0
40
0
40
0
40
0
40
0.0018851779974055
40
0.0018851779974055
40
0.112786824886583
40
0.112786824886583
40
0.223688471775761
40
0.223688471775761
40
0.334590118664937
40
0.334590118664937
40
0.556393412443291
40
0.556393412443291
40
0.667295059332469
40
0.667295059332469
40
0.778196706221646
40
0.778196706221646
40
0.889098353110823
40
0.889098353110823
40
1
40
1
40
1
40
1
41
1
10
16.6149384519745
20
-0.383671208731187
30
0
41
1
10
16.6136173549883
20
-0.383026873058157
30
0
41
1
10
16.6122962804728
20
-0.382382419408486
30
0
41
1
10
16.5332600913721
20
-0.343818876197588
30
0
41
1
10
16.4556101839291
20
-0.305505981483833
30
0
41
1
10
16.3002883870366
20
-0.228364310526928
30
0
41
1
10
16.2226177550764
20
-0.189536145093228
30
0
41
1
10
16.0671643657149
20
-0.111585669580165
30
0
41
1
10
15.9894186794028
20
-0.0724051735118678
30
0
41
1
10
15.7560657051382
20
0.045630212279832
30
0
41
1
10
15.6001383659277
20
0.124634365542789
30
0
41
1
10
15.365101623645
20
0.242384527054725
30
0
41
1
10
15.2864885349266
20
0.281495379753068
30
0
41
1
10
15.1289193701966
20
0.359005580710772
30
0
41
1
10
15.0501979685324
20
0.397259952116201
30
0
41
1
10
14.8928693915592
20
0.472888338331757
30
0
41
1
10
14.814306651782
20
0.510375080860115
30
0
41
1
10
14.6571505917638
20
0.58411622190377
30
0
41
1
10
14.5785432825427
20
0.620328170575249
30
0
41
1
10
14.4998853916874
20
0.655873227404498
30
0
0
SPLINE
5
D3
100
AcDbEntity
8
1
62
256
6
ByLayer
370
18
48
1
60
0
100
AcDbSpline
70
2053
71
3
72
92
73
88
40
0
40
0
40
0
40
0
40
0.0312499999999963
40
0.0312499999999963
40
0.0624999999999925
40
0.0624999999999925
40
0.0937499999999888
40
0.0937499999999888
40
0.124999999999985
40
0.124999999999985
40
0.156249999999981
40
0.156249999999981
40
0.187499999999978
40
0.187499999999978
40
0.203124999999977
40
0.203124999999977
40
0.218749999999977
40
0.234374999999977
40
0.234374999999977
40
0.249999999999977
40
0.249999999999977
40
0.281249999999977
40
0.281249999999977
40
0.296874999999977
40
0.296874999999977
40
0.312499999999976
40
0.312499999999976
40
0.343749999999974
40
0.343749999999974
40
0.359374999999971
40
0.359374999999971
40
0.374999999999968
40
0.390624999999964
40
0.390624999999964
40
0.406249999999961
40
0.406249999999961
40
0.437499999999946
40
0.437499999999946
40
0.468749999999932
40
0.468749999999932
40
0.484374999999929
40
0.484374999999929
40
0.499999999999926
40
0.499999999999926
40
0.531249999999931
40
0.531249999999931
40
0.546874999999928
40
0.546874999999928
40
0.562499999999926
40
0.562499999999926
40
0.59374999999992
40
0.59374999999992
40
0.609374999999918
40
0.609374999999918
40
0.624999999999915
40
0.624999999999915
40
0.656249999999917
40
0.656249999999917
40
0.68749999999992
40
0.68749999999992
40
0.718749999999922
40
0.718749999999922
40
0.734374999999924
40
0.734374999999924
40
0.749999999999927
40
0.749999999999927
40
0.781249999999932
40
0.781249999999932
40
0.812499999999937
40
0.812499999999937
40
0.82812499999994
40
0.82812499999994
40
0.843749999999942
40
0.859374999999945
40
0.859374999999945
40
0.874999999999947
40
0.874999999999947
40
0.90624999999996
40
0.90624999999996
40
0.921874999999967
40
0.921874999999967
40
0.937499999999974
40
0.95312499999998
40
0.95312499999998
40
0.968749999999987
40
0.968749999999987
40
1
40
1
40
1
40
1
41
1
10
29.6212202755935
20
-0.717597353445842
30
0
41
1
10
29.6149119507215
20
-0.726800719135298
30
0
41
1
10
29.6088537618916
20
-0.734716405143104
30
0
41
1
10
29.5971843930153
20
-0.748135345058728
30
0
41
1
10
29.5915735198646
20
-0.75363772527021
30
0
41
1
10
29.5807785431821
20
-0.762131157268158
30
0
41
1
10
29.5757329002144
20
-0.765009938627287
30
0
41
1
10
29.5663171468041
20
-0.76807529123721
30
0
41
1
10
29.5619402105755
20
-0.768268146905172
30
0
41
1
10
29.5538395616326
20
-0.765774477281781
30
0
41
1
10
29.5502183601367
20
-0.763110610436257
30
0
41
1
10
29.5438382798723
20
-0.754989195243667
30
0
41
1
10
29.5410680940163
20
-0.749530902340695
30
0
41
1
10
29.5375709937664
20
-0.739029568129808
30
0
41
1
10
29.5365281701724
20
-0.735171763405646
30
0
41
1
10
29.5347077042957
20
-0.726830061487902
30
0
41
1
10
29.5331440957569
20
-0.717837116199178
30
0
41
1
10
29.5320955879772
20
-0.707522526684812
30
0
41
1
10
29.5313150226532
20
-0.696516575395378
30
0
41
1
10
29.5310582685009
20
-0.690645704979346
30
0
41
1
10
29.5307249579082
20
-0.672059718504414
30
0
41
1
10
29.5310812876963
20
-0.658699418510622
30
0
41
1
10
29.532512346121
20
-0.63719015857302
30
0
41
1
10
29.5331401332625
20
-0.629773763701792
30
0
41
1
10
29.5347206386191
20
-0.614420088430933
30
0
41
1
10
29.5356745429504
20
-0.606495659297138
30
0
41
1
10
29.5389631183076
20
-0.582604599555907
30
0
41
1
10
29.5417394696395
20
-0.566306334379476
30
0
41
1
10
29.5468581883549
20
-0.541298593643006
30
0
41
1
10
29.5487276715479
20
-0.53286808924446
30
0
41
1
10
29.5526951469942
20
-0.516281538921305
30
0
41
1
10
29.5569139632462
20
-0.499851784201866
30
0
41
1
10
29.5616405352787
20
-0.483732036345799
30
0
41
1
10
29.5666309978976
20
-0.467770288062724
30
0
41
1
10
29.5692442393146
20
-0.45991881729546
30
0
41
1
10
29.5772983255552
20
-0.437135725322463
30
0
41
1
10
29.5830032608694
20
-0.422802486224668
30
0
41
1
10
29.5950911637498
20
-0.395770310213692
30
0
41
1
10
29.6013185425159
20
-0.383426123528579
30
0
41
1
10
29.6108486024291
20
-0.36662100500385
30
0
41
1
10
29.614060854317
20
-0.361298029443134
30
0
41
1
10
29.620555338271
20
-0.351199493076024
30
0
41
1
10
29.6238248870089
20
-0.346446417544797
30
0
41
1
10
29.6335685060276
20
-0.333213021451314
30
0
41
1
10
29.6400290982695
20
-0.325670014839289
30
0
41
1
10
29.6496543740517
20
-0.316160218547083
30
0
41
1
10
29.6528641473438
20
-0.313283644348417
30
0
41
1
10
29.659190795897
20
-0.308192605031223
30
0
41
1
10
29.6623022075447
20
-0.305979659985411
30
0
41
1
10
29.6714794255175
20
-0.300300575156427
30
0
41
1
10
29.6773898358761
20
-0.297786151135256
30
0
41
1
10
29.6859097782676
20
-0.295923919637744
30
0
41
1
10
29.6887031935902
20
-0.295624181065193
30
0
41
1
10
29.694101403061
20
-0.295688469879224
30
0
41
1
10
29.696701972059
20
-0.296049038004753
30
0
41
1
10
29.7042019967382
20
-0.298104576396781
30
0
41
1
10
29.7088027747161
20
-0.300763951415092
30
0
41
1
10
29.7171077257421
20
-0.308815380952467
30
0
41
1
10
29.7208322289158
20
-0.314282635436172
30
0
41
1
10
29.7269540349142
20
-0.327838350719332
30
0
41
1
10
29.7293911651079
20
-0.335931207496031
30
0
41
1
10
29.7319809511777
20
-0.350271366540284
30
0
41
1
10
29.7326650946917
20
-0.355447381672207
30
0
41
1
10
29.733619398226
20
-0.366325211958326
30
0
41
1
10
29.7338958724513
20
-0.372050662166288
30
0
41
1
10
29.7341126135019
20
-0.390102783307697
30
0
41
1
10
29.7334418745825
20
-0.403343355345783
30
0
41
1
10
29.7303007353473
20
-0.432260735501046
30
0
41
1
10
29.727897379458
20
-0.447360746953962
30
0
41
1
10
29.7231000921835
20
-0.470967963597332
30
0
41
1
10
29.7212941505954
20
-0.479025068968639
30
0
41
1
10
29.7173023264609
20
-0.495359512051209
30
0
41
1
10
29.7129914268739
20
-0.511676524395483
30
0
41
1
10
29.7080920435162
20
-0.527965687256824
30
0
41
1
10
29.7029128509029
20
-0.544243893756061
30
0
41
1
10
29.7001656677936
20
-0.552426005305733
30
0
41
1
10
29.6916705759759
20
-0.576519247674554
30
0
41
1
10
29.6856772690685
20
-0.591995269372319
30
0
41
1
10
29.6762759024815
20
-0.614416593032388
30
0
41
1
10
29.6730599196911
20
-0.621783029756699
30
0
41
1
10
29.6666199857071
20
-0.635980646294882
30
0
41
1
10
29.6601478470741
20
-0.649705583088917
30
0
41
1
10
29.6536230243659
20
-0.662536020425563
30
0
41
1
10
29.6470754378966
20
-0.674929981843121
30
0
41
1
10
29.6437778060562
20
-0.680929719501677
30
0
41
1
10
29.6339740651538
20
-0.698063169525426
30
0
41
1
10
29.6275286004654
20
-0.708393987756381
30
0
41
1
10
29.6212202755935
20
-0.717597353445842
30
0
0
SPLINE
5
D4
100
AcDbEntity
8
1
62
256
6
ByLayer
370
18
48
1
60
0
100
AcDbSpline
70
4
71
3
72
13
73
9
40
0
40
0
40
0
40
0
40
0.24999999999999
40
0.24999999999999
40
0.374999999999984
40
0.374999999999984
40
0.499999999999978
40
1
40
1
40
1
40
1
41
1
10
29.5083627164814
20
-1.37929533305603
30
0
41
1
10
29.5017406007226
20
-1.38962907585378
30
0
41
1
10
29.4953455936037
20
-1.39927892416509
30
0
41
1
10
29.4861054289266
20
-1.41262956031679
30
0
41
1
10
29.4830759899949
20
-1.4169032086748
30
0
41
1
10
29.4771800352291
20
-1.42499715641509
30
0
41
1
10
29.4628630962387
20
-1.4440788242411
30
0
41
1
10
29.4506039450597
20
-1.45742334503461
30
0
41
1
10
29.4419707375903
20
-1.46438201104345
30
0
0
SPLINE
5
D5
100
AcDbEntity
8
1
62
256
6
ByLayer
370
18
48
1
60
0
100
AcDbSpline
70
4
71
3
72
8
73
4
40
0
40
0
40
0
40
0
40
1
40
1
40
1
40
1
41
1
10
29.8200733904507
20
-0.574940197353953
30
0
41
1
10
29.8732183129551
20
-0.42721530358051
30
0
41
1
10
29.9257977474999
20
-0.279291226660973
30
0
41
1
10
29.9777968860306
20
-0.131162750719596
30
0
0
SPLINE
5
D6
100
AcDbEntity
8
1
62
256
6
ByLayer
370
18
48
1
60
0
100
AcDbSpline
70
4
71
3
72
8
73
4
40
0
40
0
40
0
40
0
40
1
40
1
40
1
40
1
41
1
10
29.9777968860306
20
-0.131162750719596
30
0
41
1
10
29.9848494877144
20
-0.111072203676457
30
0
41
1
10
29.9920124651038
20
-0.0910506178634307
30
0
41
1
10
29.9992841515426
20
-0.0710951251112704
30
0
0
SPLINE
5
D7
100
AcDbEntity
8
1
62
256
6
ByLayer
370
18
48
1
60
0
100
AcDbSpline
70
4
71
3
72
8
73
4
40
0
40
0
40
0
40
0
40
1
40
1
40
1
40
1
41
1
10
29.9992841515427
20
0.0710951251107019
30
0
41
1
10
30.0002381999312
20
0.0237190436901358
30
0
41
1
10
30.0002390327355
20
-0.0236776883417349
30
0
41
1
10
29.9992841515427
20
-0.0710951251109009
30
0
0
SPLINE
5
D8
100
AcDbEntity
8
1
62
256
6
ByLayer
370
18
48
1
60
0
100
AcDbSpline
70
4
71
3
72
37
73
33
40
0
40
0
40
0
40
0
40
0.125000000000011
40
0.125000000000011
40
0.250000000000022
40
0.250000000000022
40
0.281250000000025
40
0.281250000000025
40
0.312500000000028
40
0.312500000000028
40
0.375000000000033
40
0.437500000000039
40
0.437500000000039
40
0.500000000000044
40
0.500000000000044
40
0.56250000000005
40
0.56250000000005
40
0.593750000000053
40
0.593750000000053
40
0.625000000000055
40
0.625000000000055
40
0.687500000000045
40
0.687500000000045
40
0.750000000000035
40
0.750000000000035
40
0.812500000000025
40
0.812500000000025
40
0.843750000000025
40
0.843750000000025
40
0.875000000000024
40
0.875000000000024
40
1
40
1
40
1
40
1
41
1
10
29.9992841515427
20
0.0710951251106735
30
0
41
1
10
29.9876829941971
20
0.0363390760293498
30
0
41
1
10
29.9746835214135
20
0.0022459609001828
30
0
41
1
10
29.9458498596704
20
-0.0645572642585535
30
0
41
1
10
29.930694880449
20
-0.0957047920898333
30
0
41
1
10
29.9109340543801
20
-0.131744307405825
30
0
41
1
10
29.9069400016004
20
-0.138804960032672
30
0
41
1
10
29.8988663407376
20
-0.152618589432421
30
0
41
1
10
29.8947992722466
20
-0.159347807120895
30
0
41
1
10
29.8826907852817
20
-0.178704778728019
30
0
41
1
10
29.8666566545223
20
-0.20254310171174
30
0
41
1
10
29.8508457142832
20
-0.222440520372288
30
0
41
1
10
29.8351396839665
20
-0.240239517659916
30
0
41
1
10
29.8275479190447
20
-0.247851213373821
30
0
41
1
10
29.8128707329711
20
-0.260566172153005
30
0
41
1
10
29.8057797909533
20
-0.265675431150527
30
0
41
1
10
29.7954912385129
20
-0.271431682272293
30
0
41
1
10
29.792112140141
20
-0.273031957095725
30
0
41
1
10
29.7855748065655
20
-0.275542210898266
30
0
41
1
10
29.7824031435204
20
-0.276461184361494
30
0
41
1
10
29.7731607842368
20
-0.278240403948416
30
0
41
1
10
29.7673616422508
20
-0.278127037243877
30
0
41
1
10
29.7564208176659
20
-0.275355107617742
30
0
41
1
10
29.7512722632428
20
-0.272666335245844
30
0
41
1
10
29.7418532896871
20
-0.264972062059201
30
0
41
1
10
29.7375407060339
20
-0.259964053974215
30
0
41
1
10
29.7316019812326
20
-0.250799455105295
30
0
41
1
10
29.7297111344552
20
-0.247468268853566
30
0
41
1
10
29.7260999742558
20
-0.240258328001062
30
0
41
1
10
29.7243792642888
20
-0.23637517550867
30
0
41
1
10
29.7162803906206
20
-0.215850125210778
30
0
41
1
10
29.7112996218497
20
-0.195767393939491
30
0
41
1
10
29.7075756966069
20
-0.172361393574676
30
0
0
SPLINE
5
D9
100
AcDbEntity
8
1
62
256
6
ByLayer
370
18
48
1
60
0
100
AcDbSpline
70
4
71
3
72
8
73
4
40
0
40
0
40
0
40
0
40
1
40
1
40
1
40
1
41
1
10
29.7075756966083
20
-0.172361393571634
30
0
41
1
10
29.6919296681388
20
-0.0740213560575285
30
0
41
1
10
29.672420424135
20
0.0262089167035242
30
0
41
1
10
29.6490549014728
20
0.128326030562988
30
0
0
SPLINE
5
DA
100
AcDbEntity
8
1
62
256
6
ByLayer
370
18
48
1
60
0
100
AcDbSpline
70
4
71
3
72
28
73
24
40
0
40
0
40
0
40
0
40
0.0312500000000113
40
0.0312500000000113
40
0.0625000000000227
40
0.0625000000000227
40
0.125000000000023
40
0.125000000000023
40
0.249999999999999
40
0.249999999999999
40
0.3125
40
0.3125
40
0.375
40
0.375
40
0.5
40
0.5
40
0.625
40
0.625
40
0.75
40
0.75
40
0.875
40
0.875
40
1
40
1
40
1
40
1
41
1
10
29.6490549014728
20
0.128326030562988
30
0
41
1
10
29.6468553575662
20
0.129222164605721
30
0
41
1
10
29.644704766855
20
0.130337156832979
30
0
41
1
10
29.640341808515
20
0.132322689340612
30
0
41
1
10
29.638121119477
20
0.133154902586028
30
0
41
1
10
29.6313891458735
20
0.135366655200414
30
0
41
1
10
29.6267847348395
20
0.136418783756568
30
0
41
1
10
29.6127104293801
20
0.138001775134171
30
0
41
1
10
29.6030216433335
20
0.136865788217364
30
0
41
1
10
29.5882785271223
20
0.133229162706158
30
0
41
1
10
29.5833219640321
20
0.131641071692343
30
0
41
1
10
29.573394811017
20
0.128222406623195
30
0
41
1
10
29.5684314452001
20
0.126455505392329
30
0
41
1
10
29.553483279053
20
0.120450494473772
30
0
41
1
10
29.5434159989365
20
0.115439571537763
30
0
41
1
10
29.5232753837477
20
0.103715476478442
30
0
41
1
10
29.5132511945258
20
0.0969952863213166
30
0
41
1
10
29.4933342860682
20
0.0817584751388836
30
0
41
1
10
29.4834419661165
20
0.073234209674979
30
0
41
1
10
29.463823444023
20
0.0546283494985289
30
0
41
1
10
29.4540973588164
20
0.0445299159109709
30
0
41
1
10
29.4348373933265
20
0.0229952871431749
30
0
41
1
10
29.4253011373283
20
0.0116821941800538
30
0
41
1
10
29.4158711505402
20
-0.0002527003788373
30
0
0
SPLINE
5
DB
100
AcDbEntity
8
1
62
256
6
ByLayer
370
18
48
1
60
0
100
AcDbSpline
70
4
71
3
72
22
73
18
40
0
40
0
40
0
40
0
40
0.249999999999977
40
0.249999999999977
40
0.374999999999965
40
0.374999999999965
40
0.437499999999967
40
0.437499999999967
40
0.499999999999969
40
0.499999999999969
40
0.749999999999975
40
0.749999999999975
40
0.874999999999988
40
0.874999999999988
40
0.937499999999994
40
0.937499999999994
40
1
40
1
40
1
40
1
41
1
10
29.5083627164811
20
-1.37929533305353
30
0
41
1
10
29.5321101648358
20
-1.31093485944262
30
0
41
1
10
29.5560696508257
20
-1.2422532623421
30
0
41
1
10
29.5923013050755
20
-1.13918132784198
30
0
41
1
10
29.6044273283763
20
-1.10480962943609
30
0
41
1
10
29.6226848051814
20
-1.05323852428884
30
0
41
1
10
29.6287774240972
20
-1.03604552050993
30
0
41
1
10
29.641143420246
20
-1.00166113693578
30
0
41
1
10
29.6474086418975
20
-0.98445548011793
30
0
41
1
10
29.6789810230144
20
-0.898959323804576
30
0
41
1
10
29.7051787685161
20
-0.831912739655081
30
0
41
1
10
29.7465828162748
20
-0.733672200658134
30
0
41
1
10
29.7607331553073
20
-0.701311083164029
30
0
41
1
10
29.7825595568617
20
-0.653378920334518
30
0
41
1
10
29.7899353471402
20
-0.637503371606812
30
0
41
1
10
29.8048981054437
20
-0.605958703138299
30
0
41
1
10
29.8124650399083
20
-0.590332259577281
30
0
41
1
10
29.8200733904507
20
-0.574940197353953
30
0
0
SPLINE
5
DC
100
AcDbEntity
8
1
62
256
6
ByLayer
370
18
48
1
60
0
100
AcDbSpline
70
4
71
3
72
8
73
4
40
0
40
0
40
0
40
0
40
1
40
1
40
1
40
1
41
1
10
29.4699284796035
20
-1.44587992397706
30
0
41
1
10
29.482734809842
20
-1.42368678168006
30
0
41
1
10
29.4955462327935
20
-1.4014917171412
30
0
41
1
10
29.5083627164818
20
-1.37929533305351
30
0
0
SPLINE
5
DD
100
AcDbEntity
8
1
62
256
6
ByLayer
370
18
48
1
60
0
100
AcDbSpline
70
4
71
3
72
16
73
12
40
0
40
0
40
0
40
0
40
0.499999999999927
40
0.499999999999927
40
0.749999999999961
40
0.875000000000051
40
0.875000000000051
40
0.937500000000023
40
0.968750000000012
40
0.968750000000012
40
1
40
1
40
1
40
1
41
1
10
29.4069808571255
20
-1.54994012384805
30
0
41
1
10
29.4174640566783
20
-1.53277844000067
30
0
41
1
10
29.4279538769975
20
-1.51552003310218
30
0
41
1
10
29.4437027120114
20
-1.48948057155323
30
0
41
1
10
29.4515808497321
20
-1.47642247484333
30
0
41
1
10
29.4594657246518
20
-1.46330495315431
30
0
41
1
10
29.4634093804482
20
-1.45673615201253
30
0
41
1
10
29.4653817992977
20
-1.45344865601015
30
0
41
1
10
29.467352482926
20
-1.45016190701909
30
0
41
1
10
29.4686654856777
20
-1.44797171612998
30
0
41
1
10
29.4693524261888
20
-1.44681817169734
30
0
41
1
10
29.4699284795006
20
-1.44587992419142
30
0
0
SPLINE
5
DE
100
AcDbEntity
8
1
62
256
6
ByLayer
370
18
48
1
60
0
100
AcDbSpline
70
4
71
3
72
76
73
72
40
0
40
0
40
0
40
0
40
0.0094585749293014
40
0.0094585749293014
40
0.0413057089838857
40
0.0413057089838857
40
0.0731528430384702
40
0.0731528430384702
40
0.104999977093055
40
0.104999977093055
40
0.136847111147639
40
0.136847111147639
40
0.168694245202224
40
0.168694245202224
40
0.200541379256808
40
0.200541379256808
40
0.2164649462841
40
0.2164649462841
40
0.232388513311392
40
0.232388513311392
40
0.264235647365977
40
0.264235647365977
40
0.296082781420561
40
0.296082781420561
40
0.327929915475146
40
0.327929915475146
40
0.35977704952973
40
0.35977704952973
40
0.391624183584315
40
0.391624183584315
40
0.423471317638899
40
0.423471317638899
40
0.455318451693484
40
0.455318451693484
40
0.487165585748068
40
0.487165585748068
40
0.519012719802653
40
0.519012719802653
40
0.550859853857237
40
0.550859853857237
40
0.582706987911822
40
0.582706987911822
40
0.614554121966406
40
0.614554121966406
40
0.646401256020991
40
0.646401256020991
40
0.678248390075575
40
0.678248390075575
40
0.71009552413016
40
0.71009552413016
40
0.741942658184744
40
0.741942658184744
40
0.773789792239328
40
0.773789792239328
40
0.805636926293913
40
0.805636926293913
40
0.821560493321205
40
0.821560493321205
40
0.837484060348497
40
0.837484060348497
40
0.869331194403084
40
0.869331194403084
40
0.901178328457671
40
0.901178328457671
40
0.933025462512257
40
0.933025462512257
40
0.964872596566844
40
0.964872596566844
40
0.996719730621431
40
0.996719730621431
40
1
40
1
40
1
40
1
41
1
10
25.5668199679037
20
-0.360334434932326
30
0
41
1
10
25.5437135657305
20
-0.349014885254405
30
0
41
1
10
25.5206179776924
20
-0.337665789492803
30
0
41
1
10
25.419799606684
20
-0.287988936563266
30
0
41
1
10
25.3421916473014
20
-0.24935475413676
30
0
41
1
10
25.18707007657
20
-0.171718944035518
30
0
41
1
10
25.1095519295953
20
-0.132724648976648
30
0
41
1
10
24.954479250689
20
-0.0546323482233504
30
0
41
1
10
24.8769101370064
20
-0.0155634760726002
30
0
41
1
10
24.7217480651567
20
0.0626827720803931
30
0
41
1
10
24.6441911247727
20
0.101931666310748
30
0
41
1
10
24.4888719246184
20
0.180189046831799
30
0
41
1
10
24.4110980086757
20
0.21917570950049
30
0
41
1
10
24.2552946336411
20
0.296800303898067
30
0
41
1
10
24.1772590138108
20
0.335426083151191
30
0
41
1
10
24.0598511875877
20
0.39278229261248
30
0
41
1
10
24.0206561728124
20
0.411803920230568
30
0
41
1
10
23.942135319347
20
0.449626183917218
30
0
41
1
10
23.9027723329238
20
0.468444162193805
30
0
41
1
10
23.784906609232
20
0.524330685330455
30
0
41
1
10
23.7065282903026
20
0.560866878359377
30
0
41
1
10
23.5502034199696
20
0.632868443155814
30
0
41
1
10
23.4722378222157
20
0.668226256301523
30
0
41
1
10
23.3165196853344
20
0.737137639761897
30
0
41
1
10
23.2387816946429
20
0.770754266267517
30
0
41
1
10
23.0834709155879
20
0.836226740747804
30
0
41
1
10
23.0058850997507
20
0.868026097601273
30
0
41
1
10
22.850705168635
20
0.929416575083309
30
0
41
1
10
22.7731117759401
20
0.95901855000929
30
0
41
1
10
22.6178370088463
20
1.0160447482674
30
0
41
1
10
22.5401995783747
20
1.04360312086237
30
0
41
1
10
22.3848464808836
20
1.09665131042729
30
0
41
1
10
22.307092512375
20
1.12203557919634
30
0
41
1
10
22.1512930189769
20
1.17024338594655
30
0
41
1
10
22.073283248002
20
1.19317640880402
30
0
41
1
10
21.9168639064506
20
1.23632344616595
30
0
41
1
10
21.8384424932017
20
1.25649594647467
30
0
41
1
10
21.6810468969882
20
1.29388872067895
30
0
41
1
10
21.6024985548489
20
1.31098821383972
30
0
41
1
10
21.4458599159467
20
1.34242297104697
30
0
41
1
10
21.3677720141488
20
1.35683510117698
30
0
41
1
10
21.21186724693
20
1.38250812111312
30
0
41
1
10
21.1340409110873
20
1.39373477662181
30
0
41
1
10
20.9785884304437
20
1.41315511771967
30
0
41
1
10
20.9009585250259
20
1.42134203085766
30
0
41
1
10
20.7457286952809
20
1.43436641728775
30
0
41
1
10
20.6681278719406
20
1.43919555688933
30
0
41
1
10
20.5128497938626
20
1.44560775261181
30
0
41
1
10
20.4351615098733
20
1.44719625937495
30
0
41
1
10
20.2797943240312
20
1.44756085876011
30
0
41
1
10
20.2020857740372
20
1.44624984408603
30
0
41
1
10
20.0463841702308
20
1.44029678167792
30
0
41
1
10
19.9684077148585
20
1.43569031119665
30
0
41
1
10
19.812147211487
20
1.4233078275366
30
0
41
1
10
19.7338420357413
20
1.41547920616347
30
0
41
1
10
19.6159837607079
20
1.40115654930872
30
0
41
1
10
19.5765906947082
20
1.39595196688049
30
0
41
1
10
19.4979130232611
20
1.38475352651386
30
0
41
1
10
19.4586286879088
20
1.3787600897937
30
0
41
1
10
19.3409187058105
20
1.35967092000655
30
0
41
1
10
19.2626589436084
20
1.34553316769782
30
0
41
1
10
19.1065081366017
20
1.31446524488416
30
0
41
1
10
19.0285885757561
20
1.29748980220833
30
0
41
1
10
18.8729354634024
20
1.2607039180443
30
0
41
1
10
18.7952247094211
20
1.2409488943467
30
0
41
1
10
18.6398921274228
20
1.1987090701752
30
0
41
1
10
18.5622634183881
20
1.17620239557652
30
0
41
1
10
18.4069522110877
20
1.12858520797713
30
0
41
1
10
18.3292579199944
20
1.10348537167934
30
0
41
1
10
18.2435250613432
20
1.07454763970529
30
0
41
1
10
18.235519304164
20
1.0718331848316
30
0
41
1
10
18.227513568074
20
1.06910655300214
30
0
0
SPLINE
5
DF
100
AcDbEntity
8
1
62
256
6
ByLayer
370
18
48
1
60
0
100
AcDbSpline
70
4
71
3
72
53
73
49
40
0
40
0
40
0
40
0
40
0.033956280005501
40
0.033956280005501
40
0.0555553832193918
40
0.0555553832193918
40
0.0663549348263371
40
0.0663549348263371
40
0.0717547106298099
40
0.0717547106298099
40
0.0731046545806781
40
0.0731046545806781
40
0.0744545985315464
40
0.0744545985315464
40
0.0771544864332827
40
0.0771544864332827
40
0.0879540380402283
40
0.0879540380402283
40
0.0987535896471739
40
0.0987535896471739
40
0.120352692861065
40
0.120352692861065
40
0.163550899288847
40
0.163550899288847
40
0.249947312144412
40
0.249947312144412
40
0.422740137855541
40
0.422740137855541
40
0.509136550711106
40
0.509136550711106
40
0.530735653924997
40
0.530735653924997
40
0.53613542972847
40
0.53613542972847
40
0.537485373679338
40
0.537485373679338
40
0.538160345654772
40
0.538160345654772
40
0.538835317630206
40
0.538835317630206
40
0.541535205531942
40
0.541535205531942
40
0.552334757138887
40
0.595532963566668
40
0.595532963566668
40
0.941118614988911
40
0.941118614988911
40
1
40
1
40
1
40
1
41
1
10
3.8698650124945
20
1.2872646049176
30
0
41
1
10
3.86342599991494
20
1.23976586310133
30
0
41
1
10
3.85261107777822
20
1.19040359754044
30
0
41
1
10
3.82715470240572
20
1.10627483972161
30
0
41
1
10
3.81589091512097
20
1.0726834836951
30
0
41
1
10
3.79478891359253
20
1.02226802159058
30
0
41
1
10
3.78715292645711
20
1.00542375402287
30
0
41
1
10
3.77491758748408
20
0.980066410991242
30
0
41
1
10
3.77070897974249
20
0.971599135527526
30
0
41
1
10
3.76529781517149
20
0.96099370482122
30
0
41
1
10
3.763565031632
20
0.959116691622967
30
0
41
1
10
3.76302345189825
20
0.954209999769063
30
0
41
1
10
3.76554617056905
20
0.951669540391634
30
0
41
1
10
3.77153193175508
20
0.945171440145828
30
0
41
1
10
3.77606605463467
20
0.941224812227063
30
0
41
1
10
3.79864819263992
20
0.921706851079193
30
0
41
1
10
3.81763605068929
20
0.907036209425087
30
0
41
1
10
3.85552999353411
20
0.877704975467879
30
0
41
1
10
3.87461452900894
20
0.86320444959307
30
0
41
1
10
3.93203548570185
20
0.819902060216577
30
0
41
1
10
3.97054760428708
20
0.791308856867687
30
0
41
1
10
4.08631211986355
20
0.705844031948374
30
0
41
1
10
4.16383961184837
20
0.649318611695179
30
0
41
1
10
4.39648729770607
20
0.47979104692692
30
0
41
1
10
4.55166364134146
20
0.366806370938178
30
0
41
1
10
5.01674323141879
20
0.0272535605198243
30
0
41
1
10
5.32634231088369
20
-0.199781273891375
30
0
41
1
10
5.79132937788921
20
-0.539507664560347
30
0
41
1
10
5.94685368255347
20
-0.652006458817567
30
0
41
1
10
6.13856161983063
20
-0.796146568019395
30
0
41
1
10
6.1769238871388
20
-0.824994516032433
30
0
41
1
10
6.22348710230412
20
-0.862663831288614
30
0
41
1
10
6.2327967583758
20
-0.870204197265963
30
0
41
1
10
6.24372097496857
20
-0.880383088180992
30
0
41
1
10
6.2458878353911
20
-0.882432809063431
30
0
41
1
10
6.24872571232126
20
-0.885827842116612
30
0
41
1
10
6.24995293607029
20
-0.8871160445577
30
0
41
1
10
6.24966002141059
20
-0.88968210155457
30
0
41
1
10
6.24760877029706
20
-0.889438962242593
30
0
41
1
10
6.2404949032568
20
-0.88877471328621
30
0
41
1
10
6.23478684499975
20
-0.888036736378837
30
0
41
1
10
6.20628996121084
20
-0.884834574468499
30
0
41
1
10
6.09233036417277
20
-0.87192532510997
30
0
41
1
10
5.97851250781525
20
-0.858512414713658
30
0
41
1
10
5.15985032036278
20
-0.759021127298041
30
0
41
1
10
4.43822453729013
20
-0.649814180023924
30
0
41
1
10
3.60079916240312
20
-0.496887654601181
30
0
41
1
10
3.47908642896434
20
-0.474008506790341
30
0
41
1
10
3.35756631550794
20
-0.450516108228413
30
0
0
SPLINE
5
E0
100
AcDbEntity
8
1
62
256
6
ByLayer
370
13
48
1
60
0
100
AcDbSpline
70
4
71
3
72
32
73
28
40
0
40
0
40
0
40
0
40
0.0164573908597464
40
0.0164573908597464
40
0.156963477879782
40
0.156963477879782
40
0.2272165213898
40
0.2272165213898
40
0.297469564899818
40
0.297469564899818
40
0.367722608409836
40
0.367722608409836
40
0.437975651919854
40
0.437975651919854
40
0.57848173893989
40
0.57848173893989
40
0.648734782449908
40
0.683861304204917
40
0.683861304204917
40
0.718987825959926
40
0.718987825959926
40
0.859493912979963
40
0.859493912979963
40
0.929746956489982
40
0.964873478244991
40
0.964873478244991
40
1
40
1
40
1
40
1
41
1
10
14.6008179295258
20
1.42862812514235
30
0
41
1
10
14.6008160881466
20
1.4300858033175
30
0
41
1
10
14.6008142198447
20
1.43145475957863
30
0
41
1
10
14.6007961767951
20
1.44364384182947
30
0
41
1
10
14.6007782808647
20
1.4480476742811
30
0
41
1
10
14.6007490050722
20
1.44521304124342
30
0
41
1
10
14.6007388356344
20
1.44268670726336
30
0
41
1
10
14.6007176403719
20
1.43442929036141
30
0
41
1
10
14.6007065969455
20
1.42868680858876
30
0
41
1
10
14.6006836496434
20
1.41393880572309
30
0
41
1
10
14.6006718199914
20
1.40498532177003
30
0
41
1
10
14.6006473740809
20
1.38393255513114
30
0
41
1
10
14.6006347237988
20
1.37179229184176
30
0
41
1
10
14.6005958995573
20
1.33111082801551
30
0
41
1
10
14.6005687569325
20
1.29826660184236
30
0
41
1
10
14.6005254360295
20
1.24060986226007
30
0
41
1
10
14.6005031185961
20
1.20967341386634
30
0
41
1
10
14.6004796263945
20
1.17551579381421
30
0
41
1
10
14.6004636782508
20
1.15201468433148
30
0
41
1
10
14.6004555644752
20
1.13990401235745
30
0
41
1
10
14.600414603088
20
1.07808943734355
30
0
41
1
10
14.6003802941441
20
1.02420129320043
30
0
41
1
10
14.6003256002852
20
0.936901713745783
30
0
41
1
10
14.6002974431785
20
0.891626899901297
30
0
41
1
10
14.6002678666701
20
0.84387602579136
30
0
41
1
10
14.6002478079283
20
0.811482285037528
30
0
41
1
10
14.6002375960245
20
0.794986178746228
30
0
41
1
10
14.6002272445984
20
0.778276266329812
30
0
0
SPLINE
5
E1
100
AcDbEntity
8
1
62
256
6
ByLayer
370
18
48
1
60
0
100
AcDbSpline
70
4
71
3
72
47
73
43
40
0
40
0
40
0
40
0
40
0.0348263802373073
40
0.0348263802373073
40
0.129721057070547
40
0.129721057070547
40
0.224615733903787
40
0.224615733903787
40
0.272063072320406
40
0.272063072320406
40
0.295786741528716
40
0.295786741528716
40
0.319510410737026
40
0.319510410737026
40
0.366957749153642
40
0.366957749153642
40
0.414405087570259
40
0.414405087570259
40
0.461852425986875
40
0.485576095195181
40
0.485576095195181
40
0.509299764403488
40
0.509299764403488
40
0.60419444123671
40
0.60419444123671
40
0.651641779653322
40
0.651641779653322
40
0.699089118069933
40
0.699089118069933
40
0.746536456486544
40
0.746536456486544
40
0.793983794903155
40
0.793983794903155
40
0.888878471736375
40
0.888878471736375
40
0.912602140944681
40
0.912602140944681
40
0.936325810152988
40
0.936325810152988
40
0.983773148569598
40
0.983773148569598
40
1
40
1
40
1
40
1
41
1
10
15.8276003492846
20
0.202288428188837
30
0
41
1
10
15.8841532510886
20
0.173944156327138
30
0
41
1
10
15.9406671389875
20
0.145494783747949
30
0
41
1
10
16.1511082745717
20
0.0393048910322022
30
0
41
1
10
16.3049809442735
20
-0.038711328947187
30
0
41
1
10
16.6132806333426
20
-0.194013820915046
30
0
41
1
10
16.7676894075356
20
-0.271337407522509
30
0
41
1
10
17.0002392744242
20
-0.385721521981026
30
0
41
1
10
17.0779137651512
20
-0.423578927689732
30
0
41
1
10
17.194745850079
20
-0.479788349597271
30
0
41
1
10
17.2337661762527
20
-0.498439328240949
30
0
41
1
10
17.311713317793
20
-0.535418038566348
30
0
41
1
10
17.3506608769208
20
-0.553756290422655
30
0
41
1
10
17.467446721555
20
-0.608274238454925
30
0
41
1
10
17.5452280019858
20
-0.643951079398448
30
0
41
1
10
17.7007491830907
20
-0.713717692826236
30
0
41
1
10
17.7784882091161
20
-0.747820862682829
30
0
41
1
10
17.9340154614612
20
-0.814348953321002
30
0
41
1
10
18.0506976033629
20
-0.862980008133775
30
0
41
1
10
18.1675394176464
20
-0.909516564047408
30
0
41
1
10
18.2454811581555
20
-0.940052788810505
30
0
41
1
10
18.2845025042826
20
-0.955086621733415
30
0
41
1
10
18.4792776440818
20
-1.02880176606661
30
0
41
1
10
18.6342263535703
20
-1.08321635556735
30
0
41
1
10
18.8660677570943
20
-1.15736138897827
30
0
41
1
10
18.9432443179138
20
-1.18081106899612
30
0
41
1
10
19.0974805615574
20
-1.22501278557652
30
0
41
1
10
19.1745448488288
20
-1.24579072520129
30
0
41
1
10
19.3286819975718
20
-1.28466970084983
30
0
41
1
10
19.4057528285093
20
-1.30274457309707
30
0
41
1
10
19.5599963172618
20
-1.33596109796207
30
0
41
1
10
19.6371677512261
20
-1.35112326908381
30
0
41
1
10
19.8689598287316
20
-1.39224582983329
30
0
41
1
10
20.0238575712181
20
-1.41384468219039
30
0
41
1
10
20.2184494956624
20
-1.43312480222812
30
0
41
1
10
20.2574507724987
20
-1.43659363557074
30
0
41
1
10
20.3353086280059
20
-1.44270626305067
30
0
41
1
10
20.3741847444733
20
-1.44535043086856
30
0
41
1
10
20.4906774703899
20
-1.45205238520501
30
0
41
1
10
20.5681589598594
20
-1.45489071989445
30
0
41
1
10
20.6719687397165
20
-1.45658943320936
30
0
41
1
10
20.6984082337908
20
-1.45683798533395
30
0
41
1
10
20.7248342802503
20
-1.45690228781956
30
0
0
SPLINE
5
E2
100
AcDbEntity
8
1
62
256
6
ByLayer
370
18
48
1
60
0
100
AcDbSpline
70
4
71
3
72
41
73
37
40
0
40
0
40
0
40
0
40
0.0687595875315356
40
0.0687595875315356
40
0.116910590315343
40
0.116910590315343
40
0.140986091707247
40
0.140986091707247
40
0.165061593099151
40
0.165061593099151
40
0.261363598666777
40
0.261363598666777
40
0.357665604234403
40
0.357665604234403
40
0.405816607018215
40
0.405816607018215
40
0.453967609802026
40
0.453967609802026
40
0.550269615369648
40
0.550269615369648
40
0.574345116761553
40
0.574345116761553
40
0.598420618153458
40
0.646571620937271
40
0.646571620937271
40
0.7428736265049
40
0.7428736265049
40
0.766949127896807
40
0.766949127896807
40
0.791024629288713
40
0.791024629288713
40
0.839175632072526
40
0.839175632072526
40
0.935477637640149
40
0.935477637640149
40
1
40
1
40
1
40
1
41
1
10
20.9714972304214
20
-1.4610875709935
30
0
41
1
10
20.8614309112123
20
-1.46607011564245
30
0
41
1
10
20.7512466849399
20
-1.46782508728862
30
0
41
1
10
20.5634386912773
20
-1.4653107428197
30
0
41
1
10
20.4859608666659
20
-1.46269298013379
30
0
41
1
10
20.3694693961412
20
-1.4563048451397
30
0
41
1
10
20.3305928597883
20
-1.45376246781268
30
0
41
1
10
20.2527328444821
20
-1.44784720055327
30
0
41
1
10
20.2137297690325
20
-1.44447395754878
30
0
41
1
10
20.0191339191259
20
-1.42565415516535
30
0
41
1
10
19.864240917331
20
-1.4043672497275
30
0
41
1
10
19.5552039812037
20
-1.35006037665337
30
0
41
1
10
19.4010633982093
20
-1.31696764202877
30
0
41
1
10
19.1698804015859
20
-1.25888287107267
30
0
41
1
10
19.0928255650533
20
-1.23816696796993
30
0
41
1
10
18.9386040665883
20
-1.19406295794675
30
0
41
1
10
18.8614326113638
20
-1.17064934046482
30
0
41
1
10
18.6296044126119
20
-1.09656459714074
30
0
41
1
10
18.4746598766721
20
-1.04212728325018
30
0
41
1
10
18.2798771488181
20
-0.968311216260105
30
0
41
1
10
18.2408535925246
20
-0.953253570578909
30
0
41
1
10
18.1629087274295
20
-0.922662878637396
30
0
41
1
10
18.0460632458082
20
-0.876034027953438
30
0
41
1
10
17.9293802197031
20
-0.827278146728418
30
0
41
1
10
17.6960905775343
20
-0.72719079708105
30
0
41
1
10
17.540672063468
20
-0.657000389931682
30
0
41
1
10
17.3460243545153
20
-0.565752926459879
30
0
41
1
10
17.3070757731055
20
-0.547333995373549
30
0
41
1
10
17.2291257714845
20
-0.510187190849365
30
0
41
1
10
17.1901034637336
20
-0.49144860470625
30
0
41
1
10
17.0732680722121
20
-0.434968954247324
30
0
41
1
10
16.9955935854644
20
-0.396920736678652
30
0
41
1
10
16.7630479854867
20
-0.281933940708314
30
0
41
1
10
16.6086480451367
20
-0.204167314831864
30
0
41
1
10
16.3512404815853
20
-0.0736765740003591
30
0
41
1
10
16.2480966769191
20
-0.02113870795651
30
0
41
1
10
16.1449725030795
20
0.0313686049096873
30
0
0
SPLINE
5
E3
100
AcDbEntity
8
1
62
256
6
ByLayer
370
18
48
1
60
0
100
AcDbSpline
70
4
71
3
72
8
73
4
40
0
40
0
40
0
40
0
40
1
40
1
40
1
40
1
41
1
10
29.4160686237992
20
-0.207395805511254
30
0
41
1
10
29.4179626878492
20
-0.207606565436123
30
0
41
1
10
29.4190214788223
20
-0.212485948623396
30
0
41
1
10
29.4184521641395
20
-0.218267027155207
30
0
0
SPLINE
5
E4
100
AcDbEntity
8
1
62
256
6
ByLayer
370
18
48
1
60
0
100
AcDbSpline
70
4
71
3
72
49
73
45
40
0
40
0
40
0
40
0
40
0.0074140240538581
40
0.0074140240538581
40
0.0276708807058206
40
0.0276708807058206
40
0.108698307313665
40
0.108698307313665
40
0.149212020617589
40
0.149212020617589
40
0.189725733921513
40
0.189725733921513
40
0.230239447225437
40
0.230239447225437
40
0.27075316052936
40
0.27075316052936
40
0.351780587137208
40
0.351780587137208
40
0.372037443789169
40
0.372037443789169
40
0.39229430044113
40
0.432808013745056
40
0.432808013745056
40
0.473321727048981
40
0.473321727048981
40
0.513835440352906
40
0.513835440352906
40
0.554349153656831
40
0.554349153656831
40
0.594862866960756
40
0.594862866960756
40
0.675890293568604
40
0.675890293568604
40
0.716404006872528
40
0.716404006872528
40
0.756917720176452
40
0.756917720176452
40
0.837945146784302
40
0.837945146784302
40
0.878458860088226
40
0.878458860088226
40
0.91897257339215
40
0.91897257339215
40
1
40
1
40
1
40
1
41
1
10
20.3497529789331
20
-0.182103287572858
30
0
41
1
10
20.3356019660214
20
-0.174930018687888
30
0
41
1
10
20.321443628883
20
-0.167750368797925
30
0
41
1
10
20.2685716532233
20
-0.140937878287588
30
0
41
1
10
20.229777898278
20
-0.121255641798626
30
0
41
1
10
20.0360515415043
20
-0.0229999043724263
30
0
41
1
10
19.8815490073851
20
0.0551449010705483
30
0
41
1
10
19.6506914460249
20
0.17156207704582
30
0
41
1
10
19.5739153429985
20
0.210271325784049
30
0
41
1
10
19.4205131954019
20
0.287154749367375
30
0
41
1
10
19.3438542178131
20
0.325285717112308
30
0
41
1
10
19.1905427336325
20
0.400729881819729
30
0
41
1
10
19.113921065429
20
0.438074368569971
30
0
41
1
10
18.9605513244845
20
0.511734121733838
30
0
41
1
10
18.8837748519998
20
0.548020994292841
30
0
41
1
10
18.6530178789906
20
0.655012180855749
30
0
41
1
10
18.4986693403615
20
0.723947485172829
30
0
41
1
10
18.3048204161219
20
0.806275571034035
30
0
41
1
10
18.2659754973107
20
0.822560096836213
30
0
41
1
10
18.1883880589662
20
0.854634466053483
30
0
41
1
10
18.0721275021503
20
0.902016637839921
30
0
41
1
10
17.956154491022
20
0.947092354910637
30
0
41
1
10
17.8016498573851
20
1.00492690033428
30
0
41
1
10
17.7244724954332
20
1.03268689491225
30
0
41
1
10
17.5700241690196
20
1.08588844767036
30
0
41
1
10
17.4927272242842
20
1.11136091371219
30
0
41
1
10
17.3378834688671
20
1.15998658862699
30
0
41
1
10
17.2602996680443
20
1.18314947372662
30
0
41
1
10
17.1050842993263
20
1.22690790271454
30
0
41
1
10
17.0276685090614
20
1.24744019634309
30
0
41
1
10
16.795948312646
20
1.3047876416461
30
0
41
1
10
16.6421818210103
20
1.33738578241571
30
0
41
1
10
16.4122961023371
20
1.37669649787855
30
0
41
1
10
16.3358167007669
20
1.3881515444676
30
0
41
1
10
16.1828995957884
20
1.40801636498969
30
0
41
1
10
16.1064246365665
20
1.4165012851328
30
0
41
1
10
15.8767450261039
20
1.43770111201064
30
0
41
1
10
15.7233870915493
20
1.44596798748952
30
0
41
1
10
15.4925218524001
20
1.4493081172308
30
0
41
1
10
15.4154249057518
20
1.44892915048342
30
0
41
1
10
15.2608721977976
20
1.44503669099308
30
0
41
1
10
15.183367469003
20
1.44150750489376
30
0
41
1
10
14.9505383773336
20
1.4258148499039
30
0
41
1
10
14.7958080855341
20
1.40854699960806
30
0
41
1
10
14.6412408409388
20
1.38414880058812
30
0
0
SPLINE
5
E5
100
AcDbEntity
8
1
62
256
6
ByLayer
370
18
48
1
60
0
100
AcDbSpline
70
4
71
3
72
46
73
42
40
0
40
0
40
0
40
0
40
0.0937031452379976
40
0.0937031452379976
40
0.187406290475995
40
0.187406290475995
40
0.281109435713993
40
0.281109435713993
40
0.304535222023493
40
0.304535222023493
40
0.327961008332992
40
0.327961008332992
40
0.374812580951991
40
0.374812580951991
40
0.468515726189989
40
0.468515726189989
40
0.515367298808991
40
0.515367298808991
40
0.562218871427993
40
0.562218871427993
40
0.609070444046996
40
0.609070444046996
40
0.655922016665998
40
0.655922016665998
40
0.702773589285
40
0.702773589285
40
0.749625161904002
40
0.749625161904002
40
0.796476734523004
40
0.796476734523004
40
0.843328307142007
40
0.843328307142007
40
0.890179879761009
40
0.890179879761009
40
0.937031452380011
40
0.937031452380011
40
0.960457238689512
40
0.960457238689512
40
0.983883024999013
40
0.983883024999013
40
1
40
1
40
1
40
1
41
1
10
29.4184521640946
20
-0.218267027132185
30
0
41
1
10
29.2645563275708
20
-0.139362476910407
30
0
41
1
10
29.111041563437
20
-0.060142652774914
30
0
41
1
10
28.8040293264628
20
0.097482765805978
30
0
41
1
10
28.6505313241577
20
0.175887832227261
30
0
41
1
10
28.3430559567111
20
0.330832997787837
30
0
41
1
10
28.1890855282374
20
0.407386483744489
30
0
41
1
10
27.9958113215443
20
0.500889520432196
30
0
41
1
10
27.9570894104162
20
0.519492721813236
30
0
41
1
10
27.8796889967515
20
0.556386354285081
30
0
41
1
10
27.8410246436809
20
0.574670202117318
30
0
41
1
10
27.7251259549448
20
0.628993380657477
30
0
41
1
10
27.6479946640253
20
0.664498863436961
30
0
41
1
10
27.4165959859881
20
0.768671613600219
30
0
41
1
10
27.2622742226717
20
0.835012305109331
30
0
41
1
10
27.0303090970401
20
0.928787929783709
30
0
41
1
10
26.9529075631333
20
0.959089811021869
30
0
41
1
10
26.7978788105856
20
1.01759547728187
30
0
41
1
10
26.7205175472062
20
1.04569691328635
30
0
41
1
10
26.5663610752842
20
1.09935400942555
30
0
41
1
10
26.4895176002048
20
1.12493985763479
30
0
41
1
10
26.3362746077685
20
1.17330406383016
30
0
41
1
10
26.2599000623837
20
1.19603437083018
30
0
41
1
10
26.1071275189405
20
1.23906849878395
30
0
41
1
10
26.0306929253986
20
1.25941656630405
30
0
41
1
10
25.8777669630128
20
1.29761933687698
30
0
41
1
10
25.8012817504208
20
1.31548579966281
30
0
41
1
10
25.6483560828662
20
1.34826773813433
30
0
41
1
10
25.571924452193
20
1.36317365588846
30
0
41
1
10
25.419073905321
20
1.38962297020583
30
0
41
1
10
25.3426703817418
20
1.4010891992038
30
0
41
1
10
25.1895675009487
20
1.42123330756897
30
0
41
1
10
25.1128425428843
20
1.43000260504343
30
0
41
1
10
24.9589920878497
20
1.44473035259802
30
0
41
1
10
24.8818718576263
20
1.45066993734318
30
0
41
1
10
24.7658844156435
20
1.45718994454205
30
0
41
1
10
24.7271378333887
20
1.45896557182138
30
0
41
1
10
24.6496966294389
20
1.46167530095329
30
0
41
1
10
24.6110442187557
20
1.46260904148818
30
0
41
1
10
24.5459080790289
20
1.46345619057251
30
0
41
1
10
24.5193925483291
20
1.46359010630945
30
0
41
1
10
24.492903261224
20
1.46352534344075
30
0
0
SPLINE
5
E6
100
AcDbEntity
8
1
62
256
6
ByLayer
370
18
48
1
60
0
100
AcDbSpline
70
4
71
3
72
8
73
4
40
0
40
0
40
0
40
0
40
1
40
1
40
1
40
1
41
1
10
29.4424604391565
20
-1.46519947267029
30
0
41
1
10
29.4422971618876
20
-1.4649341450137
30
0
41
1
10
29.4421339285514
20
-1.46466165600637
30
0
41
1
10
29.4419707375899
20
-1.46438201104422
30
0
0
SPLINE
5
E7
100
AcDbEntity
8
1
62
256
6
ByLayer
370
18
48
1
60
0
100
AcDbSpline
70
4
71
3
72
27
73
23
40
0
40
0
40
0
40
0
40
0.125000000000001
40
0.125000000000001
40
0.187500000000001
40
0.187500000000001
40
0.250000000000001
40
0.250000000000001
40
0.375000000000002
40
0.375000000000002
40
0.500000000000003
40
0.500000000000003
40
0.625000000000003
40
0.625000000000003
40
0.750000000000004
40
0.750000000000004
40
0.781250000000004
40
0.781250000000004
40
0.812500000000004
40
0.875000000000003
40
0.875000000000003
40
1
40
1
40
1
40
1
41
1
10
29.4184521641414
20
-0.218267027135056
30
0
41
1
10
29.4105419578248
20
-0.298590836232506
30
0
41
1
10
29.4047079960303
20
-0.376990760242279
30
0
41
1
10
29.3980554881327
20
-0.491735688298149
30
0
41
1
10
29.3961921056808
20
-0.529505983930079
30
0
41
1
10
29.3930504000675
20
-0.604069155095516
30
0
41
1
10
29.3917708393868
20
-0.64090736925462
30
0
41
1
10
29.3886732277607
20
-0.749613083857383
30
0
41
1
10
29.3876200411535
20
-0.818014751936573
30
0
41
1
10
29.3868551260668
20
-0.946986568656143
30
0
41
1
10
29.3871453238626
20
-1.00757429496932
30
0
41
1
10
29.3889541498209
20
-1.12050603834447
30
0
41
1
10
29.3904481565591
20
-1.17130071399697
30
0
41
1
10
29.3948555909308
20
-1.26201966178158
30
0
41
1
10
29.3977668643026
20
-1.30194339763017
30
0
41
1
10
29.4027891183604
20
-1.34478147790793
30
0
41
1
10
29.4038604419459
20
-1.35295764379686
30
0
41
1
10
29.4061401529178
20
-1.36846405526558
30
0
41
1
10
29.4097699891883
20
-1.39049091195088
30
0
41
1
10
29.4140909209187
20
-1.40888117626145
30
0
41
1
10
29.423849616327
20
-1.44088678855857
30
0
41
1
10
29.4318301710693
20
-1.45588293018781
30
0
41
1
10
29.4419707375899
20
-1.46438201104422
30
0
0
SPLINE
5
E8
100
AcDbEntity
8
1
62
256
6
ByLayer
370
18
48
1
60
0
100
AcDbSpline
70
4
71
3
72
14
73
10
40
0
40
0
40
0
40
0
40
0.25
40
0.25
40
0.5
40
0.5
40
0.75
40
0.75
40
1
40
1
40
1
40
1
41
1
10
29.4372318272941
20
-1.4759496226522
30
0
41
1
10
29.4379257503642
20
-1.47482320454867
30
0
41
1
10
29.4386331928368
20
-1.47362944285612
30
0
41
1
10
29.4400015416841
20
-1.47120021957562
30
0
41
1
10
29.4406553304055
20
-1.46997339517367
30
0
41
1
10
29.441697560211
20
-1.46784652360552
30
0
41
1
10
29.4420867527982
20
-1.46694198640714
30
0
41
1
10
29.4425051906458
20
-1.4656976834857
30
0
41
1
10
29.4425464660082
20
-1.46533926740793
30
0
41
1
10
29.4424604391564
20
-1.46519947267024
30
0
0
SPLINE
5
E9
100
AcDbEntity
8
1
62
256
6
ByLayer
370
18
48
1
60
0
100
AcDbSpline
70
4
71
3
72
14
73
10
40
0
40
0
40
0
40
0
40
0.0843010555261178
40
0.0843010555261178
40
0.336698744256131
40
0.336698744256131
40
0.58909643298614
40
0.58909643298614
40
1
40
1
40
1
40
1
41
1
10
20.1405507746924
20
1.42527608396097
30
0
41
1
10
20.1535389685925
20
1.42664989505536
30
0
41
1
10
20.1665323351429
20
1.42798086272654
30
0
41
1
10
20.2184494956624
20
1.43312480222812
30
0
41
1
10
20.2574507724987
20
1.43659363557074
30
0
41
1
10
20.3353086280058
20
1.44270626305067
30
0
41
1
10
20.3741847444732
20
1.44535043086856
30
0
41
1
10
20.4762323923397
20
1.45122134401581
30
0
41
1
10
20.5393296470074
20
1.45377848215716
30
0
41
1
10
20.6023362923879
20
1.45528663264886
30
0
0
SPLINE
5
EA
100
AcDbEntity
8
1
62
256
6
ByLayer
370
18
48
1
60
0
100
AcDbSpline
70
4
71
3
72
41
73
37
40
0
40
0
40
0
40
0
40
0.007887300921064
40
0.007887300921064
40
0.107098570828945
40
0.107098570828945
40
0.206309840736827
40
0.206309840736827
40
0.305521110644711
40
0.305521110644711
40
0.355126745598655
40
0.355126745598655
40
0.4047323805526
40
0.4047323805526
40
0.454338015506544
40
0.454338015506544
40
0.479140832983516
40
0.479140832983516
40
0.503943650460488
40
0.503943650460488
40
0.603154920368383
40
0.603154920368383
40
0.652760555322334
40
0.652760555322334
40
0.702366190276286
40
0.702366190276286
40
0.801577460184188
40
0.801577460184188
40
0.900788730092091
40
0.925591547569068
40
0.925591547569068
40
0.950394365046045
40
0.950394365046045
40
0.975197182523022
40
0.975197182523022
40
1
40
1
40
1
40
1
41
1
10
24.7813856479791
20
0.22766804438848
30
0
41
1
10
24.7937568448645
20
0.221433988864504
30
0
41
1
10
24.8061223992423
20
0.215195300132677
30
0
41
1
10
24.9738904591115
20
0.130455114705882
30
0
41
1
10
25.1283335975808
20
0.0513510777217618
30
0
41
1
10
25.4361952871633
20
-0.106251866766201
30
0
41
1
10
25.589646409717
20
-0.184688626451248
30
0
41
1
10
25.8963946949793
20
-0.339269444985149
30
0
41
1
10
26.0496747634429
20
-0.41545669012595
30
0
41
1
10
26.2800762450987
20
-0.526828993631284
30
0
41
1
10
26.3569637680355
20
-0.563457504730849
30
0
41
1
10
26.5110493927302
20
-0.635471150138187
30
0
41
1
10
26.5882382098837
20
-0.670871322487358
30
0
41
1
10
26.7429471066889
20
-0.740364416598624
30
0
41
1
10
26.8204719611816
20
-0.774449538768238
30
0
41
1
10
26.937095359596
20
-0.824428441649587
30
0
41
1
10
26.9760350283101
20
-0.840899779352526
30
0
41
1
10
27.0537092100097
20
-0.873296614767725
30
0
41
1
10
27.0924846192005
20
-0.889239831396338
30
0
41
1
10
27.2860853845207
20
-0.967633784755662
30
0
41
1
10
27.4400764065647
20
-1.02611448564372
30
0
41
1
10
27.6703474144253
20
-1.10662562526389
30
0
41
1
10
27.7470063828334
20
-1.13226845010635
30
0
41
1
10
27.9003621139401
20
-1.18105958426145
30
0
41
1
10
27.9770359282188
20
-1.20420208643452
30
0
41
1
10
28.2070007967339
20
-1.26966057142332
30
0
41
1
10
28.3602759049679
20
-1.30803068784525
30
0
41
1
10
28.6676295899798
20
-1.37349784790462
30
0
41
1
10
28.8602231902345
20
-1.407354575065
30
0
41
1
10
29.0540328634167
20
-1.43154629043005
30
0
41
1
10
29.1316683908894
20
-1.440440013336
30
0
41
1
10
29.1705585067147
20
-1.44449620227488
30
0
41
1
10
29.2482719228167
20
-1.45179685199565
30
0
41
1
10
29.2871159775194
20
-1.45504403655593
30
0
41
1
10
29.3647926901002
20
-1.4607291395445
30
0
41
1
10
29.4036123034997
20
-1.46314573626481
30
0
41
1
10
29.4424604391578
20
-1.46519947267029
30
0
0
SPLINE
5
EB
100
AcDbEntity
8
1
62
256
6
ByLayer
370
18
48
1
60
0
100
AcDbSpline
70
4
71
3
72
45
73
41
40
0
40
0
40
0
40
0
40
0.0298944389939687
40
0.0298944389939687
40
0.075604548544244
40
0.075604548544244
40
0.12131465809452
40
0.12131465809452
40
0.212734877195071
40
0.212734877195071
40
0.258444986745346
40
0.258444986745346
40
0.304155096295622
40
0.304155096295622
40
0.395575315396176
40
0.395575315396176
40
0.441285424946452
40
0.441285424946452
40
0.486995534496727
40
0.486995534496727
40
0.532705644047003
40
0.532705644047003
40
0.578415753597278
40
0.578415753597278
40
0.624125863147554
40
0.64698091792269
40
0.64698091792269
40
0.669835972697826
40
0.669835972697826
40
0.761256191798364
40
0.761256191798364
40
0.806966301348633
40
0.806966301348633
40
0.852676410898902
40
0.852676410898902
40
0.898386520449171
40
0.898386520449171
40
0.94409662999944
40
0.94409662999944
40
1
40
1
40
1
40
1
41
1
10
14.9579971273952
20
1.43193623100689
30
0
41
1
10
15.0086407659877
20
1.43701043908672
30
0
41
1
10
15.0593259722589
20
1.44134210086841
30
0
41
1
10
15.1876453015703
20
1.45044746101129
30
0
41
1
10
15.2651213346999
20
1.45424165507202
30
0
41
1
10
15.419609413361
20
1.45864483858335
30
0
41
1
10
15.4966711853916
20
1.45926979134671
30
0
41
1
10
15.7274263432757
20
1.45663928502864
30
0
41
1
10
15.8807051104016
20
1.44880788866939
30
0
41
1
10
16.1102562543539
20
1.42819552756799
30
0
41
1
10
16.1866851832368
20
1.41989429812165
30
0
41
1
10
16.3395147050682
20
1.40037899329485
30
0
41
1
10
16.4159541028336
20
1.38909094183765
30
0
41
1
10
16.645723428726
20
1.35024254520161
30
0
41
1
10
16.7994162160897
20
1.31790197476994
30
0
41
1
10
17.0310325855648
20
1.26085710729004
30
0
41
1
10
17.1084149328815
20
1.24041167783247
30
0
41
1
10
17.2635654335095
20
1.19679619263147
30
0
41
1
10
17.341121340286
20
1.17368780704891
30
0
41
1
10
17.4958978921308
20
1.12514319340963
30
0
41
1
10
17.5731576097926
20
1.09969497214854
30
0
41
1
10
17.7275338941886
20
1.04652460398287
30
0
41
1
10
17.8046777811405
20
1.01877310115469
30
0
41
1
10
17.9591162842756
20
0.960924802646446
30
0
41
1
10
18.0750402222017
20
0.915816426943934
30
0
41
1
10
18.1912544314864
20
0.868369008030697
30
0
41
1
10
18.2688118057006
20
0.836243993841407
30
0
41
1
10
18.3076443311786
20
0.819929596143595
30
0
41
1
10
18.5014291817842
20
0.737433275950224
30
0
41
1
10
18.6557148347379
20
0.668304382475924
30
0
41
1
10
18.8863589021879
20
0.560936031168183
30
0
41
1
10
18.963094253155
20
0.524508353628278
30
0
41
1
10
19.1163830741764
20
0.450552334807213
30
0
41
1
10
19.1929665727874
20
0.413054836690577
30
0
41
1
10
19.3461994372727
20
0.337272976342348
30
0
41
1
10
19.4228168869287
20
0.298956101161565
30
0
41
1
10
19.5761380554202
20
0.221681997823737
30
0
41
1
10
19.652875859356
20
0.182769616901055
30
0
41
1
10
19.8238585266773
20
0.0960227602206203
30
0
41
1
10
19.9181496019457
20
0.0480766775057475
30
0
41
1
10
20.0126368597469
20
-7.29062803089E-05
30
0
0
SPLINE
5
EC
100
AcDbEntity
8
1
62
256
6
ByLayer
370
18
48
1
60
0
100
AcDbSpline
70
4
71
3
72
8
73
4
40
0
40
0
40
0
40
0
40
1
40
1
40
1
40
1
41
1
10
29.3970677745075
20
-1.54090077954933
30
0
41
1
10
29.4104362379505
20
-1.51936581391826
30
0
41
1
10
29.4238232568183
20
-1.49771522921148
30
0
41
1
10
29.4372318272941
20
-1.4759496226522
30
0
0
SPLINE
5
ED
100
AcDbEntity
8
1
62
256
6
ByLayer
370
18
48
1
60
0
100
AcDbSpline
70
4
71
3
72
38
73
34
40
0
40
0
40
0
40
0
40
0.0546209265978478
40
0.0546209265978478
40
0.0819313898967717
40
0.0819313898967717
40
0.109241853195696
40
0.109241853195696
40
0.218483706391407
40
0.218483706391407
40
0.327725559587118
40
0.327725559587118
40
0.38234648618497
40
0.38234648618497
40
0.436967412782822
40
0.436967412782822
40
0.546209265978518
40
0.546209265978518
40
0.573519729277442
40
0.573519729277442
40
0.600830192576366
40
0.600830192576366
40
0.655451119174214
40
0.655451119174214
40
0.710072045772061
40
0.710072045772061
40
0.764692972369913
40
0.764692972369913
40
0.873934825565613
40
0.873934825565613
40
0.983176678761313
40
0.983176678761313
40
1
40
1
40
1
40
1
41
1
10
29.4372318272941
20
-1.4759496226522
30
0
41
1
10
29.359566134875
20
-1.47205113425591
30
0
41
1
10
29.2819031682283
20
-1.46659625486262
30
0
41
1
10
29.1653314945028
20
-1.45591431987628
30
0
41
1
10
29.1264405641232
20
-1.4519445219301
30
0
41
1
10
29.0488056348388
20
-1.4432169872583
30
0
41
1
10
29.0100443296277
20
-1.43845809801817
30
0
41
1
10
28.8164832580084
20
-1.41271650435911
30
0
41
1
10
28.6624184005628
20
-1.38588625188501
30
0
41
1
10
28.3550938168344
20
-1.32082433262866
30
0
41
1
10
28.20183737603
20
-1.28260408354893
30
0
41
1
10
27.9718983381798
20
-1.21729352488543
30
0
41
1
10
27.895233026653
20
-1.19418758493455
30
0
41
1
10
27.7418991597041
20
-1.14543403605887
30
0
41
1
10
27.6652531075776
20
-1.11979217115336
30
0
41
1
10
27.4350097063909
20
-1.03924738776877
30
0
41
1
10
27.2810264002525
20
-0.980691856491234
30
0
41
1
10
27.0874233431007
20
-0.902130135643034
30
0
41
1
10
27.0486468125088
20
-0.886149717120531
30
0
41
1
10
26.9709689895054
20
-0.853671023993087
30
0
41
1
10
26.9320265006807
20
-0.837154842690694
30
0
41
1
10
26.8153992696197
20
-0.787033430859395
30
0
41
1
10
26.7378740693589
20
-0.752841013458607
30
0
41
1
10
26.583168238834
20
-0.683108611534863
30
0
41
1
10
26.5059827709665
20
-0.647576462886661
30
0
41
1
10
26.3519096896603
20
-0.575269869379042
30
0
41
1
10
26.2750317393637
20
-0.538479920480682
30
0
41
1
10
26.0446582318719
20
-0.426592813687534
30
0
41
1
10
25.8913950947094
20
-0.350022071513479
30
0
41
1
10
25.5846793767975
20
-0.194584202616653
30
0
41
1
10
25.4312467364447
20
-0.11566888439495
30
0
41
1
10
25.2536270768422
20
-0.0241267302926076
30
0
41
1
10
25.2299114420857
20
-0.0119024769645932
30
0
41
1
10
25.2061817355525
20
0.0003264839770338
30
0
0
SPLINE
5
EE
100
AcDbEntity
8
1
62
256
6
ByLayer
370
18
48
1
60
0
100
AcDbSpline
70
4
71
3
72
20
73
16
40
0
40
0
40
0
40
0
40
0.0596329004582494
40
0.0596329004582494
40
0.346330189415325
40
0.346330189415325
40
0.633027478372399
40
0.633027478372399
40
0.776376122850942
40
0.776376122850942
40
0.848050445090213
40
0.848050445090213
40
0.919724767329483
40
0.919724767329483
40
1
40
1
40
1
40
1
41
1
10
21.6623212409689
20
1.38780806499057
30
0
41
1
10
21.6302090799529
20
1.39313692800357
30
0
41
1
10
21.5981118366524
20
1.39819965284357
30
0
41
1
10
21.4117649655232
20
1.4260519201228
30
0
41
1
10
21.257772429957
20
1.44294856926177
30
0
41
1
10
20.9496581713572
20
1.46414531553188
30
0
41
1
10
20.7954914899487
20
1.46841742991782
30
0
41
1
10
20.5634386912773
20
1.4653107428197
30
0
41
1
10
20.4859608666659
20
1.46269298013379
30
0
41
1
10
20.3694693961412
20
1.4563048451397
30
0
41
1
10
20.3305928597883
20
1.45376246781268
30
0
41
1
10
20.2527328444821
20
1.44784720055327
30
0
41
1
10
20.2137297690325
20
1.44447395754878
30
0
41
1
10
20.131221133145
20
1.4364943617708
30
0
41
1
10
20.0876931075917
20
1.43179021118894
30
0
41
1
10
20.0442175408561
20
1.42660554753996
30
0
0
SPLINE
5
EF
100
AcDbEntity
8
1
62
256
6
ByLayer
370
18
48
1
60
0
100
AcDbSpline
70
4
71
3
72
46
73
42
40
0
40
0
40
0
40
0
40
0.005932900607822
40
0.005932900607822
40
0.0549645262809018
40
0.0549645262809018
40
0.0794803391174399
40
0.0794803391174399
40
0.103996151953978
40
0.103996151953978
40
0.202059403300138
40
0.202059403300138
40
0.251091028973217
40
0.251091028973217
40
0.300122654646297
40
0.300122654646297
40
0.349154280319377
40
0.349154280319377
40
0.398185905992457
40
0.398185905992457
40
0.447217531665536
40
0.447217531665536
40
0.496249157338616
40
0.496249157338616
40
0.545280783011696
40
0.545280783011696
40
0.594312408684776
40
0.594312408684776
40
0.692375660030935
40
0.692375660030935
40
0.741407285704015
40
0.741407285704015
40
0.765923098540558
40
0.765923098540558
40
0.790438911377102
40
0.790438911377102
40
0.888502162723296
40
0.888502162723296
40
0.98656541406949
40
0.98656541406949
40
1
40
1
40
1
40
1
41
1
10
24.3137054816764
20
1.46939933587348
30
0
41
1
10
24.3229887695387
20
1.4697507248236
30
0
41
1
10
24.332273215979
20
1.4700816185044
30
0
41
1
10
24.4182983193152
20
1.47295949538653
30
0
41
1
10
24.4951528347894
20
1.47405348557081
30
0
41
1
10
24.6108538503928
20
1.47300233075256
30
0
41
1
10
24.6494858310813
20
1.47221720519789
30
0
41
1
10
24.726886958319
20
1.46979893633517
30
0
41
1
10
24.7656274469005
20
1.46816548772108
30
0
41
1
10
24.9588852486614
20
1.45799124218473
30
0
41
1
10
25.1126464904347
20
1.44345932048836
30
0
41
1
10
25.3421893698081
20
1.41391141335208
30
0
41
1
10
25.4185555377722
20
1.40267290583222
30
0
41
1
10
25.571333776847
20
1.37665928644168
30
0
41
1
10
25.6477281658103
20
1.36195466097976
30
0
41
1
10
25.8005772017694
20
1.3295385395125
30
0
41
1
10
25.8770226479465
20
1.31183418124206
30
0
41
1
10
26.0298648419312
20
1.27391823035566
30
0
41
1
10
26.1062562029853
20
1.25369385851766
30
0
41
1
10
26.2589361158002
20
1.21088716780855
30
0
41
1
10
26.3352621477953
20
1.18827294654506
30
0
41
1
10
26.488412393379
20
1.140123013265
30
0
41
1
10
26.5652103304044
20
1.11462370729268
30
0
41
1
10
26.7192781702656
20
1.06110353914735
30
0
41
1
10
26.7965818834802
20
1.03306030890778
30
0
41
1
10
26.9515654962577
20
0.974612153708449
30
0
41
1
10
27.0289422225005
20
0.944323110341031
30
0
41
1
10
27.2608262744201
20
0.850537720488603
30
0
41
1
10
27.4150848558874
20
0.784123610146537
30
0
41
1
10
27.6463762836404
20
0.679747862105216
30
0
41
1
10
27.7234705953676
20
0.644165464391506
30
0
41
1
10
27.8393138730282
20
0.58970574997403
30
0
41
1
10
27.8779595947939
20
0.571371723197871
30
0
41
1
10
27.9553226777106
20
0.534368858968293
30
0
41
1
10
27.9940361281278
20
0.515701620420771
30
0
41
1
10
28.1872566437323
20
0.421864513920042
30
0
41
1
10
28.3411732746211
20
0.344987297343835
30
0
41
1
10
28.6485258951475
20
0.189284763862446
30
0
41
1
10
28.8019553741212
20
0.110446704363483
30
0
41
1
10
28.9764069588047
20
0.0202844590080247
30
0
41
1
10
28.997427028762
20
0.0094120576967782
30
0
41
1
10
29.0184481334127
20
-0.0014670663221352
30
0
0
SPLINE
5
F0
100
AcDbEntity
8
1
62
256
6
ByLayer
370
18
48
1
60
0
100
AcDbSpline
70
4
71
3
72
8
73
4
40
0
40
0
40
0
40
0
40
1
40
1
40
1
40
1
41
1
10
29.3926895268025
20
-0.204254125344903
30
0
41
1
10
29.4004672184901
20
-0.205479877032928
30
0
41
1
10
29.4082586924822
20
-0.206526763865156
30
0
41
1
10
29.4160686237992
20
-0.207395805511254
30
0
0
SPLINE
5
F1
100
AcDbEntity
8
1
62
256
6
ByLayer
370
18
48
1
60
0
100
AcDbSpline
70
4
71
3
72
18
73
14
40
0
40
0
40
0
40
0
40
0.094028538018779
40
0.094028538018779
40
0.223453032587558
40
0.223453032587558
40
0.482302021725116
40
0.482302021725116
40
0.611726516293895
40
0.611726516293895
40
0.741151010862674
40
0.741151010862674
40
1
40
1
40
1
40
1
41
1
10
14.5631984270686
20
1.45303405360741
30
0
41
1
10
14.5657232171896
20
1.45273959947934
30
0
41
1
10
14.5682901850306
20
1.45247495211146
30
0
41
1
10
14.5744916720999
20
1.45191888955003
30
0
41
1
10
14.5781883439613
20
1.4516539276174
30
0
41
1
10
14.5893004043908
20
1.45105632703783
30
0
41
1
10
14.5967542173998
20
1.45091351250505
30
0
41
1
10
14.6080029186021
20
1.45108254295158
30
0
41
1
10
14.6117876536464
20
1.45120475741481
30
0
41
1
10
14.6192257305339
20
1.4515747633846
30
0
41
1
10
14.6228850432918
20
1.45182167429991
30
0
41
1
10
14.6336880174712
20
1.45274104634825
30
0
41
1
10
14.6406982729557
20
1.45359705721091
30
0
41
1
10
14.6473675416503
20
1.4546768823528
30
0
0
SPLINE
5
F2
100
AcDbEntity
8
1
62
256
6
ByLayer
370
18
48
1
60
0
100
AcDbSpline
70
4
71
3
72
72
73
68
40
0
40
0
40
0
40
0
40
0.0467158755515619
40
0.0467158755515619
40
0.0934317511031238
40
0.0934317511031238
40
0.140147626654686
40
0.140147626654686
40
0.163505564430467
40
0.163505564430467
40
0.186863502206249
40
0.186863502206249
40
0.233579377757813
40
0.233579377757813
40
0.280295253309376
40
0.280295253309376
40
0.303653191085158
40
0.303653191085158
40
0.32701112886094
40
0.32701112886094
40
0.373727004412505
40
0.373727004412505
40
0.397084942188286
40
0.397084942188286
40
0.420442879964068
40
0.420442879964068
40
0.44380081773985
40
0.44380081773985
40
0.467158755515632
40
0.467158755515632
40
0.490516693291414
40
0.490516693291414
40
0.513874631067195
40
0.513874631067195
40
0.560590506618761
40
0.560590506618761
40
0.583948444394544
40
0.583948444394544
40
0.607306382170328
40
0.607306382170328
40
0.654022257721894
40
0.654022257721894
40
0.677380195497678
40
0.677380195497678
40
0.700738133273461
40
0.700738133273461
40
0.724096071049245
40
0.724096071049245
40
0.747454008825028
40
0.747454008825028
40
0.770811946600811
40
0.770811946600811
40
0.794169884376595
40
0.794169884376595
40
0.817527822152378
40
0.817527822152378
40
0.840885759928162
40
0.840885759928162
40
0.887601635479727
40
0.887601635479727
40
0.91095957325551
40
0.91095957325551
40
0.934317511031294
40
0.934317511031294
40
0.981033386582861
40
0.981033386582861
40
1
40
1
40
1
40
1
41
1
10
14.6473675416503
20
1.4546768823528
30
0
41
1
10
14.8017937037292
20
1.47968011134415
30
0
41
1
10
14.9557710399852
20
1.49781417866208
30
0
41
1
10
15.2633129933799
20
1.52102328138398
30
0
41
1
10
15.4168149659929
20
1.52611567189842
30
0
41
1
10
15.7236307932299
20
1.52330698924243
30
0
41
1
10
15.8769954096456
20
1.51538699341179
30
0
41
1
10
16.107562518614
20
1.49360080875897
30
0
41
1
10
16.1844770131924
20
1.48467507146461
30
0
41
1
10
16.3386087594096
20
1.46349583510224
30
0
41
1
10
16.4158688752235
20
1.45126260510898
30
0
41
1
10
16.6485871861843
20
1.40983770864142
30
0
41
1
10
16.8030894874746
20
1.37620265444718
30
0
41
1
10
17.111055599671
20
1.29773960432689
30
0
41
1
10
17.2645415607902
20
1.25289177278947
30
0
41
1
10
17.4943833030586
20
1.17753425163036
30
0
41
1
10
17.5709159603435
20
1.15104340524368
30
0
41
1
10
17.7239693511295
20
1.09546096342328
30
0
41
1
10
17.8005229491135
20
1.06641026091555
30
0
41
1
10
18.0306281400708
20
0.975974496618875
30
0
41
1
10
18.1845738438048
20
0.911245251220009
30
0
41
1
10
18.4169245015253
20
0.808431830257746
30
0
41
1
10
18.49468568965
20
0.773142486043696
30
0
41
1
10
18.6494555372037
20
0.701207756219503
30
0
41
1
10
18.7266068868579
20
0.664502792477066
30
0
41
1
10
18.8804939551337
20
0.58971227305878
30
0
41
1
10
18.9572159586313
20
0.551601642910128
30
0
41
1
10
19.1103606950702
20
0.474206729226154
30
0
41
1
10
19.1868212849051
20
0.434991175486488
30
0
41
1
10
19.3397288178917
20
0.355916838103468
30
0
41
1
10
19.4161376162235
20
0.31598803849829
30
0
41
1
10
19.5689388119627
20
0.235485213230533
30
0
41
1
10
19.6453670057467
20
0.194977953539791
30
0
41
1
10
19.8750236157806
20
0.0732467823067964
30
0
41
1
10
20.0284851921914
20
-0.0084422877605448
30
0
41
1
10
20.2592467174977
20
-0.131764475541047
30
0
41
1
10
20.3362734149898
20
-0.172983366898023
30
0
41
1
10
20.4907231151658
20
-0.25529678371376
30
0
41
1
10
20.5682805207844
20
-0.296374289846568
30
0
41
1
10
20.8001290849462
20
-0.417448627048799
30
0
41
1
10
20.954018681302
20
-0.495924723435365
30
0
41
1
10
21.1836961704253
20
-0.610617172430153
30
0
41
1
10
21.2600979000789
20
-0.648271605962321
30
0
41
1
10
21.4128799672731
20
-0.721922723481072
30
0
41
1
10
21.4892792687657
20
-0.757887920111642
30
0
41
1
10
21.6423197955391
20
-0.827766225492638
30
0
41
1
10
21.7189179149559
20
-0.861755079981378
30
0
41
1
10
21.8720719989287
20
-0.928143791479101
30
0
41
1
10
21.9486171682274
20
-0.960558309062918
30
0
41
1
10
22.1016221772088
20
-1.02379274125539
30
0
41
1
10
22.1781295233772
20
-1.05453675547648
30
0
41
1
10
22.3315619566036
20
-1.11365859931303
30
0
41
1
10
22.4084842054394
20
-1.14204252688222
30
0
41
1
10
22.5629787555385
20
-1.19614462141936
30
0
41
1
10
22.6406337893328
20
-1.22192171455549
30
0
41
1
10
22.795292480341
20
-1.27049123791957
30
0
41
1
10
22.8724363125559
20
-1.29333445331173
30
0
41
1
10
23.1033606086305
20
-1.35757018534412
30
0
41
1
10
23.2565854419993
20
-1.39473774288206
30
0
41
1
10
23.4855233614177
20
-1.44168047191846
30
0
41
1
10
23.5617308035417
20
-1.45581509081481
30
0
41
1
10
23.7142864620706
20
-1.48084531551908
30
0
41
1
10
23.7906190144716
20
-1.49175570344101
30
0
41
1
10
24.0199439627849
20
-1.51964971811117
30
0
41
1
10
24.1731873739051
20
-1.53186793327768
30
0
41
1
10
24.3891961734374
20
-1.53983050686199
30
0
41
1
10
24.4516589051972
20
-1.54103642219801
30
0
41
1
10
24.5142889238172
20
-1.54113522494467
30
0
0
SPLINE
5
F3
100
AcDbEntity
8
1
62
256
6
ByLayer
370
18
48
1
60
0
100
AcDbSpline
70
4
71
3
72
114
73
110
40
0
40
0
40
0
40
0
40
0.0023107158099892
40
0.0023107158099892
40
0.0203632121539406
40
0.0203632121539406
40
0.0564682048418435
40
0.0564682048418435
40
0.0745207011857964
40
0.0745207011857964
40
0.0925731975297492
40
0.0925731975297492
40
0.110625693873702
40
0.110625693873702
40
0.128678190217655
40
0.128678190217655
40
0.146730686561608
40
0.146730686561608
40
0.164783182905561
40
0.164783182905561
40
0.182835679249514
40
0.182835679249514
40
0.200888175593467
40
0.200888175593467
40
0.218940671937419
40
0.218940671937419
40
0.236993168281372
40
0.236993168281372
40
0.273098160969277
40
0.273098160969277
40
0.291150657313229
40
0.291150657313229
40
0.309203153657182
40
0.309203153657182
40
0.327255650001135
40
0.327255650001135
40
0.345308146345088
40
0.345308146345088
40
0.363360642689041
40
0.363360642689041
40
0.381413139032994
40
0.381413139032994
40
0.399465635376947
40
0.399465635376947
40
0.4175181317209
40
0.4175181317209
40
0.435570628064852
40
0.435570628064852
40
0.453623124408805
40
0.453623124408805
40
0.471675620752758
40
0.471675620752758
40
0.489728117096711
40
0.489728117096711
40
0.498754365268688
40
0.498754365268688
40
0.507780613440665
40
0.507780613440665
40
0.525833109784621
40
0.525833109784621
40
0.561938102472531
40
0.561938102472531
40
0.579990598816487
40
0.579990598816487
40
0.598043095160442
40
0.598043095160442
40
0.634148087848354
40
0.634148087848354
40
0.652200584192309
40
0.652200584192309
40
0.670253080536263
40
0.670253080536263
40
0.679279328708242
40
0.679279328708242
40
0.68830557688022
40
0.68830557688022
40
0.706358073224176
40
0.706358073224176
40
0.724410569568133
40
0.724410569568133
40
0.742463065912089
40
0.742463065912089
40
0.760515562256045
40
0.760515562256045
40
0.778568058600002
40
0.778568058600002
40
0.796620554943958
40
0.796620554943958
40
0.814673051287915
40
0.814673051287915
40
0.850778043975827
40
0.850778043975827
40
0.859804292147806
40
0.859804292147806
40
0.868830540319784
40
0.868830540319784
40
0.886883036663742
40
0.886883036663742
40
0.922988029351656
40
0.922988029351656
40
0.941040525695613
40
0.941040525695613
40
0.95909302203957
40
0.95909302203957
40
0.977145518383527
40
0.977145518383527
40
0.995198014727484
40
0.995198014727484
40
1
40
1
40
1
40
1
41
1
10
27.2094379007262
20
-1.07856573869742
30
0
41
1
10
27.200782785545
20
-1.08190639359239
30
0
41
1
10
27.1921298518774
20
-1.08523239493536
30
0
41
1
10
27.1158952440813
20
-1.11441414110703
30
0
41
1
10
27.0485285947422
20
-1.13949764480398
30
0
41
1
10
26.8464978437513
20
-1.21160025476655
30
0
41
1
10
26.7118983167763
20
-1.25548598705296
30
0
41
1
10
26.5096198372301
20
-1.31462359846512
30
0
41
1
10
26.4421509917908
20
-1.33324425115234
30
0
41
1
10
26.3071236671769
20
-1.36829299067753
30
0
41
1
10
26.239570519699
20
-1.38472391105535
30
0
41
1
10
26.1042661021827
20
-1.41527570550068
30
0
41
1
10
26.0365621072409
20
-1.42943732649144
30
0
41
1
10
25.901050670739
20
-1.45546529938574
30
0
41
1
10
25.8331566228263
20
-1.46726811716715
30
0
41
1
10
25.6969331583826
20
-1.48833535751737
30
0
41
1
10
25.62853385623
20
-1.49760700547981
30
0
41
1
10
25.4922103480819
20
-1.51346429834899
30
0
41
1
10
25.4241808727066
20
-1.52007698445925
30
0
41
1
10
25.2883941803853
20
-1.53072419095119
30
0
41
1
10
25.2206397197654
20
-1.53475765346084
30
0
41
1
10
25.0853436446152
20
-1.54024768637856
30
0
41
1
10
25.0177626974026
20
-1.5417042672635
30
0
41
1
10
24.8829370286528
20
-1.5420401790704
30
0
41
1
10
24.8156612957464
20
-1.54090641421106
30
0
41
1
10
24.6810270808846
20
-1.53605393063467
30
0
41
1
10
24.6137018236581
20
-1.53233649934049
30
0
41
1
10
24.411514091089
20
-1.51739237431551
30
0
41
1
10
24.276445407085
20
-1.50240219176428
30
0
41
1
10
24.0734191798891
20
-1.47236797153758
30
0
41
1
10
24.0056498291708
20
-1.46110543447099
30
0
41
1
10
23.8699001520156
20
-1.43605437103554
30
0
41
1
10
23.8020103630813
20
-1.4221986386444
30
0
41
1
10
23.6658626085932
20
-1.39199142185939
30
0
41
1
10
23.5974783923455
20
-1.37562622505649
30
0
41
1
10
23.4611419863082
20
-1.34075850304677
30
0
41
1
10
23.3930970727559
20
-1.32225640532386
30
0
41
1
10
23.2572133397404
20
-1.28320683458597
30
0
41
1
10
23.1893820835952
20
-1.26265193643826
30
0
41
1
10
23.0539378136117
20
-1.2195070890289
30
0
41
1
10
22.9863306694721
20
-1.1969086077211
30
0
41
1
10
22.8512301818199
20
-1.14980541415434
30
0
41
1
10
22.7837701526191
20
-1.12526223088142
30
0
41
1
10
22.6490886688721
20
-1.07408908561345
30
0
41
1
10
22.5817769085839
20
-1.04757538001744
30
0
41
1
10
22.4470308442143
20
-0.992952987719463
30
0
41
1
10
22.3796054927212
20
-0.964832759894591
30
0
41
1
10
22.2445472073079
20
-0.907144076612752
30
0
41
1
10
22.1769231116828
20
-0.877564053416307
30
0
41
1
10
22.0414983054677
20
-0.816912081704061
30
0
41
1
10
21.9737007519563
20
-0.785834053790381
30
0
41
1
10
21.8378805189744
20
-0.722241344097313
30
0
41
1
10
21.7698164033805
20
-0.68980092716717
30
0
41
1
10
21.6676148559371
20
-0.639920021417311
30
0
41
1
10
21.6335339304306
20
-0.623081287460167
30
0
41
1
10
21.5652804731846
20
-0.589089027267732
30
0
41
1
10
21.5311173226475
20
-0.571950060841942
30
0
41
1
10
21.4288294484251
20
-0.520341779646657
30
0
41
1
10
21.3607910628554
20
-0.485600318230155
30
0
41
1
10
21.1569425754043
20
-0.380736881140478
30
0
41
1
10
21.0213888791498
20
-0.309996289118857
30
0
41
1
10
20.8185620795043
20
-0.202672041759172
30
0
41
1
10
20.751018618546
20
-0.16672989218813
30
0
41
1
10
20.6160231972903
20
-0.0945856332367043
30
0
41
1
10
20.5486639691825
20
-0.0582072064331953
30
0
41
1
10
20.3465606514762
20
0.0510105282648396
30
0
41
1
10
20.2116565101945
20
0.123675940448777
30
0
41
1
10
20.008504700927
20
0.231414787199981
30
0
41
1
10
19.9406730022807
20
0.267152498661289
30
0
41
1
10
19.8047843410237
20
0.338284922687478
30
0
41
1
10
19.7367326916249
20
0.37368991230872
30
0
41
1
10
19.6344119135292
20
0.426398540206293
30
0
41
1
10
19.6002615346742
20
0.443896001235061
30
0
41
1
10
19.5319082707123
20
0.478813247372699
30
0
41
1
10
19.4976935313595
20
0.496257536118804
30
0
41
1
10
19.3953183028913
20
0.548232824514201
30
0
41
1
10
19.3272671437271
20
0.582368667028817
30
0
41
1
10
19.1913553832913
20
0.649259883439527
30
0
41
1
10
19.1235075027869
20
0.682039857581145
30
0
41
1
10
18.9879153162801
20
0.746111907286178
30
0
41
1
10
18.920179462058
20
0.777420315748373
30
0
41
1
10
18.7848399528242
20
0.838625270979463
30
0
41
1
10
18.7172398029472
20
0.868526618110621
30
0
41
1
10
18.5821296085306
20
0.926850546652162
30
0
41
1
10
18.5145781021367
20
0.955211872323076
30
0
41
1
10
18.3796414303352
20
1.01055755555063
30
0
41
1
10
18.312274873221
20
1.0375609179041
30
0
41
1
10
18.1773276229832
20
1.08961885726245
30
0
41
1
10
18.1097816311848
20
1.114725498686
30
0
41
1
10
17.9067486008852
20
1.18705633541555
30
0
41
1
10
17.7708431516157
20
1.23128118478718
30
0
41
1
10
17.6002736969149
20
1.28152388677498
30
0
41
1
10
17.5661249680721
20
1.29131882651529
30
0
41
1
10
17.4977396921268
20
1.31037779931341
30
0
41
1
10
17.4634670530677
20
1.31964600644039
30
0
41
1
10
17.3608096204494
20
1.3465832420203
30
0
41
1
10
17.2926620331909
20
1.36345172383372
30
0
41
1
10
17.0887063275182
20
1.4104089788064
30
0
41
1
10
16.9532122661372
20
1.43671304768671
30
0
41
1
10
16.7501117839777
20
1.46859976486664
30
0
41
1
10
16.6824530240814
20
1.47798095195668
30
0
41
1
10
16.5472246611466
20
1.49426995586504
30
0
41
1
10
16.4796600589217
20
1.50117755072017
30
0
41
1
10
16.3445285237721
20
1.5124768372774
30
0
41
1
10
16.2769662254744
20
1.51687540627137
30
0
41
1
10
16.1419893672584
20
1.52315060283513
30
0
41
1
10
16.0744848081692
20
1.52500323619577
30
0
41
1
10
15.9888595137251
20
1.52570486863192
30
0
41
1
10
15.9708607225321
20
1.52576064475628
30
0
41
1
10
15.9528529186227
20
1.52572494088901
30
0
0
SPLINE
5
F4
100
AcDbEntity
8
1
62
256
6
ByLayer
370
18
48
1
60
0
100
AcDbSpline
70
4
71
3
72
62
73
58
40
0
40
0
40
0
40
0
40
0.0116484256431191
40
0.0116484256431191
40
0.0469466961558629
40
0.0469466961558629
40
0.0822449666686073
40
0.0822449666686073
40
0.117543237181351
40
0.117543237181351
40
0.152841507694095
40
0.152841507694095
40
0.223438048719581
40
0.223438048719581
40
0.258736319232324
40
0.258736319232324
40
0.276385454488695
40
0.276385454488695
40
0.294034589745066
40
0.294034589745066
40
0.329332860257812
40
0.329332860257812
40
0.346981995514184
40
0.346981995514184
40
0.364631130770557
40
0.364631130770557
40
0.399929401283303
40
0.399929401283303
40
0.435227671796048
40
0.435227671796048
40
0.470525942308794
40
0.470525942308794
40
0.50582421282154
40
0.50582421282154
40
0.541122483334285
40
0.541122483334285
40
0.57642075384703
40
0.57642075384703
40
0.611719024359776
40
0.611719024359776
40
0.647017294872521
40
0.647017294872521
40
0.682315565385267
40
0.682315565385267
40
0.717613835898012
40
0.717613835898012
40
0.788210376923506
40
0.788210376923506
40
0.823508647436255
40
0.823508647436255
40
0.858806917949003
40
0.858806917949003
40
0.894105188461752
40
0.894105188461752
40
0.9294034589745
40
0.9294034589745
40
1
40
1
40
1
40
1
41
1
10
9.14514596183599
20
-1.09851594747866
30
0
41
1
10
9.12250081175893
20
-1.10670395560348
30
0
41
1
10
9.09986129472287
20
-1.11478392591155
30
0
41
1
10
9.0087226238623
20
-1.14688571322549
30
0
41
1
10
8.94037372116742
20
-1.17000148256744
30
0
41
1
10
8.80398374971088
20
-1.21415811150672
30
0
41
1
10
8.73590166007205
20
-1.2351524398785
30
0
41
1
10
8.60010488757814
20
-1.27513907921642
30
0
41
1
10
8.53242324911577
20
-1.29415519447602
30
0
41
1
10
8.39706305970827
20
-1.32978262296965
30
0
41
1
10
8.32941824965889
20
-1.34643349993064
30
0
41
1
10
8.12641207695575
20
-1.39279393096888
30
0
41
1
10
7.99094630483785
20
-1.41891264383284
30
0
41
1
10
7.78757989704692
20
-1.45099399169021
30
0
41
1
10
7.71975314453172
20
-1.46049278952387
30
0
41
1
10
7.61789961991667
20
-1.47290260854274
30
0
41
1
10
7.5839387285161
20
-1.47673749370153
30
0
41
1
10
7.51602675389952
20
-1.48380539461749
30
0
41
1
10
7.48206924344629
20
-1.48703481532837
30
0
41
1
10
7.38009290938572
20
-1.49576260451127
30
0
41
1
10
7.31195853103995
20
-1.50029851889829
30
0
41
1
10
7.20945688876793
20
-1.50515518910211
30
0
41
1
10
7.17523908740921
20
-1.50644950885146
30
0
41
1
10
7.10668565592482
20
-1.50838672761896
30
0
41
1
10
7.07232125377041
20
-1.50902989888158
30
0
41
1
10
6.9693859093021
20
-1.50998087858972
30
0
41
1
10
6.90091527047792
20
-1.50931583348299
30
0
41
1
10
6.76428518430419
20
-1.50543258503521
30
0
41
1
10
6.69613098111827
20
-1.50221122115795
30
0
41
1
10
6.56004285789476
20
-1.49324587971549
30
0
41
1
10
6.49211294336612
20
-1.48750643150453
30
0
41
1
10
6.35662660524454
20
-1.47343905496641
30
0
41
1
10
6.28897869764904
20
-1.46513715581008
30
0
41
1
10
6.15364550423971
20
-1.44611970641819
30
0
41
1
10
6.08597767120571
20
-1.43539782599691
30
0
41
1
10
5.95052609163258
20
-1.41163074631464
30
0
41
1
10
5.88275049351097
20
-1.39858314265285
30
0
41
1
10
5.74711652782452
20
-1.37016214240163
30
0
41
1
10
5.67926221967454
20
-1.35478436561789
30
0
41
1
10
5.5434360232297
20
-1.32170977211331
30
0
41
1
10
5.47542304845572
20
-1.30405407043153
30
0
41
1
10
5.33933831912003
20
-1.26632437268088
30
0
41
1
10
5.27129982013045
20
-1.24620277390068
30
0
41
1
10
5.13479304270737
20
-1.20387498475944
30
0
41
1
10
5.06635936413005
20
-1.18163549910761
30
0
41
1
10
4.86033960928049
20
-1.11190266848564
30
0
41
1
10
4.72330019295956
20
-1.06189446618953
30
0
41
1
10
4.51837223029818
20
-0.981787965229131
30
0
41
1
10
4.4501445502583
20
-0.954250863164731
30
0
41
1
10
4.31379735394108
20
-0.897590461513374
30
0
41
1
10
4.24575819483749
20
-0.868344045951915
30
0
41
1
10
4.10983865278314
20
-0.808152839708811
30
0
41
1
10
4.04193754176112
20
-0.777239311803527
30
0
41
1
10
3.90599292005115
20
-0.714193873174196
30
0
41
1
10
3.8379247435534
20
-0.682104281139459
30
0
41
1
10
3.63315851137321
20
-0.584653794823282
30
0
41
1
10
3.49594814115369
20
-0.518023623486755
30
0
41
1
10
3.35765741026711
20
-0.450586242264564
30
0
0
SPLINE
5
F5
100
AcDbEntity
8
1
62
256
6
ByLayer
370
18
48
1
60
0
100
AcDbSpline
70
4
71
3
72
85
73
81
40
0
40
0
40
0
40
0
40
0.0624999999999795
40
0.0624999999999795
40
0.124999999999959
40
0.124999999999959
40
0.187499999999938
40
0.187499999999938
40
0.218749999999928
40
0.218749999999928
40
0.249999999999918
40
0.249999999999918
40
0.281249999999908
40
0.281249999999908
40
0.296874999999901
40
0.296874999999901
40
0.312499999999894
40
0.312499999999894
40
0.343749999999884
40
0.343749999999884
40
0.374999999999873
40
0.374999999999873
40
0.382812499999869
40
0.382812499999869
40
0.390624999999865
40
0.406249999999858
40
0.421874999999852
40
0.421874999999852
40
0.429687499999848
40
0.429687499999848
40
0.437499999999845
40
0.468749999999831
40
0.468749999999831
40
0.484374999999825
40
0.484374999999825
40
0.499999999999818
40
0.499999999999818
40
0.507812499999814
40
0.507812499999814
40
0.51562499999981
40
0.51562499999981
40
0.531249999999804
40
0.531249999999804
40
0.56249999999979
40
0.56249999999979
40
0.593749999999775
40
0.593749999999775
40
0.624999999999761
40
0.624999999999761
40
0.687499999999728
40
0.687499999999728
40
0.71874999999971
40
0.71874999999971
40
0.749999999999692
40
0.749999999999692
40
0.765624999999683
40
0.765624999999683
40
0.769531249999679
40
0.769531249999679
40
0.771484374999679
40
0.771484374999679
40
0.773437499999679
40
0.773437499999679
40
0.775390624999679
40
0.775390624999679
40
0.777343749999679
40
0.777343749999679
40
0.781249999999683
40
0.781249999999683
40
0.789062499999693
40
0.789062499999693
40
0.796874999999702
40
0.796874999999702
40
0.812499999999725
40
0.812499999999725
40
0.874999999999817
40
0.874999999999817
40
0.937499999999908
40
0.937499999999908
40
1
40
1
40
1
40
1
41
1
10
3.35747928577837
20
-0.450497440671398
30
0
41
1
10
3.27473407855405
20
-0.409244400479196
30
0
41
1
10
3.19287654118131
20
-0.366329602407035
30
0
41
1
10
3.03123123735824
20
-0.276608067763988
30
0
41
1
10
2.95143995172458
20
-0.229808006750346
30
0
41
1
10
2.79438729937155
20
-0.131432979738236
30
0
41
1
10
2.71711738760286
20
-0.0798742109419095
30
0
41
1
10
2.60370505152665
20
0.0021815918121035
30
0
41
1
10
2.56624277847899
20
0.0303888175682232
30
0
41
1
10
2.49282612670248
20
0.0882947645274896
30
0
41
1
10
2.45685401552248
20
0.117998979445645
30
0
41
1
10
2.3866624601321
20
0.179194900394805
30
0
41
1
10
2.35244057838219
20
0.210684115241321
30
0
41
1
10
2.30272983040746
20
0.25957179399586
30
0
41
1
10
2.28639792798165
20
0.276180567178386
30
0
41
1
10
2.25454846951379
20
0.30981238439179
30
0
41
1
10
2.23903101123545
20
0.326832150010119
30
0
41
1
10
2.1938274400797
20
0.378566709263225
30
0
41
1
10
2.16547556383245
20
0.413949350558539
30
0
41
1
10
2.1132898970348
20
0.486979158231151
30
0
41
1
10
2.08944018463518
20
0.524618200004397
30
0
41
1
10
2.06343695543296
20
0.573580687080408
30
0
41
1
10
2.05842802098636
20
0.583476050627667
30
0
41
1
10
2.0489327253469
20
0.603256043486965
30
0
41
1
10
2.03543161884812
20
0.632987665844837
30
0
41
1
10
2.01679731998476
20
0.682863558147659
30
0
41
1
10
2.00643745169859
20
0.723150156963698
30
0
41
1
10
2.00057502219587
20
0.753529683823047
30
0
41
1
10
1.99894786378314
20
0.763652215818752
30
0
41
1
10
1.99638922214768
20
0.783672679997693
30
0
41
1
10
1.99170302182603
20
0.833318925281759
30
0
41
1
10
1.99552323569469
20
0.880958600424833
30
0
41
1
10
2.00837921830396
20
0.936210598978192
30
0
41
1
10
2.01397898029757
20
0.954002762963597
30
0
41
1
10
2.0274915297988
20
0.988237184069334
30
0
41
1
10
2.03541403731583
20
1.00471932087973
30
0
41
1
10
2.04889300026036
20
1.02857899201447
30
0
41
1
10
2.05365222008686
20
1.03638808721234
30
0
41
1
10
2.06368130507161
20
1.05173068082527
30
0
41
1
10
2.0689609898721
20
1.05927546220326
30
0
41
1
10
2.08537636318707
20
1.08130987616101
30
0
41
1
10
2.09712566022944
20
1.09526867817681
30
0
41
1
10
2.13445033209561
20
1.13527155325485
30
0
41
1
10
2.16208606902922
20
1.15945745094967
30
0
41
1
10
2.22163568544005
20
1.2040145391106
30
0
41
1
10
2.25370445131878
20
1.22443928785347
30
0
41
1
10
2.3200078295969
20
1.26151731386005
30
0
41
1
10
2.35436963485938
20
1.27828176092208
30
0
41
1
10
2.46030879164306
20
1.32444294126813
30
0
41
1
10
2.53470104036637
20
1.34976710765073
30
0
41
1
10
2.65020747892836
20
1.38223162036266
30
0
41
1
10
2.68941418564597
20
1.39211944693102
30
0
41
1
10
2.76860622760654
20
1.41020588289894
30
0
41
1
10
2.80863138299043
20
1.41841663174466
30
0
41
1
10
2.86922785809963
20
1.42966433247878
30
0
41
1
10
2.88952238324632
20
1.43323531204561
30
0
41
1
10
2.91498974646498
20
1.43748936608335
30
0
41
1
10
2.92009065274695
20
1.43833952557736
30
0
41
1
10
2.92815647783675
20
1.43933193673968
30
0
41
1
10
2.93087530734459
20
1.43964508701651
30
0
41
1
10
2.93643931511585
20
1.44016594966487
30
0
41
1
10
2.93923786357931
20
1.4403941687724
30
0
41
1
10
2.94486036699459
20
1.44080164440774
30
0
41
1
10
2.94768935883872
20
1.44097135075896
30
0
41
1
10
2.95339657248201
20
1.44121765533831
30
0
41
1
10
2.95627560361692
20
1.44129276666015
30
0
41
1
10
2.96491883627033
20
1.44150649737324
30
0
41
1
10
2.97077421463553
20
1.44154130582683
30
0
41
1
10
2.98816052524495
20
1.44136271687009
30
0
41
1
10
2.99952758225942
20
1.44087916431329
30
0
41
1
10
3.02187114558095
20
1.43925261423814
30
0
41
1
10
3.03281357594716
20
1.43809311683375
30
0
41
1
10
3.06557636695331
20
1.43465391740878
30
0
41
1
10
3.08737082907049
20
1.43226188187418
30
0
41
1
10
3.19609560432889
20
1.41978363805293
30
0
41
1
10
3.28227433540891
20
1.40813810973285
30
0
41
1
10
3.4528793949018
20
1.3809125824902
30
0
41
1
10
3.53737167298573
20
1.36531960188714
30
0
41
1
10
3.70482141762267
20
1.32966787598769
30
0
41
1
10
3.78768786335724
20
1.30964074087535
30
0
41
1
10
3.86987825149163
20
1.28724773345482
30
0
0
SPLINE
5
F6
100
AcDbEntity
8
1
62
256
6
ByLayer
370
18
48
1
60
0
100
AcDbSpline
70
4
71
3
72
64
73
60
40
0
40
0
40
0
40
0
40
0.0446947361692755
40
0.0446947361692755
40
0.0893894723385509
40
0.0893894723385509
40
0.111736840423189
40
0.111736840423189
40
0.134084208507826
40
0.134084208507826
40
0.156431576592464
40
0.156431576592464
40
0.178778944677102
40
0.178778944677102
40
0.223473680846375
40
0.223473680846375
40
0.268168417015648
40
0.268168417015648
40
0.290515785100285
40
0.290515785100285
40
0.312863153184922
40
0.312863153184922
40
0.357557889354195
40
0.357557889354195
40
0.402252625523468
40
0.402252625523468
40
0.446947361692742
40
0.446947361692742
40
0.491642097862015
40
0.491642097862015
40
0.536336834031288
40
0.536336834031288
40
0.558684202115926
40
0.558684202115926
40
0.581031570200564
40
0.581031570200564
40
0.603378938285202
40
0.603378938285202
40
0.625726306369839
40
0.625726306369839
40
0.670421042539115
40
0.670421042539115
40
0.71511577870839
40
0.71511577870839
40
0.759810514877666
40
0.759810514877666
40
0.804505251046941
40
0.804505251046941
40
0.826852619131579
40
0.826852619131579
40
0.849199987216216
40
0.849199987216216
40
0.893894723385492
40
0.893894723385492
40
0.938589459554767
40
0.938589459554767
40
0.983284195724043
40
0.983284195724043
40
1
40
1
40
1
40
1
41
1
10
3.8698645812151
20
1.28726142353906
30
0
41
1
10
3.98194792635911
20
1.25719523958526
30
0
41
1
10
4.09350787901116
20
1.22431691082534
30
0
41
1
10
4.31574719991542
20
1.15316924919389
30
0
41
1
10
4.42641214452752
20
1.11487519847151
30
0
41
1
10
4.5920612800461
20
1.0537793248462
30
0
41
1
10
4.64722794044695
20
1.03281644295819
30
0
41
1
10
4.7575667931975
20
0.98985238494339
30
0
41
1
10
4.81272953156798
20
0.96783908303567
30
0
41
1
10
4.9230148109018
20
0.922712781947723
30
0
41
1
10
4.97814539701548
20
0.899610625123671
30
0
41
1
10
5.08847092527787
20
0.85246715402269
30
0
41
1
10
5.14368335941828
20
0.828454686061235
30
0
41
1
10
5.30945343306215
20
0.755079122055065
30
0
41
1
10
5.42007784002303
20
0.704268889229979
30
0
41
1
10
5.64175670150448
20
0.599127258595814
30
0
41
1
10
5.75283721649606
20
0.544835615888161
30
0
41
1
10
5.9201951353553
20
0.461444732742763
30
0
41
1
10
5.97615926744456
20
0.433250313235305
30
0
41
1
10
6.08775362873763
20
0.376563541527986
30
0
41
1
10
6.14343263919824
20
0.348043715828084
30
0
41
1
10
6.31029408507149
20
0.262304645557748
30
0
41
1
10
6.4212287730403
20
0.204762482375685
30
0
41
1
10
6.6424483046066
20
0.0888334535202659
30
0
41
1
10
6.75274713177203
20
0.0304752878896011
30
0
41
1
10
6.97325221593644
20
-0.0859982324113844
30
0
41
1
10
7.0834326847972
20
-0.144164049144479
30
0
41
1
10
7.30399340535766
20
-0.259688695177687
30
0
41
1
10
7.41450886299785
20
-0.31678819641715
30
0
41
1
10
7.63590522229865
20
-0.429861739050807
30
0
41
1
10
7.74678249977214
20
-0.485841544551135
30
0
41
1
10
7.91366817306604
20
-0.568392908459174
30
0
41
1
10
7.96940029524862
20
-0.59565734552362
30
0
41
1
10
8.08112831897009
20
-0.649572383609637
30
0
41
1
10
8.1369444672948
20
-0.676166612134296
30
0
41
1
10
8.24827041907014
20
-0.728433277875325
30
0
41
1
10
8.30382062725556
20
-0.754124795328153
30
0
41
1
10
8.41480650843982
20
-0.804449901997685
30
0
41
1
10
8.47025126717699
20
-0.829070347659354
30
0
41
1
10
8.63635370815345
20
-0.901477311693924
30
0
41
1
10
8.74677636231161
20
-0.947810191485473
30
0
41
1
10
8.96725996750564
20
-1.03618711180295
30
0
41
1
10
9.07736724973611
20
-1.07816017071229
30
0
41
1
10
9.29769861436264
20
-1.15714294762245
30
0
41
1
10
9.40785962283221
20
-1.19422640544789
30
0
41
1
10
9.62887410151234
20
-1.26272699621967
30
0
41
1
10
9.73961393953812
20
-1.29429098109509
30
0
41
1
10
9.90613899090067
20
-1.33745551948371
30
0
41
1
10
9.96172030480994
20
-1.35114117575199
30
0
41
1
10
10.0730945241968
20
-1.37702505052351
30
0
41
1
10
10.1289738946452
20
-1.38923832995917
30
0
41
1
10
10.2963043003293
20
-1.42337802361442
30
0
41
1
10
10.4073349385674
20
-1.44286560619221
30
0
41
1
10
10.6288688217789
20
-1.47512091335167
30
0
41
1
10
10.7394552403052
20
-1.48786960764525
30
0
41
1
10
10.9601224444164
20
-1.50678399656707
30
0
41
1
10
11.0702188670741
20
-1.51292227150546
30
0
41
1
10
11.221472967987
20
-1.51671139619813
30
0
41
1
10
11.2626465533643
20
-1.5172706312446
30
0
41
1
10
11.303829114132
20
-1.51735703076528
30
0
0
SPLINE
5
F7
100
AcDbEntity
8
1
62
256
6
ByLayer
370
18
48
1
60
0
100
AcDbSpline
70
4
71
3
72
54
73
50
40
0
40
0
40
0
40
0
40
0.0137094765283651
40
0.0137094765283651
40
0.112338528875527
40
0.112338528875527
40
0.136995791962319
40
0.136995791962319
40
0.149324423505713
40
0.149324423505713
40
0.161653055049108
40
0.210967581222692
40
0.210967581222692
40
0.309596633569861
40
0.309596633569861
40
0.358911159743446
40
0.358911159743446
40
0.383568422830239
40
0.383568422830239
40
0.408225685917032
40
0.408225685917032
40
0.457540212090618
40
0.457540212090618
40
0.506854738264204
40
0.506854738264204
40
0.55616926443779
40
0.55616926443779
40
0.568497895981186
40
0.568497895981186
40
0.580826527524582
40
0.580826527524582
40
0.605483790611374
40
0.605483790611374
40
0.704112842958545
40
0.704112842958545
40
0.753427369132128
40
0.753427369132128
40
0.778084632218919
40
0.790413263762315
40
0.790413263762315
40
0.80274189530571
40
0.80274189530571
40
0.852056421479283
40
0.852056421479283
40
0.901370947652855
40
0.901370947652855
40
0.950685473826428
40
0.950685473826428
40
1
40
1
40
1
40
1
41
1
10
19.9763279137337
20
1.51680966331699
30
0
41
1
10
20.0193475899718
20
1.52021640511865
30
0
41
1
10
20.0623459508735
20
1.52310981192909
30
0
41
1
10
20.4145872361355
20
1.54260256172085
30
0
41
1
10
20.7231854628255
20
1.53306073180505
30
0
41
1
10
21.1126087577475
20
1.48750020106689
30
0
41
1
10
21.1906776862887
20
1.47670857222883
30
0
41
1
10
21.3081411827786
20
1.4579990555377
30
0
41
1
10
21.3473376150083
20
1.45134404867764
30
0
41
1
10
21.4255313144278
20
1.43725902634134
30
0
41
1
10
21.6207201583758
20
1.40007821121009
30
0
41
1
10
21.8146177606367
20
1.35324899438936
30
0
41
1
10
22.2789163009961
20
1.22392628399086
30
0
41
1
10
22.5870534071469
20
1.1151475094205
30
0
41
1
10
23.0523966358901
20
0.924394399774883
30
0
41
1
10
23.2080402565535
20
0.856224506708173
30
0
41
1
10
23.4429707349965
20
0.747916146617314
30
0
41
1
10
23.5210986017703
20
0.711000306874553
30
0
41
1
10
23.6768717375587
20
0.635870436990842
30
0
41
1
10
23.7545556855681
20
0.597638753314101
30
0
41
1
10
23.9871807072914
20
0.481278736609482
30
0
41
1
10
24.1416969270128
20
0.401488451346893
30
0
41
1
10
24.4505440954765
20
0.239245836291957
30
0
41
1
10
24.6048807025151
20
0.156805186221845
30
0
41
1
10
24.9141912186333
20
-0.0091927781606671
30
0
41
1
10
25.0691594240762
20
-0.0927617838994195
30
0
41
1
10
25.2638365564563
20
-0.196854081922481
30
0
41
1
10
25.3028206349269
20
-0.217653470900558
30
0
41
1
10
25.3809015502513
20
-0.259184871192048
30
0
41
1
10
25.4200249901414
20
-0.279930916953134
30
0
41
1
10
25.5374090008871
20
-0.341928729703767
30
0
41
1
10
25.6154154759049
20
-0.382798411639385
30
0
41
1
10
26.0045097068469
20
-0.584317662925486
30
0
41
1
10
26.3127883115042
20
-0.736480151419755
30
0
41
1
10
26.7758258718769
20
-0.942738167644336
30
0
41
1
10
26.9302865577011
20
-1.0078062987252
30
0
41
1
10
27.1628336201223
20
-1.09877664885386
30
0
41
1
10
27.2793215342443
20
-1.1426035016014
30
0
41
1
10
27.3962683209957
20
-1.18372641456301
30
0
41
1
10
27.4743506799963
20
-1.21051634141176
30
0
41
1
10
27.5134940750979
20
-1.2236124450213
30
0
41
1
10
27.7088387962498
20
-1.28724188479757
30
0
41
1
10
27.8640827903278
20
-1.33227958214675
30
0
41
1
10
28.173462293048
20
-1.41008132615147
30
0
41
1
10
28.3275784744486
20
-1.44286739453148
30
0
41
1
10
28.6354840915212
20
-1.49576000545454
30
0
41
1
10
28.7892759428915
20
-1.51585975504867
30
0
41
1
10
29.0974603714575
20
-1.54288289143935
30
0
41
1
10
29.2518615850647
20
-1.54980989513717
30
0
41
1
10
29.4069808571186
20
-1.54994012384259
30
0
0
SPLINE
5
F8
100
AcDbEntity
8
1
62
256
6
ByLayer
370
18
48
1
60
0
100
AcDbSpline
70
4
71
3
72
8
73
4
40
0
40
0
40
0
40
0
40
1
40
1
40
1
40
1
41
1
10
29.3970677744925
20
-1.54090077957537
30
0
41
1
10
29.4003641084956
20
-1.54701327978881
30
0
41
1
10
29.4036810639871
20
-1.55003477884307
30
0
41
1
10
29.4069808571297
20
-1.54994012384259
30
0
0
SPLINE
5
F9
100
AcDbEntity
8
1
62
256
6
ByLayer
370
18
48
1
60
0
100
AcDbSpline
70
4
71
3
72
61
73
57
40
0
40
0
40
0
40
0
40
0.0533148518139087
40
0.0533148518139087
40
0.106629703627817
40
0.106629703627817
40
0.159944555441726
40
0.159944555441726
40
0.186601981348681
40
0.186601981348681
40
0.19993069430216
40
0.19993069430216
40
0.213259407255639
40
0.213259407255639
40
0.319889110883475
40
0.319889110883475
40
0.346546536790435
40
0.346546536790435
40
0.373203962697395
40
0.373203962697395
40
0.399861388604355
40
0.399861388604355
40
0.426518814511314
40
0.426518814511314
40
0.479833666325236
40
0.479833666325236
40
0.533148518139158
40
0.533148518139158
40
0.559805944046119
40
0.559805944046119
40
0.586463369953079
40
0.586463369953079
40
0.639778221767001
40
0.639778221767001
40
0.653106934720483
40
0.653106934720483
40
0.666435647673965
40
0.666435647673965
40
0.693093073580929
40
0.693093073580929
40
0.746407925394856
40
0.746407925394856
40
0.799722777208783
40
0.799722777208783
40
0.826380203115746
40
0.826380203115746
40
0.853037629022708
40
0.853037629022708
40
0.879695054929671
40
0.893023767883151
40
0.893023767883151
40
0.906352480836632
40
0.906352480836632
40
0.959667332650555
40
0.959667332650555
40
1
40
1
40
1
40
1
41
1
10
29.3970677745046
20
-1.54090077957511
30
0
41
1
10
29.2421960721134
20
-1.53155449664055
30
0
41
1
10
29.0880160217115
20
-1.51545738444722
30
0
41
1
10
28.7801227400663
20
-1.47049168187292
30
0
41
1
10
28.62641911706
20
-1.44162379171874
30
0
41
1
10
28.3187351829883
20
-1.3717104040235
30
0
41
1
10
28.1647487208198
20
-1.33066133482143
30
0
41
1
10
27.932843278578
20
-1.26050498635271
30
0
41
1
10
27.8553885522962
20
-1.23569176453114
30
0
41
1
10
27.7389877965039
20
-1.19626783133845
30
0
41
1
10
27.7001510713084
20
-1.18275808860633
30
0
41
1
10
27.6223673960711
20
-1.15503748095733
30
0
41
1
10
27.5834683628473
20
-1.14084326686714
30
0
41
1
10
27.2340752054295
20
-1.01064620697846
30
0
41
1
10
26.9265081887434
20
-0.876844587773633
30
0
41
1
10
26.5416030215333
20
-0.69418473670936
30
0
41
1
10
26.4645985839363
20
-0.65688442688645
30
0
41
1
10
26.3105190795114
20
-0.580777882780922
30
0
41
1
10
26.2334455610462
20
-0.541966823326504
30
0
41
1
10
26.0790340193789
20
-0.463161098186305
30
0
41
1
10
26.0016954740559
20
-0.42316856527674
30
0
41
1
10
25.8466490265562
20
-0.342179735344644
30
0
41
1
10
25.7689119141949
20
-0.301168859333927
30
0
41
1
10
25.5351635055003
20
-0.176993606090832
30
0
41
1
10
25.3803639165187
20
-0.093529980233086
30
0
41
1
10
25.0717909882088
20
0.0727871394647366
30
0
41
1
10
24.9179760960893
20
0.155561832931426
30
0
41
1
10
24.6873211280545
20
0.277964203358749
30
0
41
1
10
24.6104476401074
20
0.318472606132815
30
0
41
1
10
24.4566986780184
20
0.398855991437614
30
0
41
1
10
24.3798240852204
20
0.438731736834967
30
0
41
1
10
24.1488917267116
20
0.55683884666874
30
0
41
1
10
23.9945248126019
20
0.633550855953899
30
0
41
1
10
23.8005060813009
20
0.7259085621358
30
0
41
1
10
23.7616488740022
20
0.744202718889966
30
0
41
1
10
23.6838250455036
20
0.78043053501213
30
0
41
1
10
23.6448168960535
20
0.798383059278621
30
0
41
1
10
23.5279824462222
20
0.85152188873036
30
0
41
1
10
23.4503674667411
20
0.885983045306546
30
0
41
1
10
23.2180305847448
20
0.98600811881343
30
0
41
1
10
23.0638186985854
20
1.0482262838332
30
0
41
1
10
22.7558892229331
20
1.16275165853327
30
0
41
1
10
22.6021646869554
20
1.21505111236212
30
0
41
1
10
22.3713374503764
20
1.2853740038029
30
0
41
1
10
22.2943561011506
20
1.30746244357215
30
0
41
1
10
22.1402600315961
20
1.34885373730316
30
0
41
1
10
22.0631465487661
20
1.36815463660193
30
0
41
1
10
21.9085790113016
20
1.40374848352692
30
0
41
1
10
21.7923961448489
20
1.42819003478499
30
0
41
1
10
21.6757213312844
20
1.44914023010838
30
0
41
1
10
21.5978163947266
20
1.46231756043582
30
0
41
1
10
21.5587723800103
20
1.46851542829017
30
0
41
1
10
21.364000112403
20
1.49738675575094
30
0
41
1
10
21.2091304518428
20
1.51381517693596
30
0
41
1
10
20.9379848448268
20
1.53095713237258
30
0
41
1
10
20.8214697595537
20
1.53451868267081
30
0
41
1
10
20.7050389582108
20
1.53427899875359
30
0
0
SPLINE
5
FA
100
AcDbEntity
8
1
62
256
6
ByLayer
370
18
48
1
60
0
100
AcDbSpline
70
4
71
3
72
13
73
9
40
0
40
0
40
0
40
0
40
0.414129791366954
40
0.414129791366954
40
0.560597343525216
40
0.560597343525216
40
0.707064895683478
40
1
40
1
40
1
40
1
41
1
10
14.5026766006055
20
-1.52311891756477
30
0
41
1
10
14.502680187741
20
-1.52315228501266
30
0
41
1
10
14.5026836001169
20
-1.52032510748933
30
0
41
1
10
14.5026879705877
20
-1.51254342410036
30
0
41
1
10
14.5026890908524
20
-1.51013820843184
30
0
41
1
10
14.5026912730985
20
-1.50460434414924
30
0
41
1
10
14.5026944571822
20
-1.49522706671937
30
0
41
1
10
14.5026973685207
20
-1.48264737929625
30
0
41
1
10
14.5026991794117
20
-1.47283854310808
30
0
0
SPLINE
5
FB
100
AcDbEntity
8
1
62
256
6
ByLayer
370
18
48
1
60
0
100
AcDbSpline
70
4
71
3
72
8
73
4
40
0
40
0
40
0
40
0
40
1
40
1
40
1
40
1
41
1
10
14.5026991794116
20
-1.47283854310919
30
0
41
1
10
14.5026992553041
20
-1.47242746547519
30
0
41
1
10
14.5029188245891
20
-1.47202181788302
30
0
41
1
10
14.5033385655963
20
-1.47162115605323
30
0
0
SPLINE
5
FC
100
AcDbEntity
8
1
62
256
6
ByLayer
370
18
48
1
60
0
100
AcDbSpline
70
4
71
3
72
28
73
24
40
0
40
0
40
0
40
0
40
0.12500000000002
40
0.12500000000002
40
0.187500000000057
40
0.187500000000057
40
0.250000000000094
40
0.250000000000094
40
0.375000000000168
40
0.375000000000168
40
0.500000000000243
40
0.500000000000243
40
0.562500000000226
40
0.562500000000226
40
0.62500000000021
40
0.62500000000021
40
0.750000000000177
40
0.750000000000177
40
0.812500000000161
40
0.812500000000161
40
0.875000000000145
40
0.875000000000145
40
1
40
1
40
1
40
1
41
1
10
14.503338565597
20
-1.47162115605266
30
0
41
1
10
14.5052921459545
20
-1.46975637499185
30
0
41
1
10
14.5080969564533
20
-1.46788093045777
30
0
41
1
10
14.5133599535334
20
-1.46520784667334
30
0
41
1
10
14.5152969332816
20
-1.46433421382298
30
0
41
1
10
14.5195412338113
20
-1.46262621045182
30
0
41
1
10
14.5218652988367
20
-1.46178678454595
30
0
41
1
10
14.5292666207952
20
-1.45938551154117
30
0
41
1
10
14.5347649862602
20
-1.45793428657603
30
0
41
1
10
14.5468780647077
20
-1.45536326147743
30
0
41
1
10
14.5535018645201
20
-1.45425125208422
30
0
41
1
10
14.5637966436862
20
-1.45294319071167
30
0
41
1
10
14.5673078418365
20
-1.4525630348997
30
0
41
1
10
14.5744916721045
20
-1.45191888954969
30
0
41
1
10
14.5781883439657
20
-1.45165392761712
30
0
41
1
10
14.5893004043945
20
-1.45105632703772
30
0
41
1
10
14.596754217403
20
-1.45091351250505
30
0
41
1
10
14.6080029186046
20
-1.45108254295167
30
0
41
1
10
14.6117876536487
20
-1.45120475741493
30
0
41
1
10
14.6192257305358
20
-1.45157476338471
30
0
41
1
10
14.6228850432935
20
-1.45182167430002
30
0
41
1
10
14.6336880174721
20
-1.45274104634836
30
0
41
1
10
14.6406982729561
20
-1.453597057211
30
0
41
1
10
14.6473675416504
20
-1.4546768823528
30
0
0
SPLINE
5
FD
100
AcDbEntity
8
1
62
256
6
ByLayer
370
18
48
1
60
0
100
AcDbSpline
70
4
71
3
72
10
73
6
40
0
40
0
40
0
40
0
40
0.534045225719722
40
0.534045225719722
40
1
40
1
40
1
40
1
41
1
10
14.6473675416503
20
-1.4546768823528
30
0
41
1
10
14.8017937037292
20
-1.47968011134415
30
0
41
1
10
14.9557710399852
20
-1.49781417866208
30
0
41
1
10
15.2437072845048
20
-1.51954370792674
30
0
41
1
10
15.3776677710098
20
-1.52471125598572
30
0
41
1
10
15.5115396742756
20
-1.5249316221047
30
0
0
SPLINE
5
FE
100
AcDbEntity
8
1
62
256
6
ByLayer
370
18
48
1
60
0
100
AcDbSpline
70
4
71
3
72
45
73
41
40
0
40
0
40
0
40
0
40
0.0060036591400158
40
0.0060036591400158
40
0.0457635127744116
40
0.0457635127744116
40
0.125283220043204
40
0.125283220043204
40
0.165043073677601
40
0.165043073677601
40
0.204802927311998
40
0.204802927311998
40
0.284322634580793
40
0.284322634580793
40
0.324082488215191
40
0.324082488215191
40
0.363842341849588
40
0.363842341849588
40
0.443362049118386
40
0.443362049118386
40
0.483121902752786
40
0.483121902752786
40
0.522881756387186
40
0.522881756387186
40
0.562641610021587
40
0.562641610021587
40
0.602401463655987
40
0.602401463655987
40
0.681921170924793
40
0.681921170924793
40
0.721681024559193
40
0.721681024559193
40
0.761440878193593
40
0.840960585462399
40
0.840960585462399
40
0.880720439096799
40
0.880720439096799
40
0.9204802927312
40
0.9204802927312
40
1
40
1
40
1
40
1
41
1
10
23.6034594394959
20
1.46255052227272
30
0
41
1
10
23.6149746354149
20
1.4645137634181
30
0
41
1
10
23.6264908316829
20
1.46644044599245
30
0
41
1
10
23.7142864620705
20
1.48084531551905
30
0
41
1
10
23.7906190144716
20
1.49175570344101
30
0
41
1
10
24.0199439627849
20
1.51964971811117
30
0
41
1
10
24.173187373905
20
1.53186793327768
30
0
41
1
10
24.4036378414978
20
1.54036285945529
30
0
41
1
10
24.4805874893601
20
1.54153622021394
30
0
41
1
10
24.6350502013874
20
1.54051505729839
30
0
41
1
10
24.7126385343907
20
1.53831521348641
30
0
41
1
10
24.944372877612
20
1.52677385832297
30
0
41
1
10
25.0980205892101
20
1.51252563938428
30
0
41
1
10
25.3272835960107
20
1.48133550878194
30
0
41
1
10
25.403549380591
20
1.46930794173971
30
0
41
1
10
25.5562207243416
20
1.44229319012641
30
0
41
1
10
25.6325994556984
20
1.42729951229614
30
0
41
1
10
25.8618670375923
20
1.37795373982294
30
0
41
1
10
26.0148106893227
20
1.33922581094734
30
0
41
1
10
26.2440792777305
20
1.27175318210976
30
0
41
1
10
26.3205207548706
20
1.2477195902791
30
0
41
1
10
26.4739491004521
20
1.19710860844316
30
0
41
1
10
26.5509121888856
20
1.17051463066804
30
0
41
1
10
26.7053574576709
20
1.114782130523
30
0
41
1
10
26.782929899114
20
1.08560509983033
30
0
41
1
10
26.9373586861634
20
1.02524943714019
30
0
41
1
10
27.0143627528105
20
0.994019796491472
30
0
41
1
10
27.2448326947654
20
0.897334155100765
30
0
41
1
10
27.3977458206095
20
0.828866641659914
30
0
41
1
10
27.6265192632791
20
0.720934988788372
30
0
41
1
10
27.7026897786469
20
0.684103381634998
30
0
41
1
10
27.8551305226955
20
0.609199266000843
30
0
41
1
10
28.0839184237602
20
0.494949691553899
30
0
41
1
10
28.3133578182253
20
0.375524295512463
30
0
41
1
10
28.5438149418914
20
0.253674637598948
30
0
41
1
10
28.6208044712539
20
0.212655810946785
30
0
41
1
10
28.7751941823255
20
0.129924186670394
30
0
41
1
10
28.8526450041655
20
0.0881829931498146
30
0
41
1
10
29.0843774383227
20
-0.0371218510109657
30
0
41
1
10
29.2384737292655
20
-0.120994608098897
30
0
41
1
10
29.3926895268017
20
-0.204254125347802
30
0
0
SPLINE
5
FF
100
AcDbEntity
8
1
62
256
6
ByLayer
370
18
48
1
60
0
100
AcDbSpline
70
4
71
3
72
8
73
4
40
0
40
0
40
0
40
0
40
1
40
1
40
1
40
1
41
1
10
29.3926895267935
20
-0.20425412534604
30
0
41
1
10
29.3989594867261
20
-0.136473956520945
30
0
41
1
10
29.4065585030364
20
-0.0684584415955953
30
0
41
1
10
29.4158711505402
20
-0.0002527003788373
30
0
0
SPLINE
5
100
100
AcDbEntity
8
1
62
256
6
ByLayer
370
18
48
1
60
0
100
AcDbSpline
70
4
71
3
72
50
73
46
40
0
40
0
40
0
40
0
40
0.0226101094228113
40
0.0226101094228113
40
0.0452202188456226
40
0.0452202188456226
40
0.0904404376912523
40
0.0904404376912523
40
0.180880875382519
40
0.180880875382519
40
0.226101094228152
40
0.226101094228152
40
0.271321313073785
40
0.271321313073785
40
0.316541531919419
40
0.316541531919419
40
0.361761750765052
40
0.361761750765052
40
0.406981969610686
40
0.406981969610686
40
0.452202188456319
40
0.452202188456319
40
0.497422407301952
40
0.497422407301952
40
0.542642626147586
40
0.542642626147586
40
0.633083063838852
40
0.633083063838852
40
0.678303282684482
40
0.678303282684482
40
0.723523501530111
40
0.723523501530111
40
0.768743720375741
40
0.768743720375741
40
0.813963939221371
40
0.813963939221371
40
0.859184158067001
40
0.859184158067001
40
0.904404376912631
40
0.904404376912631
40
0.94962459575826
40
0.94962459575826
40
0.99484481460389
40
0.99484481460389
40
1
40
1
40
1
40
1
41
1
10
29.4158711505402
20
-0.0002527003788657
30
0
41
1
10
29.381976724399
20
0.0180934799182921
30
0
41
1
10
29.3481199174293
20
0.0364310579614369
30
0
41
1
10
29.2805181818888
20
0.0731590374130064
30
0
41
1
10
29.2467737722255
20
0.091550158152387
30
0
41
1
10
29.1456170957859
20
0.146625714086468
30
0
41
1
10
29.0782568412146
20
0.183165838466692
30
0
41
1
10
28.8762222694635
20
0.291917119659217
30
0
41
1
10
28.7415224815916
20
0.363130387726699
30
0
41
1
10
28.5393290587628
20
0.46782138549446
30
0
41
1
10
28.4719194574415
20
0.502384478897312
30
0
41
1
10
28.337004029695
20
0.570708286051655
30
0
41
1
10
28.2694648923464
20
0.604411305804518
30
0
41
1
10
28.1344243254494
20
0.671239019931505
30
0
41
1
10
28.066871593555
20
0.704271256244311
30
0
41
1
10
27.9313764763621
20
0.769003848993179
30
0
41
1
10
27.8634645284679
20
0.800757372555324
30
0
41
1
10
27.7271853254959
20
0.862823948511817
30
0
41
1
10
27.6587556971586
20
0.89316774501475
30
0
41
1
10
27.5224502257171
20
0.952003685519685
30
0
41
1
10
27.4544616911218
20
0.980557213099672
30
0
41
1
10
27.318781809206
20
1.03591184634482
30
0
41
1
10
27.2510630131068
20
1.06267344694825
30
0
41
1
10
27.1158952440812
20
1.11441414110706
30
0
41
1
10
27.0485285947421
20
1.13949764480404
30
0
41
1
10
26.8464978437512
20
1.21160025476658
30
0
41
1
10
26.7118983167761
20
1.25548598705299
30
0
41
1
10
26.5096198372299
20
1.31462359846518
30
0
41
1
10
26.4421509917906
20
1.33324425115237
30
0
41
1
10
26.3071236671768
20
1.36829299067759
30
0
41
1
10
26.2395705196989
20
1.3847239110554
30
0
41
1
10
26.1042661021826
20
1.4152757055007
30
0
41
1
10
26.0365621072408
20
1.42943732649147
30
0
41
1
10
25.9010506707389
20
1.45546529938579
30
0
41
1
10
25.8331566228261
20
1.46726811716718
30
0
41
1
10
25.6969331583824
20
1.4883353575174
30
0
41
1
10
25.6285338562298
20
1.49760700547984
30
0
41
1
10
25.4922103480817
20
1.51346429834902
30
0
41
1
10
25.4241808727064
20
1.52007698445928
30
0
41
1
10
25.2883941803851
20
1.53072419095122
30
0
41
1
10
25.2206397197652
20
1.53475765346084
30
0
41
1
10
25.085343644615
20
1.54024768637856
30
0
41
1
10
25.0177626974024
20
1.5417042672635
30
0
41
1
10
24.9426646799799
20
1.54189137043875
30
0
41
1
10
24.9349812787586
20
1.54189360001951
30
0
41
1
10
24.9272993949312
20
1.541878925605
30
0
0
SPLINE
5
101
100
AcDbEntity
8
1
62
256
6
ByLayer
370
18
48
1
60
0
100
AcDbSpline
70
4
71
3
72
118
73
114
40
0
40
0
40
0
40
0
40
0.0141940439494188
40
0.0141940439494188
40
0.0320257133056008
40
0.0320257133056008
40
0.0676890520179649
40
0.0676890520179649
40
0.076604886696057
40
0.076604886696057
40
0.0855207213741491
40
0.0855207213741491
40
0.103352390730335
40
0.103352390730335
40
0.139015729442706
40
0.139015729442706
40
0.156847398798891
40
0.156847398798891
40
0.174679068155076
40
0.174679068155076
40
0.192510737511261
40
0.192510737511261
40
0.210342406867445
40
0.210342406867445
40
0.22817407622363
40
0.22817407622363
40
0.246005745579815
40
0.246005745579815
40
0.263837414936
40
0.263837414936
40
0.281669084292185
40
0.281669084292185
40
0.29950075364837
40
0.29950075364837
40
0.317332423004555
40
0.317332423004555
40
0.352995761716926
40
0.352995761716926
40
0.370827431073111
40
0.370827431073111
40
0.388659100429297
40
0.388659100429297
40
0.424322439141667
40
0.424322439141667
40
0.442154108497852
40
0.442154108497852
40
0.451069943175946
40
0.451069943175946
40
0.459985777854039
40
0.459985777854039
40
0.477817447210226
40
0.477817447210226
40
0.495649116566413
40
0.495649116566413
40
0.5134807859226
40
0.5134807859226
40
0.531312455278787
40
0.531312455278787
40
0.549144124634974
40
0.549144124634974
40
0.566975793991161
40
0.566975793991161
40
0.584807463347348
40
0.584807463347348
40
0.602639132703534
40
0.602639132703534
40
0.620470802059721
40
0.620470802059721
40
0.629386636737815
40
0.629386636737815
40
0.638302471415908
40
0.638302471415908
40
0.656134140772095
40
0.656134140772095
40
0.673965810128282
40
0.673965810128282
40
0.709629148840655
40
0.709629148840655
40
0.72746081819684
40
0.72746081819684
40
0.745292487553027
40
0.745292487553027
40
0.763124156909213
40
0.763124156909213
40
0.780955826265399
40
0.780955826265399
40
0.798787495621585
40
0.798787495621585
40
0.816619164977771
40
0.816619164977771
40
0.834450834333957
40
0.834450834333957
40
0.852282503690143
40
0.852282503690143
40
0.87011417304633
40
0.87011417304633
40
0.887945842402516
40
0.887945842402516
40
0.923609181114889
40
0.923609181114889
40
0.941440850471077
40
0.941440850471077
40
0.950356685149171
40
0.950356685149171
40
0.959272519827265
40
0.959272519827265
40
0.977104189183452
40
0.977104189183452
40
0.986020023861546
40
0.986020023861546
40
0.99493585853964
40
0.99493585853964
40
1
40
1
40
1
40
1
41
1
10
18.4058304772
20
-0.999734159326181
30
0
41
1
10
18.3521516849023
20
-1.02153427141485
30
0
41
1
10
18.2985103866703
20
-1.04287077642206
30
0
41
1
10
18.1773276229826
20
-1.08961885726268
30
0
41
1
10
18.1097816311843
20
-1.1147254986862
30
0
41
1
10
17.9067486008846
20
-1.18705633541575
30
0
41
1
10
17.7708431516151
20
-1.23128118478735
30
0
41
1
10
17.6002736969143
20
-1.28152388677515
30
0
41
1
10
17.5661249680714
20
-1.29131882651546
30
0
41
1
10
17.4977396921261
20
-1.31037779931359
30
0
41
1
10
17.4634670530671
20
-1.31964600644056
30
0
41
1
10
17.3608096204488
20
-1.34658324202044
30
0
41
1
10
17.2926620331903
20
-1.36345172383386
30
0
41
1
10
17.0887063275176
20
-1.41040897880654
30
0
41
1
10
16.9532122661366
20
-1.43671304768682
30
0
41
1
10
16.7501117839771
20
-1.46859976486672
30
0
41
1
10
16.6824530240808
20
-1.47798095195677
30
0
41
1
10
16.547224661146
20
-1.49426995586509
30
0
41
1
10
16.4796600589211
20
-1.50117755072023
30
0
41
1
10
16.3445285237715
20
-1.51247683727743
30
0
41
1
10
16.2769662254738
20
-1.5168754062714
30
0
41
1
10
16.1419893672578
20
-1.52315060283516
30
0
41
1
10
16.0744848081686
20
-1.5250032361958
30
0
41
1
10
15.9392159063538
20
-1.52611165923511
30
0
41
1
10
15.8714691316031
20
-1.52537065930721
30
0
41
1
10
15.7356377586215
20
-1.52131574863577
30
0
41
1
10
15.6675612164703
20
-1.51800400692596
30
0
41
1
10
15.531098401166
20
-1.50879882913063
30
0
41
1
10
15.4627020438234
20
-1.50290161665322
30
0
41
1
10
15.3256152565951
20
-1.48849275734366
30
0
41
1
10
15.2572397856386
20
-1.48003915336284
30
0
41
1
10
15.1209641780057
20
-1.46058055478485
30
0
41
1
10
15.053092485941
20
-1.4495487265508
30
0
41
1
10
14.9174599127578
20
-1.42513613594841
30
0
41
1
10
14.8497325660167
20
-1.41173981597768
30
0
41
1
10
14.6466351576741
20
-1.36817927270147
30
0
41
1
10
14.5113205733247
20
-1.33469248860956
30
0
41
1
10
14.308484875815
20
-1.2779016665173
30
0
41
1
10
14.2408849383763
20
-1.25788310410525
30
0
41
1
10
14.1056375828357
20
-1.21573520838248
30
0
41
1
10
14.0380804858496
20
-1.1935018922583
30
0
41
1
10
13.8352691205242
20
-1.12364183819332
30
0
41
1
10
13.6996592725749
20
-1.07312541449662
30
0
41
1
10
13.4950751083955
20
-0.99223816992378
30
0
41
1
10
13.4267027849601
20
-0.964401754318573
30
0
41
1
10
13.3238821693783
20
-0.921309954232044
30
0
41
1
10
13.2895680462611
20
-0.906725598759181
30
0
41
1
10
13.2211021411861
20
-0.877226393685817
30
0
41
1
10
13.186917738607
20
-0.862299530950395
30
0
41
1
10
13.0844812676804
20
-0.817037094156916
30
0
41
1
10
13.0163540676986
20
-0.786207691909141
30
0
41
1
10
12.8805726998492
20
-0.722987975783241
30
0
41
1
10
12.812829703497
20
-0.690747526643179
30
0
41
1
10
12.6774085084553
20
-0.625415600309907
30
0
41
1
10
12.6097478956982
20
-0.592294018230206
30
0
41
1
10
12.4744109344851
20
-0.525359479349135
30
0
41
1
10
12.4067425102144
20
-0.491533115260495
30
0
41
1
10
12.2714198876115
20
-0.423143854981873
30
0
41
1
10
12.2037697046825
20
-0.388573235543419
30
0
41
1
10
12.0684496418473
20
-0.318754915419703
30
0
41
1
10
12.000739712443
20
-0.283583284531574
30
0
41
1
10
11.8653516442368
20
-0.212456680787
30
0
41
1
10
11.7977132052641
20
-0.176422205213186
30
0
41
1
10
11.6621117506341
20
-0.104239070126141
30
0
41
1
10
11.5941813901397
20
-0.0680288308655008
30
0
41
1
10
11.4579451493638
20
0.00439900980939
30
0
41
1
10
11.3896300427646
20
0.04059744008444
30
0
41
1
10
11.2868625690406
20
0.0948740285744805
30
0
41
1
10
11.2525264295884
20
0.112980373111441
30
0
41
1
10
11.1839368426333
20
0.149098731200837
30
0
41
1
10
11.1496891960191
20
0.167105792092741
30
0
41
1
10
11.0470824310699
20
0.220962649753346
30
0
41
1
10
10.9788539012187
20
0.256636728870433
30
0
41
1
10
10.8426761093029
20
0.327390609493193
30
0
41
1
10
10.7748176927789
20
0.362646095920184
30
0
41
1
10
10.5715876140482
20
0.467364642308496
30
0
41
1
10
10.4363534489381
20
0.535390467943984
30
0
41
1
10
10.233309888205
20
0.633817967602909
30
0
41
1
10
10.1656141578914
20
0.666057937809001
30
0
41
1
10
10.0302044712682
20
0.729421812876524
30
0
41
1
10
9.96249505170425
20
0.760552450889065
30
0
41
1
10
9.82697108944828
20
0.821542465021253
30
0
41
1
10
9.75915279780702
20
0.851398252000735
30
0
41
1
10
9.6235651856137
20
0.910064886510696
30
0
41
1
10
9.55570712812556
20
0.93873015038136
30
0
41
1
10
9.41961846889723
20
0.994335932795423
30
0
41
1
10
9.3514078713479
20
1.02130838774446
30
0
41
1
10
9.21453888217184
20
1.07342086656169
30
0
41
1
10
9.1457732673199
20
1.09861234511544
30
0
41
1
10
9.0087226238613
20
1.14688571322583
30
0
41
1
10
8.94037372116642
20
1.17000148256778
30
0
41
1
10
8.80398374970986
20
1.21415811150703
30
0
41
1
10
8.73590166007102
20
1.23515243987882
30
0
41
1
10
8.60010488757712
20
1.2751390792167
30
0
41
1
10
8.53242324911474
20
1.2941551944763
30
0
41
1
10
8.39706305970728
20
1.3297826229699
30
0
41
1
10
8.32941824965783
20
1.34643349993087
30
0
41
1
10
8.12641207695472
20
1.39279393096911
30
0
41
1
10
7.99094630483683
20
1.41891264383301
30
0
41
1
10
7.78757989704587
20
1.45099399169035
30
0
41
1
10
7.71975314453064
20
1.46049278952401
30
0
41
1
10
7.61789961991562
20
1.47290260854285
30
0
41
1
10
7.58393872851505
20
1.47673749370165
30
0
41
1
10
7.51602675389847
20
1.48380539461761
30
0
41
1
10
7.48206924344521
20
1.48703481532846
30
0
41
1
10
7.38009290938462
20
1.49576260451136
30
0
41
1
10
7.31195853103884
20
1.50029851889835
30
0
41
1
10
7.20945688876682
20
1.50515518910217
30
0
41
1
10
7.1752390874081
20
1.50644950885149
30
0
41
1
10
7.10668565592374
20
1.50838672761898
30
0
41
1
10
7.07232125376927
20
1.50902989888158
30
0
41
1
10
7.0185205829618
20
1.50952694240425
30
0
41
1
10
6.99904402763795
20
1.50960222017787
30
0
41
1
10
6.97957986750251
20
1.50957323972537
30
0
0
SPLINE
5
102
100
AcDbEntity
8
1
62
256
6
ByLayer
370
18
48
1
60
0
100
AcDbSpline
70
4
71
3
72
51
73
47
40
0
40
0
40
0
40
0
40
0.0080288368142513
40
0.0080288368142513
40
0.0700270345133639
40
0.0700270345133639
40
0.132025232212476
40
0.132025232212476
40
0.163024331062033
40
0.163024331062033
40
0.194023429911589
40
0.194023429911589
40
0.256021627610698
40
0.256021627610698
40
0.318019825309807
40
0.318019825309807
40
0.380018023008917
40
0.380018023008917
40
0.442016220708026
40
0.442016220708026
40
0.473015319557581
40
0.473015319557581
40
0.504014418407135
40
0.504014418407135
40
0.566012616106242
40
0.566012616106242
40
0.58151216553102
40
0.58151216553102
40
0.597011714955798
40
0.628010813805354
40
0.628010813805354
40
0.690009011504463
40
0.690009011504463
40
0.752007209203572
40
0.752007209203572
40
0.814005406902681
40
0.814005406902681
40
0.876003604601791
40
0.876003604601791
40
0.9380018023009
40
0.9380018023009
40
0.953501351725676
40
0.953501351725676
40
0.969000901150452
40
0.969000901150452
40
1
40
1
40
1
40
1
41
1
10
9.14473570940456
20
1.10218474198103
30
0
41
1
10
9.15900075020869
20
1.10738158114859
30
0
41
1
10
9.17326635142848
20
1.11253737963889
30
0
41
1
10
9.29769861436262
20
1.15714294762245
30
0
41
1
10
9.40785962283218
20
1.19422640544786
30
0
41
1
10
9.62887410151234
20
1.26272699621967
30
0
41
1
10
9.73961393953812
20
1.29429098109509
30
0
41
1
10
9.90613899090067
20
1.33745551948371
30
0
41
1
10
9.96172030480992
20
1.35114117575199
30
0
41
1
10
10.0730945241967
20
1.37702505052351
30
0
41
1
10
10.1289738946452
20
1.38923832995917
30
0
41
1
10
10.2963043003293
20
1.42337802361442
30
0
41
1
10
10.4073349385674
20
1.44286560619221
30
0
41
1
10
10.6288688217789
20
1.47512091335167
30
0
41
1
10
10.7394552403052
20
1.48786960764525
30
0
41
1
10
10.9601224444164
20
1.50678399656707
30
0
41
1
10
11.0702188670741
20
1.51292227150546
30
0
41
1
10
11.2903850498111
20
1.51843773928098
30
0
41
1
10
11.4004865563568
20
1.51781993135595
30
0
41
1
10
11.5658499357429
20
1.51181041553542
30
0
41
1
10
11.6210128553312
20
1.50895905330302
30
0
41
1
10
11.7315348708956
20
1.50158634307166
30
0
41
1
10
11.7868833417527
20
1.49706538811284
30
0
41
1
10
11.9531185883299
20
1.48096176304935
30
0
41
1
10
12.0642078006766
20
1.46683641283536
30
0
41
1
10
12.2036061951812
20
1.44489373139746
30
0
41
1
10
12.2315309419354
20
1.44028858214048
30
0
41
1
10
12.2872883097014
20
1.43068191647473
30
0
41
1
10
12.3708319163134
20
1.41567089996298
30
0
41
1
10
12.4541408899352
20
1.39890054014603
30
0
41
1
10
12.6204483414
20
1.36303712147515
30
0
41
1
10
12.730943758074
20
1.33605140651974
30
0
41
1
10
12.9517743135581
20
1.27660453790187
30
0
41
1
10
13.0619763953422
20
1.24402267588263
30
0
41
1
10
13.2821304635597
20
1.17331821297884
30
0
41
1
10
13.3920989870351
20
1.1352050067905
30
0
41
1
10
13.6123432964759
20
1.05408942224122
30
0
41
1
10
13.7225244888942
20
1.01095713594049
30
0
41
1
10
13.9436268486039
20
0.920394845469247
30
0
41
1
10
14.0545596167991
20
0.873004194067192
30
0
41
1
10
14.1936470274022
20
0.810973659043697
30
0
41
1
10
14.2214882479875
20
0.798431692756083
30
0
41
1
10
14.2772226605946
20
0.773080413826023
30
0
41
1
10
14.3051365492592
20
0.760260958201997
30
0
41
1
10
14.3887593241715
20
0.721514654748546
30
0
41
1
10
14.4443715538137
20
0.695290049794352
30
0
41
1
10
14.4998853916799
20
0.668741108127819
30
0
0
SPLINE
5
103
100
AcDbEntity
8
1
62
256
6
ByLayer
370
18
48
1
60
0
100
AcDbSpline
70
4
71
3
72
34
73
30
40
0
40
0
40
0
40
0
40
0.0792581471682497
40
0.0792581471682497
40
0.118887220752375
40
0.118887220752375
40
0.138701757544437
40
0.158516294336499
40
0.317032588672994
40
0.317032588672994
40
0.396290735841242
40
0.396290735841242
40
0.435919809425366
40
0.435919809425366
40
0.45573434621743
40
0.45573434621743
40
0.475548883009493
40
0.634065177345995
40
0.634065177345995
40
0.792581471682497
40
0.792581471682497
40
0.812396008474561
40
0.812396008474561
40
0.832210545266625
40
0.871839618850755
40
0.871839618850755
40
0.951097766019016
40
0.951097766019016
40
1
40
1
40
1
40
1
41
1
10
14.499885391689
20
0.708900950371913
30
0
41
1
10
14.6567052581359
20
0.635359010514293
30
0
41
1
10
14.8132123723492
20
0.558776870433888
30
0
41
1
10
15.0481677354763
20
0.440509597294323
30
0
41
1
10
15.1265191207313
20
0.400522341983788
30
0
41
1
10
15.2441810335679
20
0.339844818359097
30
0
41
1
10
15.3227240043212
20
0.299131220545888
30
0
41
1
10
15.714337633973
20
0.0943791608274864
30
0
41
1
10
16.0628780922513
20
-0.0936212631722526
30
0
41
1
10
16.5284995473772
20
-0.338138957779904
30
0
41
1
10
16.6838538430587
20
-0.418626970637405
30
0
41
1
10
16.9177662202922
20
-0.536579369868946
30
0
41
1
10
16.9958845258363
20
-0.575432278449199
30
0
41
1
10
17.1133725802426
20
-0.63284590434742
30
0
41
1
10
17.1526255798382
20
-0.651857707844869
30
0
41
1
10
17.2309847534534
20
-0.689437085637792
30
0
41
1
10
17.5830563871816
20
-0.856613295434585
30
0
41
1
10
17.9309083308296
20
-1.00542388492193
30
0
41
1
10
18.5495272502562
20
-1.23146093702312
30
0
41
1
10
18.8589952735215
20
-1.32513689326964
30
0
41
1
10
19.2113775730848
20
-1.40347302893929
30
0
41
1
10
19.2506108439156
20
-1.41180479542661
30
0
41
1
10
19.3288807612285
20
-1.42763478673939
30
0
41
1
10
19.4461063808946
20
-1.45015667258585
30
0
41
1
10
19.5628621537098
20
-1.46899294305419
30
0
41
1
10
19.7959246551068
20
-1.50171665198724
30
0
41
1
10
19.9507051044575
20
-1.51693169716296
30
0
41
1
10
20.2007374898896
20
-1.53076828853648
30
0
41
1
10
20.2960800149807
20
-1.53351104278514
30
0
41
1
10
20.391465665049
20
-1.5337095495162
30
0
0
SPLINE
5
104
100
AcDbEntity
8
1
62
256
6
ByLayer
370
18
48
1
60
0
100
AcDbSpline
70
4
71
3
72
19
73
15
40
0
40
0
40
0
40
0
40
0.0702478249824871
40
0.121900723594568
40
0.121900723594568
40
0.173553622206648
40
0.173553622206648
40
0.380165216654986
40
0.380165216654986
40
0.586776811103324
40
0.586776811103324
40
0.793388405551662
40
0.793388405551662
40
1
40
1
40
1
40
1
41
1
10
27.1597791617937
20
1.09722103477208
30
0
41
1
10
27.2125561902012
20
1.11735311210595
30
0
41
1
10
27.3042702704832
20
1.15137642078412
30
0
41
1
10
27.3962683209967
20
1.18372641456332
30
0
41
1
10
27.4743506799972
20
1.21051634141207
30
0
41
1
10
27.5134940750988
20
1.22361244502159
30
0
41
1
10
27.7088387962506
20
1.28724188479782
30
0
41
1
10
27.8640827903287
20
1.33227958214701
30
0
41
1
10
28.1734622930489
20
1.41008132615167
30
0
41
1
10
28.3275784744495
20
1.44286739453168
30
0
41
1
10
28.6354840915222
20
1.49576000545468
30
0
41
1
10
28.7892759428925
20
1.51585975504878
30
0
41
1
10
29.0974603714585
20
1.54288289143941
30
0
41
1
10
29.2518615850657
20
1.5498098951372
30
0
41
1
10
29.4069808571196
20
1.54994012384259
30
0
0
SPLINE
5
105
100
AcDbEntity
8
1
62
256
6
ByLayer
370
18
48
1
60
0
100
AcDbSpline
70
4
71
3
72
46
73
42
40
0
40
0
40
0
40
0
40
0.0122481235882669
40
0.0122481235882669
40
0.0780982486823865
40
0.0780982486823865
40
0.143948373776506
40
0.143948373776506
40
0.209798498870626
40
0.209798498870626
40
0.275648623964745
40
0.275648623964745
40
0.292111155238275
40
0.292111155238275
40
0.308573686511804
40
0.308573686511804
40
0.34149874905886
40
0.34149874905886
40
0.473198999247081
40
0.473198999247081
40
0.539049124341192
40
0.539049124341192
40
0.571974186888247
40
0.571974186888247
40
0.588436718161776
40
0.588436718161776
40
0.604899249435304
40
0.604899249435304
40
0.67074937452942
40
0.67074937452942
40
0.736599499623535
40
0.736599499623535
40
0.80244962471765
40
0.80244962471765
40
0.868299749811765
40
0.868299749811765
40
0.901224812358824
40
0.901224812358824
40
0.934149874905883
40
0.934149874905883
40
1
40
1
40
1
40
1
41
1
10
21.6068384093632
20
-1.46071160549022
30
0
41
1
10
21.577831730192
20
-1.46546310733601
30
0
41
1
10
21.5488000406649
20
-1.46999364014408
30
0
41
1
10
21.3640001124001
20
-1.49738675575128
30
0
41
1
10
21.2091304518401
20
-1.51381517693619
30
0
41
1
10
20.9003964247735
20
-1.53333349033224
30
0
41
1
10
20.7464898550876
20
-1.53641554829255
30
0
41
1
10
20.4387696600566
20
-1.52931792432489
30
0
41
1
10
20.284982538802
20
-1.5191277125069
30
0
41
1
10
19.9765618698299
20
-1.48560233107602
30
0
41
1
10
19.8219092084247
20
-1.46228401146845
30
0
41
1
10
19.6275248307944
20
-1.42505353915718
30
0
41
1
10
19.5885945070664
20
-1.41720318354203
30
0
41
1
10
19.5106135270549
20
-1.40069650226601
30
0
41
1
10
19.4715627145776
20
-1.39203906336931
30
0
41
1
10
19.3547102287689
20
-1.36498297364165
30
0
41
1
10
19.2770428832483
20
-1.34546555246752
30
0
41
1
10
18.88960910489
20
-1.24081599153285
30
0
41
1
10
18.5824394791425
20
-1.13456579153049
30
0
41
1
10
18.1203278058017
20
-0.948794367954918
30
0
41
1
10
17.9660630425579
20
-0.882486666176987
30
0
41
1
10
17.7337358999913
20
-0.777261665480125
30
0
41
1
10
17.6561375278949
20
-0.741227143005631
30
0
41
1
10
17.539424830852
20
-0.685847250931744
30
0
41
1
10
17.5004683220139
20
-0.66716546941214
30
0
41
1
10
17.4224354511474
20
-0.629379886681477
30
0
41
1
10
17.3833979563933
20
-0.610294616952388
30
0
41
1
10
17.188671195723
20
-0.514278146420196
30
0
41
1
10
17.033792005906
20
-0.435315669912512
30
0
41
1
10
16.7248233833868
20
-0.275029097950835
30
0
41
1
10
16.5707361829386
20
-0.193701597730666
30
0
41
1
10
16.2626139960002
20
-0.030100430648929
30
0
41
1
10
16.10861311026
20
0.052238997685663
30
0
41
1
10
15.7998255022793
20
0.216264219864172
30
0
41
1
10
15.6449993980742
20
0.297874076442582
30
0
41
1
10
15.4113833713335
20
0.418283236440487
30
0
41
1
10
15.3331799950192
20
0.458135760675873
30
0
41
1
10
15.1770530621262
20
0.536530270399396
30
0
41
1
10
15.0990581502617
20
0.575110292028398
30
0
41
1
10
14.8651138766692
20
0.688721311135936
30
0
41
1
10
14.7091952942136
20
0.761610010257243
30
0
41
1
10
14.5529615694499
20
0.831030638105659
30
0
0
SPLINE
5
106
100
AcDbEntity
8
1
62
256
6
ByLayer
370
18
48
1
60
0
100
AcDbSpline
70
4
71
3
72
14
73
10
40
0
40
0
40
0
40
0
40
0.25
40
0.25
40
0.5
40
0.5
40
0.75
40
0.75
40
1
40
1
40
1
40
1
41
1
10
14.55296156945
20
0.831030638105688
30
0
41
1
10
14.5468204764997
20
0.83375936091457
30
0
41
1
10
14.5411239896778
20
0.836965936422956
30
0
41
1
10
14.5305848322316
20
0.844282245595821
30
0
41
1
10
14.5256959531167
20
0.848448865812742
30
0
41
1
10
14.5171593516602
20
0.857391541367065
30
0
41
1
10
14.5134836126817
20
0.862166531218833
30
0
41
1
10
14.5073246772141
20
0.872312855774197
30
0
41
1
10
14.504875435575
20
0.877663008264335
30
0
41
1
10
14.5031414654647
20
0.883066178684203
30
0
0
SPLINE
5
107
100
AcDbEntity
8
1
62
256
6
ByLayer
370
18
48
1
60
0
100
AcDbSpline
70
4
71
3
72
8
73
4
40
0
40
0
40
0
40
0
40
1
40
1
40
1
40
1
41
1
10
14.5031414654641
20
0.88306617868605
30
0
41
1
10
14.5027461890418
20
0.884297887272226
30
0
41
1
10
14.5025400624377
20
0.885548572730869
30
0
41
1
10
14.5025402590793
20
0.8868199386458
30
0
0
SPLINE
5
108
100
AcDbEntity
8
1
62
256
6
ByLayer
370
18
48
1
60
0
100
AcDbSpline
70
4
71
3
72
29
73
25
40
0
40
0
40
0
40
0
40
0.07945260478959
40
0.07945260478959
40
0.15890520957918
40
0.15890520957918
40
0.31781041915836
40
0.31781041915836
40
0.39726302394795
40
0.39726302394795
40
0.436989326342745
40
0.436989326342745
40
0.47671562873754
40
0.47671562873754
40
0.63562083831672
40
0.63562083831672
40
0.71507344310631
40
0.71507344310631
40
0.754799745501105
40
0.754799745501105
40
0.794526047895899
40
0.794526047895899
40
0.953431257475079
40
1
40
1
40
1
40
1
41
1
10
14.5025402590793
20
0.886819938644607
30
0
41
1
10
14.5025451052499
20
0.918152532495441
30
0
41
1
10
14.5025498416451
20
0.948662335529974
30
0
41
1
10
14.5025590942889
20
1.00781573249637
30
0
41
1
10
14.5025635805042
20
1.03626710927895
30
0
41
1
10
14.5025766814311
20
1.11834059693356
30
0
41
1
10
14.5025849402921
20
1.16869996668831
30
0
41
1
10
14.5025968228037
20
1.23774185988452
30
0
41
1
10
14.5026006988205
20
1.25966845883292
30
0
41
1
10
14.5026064075661
20
1.290889821983
30
0
41
1
10
14.5026082961442
20
1.30103546709194
30
0
41
1
10
14.5026120261282
20
1.32067904709478
30
0
41
1
10
14.5026138632705
20
1.33015521956122
30
0
41
1
10
14.5026229214413
20
1.37583598505986
30
0
41
1
10
14.5026297643485
20
1.40696917323109
30
0
41
1
10
14.5026395900368
20
1.44572823389964
30
0
41
1
10
14.5026427912648
20
1.45731879268825
30
0
41
1
10
14.5026474955222
20
1.47268184239937
30
0
41
1
10
14.5026490472916
20
1.47746537042153
30
0
41
1
10
14.5026521198614
20
1.48634811466368
30
0
41
1
10
14.5026536435874
20
1.49045441068591
30
0
41
1
10
14.5026611508571
20
1.50915364451447
30
0
41
1
10
14.5026684176762
20
1.52087316251146
30
0
41
1
10
14.5026751122119
20
1.52310481280367
30
0
41
1
10
14.5026765994268
20
1.52311890649727
30
0
0
SPLINE
5
109
100
AcDbEntity
8
1
62
256
6
ByLayer
370
18
48
1
60
0
100
AcDbSpline
70
4
71
3
72
14
73
10
40
0
40
0
40
0
40
0
40
0.25
40
0.25
40
0.5
40
0.5
40
0.75
40
0.75
40
1
40
1
40
1
40
1
41
1
10
0.836907291717296
20
0.808624588339626
30
0
41
1
10
0.842616721501315
20
0.862341445310221
30
0
41
1
10
0.847719046919707
20
0.916410124528625
30
0
41
1
10
0.854809660629769
20
1.02571403846977
30
0
41
1
10
0.856767653182885
20
1.08095639317017
30
0
41
1
10
0.856734288827113
20
1.19278994240747
30
0
41
1
10
0.854744924432396
20
1.24938004981115
30
0
41
1
10
0.847648995317627
20
1.36367746054796
30
0
41
1
10
0.842573286189293
20
1.42137683437326
30
0
41
1
10
0.836907291718035
20
1.47938919757743
30
0
0
SPLINE
5
10A
100
AcDbEntity
8
SK1
62
256
6
ByLayer
370
18
48
1
60
0
100
AcDbSpline
70
4
71
3
72
8
73
4
40
0
40
0
40
0
40
0
40
1
40
1
40
1
40
1
41
1
10
-35.75
20
0.896572615626667
30
0
41
1
10
-35.8336556278555
20
0.890585407225103
30
0
41
1
10
-35.9170305367716
20
0.88458086503627
30
0
41
1
10
-36
20
0.878551287453263
30
0
0
SPLINE
5
10B
100
AcDbEntity
8
SK1
62
256
6
ByLayer
370
18
48
1
60
0
100
AcDbSpline
70
4
71
3
72
22
73
18
40
0
40
0
40
0
40
0
40
0.0625000000000011
40
0.0625000000000011
40
0.125000000000002
40
0.125000000000002
40
0.250000000000001
40
0.250000000000001
40
0.375
40
0.375
40
0.499999999999999
40
0.499999999999999
40
0.624999999999998
40
0.624999999999998
40
0.749999999999997
40
0.749999999999997
40
1
40
1
40
1
40
1
41
1
10
-35.65
20
0.805992941059003
30
0
41
1
10
-35.65
20
0.810135450161567
30
0
41
1
10
-35.6502718586019
20
0.814219486369666
30
0
41
1
10
-35.6512913504498
20
0.822078679807817
30
0
41
1
10
-35.652030658643
20
0.825828819500771
30
0
41
1
10
-35.6548298230237
20
0.836624209393108
30
0
41
1
10
-35.6575061245997
20
0.84327822744811
30
0
41
1
10
-35.6638376796887
20
0.855126886761155
30
0
41
1
10
-35.6674983282837
20
0.860384352959642
30
0
41
1
10
-35.6756151818521
20
0.869834554797961
30
0
41
1
10
-35.6800682064548
20
0.87400031992388
30
0
41
1
10
-35.6893906957631
20
0.881176608112582
30
0
41
1
10
-35.6942952881823
20
0.884226435655933
30
0
41
1
10
-35.7045485857552
20
0.889360328740878
30
0
41
1
10
-35.7099306774388
20
0.891451832376674
30
0
41
1
10
-35.7265024515808
20
0.896217406307898
30
0
41
1
10
-35.7380004903212
20
0.897431416965162
30
0
41
1
10
-35.7500000000001
20
0.896572615626781
30
0
0
SPLINE
5
10C
100
AcDbEntity
8
SK1
62
256
6
ByLayer
370
18
48
1
60
0
100
AcDbSpline
70
4
71
3
72
22
73
18
40
0
40
0
40
0
40
0
40
0.25
40
0.25
40
0.375
40
0.375
40
0.499999999999999
40
0.499999999999999
40
0.624999999999999
40
0.624999999999999
40
0.749999999999999
40
0.749999999999999
40
0.874999999999999
40
0.874999999999999
40
0.9375
40
0.9375
40
1
40
1
40
1
40
1
41
1
10
-35.75
20
-0.599984985886579
30
0
41
1
10
-35.7379956523281
20
-0.599125838294469
30
0
41
1
10
-35.7264866986603
20
-0.596167900725561
30
0
41
1
10
-35.7098921057742
20
-0.588744239975796
30
0
41
1
10
-35.7045257065493
20
-0.585776036834346
30
0
41
1
10
-35.6942964893127
20
-0.578928818072654
30
0
41
1
10
-35.6894060316865
20
-0.575038971144949
30
0
41
1
10
-35.6801144608566
20
-0.56622495172374
30
0
41
1
10
-35.6756964104891
20
-0.56128334178436
30
0
41
1
10
-35.6675285377629
20
-0.550198657423039
30
0
41
1
10
-35.6638529491705
20
-0.544165833288446
30
0
41
1
10
-35.6575076548177
20
-0.530884258163127
30
0
41
1
10
-35.6548318331324
20
-0.523572042177904
30
0
41
1
10
-35.6520304488211
20
-0.511930605192362
30
0
41
1
10
-35.65129058319
20
-0.507921256009894
30
0
41
1
10
-35.650270741394
20
-0.499597354466658
30
0
41
1
10
-35.65
20
-0.495319927556949
30
0
41
1
10
-35.65
20
-0.491023646919046
30
0
0
SPLINE
5
10D
100
AcDbEntity
8
SK1
62
256
6
ByLayer
370
18
48
1
60
0
100
AcDbSpline
70
4
71
3
72
8
73
4
40
0
40
0
40
0
40
0
40
1
40
1
40
1
40
1
41
1
10
-36
20
-0.618006314059869
30
0
41
1
10
-35.9170384723867
20
-0.611977313175856
30
0
41
1
10
-35.8336521536062
20
-0.605971945637037
30
0
41
1
10
-35.7499999999999
20
-0.599984985886465
30
0
0
SPLINE
5
10E
100
AcDbEntity
8
SK1
62
256
6
ByLayer
370
18
48
1
60
0
100
AcDbSpline
70
4
71
3
72
22
73
18
40
0
40
0
40
0
40
0
40
0.249999999999997
40
0.249999999999997
40
0.374999999999998
40
0.374999999999998
40
0.5
40
0.5
40
0.625000000000001
40
0.625000000000001
40
0.750000000000002
40
0.750000000000002
40
0.875000000000003
40
0.875000000000003
40
0.937500000000001
40
0.937500000000001
40
1
40
1
40
1
40
1
41
1
10
-35.75
20
0.599984985886579
30
0
41
1
10
-35.7379956523281
20
0.599125838294498
30
0
41
1
10
-35.7264866986603
20
0.59616790072559
30
0
41
1
10
-35.7098921057742
20
0.588744239975796
30
0
41
1
10
-35.7045257065493
20
0.585776036834346
30
0
41
1
10
-35.6942964893127
20
0.578928818072654
30
0
41
1
10
-35.6894060316865
20
0.575038971144949
30
0
41
1
10
-35.6801144608566
20
0.56622495172374
30
0
41
1
10
-35.6756964104891
20
0.56128334178436
30
0
41
1
10
-35.6675285377629
20
0.550198657423039
30
0
41
1
10
-35.6638529491705
20
0.544165833288446
30
0
41
1
10
-35.6575076548177
20
0.530884258163155
30
0
41
1
10
-35.6548318331324
20
0.523572042177932
30
0
41
1
10
-35.6520304488211
20
0.51193060519239
30
0
41
1
10
-35.65129058319
20
0.507921256009922
30
0
41
1
10
-35.650270741394
20
0.499597354466687
30
0
41
1
10
-35.65
20
0.495319927556977
30
0
41
1
10
-35.65
20
0.491023646919075
30
0
0
SPLINE
5
10F
100
AcDbEntity
8
SK1
62
256
6
ByLayer
370
18
48
1
60
0
100
AcDbSpline
70
4
71
3
72
8
73
4
40
0
40
0
40
0
40
0
40
1
40
1
40
1
40
1
41
1
10
-36
20
0.618006314059869
30
0
41
1
10
-35.9170384723867
20
0.611977313175885
30
0
41
1
10
-35.8336521536062
20
0.605971945637037
30
0
41
1
10
-35.7499999999999
20
0.599984985886465
30
0
0
SPLINE
5
110
100
AcDbEntity
8
1
62
256
6
ByLayer
370
18
48
1
60
0
100
AcDbSpline
70
4
71
3
72
12
73
8
40
0
40
0
40
0
40
0
40
0.057177700873223
40
0.232403711877018
40
0.421293674365241
40
0.681963264862406
40
1
40
1
40
1
40
1
41
1
10
29.6423987011444
20
0.132140504832108
30
0
41
1
10
29.6009792516529
20
0.146732504395146
30
0
41
1
10
29.4327489048587
20
0.206437439516122
30
0
41
1
10
29.1291656147349
20
0.318856952671098
30
0
41
1
10
28.6795789647983
20
0.488380693527773
30
0
41
1
10
28.129700653837
20
0.703169934812848
30
0
41
1
10
27.7175455396771
20
0.871236111385144
30
0
41
1
10
27.4917662873928
20
0.965469478866481
30
0
0
SPLINE
5
111
100
AcDbEntity
8
1
62
256
6
ByLayer
370
18
48
1
60
0
100
AcDbSpline
70
4
71
3
72
21
73
17
40
0
40
0
40
0
40
0
40
5.6934781397E-05
40
0.0001792319378694
40
0.0002893014181425
40
0.00040245586801
40
0.0013597273262086
40
0.0021077148372005
40
0.052475186183446
40
0.150737980457002
40
0.255919486269601
40
0.349419184577964
40
0.433136865776416
40
0.583854498835934
40
0.797700748303772
40
1
40
1
40
1
40
1
41
1
10
12.2390924796121
20
-0.0764608026604492
30
0
41
1
10
12.2390985558012
20
-0.0764620988802847
30
0
41
1
10
12.2391079349483
20
-0.0764628289425389
30
0
41
1
10
12.2390610241018
20
-0.0764427373930516
30
0
41
1
10
12.238875708152
20
-0.0763753130989357
30
0
41
1
10
12.2379727955264
20
-0.0760573141853342
30
0
41
1
10
12.2362424227965
20
-0.0754642634653351
30
0
41
1
10
12.190299511577
20
-0.0596258972309442
30
0
41
1
10
12.0554793896896
20
-0.0132647772890095
30
0
41
1
10
11.829408552039
20
0.0658936410008835
30
0
41
1
10
11.5643505889633
20
0.16052184796763
30
0
41
1
10
11.3131459528668
20
0.252013206347129
30
0
41
1
10
11.0219699281204
20
0.359871752587452
30
0
41
1
10
10.6251167693689
20
0.510243521661181
30
0
41
1
10
10.1252689212486
20
0.705535978084527
30
0
41
1
10
9.76066274114996
20
0.854530277524105
30
0
41
1
10
9.58391699260818
20
0.928184341100348
30
0
0
SPLINE
5
112
100
AcDbEntity
8
1
62
256
6
ByLayer
370
18
48
1
60
0
100
AcDbSpline
70
4
71
3
72
26
73
22
40
0
40
0
40
0
40
0
40
7.28174351553E-05
40
0.0001406112908194
40
0.0002043651248155
40
0.0002672187807384
40
0.0003977909637772
40
0.0010975607829476
40
0.0016271677020435
40
0.0026375310428443
40
0.0046491561581052
40
0.0089037813963877
40
0.0186130283550881
40
0.0426280009632677
40
0.0925321981806205
40
0.234082851025359
40
0.375734060109761
40
0.501479628623466
40
0.6253465189538
40
0.80161188303448
40
1
40
1
40
1
40
1
41
1
10
21.2791442643933
20
-0.0909511354920767
30
0
41
1
10
21.2791471261878
20
-0.0909523444514662
30
0
41
1
10
21.2791421088426
20
-0.0909511068269637
30
0
41
1
10
21.2790943010665
20
-0.0909355375872849
30
0
41
1
10
21.2790091457581
20
-0.0909072105307871
30
0
41
1
10
21.2788523373337
20
-0.090854651620873
30
0
41
1
10
21.27813097837
20
-0.0906114638524684
30
0
41
1
10
21.2767965800325
20
-0.0901595598345182
30
0
41
1
10
21.2747278826092
20
-0.0894602511630751
30
0
41
1
10
21.2713917215251
20
-0.0883306752220392
30
0
41
1
10
21.264584414537
20
-0.0860226450228083
30
0
41
1
10
21.2496301375858
20
-0.0809412687583517
30
0
41
1
10
21.2140839930964
20
-0.0688216113825604
30
0
41
1
10
21.1358228756818
20
-0.0419815275581357
30
0
41
1
10
20.9343691344022
20
0.0277075849646735
30
0
41
1
10
20.6236046980868
20
0.137600757363003
30
0
41
1
10
20.2432242518769
20
0.276249057551553
30
0
41
1
10
19.880467910203
20
0.412045741438192
30
0
41
1
10
19.4868647760069
20
0.563064621435018
30
0
41
1
10
19.0277533917523
20
0.744126933876231
30
0
41
1
10
18.6845341469433
20
0.884722718751362
30
0
41
1
10
18.50327483836
20
0.960394390404645
30
0
0
SPLINE
5
113
100
AcDbEntity
8
1
62
256
6
ByLayer
370
18
48
1
60
0
100
AcDbSpline
70
4
71
3
72
16
73
12
40
0
40
0
40
0
40
0
40
0.255505238324255
40
0.446981636372016
40
0.608474195115614
40
0.678357750137769
40
0.739400704477989
40
0.801298095879389
40
0.88038787325991
40
0.992080416421312
40
1
40
1
40
1
40
1
41
1
10
20.7055791662299
20
-1.45686206116261
30
0
41
1
10
20.952252782586
20
-1.45728844287609
30
0
41
1
10
21.3838382636601
20
-1.4582473428147
30
0
41
1
10
21.9710141646092
20
-1.45810062766776
30
0
41
1
10
22.3797355967877
20
-1.46078696331432
30
0
41
1
10
22.6623690743949
20
-1.46110875558165
30
0
41
1
10
22.8486830016353
20
-1.46085633475315
30
0
41
1
10
23.0437897910329
20
-1.46040220103072
30
0
41
1
10
23.2880166203565
20
-1.45989743948917
30
0
41
1
10
23.4800729904307
20
-1.46123184046959
30
0
41
1
10
23.5956896036515
20
-1.46173815819856
30
0
41
1
10
23.6033446564477
20
-1.4617704576327
30
0
0
SPLINE
5
114
100
AcDbEntity
8
1
62
256
6
ByLayer
370
18
48
1
60
0
100
AcDbSpline
70
4
71
2
72
6
73
3
40
0
40
0
40
0
40
1
40
1
40
1
41
1
10
15.5082869923792
20
1.44880201221881
30
0
41
1
10
15.0545090609556
20
1.45035067183886
30
0
41
1
10
14.6006384533583
20
1.44622645728498
30
0
0
SPLINE
5
115
100
AcDbEntity
8
1
62
256
6
ByLayer
370
18
48
1
60
0
100
AcDbSpline
70
4
71
1
72
4
73
2
40
0
40
0
40
1
40
1
41
1
10
25.2066394325036
20
-0.0001049480324298
30
0
41
1
10
25.206644648508
20
-8.83385838222E-05
30
0
0
SPLINE
5
116
100
AcDbEntity
8
1
62
256
6
ByLayer
370
18
48
1
60
0
100
AcDbSpline
70
4
71
1
72
4
73
2
40
0
40
0
40
1
40
1
41
1
10
16.2020843192842
20
0.0022694923401332
30
0
41
1
10
16.2020797290105
20
0.0022792247592349
30
0
0
SPLINE
5
117
100
AcDbEntity
8
1
62
256
6
ByLayer
370
18
48
1
60
0
100
AcDbSpline
70
4
71
3
72
17
73
13
40
0
40
0
40
0
40
0
40
0.137542871320116
40
0.249114697074037
40
0.367809321388907
40
0.447785055061797
40
0.54198408888907
40
0.653135991068708
40
0.76136113850506
40
0.840188953149183
40
0.932510261856239
40
1
40
1
40
1
40
1
41
1
10
24.5126092360027
20
1.46358189880368
30
0
41
1
10
24.3793460994424
20
1.46323335788216
30
0
41
1
10
24.1379863418385
20
1.46259810967041
30
0
41
1
10
23.7816697526503
20
1.46305775732952
30
0
41
1
10
23.4810710751154
20
1.46098572935006
30
0
41
1
10
23.197386323196
20
1.46010629976604
30
0
41
1
10
22.9209323410416
20
1.4607362414657
30
0
41
1
10
22.6171331434957
20
1.4612948765207
30
0
41
1
10
22.3282044751624
20
1.46033617894434
30
0
41
1
10
22.057646098641
20
1.45870502856329
30
0
41
1
10
21.8265169471124
20
1.45865928117976
30
0
41
1
10
21.6716811462409
20
1.45853937369211
30
0
41
1
10
21.6062904616018
20
1.45847518246654
30
0
0
SPLINE
5
118
100
AcDbEntity
8
1
62
256
6
ByLayer
370
18
48
1
60
0
100
AcDbSpline
70
4
71
3
72
8
73
4
40
0
40
0
40
0
40
0
40
1
40
1
40
1
40
1
41
1
10
21.304722876732
20
1.45809161414505
30
0
41
1
10
21.1049524113552
20
1.45778482792932
30
0
41
1
10
20.905252759972
20
1.45737964934852
30
0
41
1
10
20.7055791662298
20
1.45686206116261
30
0
0
SPLINE
5
119
100
AcDbEntity
8
1
62
256
6
ByLayer
370
18
48
1
60
0
100
AcDbSpline
70
4
71
1
72
4
73
2
40
0
40
0
40
1
40
1
41
1
10
25.206644648508
20
8.83385838222E-05
30
0
41
1
10
25.2066394325037
20
0.0001049480324014
30
0
0
LINE
5
82
100
AcDbEntity
8
SK4
62
256
6
ByLayer
370
18
48
0.05
60
0
100
AcDbLine
10
-39
20
0
30
0
11
33
21
0
31
0
39
0
210
0
220
0
230
1
0
LINE
5
84
100
AcDbEntity
8
4
62
256
6
ByLayer
370
18
48
0.05
60
0
100
AcDbLine
10
0
20
0
30
0
11
30
21
0
31
0
39
0
210
0
220
0
230
1
0
LINE
5
86
100
AcDbEntity
8
81
62
256
6
ByLayer
370
18
48
1
60
0
100
AcDbLine
10
30
20
0
30
0
11
33
21
0
31
0
39
0
210
0
220
0
230
1
0
LINE
5
87
100
AcDbEntity
8
80
62
256
6
ByLayer
370
18
48
1
60
0
100
AcDbLine
10
0
20
0
30
0
11
-3
21
0
31
0
39
0
210
0
220
0
230
1
0
LINE
5
88
100
AcDbEntity
8
1
62
256
6
ByLayer
370
18
48
1
60
0
100
AcDbLine
10
0
20
3
30
0
11
0
21
-3
31
0
39
0
210
0
220
0
230
1
0
LINE
5
89
100
AcDbEntity
8
1
62
256
6
ByLayer
370
13
48
1
60
0
100
AcDbLine
10
29.977797
20
0.131163
30
0
11
29.544796
21
0.522874
31
0
39
0
210
0
220
0
230
1
0
LINE
5
8A
100
AcDbEntity
8
1
62
256
6
ByLayer
370
13
48
1
60
0
100
AcDbLine
10
14.647368
20
1.454677
30
0
11
14.647161
21
1.446517
31
0
39
0
210
0
220
0
230
1
0
LINE
5
8B
100
AcDbEntity
8
1
62
256
6
ByLayer
370
18
48
1
60
0
100
AcDbLine
10
14.499885
20
0.708901
30
0
11
14.499885
21
0.668741
31
0
39
0
210
0
220
0
230
1
0
LINE
5
8C
100
AcDbEntity
8
1
62
256
6
ByLayer
370
13
48
1
60
0
100
AcDbLine
10
1.598319
20
-1.499887
30
0
11
1.598319
21
1.499887
31
0
39
0
210
0
220
0
230
1
0
LINE
5
8D
100
AcDbEntity
8
1
62
256
6
ByLayer
370
18
48
1
60
0
100
AcDbLine
10
0.836907
20
0.808625
30
0
11
0.836907
21
1.479389
31
0
39
0
210
0
220
0
230
1
0
LINE
5
8E
100
AcDbEntity
8
1
62
256
6
ByLayer
370
13
48
1
60
0
100
AcDbLine
10
0.79844
20
-2.249943
30
0
11
0.79844
21
2.249943
31
0
39
0
210
0
220
0
230
1
0
LINE
5
8F
100
AcDbEntity
8
SK1
62
256
6
ByLayer
370
18
48
1
60
0
100
AcDbLine
10
-36
20
0.878551
30
0
11
-36
21
0.618006
31
0
39
0
210
0
220
0
230
1
0
LINE
5
91
100
AcDbEntity
8
SK1
62
256
6
ByLayer
370
13
48
1
60
0
100
AcDbLine
10
-35.75
20
0.599985
30
0
11
-35.75
21
0.896573
31
0
39
0
210
0
220
0
230
1
0
LINE
5
92
100
AcDbEntity
8
SK1
62
256
6
ByLayer
370
18
48
1
60
0
100
AcDbLine
10
0
20
3
30
0
11
0
21
-3
31
0
39
0
210
0
220
0
230
1
0
LINE
5
93
100
AcDbEntity
8
SK1
62
256
6
ByLayer
370
18
48
1
60
0
100
AcDbLine
10
-35.65
20
-0.491024
30
0
11
-35.65
21
0.805993
31
0
39
0
210
0
220
0
230
1
0
LINE
5
94
100
AcDbEntity
8
SK1
62
256
6
ByLayer
370
18
48
1
60
0
100
AcDbLine
10
-36
20
-2.065
30
0
11
-36
21
-0.618006
31
0
39
0
210
0
220
0
230
1
0
LINE
5
95
100
AcDbEntity
8
SK1
62
256
6
ByLayer
370
18
48
1
60
0
100
AcDbLine
10
-36
20
0.878551
30
0
11
-36
21
2.065
31
0
39
0
210
0
220
0
230
1
0
LINE
5
96
100
AcDbEntity
8
SK1
62
256
6
ByLayer
370
18
48
1
60
0
100
AcDbLine
10
-35.065
20
-3
30
0
11
-35.065
21
3
31
0
39
0
210
0
220
0
230
1
0
LINE
5
97
100
AcDbEntity
8
1
62
256
6
ByLayer
370
18
48
1
60
0
100
AcDbLine
10
1.598319
20
-1.499887
30
0
11
6.978932
21
-1.509572
31
0
39
0
210
0
220
0
230
1
0
LINE
5
98
100
AcDbEntity
8
1
62
256
6
ByLayer
370
18
48
1
60
0
100
AcDbLine
10
11.304451
20
-1.517358
30
0
11
14.502638
21
-1.523115
31
0
39
0
210
0
220
0
230
1
0
LINE
5
99
100
AcDbEntity
8
1
62
256
6
ByLayer
370
18
48
1
60
0
100
AcDbLine
10
15.511346
20
-1.52493
30
0
11
15.952251
21
-1.525724
31
0
39
0
210
0
220
0
230
1
0
LINE
5
9A
100
AcDbEntity
8
1
62
256
6
ByLayer
370
18
48
1
60
0
100
AcDbLine
10
20.391874
20
-1.533715
30
0
11
20.705347
21
-1.53428
31
0
39
0
210
0
220
0
230
1
0
LINE
5
9B
100
AcDbEntity
8
1
62
256
6
ByLayer
370
18
48
1
60
0
100
AcDbLine
10
24.513975
20
-1.541135
30
0
11
24.928051
21
-1.54188
31
0
39
0
210
0
220
0
230
1
0
LINE
5
9C
100
AcDbEntity
8
1
62
256
6
ByLayer
370
18
48
1
60
0
100
AcDbLine
10
24.928051
20
1.54188
30
0
11
24.513975
21
1.541135
31
0
39
0
210
0
220
0
230
1
0
LINE
5
9D
100
AcDbEntity
8
1
62
256
6
ByLayer
370
18
48
1
60
0
100
AcDbLine
10
20.705347
20
1.53428
30
0
11
20.391874
21
1.533715
31
0
39
0
210
0
220
0
230
1
0
LINE
5
9E
100
AcDbEntity
8
1
62
256
6
ByLayer
370
18
48
1
60
0
100
AcDbLine
10
15.952251
20
1.525724
30
0
11
15.511346
21
1.52493
31
0
39
0
210
0
220
0
230
1
0
LINE
5
9F
100
AcDbEntity
8
1
62
256
6
ByLayer
370
18
48
1
60
0
100
AcDbLine
10
14.502638
20
1.523115
30
0
11
11.304451
21
1.517358
31
0
39
0
210
0
220
0
230
1
0
LINE
5
A0
100
AcDbEntity
8
1
62
256
6
ByLayer
370
18
48
1
60
0
100
AcDbLine
10
6.978932
20
1.509572
30
0
11
1.598319
21
1.499887
31
0
39
0
210
0
220
0
230
1
0
LINE
5
A1
100
AcDbEntity
8
SK1
62
256
6
ByLayer
370
18
48
1
60
0
100
AcDbLine
10
-35.065
20
-3
30
0
11
0
21
-3
31
0
39
0
210
0
220
0
230
1
0
LINE
5
A2
100
AcDbEntity
8
SK1
62
256
6
ByLayer
370
18
48
1
60
0
100
AcDbLine
10
0
20
3
30
0
11
-35.065
21
3
31
0
39
0
210
0
220
0
230
1
0
LINE
5
A3
100
AcDbEntity
8
SK1
62
256
6
ByLayer
370
18
48
1
60
0
100
AcDbLine
10
-36
20
-2.065
30
0
11
-35.065
21
-3
31
0
39
0
210
0
220
0
230
1
0
LINE
5
A4
100
AcDbEntity
8
SK1
62
256
6
ByLayer
370
18
48
1
60
0
100
AcDbLine
10
-35.065
20
3
30
0
11
-36
21
2.065
31
0
39
0
210
0
220
0
230
1
0
LINE
5
A5
100
AcDbEntity
8
2
62
256
6
ByLayer
370
13
48
1
60
0
100
AcDbLine
10
37.5
20
25.099199
30
0
11
37.5
21
-9.05
31
0
39
0
210
0
220
0
230
1
0
LINE
5
A7
100
AcDbEntity
8
2
62
256
6
ByLayer
370
13
48
1
60
0
100
AcDbLine
10
31.5875
20
1.55
30
0
11
39.5
21
1.55
31
0
39
0
210
0
220
0
230
1
0
LINE
5
A8
100
AcDbEntity
8
2
62
256
6
ByLayer
370
13
48
1
60
0
100
AcDbLine
10
31.5875
20
-1.55
30
0
11
39.5
21
-1.55
31
0
39
0
210
0
220
0
230
1
0
LINE
5
A9
100
AcDbEntity
8
1
62
256
6
ByLayer
370
18
48
1
60
1
100
AcDbLine
10
37.5
20
1.55
30
0
11
37.039216
21
5.049998
31
0
39
0
210
0
220
0
230
1
0
LINE
5
AA
100
AcDbEntity
8
1
62
256
6
ByLayer
370
18
48
1
60
1
100
AcDbLine
10
37.039216
20
5.049998
30
0
11
37.960784
21
5.050002
31
0
39
0
210
0
220
0
230
1
0
LINE
5
AB
100
AcDbEntity
8
1
62
256
6
ByLayer
370
18
48
1
60
1
100
AcDbLine
10
37.960784
20
5.050002
30
0
11
37.5
21
1.55
31
0
39
0
210
0
220
0
230
1
0
LINE
5
AC
100
AcDbEntity
8
1
62
256
6
ByLayer
370
18
48
1
60
1
100
AcDbLine
10
37.5
20
-1.55
30
0
11
37.960784
21
-5.049998
31
0
39
0
210
0
220
0
230
1
0
LINE
5
AD
100
AcDbEntity
8
1
62
256
6
ByLayer
370
18
48
1
60
1
100
AcDbLine
10
37.960784
20
-5.049998
30
0
11
37.039216
21
-5.050002
31
0
39
0
210
0
220
0
230
1
0
LINE
5
AE
100
AcDbEntity
8
1
62
256
6
ByLayer
370
18
48
1
60
1
100
AcDbLine
10
37.039216
20
-5.050002
30
0
11
37.5
21
-1.55
31
0
39
0
210
0
220
0
230
1
0
LINE
5
AF
100
AcDbEntity
8
SK2
62
256
6
ByLayer
370
13
48
1
60
0
100
AcDbLine
10
-44.5
20
13.841828
30
0
11
-44.5
21
-10.5
31
0
39
0
210
0
220
0
230
1
0
LINE
5
B1
100
AcDbEntity
8
SK2
62
256
6
ByLayer
370
13
48
1
60
0
100
AcDbLine
10
-37.5875
20
3
30
0
11
-46.5
21
3
31
0
39
0
210
0
220
0
230
1
0
LINE
5
B2
100
AcDbEntity
8
SK2
62
256
6
ByLayer
370
13
48
1
60
0
100
AcDbLine
10
-37.5875
20
-3
30
0
11
-46.5
21
-3
31
0
39
0
210
0
220
0
230
1
0
LINE
5
B3
100
AcDbEntity
8
1
62
256
6
ByLayer
370
18
48
1
60
1
100
AcDbLine
10
-44.5
20
3
30
0
11
-44.960784
21
6.499998
31
0
39
0
210
0
220
0
230
1
0
LINE
5
B4
100
AcDbEntity
8
1
62
256
6
ByLayer
370
18
48
1
60
1
100
AcDbLine
10
-44.960784
20
6.499998
30
0
11
-44.039216
21
6.500002
31
0
39
0
210
0
220
0
230
1
0
LINE
5
B5
100
AcDbEntity
8
1
62
256
6
ByLayer
370
18
48
1
60
1
100
AcDbLine
10
-44.039216
20
6.500002
30
0
11
-44.5
21
3
31
0
39
0
210
0
220
0
230
1
0
LINE
5
B6
100
AcDbEntity
8
1
62
256
6
ByLayer
370
18
48
1
60
1
100
AcDbLine
10
-44.5
20
-3
30
0
11
-44.039216
21
-6.499998
31
0
39
0
210
0
220
0
230
1
0
LINE
5
B7
100
AcDbEntity
8
1
62
256
6
ByLayer
370
18
48
1
60
1
100
AcDbLine
10
-44.039216
20
-6.499998
30
0
11
-44.960784
21
-6.500002
31
0
39
0
210
0
220
0
230
1
0
LINE
5
B8
100
AcDbEntity
8
1
62
256
6
ByLayer
370
18
48
1
60
1
100
AcDbLine
10
-44.960784
20
-6.500002
30
0
11
-44.5
21
-3
31
0
39
0
210
0
220
0
230
1
0
LINE
5
B9
100
AcDbEntity
8
SK2
62
256
6
ByLayer
370
13
48
1
60
0
100
AcDbLine
10
30.542826
20
1.49181
30
0
11
36.274558
21
17.24391
31
0
39
0
210
0
220
0
230
1
0
LINE
5
BA
100
AcDbEntity
8
SK2
62
256
6
ByLayer
370
13
48
1
60
0
100
AcDbLine
10
30.542826
20
-1.49181
30
0
11
36.274558
21
-17.24391
31
0
39
0
210
0
220
0
230
1
0
LINE
5
BB
100
AcDbEntity
8
1
62
256
6
ByLayer
370
18
48
1
60
1
100
AcDbLine
10
35.590683
20
15.364464
30
0
11
38.991672
21
14.418113
31
0
39
0
210
0
220
0
230
1
0
LINE
5
BC
100
AcDbEntity
8
1
62
256
6
ByLayer
370
18
48
1
60
1
100
AcDbLine
10
38.991672
20
14.418113
30
0
11
38.630855
21
13.570117
31
0
39
0
210
0
220
0
230
1
0
LINE
5
BD
100
AcDbEntity
8
1
62
256
6
ByLayer
370
18
48
1
60
1
100
AcDbLine
10
38.630855
20
13.570117
30
0
11
35.590683
21
15.364464
31
0
39
0
210
0
220
0
230
1
0
LINE
5
BE
100
AcDbEntity
8
1
62
256
6
ByLayer
370
18
48
1
60
1
100
AcDbLine
10
35.590683
20
-15.364464
30
0
11
38.630852
21
-13.570118
31
0
39
0
210
0
220
0
230
1
0
LINE
5
BF
100
AcDbEntity
8
1
62
256
6
ByLayer
370
18
48
1
60
1
100
AcDbLine
10
38.630852
20
-13.570118
30
0
11
38.991675
21
-14.418112
31
0
39
0
210
0
220
0
230
1
0
LINE
5
C0
100
AcDbEntity
8
1
62
256
6
ByLayer
370
18
48
1
60
1
100
AcDbLine
10
38.991675
20
-14.418112
30
0
11
35.590683
21
-15.364464
31
0
39
0
210
0
220
0
230
1
0
LINE
5
11A
100
AcDbEntity
8
1
62
256
6
ByLayer
370
13
48
0.05
60
0
100
AcDbLine
10
-42.5
20
0
30
0
11
35.93012
21
0
31
0
39
0
210
0
220
0
230
1
0
LINE
5
11F
100
AcDbEntity
8
1
62
256
6
ByLayer
370
18
48
1
60
1
100
AcDbLine
10
37.5
20
1.55
30
0
11
37.039216
21
5.049998
31
0
39
0
210
0
220
0
230
1
0
LINE
5
120
100
AcDbEntity
8
1
62
256
6
ByLayer
370
18
48
1
60
1
100
AcDbLine
10
37.039216
20
5.049998
30
0
11
37.960784
21
5.050002
31
0
39
0
210
0
220
0
230
1
0
LINE
5
121
100
AcDbEntity
8
1
62
256
6
ByLayer
370
18
48
1
60
1
100
AcDbLine
10
37.960784
20
5.050002
30
0
11
37.5
21
1.55
31
0
39
0
210
0
220
0
230
1
0
LINE
5
123
100
AcDbEntity
8
1
62
256
6
ByLayer
370
18
48
1
60
1
100
AcDbLine
10
37.5
20
-1.55
30
0
11
37.960784
21
-5.049998
31
0
39
0
210
0
220
0
230
1
0
LINE
5
124
100
AcDbEntity
8
1
62
256
6
ByLayer
370
18
48
1
60
1
100
AcDbLine
10
37.960784
20
-5.049998
30
0
11
37.039216
21
-5.050002
31
0
39
0
210
0
220
0
230
1
0
LINE
5
125
100
AcDbEntity
8
1
62
256
6
ByLayer
370
18
48
1
60
1
100
AcDbLine
10
37.039216
20
-5.050002
30
0
11
37.5
21
-1.55
31
0
39
0
210
0
220
0
230
1
0
LINE
5
129
100
AcDbEntity
8
1
62
256
6
ByLayer
370
18
48
1
60
1
100
AcDbLine
10
-44.5
20
3
30
0
11
-44.960784
21
6.499998
31
0
39
0
210
0
220
0
230
1
0
LINE
5
12A
100
AcDbEntity
8
1
62
256
6
ByLayer
370
18
48
1
60
1
100
AcDbLine
10
-44.960784
20
6.499998
30
0
11
-44.039216
21
6.500002
31
0
39
0
210
0
220
0
230
1
0
LINE
5
12B
100
AcDbEntity
8
1
62
256
6
ByLayer
370
18
48
1
60
1
100
AcDbLine
10
-44.039216
20
6.500002
30
0
11
-44.5
21
3
31
0
39
0
210
0
220
0
230
1
0
LINE
5
12D
100
AcDbEntity
8
1
62
256
6
ByLayer
370
18
48
1
60
1
100
AcDbLine
10
-44.5
20
-3
30
0
11
-44.039216
21
-6.499998
31
0
39
0
210
0
220
0
230
1
0
LINE
5
12E
100
AcDbEntity
8
1
62
256
6
ByLayer
370
18
48
1
60
1
100
AcDbLine
10
-44.039216
20
-6.499998
30
0
11
-44.960784
21
-6.500002
31
0
39
0
210
0
220
0
230
1
0
LINE
5
12F
100
AcDbEntity
8
1
62
256
6
ByLayer
370
18
48
1
60
1
100
AcDbLine
10
-44.960784
20
-6.500002
30
0
11
-44.5
21
-3
31
0
39
0
210
0
220
0
230
1
0
LINE
5
132
100
AcDbEntity
8
1
62
256
6
ByLayer
370
18
48
1
60
1
100
AcDbLine
10
35.590683
20
15.364464
30
0
11
38.991672
21
14.418113
31
0
39
0
210
0
220
0
230
1
0
LINE
5
133
100
AcDbEntity
8
1
62
256
6
ByLayer
370
18
48
1
60
1
100
AcDbLine
10
38.991672
20
14.418113
30
0
11
38.630855
21
13.570117
31
0
39
0
210
0
220
0
230
1
0
LINE
5
134
100
AcDbEntity
8
1
62
256
6
ByLayer
370
18
48
1
60
1
100
AcDbLine
10
38.630855
20
13.570117
30
0
11
35.590683
21
15.364464
31
0
39
0
210
0
220
0
230
1
0
LINE
5
136
100
AcDbEntity
8
1
62
256
6
ByLayer
370
18
48
1
60
1
100
AcDbLine
10
35.590683
20
-15.364464
30
0
11
38.630852
21
-13.570118
31
0
39
0
210
0
220
0
230
1
0
LINE
5
137
100
AcDbEntity
8
1
62
256
6
ByLayer
370
18
48
1
60
1
100
AcDbLine
10
38.630852
20
-13.570118
30
0
11
38.991675
21
-14.418112
31
0
39
0
210
0
220
0
230
1
0
LINE
5
138
100
AcDbEntity
8
1
62
256
6
ByLayer
370
18
48
1
60
1
100
AcDbLine
10
38.991675
20
-14.418112
30
0
11
35.590683
21
-15.364464
31
0
39
0
210
0
220
0
230
1
0
MTEXT
5
11B
100
AcDbEntity
8
2
62
256
6
ByLayer
370
18
48
1
60
0
100
AcDbMText
10
36.158886
20
15.208437
30
0
210
0
220
0
230
1
1
%%c
40
3
41
0
44
1.084337
50
90
71
7
72
5
7
iso_b_vert
0
MTEXT
5
11E
100
AcDbEntity
8
2
62
256
6
ByLayer
370
18
48
1
60
0
100
AcDbMText
10
36.158886
20
21.185
30
0
210
0
220
0
230
1
1
\W0.6883;3.1
40
3
41
0
44
1.084337
50
90
71
7
72
5
7
iso_b_vert
0
MTEXT
5
127
100
AcDbEntity
8
SK2
62
256
6
ByLayer
370
18
48
1
60
0
100
AcDbMText
10
-45.841114
20
6.658437
30
0
210
0
220
0
230
1
1
%%c
40
3
41
0
44
1.084337
50
90
71
7
72
5
7
iso_b_vert
0
MTEXT
5
128
100
AcDbEntity
8
SK2
62
256
6
ByLayer
370
18
48
1
60
0
100
AcDbMText
10
-45.841114
20
12.635
30
0
210
0
220
0
230
1
1
\W0.5404;6
40
3
41
0
44
1.084337
50
90
71
7
72
5
7
iso_b_vert
0
MTEXT
5
131
100
AcDbEntity
8
SK2
62
256
6
ByLayer
370
18
48
1
60
0
100
AcDbMText
10
42.909343
20
-2.114886
30
0
210
0
220
0
230
1
1
\W0.7071;140%%d
40
3
41
0
44
1.084337
50
0
71
7
72
5
7
iso_b_vert
0
MTEXT
5
13A
100
AcDbEntity
8
SK6
62
256
6
ByLayer
370
18
48
1
60
0
100
AcDbMText
10
-28.365882
20
-77.114886
30
0
210
0
220
0
230
1
1
\W0.7307;860.1-0310-016A1-SD S2BM
40
3
41
0
44
1.084337
50
0
71
7
72
5
7
iso_b_vert
0
HATCH
5
122
100
AcDbEntity
8
2
62
256
6
ByLayer
370
13
48
1
60
0
100
AcDbHatch
10
0
20
0
30
0
210
0
220
0
230
1
2
ANSI31
70
0
71
0
91
1
92
5
93
3
72
1
10
37.5
20
1.54999999999998
11
37.0392162584472
21
5.0499983074468
72
1
10
37.0392162584472
20
5.0499983074468
11
37.9607837415528
21
5.05000169255317
72
1
10
37.9607837415528
20
5.05000169255317
11
37.5
21
1.54999999999998
97
0
75
0
76
1
52
0
41
0.0062
77
0
78
1
53
45
43
0
44
0
45
-0.0139193969876572
46
0.0139193969876572
79
0
47
0
98
1
10
0
20
0
0
HATCH
5
126
100
AcDbEntity
8
2
62
256
6
ByLayer
370
13
48
1
60
0
100
AcDbHatch
10
0
20
0
30
0
210
0
220
0
230
1
2
ANSI31
70
0
71
0
91
1
92
5
93
3
72
1
10
37.5
20
-1.55000000000001
11
37.9607837415528
21
-5.04999830744683
72
1
10
37.9607837415528
20
-5.04999830744683
11
37.0392162584472
21
-5.0500016925532
72
1
10
37.0392162584472
20
-5.0500016925532
11
37.5
21
-1.55000000000001
97
0
75
0
76
1
52
0
41
0.0062
77
0
78
1
53
45
43
0
44
0
45
-0.0139193969876572
46
0.0139193969876572
79
0
47
0
98
1
10
0
20
0
0
HATCH
5
12C
100
AcDbEntity
8
SK2
62
256
6
ByLayer
370
13
48
1
60
0
100
AcDbHatch
10
0
20
0
30
0
210
0
220
0
230
1
2
ANSI31
70
0
71
0
91
1
92
5
93
3
72
1
10
-44.5
20
3
11
-44.9607837415528
21
6.49999830744682
72
1
10
-44.9607837415528
20
6.49999830744682
11
-44.0392162584472
21
6.50000169255318
72
1
10
-44.0392162584472
20
6.50000169255318
11
-44.5
21
3
97
0
75
0
76
1
52
0
41
0.0062
77
0
78
1
53
45
43
0
44
0
45
-0.0139193969876572
46
0.0139193969876572
79
0
47
0
98
1
10
0
20
0
0
HATCH
5
130
100
AcDbEntity
8
SK2
62
256
6
ByLayer
370
13
48
1
60
0
100
AcDbHatch
10
0
20
0
30
0
210
0
220
0
230
1
2
ANSI31
70
0
71
0
91
1
92
5
93
3
72
1
10
-44.5
20
-3
11
-44.0392162584472
21
-6.49999830744682
72
1
10
-44.0392162584472
20
-6.49999830744682
11
-44.9607837415528
21
-6.50000169255318
72
1
10
-44.9607837415528
20
-6.50000169255318
11
-44.5
21
-3
97
0
75
0
76
1
52
0
41
0.0062
77
0
78
1
53
45
43
0
44
0
45
-0.0139193969876572
46
0.0139193969876572
79
0
47
0
98
1
10
0
20
0
0
HATCH
5
135
100
AcDbEntity
8
SK2
62
256
6
ByLayer
370
13
48
1
60
0
100
AcDbHatch
10
0
20
0
30
0
210
0
220
0
230
1
2
ANSI31
70
0
71
0
91
1
92
5
93
3
72
1
10
35.5906825567209
20
15.364464473257
11
38.9916719783711
21
14.4181131841295
72
1
10
38.9916719783711
20
14.4181131841295
11
38.6308552273251
21
13.5701167819593
72
1
10
38.6308552273251
20
13.5701167819593
11
35.5906825567209
21
15.364464473257
97
0
75
0
76
1
52
0
41
0.0062
77
0
78
1
53
45
43
0
44
0
45
-0.0139193969876572
46
0.0139193969876572
79
0
47
0
98
1
10
0
20
0
0
HATCH
5
139
100
AcDbEntity
8
SK2
62
256
6
ByLayer
370
13
48
1
60
0
100
AcDbHatch
10
0
20
0
30
0
210
0
220
0
230
1
2
ANSI31
70
0
71
0
91
1
92
5
93
3
72
1
10
35.5906825567209
20
-15.364464473257
11
38.6308521124653
21
-13.5701181073246
72
1
10
38.6308521124653
20
-13.5701181073246
11
38.9916750932309
21
-14.4181118587641
72
1
10
38.9916750932309
20
-14.4181118587641
11
35.5906825567209
21
-15.364464473257
97
0
75
0
76
1
52
0
41
0.0062
77
0
78
1
53
45
43
0
44
0
45
-0.0139193969876572
46
0.0139193969876572
79
0
47
0
98
1
10
0
20
0
0
DIMENSION
5
13D
100
AcDbEntity
8
SK2
62
256
6
ByLayer
370
18
48
1
60
0
100
AcDbDimension
2
_U0
10
14
20
-18.504445
30
0
11
22
21
-18.504445
31
0
70
32
71
1
72
1
41
1
210
0
220
0
230
1
3
Standard
100
AcDbAlignedDimension
13
30
23
-1.55
33
0
14
14
24
-1.55
34
0
50
0
100
AcDbRotatedDimension
1001
ACAD
1000
DSTYLE
1002
{
1070
   371
1070
    13
1070
   372
1070
    13
1070
   170
1070
     0
1070
   144
1040
1.0
1070
   277
1070
     2
1070
   284
1070
     8
1070
   278
1070
    46
1070
   146
1040
1.166667
1070
   345
1005
16
1070
   347
1005
16
1070
   346
1005
16
1070
   344
1005
0
1070
   343
1005
0
1070
   172
1070
     1
1070
    76
1070
     0
1070
    75
1070
     0
1070
   282
1070
     0
1070
   281
1070
     0
1070
     3
1000

1070
    71
1070
     0
1070
    74
1070
     0
1070
   279
1070
     0
1070
   173
1070
     1
1070
   340
1005
11C
1070
   271
1070
     2
1070
   272
1070
     2
1070
    77
1070
     1
1070
    73
1070
     1
1070
   171
1070
     3
1070
   274
1070
     4
1070
   177
1070
     2
1070
   176
1070
     2
1070
   178
1070
     2
1070
    78
1070
     8
1070
    48
1040
-0.1
1070
    41
1040
3.5
1070
   147
1040
1.5
1070
    42
1040
1.5875
1070
    44
1040
2.0
1070
   140
1040
3.0
1002
}
1001
ACAD_DSTYLE_DIM_LINETYPE
1070
   380
1005
16
1001
ACAD_DSTYLE_DIM_EXT1_LINETYPE
1070
   381
1005
16
1001
ACAD_DSTYLE_DIM_EXT2_LINETYPE
1070
   382
1005
16
0
DIMENSION
5
158
100
AcDbEntity
8
SK2
62
256
6
ByLayer
370
18
48
1
60
0
100
AcDbDimension
2
_U1
10
2
20
-28.504445
30
0
11
16
21
-28.504445
31
0
70
32
71
1
72
1
41
1
210
0
220
0
230
1
3
Standard
100
AcDbAlignedDimension
13
30
23
-1.55
33
0
14
2
24
-1.55
34
0
50
0
100
AcDbRotatedDimension
1001
ACAD
1000
DSTYLE
1002
{
1070
   371
1070
    13
1070
   372
1070
    13
1070
     3
1000

1070
   170
1070
     0
1070
   144
1040
1.0
1070
   277
1070
     2
1070
   284
1070
     8
1070
   278
1070
    46
1070
   146
1040
1.166667
1070
   345
1005
16
1070
   347
1005
16
1070
   346
1005
16
1070
   344
1005
0
1070
   343
1005
0
1070
   172
1070
     1
1070
    76
1070
     0
1070
    75
1070
     0
1070
   282
1070
     0
1070
   281
1070
     0
1070
    71
1070
     0
1070
    74
1070
     0
1070
   279
1070
     0
1070
   173
1070
     1
1070
   340
1005
11C
1070
   271
1070
     2
1070
   272
1070
     2
1070
    77
1070
     1
1070
    73
1070
     1
1070
   171
1070
     3
1070
   274
1070
     4
1070
   177
1070
     2
1070
   176
1070
     2
1070
   178
1070
     2
1070
    78
1070
     8
1070
    48
1040
-0.1
1070
    41
1040
3.5
1070
   147
1040
1.5
1070
    42
1040
1.5875
1070
    44
1040
2.0
1070
   140
1040
3.0
1002
}
1001
ACAD_DSTYLE_DIM_LINETYPE
1070
   380
1005
16
1001
ACAD_DSTYLE_DIM_EXT1_LINETYPE
1070
   381
1005
16
1001
ACAD_DSTYLE_DIM_EXT2_LINETYPE
1070
   382
1005
16
0
DIMENSION
5
170
100
AcDbEntity
8
SK2
62
256
6
ByLayer
370
18
48
1
60
0
100
AcDbDimension
2
_U2
10
0
20
-36.504445
30
0
11
-18
21
-36.504445
31
0
70
32
71
1
72
1
41
1
210
0
220
0
230
1
3
Standard
100
AcDbAlignedDimension
13
-36
23
-3
33
0
14
0
24
-3
34
0
50
0
100
AcDbRotatedDimension
1001
ACAD
1000
DSTYLE
1002
{
1070
   371
1070
    13
1070
   372
1070
    13
1070
     3
1000

1070
   170
1070
     0
1070
   144
1040
1.0
1070
   277
1070
     2
1070
   284
1070
     8
1070
   278
1070
    46
1070
   146
1040
1.166667
1070
   345
1005
16
1070
   347
1005
16
1070
   346
1005
16
1070
   344
1005
0
1070
   343
1005
0
1070
   172
1070
     1
1070
    76
1070
     0
1070
    75
1070
     0
1070
   282
1070
     0
1070
   281
1070
     0
1070
    71
1070
     0
1070
    74
1070
     0
1070
   279
1070
     0
1070
   173
1070
     1
1070
   340
1005
11C
1070
   271
1070
     2
1070
   272
1070
     2
1070
    77
1070
     1
1070
    73
1070
     1
1070
   171
1070
     3
1070
   274
1070
     4
1070
   177
1070
     2
1070
   176
1070
     2
1070
   178
1070
     2
1070
    78
1070
     8
1070
    48
1040
-0.1
1070
    41
1040
3.5
1070
   147
1040
1.5
1070
    42
1040
1.5875
1070
    44
1040
2.0
1070
   140
1040
3.0
1002
}
1001
ACAD_DSTYLE_DIM_LINETYPE
1070
   380
1005
16
1001
ACAD_DSTYLE_DIM_EXT1_LINETYPE
1070
   381
1005
16
1001
ACAD_DSTYLE_DIM_EXT2_LINETYPE
1070
   382
1005
16
0
DIMENSION
5
188
100
AcDbEntity
8
SK2
62
256
6
ByLayer
370
18
48
1
60
0
100
AcDbDimension
2
_U3
10
30
20
-44.504445
30
0
11
-3
21
-44.504445
31
0
70
32
71
1
72
1
41
1
210
0
220
0
230
1
3
Standard
100
AcDbAlignedDimension
13
-36
23
-3
33
0
14
30
24
-1.55
34
0
50
0
100
AcDbRotatedDimension
1001
ACAD
1000
DSTYLE
1002
{
1070
   371
1070
    13
1070
   372
1070
    13
1070
     3
1000

1070
   170
1070
     0
1070
   144
1040
1.0
1070
   277
1070
     2
1070
   284
1070
     8
1070
   278
1070
    46
1070
   146
1040
1.166667
1070
   345
1005
16
1070
   347
1005
16
1070
   346
1005
16
1070
   344
1005
0
1070
   343
1005
0
1070
   172
1070
     1
1070
    76
1070
     0
1070
    75
1070
     0
1070
   282
1070
     0
1070
   281
1070
     0
1070
    71
1070
     0
1070
    74
1070
     0
1070
   279
1070
     0
1070
   173
1070
     1
1070
   340
1005
11C
1070
   271
1070
     2
1070
   272
1070
     2
1070
    77
1070
     1
1070
    73
1070
     1
1070
   171
1070
     3
1070
   274
1070
     4
1070
   177
1070
     2
1070
   176
1070
     2
1070
   178
1070
     2
1070
    78
1070
     8
1070
    48
1040
-0.1
1070
    41
1040
3.5
1070
   147
1040
1.5
1070
    42
1040
1.5875
1070
    44
1040
2.0
1070
   140
1040
3.0
1002
}
1001
ACAD_DSTYLE_DIM_LINETYPE
1070
   380
1005
16
1001
ACAD_DSTYLE_DIM_EXT1_LINETYPE
1070
   381
1005
16
1001
ACAD_DSTYLE_DIM_EXT2_LINETYPE
1070
   382
1005
16
0
DIMENSION
5
1A0
100
AcDbEntity
8
2
62
256
6
ByLayer
370
18
48
1
60
0
100
AcDbDimension
2
_U4
10
0
20
-36.504445
30
0
11
15
21
-36.504445
31
0
70
32
71
1
72
1
41
1
210
0
220
0
230
1
3
Standard
100
AcDbAlignedDimension
13
30
23
-1.55
33
0
14
0
24
-1.55
34
0
50
0
100
AcDbRotatedDimension
1001
ACAD
1000
DSTYLE
1002
{
1070
   371
1070
    13
1070
   372
1070
    13
1070
     3
1000

1070
   170
1070
     0
1070
   144
1040
1.0
1070
   277
1070
     2
1070
   284
1070
     8
1070
   278
1070
    46
1070
   146
1040
1.166667
1070
   345
1005
16
1070
   347
1005
16
1070
   346
1005
16
1070
   344
1005
0
1070
   343
1005
0
1070
   172
1070
     1
1070
    76
1070
     0
1070
    75
1070
     0
1070
   282
1070
     0
1070
   281
1070
     0
1070
    71
1070
     0
1070
    74
1070
     0
1070
   279
1070
     0
1070
   173
1070
     1
1070
   340
1005
11C
1070
   271
1070
     2
1070
   272
1070
     2
1070
    77
1070
     1
1070
    73
1070
     1
1070
   171
1070
     3
1070
   274
1070
     4
1070
   177
1070
     2
1070
   176
1070
     2
1070
   178
1070
     2
1070
    78
1070
     8
1070
    48
1040
-0.1
1070
    41
1040
3.5
1070
   147
1040
1.5
1070
    42
1040
1.5875
1070
    44
1040
2.0
1070
   140
1040
3.0
1002
}
1001
ACAD_DSTYLE_DIM_LINETYPE
1070
   380
1005
16
1001
ACAD_DSTYLE_DIM_EXT1_LINETYPE
1070
   381
1005
16
1001
ACAD_DSTYLE_DIM_EXT2_LINETYPE
1070
   382
1005
16
0
ENDSEC
0
SECTION
2
OBJECTS
0
DICTIONARY
5
228
330
0
100
AcDbDictionary
280
0
281
1
3
ACAD_GROUP
350
229
3
ACAD_MLINESTYLE
350
22a
0
DICTIONARY
5
229
330
0
100
AcDbDictionary
280
0
281
1
0
DICTIONARY
5
22a
330
0
100
AcDbDictionary
280
0
281
1
3
Standard
350
18
0
MLINESTYLE
5
18
330
22a
100
AcDbMlineStyle
2
Standard
70
0
3

62
256
51
90
52
90
71
2
49
-0.5
62
256
6
ByLayer
49
0.5
62
256
6
ByLayer
0
RASTERVARIABLES
5
216
330

100
AcDbRasterVariables
90
0
70
1
71
1
72
1
0
ENDSEC
0
EOF
