0
SECTION
2
HEADER
9
$ACADVER
1
AC1015
9
$DWGCODEPAGE
3
ANSI_1252
9
$HANDSEED
5
239
9
$ANGBASE
50
0
9
$ANGDIR
70
0
9
$ATTMODE
70
1
9
$AUNITS
70
0
9
$AUPREC
70
0
9
$CECOLOR
62
256
9
$CELTSCALE
40
1
9
$CELTYPE
6
ByLayer
9
$CELWEIGHT
370
18
9
$CLAYER
8
0
9
$CMLJUST
70
0
9
$CMLSCALE
40
1
9
$CMLSTYLE
2
Standard
9
$DIMSTYLE
2
Standard
9
$TEXTSIZE
40
0.2
9
$TEXTSTYLE
7
Standard
9
$LUNITS
70
2
9
$LUPREC
70
4
9
$EXTNAMES
290
1
9
$INSUNITS
70
4
9
$LTSCALE
40
1
9
$LWDISPLAY
290
1
9
$PDMODE
70
0
9
$PDSIZE
40
0
9
$PLINEGEN
70
0
0
ENDSEC
0
SECTION
2
CLASSES
0
CLASS
1
RASTERVARIABLES
2
AcDbRasterVariables
3
ISM
90
0
280
0
281
0
0
ENDSEC
0
SECTION
2
TABLES
0
TABLE
2
VPORT
5
22f
100
AcDbSymbolTable
0
VPORT
5
1
100
AcDbSymbolTableRecord
100
AcDbViewportTableRecord
2
*Active
70
0
10
0
20
0
11
1
21
1
12
-1
22
1
13
0
23
0
14
0.5
24
0.5
15
10
25
10
16
0
26
0
36
1
17
0
27
0
37
0
0
ENDTAB
0
TABLE
2
LTYPE
5
230
100
AcDbSymbolTable
0
LTYPE
5
14
100
AcDbSymbolTableRecord
100
AcDbLinetypeTableRecord
70
0
2
ByBlock
3

72
65
73
0
40
0
0
LTYPE
5
15
100
AcDbSymbolTableRecord
100
AcDbLinetypeTableRecord
70
0
2
ByLayer
3

72
65
73
0
40
0
0
LTYPE
5
16
100
AcDbSymbolTableRecord
100
AcDbLinetypeTableRecord
70
0
2
Continuous
3
Solid line
72
65
73
0
40
0
0
LTYPE
5
6E
100
AcDbSymbolTableRecord
100
AcDbLinetypeTableRecord
70
0
2
CENTER
3
____ _ ____ _ ____ _ ____
72
65
73
4
40
47.5
49
22
74
0
49
-8.5
74
0
49
8.5
74
0
49
-8.5
74
0
0
LTYPE
5
6F
100
AcDbSymbolTableRecord
100
AcDbLinetypeTableRecord
70
0
2
DASHED
3
__ __ __ __ __ __ __ __ __
72
65
73
2
40
25.72
49
12.86
74
0
49
-12.86
74
0
0
ENDTAB
0
TABLE
2
LAYER
5
231
100
AcDbSymbolTable
0
LAYER
5
10
100
AcDbSymbolTableRecord
100
AcDbLayerTableRecord
2
0
70
0
62
7
6
Continuous
290
1
370
-3
390
0
0
LAYER
5
71
100
AcDbSymbolTableRecord
100
AcDbLayerTableRecord
2
81
70
0
62
-3
6
Continuous
290
1
370
-3
390
0
0
LAYER
5
73
100
AcDbSymbolTableRecord
100
AcDbLayerTableRecord
2
80
70
0
62
-6
6
Continuous
290
1
370
-3
390
0
0
LAYER
5
75
100
AcDbSymbolTableRecord
100
AcDbLayerTableRecord
2
1
70
0
62
4
6
Continuous
290
1
370
-3
390
0
0
LAYER
5
141
100
AcDbSymbolTableRecord
100
AcDbLayerTableRecord
2
Defpoints
70
0
62
7
6
Continuous
290
0
370
-3
390
0
0
LAYER
5
14F
100
AcDbSymbolTableRecord
100
AcDbLayerTableRecord
2
2
70
0
62
7
6
Continuous
290
1
370
-3
390
0
0
LAYER
5
21c
100
AcDbSymbolTableRecord
100
AcDbLayerTableRecord
2
SK1
70
0
62
4
6
Continuous
290
1
370
-3
390
0
0
LAYER
5
21d
100
AcDbSymbolTableRecord
100
AcDbLayerTableRecord
2
SK6
70
0
62
5
6
Continuous
290
1
370
-3
390
0
0
LAYER
5
21e
100
AcDbSymbolTableRecord
100
AcDbLayerTableRecord
2
SK2
70
0
62
7
6
Continuous
290
1
370
-3
390
0
0
ENDTAB
0
TABLE
2
STYLE
5
232
100
AcDbSymbolTable
0
STYLE
5
11
100
AcDbSymbolTableRecord
100
AcDbTextStyleTableRecord
2
Standard
3
txt
70
0
71
0
40
0
41
1
42
0
50
0
0
STYLE
5
13A
100
AcDbSymbolTableRecord
100
AcDbTextStyleTableRecord
2
iso_b_vert
3
simplex.shx
70
0
71
0
40
0
41
1
42
0
50
0
0
STYLE
5
13B
100
AcDbSymbolTableRecord
100
AcDbTextStyleTableRecord
2
DWGDirectTextStyle
3
simplex
70
0
71
0
40
0
41
1
42
0
50
0
0
ENDTAB
0
TABLE
2
DIMSTYLE
5
233
100
AcDbSymbolTable
100
AcDbDimStyleTable
0
DIMSTYLE
105
27
100
AcDbSymbolTableRecord
100
AcDbDimStyleTableRecord
2
Standard
70
0
3
<>
41
0.18
42
0.0625
44
0.18
140
0.18
147
0.09
73
0
74
0
77
1
271
2
275
0
278
52
280
0
340
11
0
ENDTAB
0
TABLE
2
VIEW
5
234
100
AcDbSymbolTable
0
ENDTAB
0
TABLE
2
UCS
5
235
100
AcDbSymbolTable
0
ENDTAB
0
TABLE
2
APPID
5
236
100
AcDbSymbolTable
0
APPID
5
12
100
AcDbSymbolTableRecord
100
AcDbRegAppTableRecord
2
ACAD
70
0
0
APPID
5
13D
100
AcDbSymbolTableRecord
100
AcDbRegAppTableRecord
2
ACAD_DSTYLE_DIMBREAK
70
0
0
APPID
5
1DB
100
AcDbSymbolTableRecord
100
AcDbRegAppTableRecord
2
ACAD_DSTYLE_DIM_LINETYPE
70
0
0
APPID
5
1DC
100
AcDbSymbolTableRecord
100
AcDbRegAppTableRecord
2
ACAD_DSTYLE_DIM_EXT1_LINETYPE
70
0
0
APPID
5
1DD
100
AcDbSymbolTableRecord
100
AcDbRegAppTableRecord
2
ACAD_DSTYLE_DIM_EXT2_LINETYPE
70
0
0
APPID
5
218
100
AcDbSymbolTableRecord
100
AcDbRegAppTableRecord
2
ACAD_MLEADERVER
70
0
0
ENDTAB
0
TABLE
2
BLOCK_RECORD
5
237
100
AcDbSymbolTable
0
BLOCK_RECORD
5
1F
100
AcDbSymbolTableRecord
100
AcDbBlockTableRecord
2
*Model_Space
340
0
70
0
0
BLOCK_RECORD
5
1B
100
AcDbSymbolTableRecord
100
AcDbBlockTableRecord
2
*Paper_Space
340
0
70
0
0
BLOCK_RECORD
5
23
100
AcDbSymbolTableRecord
100
AcDbBlockTableRecord
2
*Paper_Space0
340
0
70
0
0
BLOCK_RECORD
5
142
100
AcDbSymbolTableRecord
100
AcDbBlockTableRecord
2
*D1
340
0
70
0
0
BLOCK_RECORD
5
150
100
AcDbSymbolTableRecord
100
AcDbBlockTableRecord
2
_U0
340
0
70
0
0
BLOCK_RECORD
5
15C
100
AcDbSymbolTableRecord
100
AcDbBlockTableRecord
2
*D3
340
0
70
0
0
BLOCK_RECORD
5
169
100
AcDbSymbolTableRecord
100
AcDbBlockTableRecord
2
_U1
340
0
70
0
0
BLOCK_RECORD
5
175
100
AcDbSymbolTableRecord
100
AcDbBlockTableRecord
2
*D5
340
0
70
0
0
BLOCK_RECORD
5
183
100
AcDbSymbolTableRecord
100
AcDbBlockTableRecord
2
_U2
340
0
70
0
0
BLOCK_RECORD
5
18F
100
AcDbSymbolTableRecord
100
AcDbBlockTableRecord
2
*D7
340
0
70
0
0
BLOCK_RECORD
5
19C
100
AcDbSymbolTableRecord
100
AcDbBlockTableRecord
2
_U3
340
0
70
0
0
BLOCK_RECORD
5
1A8
100
AcDbSymbolTableRecord
100
AcDbBlockTableRecord
2
*D9
340
0
70
0
0
BLOCK_RECORD
5
1B4
100
AcDbSymbolTableRecord
100
AcDbBlockTableRecord
2
_U4
340
0
70
0
0
ENDTAB
0
ENDSEC
0
SECTION
2
BLOCKS
0
BLOCK
5
20
100
AcDbEntity
8
0
100
AcDbBlockBegin
2
*Model_Space
70
0
10
0
20
0
30
0
3
*Model_Space
0
ENDBLK
5
21
100
AcDbEntity
8
0
100
AcDbBlockEnd
0
BLOCK
5
1C
100
AcDbEntity
8
0
100
AcDbBlockBegin
2
*Paper_Space
70
0
10
0
20
0
30
0
3
*Paper_Space
0
ENDBLK
5
1D
100
AcDbEntity
8
0
100
AcDbBlockEnd
0
BLOCK
5
24
100
AcDbEntity
8
0
100
AcDbBlockBegin
2
*Paper_Space0
70
0
10
0
20
0
30
0
3
*Paper_Space0
0
ENDBLK
5
25
100
AcDbEntity
8
0
100
AcDbBlockEnd
0
BLOCK
5
143
100
AcDbEntity
8
0
100
AcDbBlockBegin
2
*D1
70
1
10
0
20
0
30
0
3
*D1
0
LINE
5
145
100
AcDbEntity
8
0
62
256
6
ByLayer
370
-2
48
1
60
0
100
AcDbLine
10
21.1875
20
-8.0375
30
0
11
54.693148
21
-8.0375
31
0
39
0
210
0
220
0
230
1
0
LINE
5
146
100
AcDbEntity
8
0
62
256
6
ByLayer
370
-2
48
1
60
0
100
AcDbLine
10
-48.8125
20
7.9625
30
0
11
54.693148
21
7.9625
31
0
39
0
210
0
220
0
230
1
0
LINE
5
147
100
AcDbEntity
8
0
62
256
6
ByLayer
370
-2
48
1
60
0
100
AcDbLine
10
52.693148
20
-11.5375
30
0
11
52.693148
21
-15.0375
31
0
39
0
210
0
220
0
230
1
0
LINE
5
148
100
AcDbEntity
8
0
62
256
6
ByLayer
370
-2
48
1
60
0
100
AcDbLine
10
52.693148
20
11.4625
30
0
11
52.693148
21
14.9625
31
0
39
0
210
0
220
0
230
1
0
SOLID
5
149
100
AcDbEntity
8
0
62
256
6
ByLayer
370
-1
48
1
60
0
100
AcDbTrace
10
53.276481
20
-11.5375
30
0
11
52.109814
21
-11.5375
31
0
12
52.693148
22
-8.0375
32
0
13
52.693148
23
-8.0375
33
0
39
0
210
0
220
0
230
1
0
SOLID
5
14A
100
AcDbEntity
8
0
62
256
6
ByLayer
370
-1
48
1
60
0
100
AcDbTrace
10
52.109814
20
11.4625
30
0
11
53.276481
21
11.4625
31
0
12
52.693148
22
7.9625
32
0
13
52.693148
23
7.9625
33
0
39
0
210
0
220
0
230
1
0
MTEXT
5
14B
100
AcDbEntity
8
0
62
256
6
ByLayer
370
18
48
1
60
0
100
AcDbMText
10
45.693148
20
-0.0375
30
0
210
0
220
0
230
1
1
\A1;16
40
3.5
41
0
44
1
50
90
71
5
72
5
7
iso_b_vert
0
POINT
5
14C
100
AcDbEntity
8
Defpoints
62
0
6
ByLayer
370
-1
48
1
60
0
100
AcDbPoint
10
19.6
20
-8.0375
30
0
39
0
210
0
220
0
230
1
50
360
0
POINT
5
14D
100
AcDbEntity
8
Defpoints
62
0
6
ByLayer
370
-1
48
1
60
0
100
AcDbPoint
10
-50.4
20
7.9625
30
0
39
0
210
0
220
0
230
1
50
360
0
POINT
5
14E
100
AcDbEntity
8
Defpoints
62
0
6
ByLayer
370
-1
48
1
60
0
100
AcDbPoint
10
52.693148
20
7.9625
30
0
39
0
210
0
220
0
230
1
50
360
0
ENDBLK
5
144
100
AcDbEntity
8
0
100
AcDbBlockEnd
0
BLOCK
5
157
100
AcDbEntity
8
0
100
AcDbBlockBegin
2
_U0
70
0
10
0
20
0
30
0
3
_U0
0
MTEXT
5
151
100
AcDbEntity
8
2
62
256
6
ByLayer
370
18
48
1
60
0
100
AcDbMText
10
52.003514
20
-1.533033
30
0
210
0
220
0
230
1
1
\W0.5321;16
40
3.5
41
0
44
1.084337
50
90
71
7
72
5
7
iso_b_vert
0
LINE
5
152
100
AcDbEntity
8
2
62
256
6
ByLayer
370
13
48
1
60
0
100
AcDbLine
10
21.1875
20
-8.0375
30
0
11
54.693148
21
-8.0375
31
0
39
0
210
0
220
0
230
1
0
LINE
5
153
100
AcDbEntity
8
2
62
256
6
ByLayer
370
13
48
1
60
0
100
AcDbLine
10
-48.8125
20
7.9625
30
0
11
54.693148
21
7.9625
31
0
39
0
210
0
220
0
230
1
0
LINE
5
154
100
AcDbEntity
8
2
62
256
6
ByLayer
370
13
48
1
60
0
100
AcDbLine
10
52.693148
20
-8.0375
30
0
11
52.693148
21
7.9625
31
0
39
0
210
0
220
0
230
1
0
SOLID
5
155
100
AcDbEntity
8
2
62
256
6
ByLayer
370
18
48
1
60
0
100
AcDbTrace
10
52.693148
20
-8.0375
30
0
11
52.232364
21
-4.537502
31
0
12
53.153931
22
-4.537498
32
0
13
53.153931
23
-4.537498
33
0
39
0
210
0
220
0
230
1
0
SOLID
5
156
100
AcDbEntity
8
2
62
256
6
ByLayer
370
18
48
1
60
0
100
AcDbTrace
10
52.693148
20
7.9625
30
0
11
53.153931
21
4.462502
31
0
12
52.232364
22
4.462498
32
0
13
52.232364
23
4.462498
33
0
39
0
210
0
220
0
230
1
0
ENDBLK
5
158
100
AcDbEntity
8
0
100
AcDbBlockEnd
0
BLOCK
5
15D
100
AcDbEntity
8
0
100
AcDbBlockBegin
2
*D3
70
1
10
0
20
0
30
0
3
*D3
0
LINE
5
15F
100
AcDbEntity
8
0
62
256
6
ByLayer
370
-2
48
1
60
0
100
AcDbLine
10
21.1875
20
-6.5375
30
0
11
42.693148
21
-6.5375
31
0
39
0
210
0
220
0
230
1
0
LINE
5
160
100
AcDbEntity
8
0
62
256
6
ByLayer
370
-2
48
1
60
0
100
AcDbLine
10
21.1875
20
-8.0375
30
0
11
42.693148
21
-8.0375
31
0
39
0
210
0
220
0
230
1
0
LINE
5
161
100
AcDbEntity
8
0
62
256
6
ByLayer
370
-2
48
1
60
0
100
AcDbLine
10
40.693148
20
-3.0375
30
0
11
40.693148
21
0.4625
31
0
39
0
210
0
220
0
230
1
0
LINE
5
162
100
AcDbEntity
8
0
62
256
6
ByLayer
370
-2
48
1
60
0
100
AcDbLine
10
40.693148
20
-11.5375
30
0
11
40.693148
21
-15.0375
31
0
39
0
210
0
220
0
230
1
0
SOLID
5
163
100
AcDbEntity
8
0
62
256
6
ByLayer
370
-1
48
1
60
0
100
AcDbTrace
10
40.109814
20
-3.0375
30
0
11
41.276481
21
-3.0375
31
0
12
40.693148
22
-6.5375
32
0
13
40.693148
23
-6.5375
33
0
39
0
210
0
220
0
230
1
0
SOLID
5
164
100
AcDbEntity
8
0
62
256
6
ByLayer
370
-1
48
1
60
0
100
AcDbTrace
10
41.276481
20
-11.5375
30
0
11
40.109814
21
-11.5375
31
0
12
40.693148
22
-8.0375
32
0
13
40.693148
23
-8.0375
33
0
39
0
210
0
220
0
230
1
0
MTEXT
5
165
100
AcDbEntity
8
0
62
256
6
ByLayer
370
18
48
1
60
0
100
AcDbMText
10
33.693148
20
-7.2875
30
0
210
0
220
0
230
1
1
\A1;1.5
40
3.5
41
0
44
1
50
90
71
5
72
5
7
iso_b_vert
0
POINT
5
166
100
AcDbEntity
8
Defpoints
62
0
6
ByLayer
370
-1
48
1
60
0
100
AcDbPoint
10
19.6
20
-6.5375
30
0
39
0
210
0
220
0
230
1
50
360
0
POINT
5
167
100
AcDbEntity
8
Defpoints
62
0
6
ByLayer
370
-1
48
1
60
0
100
AcDbPoint
10
19.6
20
-8.0375
30
0
39
0
210
0
220
0
230
1
50
360
0
POINT
5
168
100
AcDbEntity
8
Defpoints
62
0
6
ByLayer
370
-1
48
1
60
0
100
AcDbPoint
10
40.693148
20
-8.0375
30
0
39
0
210
0
220
0
230
1
50
360
0
ENDBLK
5
15E
100
AcDbEntity
8
0
100
AcDbBlockEnd
0
BLOCK
5
170
100
AcDbEntity
8
0
100
AcDbBlockBegin
2
_U1
70
0
10
0
20
0
30
0
3
_U1
0
MTEXT
5
16A
100
AcDbEntity
8
2
62
256
6
ByLayer
370
18
48
1
60
0
100
AcDbMText
10
40.003514
20
-9.492033
30
0
210
0
220
0
230
1
1
\W0.6004;1.5
40
3.5
41
0
44
1.084337
50
90
71
7
72
5
7
iso_b_vert
0
LINE
5
16B
100
AcDbEntity
8
2
62
256
6
ByLayer
370
13
48
1
60
0
100
AcDbLine
10
21.1875
20
-6.5375
30
0
11
42.693148
21
-6.5375
31
0
39
0
210
0
220
0
230
1
0
LINE
5
16C
100
AcDbEntity
8
2
62
256
6
ByLayer
370
13
48
1
60
0
100
AcDbLine
10
21.1875
20
-8.0375
30
0
11
42.693148
21
-8.0375
31
0
39
0
210
0
220
0
230
1
0
LINE
5
16D
100
AcDbEntity
8
2
62
256
6
ByLayer
370
13
48
1
60
0
100
AcDbLine
10
40.693148
20
2.2125
30
0
11
40.693148
21
-16.7875
31
0
39
0
210
0
220
0
230
1
0
SOLID
5
16E
100
AcDbEntity
8
2
62
256
6
ByLayer
370
18
48
1
60
0
100
AcDbTrace
10
40.693148
20
-6.5375
30
0
11
40.232364
21
-3.037502
31
0
12
41.153931
22
-3.037498
32
0
13
41.153931
23
-3.037498
33
0
39
0
210
0
220
0
230
1
0
SOLID
5
16F
100
AcDbEntity
8
2
62
256
6
ByLayer
370
18
48
1
60
0
100
AcDbTrace
10
40.693148
20
-8.0375
30
0
11
41.153931
21
-11.537498
31
0
12
40.232364
22
-11.537502
32
0
13
40.232364
23
-11.537502
33
0
39
0
210
0
220
0
230
1
0
ENDBLK
5
171
100
AcDbEntity
8
0
100
AcDbBlockEnd
0
BLOCK
5
176
100
AcDbEntity
8
0
100
AcDbBlockBegin
2
*D5
70
1
10
0
20
0
30
0
3
*D5
0
LINE
5
178
100
AcDbEntity
8
0
62
256
6
ByLayer
370
-2
48
1
60
0
100
AcDbLine
10
-51.9875
20
7.9625
30
0
11
-64
21
7.9625
31
0
39
0
210
0
220
0
230
1
0
LINE
5
179
100
AcDbEntity
8
0
62
256
6
ByLayer
370
-2
48
1
60
0
100
AcDbLine
10
-51.9875
20
-8.0375
30
0
11
-64
21
-8.0375
31
0
39
0
210
0
220
0
230
1
0
LINE
5
17A
100
AcDbEntity
8
0
62
256
6
ByLayer
370
-2
48
1
60
0
100
AcDbLine
10
-62
20
11.4625
30
0
11
-62
21
14.9625
31
0
39
0
210
0
220
0
230
1
0
LINE
5
17B
100
AcDbEntity
8
0
62
256
6
ByLayer
370
-2
48
1
60
0
100
AcDbLine
10
-62
20
-11.5375
30
0
11
-62
21
-15.0375
31
0
39
0
210
0
220
0
230
1
0
SOLID
5
17C
100
AcDbEntity
8
0
62
256
6
ByLayer
370
-1
48
1
60
0
100
AcDbTrace
10
-62.583333
20
11.4625
30
0
11
-61.416667
21
11.4625
31
0
12
-62
22
7.9625
32
0
13
-62
23
7.9625
33
0
39
0
210
0
220
0
230
1
0
SOLID
5
17D
100
AcDbEntity
8
0
62
256
6
ByLayer
370
-1
48
1
60
0
100
AcDbTrace
10
-61.416667
20
-11.5375
30
0
11
-62.583333
21
-11.5375
31
0
12
-62
22
-8.0375
32
0
13
-62
23
-8.0375
33
0
39
0
210
0
220
0
230
1
0
MTEXT
5
17E
100
AcDbEntity
8
0
62
256
6
ByLayer
370
18
48
1
60
0
100
AcDbMText
10
-69
20
-0.0375
30
0
210
0
220
0
230
1
1
\A1;16
40
3.5
41
0
44
1
50
90
71
5
72
5
7
iso_b_vert
0
POINT
5
17F
100
AcDbEntity
8
Defpoints
62
0
6
ByLayer
370
-1
48
1
60
0
100
AcDbPoint
10
-50.4
20
7.9625
30
0
39
0
210
0
220
0
230
1
50
360
0
POINT
5
180
100
AcDbEntity
8
Defpoints
62
0
6
ByLayer
370
-1
48
1
60
0
100
AcDbPoint
10
-50.4
20
-8.0375
30
0
39
0
210
0
220
0
230
1
50
360
0
POINT
5
181
100
AcDbEntity
8
Defpoints
62
0
6
ByLayer
370
-1
48
1
60
0
100
AcDbPoint
10
-62
20
-8.0375
30
0
39
0
210
0
220
0
230
1
50
360
0
ENDBLK
5
177
100
AcDbEntity
8
0
100
AcDbBlockEnd
0
BLOCK
5
18A
100
AcDbEntity
8
0
100
AcDbBlockBegin
2
_U2
70
0
10
0
20
0
30
0
3
_U2
0
MTEXT
5
184
100
AcDbEntity
8
SK2
62
256
6
ByLayer
370
18
48
1
60
0
100
AcDbMText
10
-62.689634
20
-1.533033
30
0
210
0
220
0
230
1
1
\W0.5321;16
40
3.5
41
0
44
1.084337
50
90
71
7
72
5
7
iso_b_vert
0
LINE
5
185
100
AcDbEntity
8
SK2
62
256
6
ByLayer
370
13
48
1
60
0
100
AcDbLine
10
-51.9875
20
7.9625
30
0
11
-64
21
7.9625
31
0
39
0
210
0
220
0
230
1
0
LINE
5
186
100
AcDbEntity
8
SK2
62
256
6
ByLayer
370
13
48
1
60
0
100
AcDbLine
10
-51.9875
20
-8.0375
30
0
11
-64
21
-8.0375
31
0
39
0
210
0
220
0
230
1
0
LINE
5
187
100
AcDbEntity
8
SK2
62
256
6
ByLayer
370
13
48
1
60
0
100
AcDbLine
10
-62
20
7.9625
30
0
11
-62
21
-8.0375
31
0
39
0
210
0
220
0
230
1
0
SOLID
5
188
100
AcDbEntity
8
SK2
62
256
6
ByLayer
370
18
48
1
60
0
100
AcDbTrace
10
-62
20
7.9625
30
0
11
-61.539216
21
4.462502
31
0
12
-62.460784
22
4.462498
32
0
13
-62.460784
23
4.462498
33
0
39
0
210
0
220
0
230
1
0
SOLID
5
189
100
AcDbEntity
8
SK2
62
256
6
ByLayer
370
18
48
1
60
0
100
AcDbTrace
10
-62
20
-8.0375
30
0
11
-62.460784
21
-4.537502
31
0
12
-61.539216
22
-4.537498
32
0
13
-61.539216
23
-4.537498
33
0
39
0
210
0
220
0
230
1
0
ENDBLK
5
18B
100
AcDbEntity
8
0
100
AcDbBlockEnd
0
BLOCK
5
190
100
AcDbEntity
8
0
100
AcDbBlockBegin
2
*D7
70
1
10
0
20
0
30
0
3
*D7
0
LINE
5
192
100
AcDbEntity
8
0
62
256
6
ByLayer
370
-2
48
1
60
0
100
AcDbLine
10
11.6
20
-5.2
30
0
11
11.6
21
16.2125
31
0
39
0
210
0
220
0
230
1
0
LINE
5
193
100
AcDbEntity
8
0
62
256
6
ByLayer
370
-2
48
1
60
0
100
AcDbLine
10
19.6
20
-6.45
30
0
11
19.6
21
16.2125
31
0
39
0
210
0
220
0
230
1
0
LINE
5
194
100
AcDbEntity
8
0
62
256
6
ByLayer
370
-2
48
1
60
0
100
AcDbLine
10
8.1
20
14.2125
30
0
11
4.6
21
14.2125
31
0
39
0
210
0
220
0
230
1
0
LINE
5
195
100
AcDbEntity
8
0
62
256
6
ByLayer
370
-2
48
1
60
0
100
AcDbLine
10
23.1
20
14.2125
30
0
11
26.6
21
14.2125
31
0
39
0
210
0
220
0
230
1
0
SOLID
5
196
100
AcDbEntity
8
0
62
256
6
ByLayer
370
-1
48
1
60
0
100
AcDbTrace
10
8.1
20
13.629167
30
0
11
8.1
21
14.795833
31
0
12
11.6
22
14.2125
32
0
13
11.6
23
14.2125
33
0
39
0
210
0
220
0
230
1
0
SOLID
5
197
100
AcDbEntity
8
0
62
256
6
ByLayer
370
-1
48
1
60
0
100
AcDbTrace
10
23.1
20
14.795833
30
0
11
23.1
21
13.629167
31
0
12
19.6
22
14.2125
32
0
13
19.6
23
14.2125
33
0
39
0
210
0
220
0
230
1
0
MTEXT
5
198
100
AcDbEntity
8
0
62
256
6
ByLayer
370
18
48
1
60
0
100
AcDbMText
10
15.6
20
21.2125
30
0
210
0
220
0
230
1
1
\A1;8
40
3.5
41
0
44
1
50
0
71
5
72
5
7
iso_b_vert
0
POINT
5
199
100
AcDbEntity
8
Defpoints
62
0
6
ByLayer
370
-1
48
1
60
0
100
AcDbPoint
10
11.6
20
-6.7875
30
0
39
0
210
0
220
0
230
1
50
360
0
POINT
5
19A
100
AcDbEntity
8
Defpoints
62
0
6
ByLayer
370
-1
48
1
60
0
100
AcDbPoint
10
19.6
20
-8.0375
30
0
39
0
210
0
220
0
230
1
50
360
0
POINT
5
19B
100
AcDbEntity
8
Defpoints
62
0
6
ByLayer
370
-1
48
1
60
0
100
AcDbPoint
10
19.6
20
14.2125
30
0
39
0
210
0
220
0
230
1
50
360
0
ENDBLK
5
191
100
AcDbEntity
8
0
100
AcDbBlockEnd
0
BLOCK
5
1A3
100
AcDbEntity
8
0
100
AcDbBlockBegin
2
_U3
70
0
10
0
20
0
30
0
3
_U3
0
MTEXT
5
19D
100
AcDbEntity
8
2
62
256
6
ByLayer
370
18
48
1
60
0
100
AcDbMText
10
15.002767
20
15.245134
30
0
210
0
220
0
230
1
1
\W0.5404;8
40
3.5
41
0
44
1.084337
50
0
71
7
72
5
7
iso_b_vert
0
LINE
5
19E
100
AcDbEntity
8
2
62
256
6
ByLayer
370
13
48
1
60
0
100
AcDbLine
10
11.6
20
-5.2
30
0
11
11.6
21
16.2125
31
0
39
0
210
0
220
0
230
1
0
LINE
5
19F
100
AcDbEntity
8
2
62
256
6
ByLayer
370
13
48
1
60
0
100
AcDbLine
10
19.6
20
-6.45
30
0
11
19.6
21
16.2125
31
0
39
0
210
0
220
0
230
1
0
LINE
5
1A0
100
AcDbEntity
8
2
62
256
6
ByLayer
370
13
48
1
60
0
100
AcDbLine
10
11.6
20
14.2125
30
0
11
19.6
21
14.2125
31
0
39
0
210
0
220
0
230
1
0
SOLID
5
1A1
100
AcDbEntity
8
2
62
256
6
ByLayer
370
18
48
1
60
0
100
AcDbTrace
10
11.6
20
14.2125
30
0
11
15.099998
21
14.673284
31
0
12
15.100002
22
13.751716
32
0
13
15.100002
23
13.751716
33
0
39
0
210
0
220
0
230
1
0
SOLID
5
1A2
100
AcDbEntity
8
2
62
256
6
ByLayer
370
18
48
1
60
0
100
AcDbTrace
10
19.6
20
14.2125
30
0
11
16.100002
21
13.751716
31
0
12
16.099998
22
14.673284
32
0
13
16.099998
23
14.673284
33
0
39
0
210
0
220
0
230
1
0
ENDBLK
5
1A4
100
AcDbEntity
8
0
100
AcDbBlockEnd
0
BLOCK
5
1A9
100
AcDbEntity
8
0
100
AcDbBlockBegin
2
*D9
70
1
10
0
20
0
30
0
3
*D9
0
LINE
5
1AB
100
AcDbEntity
8
0
62
256
6
ByLayer
370
-2
48
1
60
0
100
AcDbLine
10
-50.4
20
9.55
30
0
11
-50.4
21
32.2125
31
0
39
0
210
0
220
0
230
1
0
LINE
5
1AC
100
AcDbEntity
8
0
62
256
6
ByLayer
370
-2
48
1
60
0
100
AcDbLine
10
19.6
20
-6.45
30
0
11
19.6
21
32.2125
31
0
39
0
210
0
220
0
230
1
0
LINE
5
1AD
100
AcDbEntity
8
0
62
256
6
ByLayer
370
-2
48
1
60
0
100
AcDbLine
10
-46.9
20
30.2125
30
0
11
16.1
21
30.2125
31
0
39
0
210
0
220
0
230
1
0
SOLID
5
1AE
100
AcDbEntity
8
0
62
256
6
ByLayer
370
-1
48
1
60
0
100
AcDbTrace
10
-46.9
20
30.795833
30
0
11
-46.9
21
29.629167
31
0
12
-50.4
22
30.2125
32
0
13
-50.4
23
30.2125
33
0
39
0
210
0
220
0
230
1
0
SOLID
5
1AF
100
AcDbEntity
8
0
62
256
6
ByLayer
370
-1
48
1
60
0
100
AcDbTrace
10
16.1
20
29.629167
30
0
11
16.1
21
30.795833
31
0
12
19.6
22
30.2125
32
0
13
19.6
23
30.2125
33
0
39
0
210
0
220
0
230
1
0
MTEXT
5
1B0
100
AcDbEntity
8
0
62
256
6
ByLayer
370
18
48
1
60
0
100
AcDbMText
10
-15.4
20
37.2125
30
0
210
0
220
0
230
1
1
\A1;70
40
3.5
41
0
44
1
50
0
71
5
72
5
7
iso_b_vert
0
POINT
5
1B1
100
AcDbEntity
8
Defpoints
62
0
6
ByLayer
370
-1
48
1
60
0
100
AcDbPoint
10
-50.4
20
7.9625
30
0
39
0
210
0
220
0
230
1
50
360
0
POINT
5
1B2
100
AcDbEntity
8
Defpoints
62
0
6
ByLayer
370
-1
48
1
60
0
100
AcDbPoint
10
19.6
20
-8.0375
30
0
39
0
210
0
220
0
230
1
50
360
0
POINT
5
1B3
100
AcDbEntity
8
Defpoints
62
0
6
ByLayer
370
-1
48
1
60
0
100
AcDbPoint
10
19.6
20
30.2125
30
0
39
0
210
0
220
0
230
1
50
360
0
ENDBLK
5
1AA
100
AcDbEntity
8
0
100
AcDbBlockEnd
0
BLOCK
5
1BB
100
AcDbEntity
8
0
100
AcDbBlockBegin
2
_U4
70
0
10
0
20
0
30
0
3
_U4
0
MTEXT
5
1B5
100
AcDbEntity
8
SK2
62
256
6
ByLayer
370
18
48
1
60
0
100
AcDbMText
10
-17.304966
20
31.245134
30
0
210
0
220
0
230
1
1
\W0.6740;70
40
3.5
41
0
44
1.084337
50
0
71
7
72
5
7
iso_b_vert
0
LINE
5
1B6
100
AcDbEntity
8
SK2
62
256
6
ByLayer
370
13
48
1
60
0
100
AcDbLine
10
-50.4
20
9.55
30
0
11
-50.4
21
32.2125
31
0
39
0
210
0
220
0
230
1
0
LINE
5
1B7
100
AcDbEntity
8
SK2
62
256
6
ByLayer
370
13
48
1
60
0
100
AcDbLine
10
19.6
20
-6.45
30
0
11
19.6
21
32.2125
31
0
39
0
210
0
220
0
230
1
0
LINE
5
1B8
100
AcDbEntity
8
SK2
62
256
6
ByLayer
370
13
48
1
60
0
100
AcDbLine
10
-50.4
20
30.2125
30
0
11
19.6
21
30.2125
31
0
39
0
210
0
220
0
230
1
0
SOLID
5
1B9
100
AcDbEntity
8
SK2
62
256
6
ByLayer
370
18
48
1
60
0
100
AcDbTrace
10
-50.4
20
30.2125
30
0
11
-46.900002
21
30.673284
31
0
12
-46.899998
22
29.751716
32
0
13
-46.899998
23
29.751716
33
0
39
0
210
0
220
0
230
1
0
SOLID
5
1BA
100
AcDbEntity
8
SK2
62
256
6
ByLayer
370
18
48
1
60
0
100
AcDbTrace
10
19.6
20
30.2125
30
0
11
16.100002
21
29.751716
31
0
12
16.099998
22
30.673284
32
0
13
16.099998
23
30.673284
33
0
39
0
210
0
220
0
230
1
0
ENDBLK
5
1BC
100
AcDbEntity
8
0
100
AcDbBlockEnd
0
ENDSEC
0
SECTION
2
ENTITIES
0
ARC
5
E4
100
AcDbEntity
8
1
62
256
6
ByLayer
370
18
48
1
60
0
100
AcDbCircle
39
0
10
11.6
20
-5.9875
30
0
40
0.79999999999993
210
0
220
0
230
1
100
AcDbArc
50
180
51
270
0
ARC
5
E5
100
AcDbEntity
8
SK1
62
256
6
ByLayer
370
18
48
1
60
0
100
AcDbCircle
39
0
10
-1.6
20
-9.3875
30
0
40
1.6
210
0
220
0
230
1
100
AcDbArc
50
90
51
117.048111
0
ELLIPSE
5
E6
100
AcDbEntity
8
1
62
256
6
ByLayer
370
18
48
1
60
0
100
AcDbEllipse
10
19.600096
20
-18.781906
30
0
11
0.5262859205154
21
24.8499453532056
31
0
210
0
220
0
230
1
40
0.353496
41
1.02803288245788
42
1.03744757501086
0
ELLIPSE
5
E7
100
AcDbEntity
8
1
62
256
6
ByLayer
370
18
48
1
60
0
100
AcDbEllipse
10
8.12698
20
0.5875
30
0
11
1.94406258669302E-16
21
3.175
31
0
210
0
220
0
230
1
40
0.891007
41
-3.12794327568598
42
-1.90435897834823
0
ELLIPSE
5
E8
100
AcDbEntity
8
1
62
256
6
ByLayer
370
18
48
1
60
0
100
AcDbEllipse
10
8.12698
20
0.5875
30
0
11
1.94406258669302E-16
21
3.175
31
0
210
0
220
0
230
1
40
0.891007
41
-1.23723367524156
42
-0.0136493779038164
0
ELLIPSE
5
E9
100
AcDbEntity
8
1
62
256
6
ByLayer
370
18
48
1
60
0
100
AcDbEllipse
10
8.204159
20
0.5875
30
0
11
-5.83218776007907E-16
21
-3.175
31
0
210
0
220
0
230
1
40
0.891007
41
-0.466679858345003
42
1.16200065020728
0
ELLIPSE
5
EA
100
AcDbEntity
8
1
62
256
6
ByLayer
370
18
48
1
60
0
100
AcDbEllipse
10
8.204159
20
0.5875
30
0
11
-5.83218776007907E-16
21
-3.175
31
0
210
0
220
0
230
1
40
0.891007
41
1.97959200338251
42
-2.67491279524479
0
ELLIPSE
5
EB
100
AcDbEntity
8
1
62
256
6
ByLayer
370
18
48
1
60
0
100
AcDbEllipse
10
8.693501
20
-5.9875
30
0
11
1.76215141166822
21
0
31
0
210
0
220
0
230
1
40
0.45399
41
3.14159265358979
42
-1.5707963267949
0
ELLIPSE
5
EC
100
AcDbEntity
8
1
62
256
6
ByLayer
370
18
48
1
60
0
100
AcDbEllipse
10
8.534601
20
0.5875
30
0
11
-3.5633858044891
21
4.36374489729782E-16
31
0
210
0
220
0
230
1
40
0.891007
41
0.982423360466026
42
1.1041164684499
0
ELLIPSE
5
ED
100
AcDbEntity
8
1
62
256
6
ByLayer
370
18
48
1
60
0
100
AcDbEllipse
10
9.86953
20
0.5875
30
0
11
4.53787995752994
21
0
31
0
210
0
220
0
230
1
40
0.851581
41
2.38911365625786
42
2.64074739764267
0
ELLIPSE
5
EE
100
AcDbEntity
8
1
62
256
6
ByLayer
370
18
48
1
60
0
100
AcDbEllipse
10
9.86953
20
0.5875
30
0
11
4.53787995752994
21
0
31
0
210
0
220
0
230
1
40
0.851581
41
-2.64074739764267
42
-2.38911365625786
0
ELLIPSE
5
EF
100
AcDbEntity
8
1
62
256
6
ByLayer
370
18
48
1
60
0
100
AcDbEllipse
10
8.534601
20
0.5875
30
0
11
-3.5633858044891
21
4.36374489729782E-16
31
0
210
0
220
0
230
1
40
0.891007
41
-1.1041164684499
42
-0.982423360466027
0
ELLIPSE
5
F0
100
AcDbEntity
8
1
62
256
6
ByLayer
370
18
48
1
60
0
100
AcDbEllipse
10
7.48546
20
0.5875
30
0
11
-2.37016436750552E-16
21
-1.2903
31
0
210
0
220
0
230
1
40
0.891007
41
2.61799387799149
42
2.91430174732685
0
ELLIPSE
5
F1
100
AcDbEntity
8
1
62
256
6
ByLayer
370
18
48
1
60
0
100
AcDbEllipse
10
7.48546
20
0.5875
30
0
11
-2.37016436750552E-16
21
-1.2903
31
0
210
0
220
0
230
1
40
0.891007
41
0.224787314505946
42
0.523598775598298
0
ELLIPSE
5
F2
100
AcDbEntity
8
1
62
256
6
ByLayer
370
18
48
1
60
0
100
AcDbEllipse
10
7.48546
20
0.5875
30
0
11
-2.37016436750552E-16
21
-1.2903
31
0
210
0
220
0
230
1
40
0.891007
41
0.523598775598302
42
1.5707963267949
0
ELLIPSE
5
F3
100
AcDbEntity
8
1
62
256
6
ByLayer
370
18
48
1
60
0
100
AcDbEllipse
10
7.48546
20
0.5875
30
0
11
7.90054789168507E-17
21
1.2903
31
0
210
0
220
0
230
1
40
0.891007
41
-1.5707963267949
42
-0.523598775598304
0
ELLIPSE
5
F4
100
AcDbEntity
8
1
62
256
6
ByLayer
370
18
48
1
60
0
100
AcDbEllipse
10
8.80709
20
0.5875
30
0
11
2.41308682020735E-17
21
0.394100000000058
31
0
210
0
220
0
230
1
40
0.436347
41
0.288932900934431
42
1.5707963267949
0
ELLIPSE
5
F5
100
AcDbEntity
8
1
62
256
6
ByLayer
370
18
48
1
60
0
100
AcDbEllipse
10
8.80709
20
0.5875
30
0
11
2.41308682021E-17
21
0.394100000000491
31
0
210
0
220
0
230
1
40
0.436347
41
1.5707963267949
42
2.85265975265443
0
ELLIPSE
5
F6
100
AcDbEntity
8
1
62
256
6
ByLayer
370
18
48
1
60
0
100
AcDbEllipse
10
8.630102
20
-0.1542
30
0
11
0.166590173381895
21
0.346346854433053
31
0
210
0
220
0
230
1
40
0.458817
41
-2.28436054737904
42
0.137551892608002
0
ELLIPSE
5
F7
100
AcDbEntity
8
1
62
256
6
ByLayer
370
18
48
1
60
0
100
AcDbEllipse
10
8.630102
20
1.3292
30
0
11
0.16659017338191
21
-0.346346854433052
31
0
210
0
220
0
230
1
40
0.458817
41
-0.137551892608154
42
2.28436054737895
0
ELLIPSE
5
F8
100
AcDbEntity
8
1
62
256
6
ByLayer
370
18
48
1
60
0
100
AcDbEllipse
10
8.146275
20
-0.697075
30
0
11
0.297314427411064
21
0.208297956712592
31
0
210
0
220
0
230
1
40
0.514259
41
0.622058059848818
42
1.50053422562284
0
ELLIPSE
5
F9
100
AcDbEntity
8
1
62
256
6
ByLayer
370
18
48
1
60
0
100
AcDbEllipse
10
8.146275
20
-0.697075
30
0
11
0.29731442741184
21
0.208297956712835
31
0
210
0
220
0
230
1
40
0.514259
41
1.50053422562445
42
2.62955567232625
0
ELLIPSE
5
FA
100
AcDbEntity
8
1
62
256
6
ByLayer
370
18
48
1
60
0
100
AcDbEllipse
10
8.146275
20
1.872075
30
0
11
0.297314427410911
21
-0.20829795671275
31
0
210
0
220
0
230
1
40
0.514259
41
-2.78239765148273
42
-1.50053422562159
0
ELLIPSE
5
FB
100
AcDbEntity
8
1
62
256
6
ByLayer
370
18
48
1
60
0
100
AcDbEllipse
10
8.146275
20
1.872075
30
0
11
0.29731442741099
21
-0.208297956712478
31
0
210
0
220
0
230
1
40
0.514259
41
-1.50053422562323
42
-0.579535660854744
0
ELLIPSE
5
FC
100
AcDbEntity
8
1
62
256
6
ByLayer
370
18
48
1
60
0
100
AcDbEllipse
10
7.989389
20
0.5875
30
0
11
1.83690953073357E-16
21
3
31
0
210
0
220
0
230
1
40
0.891007
41
0
42
-3.14159258717258
0
ELLIPSE
5
FD
100
AcDbEntity
8
1
62
256
6
ByLayer
370
18
48
1
60
0
100
AcDbEllipse
10
8.261784
20
0.5875
30
0
11
-3.07939513732175E-16
21
-1.6764
31
0
210
0
220
0
230
1
40
0.891007
41
2.0943951023932
42
3.14159265358979
0
ELLIPSE
5
FE
100
AcDbEntity
8
1
62
256
6
ByLayer
370
18
48
1
60
0
100
AcDbEllipse
10
8.261784
20
0.5875
30
0
11
-3.07939513732175E-16
21
-1.6764
31
0
210
0
220
0
230
1
40
0.891007
41
1.0471975511966
42
2.0943951023932
0
ELLIPSE
5
FF
100
AcDbEntity
8
1
62
256
6
ByLayer
370
18
48
1
60
0
100
AcDbEllipse
10
8.261784
20
0.5875
30
0
11
-3.07939513732175E-16
21
-1.6764
31
0
210
0
220
0
230
1
40
0.891007
41
0
42
1.0471975511966
0
ELLIPSE
5
100
100
AcDbEntity
8
1
62
256
6
ByLayer
370
18
48
1
60
0
100
AcDbEllipse
10
8.261784
20
0.5875
30
0
11
-3.07939513732175E-16
21
-1.6764
31
0
210
0
220
0
230
1
40
0.891007
41
-1.04719755119659
42
-2.97311325402492E-16
0
ELLIPSE
5
101
100
AcDbEntity
8
1
62
256
6
ByLayer
370
18
48
1
60
0
100
AcDbEllipse
10
8.261784
20
0.5875
30
0
11
-3.07939513732175E-16
21
-1.6764
31
0
210
0
220
0
230
1
40
0.891007
41
-2.09439510239319
42
-1.04719755119659
0
ELLIPSE
5
102
100
AcDbEntity
8
1
62
256
6
ByLayer
370
18
48
1
60
0
100
AcDbEllipse
10
8.261784
20
0.5875
30
0
11
-3.07939513732175E-16
21
-1.6764
31
0
210
0
220
0
230
1
40
0.891007
41
3.14159265358979
42
-2.09439510239319
0
ELLIPSE
5
103
100
AcDbEntity
8
1
62
256
6
ByLayer
370
18
48
1
60
0
100
AcDbEllipse
10
8.261784
20
0.5875
30
0
11
1.83690953073357E-16
21
3
31
0
210
0
220
0
230
1
40
0.891007
41
0
42
6.28318530717959
0
ELLIPSE
5
104
100
AcDbEntity
8
1
62
256
6
ByLayer
370
18
48
1
60
0
100
AcDbEllipse
10
13.785192
20
-7.2875
30
0
11
3.48096779303155
21
4.0777983950858E-15
31
0
210
0
220
0
230
1
40
0.086183
41
-0.349065850557258
42
0.349065850557227
0
POINT
5
70
100
AcDbEntity
8
81
62
256
6
ByLayer
370
18
48
1
60
0
100
AcDbPoint
10
19.6
20
-8.0375
30
0
39
0
210
0
220
0
230
1
50
360
0
POINT
5
72
100
AcDbEntity
8
80
62
256
6
ByLayer
370
18
48
1
60
0
100
AcDbPoint
10
0
20
0
30
0
39
0
210
0
220
0
230
1
50
360
0
POINT
5
74
100
AcDbEntity
8
1
62
256
6
ByLayer
370
18
48
1
60
1
100
AcDbPoint
10
19.6
20
-8.0375
30
0
39
0
210
0
220
0
230
1
50
360
0
POINT
5
76
100
AcDbEntity
8
1
62
256
6
ByLayer
370
18
48
1
60
1
100
AcDbPoint
10
-50.4
20
7.9625
30
0
39
0
210
0
220
0
230
1
50
360
0
POINT
5
77
100
AcDbEntity
8
1
62
256
6
ByLayer
370
18
48
1
60
1
100
AcDbPoint
10
19.6
20
-6.5375
30
0
39
0
210
0
220
0
230
1
50
360
0
POINT
5
78
100
AcDbEntity
8
1
62
256
6
ByLayer
370
18
48
1
60
1
100
AcDbPoint
10
19.6
20
-8.0375
30
0
39
0
210
0
220
0
230
1
50
360
0
POINT
5
79
100
AcDbEntity
8
1
62
256
6
ByLayer
370
18
48
1
60
1
100
AcDbPoint
10
-50.4
20
7.9625
30
0
39
0
210
0
220
0
230
1
50
360
0
POINT
5
7A
100
AcDbEntity
8
1
62
256
6
ByLayer
370
18
48
1
60
1
100
AcDbPoint
10
-50.4
20
-8.0375
30
0
39
0
210
0
220
0
230
1
50
360
0
POINT
5
7B
100
AcDbEntity
8
1
62
256
6
ByLayer
370
18
48
1
60
1
100
AcDbPoint
10
11.6
20
-6.7875
30
0
39
0
210
0
220
0
230
1
50
360
0
POINT
5
7C
100
AcDbEntity
8
1
62
256
6
ByLayer
370
18
48
1
60
1
100
AcDbPoint
10
19.6
20
-8.0375
30
0
39
0
210
0
220
0
230
1
50
360
0
POINT
5
7D
100
AcDbEntity
8
1
62
256
6
ByLayer
370
18
48
1
60
1
100
AcDbPoint
10
-50.4
20
7.9625
30
0
39
0
210
0
220
0
230
1
50
360
0
POINT
5
7E
100
AcDbEntity
8
1
62
256
6
ByLayer
370
18
48
1
60
1
100
AcDbPoint
10
19.6
20
-8.0375
30
0
39
0
210
0
220
0
230
1
50
360
0
SPLINE
5
105
100
AcDbEntity
8
1
62
256
6
ByLayer
370
18
48
1
60
0
100
AcDbSpline
70
4
71
3
72
8
73
4
40
0
40
0
40
0
40
0
40
1
40
1
40
1
40
1
41
1
10
19.1151965625523
20
-6.05782135690282
30
0
41
1
10
19.0996254207599
20
-6.03438519961313
30
0
41
1
10
19.084051416583
20
-6.0109447341429
30
0
41
1
10
19.0684745762712
20
-5.9875000000001
30
0
0
SPLINE
5
106
100
AcDbEntity
8
1
62
256
6
ByLayer
370
18
48
1
60
0
100
AcDbSpline
70
4
71
3
72
19
73
15
40
0
40
0
40
0
40
0
40
0.279651526313401
40
0.279651526313401
40
0.34956440789175
40
0.34956440789175
40
0.419477289470099
40
0.419477289470099
40
0.559303052626797
40
0.699128815783495
40
0.699128815783495
40
0.838954578940194
40
0.838954578940194
40
1
40
1
40
1
40
1
41
1
10
19.1151965625523
20
-6.05782135690282
30
0
41
1
10
19.1151965625523
20
-6.10705643705788
30
0
41
1
10
19.1151965625523
20
-6.15546411072762
30
0
41
1
10
19.1151965625523
20
-6.21494055320804
30
0
41
1
10
19.1151965625523
20
-6.22678377054288
30
0
41
1
10
19.1151965625523
20
-6.25036439259716
30
0
41
1
10
19.1151965625523
20
-6.26212684287958
30
0
41
1
10
19.1151965625523
20
-6.29702524950866
30
0
41
1
10
19.1151965625523
20
-6.34252721477893
30
0
41
1
10
19.1151965625523
20
-6.38599611951767
30
0
41
1
10
19.1151965625523
20
-6.42843452207842
30
0
41
1
10
19.1151965625523
20
-6.44895892833648
30
0
41
1
10
19.1151965625523
20
-6.49138068920638
30
0
41
1
10
19.1151965625523
20
-6.51308015726337
30
0
41
1
10
19.1151965625523
20
-6.53377035690386
30
0
0
SPLINE
5
107
100
AcDbEntity
8
1
62
256
6
ByLayer
370
18
48
1
60
0
100
AcDbSpline
70
4
71
3
72
30
73
26
40
0
40
0
40
0
40
0
40
0.0360746251386834
40
0.0360746251386834
40
0.084270893881772
40
0.084270893881772
40
0.132467162624861
40
0.132467162624861
40
0.228859700111003
40
0.325252237597145
40
0.325252237597145
40
0.373448506340204
40
0.373448506340204
40
0.421644775083263
40
0.421644775083263
40
0.614429850055494
40
0.614429850055494
40
0.662626118798557
40
0.662626118798557
40
0.710822387541619
40
0.710822387541619
40
0.807214925027746
40
0.903607462513873
40
0.903607462513873
40
1
40
1
40
1
40
1
41
1
10
12.6100952611529
20
-6.68065549683547
30
0
41
1
10
12.6013465545421
20
-6.67575640382989
30
0
41
1
10
12.5927037062059
20
-6.67068085105379
30
0
41
1
10
12.5727652822257
20
-6.65840519970294
30
0
41
1
10
12.5615559612824
20
-6.65106131940931
30
0
41
1
10
12.5395415735816
20
-6.63569968990529
30
0
41
1
10
12.52869943459
20
-6.62765176296313
30
0
41
1
10
12.4971199198612
20
-6.60269509062729
30
0
41
1
10
12.4576003869268
20
-6.56734375443168
30
0
41
1
10
12.4232272241071
20
-6.5278622224254
30
0
41
1
10
12.3994288445959
20
-6.49666083558944
30
0
41
1
10
12.3918269517154
20
-6.48599481079577
30
0
41
1
10
12.3773021571982
20
-6.46411783988941
30
0
41
1
10
12.3703578968288
20
-6.45286876413991
30
0
41
1
10
12.3376541354562
20
-6.3956775667327
30
0
41
1
10
12.3182135032721
20
-6.34762243107446
30
0
41
1
10
12.3018579971376
20
-6.28483253105705
30
0
41
1
10
12.2989884991901
20
-6.27213701605086
30
0
41
1
10
12.29405824434
20
-6.24646902066615
30
0
41
1
10
12.2920058360311
20
-6.23352419560769
30
0
41
1
10
12.2871153830497
20
-6.19477834686026
30
0
41
1
10
12.2839003701771
20
-6.14303897396852
30
0
41
1
10
12.2869029567005
20
-6.09115243447332
30
0
41
1
10
12.2929237600049
20
-6.03919445571611
30
0
41
1
10
12.297454389106
20
-6.01319416393849
30
0
41
1
10
12.3033874700005
20
-5.9875000000001
30
0
0
SPLINE
5
108
100
AcDbEntity
8
1
62
256
6
ByLayer
370
18
48
1
60
0
100
AcDbSpline
70
4
71
3
72
8
73
4
40
0
40
0
40
0
40
0
40
1
40
1
40
1
40
1
41
1
10
10.8
20
1.6270311443146
30
0
41
1
10
10.8
20
1.58451276451572
30
0
41
1
10
10.8
20
1.54162096416732
30
0
41
1
10
10.8
20
1.49833314431461
30
0
0
SPLINE
5
109
100
AcDbEntity
8
1
62
256
6
ByLayer
370
18
48
1
60
0
100
AcDbSpline
70
4
71
3
72
8
73
4
40
0
40
0
40
0
40
0
40
1
40
1
40
1
40
1
41
1
10
10.7999999999999
20
-0.334686144304357
30
0
41
1
10
10.7999999999999
20
-0.373978304298305
30
0
41
1
10
10.7999999999999
20
-0.413091462380407
30
0
41
1
10
10.8
20
-0.45203114431456
30
0
0
SPLINE
5
10A
100
AcDbEntity
8
1
62
256
6
ByLayer
370
18
48
1
60
0
100
AcDbSpline
70
4
71
3
72
8
73
4
40
0
40
0
40
0
40
0
40
1
40
1
40
1
40
1
41
1
10
15.0605205146148
20
-7.46274860109776
30
0
41
1
10
15.022591840807
20
-7.57132308914612
30
0
41
1
10
14.9841083416915
20
-7.67962261272018
30
0
41
1
10
14.9447730529043
20
-7.78750000000008
30
0
0
SPLINE
5
10B
100
AcDbEntity
8
1
62
256
6
ByLayer
370
18
48
1
60
0
100
AcDbSpline
70
4
71
3
72
18
73
14
40
0
40
0
40
0
40
0
40
0.125000000000002
40
0.125000000000002
40
0.250000000000003
40
0.250000000000003
40
0.500000000000009
40
0.500000000000009
40
0.625000000000011
40
0.625000000000011
40
0.750000000000014
40
0.750000000000014
40
1
40
1
40
1
40
1
41
1
10
15.0605205146152
20
-7.11225139890217
30
0
41
1
10
15.0654011884592
20
-7.12622279865718
30
0
41
1
10
15.069699482527
20
-7.14043513011092
30
0
41
1
10
15.077116192275
20
-7.16934791110876
30
0
41
1
10
15.0802073141046
20
-7.18395227659354
30
0
41
1
10
15.087611076417
20
-7.22793074647257
30
0
41
1
10
15.0900989817374
20
-7.25758160798782
30
0
41
1
10
15.090093091305
20
-7.30256464953695
30
0
41
1
10
15.0894537743191
20
-7.31771981532435
30
0
41
1
10
15.0869293462575
20
-7.34760259869995
30
0
41
1
10
15.0850507573539
20
-7.36237828228636
30
0
41
1
10
15.0776177268468
20
-7.40622215116304
30
0
41
1
10
15.0702800702558
20
-7.43481093149538
30
0
41
1
10
15.0605205146148
20
-7.46274860109776
30
0
0
SPLINE
5
10C
100
AcDbEntity
8
1
62
256
6
ByLayer
370
18
48
1
60
0
100
AcDbSpline
70
4
71
3
72
8
73
4
40
0
40
0
40
0
40
0
40
1
40
1
40
1
40
1
41
1
10
14.9447730529044
20
-6.78750000000008
30
0
41
1
10
14.9841083416916
20
-6.89537738727998
30
0
41
1
10
15.022591840807
20
-7.00367691085398
30
0
41
1
10
15.0605205146148
20
-7.11225139890229
30
0
0
SPLINE
5
10D
100
AcDbEntity
8
1
62
256
6
ByLayer
370
18
48
1
60
0
100
AcDbSpline
70
4
71
3
72
40
73
36
40
0
40
0
40
0
40
0
40
0.0625000000000296
40
0.0625000000000296
40
0.0937500000000356
40
0.0937500000000356
40
0.125000000000042
40
0.125000000000042
40
0.18750000000004
40
0.18750000000004
40
0.250000000000039
40
0.250000000000039
40
0.312500000000038
40
0.312500000000038
40
0.375000000000037
40
0.375000000000037
40
0.437500000000035
40
0.437500000000035
40
0.500000000000034
40
0.500000000000034
40
0.625000000000028
40
0.625000000000028
40
0.687500000000024
40
0.687500000000024
40
0.750000000000019
40
0.750000000000019
40
0.812500000000015
40
0.812500000000015
40
0.87500000000001
40
0.87500000000001
40
0.906250000000008
40
0.906250000000008
40
0.937500000000007
40
0.937500000000007
40
1
40
1
40
1
40
1
41
1
10
9.48226106239849
20
0.965263951723841
30
0
41
1
10
9.46607775444508
20
0.956975174349481
30
0
41
1
10
9.45159378549411
20
0.946410309876455
30
0
41
1
10
9.43157918469367
20
0.928257955352962
30
0
41
1
10
9.4252066206393
20
0.921809259267064
30
0
41
1
10
9.41314784587345
20
0.908411119473357
30
0
41
1
10
9.40743497112192
20
0.901437697017371
30
0
41
1
10
9.39112457517282
20
0.879795844987541
30
0
41
1
10
9.38146014038242
20
0.864565312864272
30
0
41
1
10
9.36410703114078
20
0.832900740236852
30
0
41
1
10
9.35645125229766
20
0.816504427664057
30
0
41
1
10
9.3430039777916
20
0.783014454915701
30
0
41
1
10
9.33718023458587
20
0.76582676164881
30
0
41
1
10
9.32729309294399
20
0.731040507040916
30
0
41
1
10
9.32321990103227
20
0.71342899364879
30
0
41
1
10
9.31670803732104
20
0.677791776014971
30
0
41
1
10
9.31427733239764
20
0.659775461041818
30
0
41
1
10
9.31105075335722
20
0.623700847917831
30
0
41
1
10
9.31024589580363
20
0.605596538245265
30
0
41
1
10
9.31025245887002
20
0.551086147036813
30
0
41
1
10
9.31344423049617
20
0.515073152092299
30
0
41
1
10
9.32322133316083
20
0.461561558287627
30
0
41
1
10
9.32730719884381
20
0.443905208735458
30
0
41
1
10
9.33718710006079
20
0.409153748191926
30
0
41
1
10
9.34300111239463
20
0.391989463646666
30
0
41
1
10
9.3564782853575
20
0.358431470819454
30
0
41
1
10
9.36414432034152
20
0.342023919282468
30
0
41
1
10
9.38150094168378
20
0.310367567197261
30
0
41
1
10
9.3912083297854
20
0.295083591141036
30
0
41
1
10
9.40748816079326
20
0.273496484384395
30
0
41
1
10
9.41319529724862
20
0.266532766002996
30
0
41
1
10
9.42525710711726
20
0.253138067133421
30
0
41
1
10
9.43163364628251
20
0.246689984910262
30
0
41
1
10
9.45160552610182
20
0.22858439713022
30
0
41
1
10
9.46606983535762
20
0.21802888165405
30
0
41
1
10
9.48226106239849
20
0.209736048276227
30
0
0
SPLINE
5
10E
100
AcDbEntity
8
1
62
256
6
ByLayer
370
18
48
1
60
0
100
AcDbSpline
70
4
71
3
72
8
73
4
40
0
40
0
40
0
40
0
40
1
40
1
40
1
40
1
41
1
10
9.48226106239849
20
0.209736048276227
30
0
41
1
10
9.48901737148643
20
0.206275597417601
30
0
41
1
10
9.49577373225057
20
0.202815605698589
30
0
41
1
10
9.50253014159088
20
0.199356055891627
30
0
0
SPLINE
5
10F
100
AcDbEntity
8
1
62
256
6
ByLayer
370
18
48
1
60
0
100
AcDbSpline
70
4
71
3
72
8
73
4
40
0
40
0
40
0
40
0
40
1
40
1
40
1
40
1
41
1
10
9.50253014159088
20
0.975643944108441
30
0
41
1
10
9.49577373225057
20
0.972184394301479
30
0
41
1
10
9.48901737148643
20
0.968724402582467
30
0
41
1
10
9.48226106239849
20
0.965263951723841
30
0
0
SPLINE
5
110
100
AcDbEntity
8
1
62
256
6
ByLayer
370
18
48
1
60
0
100
AcDbSpline
70
4
71
3
72
31
73
27
40
0
40
0
40
0
40
0
40
0.250000000000011
40
0.250000000000011
40
0.37500000000001
40
0.37500000000001
40
0.50000000000001
40
0.50000000000001
40
0.562500000000012
40
0.562500000000012
40
0.625000000000014
40
0.625000000000014
40
0.687500000000017
40
0.687500000000017
40
0.750000000000019
40
0.750000000000019
40
0.781250000000011
40
0.781250000000011
40
0.812500000000004
40
0.843750000000004
40
0.843750000000004
40
0.875000000000004
40
0.875000000000004
40
0.937500000000002
40
0.937500000000002
40
1
40
1
40
1
40
1
41
1
10
9.55535134060904
20
-0.250699999999966
30
0
41
1
10
9.57505356005842
20
-0.212400342049364
30
0
41
1
10
9.59159729387372
20
-0.172144117953394
30
0
41
1
10
9.61029978636688
20
-0.109830752071787
30
0
41
1
10
9.61551276288554
20
-0.0887020639246714
30
0
41
1
10
9.62337501571378
20
-0.0459361608031372
30
0
41
1
10
9.62603671919553
20
-0.0242757503574182
30
0
41
1
10
9.62743706295456
20
0.0083882115489473
30
0
41
1
10
9.62746755194001
20
0.019326116591202
30
0
41
1
10
9.62647719404205
20
0.041122110614225
30
0
41
1
10
9.62545109325882
20
0.0520489013758265
30
0
41
1
10
9.62212928271103
20
0.0735820452289033
30
0
41
1
10
9.61984458867013
20
0.0841634331415548
30
0
41
1
10
9.61374254297746
20
0.104864556229245
30
0
41
1
10
9.60993039481397
20
0.114985922485346
30
0
41
1
10
9.60269711350495
20
0.129705690224057
30
0
41
1
10
9.60001023551152
20
0.134566114578433
30
0
41
1
10
9.59414905415065
20
0.143912940747469
30
0
41
1
10
9.58781203293464
20
0.152883903535809
30
0
41
1
10
9.5804437409148
20
0.161038223263745
30
0
41
1
10
9.57250587163168
20
0.168740526729891
30
0
41
1
10
9.56824312669025
20
0.172363054072719
30
0
41
1
10
9.55495492212532
20
0.182179145121495
30
0
41
1
10
9.54531411581652
20
0.187452610231219
30
0
41
1
10
9.52446224665539
20
0.195443533132845
30
0
41
1
10
9.51363930473966
20
0.198012668063626
30
0
41
1
10
9.50253014159088
20
0.199356055891627
30
0
0
SPLINE
5
111
100
AcDbEntity
8
1
62
256
6
ByLayer
370
18
48
1
60
0
100
AcDbSpline
70
4
71
3
72
32
73
28
40
0
40
0
40
0
40
0
40
0.125000000000007
40
0.125000000000007
40
0.250000000000015
40
0.250000000000015
40
0.375000000000022
40
0.375000000000022
40
0.500000000000029
40
0.500000000000029
40
0.562500000000035
40
0.562500000000035
40
0.62500000000004
40
0.62500000000004
40
0.687500000000045
40
0.687500000000045
40
0.75000000000005
40
0.75000000000005
40
0.812500000000055
40
0.812500000000055
40
0.843750000000047
40
0.843750000000047
40
0.875000000000039
40
0.875000000000039
40
0.937500000000019
40
0.937500000000019
40
1
40
1
40
1
40
1
41
1
10
9.55535134060904
20
1.42570000000004
30
0
41
1
10
9.56520926801841
20
1.40653691794978
30
0
41
1
10
9.5742323564844
20
1.38694603427081
30
0
41
1
10
9.59054100333009
20
1.34687832340336
30
0
41
1
10
9.59781811120371
20
1.32641517171697
30
0
41
1
10
9.61030183932158
20
1.28482620346455
30
0
41
1
10
9.61551411862499
20
1.26370222244117
30
0
41
1
10
9.6233858377673
20
1.22086975079338
30
0
41
1
10
9.62604374747272
20
1.19923026636721
30
0
41
1
10
9.62743960229713
20
1.16649294388168
30
0
41
1
10
9.62746618901835
20
1.15558944188302
30
0
41
1
10
9.62647155682257
20
1.13380865588354
30
0
41
1
10
9.62544550103294
20
1.12289003295456
30
0
41
1
10
9.62210584118793
20
1.10129103036687
30
0
41
1
10
9.61980578690839
20
1.09066054405133
30
0
41
1
10
9.61363815993536
20
1.06982675805537
30
0
41
1
10
9.60976055293594
20
1.05958970372382
30
0
41
1
10
9.59997174583876
20
1.03983091984978
30
0
41
1
10
9.5941734491791
20
1.0305314188615
30
0
41
1
10
9.58380154270381
20
1.01766290724726
30
0
41
1
10
9.58004904456968
20
1.01354830727891
30
0
41
1
10
9.57213678632328
20
1.00593492487999
30
0
41
1
10
9.56795643402992
20
1.00240708021721
30
0
41
1
10
9.55472223603144
20
0.992686841343954
30
0
41
1
10
9.54481103931786
20
0.987321368816509
30
0
41
1
10
9.52428721835514
20
0.979523739457079
30
0
41
1
10
9.51359800868192
20
0.976982338165044
30
0
41
1
10
9.50253014159088
20
0.975643944108441
30
0
0
SPLINE
5
112
100
AcDbEntity
8
1
62
256
6
ByLayer
370
18
48
1
60
0
100
AcDbSpline
70
4
71
3
72
8
73
4
40
0
40
0
40
0
40
0
40
1
40
1
40
1
40
1
41
1
10
9.13744053750472
20
1.63556955824294
30
0
41
1
10
9.1443271815148
20
1.63877664764911
30
0
41
1
10
9.15121385990795
20
1.64198331153216
30
0
41
1
10
9.15810057023302
20
1.64518956585837
30
0
0
SPLINE
5
113
100
AcDbEntity
8
1
62
256
6
ByLayer
370
18
48
1
60
0
100
AcDbSpline
70
4
71
3
72
31
73
27
40
0
40
0
40
0
40
0
40
0.249999999999928
40
0.249999999999928
40
0.374999999999901
40
0.374999999999901
40
0.499999999999874
40
0.499999999999874
40
0.562499999999861
40
0.562499999999861
40
0.624999999999848
40
0.624999999999848
40
0.687499999999835
40
0.687499999999835
40
0.749999999999822
40
0.749999999999822
40
0.781249999999834
40
0.781249999999834
40
0.812499999999847
40
0.843749999999859
40
0.843749999999859
40
0.874999999999872
40
0.874999999999872
40
0.937499999999936
40
0.937499999999936
40
1
40
1
40
1
40
1
41
1
10
9.55535134060904
20
1.42570000000004
30
0
41
1
10
9.53564912115968
20
1.46399965795064
30
0
41
1
10
9.51261970125293
20
1.50067071889865
30
0
41
1
10
9.47307641554553
20
1.55158283951016
30
0
41
1
10
9.4590310321112
20
1.56789097926892
30
0
41
1
10
9.42906129711059
20
1.59866766342597
30
0
41
1
10
9.41312577588201
20
1.61315888285461
30
0
41
1
10
9.38757086365814
20
1.63289394567582
30
0
41
1
10
9.37875769257698
20
1.63914746195812
30
0
41
1
10
9.36057654012095
20
1.65076910157609
30
0
41
1
10
9.35115001420684
20
1.656172116194
30
0
41
1
10
9.33180076287982
20
1.66579513224693
30
0
41
1
10
9.32190474213539
20
1.67000960071212
30
0
41
1
10
9.30156568740185
20
1.67698417060436
30
0
41
1
10
9.29112453971047
20
1.67974908932371
30
0
41
1
10
9.27491937422448
20
1.68247000109989
30
0
41
1
10
9.26938815891788
20
1.68313875818987
30
0
41
1
10
9.25833067992113
20
1.68389315044317
30
0
41
1
10
9.24728663284472
20
1.6840722979193
30
0
41
1
10
9.2362708132552
20
1.68300850211151
30
0
41
1
10
9.22527016161257
20
1.6812600211093
30
0
41
1
10
9.21977401095322
20
1.68003514329166
30
0
41
1
10
9.20382158803167
20
1.67539809575257
30
0
41
1
10
9.19372576346103
20
1.67100915250271
30
0
41
1
10
9.17461542101532
20
1.65963283042387
30
0
41
1
10
9.16595626528681
20
1.65285745512196
30
0
41
1
10
9.15810057023302
20
1.64518956585837
30
0
0
SPLINE
5
114
100
AcDbEntity
8
1
62
256
6
ByLayer
370
18
48
1
60
0
100
AcDbSpline
70
4
71
3
72
8
73
4
40
0
40
0
40
0
40
0
40
1
40
1
40
1
40
1
41
1
10
8.5544493040174
20
2.01333350996677
30
0
41
1
10
8.55599554298016
20
2.02000105023154
30
0
41
1
10
8.55754252490169
20
2.0266677058336
30
0
41
1
10
8.55909022074414
20
2.03333350996675
30
0
0
SPLINE
5
115
100
AcDbEntity
8
1
62
256
6
ByLayer
370
18
48
1
60
0
100
AcDbSpline
70
4
71
3
72
40
73
36
40
0
40
0
40
0
40
0
40
0.0312500000000128
40
0.0312500000000128
40
0.0625000000000256
40
0.0625000000000256
40
0.125000000000051
40
0.125000000000051
40
0.156250000000063
40
0.156250000000063
40
0.187500000000075
40
0.187500000000075
40
0.250000000000076
40
0.250000000000076
40
0.312500000000077
40
0.312500000000077
40
0.375000000000078
40
0.375000000000078
40
0.500000000000075
40
0.500000000000075
40
0.625000000000073
40
0.625000000000073
40
0.687500000000062
40
0.687500000000062
40
0.75000000000005
40
0.75000000000005
40
0.812500000000038
40
0.812500000000038
40
0.875000000000027
40
0.875000000000027
40
0.90625000000002
40
0.90625000000002
40
0.937500000000013
40
0.937500000000013
40
1
40
1
40
1
40
1
41
1
10
9.13744053750472
20
1.63556955824294
30
0
41
1
10
9.12915616517958
20
1.63171155096367
30
0
41
1
10
9.12062870441346
20
1.62848808051143
30
0
41
1
10
9.10317737824434
20
1.6230741008147
30
0
41
1
10
9.09426475789959
20
1.62089458832452
30
0
41
1
10
9.06753461045804
20
1.61575329894569
30
0
41
1
10
9.0495404939148
20
1.61410492650572
30
0
41
1
10
9.02236353191813
20
1.61358011744727
30
0
41
1
10
9.01326554410556
20
1.61373955606928
30
0
41
1
10
8.99527285363715
20
1.6146363170551
30
0
41
1
10
8.98634325792844
20
1.61537239919167
30
0
41
1
10
8.95973510782574
20
1.61834037322677
30
0
41
1
10
8.94223580929474
20
1.62132552576284
30
0
41
1
10
8.90766198552333
20
1.62899497576217
30
0
41
1
10
8.89051338429962
20
1.63371248554466
30
0
41
1
10
8.85725919877237
20
1.64449334074971
30
0
41
1
10
8.84109077319991
20
1.65056450564012
30
0
41
1
10
8.79386467580215
20
1.67061873581932
30
0
41
1
10
8.76406967686316
20
1.68641212278223
30
0
41
1
10
8.70787027189931
20
1.72273501770061
30
0
41
1
10
8.68194690276681
20
1.74298611561841
30
0
41
1
10
8.64701713040276
20
1.77625000357111
30
0
41
1
10
8.63606601193177
20
1.78779372467284
30
0
41
1
10
8.61569669981941
20
1.81178163658495
30
0
41
1
10
8.60624267819114
20
1.82426932794201
30
0
41
1
10
8.58910776833233
20
1.85016971744068
30
0
41
1
10
8.58141912211028
20
1.86358965734016
30
0
41
1
10
8.56820076914346
20
1.89133560114851
30
0
41
1
10
8.56265546674661
20
1.90568924578716
30
0
41
1
10
8.55641918878422
20
1.92786169119097
30
0
41
1
10
8.55469043010061
20
1.93535080097487
30
0
41
1
10
8.55203489224053
20
1.95056465478467
30
0
41
1
10
8.55110866018293
20
1.95831396116569
30
0
41
1
10
8.54977938471424
20
1.98162670698028
30
0
41
1
10
8.55073950898327
20
1.99733649504213
30
0
41
1
10
8.5544493040174
20
2.01333350996677
30
0
0
SPLINE
5
116
100
AcDbEntity
8
1
62
256
6
ByLayer
370
18
48
1
60
0
100
AcDbSpline
70
4
71
3
72
40
73
36
40
0
40
0
40
0
40
0
40
0.0624999999999578
40
0.0624999999999578
40
0.0937499999999485
40
0.0937499999999485
40
0.124999999999939
40
0.124999999999939
40
0.187499999999945
40
0.187499999999945
40
0.249999999999952
40
0.249999999999952
40
0.312499999999958
40
0.312499999999958
40
0.374999999999964
40
0.374999999999964
40
0.437499999999971
40
0.437499999999971
40
0.499999999999977
40
0.499999999999977
40
0.624999999999987
40
0.624999999999987
40
0.687499999999989
40
0.687499999999989
40
0.749999999999991
40
0.749999999999991
40
0.812499999999993
40
0.812499999999993
40
0.874999999999995
40
0.874999999999995
40
0.906249999999996
40
0.906249999999996
40
0.937499999999997
40
0.937499999999997
40
1
40
1
40
1
40
1
41
1
10
9.13744053750472
20
-0.460569558242867
30
0
41
1
10
9.12094503984034
20
-0.452887654585368
30
0
41
1
10
9.10367353673976
20
-0.447741550406192
30
0
41
1
10
9.07698952182386
20
-0.442554043828466
30
0
41
1
10
9.06796290448105
20
-0.441264631111153
30
0
41
1
10
9.04993730882367
20
-0.439465549981151
30
0
41
1
10
9.04090293558966
20
-0.438948875004257
30
0
41
1
10
9.0137454587647
20
-0.438392946231744
30
0
41
1
10
8.99575883916063
20
-0.439340126095857
30
0
41
1
10
8.96008821006595
20
-0.44328345777987
30
0
41
1
10
8.94245426228417
20
-0.446283967900428
30
0
41
1
10
8.90783558142186
20
-0.453949643827173
30
0
41
1
10
8.89075708780453
20
-0.458640353254452
30
0
41
1
10
8.85742286608155
20
-0.469433488793641
30
0
41
1
10
8.84115072686009
20
-0.475535827057826
30
0
41
1
10
8.80935793073857
20
-0.489042872915405
30
0
41
1
10
8.79384972700834
20
-0.496448248754263
30
0
41
1
10
8.76388032906979
20
-0.51235969837137
30
0
41
1
10
8.74937768483321
20
-0.520882873281778
30
0
41
1
10
8.70731994037746
20
-0.548142385924422
30
0
41
1
10
8.68164651793111
20
-0.568241194144775
30
0
41
1
10
8.64680212407242
20
-0.601470490546973
30
0
41
1
10
8.63586869923392
20
-0.613010531336101
30
0
41
1
10
8.61554045830502
20
-0.636981465722954
30
0
41
1
10
8.60610543992681
20
-0.64946016946385
30
0
41
1
10
8.5890070893318
20
-0.675338733870035
30
0
41
1
10
8.58133504675948
20
-0.68874727110105
30
0
41
1
10
8.56814720445996
20
-0.716467098068705
30
0
41
1
10
8.56261528720009
20
-0.730807204936184
30
0
41
1
10
8.55639599616993
20
-0.752956727977022
30
0
41
1
10
8.55467227669766
20
-0.760438044127966
30
0
41
1
10
8.55202540730565
20
-0.775635930273324
30
0
41
1
10
8.55110286066412
20
-0.783376731209728
30
0
41
1
10
8.54978177390387
20
-0.806663096191471
30
0
41
1
10
8.55074380360597
20
-0.822355013893514
30
0
41
1
10
8.5544493040174
20
-0.838333509966702
30
0
0
SPLINE
5
117
100
AcDbEntity
8
1
62
256
6
ByLayer
370
18
48
1
60
0
100
AcDbSpline
70
4
71
3
72
8
73
4
40
0
40
0
40
0
40
0
40
1
40
1
40
1
40
1
41
1
10
8.5544493040174
20
-0.838333509966702
30
0
41
1
10
8.55599554298016
20
-0.845001050231474
30
0
41
1
10
8.55754252490169
20
-0.851667705833535
30
0
41
1
10
8.55909022074414
20
-0.858333509966684
30
0
0
SPLINE
5
118
100
AcDbEntity
8
1
62
256
6
ByLayer
370
18
48
1
60
0
100
AcDbSpline
70
4
71
3
72
32
73
28
40
0
40
0
40
0
40
0
40
0.125000000000001
40
0.125000000000001
40
0.250000000000001
40
0.250000000000001
40
0.375000000000002
40
0.375000000000002
40
0.500000000000003
40
0.500000000000003
40
0.562500000000003
40
0.562500000000003
40
0.625000000000002
40
0.625000000000002
40
0.687500000000002
40
0.687500000000002
40
0.750000000000002
40
0.750000000000002
40
0.812500000000002
40
0.812500000000002
40
0.843750000000002
40
0.843750000000002
40
0.875000000000001
40
0.875000000000001
40
0.937500000000001
40
0.937500000000001
40
1
40
1
40
1
40
1
41
1
10
9.55535134060904
20
-0.250699999999966
30
0
41
1
10
9.54549341319969
20
-0.269863082050222
30
0
41
1
10
9.53482656989132
20
-0.288547969990106
30
0
41
1
10
9.51180919176289
20
-0.324927144151872
30
0
41
1
10
9.49946498106073
20
-0.342606385099174
30
0
41
1
10
9.47307391784966
20
-0.376587137031066
30
0
41
1
10
9.45903193733241
20
-0.392892013559418
30
0
41
1
10
9.42901396255837
20
-0.423714305557894
30
0
41
1
10
9.41309315521781
20
-0.438190473474919
30
0
41
1
10
9.38747639297267
20
-0.457963681428538
30
0
41
1
10
9.37868871316101
20
-0.464194461898018
30
0
41
1
10
9.36051732102325
20
-0.475804027283488
30
0
41
1
10
9.35109741816686
20
-0.481202422463696
30
0
41
1
10
9.33168441491222
20
-0.490848811101813
30
0
41
1
10
9.32173964528263
20
-0.495079086224223
30
0
41
1
10
9.30125436879146
20
-0.502077752334031
30
0
41
1
10
9.29068072107637
20
-0.5048573060904
30
0
41
1
10
9.26888009578826
20
-0.508448608700718
30
0
41
1
10
9.25789995141557
20
-0.509222236553114
30
0
41
1
10
9.2412789027224
20
-0.508501595387912
30
0
41
1
10
9.23569941407612
20
-0.507938529898922
30
0
41
1
10
9.22478555870796
20
-0.506160030385445
30
0
41
1
10
9.21941537608799
20
-0.504945127908911
30
0
41
1
10
9.20357253715744
20
-0.50029589414109
30
0
41
1
10
9.19323817633781
20
-0.495753021349742
30
0
41
1
10
9.17448242981354
20
-0.484518386002207
30
0
41
1
10
9.16592706333594
20
-0.477828951300893
30
0
41
1
10
9.15810057023302
20
-0.470189565858306
30
0
0
SPLINE
5
119
100
AcDbEntity
8
1
62
256
6
ByLayer
370
18
48
1
60
0
100
AcDbSpline
70
4
71
3
72
8
73
4
40
0
40
0
40
0
40
0
40
1
40
1
40
1
40
1
41
1
10
9.15810057023302
20
-0.470189565858306
30
0
41
1
10
9.15121385990795
20
-0.466983311532118
30
0
41
1
10
9.1443271815148
20
-0.463776647649041
30
0
41
1
10
9.13744053750472
20
-0.460569558242867
30
0
0
SPLINE
5
11A
100
AcDbEntity
8
1
62
256
6
ByLayer
370
18
48
1
60
0
100
AcDbSpline
70
4
71
3
72
31
73
27
40
0
40
0
40
0
40
0
40
0.250000000000059
40
0.250000000000059
40
0.375000000000088
40
0.375000000000088
40
0.500000000000117
40
0.500000000000117
40
0.562500000000118
40
0.562500000000118
40
0.625000000000119
40
0.625000000000119
40
0.68750000000012
40
0.68750000000012
40
0.750000000000121
40
0.750000000000121
40
0.781250000000109
40
0.781250000000109
40
0.812500000000096
40
0.843750000000083
40
0.843750000000083
40
0.87500000000007
40
0.87500000000007
40
0.937500000000035
40
0.937500000000035
40
1
40
1
40
1
40
1
41
1
10
8.26178362542817
20
2.26390000000004
30
0
41
1
10
8.30118806432688
20
2.26390000000004
30
0
41
1
10
8.3402848098051
20
2.26031483685207
30
0
41
1
10
8.39690778313934
20
2.24891359158198
30
0
41
1
10
8.41546964004289
20
2.24409304319363
30
0
41
1
10
8.45149917918755
20
2.23210382422914
30
0
41
1
10
8.46899148860814
20
2.22493463321206
30
0
41
1
10
8.49384584215852
20
2.21200573412691
30
0
41
1
10
8.50191279614822
20
2.20732134536692
30
0
41
1
10
8.51736871621478
20
2.1971469909619
30
0
41
1
10
8.52480516305152
20
2.19162321481818
30
0
41
1
10
8.53868733584127
20
2.17971308701803
30
0
41
1
10
8.54512123848696
20
2.1733461675706
30
0
41
1
10
8.55672957637361
20
2.15961961437512
30
0
41
1
10
8.56190841510838
20
2.15226316683837
30
0
41
1
10
8.56841980452785
20
2.14026431087584
30
0
41
1
10
8.57038952936313
20
2.13607264361144
30
0
41
1
10
8.57375671342015
20
2.12748020969571
30
0
41
1
10
8.57655727125555
20
2.1186883943835
30
0
41
1
10
8.57812575700999
20
2.10947027884774
30
0
41
1
10
8.57901182822147
20
2.10001949437944
30
0
41
1
10
8.57910621015347
20
2.09517208921895
30
0
41
1
10
8.57830265202549
20
2.08071895063105
30
0
41
1
10
8.57634520041245
20
2.07105654227149
30
0
41
1
10
8.56956699812426
20
2.05168929729101
30
0
41
1
10
8.56487270758592
20
2.04234478705834
30
0
41
1
10
8.55909022074414
20
2.03333350996675
30
0
0
SPLINE
5
11B
100
AcDbEntity
8
1
62
256
6
ByLayer
370
18
48
1
60
0
100
AcDbSpline
70
4
71
3
72
31
73
27
40
0
40
0
40
0
40
0
40
0.250000000000041
40
0.250000000000041
40
0.375000000000057
40
0.375000000000057
40
0.500000000000074
40
0.500000000000074
40
0.562500000000067
40
0.562500000000067
40
0.625000000000061
40
0.625000000000061
40
0.687500000000055
40
0.687500000000055
40
0.750000000000048
40
0.750000000000048
40
0.781250000000039
40
0.781250000000039
40
0.81250000000003
40
0.843750000000022
40
0.843750000000022
40
0.875000000000013
40
0.875000000000013
40
0.937500000000006
40
0.937500000000006
40
1
40
1
40
1
40
1
41
1
10
8.26178362542817
20
-1.08889999999997
30
0
41
1
10
8.30118806432688
20
-1.08889999999997
30
0
41
1
10
8.34028480980513
20
-1.08531483685198
30
0
41
1
10
8.39690778313934
20
-1.07391359158191
30
0
41
1
10
8.41546964004286
20
-1.06909304319356
30
0
41
1
10
8.45149917918755
20
-1.05710382422907
30
0
41
1
10
8.46899148860814
20
-1.04993463321199
30
0
41
1
10
8.49384584215849
20
-1.03700573412687
30
0
41
1
10
8.50191279614819
20
-1.03232134536685
30
0
41
1
10
8.51736871621475
20
-1.02214699096186
30
0
41
1
10
8.5248051630515
20
-1.01662321481814
30
0
41
1
10
8.53868733584125
20
-1.00471308701796
30
0
41
1
10
8.54512123848693
20
-0.99834616757056
30
0
41
1
10
8.55672957637358
20
-0.984619614375077
30
0
41
1
10
8.56190841510835
20
-0.977263166838327
30
0
41
1
10
8.56841980452785
20
-0.965264310875796
30
0
41
1
10
8.5703895293631
20
-0.961072643611402
30
0
41
1
10
8.57375671342012
20
-0.952480209695665
30
0
41
1
10
8.57655745875093
20
-0.943688457247646
30
0
41
1
10
8.57812575700999
20
-0.934470278847698
30
0
41
1
10
8.57901182822144
20
-0.925019494379399
30
0
41
1
10
8.57910621015347
20
-0.920172089218909
30
0
41
1
10
8.57830265202549
20
-0.905718950631041
30
0
41
1
10
8.57634520041245
20
-0.896056542271481
30
0
41
1
10
8.56956699812429
20
-0.876689297290994
30
0
41
1
10
8.56487270758592
20
-0.8673447870583
30
0
41
1
10
8.55909022074414
20
-0.858333509966684
30
0
0
SPLINE
5
11C
100
AcDbEntity
8
1
62
256
6
ByLayer
370
18
48
1
60
0
100
AcDbSpline
70
4
71
3
72
42
73
38
40
0
40
0
40
0
40
0
40
0.0624999999999922
40
0.0624999999999922
40
0.0937499999999964
40
0.0937499999999964
40
0.125000000000001
40
0.125000000000001
40
0.187500000000009
40
0.187500000000009
40
0.250000000000017
40
0.250000000000017
40
0.312500000000026
40
0.312500000000026
40
0.375000000000034
40
0.375000000000034
40
0.437500000000043
40
0.437500000000043
40
0.500000000000051
40
0.500000000000051
40
0.56250000000006
40
0.56250000000006
40
0.625000000000068
40
0.625000000000068
40
0.75000000000006
40
0.75000000000006
40
0.781250000000046
40
0.781250000000046
40
0.812500000000031
40
0.812500000000031
40
0.875000000000002
40
0.875000000000002
40
0.906249999999996
40
0.906249999999996
40
0.937499999999989
40
0.937499999999989
40
1
40
1
40
1
40
1
41
1
10
7.8648082542299
20
2.01333350996677
30
0
41
1
10
7.86047577017445
20
1.99734653166746
30
0
41
1
10
7.85392479673453
20
1.98161978356509
30
0
41
1
10
7.84189900415464
20
1.9582565868551
30
0
41
1
10
7.83751029321488
20
1.9505111930344
30
0
41
1
10
7.82821513226767
20
1.9352998010161
30
0
41
1
10
7.82329278729705
20
1.92780277394957
30
0
41
1
10
7.80781877169602
20
1.90558458059118
30
0
41
1
10
7.79667813003769
20
1.89128975753448
30
0
41
1
10
7.77320793919006
20
1.86354530971184
30
0
41
1
10
7.76090624361072
20
1.85013979616031
30
0
41
1
10
7.73559660711865
20
1.82429651464545
30
0
41
1
10
7.72251733743448
20
1.81179075690761
30
0
41
1
10
7.69594189559373
20
1.78778317408907
30
0
41
1
10
7.68243513221151
20
1.77626743862564
30
0
41
1
10
7.65504571016169
20
1.75412564270132
30
0
41
1
10
7.64117152559459
20
1.74351083809404
30
0
41
1
10
7.61335901500516
20
1.72334148687017
30
0
41
1
10
7.59938381718638
20
1.7137571243623
30
0
41
1
10
7.57131486932192
20
1.69558974058998
30
0
41
1
10
7.55731788868977
20
1.68706920227618
30
0
41
1
10
7.52939064186251
20
1.67116341868359
30
0
41
1
10
7.5154107300647
20
1.66375551369654
30
0
41
1
10
7.47404858091724
20
1.64358825932092
30
0
41
1
10
7.44717264767442
20
1.63276753279206
30
0
41
1
10
7.41431839743424
20
1.62322458160193
30
0
41
1
10
7.40778475661497
20
1.62152004560033
30
0
41
1
10
7.3947895118051
20
1.61856239684039
30
0
41
1
10
7.3883152026433
20
1.61730853403958
30
0
41
1
10
7.36924528556497
20
1.61434652308594
30
0
41
1
10
7.35692579061853
20
1.61340417376121
30
0
41
1
10
7.33909661105196
20
1.61393420474329
30
0
41
1
10
7.33326265001114
20
1.61443749257779
30
0
41
1
10
7.32183809467764
20
1.61621877639493
30
0
41
1
10
7.31622498500505
20
1.61750675723647
30
0
41
1
10
7.3001506112391
20
1.62268702842658
30
0
41
1
10
7.29033418818889
20
1.62783916442623
30
0
41
1
10
7.28181702074258
20
1.63556955824294
30
0
0
SPLINE
5
11D
100
AcDbEntity
8
1
62
256
6
ByLayer
370
18
48
1
60
0
100
AcDbSpline
70
4
71
3
72
8
73
4
40
0
40
0
40
0
40
0
40
1
40
1
40
1
40
1
41
1
10
7.87023107802844
20
2.03333350996675
30
0
41
1
10
7.86842278021646
20
2.0266677058336
30
0
41
1
10
7.86661516303687
20
2.02000105023154
30
0
41
1
10
7.8648082542299
20
2.01333350996677
30
0
0
SPLINE
5
11E
100
AcDbEntity
8
1
62
256
6
ByLayer
370
18
48
1
60
0
100
AcDbSpline
70
4
71
3
72
32
73
28
40
0
40
0
40
0
40
0
40
0.125000000000007
40
0.125000000000007
40
0.250000000000014
40
0.250000000000014
40
0.375000000000021
40
0.375000000000021
40
0.500000000000028
40
0.500000000000028
40
0.562500000000032
40
0.562500000000032
40
0.625000000000035
40
0.625000000000035
40
0.687500000000039
40
0.687500000000039
40
0.750000000000042
40
0.750000000000042
40
0.812500000000046
40
0.812500000000046
40
0.84375000000004
40
0.84375000000004
40
0.875000000000035
40
0.875000000000035
40
0.937500000000017
40
0.937500000000017
40
1
40
1
40
1
40
1
41
1
10
8.26178362542817
20
2.26390000000004
30
0
41
1
10
8.24206777060945
20
2.26390000000004
30
0
41
1
10
8.22225505878814
20
2.26299400426098
30
0
41
1
10
8.18242086955581
20
2.25930546755527
30
0
41
1
10
8.16241416053805
20
2.25652155681621
30
0
41
1
10
8.12245646222229
20
2.24891334049565
30
0
41
1
10
8.10250593804554
20
2.24409423600059
30
0
41
1
10
8.06281058269832
20
2.23208405635128
30
0
41
1
10
8.04312787744672
20
2.22492073984216
30
0
41
1
10
8.0140083619128
20
2.21195662531022
30
0
41
1
10
8.00441918097033
20
2.20728390378105
30
0
41
1
10
7.98550787140647
20
2.19711268316706
30
0
41
1
10
7.97615064200804
20
2.19159245541826
30
0
41
1
10
7.95792401376605
20
2.17963984146868
30
0
41
1
10
7.94909550884859
20
2.17323963027559
30
0
41
1
10
7.93212706043801
20
2.15940451038944
30
0
41
1
10
7.92395985548842
20
2.15194700981422
30
0
41
1
10
7.90862870394815
20
2.13577952855053
30
0
41
1
10
7.9016364917392
20
2.12725365541465
30
0
41
1
10
7.89237672812425
20
2.11366450263517
30
0
41
1
10
7.88949319126201
20
2.10898683717784
30
0
41
1
10
7.8843256354161
20
2.09959495526547
30
0
41
1
10
7.88202020393013
20
2.09485220812613
30
0
41
1
10
7.87596102227906
20
2.08048273548505
30
0
41
1
10
7.87306069836086
20
2.07057439016629
30
0
41
1
10
7.86987493702273
20
2.05154212545932
30
0
41
1
10
7.86950932167358
20
2.04231128946597
30
0
41
1
10
7.87023107802844
20
2.03333350996675
30
0
0
SPLINE
5
11F
100
AcDbEntity
8
1
62
256
6
ByLayer
370
18
48
1
60
0
100
AcDbSpline
70
4
71
3
72
8
73
4
40
0
40
0
40
0
40
0
40
1
40
1
40
1
40
1
41
1
10
7.27122072853953
20
1.64518956585837
30
0
41
1
10
7.27475144521017
20
1.64198331153216
30
0
41
1
10
7.2782835245022
20
1.63877664764911
30
0
41
1
10
7.28181702074255
20
1.63556955824294
30
0
0
SPLINE
5
120
100
AcDbEntity
8
1
62
256
6
ByLayer
370
18
48
1
60
0
100
AcDbSpline
70
4
71
3
72
40
73
36
40
0
40
0
40
0
40
0
40
0.062499999999988
40
0.062499999999988
40
0.093749999999982
40
0.093749999999982
40
0.124999999999976
40
0.124999999999976
40
0.187499999999973
40
0.187499999999973
40
0.249999999999969
40
0.249999999999969
40
0.312499999999966
40
0.312499999999966
40
0.374999999999963
40
0.374999999999963
40
0.43749999999996
40
0.43749999999996
40
0.499999999999956
40
0.499999999999956
40
0.624999999999957
40
0.624999999999957
40
0.687499999999968
40
0.687499999999968
40
0.749999999999979
40
0.749999999999979
40
0.81249999999999
40
0.81249999999999
40
0.875
40
0.875
40
0.906249999999998
40
0.906249999999998
40
0.937499999999996
40
0.937499999999996
40
1
40
1
40
1
40
1
41
1
10
7.8648082542299
20
-0.838333509966702
30
0
41
1
10
7.86048018674714
20
-0.822362828934814
30
0
41
1
10
7.85393803863261
20
-0.806651860282642
30
0
41
1
10
7.84192915368911
20
-0.783311999181393
30
0
41
1
10
7.83754649975478
20
-0.775573890378183
30
0
41
1
10
7.82826419035135
20
-0.760376669454473
30
0
41
1
10
7.82334868385243
20
-0.752886572021595
30
0
41
1
10
7.80789623530495
20
-0.730688791219279
30
0
41
1
10
7.79677004760035
20
-0.716405438960095
30
0
41
1
10
7.77333131851063
20
-0.688684198016688
30
0
41
1
10
7.7610449467052
20
-0.675288395564451
30
0
41
1
10
7.73576747547534
20
-0.649464098742868
30
0
41
1
10
7.72270470784053
20
-0.636967114903229
30
0
41
1
10
7.69616085935178
20
-0.612973995834523
30
0
41
1
10
7.68267012059485
20
-0.60146482070661
30
0
41
1
10
7.65531325754117
20
-0.57933464893037
30
0
41
1
10
7.64145406883833
20
-0.568723709796075
30
0
41
1
10
7.61367184970439
20
-0.548560546289167
30
0
41
1
10
7.59971344419688
20
-0.538979411527009
30
0
41
1
10
7.55765125817467
20
-0.5117285329612
30
0
41
1
10
7.52982517078451
20
-0.49581434623704
30
0
41
1
10
7.48832054471612
20
-0.475532048834566
30
0
41
1
10
7.47459702815536
20
-0.469415740071525
30
0
41
1
10
7.44748333974511
20
-0.458635213914817
30
0
41
1
10
7.43403936080415
20
-0.453949633110454
30
0
41
1
10
7.40757895868816
20
-0.446270204689483
30
0
41
1
10
7.394552019597
20
-0.443271190383484
30
0
41
1
10
7.36912950322065
20
-0.439334665265903
30
0
41
1
10
7.35670625510653
20
-0.438390796077187
30
0
41
1
10
7.33880342337005
20
-0.438953212361383
30
0
41
1
10
7.3329648797492
20
-0.439470810130956
30
0
41
1
10
7.32157226960277
20
-0.441273997406711
30
0
41
1
10
7.31600267397803
20
-0.442566716119956
30
0
41
1
10
7.30003743861678
20
-0.447747493321685
30
0
41
1
10
7.29028490448363
20
-0.452883895547529
30
0
41
1
10
7.28181702074258
20
-0.460569558242867
30
0
0
SPLINE
5
121
100
AcDbEntity
8
1
62
256
6
ByLayer
370
18
48
1
60
0
100
AcDbSpline
70
4
71
3
72
8
73
4
40
0
40
0
40
0
40
0
40
1
40
1
40
1
40
1
41
1
10
7.28181702074258
20
-0.460569558242867
30
0
41
1
10
7.27828352450223
20
-0.463776647649041
30
0
41
1
10
7.2747514452102
20
-0.466983311532118
30
0
41
1
10
7.27122072853956
20
-0.470189565858306
30
0
0
SPLINE
5
122
100
AcDbEntity
8
1
62
256
6
ByLayer
370
18
48
1
60
0
100
AcDbSpline
70
4
71
3
72
32
73
28
40
0
40
0
40
0
40
0
40
0.124999999999994
40
0.124999999999994
40
0.249999999999989
40
0.249999999999989
40
0.374999999999983
40
0.374999999999983
40
0.499999999999978
40
0.499999999999978
40
0.56249999999999
40
0.56249999999999
40
0.625000000000002
40
0.625000000000002
40
0.687500000000015
40
0.687500000000015
40
0.750000000000027
40
0.750000000000027
40
0.81250000000004
40
0.81250000000004
40
0.843750000000035
40
0.843750000000035
40
0.87500000000003
40
0.87500000000003
40
0.937500000000015
40
0.937500000000015
40
1
40
1
40
1
40
1
41
1
10
8.26178362542817
20
-1.08889999999997
30
0
41
1
10
8.24206777060945
20
-1.08889999999997
30
0
41
1
10
8.22225505878814
20
-1.08799400426091
30
0
41
1
10
8.18242086955581
20
-1.0843054675552
30
0
41
1
10
8.16241416053805
20
-1.08152155681614
30
0
41
1
10
8.12245646222226
20
-1.07391334049561
30
0
41
1
10
8.10250593804554
20
-1.06909423600055
30
0
41
1
10
8.06281058269835
20
-1.05708405635121
30
0
41
1
10
8.04312787744672
20
-1.04992073984209
30
0
41
1
10
8.0140083619128
20
-1.03695662531018
30
0
41
1
10
8.00441918097033
20
-1.03228390378101
30
0
41
1
10
7.98550787140647
20
-1.022112683167
30
0
41
1
10
7.97615064200804
20
-1.01659245541819
30
0
41
1
10
7.95792401376607
20
-1.00463984146865
30
0
41
1
10
7.94909550884859
20
-0.998239630275521
30
0
41
1
10
7.93212706043801
20
-0.984404510389368
30
0
41
1
10
7.92395985548842
20
-0.976947009814182
30
0
41
1
10
7.90862870394815
20
-0.960779528550461
30
0
41
1
10
7.90163649173917
20
-0.952253655414609
30
0
41
1
10
7.89237672812425
20
-0.938664502635106
30
0
41
1
10
7.88949319126201
20
-0.93398683717777
30
0
41
1
10
7.8843256354161
20
-0.924594955265405
30
0
41
1
10
7.88202020393013
20
-0.919852208126059
30
0
41
1
10
7.87596102227903
20
-0.905482735484981
30
0
41
1
10
7.87306069836083
20
-0.895574390166217
30
0
41
1
10
7.86987493702273
20
-0.876542125459252
30
0
41
1
10
7.86950932167358
20
-0.867311289465903
30
0
41
1
10
7.87023107802844
20
-0.858333509966684
30
0
0
SPLINE
5
123
100
AcDbEntity
8
1
62
256
6
ByLayer
370
18
48
1
60
0
100
AcDbSpline
70
4
71
3
72
8
73
4
40
0
40
0
40
0
40
0
40
1
40
1
40
1
40
1
41
1
10
7.87023107802844
20
-0.858333509966684
30
0
41
1
10
7.86842278021646
20
-0.851667705833535
30
0
41
1
10
7.86661516303687
20
-0.845001050231474
30
0
41
1
10
7.8648082542299
20
-0.838333509966702
30
0
0
SPLINE
5
124
100
AcDbEntity
8
1
62
256
6
ByLayer
370
18
48
1
60
0
100
AcDbSpline
70
4
71
3
72
31
73
27
40
0
40
0
40
0
40
0
40
0.24999999999998
40
0.24999999999998
40
0.374999999999967
40
0.374999999999967
40
0.499999999999953
40
0.499999999999953
40
0.562499999999947
40
0.562499999999947
40
0.62499999999994
40
0.62499999999994
40
0.687499999999933
40
0.687499999999933
40
0.749999999999927
40
0.749999999999927
40
0.781249999999936
40
0.781249999999936
40
0.812499999999945
40
0.843749999999954
40
0.843749999999954
40
0.874999999999963
40
0.874999999999963
40
0.937499999999982
40
0.937499999999982
40
1
40
1
40
1
40
1
41
1
10
6.9682159102473
20
-0.250699999999995
30
0
41
1
10
6.98791812969662
20
-0.288999657950569
30
0
41
1
10
7.00999473311575
20
-0.325670718898579
30
0
41
1
10
7.04629240909048
20
-0.376582839510093
30
0
41
1
10
7.05894478642588
20
-0.392890979268884
30
0
41
1
10
7.08530962405811
20
-0.423667663425931
30
0
41
1
10
7.09903531470721
20
-0.438158882854538
30
0
41
1
10
7.12038842206604
20
-0.457893945675778
30
0
41
1
10
7.12764818099336
20
-0.464147461958049
30
0
41
1
10
7.14235958446636
20
-0.47576910157602
30
0
41
1
10
7.14985815379217
20
-0.481172116193932
30
0
41
1
10
7.16491686914031
20
-0.490795132246859
30
0
41
1
10
7.17245804176892
20
-0.495009600712052
30
0
41
1
10
7.18753975419409
20
-0.501984170604288
30
0
41
1
10
7.19508058029922
20
-0.504749089323639
30
0
41
1
10
7.20636475627032
20
-0.507470001099819
30
0
41
1
10
7.21014674662101
20
-0.508138758189801
30
0
41
1
10
7.21754599846008
20
-0.5088931504431
30
0
41
1
10
7.22477710948658
20
-0.509072297919232
30
0
41
1
10
7.23163484544563
20
-0.508008502111437
30
0
41
1
10
7.23828207479212
20
-0.506260021109256
30
0
41
1
10
7.24150017787977
20
-0.505035143291593
30
0
41
1
10
7.25051704783206
20
-0.500398095752502
30
0
41
1
10
7.25578793265285
20
-0.496009152502665
30
0
41
1
10
7.26482492395311
20
-0.484632830423806
30
0
41
1
10
7.26842307097937
20
-0.477857455121892
30
0
41
1
10
7.27122072853956
20
-0.470189565858306
30
0
0
SPLINE
5
125
100
AcDbEntity
8
1
62
256
6
ByLayer
370
18
48
1
60
0
100
AcDbSpline
70
4
71
3
72
32
73
28
40
0
40
0
40
0
40
0
40
0.125000000000003
40
0.125000000000003
40
0.250000000000007
40
0.250000000000007
40
0.37500000000001
40
0.37500000000001
40
0.500000000000014
40
0.500000000000014
40
0.562500000000016
40
0.562500000000016
40
0.625000000000017
40
0.625000000000017
40
0.687500000000019
40
0.687500000000019
40
0.750000000000021
40
0.750000000000021
40
0.812500000000023
40
0.812500000000023
40
0.843750000000024
40
0.843750000000024
40
0.875000000000025
40
0.875000000000025
40
0.937500000000012
40
0.937500000000012
40
1
40
1
40
1
40
1
41
1
10
6.96821591024727
20
1.42570000000004
30
0
41
1
10
6.97807383765664
20
1.44486308205029
30
0
41
1
10
6.98849512087111
20
1.4635479699902
30
0
41
1
10
7.01049617048315
20
1.49992714415194
30
0
41
1
10
7.02206960030139
20
1.51760638509924
30
0
41
1
10
7.04629484953873
20
1.55158713703113
30
0
41
1
10
7.05894430134379
20
1.56789201355949
30
0
41
1
10
7.08535095325618
20
1.59871430555796
30
0
41
1
10
7.09906378418546
20
1.61319047347499
30
0
41
1
10
7.1204667495019
20
1.63296368142861
30
0
41
1
10
7.12770460049435
20
1.63919446189809
30
0
41
1
10
7.14240689338837
20
1.65080402728356
30
0
41
1
10
7.14990003158144
20
1.65620242246374
30
0
41
1
10
7.16500646517139
20
1.66584881110188
30
0
41
1
10
7.17258365566605
20
1.67007908622429
30
0
41
1
10
7.18776733437235
20
1.6770777523341
30
0
41
1
10
7.19539865361966
20
1.67985730609047
30
0
41
1
10
7.21056061220909
20
1.68344860870081
30
0
41
1
10
7.21792002758983
20
1.68422223655318
30
0
41
1
10
7.22851983348892
20
1.68350159538795
30
0
41
1
10
7.23198622943499
20
1.68293852989899
30
0
41
1
10
7.23856816735494
20
1.68116003038551
30
0
41
1
10
7.24170714765611
20
1.67994512790898
30
0
41
1
10
7.25064890514878
20
1.67529589414116
30
0
41
1
10
7.25602894634412
20
1.67075302134981
30
0
41
1
10
7.2648770213151
20
1.65951838600228
30
0
41
1
10
7.26843347070314
20
1.65282895130096
30
0
41
1
10
7.27122072853956
20
1.64518956585837
30
0
0
SPLINE
5
126
100
AcDbEntity
8
1
62
256
6
ByLayer
370
18
48
1
60
0
100
AcDbSpline
70
4
71
3
72
40
73
36
40
0
40
0
40
0
40
0
40
0.0624999999999962
40
0.0624999999999962
40
0.0937499999999933
40
0.0937499999999933
40
0.12499999999999
40
0.12499999999999
40
0.187499999999991
40
0.187499999999991
40
0.249999999999991
40
0.249999999999991
40
0.312499999999992
40
0.312499999999992
40
0.374999999999992
40
0.374999999999992
40
0.437499999999992
40
0.437499999999992
40
0.499999999999993
40
0.499999999999993
40
0.624999999999994
40
0.624999999999994
40
0.687499999999994
40
0.687499999999994
40
0.749999999999994
40
0.749999999999994
40
0.812499999999995
40
0.812499999999995
40
0.874999999999995
40
0.874999999999995
40
0.906249999999998
40
0.906249999999998
40
0.937500000000002
40
0.937500000000002
40
1
40
1
40
1
40
1
41
1
10
6.9369964958488
20
0.209736048276227
30
0
41
1
10
6.94514804825869
20
0.218024825650588
30
0
41
1
10
6.95212278927968
20
0.228589690123613
30
0
41
1
10
6.96145844842414
20
0.246742044647107
30
0
41
1
10
6.96437381118679
20
0.253190740733004
30
0
41
1
10
6.9698016089288
20
0.266588880526712
30
0
41
1
10
6.97232646764743
20
0.273562302982697
30
0
41
1
10
6.97942612825338
20
0.295204155012499
30
0
41
1
10
6.98348255726179
20
0.310434687135796
30
0
41
1
10
6.99059324803014
20
0.342099259763216
30
0
41
1
10
6.99363262113971
20
0.358495572336011
30
0
41
1
10
6.99886776589855
20
0.391985545084339
30
0
41
1
10
7.00107547465785
20
0.409173238351258
30
0
41
1
10
7.00476907948436
20
0.443959492959152
30
0
41
1
10
7.00625868850179
20
0.461571006351278
30
0
41
1
10
7.00861869092617
20
0.497208223985069
30
0
41
1
10
7.00948601605762
20
0.515224538958222
30
0
41
1
10
7.01063379462641
20
0.551299152082237
30
0
41
1
10
7.01091741453092
20
0.569403461754803
30
0
41
1
10
7.01091509446442
20
0.623913852963256
30
0
41
1
10
7.00980153620296
20
0.659926847907769
30
0
41
1
10
7.00625817444822
20
0.713438441712441
30
0
41
1
10
7.00476385668671
20
0.73109479126461
30
0
41
1
10
7.00107286294096
20
0.765846251808142
30
0
41
1
10
6.99886895414929
20
0.783010536353402
30
0
41
1
10
6.99362202407016
20
0.816568529180586
30
0
41
1
10
6.99057826601663
20
0.8329760807176
30
0
41
1
10
6.98346553920513
20
0.864632432802807
30
0
41
1
10
6.97939026559823
20
0.879916408859032
30
0
41
1
10
6.97230301519352
20
0.901503515615673
30
0
41
1
10
6.96978050335167
20
0.908467233997072
30
0
41
1
10
6.96435083171159
20
0.921861932866619
30
0
41
1
10
6.96143327291034
20
0.928310015089806
30
0
41
1
10
6.95211685552769
20
0.946415602869848
30
0
41
1
10
6.94515203711296
20
0.956971118346019
30
0
41
1
10
6.9369964958488
20
0.965263951723841
30
0
0
SPLINE
5
127
100
AcDbEntity
8
1
62
256
6
ByLayer
370
18
48
1
60
0
100
AcDbSpline
70
4
71
3
72
8
73
4
40
0
40
0
40
0
40
0
40
1
40
1
40
1
40
1
41
1
10
6.9369964958488
20
0.965263951723841
30
0
41
1
10
6.93359333453057
20
0.968724402582467
30
0
41
1
10
6.93019157286759
20
0.972184394301479
30
0
41
1
10
6.92679115718173
20
0.975643944108441
30
0
0
SPLINE
5
128
100
AcDbEntity
8
1
62
256
6
ByLayer
370
18
48
1
60
0
100
AcDbSpline
70
4
71
3
72
31
73
27
40
0
40
0
40
0
40
0
40
0.249999999999996
40
0.249999999999996
40
0.374999999999994
40
0.374999999999994
40
0.499999999999993
40
0.499999999999993
40
0.562499999999991
40
0.562499999999991
40
0.624999999999989
40
0.624999999999989
40
0.687499999999987
40
0.687499999999987
40
0.749999999999985
40
0.749999999999985
40
0.781249999999984
40
0.781249999999984
40
0.812499999999983
40
0.843749999999983
40
0.843749999999983
40
0.874999999999982
40
0.874999999999982
40
0.937499999999991
40
0.937499999999991
40
1
40
1
40
1
40
1
41
1
10
6.96821591024727
20
1.42570000000004
30
0
41
1
10
6.94851369079794
20
1.38740034204943
30
0
41
1
10
6.93101714049496
20
1.34714411795346
30
0
41
1
10
6.90906903826917
20
1.28483075207183
30
0
41
1
10
6.90246305565154
20
1.26370206392474
30
0
41
1
10
6.8909959054549
20
1.22093616080321
30
0
41
1
10
6.88612437139366
20
1.19927575035749
30
0
41
1
10
6.8805222227696
20
1.16661178845112
30
0
41
1
10
6.87893832163033
20
1.15567388340887
30
0
41
1
10
6.87645893054528
20
1.13387788938584
30
0
41
1
10
6.87555707474021
20
1.12295109862424
30
0
41
1
10
6.87458834930908
20
1.10141795477117
30
0
41
1
10
6.87451819523412
20
1.09083656685851
30
0
41
1
10
6.87536289861842
20
1.07013544377082
30
0
41
1
10
6.87627472519569
20
1.06001407751472
30
0
41
1
10
6.87858701698988
20
1.04529430977601
30
0
41
1
10
6.87952467002731
20
1.04043388542164
30
0
41
1
10
6.88172762423054
20
1.0310870592526
30
0
41
1
10
6.88425160835666
20
1.02211597236462
30
0
41
1
10
6.887461917786
20
1.01396177673629
30
0
41
1
10
6.89104636477296
20
1.00625947327018
30
0
41
1
10
6.89303106214277
20
1.00263694592735
30
0
41
1
10
6.89938371373839
20
0.992820854878573
30
0
41
1
10
6.90419958029733
20
0.987547389768849
30
0
41
1
10
6.91497809831301
20
0.979556466867223
30
0
41
1
10
6.92074003152655
20
0.976987331936442
30
0
41
1
10
6.92679115718173
20
0.975643944108441
30
0
0
SPLINE
5
129
100
AcDbEntity
8
1
62
256
6
ByLayer
370
18
48
1
60
0
100
AcDbSpline
70
4
71
3
72
32
73
28
40
0
40
0
40
0
40
0
40
0.124999999999988
40
0.124999999999988
40
0.249999999999975
40
0.249999999999975
40
0.374999999999963
40
0.374999999999963
40
0.49999999999995
40
0.49999999999995
40
0.562499999999946
40
0.562499999999946
40
0.624999999999941
40
0.624999999999941
40
0.687499999999937
40
0.687499999999937
40
0.749999999999932
40
0.749999999999932
40
0.812499999999927
40
0.812499999999927
40
0.843749999999934
40
0.843749999999934
40
0.874999999999941
40
0.874999999999941
40
0.937499999999971
40
0.937499999999971
40
1
40
1
40
1
40
1
41
1
10
6.9682159102473
20
-0.250699999999995
30
0
41
1
10
6.95835798283792
20
-0.231536917949739
30
0
41
1
10
6.94908933427803
20
-0.211946034270767
30
0
41
1
10
6.93176435891596
20
-0.171878323403291
30
0
41
1
10
6.92371647015838
20
-0.151415171716934
30
0
41
1
10
6.90906692806684
20
-0.109826203464507
30
0
41
1
10
6.90246212005124
20
-0.0887022224410998
30
0
41
1
10
6.89097907804728
20
-0.0458697507933152
30
0
41
1
10
6.88611319193058
20
-0.024230266367141
30
0
41
1
10
6.88050354017744
20
0.0085070561183898
30
0
41
1
10
6.87892712463704
20
0.0194105581170447
30
0
41
1
10
6.87645265758903
20
0.0411913441164984
30
0
41
1
10
6.87555194871535
20
0.0521099670455101
30
0
41
1
10
6.87458503889565
20
0.0737089696332021
30
0
41
1
10
6.87451751404029
20
0.0843394559487365
30
0
41
1
10
6.87538354322845
20
0.105173241944698
30
0
41
1
10
6.87631882176007
20
0.115410296276252
30
0
41
1
10
6.87946896215857
20
0.135169080150291
30
0
41
1
10
6.8816465298263
20
0.14446858113854
30
0
41
1
10
6.88599719350751
20
0.157337092752812
30
0
41
1
10
6.88763659894144
20
0.161451692721158
30
0
41
1
10
6.89121693973962
20
0.169065075120073
30
0
41
1
10
6.89316608971416
20
0.172592919782858
30
0
41
1
10
6.89949920627475
20
0.182313158656115
30
0
41
1
10
6.90445608336398
20
0.18767863118353
30
0
41
1
10
6.91507223277353
20
0.195476260542989
30
0
41
1
10
6.92076252535719
20
0.198017661835024
30
0
41
1
10
6.92679115718173
20
0.199356055891627
30
0
0
SPLINE
5
12A
100
AcDbEntity
8
1
62
256
6
ByLayer
370
18
48
1
60
0
100
AcDbSpline
70
4
71
3
72
8
73
4
40
0
40
0
40
0
40
0
40
1
40
1
40
1
40
1
41
1
10
6.92679115718173
20
0.199356055891627
30
0
41
1
10
6.93019157286759
20
0.202815605698589
30
0
41
1
10
6.93359333453057
20
0.206275597417601
30
0
41
1
10
6.9369964958488
20
0.209736048276227
30
0
0
SPLINE
5
12B
100
AcDbEntity
8
1
62
256
6
ByLayer
370
18
48
1
60
0
100
AcDbSpline
70
4
71
2
72
9
73
6
40
0
40
0
40
0
40
0.25
40
0.5
40
0.75
40
1
40
1
40
1
41
1
10
5.61918651343595
20
-7.86519703718002
30
0
41
1
10
5.61929560321923
20
-7.90646357506955
30
0
41
1
10
5.65164485492019
20
-7.9820256211392
30
0
41
1
10
5.71121397949847
20
-8.03853882269865
30
0
41
1
10
5.78835141847929
20
-8.06719443568258
30
0
41
1
10
5.83052544895358
20
-8.06485866884302
30
0
0
SPLINE
5
12C
100
AcDbEntity
8
1
62
256
6
ByLayer
370
18
48
1
60
0
100
AcDbSpline
70
4
71
11
72
24
73
12
40
0
40
0
40
0
40
0
40
0
40
0
40
0
40
0
40
0
40
0
40
0
40
0
40
1
40
1
40
1
40
1
40
1
40
1
40
1
40
1
40
1
40
1
40
1
40
1
41
1
10
19.5999999999961
20
-7.86519703718128
30
0
41
1
10
19.5999999999961
20
-7.89481474589329
30
0
41
1
10
19.5951819640784
20
-7.92443245241827
30
0
41
1
10
19.5855458934813
20
-7.95317691795228
30
0
41
1
10
19.5712693544425
20
-7.98017488118529
30
0
41
1
10
19.5527074863479
20
-8.00459448549029
30
0
41
1
10
19.5303817736604
20
-8.02568661530429
30
0
41
1
10
19.50495761701
20
-8.04282263691027
30
0
41
1
10
19.4772121568912
20
-8.05552478862128
30
0
41
1
10
19.4479953656577
20
-8.06348641692929
30
0
41
1
10
19.4181881431402
20
-8.06658078540929
30
0
41
1
10
19.3886610644784
20
-8.06485866884429
30
0
0
SPLINE
5
12D
100
AcDbEntity
8
1
62
256
6
ByLayer
370
18
48
1
60
0
100
AcDbSpline
70
4
71
2
72
9
73
6
40
0
40
0
40
0
40
0.25
40
0.5
40
0.75
40
1
40
1
40
1
41
1
10
19.6
20
-6.70980296282002
30
0
41
1
10
19.5998909102167
20
-6.66853642493049
30
0
41
1
10
19.5675416585158
20
-6.59297437886084
30
0
41
1
10
19.5079725339375
20
-6.53646117730139
30
0
41
1
10
19.4308350949567
20
-6.50780556431747
30
0
41
1
10
19.3886610644824
20
-6.51014133115703
30
0
0
SPLINE
5
12E
100
AcDbEntity
8
1
62
256
6
ByLayer
370
18
48
1
60
0
100
AcDbSpline
70
4
71
2
72
6
73
3
40
0
40
0
40
0
40
1
40
1
40
1
41
1
10
7.99751478412915
20
-7.97757405205502
30
0
41
1
10
8.0178615819666
20
-7.97647077990118
30
0
41
1
10
8.03746385589906
20
-7.97139856670802
30
0
0
SPLINE
5
12F
100
AcDbEntity
8
1
62
256
6
ByLayer
370
18
48
1
60
0
100
AcDbSpline
70
4
71
3
72
8
73
4
40
0
40
0
40
0
40
0
40
1
40
1
40
1
40
1
41
1
10
8.32773935118186
20
-7.90250000000003
30
0
41
1
10
8.30987167734594
20
-7.90250000000003
30
0
41
1
10
8.29200536409289
20
-7.90479759030106
30
0
41
1
10
8.27473158176196
20
-7.9093148348083
30
0
0
SPLINE
5
130
100
AcDbEntity
8
1
62
256
6
ByLayer
370
18
48
1
60
0
100
AcDbSpline
70
4
71
8
72
18
73
9
40
0
40
0
40
0
40
0
40
0
40
0
40
0
40
0
40
0
40
1
40
1
40
1
40
1
40
1
40
1
40
1
40
1
40
1
41
1
10
9.65163765267457
20
-7.90250000000003
30
0
41
1
10
9.6462550188094
20
-7.90250000000003
30
0
41
1
10
9.64087586035001
20
-7.90250000000003
30
0
41
1
10
9.63550113046827
20
-7.90250000000003
30
0
41
1
10
9.63013178143444
20
-7.90250000000003
30
0
41
1
10
9.62476876433774
20
-7.90250000000003
30
0
41
1
10
9.61941302869724
20
-7.90250000000003
30
0
41
1
10
9.61406552208356
20
-7.90250000000003
30
0
41
1
10
9.60872718981082
20
-7.90250000000003
30
0
0
SPLINE
5
131
100
AcDbEntity
8
1
62
256
6
ByLayer
370
18
48
1
60
0
100
AcDbSpline
70
4
71
2
72
6
73
3
40
0
40
0
40
0
40
1
40
1
40
1
41
1
10
16.8399688943771
20
-7.90250000000003
30
0
41
1
10
16.8672220174479
20
-7.90258148075949
30
0
41
1
10
16.8934591961737
20
-7.90931483481003
30
0
0
SPLINE
5
132
100
AcDbEntity
8
1
62
256
6
ByLayer
370
18
48
1
60
0
100
AcDbSpline
70
4
71
3
72
8
73
4
40
0
40
0
40
0
40
0
40
1
40
1
40
1
40
1
41
1
10
17.1731995121746
20
-7.9775740520553
30
0
41
1
10
17.1595886375341
20
-7.97688507565391
30
0
41
1
10
17.1460586758741
20
-7.974811652087
30
0
41
1
10
17.1328867820106
20
-7.97139856670847
30
0
0
SPLINE
5
133
100
AcDbEntity
8
1
62
256
6
ByLayer
370
18
48
1
60
0
100
AcDbSpline
70
4
71
2
72
6
73
3
40
0
40
0
40
0
40
1
40
1
40
1
41
1
10
17.1731995121745
20
-6.59742594794503
30
0
41
1
10
17.1526674964192
20
-6.59852922009887
30
0
41
1
10
17.1328867820071
20
-6.60360143329203
30
0
0
SPLINE
5
134
100
AcDbEntity
8
1
62
256
6
ByLayer
370
18
48
1
60
0
100
AcDbSpline
70
4
71
3
72
8
73
4
40
0
40
0
40
0
40
0
40
1
40
1
40
1
40
1
41
1
10
16.8399688943793
20
-6.67250000000001
30
0
41
1
10
16.8579974123402
20
-6.67250000000001
30
0
41
1
10
16.876024569718
20
-6.67020240969893
30
0
41
1
10
16.8934591961741
20
-6.66568516519175
30
0
0
SPLINE
5
135
100
AcDbEntity
8
1
62
256
6
ByLayer
370
18
48
1
60
0
100
AcDbSpline
70
4
71
8
72
18
73
9
40
0
40
0
40
0
40
0
40
0
40
0
40
0
40
0
40
0
40
1
40
1
40
1
40
1
40
1
40
1
40
1
40
1
40
1
41
1
10
15.5042151955661
20
-6.67250000000001
30
0
41
1
10
15.5095978294288
20
-6.67250000000001
30
0
41
1
10
15.5149839386574
20
-6.67250000000001
30
0
41
1
10
15.5203725700798
20
-6.67250000000001
30
0
41
1
10
15.5257627697025
20
-6.67250000000001
30
0
41
1
10
15.5311535829897
20
-6.67250000000001
30
0
41
1
10
15.5365440552538
20
-6.67250000000001
30
0
41
1
10
15.5419332320356
20
-6.67250000000001
30
0
41
1
10
15.5473201594157
20
-6.67250000000001
30
0
0
SPLINE
5
136
100
AcDbEntity
8
1
62
256
6
ByLayer
370
18
48
1
60
0
100
AcDbSpline
70
4
71
5
72
12
73
6
40
0
40
0
40
0
40
0
40
0
40
0
40
1
40
1
40
1
40
1
40
1
40
1
41
1
10
15.5042151955661
20
-6.82250000000002
30
0
41
1
10
15.5129073314962
20
-6.82249999421202
30
0
41
1
10
15.5216086784979
20
-6.82302037946903
30
0
41
1
10
15.5302725796263
20
-6.82406100863102
30
0
41
1
10
15.5388553500442
20
-6.82560102617703
30
0
41
1
10
15.5473201594157
20
-6.82760535304104
30
0
0
SPLINE
5
137
100
AcDbEntity
8
1
62
256
6
ByLayer
370
18
48
1
60
0
100
AcDbSpline
70
4
71
8
72
18
73
9
40
0
40
0
40
0
40
0
40
0
40
0
40
0
40
0
40
0
40
1
40
1
40
1
40
1
40
1
40
1
40
1
40
1
40
1
41
1
10
15.5042151955661
20
-7.90250000000003
30
0
41
1
10
15.5095978294288
20
-7.90250000000003
30
0
41
1
10
15.5149839386574
20
-7.90250000000003
30
0
41
1
10
15.5203725700798
20
-7.90250000000003
30
0
41
1
10
15.5257627697025
20
-7.90250000000003
30
0
41
1
10
15.5311535829897
20
-7.90250000000003
30
0
41
1
10
15.5365440552538
20
-7.90250000000003
30
0
41
1
10
15.5419332320356
20
-7.90250000000003
30
0
41
1
10
15.5473201594157
20
-7.90250000000003
30
0
0
SPLINE
5
138
100
AcDbEntity
8
1
62
256
6
ByLayer
370
18
48
1
60
0
100
AcDbSpline
70
4
71
5
72
12
73
6
40
0
40
0
40
0
40
0
40
0
40
0
40
1
40
1
40
1
40
1
40
1
40
1
41
1
10
15.5042151955661
20
-7.75250000000003
30
0
41
1
10
15.5129073314962
20
-7.75250000578802
30
0
41
1
10
15.5216086784979
20
-7.75197962053102
30
0
41
1
10
15.5302725796263
20
-7.75093899136903
30
0
41
1
10
15.5388553500442
20
-7.74939897382302
30
0
41
1
10
15.5473201594157
20
-7.74739464695904
30
0
0
LINE
5
7F
100
AcDbEntity
8
80
62
256
6
ByLayer
370
18
48
1
60
0
100
AcDbLine
10
0
20
0
30
0
11
-5
21
0
31
0
39
0
210
0
220
0
230
1
0
LINE
5
80
100
AcDbEntity
8
81
62
256
6
ByLayer
370
18
48
1
60
0
100
AcDbLine
10
19.6
20
-8.0375
30
0
11
24.593148
21
-8.0375
31
0
39
0
210
0
220
0
230
1
0
LINE
5
81
100
AcDbEntity
8
1
62
256
6
ByLayer
370
18
48
1
60
0
100
AcDbLine
10
9.02425
20
-0.438685
30
0
11
8.322566
21
-0.438685
31
0
39
0
210
0
220
0
230
1
0
LINE
5
82
100
AcDbEntity
8
1
62
256
6
ByLayer
370
18
48
1
60
0
100
AcDbLine
10
8.322566
20
1.613685
30
0
11
9.024236
21
1.613685
31
0
39
0
210
0
220
0
230
1
0
LINE
5
83
100
AcDbEntity
8
1
62
256
6
ByLayer
370
18
48
1
60
0
100
AcDbLine
10
7.350036
20
-0.438685
30
0
11
7.101224
21
-0.438685
31
0
39
0
210
0
220
0
230
1
0
LINE
5
84
100
AcDbEntity
8
1
62
256
6
ByLayer
370
18
48
1
60
0
100
AcDbLine
10
7.101056
20
1.613685
30
0
11
7.35083
21
1.613685
31
0
39
0
210
0
220
0
230
1
0
LINE
5
85
100
AcDbEntity
8
1
62
256
6
ByLayer
370
18
48
1
60
0
100
AcDbLine
10
7.989389
20
-2.4125
30
0
11
8.261784
21
-2.4125
31
0
39
0
210
0
220
0
230
1
0
LINE
5
86
100
AcDbEntity
8
1
62
256
6
ByLayer
370
18
48
1
60
0
100
AcDbLine
10
8.261784
20
3.5875
30
0
11
7.989389
21
3.5875
31
0
39
0
210
0
220
0
230
1
0
LINE
5
87
100
AcDbEntity
8
1
62
256
6
ByLayer
370
18
48
1
60
0
100
AcDbLine
10
11.034029
20
-6.552896
30
0
11
11.044155
21
-5.7875
31
0
39
0
210
0
220
0
230
1
0
LINE
5
88
100
AcDbEntity
8
1
62
256
6
ByLayer
370
18
48
1
60
0
100
AcDbLine
10
12.032647
20
-6.672496
30
0
11
12.044355
21
-5.7875
31
0
39
0
210
0
220
0
230
1
0
LINE
5
89
100
AcDbEntity
8
1
62
256
6
ByLayer
370
18
48
1
60
0
100
AcDbLine
10
11.041942
20
-5.7875
30
0
11
11.339961
21
-5.7875
31
0
39
0
210
0
220
0
230
1
0
LINE
5
8A
100
AcDbEntity
8
1
62
256
6
ByLayer
370
18
48
1
60
0
100
AcDbLine
10
11.04193
20
6.093269
30
0
11
11.339961
21
5.644702
31
0
39
0
210
0
220
0
230
1
0
LINE
5
8B
100
AcDbEntity
8
1
62
256
6
ByLayer
370
18
48
1
60
0
100
AcDbLine
10
11.339961
20
-5.7875
30
0
11
12.350024
21
-5.7875
31
0
39
0
210
0
220
0
230
1
0
LINE
5
8C
100
AcDbEntity
8
1
62
256
6
ByLayer
370
18
48
1
60
0
100
AcDbLine
10
11.339961
20
5.644702
30
0
11
19.068475
21
-5.9875
31
0
39
0
210
0
220
0
230
1
0
LINE
5
8D
100
AcDbEntity
8
1
62
256
6
ByLayer
370
18
48
1
60
0
100
AcDbLine
10
11.339961
20
5.644702
30
0
11
11.339961
21
-5.7875
31
0
39
0
210
0
220
0
230
1
0
LINE
5
8E
100
AcDbEntity
8
1
62
256
6
ByLayer
370
13
48
1
60
0
100
AcDbLine
10
12.303387
20
-5.9875
30
0
11
19.068475
21
-5.9875
31
0
39
0
210
0
220
0
230
1
0
LINE
5
8F
100
AcDbEntity
8
1
62
256
6
ByLayer
370
18
48
1
60
0
100
AcDbLine
10
0
20
-7.7875
30
0
11
0.468629
21
-7.7875
31
0
39
0
210
0
220
0
230
1
0
LINE
5
90
100
AcDbEntity
8
1
62
256
6
ByLayer
370
18
48
1
60
0
100
AcDbLine
10
0
20
-7.7875
30
0
11
0
21
7.9625
31
0
39
0
210
0
220
0
230
1
0
LINE
5
91
100
AcDbEntity
8
1
62
256
6
ByLayer
370
18
48
1
60
0
100
AcDbLine
10
10.8
20
6.457398
30
0
11
11.041949
21
6.09324
31
0
39
0
210
0
220
0
230
1
0
LINE
5
92
100
AcDbEntity
8
1
62
256
6
ByLayer
370
18
48
1
60
0
100
AcDbLine
10
10.8
20
-5.7875
30
0
11
11.041949
21
-5.7875
31
0
39
0
210
0
220
0
230
1
0
LINE
5
93
100
AcDbEntity
8
1
62
256
6
ByLayer
370
18
48
1
60
0
100
AcDbLine
10
11.041949
20
-5.7875
30
0
11
11.041949
21
6.09324
31
0
39
0
210
0
220
0
230
1
0
LINE
5
94
100
AcDbEntity
8
1
62
256
6
ByLayer
370
18
48
1
60
0
100
AcDbLine
10
0.468629
20
7.9625
30
0
11
0
21
7.9625
31
0
39
0
210
0
220
0
230
1
0
LINE
5
95
100
AcDbEntity
8
1
62
256
6
ByLayer
370
18
48
1
60
0
100
AcDbLine
10
10.8
20
-0.452031
30
0
11
10.8
21
-0.674577
31
0
39
0
210
0
220
0
230
1
0
LINE
5
96
100
AcDbEntity
8
1
62
256
6
ByLayer
370
18
48
1
60
0
100
AcDbLine
10
4
20
-7.7875
30
0
11
0.468629
21
-7.7875
31
0
39
0
210
0
220
0
230
1
0
LINE
5
97
100
AcDbEntity
8
1
62
256
6
ByLayer
370
18
48
1
60
0
100
AcDbLine
10
4
20
7.9625
30
0
11
0.468629
21
7.9625
31
0
39
0
210
0
220
0
230
1
0
LINE
5
98
100
AcDbEntity
8
1
62
256
6
ByLayer
370
13
48
1
60
0
100
AcDbLine
10
0.468629
20
7.9625
30
0
11
0.468629
21
-7.7875
31
0
39
0
210
0
220
0
230
1
0
LINE
5
99
100
AcDbEntity
8
1
62
256
6
ByLayer
370
18
48
1
60
0
100
AcDbLine
10
10.8
20
1.849577
30
0
11
10.8
21
1.627031
31
0
39
0
210
0
220
0
230
1
0
LINE
5
9A
100
AcDbEntity
8
1
62
256
6
ByLayer
370
18
48
1
60
0
100
AcDbLine
10
10.8
20
-5.9875
30
0
11
10.8
21
-0.674577
31
0
39
0
210
0
220
0
230
1
0
LINE
5
9B
100
AcDbEntity
8
1
62
256
6
ByLayer
370
18
48
1
60
0
100
AcDbLine
10
6.931349
20
7.9625
30
0
11
9.8
21
7.9625
31
0
39
0
210
0
220
0
230
1
0
LINE
5
9C
100
AcDbEntity
8
1
62
256
6
ByLayer
370
18
48
1
60
0
100
AcDbLine
10
10.8
20
1.849577
30
0
11
10.8
21
6.457398
31
0
39
0
210
0
220
0
230
1
0
LINE
5
9D
100
AcDbEntity
8
1
62
256
6
ByLayer
370
18
48
1
60
0
100
AcDbLine
10
9.8
20
7.9625
30
0
11
10.8
21
6.457398
31
0
39
0
210
0
220
0
230
1
0
LINE
5
9E
100
AcDbEntity
8
1
62
256
6
ByLayer
370
13
48
1
60
0
100
AcDbLine
10
6.931349
20
-5.9875
30
0
11
10.8
21
-5.9875
31
0
39
0
210
0
220
0
230
1
0
LINE
5
9F
100
AcDbEntity
8
1
62
256
6
ByLayer
370
18
48
1
60
0
100
AcDbLine
10
14.944773
20
-7.7875
30
0
11
9.617782
21
-7.7875
31
0
39
0
210
0
220
0
230
1
0
LINE
5
A0
100
AcDbEntity
8
1
62
256
6
ByLayer
370
18
48
1
60
0
100
AcDbLine
10
14.944773
20
-6.7875
30
0
11
9.617782
21
-6.7875
31
0
39
0
210
0
220
0
230
1
0
LINE
5
A1
100
AcDbEntity
8
1
62
256
6
ByLayer
370
18
48
1
60
0
100
AcDbLine
10
6.931349
20
7.9625
30
0
11
6.931349
21
3.422988
31
0
39
0
210
0
220
0
230
1
0
LINE
5
A2
100
AcDbEntity
8
1
62
256
6
ByLayer
370
18
48
1
60
0
100
AcDbLine
10
6.931349
20
7.9625
30
0
11
4
21
7.9625
31
0
39
0
210
0
220
0
230
1
0
LINE
5
A3
100
AcDbEntity
8
1
62
256
6
ByLayer
370
18
48
1
60
0
100
AcDbLine
10
4
20
7.9625
30
0
11
4
21
-7.7875
31
0
39
0
210
0
220
0
230
1
0
LINE
5
A4
100
AcDbEntity
8
1
62
256
6
ByLayer
370
18
48
1
60
0
100
AcDbLine
10
9.617782
20
-7.7875
30
0
11
4
21
-7.7875
31
0
39
0
210
0
220
0
230
1
0
LINE
5
A5
100
AcDbEntity
8
1
62
256
6
ByLayer
370
18
48
1
60
0
100
AcDbLine
10
9.617782
20
-7.7875
30
0
11
9.617782
21
-6.7875
31
0
39
0
210
0
220
0
230
1
0
LINE
5
A6
100
AcDbEntity
8
1
62
256
6
ByLayer
370
18
48
1
60
0
100
AcDbLine
10
9.617782
20
-6.7875
30
0
11
8.693501
21
-6.7875
31
0
39
0
210
0
220
0
230
1
0
LINE
5
A7
100
AcDbEntity
8
1
62
256
6
ByLayer
370
18
48
1
60
0
100
AcDbLine
10
6.931349
20
-2.247988
30
0
11
6.931349
21
-5.9875
31
0
39
0
210
0
220
0
230
1
0
LINE
5
A8
100
AcDbEntity
8
1
62
256
6
ByLayer
370
18
48
1
60
0
100
AcDbLine
10
8.773329
20
0.199356
30
0
11
8.758092
21
0.209736
31
0
39
0
210
0
220
0
230
1
0
LINE
5
A9
100
AcDbEntity
8
1
62
256
6
ByLayer
370
18
48
1
60
0
100
AcDbLine
10
8.758092
20
0.965264
30
0
11
8.773329
21
0.975644
31
0
39
0
210
0
220
0
230
1
0
LINE
5
AA
100
AcDbEntity
8
1
62
256
6
ByLayer
370
13
48
1
60
0
100
AcDbLine
10
9.482261
20
0.965264
30
0
11
8.758092
21
0.965264
31
0
39
0
210
0
220
0
230
1
0
LINE
5
AB
100
AcDbEntity
8
1
62
256
6
ByLayer
370
13
48
1
60
0
100
AcDbLine
10
9.482261
20
0.209736
30
0
11
8.758092
21
0.209736
31
0
39
0
210
0
220
0
230
1
0
LINE
5
AC
100
AcDbEntity
8
1
62
256
6
ByLayer
370
18
48
1
60
0
100
AcDbLine
10
9.50253
20
0.199356
30
0
11
8.773329
21
0.199356
31
0
39
0
210
0
220
0
230
1
0
LINE
5
AD
100
AcDbEntity
8
1
62
256
6
ByLayer
370
18
48
1
60
0
100
AcDbLine
10
9.50253
20
0.975644
30
0
11
8.773329
21
0.975644
31
0
39
0
210
0
220
0
230
1
0
LINE
5
AE
100
AcDbEntity
8
1
62
256
6
ByLayer
370
13
48
1
60
0
100
AcDbLine
10
8.554449
20
-0.838334
30
0
11
7.864814
21
-0.838334
31
0
39
0
210
0
220
0
230
1
0
LINE
5
AF
100
AcDbEntity
8
1
62
256
6
ByLayer
370
13
48
1
60
0
100
AcDbLine
10
8.554449
20
2.013334
30
0
11
7.864814
21
2.013334
31
0
39
0
210
0
220
0
230
1
0
LINE
5
B0
100
AcDbEntity
8
1
62
256
6
ByLayer
370
18
48
1
60
0
100
AcDbLine
10
8.55909
20
2.033334
30
0
11
7.870235
21
2.033334
31
0
39
0
210
0
220
0
230
1
0
LINE
5
B1
100
AcDbEntity
8
1
62
256
6
ByLayer
370
18
48
1
60
0
100
AcDbLine
10
8.55909
20
-0.858334
30
0
11
7.870235
21
-0.858334
31
0
39
0
210
0
220
0
230
1
0
LINE
5
B2
100
AcDbEntity
8
1
62
256
6
ByLayer
370
13
48
1
60
0
100
AcDbLine
10
7.281817
20
-0.46057
30
0
11
7.123858
21
-0.46057
31
0
39
0
210
0
220
0
230
1
0
LINE
5
B3
100
AcDbEntity
8
1
62
256
6
ByLayer
370
13
48
1
60
0
100
AcDbLine
10
7.281817
20
1.63557
30
0
11
7.124865
21
1.63557
31
0
39
0
210
0
220
0
230
1
0
LINE
5
B4
100
AcDbEntity
8
1
62
256
6
ByLayer
370
18
48
1
60
0
100
AcDbLine
10
7.271221
20
-0.47019
30
0
11
7.136205
21
-0.47019
31
0
39
0
210
0
220
0
230
1
0
LINE
5
B5
100
AcDbEntity
8
1
62
256
6
ByLayer
370
18
48
1
60
0
100
AcDbLine
10
7.271221
20
1.64519
30
0
11
7.136877
21
1.64519
31
0
39
0
210
0
220
0
230
1
0
LINE
5
B6
100
AcDbEntity
8
SK1
62
256
6
ByLayer
370
18
48
1
60
0
100
AcDbLine
10
-0.662742
20
7.9625
30
0
11
-47.4
21
7.9625
31
0
39
0
210
0
220
0
230
1
0
LINE
5
B8
100
AcDbEntity
8
SK1
62
256
6
ByLayer
370
18
48
1
60
0
100
AcDbLine
10
-1.6
20
-7.7875
30
0
11
-0.662742
21
-7.7875
31
0
39
0
210
0
220
0
230
1
0
LINE
5
B9
100
AcDbEntity
8
SK1
62
256
6
ByLayer
370
18
48
1
60
0
100
AcDbLine
10
-2.327582
20
-7.9625
30
0
11
-47.4
21
-7.9625
31
0
39
0
210
0
220
0
230
1
0
LINE
5
BA
100
AcDbEntity
8
SK1
62
256
6
ByLayer
370
18
48
1
60
0
100
AcDbLine
10
-50.4
20
4.9625
30
0
11
-47.4
21
7.9625
31
0
39
0
210
0
220
0
230
1
0
LINE
5
BB
100
AcDbEntity
8
SK1
62
256
6
ByLayer
370
18
48
1
60
0
100
AcDbLine
10
-50.4
20
-4.9625
30
0
11
-50.4
21
4.9625
31
0
39
0
210
0
220
0
230
1
0
LINE
5
BC
100
AcDbEntity
8
SK1
62
256
6
ByLayer
370
18
48
1
60
0
100
AcDbLine
10
-50.4
20
-4.9625
30
0
11
-47.4
21
-7.9625
31
0
39
0
210
0
220
0
230
1
0
LINE
5
BD
100
AcDbEntity
8
SK1
62
256
6
ByLayer
370
18
48
1
60
0
100
AcDbLine
10
-0.662742
20
-7.7875
30
0
11
0
21
-7.7875
31
0
39
0
210
0
220
0
230
1
0
LINE
5
BE
100
AcDbEntity
8
SK1
62
256
6
ByLayer
370
18
48
1
60
0
100
AcDbLine
10
0
20
-7.7875
30
0
11
0
21
7.9625
31
0
39
0
210
0
220
0
230
1
0
LINE
5
BF
100
AcDbEntity
8
SK1
62
256
6
ByLayer
370
18
48
1
60
0
100
AcDbLine
10
0
20
7.9625
30
0
11
-0.662742
21
7.9625
31
0
39
0
210
0
220
0
230
1
0
LINE
5
C0
100
AcDbEntity
8
SK1
62
256
6
ByLayer
370
13
48
1
60
0
100
AcDbLine
10
-0.662742
20
-7.7875
30
0
11
-0.662742
21
7.9625
31
0
39
0
210
0
220
0
230
1
0
LINE
5
C1
100
AcDbEntity
8
1
62
256
6
ByLayer
370
18
48
1
60
0
100
AcDbLine
10
5.830524
20
-8.064859
30
0
11
7.032403
21
-7.994761
31
0
39
0
210
0
220
0
230
1
0
LINE
5
C2
100
AcDbEntity
8
1
62
256
6
ByLayer
370
18
48
1
60
0
100
AcDbLine
10
5.619187
20
-7.865198
30
0
11
5.619187
21
-7.787498
31
0
39
0
210
0
220
0
230
1
0
LINE
5
C3
100
AcDbEntity
8
1
62
256
6
ByLayer
370
18
48
1
60
0
100
AcDbLine
10
7.032403
20
-7.994761
30
0
11
7.423369
21
-8.006844
31
0
39
0
210
0
220
0
230
1
0
LINE
5
C4
100
AcDbEntity
8
1
62
256
6
ByLayer
370
18
48
1
60
0
100
AcDbLine
10
7.032403
20
-7.994761
30
0
11
7.032403
21
-7.787489
31
0
39
0
210
0
220
0
230
1
0
LINE
5
C5
100
AcDbEntity
8
1
62
256
6
ByLayer
370
18
48
1
60
0
100
AcDbLine
10
19.388662
20
-8.064859
30
0
11
18.186783
21
-7.994761
31
0
39
0
210
0
220
0
230
1
0
LINE
5
C6
100
AcDbEntity
8
1
62
256
6
ByLayer
370
18
48
1
60
0
100
AcDbLine
10
19.388662
20
-6.510141
30
0
11
18.186783
21
-6.580239
31
0
39
0
210
0
220
0
230
1
0
LINE
5
C7
100
AcDbEntity
8
1
62
256
6
ByLayer
370
18
48
1
60
0
100
AcDbLine
10
19.6
20
-7.865198
30
0
11
19.6
21
-6.709802
31
0
39
0
210
0
220
0
230
1
0
LINE
5
C8
100
AcDbEntity
8
1
62
256
6
ByLayer
370
18
48
1
60
0
100
AcDbLine
10
8.327739
20
-7.9025
30
0
11
9.608727
21
-7.9025
31
0
39
0
210
0
220
0
230
1
0
LINE
5
C9
100
AcDbEntity
8
1
62
256
6
ByLayer
370
18
48
1
60
0
100
AcDbLine
10
7.423369
20
-8.006844
30
0
11
7.423369
21
-7.787489
31
0
39
0
210
0
220
0
230
1
0
LINE
5
CA
100
AcDbEntity
8
1
62
256
6
ByLayer
370
18
48
1
60
0
100
AcDbLine
10
7.997515
20
-7.977574
30
0
11
7.423369
21
-8.006844
31
0
39
0
210
0
220
0
230
1
0
LINE
5
CB
100
AcDbEntity
8
1
62
256
6
ByLayer
370
18
48
1
60
0
100
AcDbLine
10
8.274732
20
-7.909315
30
0
11
8.037464
21
-7.971399
31
0
39
0
210
0
220
0
230
1
0
LINE
5
CC
100
AcDbEntity
8
1
62
256
6
ByLayer
370
13
48
1
60
0
100
AcDbLine
10
9.608727
20
-7.787501
30
0
11
9.608727
21
-7.9025
31
0
39
0
210
0
220
0
230
1
0
LINE
5
CD
100
AcDbEntity
8
1
62
256
6
ByLayer
370
18
48
1
60
0
100
AcDbLine
10
18.186783
20
-7.994761
30
0
11
17.752571
21
-8.006844
31
0
39
0
210
0
220
0
230
1
0
LINE
5
CE
100
AcDbEntity
8
1
62
256
6
ByLayer
370
18
48
1
60
0
100
AcDbLine
10
18.186783
20
-6.580239
30
0
11
17.752571
21
-6.568156
31
0
39
0
210
0
220
0
230
1
0
LINE
5
CF
100
AcDbEntity
8
1
62
256
6
ByLayer
370
18
48
1
60
0
100
AcDbLine
10
18.186783
20
-7.994761
30
0
11
18.186783
21
-6.580239
31
0
39
0
210
0
220
0
230
1
0
LINE
5
D0
100
AcDbEntity
8
1
62
256
6
ByLayer
370
18
48
1
60
0
100
AcDbLine
10
15.504215
20
-6.6725
30
0
11
11.186842
21
-6.6725
31
0
39
0
210
0
220
0
230
1
0
LINE
5
D1
100
AcDbEntity
8
1
62
256
6
ByLayer
370
18
48
1
60
0
100
AcDbLine
10
15.504215
20
-7.9025
30
0
11
9.651638
21
-7.9025
31
0
39
0
210
0
220
0
230
1
0
LINE
5
D2
100
AcDbEntity
8
1
62
256
6
ByLayer
370
13
48
1
60
0
100
AcDbLine
10
9.651638
20
-7.787502
30
0
11
9.651638
21
-7.9025
31
0
39
0
210
0
220
0
230
1
0
LINE
5
D3
100
AcDbEntity
8
1
62
256
6
ByLayer
370
18
48
1
60
0
100
AcDbLine
10
16.839969
20
-7.9025
30
0
11
15.54732
21
-7.9025
31
0
39
0
210
0
220
0
230
1
0
LINE
5
D4
100
AcDbEntity
8
1
62
256
6
ByLayer
370
18
48
1
60
0
100
AcDbLine
10
16.839969
20
-6.6725
30
0
11
15.54732
21
-6.6725
31
0
39
0
210
0
220
0
230
1
0
LINE
5
D5
100
AcDbEntity
8
1
62
256
6
ByLayer
370
18
48
1
60
0
100
AcDbLine
10
16.893459
20
-7.909315
30
0
11
17.132887
21
-7.971399
31
0
39
0
210
0
220
0
230
1
0
LINE
5
D6
100
AcDbEntity
8
1
62
256
6
ByLayer
370
18
48
1
60
0
100
AcDbLine
10
17.173199
20
-7.977574
30
0
11
17.752571
21
-8.006844
31
0
39
0
210
0
220
0
230
1
0
LINE
5
D7
100
AcDbEntity
8
1
62
256
6
ByLayer
370
18
48
1
60
0
100
AcDbLine
10
17.752571
20
-8.006844
30
0
11
17.752571
21
-6.568156
31
0
39
0
210
0
220
0
230
1
0
LINE
5
D8
100
AcDbEntity
8
1
62
256
6
ByLayer
370
18
48
1
60
0
100
AcDbLine
10
17.173199
20
-6.597426
30
0
11
17.752571
21
-6.568156
31
0
39
0
210
0
220
0
230
1
0
LINE
5
D9
100
AcDbEntity
8
1
62
256
6
ByLayer
370
18
48
1
60
0
100
AcDbLine
10
16.893459
20
-6.665685
30
0
11
17.132887
21
-6.603601
31
0
39
0
210
0
220
0
230
1
0
LINE
5
DA
100
AcDbEntity
8
1
62
256
6
ByLayer
370
18
48
1
60
0
100
AcDbLine
10
15.54732
20
-7.747395
30
0
11
17.056232
21
-7.390106
31
0
39
0
210
0
220
0
230
1
0
LINE
5
DB
100
AcDbEntity
8
1
62
256
6
ByLayer
370
13
48
1
60
0
100
AcDbLine
10
15.074422
20
-7.390106
30
0
11
17.056232
21
-7.390106
31
0
39
0
210
0
220
0
230
1
0
LINE
5
DC
100
AcDbEntity
8
1
62
256
6
ByLayer
370
18
48
1
60
0
100
AcDbLine
10
15.504215
20
-7.7525
30
0
11
14.957182
21
-7.7525
31
0
39
0
210
0
220
0
230
1
0
LINE
5
DD
100
AcDbEntity
8
1
62
256
6
ByLayer
370
13
48
1
60
0
100
AcDbLine
10
15.54732
20
-6.827605
30
0
11
15.54732
21
-6.6725
31
0
39
0
210
0
220
0
230
1
0
LINE
5
DE
100
AcDbEntity
8
1
62
256
6
ByLayer
370
13
48
1
60
0
100
AcDbLine
10
15.504215
20
-6.8225
30
0
11
15.504215
21
-6.6725
31
0
39
0
210
0
220
0
230
1
0
LINE
5
DF
100
AcDbEntity
8
1
62
256
6
ByLayer
370
18
48
1
60
0
100
AcDbLine
10
15.504215
20
-6.8225
30
0
11
14.957182
21
-6.8225
31
0
39
0
210
0
220
0
230
1
0
LINE
5
E0
100
AcDbEntity
8
1
62
256
6
ByLayer
370
13
48
1
60
0
100
AcDbLine
10
15.076938
20
-7.184894
30
0
11
17.056232
21
-7.184894
31
0
39
0
210
0
220
0
230
1
0
LINE
5
E1
100
AcDbEntity
8
1
62
256
6
ByLayer
370
18
48
1
60
0
100
AcDbLine
10
15.54732
20
-6.827605
30
0
11
17.056232
21
-7.184894
31
0
39
0
210
0
220
0
230
1
0
LINE
5
E2
100
AcDbEntity
8
1
62
256
6
ByLayer
370
13
48
1
60
0
100
AcDbLine
10
15.504215
20
-7.7525
30
0
11
15.504215
21
-7.9025
31
0
39
0
210
0
220
0
230
1
0
LINE
5
E3
100
AcDbEntity
8
1
62
256
6
ByLayer
370
13
48
1
60
0
100
AcDbLine
10
15.54732
20
-7.747395
30
0
11
15.54732
21
-7.9025
31
0
39
0
210
0
220
0
230
1
0
MTEXT
5
139
100
AcDbEntity
8
SK6
62
256
6
ByLayer
370
18
48
1
60
0
100
AcDbMText
10
-47.717926
20
-54.271655
30
0
210
0
220
0
230
1
1
\W0.7667;C2R-QS16-LD08DS
40
3.5
41
0
44
1.084337
50
0
71
7
72
5
7
iso_b_vert
0
DIMENSION
5
13E
100
AcDbEntity
8
2
62
256
6
ByLayer
370
18
48
1
60
0
100
AcDbDimension
2
_U0
10
52.693148
20
7.9625
30
0
11
52.693148
21
-0.0375
31
0
70
32
71
1
72
1
41
1
210
0
220
0
230
1
3
Standard
100
AcDbAlignedDimension
13
19.6
23
-8.0375
33
0
14
-50.4
24
7.9625
34
0
50
90
100
AcDbRotatedDimension
1001
ACAD
1000
DSTYLE
1002
{
1070
   371
1070
    13
1070
   372
1070
    13
1070
   170
1070
     0
1070
   144
1040
1.0
1070
   277
1070
     2
1070
   284
1070
     8
1070
   278
1070
    46
1070
   146
1040
1.0
1070
   345
1005
16
1070
   347
1005
16
1070
   346
1005
16
1070
   344
1005
0
1070
   343
1005
0
1070
   172
1070
     1
1070
    76
1070
     0
1070
    75
1070
     0
1070
   282
1070
     0
1070
   281
1070
     0
1070
    71
1070
     0
1070
    74
1070
     0
1070
   279
1070
     0
1070
   173
1070
     1
1070
   340
1005
13A
1070
   271
1070
     2
1070
   272
1070
     2
1070
    77
1070
     1
1070
    73
1070
     0
1070
   171
1070
     3
1070
   274
1070
     4
1070
   177
1070
     2
1070
   176
1070
     2
1070
   178
1070
     2
1070
    78
1070
     8
1070
    48
1040
-0.1
1070
    41
1040
3.5
1070
   147
1040
1.75
1070
    42
1040
1.5875
1070
    44
1040
2.0
1070
   140
1040
3.5
1002
}
1001
ACAD_DSTYLE_DIM_LINETYPE
1070
   380
1005
16
1001
ACAD_DSTYLE_DIM_EXT1_LINETYPE
1070
   381
1005
16
1001
ACAD_DSTYLE_DIM_EXT2_LINETYPE
1070
   382
1005
16
0
DIMENSION
5
159
100
AcDbEntity
8
2
62
256
6
ByLayer
370
18
48
1
60
0
100
AcDbDimension
2
_U1
10
40.693148
20
-8.0375
30
0
11
40.693148
21
-7.2875
31
0
70
32
71
1
72
1
41
1
210
0
220
0
230
1
3
Standard
100
AcDbAlignedDimension
13
19.6
23
-6.5375
33
0
14
19.6
24
-8.0375
34
0
50
90
100
AcDbRotatedDimension
1001
ACAD
1000
DSTYLE
1002
{
1070
   371
1070
    13
1070
   372
1070
    13
1070
   170
1070
     0
1070
   144
1040
1.0
1070
   277
1070
     2
1070
   284
1070
     8
1070
   278
1070
    46
1070
   146
1040
1.0
1070
   345
1005
16
1070
   347
1005
16
1070
   346
1005
16
1070
   344
1005
0
1070
   343
1005
0
1070
   172
1070
     1
1070
    76
1070
     0
1070
    75
1070
     0
1070
   282
1070
     0
1070
   281
1070
     0
1070
    71
1070
     0
1070
    74
1070
     0
1070
   279
1070
     0
1070
   173
1070
     1
1070
   340
1005
13A
1070
   271
1070
     2
1070
   272
1070
     2
1070
    77
1070
     1
1070
    73
1070
     0
1070
   171
1070
     3
1070
   274
1070
     4
1070
   177
1070
     2
1070
   176
1070
     2
1070
   178
1070
     2
1070
    78
1070
     8
1070
    48
1040
-0.1
1070
    41
1040
3.5
1070
   147
1040
1.75
1070
    42
1040
1.5875
1070
    44
1040
2.0
1070
   140
1040
3.5
1002
}
1001
ACAD_DSTYLE_DIM_LINETYPE
1070
   380
1005
16
1001
ACAD_DSTYLE_DIM_EXT1_LINETYPE
1070
   381
1005
16
1001
ACAD_DSTYLE_DIM_EXT2_LINETYPE
1070
   382
1005
16
0
DIMENSION
5
172
100
AcDbEntity
8
SK2
62
256
6
ByLayer
370
18
48
1
60
0
100
AcDbDimension
2
_U2
10
-62
20
-8.0375
30
0
11
-62
21
-0.0375
31
0
70
32
71
1
72
1
41
1
210
0
220
0
230
1
3
Standard
100
AcDbAlignedDimension
13
-50.4
23
7.9625
33
0
14
-50.4
24
-8.0375
34
0
50
90
100
AcDbRotatedDimension
1001
ACAD
1000
DSTYLE
1002
{
1070
   371
1070
    13
1070
   372
1070
    13
1070
   170
1070
     0
1070
   144
1040
1.0
1070
   277
1070
     2
1070
   284
1070
     8
1070
   278
1070
    46
1070
   146
1040
1.0
1070
   345
1005
16
1070
   347
1005
16
1070
   346
1005
16
1070
   344
1005
0
1070
   343
1005
0
1070
   172
1070
     1
1070
    76
1070
     0
1070
    75
1070
     0
1070
   282
1070
     0
1070
   281
1070
     0
1070
    71
1070
     0
1070
    74
1070
     0
1070
   279
1070
     0
1070
   173
1070
     1
1070
   340
1005
13A
1070
   271
1070
     2
1070
   272
1070
     2
1070
    77
1070
     1
1070
    73
1070
     0
1070
   171
1070
     3
1070
   274
1070
     4
1070
   177
1070
     2
1070
   176
1070
     2
1070
   178
1070
     2
1070
    78
1070
     8
1070
    48
1040
-0.1
1070
    41
1040
3.5
1070
   147
1040
1.75
1070
    42
1040
1.5875
1070
    44
1040
2.0
1070
   140
1040
3.5
1002
}
1001
ACAD_DSTYLE_DIM_LINETYPE
1070
   380
1005
16
1001
ACAD_DSTYLE_DIM_EXT1_LINETYPE
1070
   381
1005
16
1001
ACAD_DSTYLE_DIM_EXT2_LINETYPE
1070
   382
1005
16
0
DIMENSION
5
18C
100
AcDbEntity
8
2
62
256
6
ByLayer
370
18
48
1
60
0
100
AcDbDimension
2
_U3
10
19.6
20
14.2125
30
0
11
15.6
21
14.2125
31
0
70
32
71
1
72
1
41
1
210
0
220
0
230
1
3
Standard
100
AcDbAlignedDimension
13
11.6
23
-6.7875
33
0
14
19.6
24
-8.0375
34
0
50
0
100
AcDbRotatedDimension
1001
ACAD
1000
DSTYLE
1002
{
1070
   371
1070
    13
1070
   372
1070
    13
1070
   170
1070
     0
1070
   144
1040
1.0
1070
   277
1070
     2
1070
   284
1070
     8
1070
   278
1070
    46
1070
   146
1040
1.0
1070
   345
1005
16
1070
   347
1005
16
1070
   346
1005
16
1070
   344
1005
0
1070
   343
1005
0
1070
   172
1070
     1
1070
    76
1070
     0
1070
    75
1070
     0
1070
   282
1070
     0
1070
   281
1070
     0
1070
    71
1070
     0
1070
    74
1070
     0
1070
   279
1070
     0
1070
   173
1070
     1
1070
   340
1005
13A
1070
   271
1070
     1
1070
   272
1070
     2
1070
    77
1070
     1
1070
    73
1070
     1
1070
   171
1070
     3
1070
   274
1070
     4
1070
   177
1070
     2
1070
   176
1070
     2
1070
   178
1070
     2
1070
    78
1070
     8
1070
    48
1040
-0.1
1070
    41
1040
3.5
1070
   147
1040
1.75
1070
    42
1040
1.5875
1070
    44
1040
2.0
1070
   140
1040
3.5
1002
}
1001
ACAD_DSTYLE_DIM_LINETYPE
1070
   380
1005
16
1001
ACAD_DSTYLE_DIM_EXT1_LINETYPE
1070
   381
1005
16
1001
ACAD_DSTYLE_DIM_EXT2_LINETYPE
1070
   382
1005
16
0
DIMENSION
5
1A5
100
AcDbEntity
8
SK2
62
256
6
ByLayer
370
18
48
1
60
0
100
AcDbDimension
2
_U4
10
19.6
20
30.2125
30
0
11
-15.4
21
30.2125
31
0
70
32
71
1
72
1
41
1
210
0
220
0
230
1
3
Standard
100
AcDbAlignedDimension
13
-50.4
23
7.9625
33
0
14
19.6
24
-8.0375
34
0
50
0
100
AcDbRotatedDimension
1001
ACAD
1000
DSTYLE
1002
{
1070
   371
1070
    13
1070
   372
1070
    13
1070
   170
1070
     0
1070
   144
1040
1.0
1070
   277
1070
     2
1070
   284
1070
     8
1070
   278
1070
    46
1070
   146
1040
1.0
1070
   345
1005
16
1070
   347
1005
16
1070
   346
1005
16
1070
   344
1005
0
1070
   343
1005
0
1070
   172
1070
     1
1070
    76
1070
     0
1070
    75
1070
     0
1070
   282
1070
     0
1070
   281
1070
     0
1070
    71
1070
     0
1070
    74
1070
     0
1070
   279
1070
     0
1070
   173
1070
     1
1070
   340
1005
13A
1070
   271
1070
     1
1070
   272
1070
     2
1070
    77
1070
     1
1070
    73
1070
     1
1070
   171
1070
     3
1070
   274
1070
     4
1070
   177
1070
     2
1070
   176
1070
     2
1070
   178
1070
     2
1070
    78
1070
     8
1070
    48
1040
-0.1
1070
    41
1040
3.5
1070
   147
1040
1.75
1070
    42
1040
1.5875
1070
    44
1040
2.0
1070
   140
1040
3.5
1002
}
1001
ACAD_DSTYLE_DIM_LINETYPE
1070
   380
1005
16
1001
ACAD_DSTYLE_DIM_EXT1_LINETYPE
1070
   381
1005
16
1001
ACAD_DSTYLE_DIM_EXT2_LINETYPE
1070
   382
1005
16
0
ENDSEC
0
SECTION
2
OBJECTS
0
DICTIONARY
5
22c
330
0
100
AcDbDictionary
280
0
281
1
3
ACAD_GROUP
350
22d
3
ACAD_MLINESTYLE
350
22e
0
DICTIONARY
5
22d
330
0
100
AcDbDictionary
280
0
281
1
0
DICTIONARY
5
22e
330
0
100
AcDbDictionary
280
0
281
1
3
Standard
350
18
0
MLINESTYLE
5
18
330
22e
100
AcDbMlineStyle
2
Standard
70
0
3

62
256
51
90
52
90
71
2
49
-0.5
62
256
6
ByLayer
49
0.5
62
256
6
ByLayer
0
RASTERVARIABLES
5
21b
330

100
AcDbRasterVariables
90
0
70
1
71
1
72
1
0
ENDSEC
0
EOF
