0
SECTION
2
HEADER
9
$ACADVER
1
AC1015
9
$DWGCODEPAGE
3
ANSI_1252
9
$HANDSEED
5
21e
9
$ANGBASE
50
0
9
$ANGDIR
70
0
9
$ATTMODE
70
1
9
$AUNITS
70
0
9
$AUPREC
70
0
9
$CECOLOR
62
256
9
$CELTSCALE
40
1
9
$CELTYPE
6
ByLayer
9
$CELWEIGHT
370
18
9
$CLAYER
8
0
9
$CMLJUST
70
0
9
$CMLSCALE
40
1
9
$CMLSTYLE
2
Standard
9
$DIMSTYLE
2
Standard
9
$TEXTSIZE
40
0.2
9
$TEXTSTYLE
7
Standard
9
$LUNITS
70
2
9
$LUPREC
70
4
9
$EXTNAMES
290
1
9
$INSUNITS
70
4
9
$LTSCALE
40
1
9
$LWDISPLAY
290
1
9
$PDMODE
70
0
9
$PDSIZE
40
0
9
$PLINEGEN
70
0
0
ENDSEC
0
SECTION
2
CLASSES
0
CLASS
1
RASTERVARIABLES
2
AcDbRasterVariables
3
ISM
90
0
280
0
281
0
0
ENDSEC
0
SECTION
2
TABLES
0
TABLE
2
VPORT
5
214
100
AcDbSymbolTable
0
VPORT
5
1
100
AcDbSymbolTableRecord
100
AcDbViewportTableRecord
2
*Active
70
0
10
0
20
0
11
1
21
1
12
-1
22
1
13
0
23
0
14
0.5
24
0.5
15
10
25
10
16
0
26
0
36
1
17
0
27
0
37
0
0
ENDTAB
0
TABLE
2
LTYPE
5
215
100
AcDbSymbolTable
0
LTYPE
5
14
100
AcDbSymbolTableRecord
100
AcDbLinetypeTableRecord
70
0
2
ByBlock
3

72
65
73
0
40
0
0
LTYPE
5
15
100
AcDbSymbolTableRecord
100
AcDbLinetypeTableRecord
70
0
2
ByLayer
3

72
65
73
0
40
0
0
LTYPE
5
16
100
AcDbSymbolTableRecord
100
AcDbLinetypeTableRecord
70
0
2
Continuous
3
Solid line
72
65
73
0
40
0
0
LTYPE
5
6E
100
AcDbSymbolTableRecord
100
AcDbLinetypeTableRecord
70
0
2
CENTER
3
____ _ ____ _ ____ _ ____
72
65
73
4
40
47.5
49
22
74
0
49
-8.5
74
0
49
8.5
74
0
49
-8.5
74
0
0
LTYPE
5
6F
100
AcDbSymbolTableRecord
100
AcDbLinetypeTableRecord
70
0
2
DASHED
3
__ __ __ __ __ __ __ __ __
72
65
73
2
40
25.72
49
12.86
74
0
49
-12.86
74
0
0
ENDTAB
0
TABLE
2
LAYER
5
216
100
AcDbSymbolTable
0
LAYER
5
10
100
AcDbSymbolTableRecord
100
AcDbLayerTableRecord
2
0
70
0
62
7
6
Continuous
290
1
370
-3
390
0
0
LAYER
5
71
100
AcDbSymbolTableRecord
100
AcDbLayerTableRecord
2
81
70
0
62
-3
6
Continuous
290
1
370
-3
390
0
0
LAYER
5
73
100
AcDbSymbolTableRecord
100
AcDbLayerTableRecord
2
80
70
0
62
-6
6
Continuous
290
1
370
-3
390
0
0
LAYER
5
75
100
AcDbSymbolTableRecord
100
AcDbLayerTableRecord
2
1
70
0
62
4
6
Continuous
290
1
370
-3
390
0
0
LAYER
5
129
100
AcDbSymbolTableRecord
100
AcDbLayerTableRecord
2
Defpoints
70
0
62
7
6
Continuous
290
0
370
-3
390
0
0
LAYER
5
136
100
AcDbSymbolTableRecord
100
AcDbLayerTableRecord
2
2
70
0
62
7
6
Continuous
290
1
370
-3
390
0
0
LAYER
5
201
100
AcDbSymbolTableRecord
100
AcDbLayerTableRecord
2
SK1
70
0
62
4
6
Continuous
290
1
370
-3
390
0
0
LAYER
5
202
100
AcDbSymbolTableRecord
100
AcDbLayerTableRecord
2
SK6
70
0
62
5
6
Continuous
290
1
370
-3
390
0
0
LAYER
5
203
100
AcDbSymbolTableRecord
100
AcDbLayerTableRecord
2
SK2
70
0
62
7
6
Continuous
290
1
370
-3
390
0
0
ENDTAB
0
TABLE
2
STYLE
5
217
100
AcDbSymbolTable
0
STYLE
5
11
100
AcDbSymbolTableRecord
100
AcDbTextStyleTableRecord
2
Standard
3
txt
70
0
71
0
40
0
41
1
42
0
50
0
0
STYLE
5
122
100
AcDbSymbolTableRecord
100
AcDbTextStyleTableRecord
2
iso_b_vert
3
simplex.shx
70
0
71
0
40
0
41
1
42
0
50
0
0
STYLE
5
123
100
AcDbSymbolTableRecord
100
AcDbTextStyleTableRecord
2
DWGDirectTextStyle
3
simplex
70
0
71
0
40
0
41
1
42
0
50
0
0
ENDTAB
0
TABLE
2
DIMSTYLE
5
218
100
AcDbSymbolTable
100
AcDbDimStyleTable
0
DIMSTYLE
105
27
100
AcDbSymbolTableRecord
100
AcDbDimStyleTableRecord
2
Standard
70
0
3
<>
41
0.18
42
0.0625
44
0.18
140
0.18
147
0.09
73
0
74
0
77
1
271
2
275
0
278
52
280
0
340
11
0
ENDTAB
0
TABLE
2
VIEW
5
219
100
AcDbSymbolTable
0
ENDTAB
0
TABLE
2
UCS
5
21a
100
AcDbSymbolTable
0
ENDTAB
0
TABLE
2
APPID
5
21b
100
AcDbSymbolTable
0
APPID
5
12
100
AcDbSymbolTableRecord
100
AcDbRegAppTableRecord
2
ACAD
70
0
0
APPID
5
125
100
AcDbSymbolTableRecord
100
AcDbRegAppTableRecord
2
ACAD_DSTYLE_DIMBREAK
70
0
0
APPID
5
1C0
100
AcDbSymbolTableRecord
100
AcDbRegAppTableRecord
2
ACAD_DSTYLE_DIM_LINETYPE
70
0
0
APPID
5
1C1
100
AcDbSymbolTableRecord
100
AcDbRegAppTableRecord
2
ACAD_DSTYLE_DIM_EXT1_LINETYPE
70
0
0
APPID
5
1C2
100
AcDbSymbolTableRecord
100
AcDbRegAppTableRecord
2
ACAD_DSTYLE_DIM_EXT2_LINETYPE
70
0
0
APPID
5
1FD
100
AcDbSymbolTableRecord
100
AcDbRegAppTableRecord
2
ACAD_MLEADERVER
70
0
0
ENDTAB
0
TABLE
2
BLOCK_RECORD
5
21c
100
AcDbSymbolTable
0
BLOCK_RECORD
5
1F
100
AcDbSymbolTableRecord
100
AcDbBlockTableRecord
2
*Model_Space
340
0
70
0
0
BLOCK_RECORD
5
1B
100
AcDbSymbolTableRecord
100
AcDbBlockTableRecord
2
*Paper_Space
340
0
70
0
0
BLOCK_RECORD
5
23
100
AcDbSymbolTableRecord
100
AcDbBlockTableRecord
2
*Paper_Space0
340
0
70
0
0
BLOCK_RECORD
5
12A
100
AcDbSymbolTableRecord
100
AcDbBlockTableRecord
2
*D1
340
0
70
0
0
BLOCK_RECORD
5
137
100
AcDbSymbolTableRecord
100
AcDbBlockTableRecord
2
_U0
340
0
70
0
0
BLOCK_RECORD
5
143
100
AcDbSymbolTableRecord
100
AcDbBlockTableRecord
2
*D3
340
0
70
0
0
BLOCK_RECORD
5
150
100
AcDbSymbolTableRecord
100
AcDbBlockTableRecord
2
_U1
340
0
70
0
0
BLOCK_RECORD
5
15C
100
AcDbSymbolTableRecord
100
AcDbBlockTableRecord
2
*D5
340
0
70
0
0
BLOCK_RECORD
5
169
100
AcDbSymbolTableRecord
100
AcDbBlockTableRecord
2
_U2
340
0
70
0
0
BLOCK_RECORD
5
175
100
AcDbSymbolTableRecord
100
AcDbBlockTableRecord
2
*D7
340
0
70
0
0
BLOCK_RECORD
5
181
100
AcDbSymbolTableRecord
100
AcDbBlockTableRecord
2
_U3
340
0
70
0
0
BLOCK_RECORD
5
18D
100
AcDbSymbolTableRecord
100
AcDbBlockTableRecord
2
*D9
340
0
70
0
0
BLOCK_RECORD
5
199
100
AcDbSymbolTableRecord
100
AcDbBlockTableRecord
2
_U4
340
0
70
0
0
ENDTAB
0
ENDSEC
0
SECTION
2
BLOCKS
0
BLOCK
5
20
100
AcDbEntity
8
0
100
AcDbBlockBegin
2
*Model_Space
70
0
10
0
20
0
30
0
3
*Model_Space
0
ENDBLK
5
21
100
AcDbEntity
8
0
100
AcDbBlockEnd
0
BLOCK
5
1C
100
AcDbEntity
8
0
100
AcDbBlockBegin
2
*Paper_Space
70
0
10
0
20
0
30
0
3
*Paper_Space
0
ENDBLK
5
1D
100
AcDbEntity
8
0
100
AcDbBlockEnd
0
BLOCK
5
24
100
AcDbEntity
8
0
100
AcDbBlockBegin
2
*Paper_Space0
70
0
10
0
20
0
30
0
3
*Paper_Space0
0
ENDBLK
5
25
100
AcDbEntity
8
0
100
AcDbBlockEnd
0
BLOCK
5
12B
100
AcDbEntity
8
0
100
AcDbBlockBegin
2
*D1
70
1
10
0
20
0
30
0
3
*D1
0
LINE
5
12D
100
AcDbEntity
8
0
62
256
6
ByLayer
370
-2
48
1
60
0
100
AcDbLine
10
44.695468
20
13.5625
30
0
11
72.857968
21
13.5625
31
0
39
0
210
0
220
0
230
1
0
LINE
5
12E
100
AcDbEntity
8
0
62
256
6
ByLayer
370
-2
48
1
60
0
100
AcDbLine
10
-105.304532
20
-12.4375
30
0
11
72.857968
21
-12.4375
31
0
39
0
210
0
220
0
230
1
0
LINE
5
12F
100
AcDbEntity
8
0
62
256
6
ByLayer
370
-2
48
1
60
0
100
AcDbLine
10
70.857968
20
10.0625
30
0
11
70.857968
21
-8.9375
31
0
39
0
210
0
220
0
230
1
0
SOLID
5
130
100
AcDbEntity
8
0
62
256
6
ByLayer
370
-1
48
1
60
0
100
AcDbTrace
10
71.441301
20
10.0625
30
0
11
70.274634
21
10.0625
31
0
12
70.857968
22
13.5625
32
0
13
70.857968
23
13.5625
33
0
39
0
210
0
220
0
230
1
0
SOLID
5
131
100
AcDbEntity
8
0
62
256
6
ByLayer
370
-1
48
1
60
0
100
AcDbTrace
10
70.274634
20
-8.9375
30
0
11
71.441301
21
-8.9375
31
0
12
70.857968
22
-12.4375
32
0
13
70.857968
23
-12.4375
33
0
39
0
210
0
220
0
230
1
0
MTEXT
5
132
100
AcDbEntity
8
0
62
256
6
ByLayer
370
18
48
1
60
0
100
AcDbMText
10
63.857968
20
0.5625
30
0
210
0
220
0
230
1
1
\A1;26
40
3.5
41
0
44
1
50
90
71
5
72
5
7
iso_b_vert
0
POINT
5
133
100
AcDbEntity
8
Defpoints
62
0
6
ByLayer
370
-1
48
1
60
0
100
AcDbPoint
10
43.107968
20
13.5625
30
0
39
0
210
0
220
0
230
1
50
360
0
POINT
5
134
100
AcDbEntity
8
Defpoints
62
0
6
ByLayer
370
-1
48
1
60
0
100
AcDbPoint
10
-106.892032
20
-12.4375
30
0
39
0
210
0
220
0
230
1
50
360
0
POINT
5
135
100
AcDbEntity
8
Defpoints
62
0
6
ByLayer
370
-1
48
1
60
0
100
AcDbPoint
10
70.857968
20
-12.4375
30
0
39
0
210
0
220
0
230
1
50
360
0
ENDBLK
5
12C
100
AcDbEntity
8
0
100
AcDbBlockEnd
0
BLOCK
5
13E
100
AcDbEntity
8
0
100
AcDbBlockBegin
2
_U0
70
0
10
0
20
0
30
0
3
_U0
0
MTEXT
5
138
100
AcDbEntity
8
2
62
256
6
ByLayer
370
18
48
1
60
0
100
AcDbMText
10
70.168334
20
-1.370466
30
0
210
0
220
0
230
1
1
\W0.6740;26
40
3.5
41
0
44
1.084337
50
90
71
7
72
5
7
iso_b_vert
0
LINE
5
139
100
AcDbEntity
8
2
62
256
6
ByLayer
370
13
48
1
60
0
100
AcDbLine
10
44.695468
20
13.5625
30
0
11
72.857968
21
13.5625
31
0
39
0
210
0
220
0
230
1
0
LINE
5
13A
100
AcDbEntity
8
2
62
256
6
ByLayer
370
13
48
1
60
0
100
AcDbLine
10
-105.304532
20
-12.4375
30
0
11
72.857968
21
-12.4375
31
0
39
0
210
0
220
0
230
1
0
LINE
5
13B
100
AcDbEntity
8
2
62
256
6
ByLayer
370
13
48
1
60
0
100
AcDbLine
10
70.857968
20
13.5625
30
0
11
70.857968
21
-12.4375
31
0
39
0
210
0
220
0
230
1
0
SOLID
5
13C
100
AcDbEntity
8
2
62
256
6
ByLayer
370
18
48
1
60
0
100
AcDbTrace
10
70.857968
20
13.5625
30
0
11
71.318751
21
10.062502
31
0
12
70.397184
22
10.062498
32
0
13
70.397184
23
10.062498
33
0
39
0
210
0
220
0
230
1
0
SOLID
5
13D
100
AcDbEntity
8
2
62
256
6
ByLayer
370
18
48
1
60
0
100
AcDbTrace
10
70.857968
20
-12.4375
30
0
11
70.397184
21
-8.937502
31
0
12
71.318751
22
-8.937498
32
0
13
71.318751
23
-8.937498
33
0
39
0
210
0
220
0
230
1
0
ENDBLK
5
13F
100
AcDbEntity
8
0
100
AcDbBlockEnd
0
BLOCK
5
144
100
AcDbEntity
8
0
100
AcDbBlockBegin
2
*D3
70
1
10
0
20
0
30
0
3
*D3
0
LINE
5
146
100
AcDbEntity
8
0
62
256
6
ByLayer
370
-2
48
1
60
0
100
AcDbLine
10
44.695468
20
9.5625
30
0
11
65.207968
21
9.5625
31
0
39
0
210
0
220
0
230
1
0
LINE
5
147
100
AcDbEntity
8
0
62
256
6
ByLayer
370
-2
48
1
60
0
100
AcDbLine
10
44.695468
20
13.5625
30
0
11
65.207968
21
13.5625
31
0
39
0
210
0
220
0
230
1
0
LINE
5
148
100
AcDbEntity
8
0
62
256
6
ByLayer
370
-2
48
1
60
0
100
AcDbLine
10
63.207968
20
6.0625
30
0
11
63.207968
21
2.5625
31
0
39
0
210
0
220
0
230
1
0
LINE
5
149
100
AcDbEntity
8
0
62
256
6
ByLayer
370
-2
48
1
60
0
100
AcDbLine
10
63.207968
20
17.0625
30
0
11
63.207968
21
20.5625
31
0
39
0
210
0
220
0
230
1
0
SOLID
5
14A
100
AcDbEntity
8
0
62
256
6
ByLayer
370
-1
48
1
60
0
100
AcDbTrace
10
63.791301
20
6.0625
30
0
11
62.624634
21
6.0625
31
0
12
63.207968
22
9.5625
32
0
13
63.207968
23
9.5625
33
0
39
0
210
0
220
0
230
1
0
SOLID
5
14B
100
AcDbEntity
8
0
62
256
6
ByLayer
370
-1
48
1
60
0
100
AcDbTrace
10
62.624634
20
17.0625
30
0
11
63.791301
21
17.0625
31
0
12
63.207968
22
13.5625
32
0
13
63.207968
23
13.5625
33
0
39
0
210
0
220
0
230
1
0
MTEXT
5
14C
100
AcDbEntity
8
0
62
256
6
ByLayer
370
18
48
1
60
0
100
AcDbMText
10
56.207968
20
11.5625
30
0
210
0
220
0
230
1
1
\A1;4
40
3.5
41
0
44
1
50
90
71
5
72
5
7
iso_b_vert
0
POINT
5
14D
100
AcDbEntity
8
Defpoints
62
0
6
ByLayer
370
-1
48
1
60
0
100
AcDbPoint
10
43.107968
20
9.5625
30
0
39
0
210
0
220
0
230
1
50
360
0
POINT
5
14E
100
AcDbEntity
8
Defpoints
62
0
6
ByLayer
370
-1
48
1
60
0
100
AcDbPoint
10
43.107968
20
13.5625
30
0
39
0
210
0
220
0
230
1
50
360
0
POINT
5
14F
100
AcDbEntity
8
Defpoints
62
0
6
ByLayer
370
-1
48
1
60
0
100
AcDbPoint
10
63.207968
20
13.5625
30
0
39
0
210
0
220
0
230
1
50
360
0
ENDBLK
5
145
100
AcDbEntity
8
0
100
AcDbBlockEnd
0
BLOCK
5
157
100
AcDbEntity
8
0
100
AcDbBlockBegin
2
_U1
70
0
10
0
20
0
30
0
3
_U1
0
MTEXT
5
151
100
AcDbEntity
8
2
62
256
6
ByLayer
370
18
48
1
60
0
100
AcDbMText
10
62.518334
20
10.753
30
0
210
0
220
0
230
1
1
\W0.6380;4
40
3.5
41
0
44
1.084337
50
90
71
7
72
5
7
iso_b_vert
0
LINE
5
152
100
AcDbEntity
8
2
62
256
6
ByLayer
370
13
48
1
60
0
100
AcDbLine
10
44.695468
20
9.5625
30
0
11
65.207968
21
9.5625
31
0
39
0
210
0
220
0
230
1
0
LINE
5
153
100
AcDbEntity
8
2
62
256
6
ByLayer
370
13
48
1
60
0
100
AcDbLine
10
44.695468
20
13.5625
30
0
11
65.207968
21
13.5625
31
0
39
0
210
0
220
0
230
1
0
LINE
5
154
100
AcDbEntity
8
2
62
256
6
ByLayer
370
13
48
1
60
0
100
AcDbLine
10
63.207968
20
0.8125
30
0
11
63.207968
21
22.3125
31
0
39
0
210
0
220
0
230
1
0
SOLID
5
155
100
AcDbEntity
8
2
62
256
6
ByLayer
370
18
48
1
60
0
100
AcDbTrace
10
63.207968
20
9.5625
30
0
11
63.668751
21
6.062502
31
0
12
62.747184
22
6.062498
32
0
13
62.747184
23
6.062498
33
0
39
0
210
0
220
0
230
1
0
SOLID
5
156
100
AcDbEntity
8
2
62
256
6
ByLayer
370
18
48
1
60
0
100
AcDbTrace
10
63.207968
20
13.5625
30
0
11
62.747184
21
17.062498
31
0
12
63.668751
22
17.062502
32
0
13
63.668751
23
17.062502
33
0
39
0
210
0
220
0
230
1
0
ENDBLK
5
158
100
AcDbEntity
8
0
100
AcDbBlockEnd
0
BLOCK
5
15D
100
AcDbEntity
8
0
100
AcDbBlockBegin
2
*D5
70
1
10
0
20
0
30
0
3
*D5
0
LINE
5
15F
100
AcDbEntity
8
0
62
256
6
ByLayer
370
-2
48
1
60
0
100
AcDbLine
10
-108.479532
20
-12.4375
30
0
11
-120.492032
21
-12.4375
31
0
39
0
210
0
220
0
230
1
0
LINE
5
160
100
AcDbEntity
8
0
62
256
6
ByLayer
370
-2
48
1
60
0
100
AcDbLine
10
-108.479532
20
12.5625
30
0
11
-120.492032
21
12.5625
31
0
39
0
210
0
220
0
230
1
0
LINE
5
161
100
AcDbEntity
8
0
62
256
6
ByLayer
370
-2
48
1
60
0
100
AcDbLine
10
-118.492032
20
-8.9375
30
0
11
-118.492032
21
9.0625
31
0
39
0
210
0
220
0
230
1
0
SOLID
5
162
100
AcDbEntity
8
0
62
256
6
ByLayer
370
-1
48
1
60
0
100
AcDbTrace
10
-119.075366
20
-8.9375
30
0
11
-117.908699
21
-8.9375
31
0
12
-118.492032
22
-12.4375
32
0
13
-118.492032
23
-12.4375
33
0
39
0
210
0
220
0
230
1
0
SOLID
5
163
100
AcDbEntity
8
0
62
256
6
ByLayer
370
-1
48
1
60
0
100
AcDbTrace
10
-117.908699
20
9.0625
30
0
11
-119.075366
21
9.0625
31
0
12
-118.492032
22
12.5625
32
0
13
-118.492032
23
12.5625
33
0
39
0
210
0
220
0
230
1
0
MTEXT
5
164
100
AcDbEntity
8
0
62
256
6
ByLayer
370
18
48
1
60
0
100
AcDbMText
10
-125.492032
20
0.0625
30
0
210
0
220
0
230
1
1
\A1;25
40
3.5
41
0
44
1
50
90
71
5
72
5
7
iso_b_vert
0
POINT
5
165
100
AcDbEntity
8
Defpoints
62
0
6
ByLayer
370
-1
48
1
60
0
100
AcDbPoint
10
-106.892032
20
-12.4375
30
0
39
0
210
0
220
0
230
1
50
360
0
POINT
5
166
100
AcDbEntity
8
Defpoints
62
0
6
ByLayer
370
-1
48
1
60
0
100
AcDbPoint
10
-106.892032
20
12.5625
30
0
39
0
210
0
220
0
230
1
50
360
0
POINT
5
167
100
AcDbEntity
8
Defpoints
62
0
6
ByLayer
370
-1
48
1
60
0
100
AcDbPoint
10
-118.492032
20
12.5625
30
0
39
0
210
0
220
0
230
1
50
360
0
ENDBLK
5
15E
100
AcDbEntity
8
0
100
AcDbBlockEnd
0
BLOCK
5
170
100
AcDbEntity
8
0
100
AcDbBlockBegin
2
_U2
70
0
10
0
20
0
30
0
3
_U2
0
MTEXT
5
16A
100
AcDbEntity
8
SK2
62
256
6
ByLayer
370
18
48
1
60
0
100
AcDbMText
10
-119.181666
20
-1.870466
30
0
210
0
220
0
230
1
1
\W0.6740;25
40
3.5
41
0
44
1.084337
50
90
71
7
72
5
7
iso_b_vert
0
LINE
5
16B
100
AcDbEntity
8
SK2
62
256
6
ByLayer
370
13
48
1
60
0
100
AcDbLine
10
-108.479532
20
-12.4375
30
0
11
-120.492032
21
-12.4375
31
0
39
0
210
0
220
0
230
1
0
LINE
5
16C
100
AcDbEntity
8
SK2
62
256
6
ByLayer
370
13
48
1
60
0
100
AcDbLine
10
-108.479532
20
12.5625
30
0
11
-120.492032
21
12.5625
31
0
39
0
210
0
220
0
230
1
0
LINE
5
16D
100
AcDbEntity
8
SK2
62
256
6
ByLayer
370
13
48
1
60
0
100
AcDbLine
10
-118.492032
20
-12.4375
30
0
11
-118.492032
21
12.5625
31
0
39
0
210
0
220
0
230
1
0
SOLID
5
16E
100
AcDbEntity
8
SK2
62
256
6
ByLayer
370
18
48
1
60
0
100
AcDbTrace
10
-118.492032
20
-12.4375
30
0
11
-118.952816
21
-8.937502
31
0
12
-118.031249
22
-8.937498
32
0
13
-118.031249
23
-8.937498
33
0
39
0
210
0
220
0
230
1
0
SOLID
5
16F
100
AcDbEntity
8
SK2
62
256
6
ByLayer
370
18
48
1
60
0
100
AcDbTrace
10
-118.492032
20
12.5625
30
0
11
-118.031249
21
9.062502
31
0
12
-118.952816
22
9.062498
32
0
13
-118.952816
23
9.062498
33
0
39
0
210
0
220
0
230
1
0
ENDBLK
5
171
100
AcDbEntity
8
0
100
AcDbBlockEnd
0
BLOCK
5
176
100
AcDbEntity
8
0
100
AcDbBlockBegin
2
*D7
70
1
10
0
20
0
30
0
3
*D7
0
LINE
5
178
100
AcDbEntity
8
0
62
256
6
ByLayer
370
-2
48
1
60
0
100
AcDbLine
10
21.107968
20
8.3
30
0
11
21.107968
21
-26.1875
31
0
39
0
210
0
220
0
230
1
0
LINE
5
179
100
AcDbEntity
8
0
62
256
6
ByLayer
370
-2
48
1
60
0
100
AcDbLine
10
43.107968
20
11.975
30
0
11
43.107968
21
-26.1875
31
0
39
0
210
0
220
0
230
1
0
LINE
5
17A
100
AcDbEntity
8
0
62
256
6
ByLayer
370
-2
48
1
60
0
100
AcDbLine
10
24.607968
20
-24.1875
30
0
11
39.607968
21
-24.1875
31
0
39
0
210
0
220
0
230
1
0
SOLID
5
17B
100
AcDbEntity
8
0
62
256
6
ByLayer
370
-1
48
1
60
0
100
AcDbTrace
10
24.607968
20
-23.604167
30
0
11
24.607968
21
-24.770833
31
0
12
21.107968
22
-24.1875
32
0
13
21.107968
23
-24.1875
33
0
39
0
210
0
220
0
230
1
0
SOLID
5
17C
100
AcDbEntity
8
0
62
256
6
ByLayer
370
-1
48
1
60
0
100
AcDbTrace
10
39.607968
20
-24.770833
30
0
11
39.607968
21
-23.604167
31
0
12
43.107968
22
-24.1875
32
0
13
43.107968
23
-24.1875
33
0
39
0
210
0
220
0
230
1
0
MTEXT
5
17D
100
AcDbEntity
8
0
62
256
6
ByLayer
370
18
48
1
60
0
100
AcDbMText
10
32.107968
20
-17.1875
30
0
210
0
220
0
230
1
1
\A1;22
40
3.5
41
0
44
1
50
0
71
5
72
5
7
iso_b_vert
0
POINT
5
17E
100
AcDbEntity
8
Defpoints
62
0
6
ByLayer
370
-1
48
1
60
0
100
AcDbPoint
10
21.107968
20
9.8875
30
0
39
0
210
0
220
0
230
1
50
360
0
POINT
5
17F
100
AcDbEntity
8
Defpoints
62
0
6
ByLayer
370
-1
48
1
60
0
100
AcDbPoint
10
43.107968
20
13.5625
30
0
39
0
210
0
220
0
230
1
50
360
0
POINT
5
180
100
AcDbEntity
8
Defpoints
62
0
6
ByLayer
370
-1
48
1
60
0
100
AcDbPoint
10
43.107968
20
-24.1875
30
0
39
0
210
0
220
0
230
1
50
360
0
ENDBLK
5
177
100
AcDbEntity
8
0
100
AcDbBlockEnd
0
BLOCK
5
188
100
AcDbEntity
8
0
100
AcDbBlockBegin
2
_U3
70
0
10
0
20
0
30
0
3
_U3
0
MTEXT
5
182
100
AcDbEntity
8
2
62
256
6
ByLayer
370
18
48
1
60
0
100
AcDbMText
10
30.203001
20
-23.154866
30
0
210
0
220
0
230
1
1
\W0.6740;22
40
3.5
41
0
44
1.084337
50
0
71
7
72
5
7
iso_b_vert
0
LINE
5
183
100
AcDbEntity
8
2
62
256
6
ByLayer
370
13
48
1
60
0
100
AcDbLine
10
21.107968
20
8.3
30
0
11
21.107968
21
-26.1875
31
0
39
0
210
0
220
0
230
1
0
LINE
5
184
100
AcDbEntity
8
2
62
256
6
ByLayer
370
13
48
1
60
0
100
AcDbLine
10
43.107968
20
11.975
30
0
11
43.107968
21
-26.1875
31
0
39
0
210
0
220
0
230
1
0
LINE
5
185
100
AcDbEntity
8
2
62
256
6
ByLayer
370
13
48
1
60
0
100
AcDbLine
10
21.107968
20
-24.1875
30
0
11
43.107968
21
-24.1875
31
0
39
0
210
0
220
0
230
1
0
SOLID
5
186
100
AcDbEntity
8
2
62
256
6
ByLayer
370
18
48
1
60
0
100
AcDbTrace
10
21.107968
20
-24.1875
30
0
11
24.607966
21
-23.726716
31
0
12
24.607969
22
-24.648284
32
0
13
24.607969
23
-24.648284
33
0
39
0
210
0
220
0
230
1
0
SOLID
5
187
100
AcDbEntity
8
2
62
256
6
ByLayer
370
18
48
1
60
0
100
AcDbTrace
10
43.107968
20
-24.1875
30
0
11
39.607969
21
-24.648284
31
0
12
39.607966
22
-23.726716
32
0
13
39.607966
23
-23.726716
33
0
39
0
210
0
220
0
230
1
0
ENDBLK
5
189
100
AcDbEntity
8
0
100
AcDbBlockEnd
0
BLOCK
5
18E
100
AcDbEntity
8
0
100
AcDbBlockBegin
2
*D9
70
1
10
0
20
0
30
0
3
*D9
0
LINE
5
190
100
AcDbEntity
8
0
62
256
6
ByLayer
370
-2
48
1
60
0
100
AcDbLine
10
-106.892032
20
-14.025
30
0
11
-106.892032
21
-32.1875
31
0
39
0
210
0
220
0
230
1
0
LINE
5
191
100
AcDbEntity
8
0
62
256
6
ByLayer
370
-2
48
1
60
0
100
AcDbLine
10
43.107968
20
11.975
30
0
11
43.107968
21
-32.1875
31
0
39
0
210
0
220
0
230
1
0
LINE
5
192
100
AcDbEntity
8
0
62
256
6
ByLayer
370
-2
48
1
60
0
100
AcDbLine
10
-103.392032
20
-30.1875
30
0
11
39.607968
21
-30.1875
31
0
39
0
210
0
220
0
230
1
0
SOLID
5
193
100
AcDbEntity
8
0
62
256
6
ByLayer
370
-1
48
1
60
0
100
AcDbTrace
10
-103.392032
20
-29.604167
30
0
11
-103.392032
21
-30.770833
31
0
12
-106.892032
22
-30.1875
32
0
13
-106.892032
23
-30.1875
33
0
39
0
210
0
220
0
230
1
0
SOLID
5
194
100
AcDbEntity
8
0
62
256
6
ByLayer
370
-1
48
1
60
0
100
AcDbTrace
10
39.607968
20
-30.770833
30
0
11
39.607968
21
-29.604167
31
0
12
43.107968
22
-30.1875
32
0
13
43.107968
23
-30.1875
33
0
39
0
210
0
220
0
230
1
0
MTEXT
5
195
100
AcDbEntity
8
0
62
256
6
ByLayer
370
18
48
1
60
0
100
AcDbMText
10
-31.892032
20
-23.1875
30
0
210
0
220
0
230
1
1
\A1;150
40
3.5
41
0
44
1
50
0
71
5
72
5
7
iso_b_vert
0
POINT
5
196
100
AcDbEntity
8
Defpoints
62
0
6
ByLayer
370
-1
48
1
60
0
100
AcDbPoint
10
-106.892032
20
-12.4375
30
0
39
0
210
0
220
0
230
1
50
360
0
POINT
5
197
100
AcDbEntity
8
Defpoints
62
0
6
ByLayer
370
-1
48
1
60
0
100
AcDbPoint
10
43.107968
20
13.5625
30
0
39
0
210
0
220
0
230
1
50
360
0
POINT
5
198
100
AcDbEntity
8
Defpoints
62
0
6
ByLayer
370
-1
48
1
60
0
100
AcDbPoint
10
43.107968
20
-30.1875
30
0
39
0
210
0
220
0
230
1
50
360
0
ENDBLK
5
18F
100
AcDbEntity
8
0
100
AcDbBlockEnd
0
BLOCK
5
1A0
100
AcDbEntity
8
0
100
AcDbBlockBegin
2
_U4
70
0
10
0
20
0
30
0
3
_U4
0
MTEXT
5
19A
100
AcDbEntity
8
SK2
62
256
6
ByLayer
370
18
48
1
60
0
100
AcDbMText
10
-34.667298
20
-29.154866
30
0
210
0
220
0
230
1
1
\W0.6217;150
40
3.5
41
0
44
1.084337
50
0
71
7
72
5
7
iso_b_vert
0
LINE
5
19B
100
AcDbEntity
8
SK2
62
256
6
ByLayer
370
13
48
1
60
0
100
AcDbLine
10
-106.892032
20
-14.025
30
0
11
-106.892032
21
-32.1875
31
0
39
0
210
0
220
0
230
1
0
LINE
5
19C
100
AcDbEntity
8
SK2
62
256
6
ByLayer
370
13
48
1
60
0
100
AcDbLine
10
43.107968
20
11.975
30
0
11
43.107968
21
-32.1875
31
0
39
0
210
0
220
0
230
1
0
LINE
5
19D
100
AcDbEntity
8
SK2
62
256
6
ByLayer
370
13
48
1
60
0
100
AcDbLine
10
-106.892032
20
-30.1875
30
0
11
43.107968
21
-30.1875
31
0
39
0
210
0
220
0
230
1
0
SOLID
5
19E
100
AcDbEntity
8
SK2
62
256
6
ByLayer
370
18
48
1
60
0
100
AcDbTrace
10
-106.892032
20
-30.1875
30
0
11
-103.392034
21
-29.726716
31
0
12
-103.392031
22
-30.648284
32
0
13
-103.392031
23
-30.648284
33
0
39
0
210
0
220
0
230
1
0
SOLID
5
19F
100
AcDbEntity
8
SK2
62
256
6
ByLayer
370
18
48
1
60
0
100
AcDbTrace
10
43.107968
20
-30.1875
30
0
11
39.607969
21
-30.648284
31
0
12
39.607966
22
-29.726716
32
0
13
39.607966
23
-29.726716
33
0
39
0
210
0
220
0
230
1
0
ENDBLK
5
1A1
100
AcDbEntity
8
0
100
AcDbBlockEnd
0
ENDSEC
0
SECTION
2
ENTITIES
0
ARC
5
D7
100
AcDbEntity
8
1
62
256
6
ByLayer
370
18
48
1
60
0
100
AcDbCircle
39
0
10
21.107968
20
8.2875
30
0
40
1.6
210
0
220
0
230
1
100
AcDbArc
50
90
51
180
0
ARC
5
D9
100
AcDbEntity
8
1
62
256
6
ByLayer
370
18
48
1
60
0
100
AcDbCircle
39
0
10
18.407968
20
13.2625
30
0
40
0.3
210
0
220
0
230
1
100
AcDbArc
50
87.5
51
180
0
ARC
5
DA
100
AcDbEntity
8
1
62
256
6
ByLayer
370
18
48
1
60
0
100
AcDbCircle
39
0
10
42.807968
20
9.8625
30
0
40
0.3
210
0
220
0
230
1
100
AcDbArc
50
267.5
51
0
0
ARC
5
DB
100
AcDbEntity
8
1
62
256
6
ByLayer
370
18
48
1
60
0
100
AcDbCircle
39
0
10
42.807968
20
13.2625
30
0
40
0.3
210
0
220
0
230
1
100
AcDbArc
50
0
51
92.5
0
ARC
5
DC
100
AcDbEntity
8
1
62
256
6
ByLayer
370
18
48
1
60
0
100
AcDbCircle
39
0
10
12.757968
20
1.4125
30
0
40
2.1768
210
0
220
0
230
1
100
AcDbArc
50
150
51
210
0
ARC
5
DD
100
AcDbEntity
8
1
62
256
6
ByLayer
370
18
48
1
60
0
100
AcDbCircle
39
0
10
12.757968
20
1.4125
30
0
40
2.1768
210
0
220
0
230
1
100
AcDbArc
50
270
51
330
0
ARC
5
DE
100
AcDbEntity
8
1
62
256
6
ByLayer
370
18
48
1
60
0
100
AcDbCircle
39
0
10
12.757968
20
1.4125
30
0
40
2.1768
210
0
220
0
230
1
100
AcDbArc
50
330
51
30
0
ARC
5
DF
100
AcDbEntity
8
1
62
256
6
ByLayer
370
18
48
1
60
0
100
AcDbCircle
39
0
10
12.757968
20
1.4125
30
0
40
2.1768
210
0
220
0
230
1
100
AcDbArc
50
30
51
90
0
ARC
5
E0
100
AcDbEntity
8
1
62
256
6
ByLayer
370
18
48
1
60
0
100
AcDbCircle
39
0
10
12.757968
20
1.4125
30
0
40
2.1768
210
0
220
0
230
1
100
AcDbArc
50
90
51
150
0
ARC
5
E1
100
AcDbEntity
8
1
62
256
6
ByLayer
370
18
48
1
60
0
100
AcDbCircle
39
0
10
12.757968
20
1.4125
30
0
40
2.1768
210
0
220
0
230
1
100
AcDbArc
50
210
51
270
0
ARC
5
E4
100
AcDbEntity
8
1
62
256
6
ByLayer
370
18
48
1
60
0
100
AcDbCircle
39
0
10
12.757968
20
1.4125
30
0
40
2.8067
210
0
220
0
230
1
100
AcDbArc
50
180
51
240
0
ARC
5
E5
100
AcDbEntity
8
1
62
256
6
ByLayer
370
18
48
1
60
0
100
AcDbCircle
39
0
10
12.757968
20
1.4125
30
0
40
2.8067
210
0
220
0
230
1
100
AcDbArc
50
360
51
60
0
ARC
5
E6
100
AcDbEntity
8
1
62
256
6
ByLayer
370
18
48
1
60
0
100
AcDbCircle
39
0
10
12.757968
20
1.4125
30
0
40
2.8067
210
0
220
0
230
1
100
AcDbArc
50
240
51
300
0
ARC
5
E7
100
AcDbEntity
8
1
62
256
6
ByLayer
370
18
48
1
60
0
100
AcDbCircle
39
0
10
12.757968
20
1.4125
30
0
40
2.8067
210
0
220
0
230
1
100
AcDbArc
50
300
51
360
0
ARC
5
E8
100
AcDbEntity
8
1
62
256
6
ByLayer
370
18
48
1
60
0
100
AcDbCircle
39
0
10
12.757968
20
1.4125
30
0
40
2.8067
210
0
220
0
230
1
100
AcDbArc
50
60
51
120
0
ARC
5
E9
100
AcDbEntity
8
1
62
256
6
ByLayer
370
18
48
1
60
0
100
AcDbCircle
39
0
10
12.757968
20
1.4125
30
0
40
2.8067
210
0
220
0
230
1
100
AcDbArc
50
120
51
180
0
CIRCLE
5
D8
100
AcDbEntity
8
1
62
256
6
ByLayer
370
18
48
1
60
0
100
AcDbCircle
10
12.757968
20
1.4125
30
0
40
5.75
39
0
210
0
220
0
230
1
0
CIRCLE
5
E2
100
AcDbEntity
8
1
62
256
6
ByLayer
370
13
48
1
60
0
100
AcDbCircle
10
12.757968
20
1.4125
30
0
40
4.55
39
0
210
0
220
0
230
1
0
CIRCLE
5
E3
100
AcDbEntity
8
1
62
256
6
ByLayer
370
18
48
1
60
0
100
AcDbCircle
10
12.757968
20
1.4125
30
0
40
5.35
39
0
210
0
220
0
230
1
0
ELLIPSE
5
EA
100
AcDbEntity
8
1
62
256
6
ByLayer
370
18
48
1
60
0
100
AcDbEllipse
10
-2.415859
20
-12.447099
30
0
11
3.00000000015749
21
3.51436609393207E-15
31
0
210
0
220
0
230
1
40
0.004363
41
0.261799387796825
42
0.634637860113563
0
ELLIPSE
5
EB
100
AcDbEntity
8
1
62
256
6
ByLayer
370
18
48
1
60
0
100
AcDbEllipse
10
35.664407
20
12.229799
30
0
11
0.0919143867219611
21
0.0393922015948999
31
0
210
0
220
0
230
1
40
1
41
2.91123084609809
42
-2.88240391578852
0
ELLIPSE
5
EC
100
AcDbEntity
8
1
62
256
6
ByLayer
370
18
48
1
60
0
100
AcDbEllipse
10
35.664407
20
10.895201
30
0
11
0.0919143867219611
21
-0.0393922015949
31
0
210
0
220
0
230
1
40
1
41
2.88240391578852
42
-2.91123084609809
0
ELLIPSE
5
ED
100
AcDbEntity
8
1
62
256
6
ByLayer
370
18
48
1
60
0
100
AcDbEllipse
10
35.542486
20
10.203751
30
0
11
0.0999868334568811
21
-0.00162276112631417
31
0
210
0
220
0
230
1
40
1
41
2.98328805270646
42
-3.12536433028505
0
ELLIPSE
5
EE
100
AcDbEntity
8
1
62
256
6
ByLayer
370
18
48
1
60
0
100
AcDbEllipse
10
35.542486
20
12.921249
30
0
11
0.0999868334568811
21
0.00162276112631418
31
0
210
0
220
0
230
1
40
1
41
3.12536433028505
42
-2.98328805270646
0
ELLIPSE
5
EF
100
AcDbEntity
8
SK1
62
256
6
ByLayer
370
18
48
1
60
0
100
AcDbEllipse
10
-2.415859
20
-12.447099
30
0
11
2.99999999999994
21
3.5143660937475E-15
31
0
210
0
220
0
230
1
40
0.004363
41
0.634637860128633
42
2.31838067646383
0
POINT
5
70
100
AcDbEntity
8
81
62
256
6
ByLayer
370
18
48
1
60
0
100
AcDbPoint
10
43.107968
20
13.5625
30
0
39
0
210
0
220
0
230
1
50
360
0
POINT
5
72
100
AcDbEntity
8
80
62
256
6
ByLayer
370
18
48
1
60
0
100
AcDbPoint
10
0
20
0
30
0
39
0
210
0
220
0
230
1
50
360
0
POINT
5
74
100
AcDbEntity
8
1
62
256
6
ByLayer
370
18
48
1
60
1
100
AcDbPoint
10
43.107968
20
13.5625
30
0
39
0
210
0
220
0
230
1
50
360
0
POINT
5
76
100
AcDbEntity
8
1
62
256
6
ByLayer
370
18
48
1
60
1
100
AcDbPoint
10
-106.892032
20
-12.4375
30
0
39
0
210
0
220
0
230
1
50
360
0
POINT
5
77
100
AcDbEntity
8
1
62
256
6
ByLayer
370
18
48
1
60
1
100
AcDbPoint
10
43.107968
20
9.5625
30
0
39
0
210
0
220
0
230
1
50
360
0
POINT
5
78
100
AcDbEntity
8
1
62
256
6
ByLayer
370
18
48
1
60
1
100
AcDbPoint
10
43.107968
20
13.5625
30
0
39
0
210
0
220
0
230
1
50
360
0
POINT
5
79
100
AcDbEntity
8
1
62
256
6
ByLayer
370
18
48
1
60
1
100
AcDbPoint
10
-106.892032
20
-12.4375
30
0
39
0
210
0
220
0
230
1
50
360
0
POINT
5
7A
100
AcDbEntity
8
1
62
256
6
ByLayer
370
18
48
1
60
1
100
AcDbPoint
10
-106.892032
20
12.5625
30
0
39
0
210
0
220
0
230
1
50
360
0
POINT
5
7B
100
AcDbEntity
8
1
62
256
6
ByLayer
370
18
48
1
60
1
100
AcDbPoint
10
21.107968
20
9.8875
30
0
39
0
210
0
220
0
230
1
50
360
0
POINT
5
7C
100
AcDbEntity
8
1
62
256
6
ByLayer
370
18
48
1
60
1
100
AcDbPoint
10
43.107968
20
13.5625
30
0
39
0
210
0
220
0
230
1
50
360
0
POINT
5
7D
100
AcDbEntity
8
1
62
256
6
ByLayer
370
18
48
1
60
1
100
AcDbPoint
10
-106.892032
20
-12.4375
30
0
39
0
210
0
220
0
230
1
50
360
0
POINT
5
7E
100
AcDbEntity
8
1
62
256
6
ByLayer
370
18
48
1
60
1
100
AcDbPoint
10
43.107968
20
13.5625
30
0
39
0
210
0
220
0
230
1
50
360
0
SPLINE
5
F0
100
AcDbEntity
8
1
62
256
6
ByLayer
370
18
48
1
60
0
100
AcDbSpline
70
4
71
3
72
44
73
40
40
0
40
0
40
0
40
0
40
0.0624999999999995
40
0.0624999999999995
40
0.124999999999999
40
0.124999999999999
40
0.156249999999996
40
0.156249999999996
40
0.187499999999992
40
0.187499999999992
40
0.249999999999985
40
0.249999999999985
40
0.312499999999979
40
0.312499999999979
40
0.343749999999973
40
0.343749999999973
40
0.374999999999968
40
0.374999999999968
40
0.499999999999979
40
0.499999999999979
40
0.531249999999987
40
0.531249999999987
40
0.562499999999995
40
0.562499999999995
40
0.625000000000011
40
0.625000000000011
40
0.750000000000043
40
0.750000000000043
40
0.781250000000031
40
0.781250000000031
40
0.812500000000019
40
0.812500000000019
40
0.875000000000022
40
0.937500000000024
40
0.937500000000024
40
0.968750000000025
40
0.984375000000013
40
0.984375000000013
40
1
40
1
40
1
40
1
41
1
10
32.2562292683187
20
8.28750000000002
30
0
41
1
10
32.2562292683187
20
8.34427085714222
30
0
41
1
10
32.2592414869042
20
8.40044023657782
30
0
41
1
10
32.2710191250566
20
8.51163003530183
30
0
41
1
10
32.2797855011951
20
8.56665026321423
30
0
41
1
10
32.2971983178271
20
8.6483288382299
30
0
41
1
10
32.3037145997182
20
8.67541277330625
30
0
41
1
10
32.3181798835641
20
8.72929430278117
30
0
41
1
10
32.3261510502587
20
8.75615866629801
30
0
41
1
10
32.3520887017696
20
8.83584510262503
30
0
41
1
10
32.3719223828036
20
8.88735504904363
30
0
41
1
10
32.416362560469
20
8.98734060605037
30
0
41
1
10
32.4409702987254
20
9.03581543178788
30
0
41
1
10
32.4813567912236
20
9.10631570322218
30
0
41
1
10
32.4953993000147
20
9.12944636820552
30
0
41
1
10
32.524640997689
20
9.17497088238997
30
0
41
1
10
32.5398843383512
20
9.19742381179549
30
0
41
1
10
32.6183075880176
20
9.30688952330016
30
0
41
1
10
32.6880907543544
20
9.38581900123882
30
0
41
1
10
32.7832648827454
20
9.47469235627989
30
0
41
1
10
32.8027011832275
20
9.49197243697208
30
0
41
1
10
32.8423709486034
20
9.52554950831762
30
0
41
1
10
32.8626520975973
20
9.54188214344805
30
0
41
1
10
32.9243024836985
20
9.58911172859942
30
0
41
1
10
32.9664025121
20
9.61820705488338
30
0
41
1
10
33.0955158695835
20
9.69874300281001
30
0
41
1
10
33.185319157737
20
9.74348885233834
30
0
41
1
10
33.3020309856047
20
9.78866313507237
30
0
41
1
10
33.3256381609583
20
9.79716706304981
30
0
41
1
10
33.3729315860394
20
9.81296547478823
30
0
41
1
10
33.3966525873959
20
9.82027550698615
30
0
41
1
10
33.4680323734703
20
9.84048071227181
30
0
41
1
10
33.5637825186494
20
9.86282863110719
30
0
41
1
10
33.6606478198883
20
9.87625443924586
30
0
41
1
10
33.7337119703783
20
9.88298980081504
30
0
41
1
10
33.7703480053168
20
9.88552273961741
30
0
41
1
10
33.8071409899813
20
9.88679398966045
30
0
41
1
10
33.831704749248
20
9.88735920392966
30
0
41
1
10
33.8440646474374
20
9.88750000000002
30
0
41
1
10
33.8562292683187
20
9.88750000000002
30
0
0
SPLINE
5
F1
100
AcDbEntity
8
1
62
256
6
ByLayer
370
18
48
1
60
0
100
AcDbSpline
70
4
71
3
72
14
73
10
40
0
40
0
40
0
40
0
40
0.249999999999975
40
0.249999999999975
40
0.374999999999982
40
0.374999999999982
40
0.499999999999989
40
0.499999999999989
40
1
40
1
40
1
40
1
41
1
10
20.3579675788577
20
8.84059225608661
30
0
41
1
10
20.3413485896985
20
8.79670160654283
30
0
41
1
10
20.3266545209689
20
8.75197130600097
30
0
41
1
10
20.3075877746109
20
8.68357843968769
30
0
41
1
10
20.3017159599985
20
8.66050675385722
30
0
41
1
10
20.2910558552821
20
8.61421779098762
30
0
41
1
10
20.2862725973737
20
8.5910366153955
30
0
41
1
10
20.2650431353117
20
8.47495043042889
30
0
41
1
10
20.256595163609
20
8.38150867749414
30
0
41
1
10
20.256595163609
20
8.28750000000002
30
0
0
SPLINE
5
F2
100
AcDbEntity
8
1
62
256
6
ByLayer
370
18
48
1
60
0
100
AcDbSpline
70
4
71
3
72
25
73
21
40
0
40
0
40
0
40
0
40
0.0366630491537276
40
0.0366630491537276
40
0.0933299286152671
40
0.0933299286152671
40
0.319997446461498
40
0.319997446461498
40
0.376664325923042
40
0.376664325923042
40
0.433331205384585
40
0.433331205384585
40
0.546664964307673
40
0.546664964307673
40
0.773332482153803
40
0.773332482153803
40
0.829999361615344
40
0.829999361615344
40
0.886666241076886
40
1
40
1
40
1
40
1
41
1
10
21.0589582257954
20
9.68203253011913
30
0
41
1
10
21.0478906741303
20
9.67532378024399
30
0
41
1
10
21.0368264047894
20
9.66843420499524
30
0
41
1
10
21.0087230852866
20
9.65045527571417
30
0
41
1
10
20.9918178844701
20
9.63919053850844
30
0
41
1
10
20.9081142591791
20
9.58114118976673
30
0
41
1
10
20.8437701257905
20
9.52920923649711
30
0
41
1
10
20.7672213261369
20
9.45740123086298
30
0
41
1
10
20.7521065230556
20
9.44269311206963
30
0
41
1
10
20.7222861697899
20
9.41257548604133
30
0
41
1
10
20.7075707358196
20
9.39715246403122
30
0
41
1
10
20.664438066044
20
9.35023018130505
30
0
41
1
10
20.636903425321
20
9.31795294662669
30
0
41
1
10
20.5579818170351
20
9.21817944063426
30
0
41
1
10
20.510251909085
20
9.1477615846583
30
0
41
1
10
20.457133218927
20
9.05470365513921
30
0
41
1
10
20.4468274677472
20
9.03581544365551
30
0
41
1
10
20.4269947760359
20
8.99772236467547
30
0
41
1
10
20.3983827064418
20
8.94005700007509
30
0
41
1
10
20.3731958627204
20
8.88081006138648
30
0
41
1
10
20.3579675788556
20
8.84059225608758
30
0
0
SPLINE
5
F3
100
AcDbEntity
8
1
62
256
6
ByLayer
370
18
48
1
60
0
100
AcDbSpline
70
4
71
3
72
10
73
6
40
0
40
0
40
0
40
0
40
0.5
40
0.5
40
1
40
1
40
1
40
1
41
1
10
0.157917465288762
20
13.2375
30
0
41
1
10
0.134466521600785
20
13.1968817740469
30
0
41
1
10
0.10959130657227
20
13.1578999070572
30
0
41
1
10
0.0569722395134988
20
13.0826890036962
30
0
41
1
10
0.0292278500070609
20
13.0464644015582
30
0
41
1
10
0
20
13.0114903551092
30
0
0
SPLINE
5
F4
100
AcDbEntity
8
1
62
256
6
ByLayer
370
18
48
1
60
0
100
AcDbSpline
70
4
71
3
72
12
73
8
40
0
40
0
40
0
40
0
40
0.499999999999994
40
0.499999999999994
40
0.749999999999997
40
0.749999999999997
40
1
40
1
40
1
40
1
41
1
10
34.8302153477893
20
11.0624999999962
30
0
41
1
10
34.7992985405691
20
10.8657571875768
30
0
41
1
10
34.7675961374986
20
10.6692079830676
30
0
41
1
10
34.7174430225488
20
10.3751331467171
30
0
41
1
10
34.7002854080942
20
10.2772457459732
30
0
41
1
10
34.6644967018711
20
10.0819316506476
30
0
41
1
10
34.6458954143074
20
9.98448827964754
30
0
41
1
10
34.6258868863198
20
9.88750000000002
30
0
0
SPLINE
5
F5
100
AcDbEntity
8
1
62
256
6
ByLayer
370
18
48
1
60
0
100
AcDbSpline
70
4
71
3
72
8
73
4
40
0
40
0
40
0
40
0
40
1
40
1
40
1
40
1
41
1
10
35.0271257792798
20
11.1465772376136
30
0
41
1
10
34.9616721404867
20
11.1177343063335
30
0
41
1
10
34.8961025793967
20
11.0894085401367
30
0
41
1
10
34.8302153477881
20
11.0625000000002
30
0
0
SPLINE
5
F6
100
AcDbEntity
8
1
62
256
6
ByLayer
370
18
48
1
60
0
100
AcDbSpline
70
4
71
3
72
18
73
14
40
0
40
0
40
0
40
0
40
0.249999999999989
40
0.249999999999989
40
0.499999999999979
40
0.499999999999979
40
0.624999999999984
40
0.624999999999984
40
0.749999999999989
40
0.749999999999989
40
0.874999999999995
40
0.874999999999995
40
1
40
1
40
1
40
1
41
1
10
35.1079675788577
20
11.2875311307315
30
0
41
1
10
35.1079675788577
20
11.2717066707605
30
0
41
1
10
35.105982063428
20
11.2563259354211
30
0
41
1
10
35.0981161574225
20
11.2264348946634
30
0
41
1
10
35.0924216759352
20
11.2126741512116
30
0
41
1
10
35.081422316242
20
11.193874666017
30
0
41
1
10
35.0773940441612
20
11.1880189291367
30
0
41
1
10
35.0687590323545
20
11.1772311583366
30
0
41
1
10
35.064136566465
20
11.1722727290414
30
0
41
1
10
35.0542858359853
20
11.1632208978463
30
0
41
1
10
35.0490910285895
20
11.1591674960559
30
0
41
1
10
35.0383871450719
20
11.1521203164927
30
0
41
1
10
35.0328489567549
20
11.1490992244376
30
0
41
1
10
35.0271257792798
20
11.1465772376136
30
0
0
SPLINE
5
F7
100
AcDbEntity
8
1
62
256
6
ByLayer
370
18
48
1
60
0
100
AcDbSpline
70
4
71
3
72
20
73
16
40
0
40
0
40
0
40
0
40
0.249999999999769
40
0.249999999999769
40
0.374999999999807
40
0.374999999999807
40
0.499999999999846
40
0.499999999999846
40
0.624999999999885
40
0.624999999999885
40
0.749999999999923
40
0.749999999999923
40
0.874999999999961
40
0.874999999999961
40
1
40
1
40
1
40
1
41
1
10
35.0271257792801
20
11.9784227623863
30
0
41
1
10
35.0385771767409
20
11.9733765666955
30
0
41
1
10
35.0492453454359
20
11.9663877198728
30
0
41
1
10
35.0640159096368
20
11.9528494779286
30
0
41
1
10
35.0687115475184
20
11.947822272624
30
0
41
1
10
35.0773490077085
20
11.9370431644951
30
0
41
1
10
35.0813341354954
20
11.9312546142988
30
0
41
1
10
35.0886149272942
20
11.9188528991703
30
0
41
1
10
35.0919343358608
20
11.9121714878331
30
0
41
1
10
35.0976335769424
20
11.8983683739998
30
0
41
1
10
35.1000349899856
20
11.8912308118807
30
0
41
1
10
35.1039382341003
20
11.8764820096555
30
0
41
1
10
35.1054464872661
20
11.868816490514
30
0
41
1
10
35.1074607871042
20
11.8532425880656
30
0
41
1
10
35.1079675788694
20
11.8453893156454
30
0
41
1
10
35.1079675788694
20
11.8374688692701
30
0
0
SPLINE
5
F8
100
AcDbEntity
8
1
62
256
6
ByLayer
370
18
48
1
60
0
100
AcDbSpline
70
4
71
3
72
8
73
4
40
0
40
0
40
0
40
0
40
1
40
1
40
1
40
1
41
1
10
34.8302153477877
20
12.0625
30
0
41
1
10
34.8960855537291
20
12.0355984131964
30
0
41
1
10
34.9616597633986
20
12.0072711477789
30
0
41
1
10
35.0271257792801
20
11.9784227623863
30
0
0
SPLINE
5
F9
100
AcDbEntity
8
1
62
256
6
ByLayer
370
18
48
1
60
0
100
AcDbSpline
70
4
71
3
72
12
73
8
40
0
40
0
40
0
40
0
40
0.25
40
0.25
40
0.5
40
0.5
40
1
40
1
40
1
40
1
41
1
10
34.6258868863199
20
13.2375
30
0
41
1
10
34.6459063311451
20
13.1404588026517
30
0
41
1
10
34.6645090501268
20
13.0430030766493
30
0
41
1
10
34.7002990870628
20
12.8476774836267
30
0
41
1
10
34.7174548677625
20
12.7497983889244
30
0
41
1
10
34.7675988882572
20
12.4557739058926
30
0
41
1
10
34.7992972381321
20
12.2592511006233
30
0
41
1
10
34.8302153477877
20
12.0625000000001
30
0
0
SPLINE
5
FA
100
AcDbEntity
8
1
62
256
6
ByLayer
370
18
48
1
60
0
100
AcDbSpline
70
4
71
3
72
18
73
14
40
0
40
0
40
0
40
0
40
0.106502320877742
40
0.209819720888349
40
0.309970050664505
40
0.406972922400015
40
0.50084992082595
40
0.591624858696634
40
0.679324076625912
40
0.763976789997966
40
0.845615488386315
40
0.924276395492683
40
1
40
1
40
1
40
1
41
1
10
35.6980862172677
20
12.045585351823
30
0
41
1
10
35.6965091061934
20
12.0462643036506
30
0
41
1
10
35.6934020470919
20
12.0476019034492
30
0
41
1
10
35.6888919111762
20
12.0499049623887
30
0
41
1
10
35.68458290232
20
12.0523663474787
30
0
41
1
10
35.6804802013748
20
12.0549901579404
30
0
41
1
10
35.676582489068
20
12.0577524658373
30
0
41
1
10
35.6728900240872
20
12.0606370391756
30
0
41
1
10
35.6694029509025
20
12.0636268528404
30
0
41
1
10
35.6661204155716
20
12.0667043544701
30
0
41
1
10
35.6630454487201
20
12.0698584152507
30
0
41
1
10
35.6601672624498
20
12.0730579925822
30
0
41
1
10
35.6583711657763
20
12.0752918768383
30
0
41
1
10
35.6574902036077
20
12.0763875681494
30
0
0
SPLINE
5
FB
100
AcDbEntity
8
1
62
256
6
ByLayer
370
18
48
1
60
0
100
AcDbSpline
70
4
71
3
72
16
73
12
40
0
40
0
40
0
40
0
40
0.11731955219253
40
0.233085853411031
40
0.347299362420241
40
0.45996055694815
40
0.571069934744766
40
0.68062801471296
40
0.788635338118803
40
0.8950924698883
40
1
40
1
40
1
40
1
41
1
10
35.8569129943077
20
11.990232523702
30
0
41
1
10
35.8506453455702
20
11.9920553268701
30
0
41
1
10
35.8381930285647
20
11.995676800223
30
0
41
1
10
35.8196868348826
20
12.0013914087642
30
0
41
1
10
35.8014648755764
20
12.0072568898136
30
0
41
1
10
35.7835304222354
20
12.0132866733875
30
0
41
1
10
35.7658826942355
20
12.0194662690683
30
0
41
1
10
35.7485216077425
20
12.0257869201774
30
0
41
1
10
35.7314482369927
20
12.0322449449493
30
0
41
1
10
35.7146584541165
20
12.0388120560555
30
0
41
1
10
35.7035832305374
20
12.0433386486787
30
0
41
1
10
35.6980862172677
20
12.04558535183
30
0
0
SPLINE
5
FC
100
AcDbEntity
8
1
62
256
6
ByLayer
370
18
48
1
60
0
100
AcDbSpline
70
4
71
2
72
10
73
7
40
0
40
0
40
0
40
0.5
40
0.5
40
0.75
40
0.75
40
1
40
1
40
1
41
1
10
35.8569129943012
20
11.990232523738
30
0
41
1
10
35.9245068205236
20
11.970737836485
30
0
41
1
10
35.9722030616267
20
11.9190142889902
30
0
41
1
10
35.9981900515785
20
11.890833047074
30
0
41
1
10
36.0148269535881
20
11.8549776461038
30
0
41
1
10
36.03279281501
20
11.8162581077733
30
0
41
1
10
36.0369137759407
20
11.773235586972
30
0
0
SPLINE
5
FD
100
AcDbEntity
8
1
62
256
6
ByLayer
370
18
48
1
60
0
100
AcDbSpline
70
4
71
2
72
6
73
3
40
0
40
0
40
0
40
1
40
1
40
1
41
1
10
36.0369137759782
20
11.773235587058
30
0
41
1
10
36.0458050681508
20
11.6780165540399
30
0
41
1
10
36.0458285383892
20
11.5825000006976
30
0
0
SPLINE
5
FE
100
AcDbEntity
8
1
62
256
6
ByLayer
370
18
48
1
60
0
100
AcDbSpline
70
4
71
3
72
17
73
13
40
0
40
0
40
0
40
0
40
0.100317411817079
40
0.200541310293528
40
0.300680278273651
40
0.400742920447667
40
0.500737861201955
40
0.600673742442858
40
0.700559221399283
40
0.800402968404953
40
0.900213664663637
40
1
40
1
40
1
40
1
41
1
10
36.0369137759777
20
11.351764412942
30
0
41
1
10
36.0374907017394
20
11.3581087701755
30
0
41
1
10
36.0386440154674
20
11.3707915705938
30
0
41
1
10
36.040149403979
20
11.3898460527878
30
0
41
1
10
36.041489205109
20
11.4089085209796
30
0
41
1
10
36.0426473826089
20
11.4279803042831
30
0
41
1
10
36.0436283058491
20
11.4470589293337
30
0
41
1
10
36.0444305147006
20
11.4661429412488
30
0
41
1
10
36.0450554832193
20
11.4852306135196
30
0
41
1
10
36.0454987763667
20
11.5043202936691
30
0
41
1
10
36.0457766520422
20
11.5234103103435
30
0
41
1
10
36.0458112443465
20
11.5361372874275
30
0
41
1
10
36.0458285383877
20
11.5424999993024
30
0
0
SPLINE
5
FF
100
AcDbEntity
8
1
62
256
6
ByLayer
370
18
48
1
60
0
100
AcDbSpline
70
4
71
3
72
38
73
34
40
0
40
0
40
0
40
0
40
0.0320161803202336
40
0.0634137556517296
40
0.0941938978135638
40
0.124357850632242
40
0.153906935796048
40
0.182842559298728
40
0.211166218540813
40
0.238879510169562
40
0.265984138747604
40
0.292481926351457
40
0.318374823219174
40
0.343664919578611
40
0.368354458810733
40
0.392445852120361
40
0.41594169491626
40
0.438844785127715
40
0.461158143719588
40
0.482885037706501
40
0.504029006008668
40
0.551366811163491
40
0.597409666800783
40
0.642207857911429
40
0.685815975457833
40
0.728293199080119
40
0.769703557232122
40
0.810116149643948
40
0.849605314211521
40
0.888250718111325
40
0.926137351649977
40
0.963355403684979
40
1
40
1
40
1
40
1
41
1
10
35.8569129942977
20
11.134767476262
30
0
41
1
10
35.8595412022225
20
11.1355485607148
30
0
41
1
10
35.8647468367947
20
11.1370956377906
30
0
41
1
10
35.8724183692599
20
11.139731715862
30
0
41
1
10
35.8798924884198
20
11.1425558999428
30
0
41
1
10
35.8871650942036
20
11.145578910145
30
0
41
1
10
35.8942372552931
20
11.1487816340918
30
0
41
1
10
35.9011086967219
20
11.1521529401733
30
0
41
1
10
35.9077794928938
20
11.1556798787035
30
0
41
1
10
35.9142496277211
20
11.1593502562549
30
0
41
1
10
35.92051910886
20
11.1631519927349
30
0
41
1
10
35.9265879381035
20
11.1670733110595
30
0
41
1
10
35.9324561190212
20
11.1711027081727
30
0
41
1
10
35.9381236552254
20
11.1752289801845
30
0
41
1
10
35.9435905500458
20
11.1794412313228
30
0
41
1
10
35.9488568095157
20
11.1837288838923
30
0
41
1
10
35.9539224312742
20
11.1880816889976
30
0
41
1
10
35.9587874446604
20
11.1924897234822
30
0
41
1
10
35.9634517667684
20
11.1969434298673
30
0
41
1
10
35.9679157190759
20
11.2014334948112
30
0
41
1
10
35.9739771356575
20
11.207858030493
30
0
41
1
10
35.981426398061
20
11.2164468168096
30
0
41
1
10
35.9899703211373
20
11.2275200836322
30
0
41
1
10
35.9978165015012
20
11.2389694413074
30
0
41
1
10
36.0049651843956
20
11.2507493808283
30
0
41
1
10
36.0114161979484
20
11.2628153813828
30
0
41
1
10
36.0171693145935
20
11.2751233474438
30
0
41
1
10
36.0222247334684
20
11.2876298346291
30
0
41
1
10
36.0265808749648
20
11.3002925471705
30
0
41
1
10
36.0302424590415
20
11.3130689765116
30
0
41
1
10
36.0331912788524
20
11.3259219116356
30
0
41
1
10
36.0354922122894
20
11.3387999416636
30
0
41
1
10
36.0364423803638
20
11.3474653481022
30
0
41
1
10
36.0369137759377
20
11.351764413028
30
0
0
SPLINE
5
100
100
AcDbEntity
8
1
62
256
6
ByLayer
370
18
48
1
60
0
100
AcDbSpline
70
4
71
2
72
6
73
3
40
0
40
0
40
0
40
1
40
1
40
1
41
1
10
35.8569129943097
20
11.134767476298
30
0
41
1
10
35.7759142978733
20
11.1115152433281
30
0
41
1
10
35.6980862172702
20
11.07941464817
30
0
0
SPLINE
5
101
100
AcDbEntity
8
1
62
256
6
ByLayer
370
18
48
1
60
0
100
AcDbSpline
70
4
71
2
72
6
73
3
40
0
40
0
40
0
40
1
40
1
40
1
41
1
10
35.6980862172692
20
11.079414648177
30
0
41
1
10
35.6737873382768
20
11.0692453291368
30
0
41
1
10
35.6574902036082
20
11.048612431851
30
0
0
SPLINE
5
102
100
AcDbEntity
8
SK1
62
256
6
ByLayer
370
18
48
1
60
0
100
AcDbSpline
70
4
71
3
72
26
73
22
40
0
40
0
40
0
40
0
40
0.12499999999999
40
0.12499999999999
40
0.249999999999981
40
0.249999999999981
40
0.312499999999978
40
0.312499999999978
40
0.374999999999975
40
0.374999999999975
40
0.49999999999999
40
0.49999999999999
40
0.625000000000004
40
0.625000000000004
40
0.687500000000011
40
0.687500000000011
40
0.750000000000018
40
0.750000000000018
40
0.875000000000009
40
0.875000000000009
40
1
40
1
40
1
40
1
41
1
10
0
20
13.0114903551092
30
0
41
1
10
-0.0343769418091995
20
12.9703549052105
30
0
41
1
10
-0.0708043515486168
20
12.9309491464893
30
0
41
1
10
-0.148043732589002
20
12.8554643584108
30
0
41
1
10
-0.188854424159331
20
12.8193865426683
30
0
41
1
10
-0.253687408732787
20
12.7678478874527
30
0
41
1
10
-0.27585569306288
20
12.7511408058508
30
0
41
1
10
-0.321083651099428
20
12.7188732697369
30
0
41
1
10
-0.344179452210625
20
12.7032837031615
30
0
41
1
10
-0.414954058389839
20
12.6581751862633
30
0
41
1
10
-0.464115964693491
20
12.6303092857285
30
0
41
1
10
-0.566707625327894
20
12.5793024406004
30
0
41
1
10
-0.620135538287514
20
12.5561593211543
30
0
41
1
10
-0.703823602959005
20
12.5254112228783
30
0
41
1
10
-0.732312008439123
20
12.5158251195839
30
0
41
1
10
-0.790551744127271
20
12.4980819910294
30
0
41
1
10
-0.820074616825565
20
12.4899958676522
30
0
41
1
10
-0.909755946779939
20
12.4682063998802
30
0
41
1
10
-0.971074506872412
20
12.456946284111
30
0
41
1
10
-1.09692648091411
20
12.4415956125351
30
0
41
1
10
-1.16145881579914
20
12.4375
30
0
41
1
10
-1.22772318076633
20
12.4375
30
0
0
SPLINE
5
103
100
AcDbEntity
8
1
62
256
6
ByLayer
370
18
48
1
60
0
100
AcDbSpline
70
4
71
3
72
37
73
33
40
0
40
0
40
0
40
0
40
0.124999999999986
40
0.124999999999986
40
0.249999999999972
40
0.249999999999972
40
0.374999999999958
40
0.374999999999958
40
0.43749999999995
40
0.43749999999995
40
0.499999999999942
40
0.499999999999942
40
0.562499999999934
40
0.562499999999934
40
0.624999999999926
40
0.624999999999926
40
0.687499999999918
40
0.687499999999918
40
0.718749999999927
40
0.718749999999927
40
0.749999999999935
40
0.749999999999935
40
0.81249999999998
40
0.81249999999998
40
0.843749999999986
40
0.843749999999986
40
0.874999999999991
40
0.906249999999996
40
0.906249999999996
40
0.937500000000001
40
0.937500000000001
40
1
40
1
40
1
40
1
41
1
10
9.95126757885768
20
1.41250000000002
30
0
41
1
10
9.95126757885768
20
1.37605915125965
30
0
41
1
10
9.95269279243357
20
1.33958155559961
30
0
41
1
10
9.95846730300607
20
1.26695289977508
30
0
41
1
10
9.96282190846361
20
1.23072126672176
30
0
41
1
10
9.97470234576855
20
1.15892044783638
30
0
41
1
10
9.98224192061789
20
1.12325035143812
30
0
41
1
10
9.99628816746846
20
1.07064856749352
30
0
41
1
10
10.001428775853
20
1.05326004335475
30
0
41
1
10
10.0127437917753
20
1.01881360005061
30
0
41
1
10
10.0189191082058
20
1.00175878017811
30
0
41
1
10
10.0323742616869
20
0.968269794811533
30
0
41
1
10
10.0396612168549
20
0.951807676454223
30
0
41
1
10
10.055564003273
20
0.919561744142868
30
0
41
1
10
10.0642051096388
20
0.903743865403214
30
0
41
1
10
10.0828329777417
20
0.87344133532531
30
0
41
1
10
10.0928396100796
20
0.858900605444404
30
0
41
1
10
10.109143757385
20
0.838246765159994
30
0
41
1
10
10.1147954240346
20
0.83155619463227
30
0
41
1
10
10.1265979560343
20
0.818624621881895
30
0
41
1
10
10.132779955872
20
0.812356558701651
30
0
41
1
10
10.1518851018806
20
0.794640178798005
30
0
41
1
10
10.1653876365583
20
0.784214971163294
30
0
41
1
10
10.1870689652933
20
0.771211438798673
30
0
41
1
10
10.1945940453179
20
0.767296632124356
30
0
41
1
10
10.2098446095861
20
0.760640608080536
30
0
41
1
10
10.2252909056516
20
0.755138189253927
30
0
41
1
10
10.2411363642202
20
0.752037210180077
30
0
41
1
10
10.2571895432921
20
0.750206392034443
30
0
41
1
10
10.2652479815453
20
0.749944969701801
30
0
41
1
10
10.288932810844
20
0.751040491577385
30
0
41
1
10
10.3043082486898
20
0.754233217033914
30
0
41
1
10
10.3193109365589
20
0.759629241423653
30
0
0
SPLINE
5
104
100
AcDbEntity
8
1
62
256
6
ByLayer
370
18
48
1
60
0
100
AcDbSpline
70
4
71
3
72
35
73
31
40
0
40
0
40
0
40
0
40
0.125000000000013
40
0.125000000000013
40
0.250000000000026
40
0.250000000000026
40
0.375000000000039
40
0.375000000000039
40
0.437500000000042
40
0.437500000000042
40
0.500000000000046
40
0.500000000000046
40
0.625000000000057
40
0.625000000000057
40
0.687500000000066
40
0.687500000000066
40
0.718750000000061
40
0.718750000000061
40
0.750000000000056
40
0.750000000000056
40
0.812500000000043
40
0.812500000000043
40
0.84375000000004
40
0.84375000000004
40
0.875000000000038
40
0.906250000000035
40
0.906250000000035
40
0.937500000000032
40
0.937500000000032
40
1
40
1
40
1
40
1
41
1
10
11.3546175788577
20
-1.01817350080174
30
0
41
1
10
11.3230772295705
20
-0.999963671650477
30
0
41
1
10
11.2921831527375
20
-0.980481289279624
30
0
41
1
10
11.2321791955767
20
-0.939171396121196
30
0
41
1
10
11.2030591854606
20
-0.917348024696224
30
0
41
1
10
11.1467682215716
20
-0.871124353830481
30
0
41
1
10
11.119684517697
20
-0.846794073931676
30
0
41
1
10
11.0811899883867
20
-0.808376341521154
30
0
41
1
10
11.0687042516215
20
-0.795238424425946
30
0
41
1
10
11.0445178023306
20
-0.768212166982579
30
0
41
1
10
11.0328186258134
20
-0.754322647524589
30
0
41
1
10
10.9993393257998
20
-0.711653432281281
30
0
41
1
10
10.978983582928
20
-0.681691339520171
30
0
41
1
10
10.9535073986186
20
-0.634600606772239
30
0
41
1
10
10.9458246934893
20
-0.61845389028403
30
0
41
1
10
10.9360507586853
20
-0.593823233237003
30
0
41
1
10
10.9330830352456
20
-0.585543095682027
30
0
41
1
10
10.927807274654
20
-0.568826567105646
30
0
41
1
10
10.925493745561
20
-0.560360692694189
30
0
41
1
10
10.9197679767505
20
-0.535023478954372
30
0
41
1
10
10.917528711352
20
-0.51816173379666
30
0
41
1
10
10.917155908337
20
-0.492949909236558
30
0
41
1
10
10.9175428656265
20
-0.484498304941439
30
0
41
1
10
10.9194273459545
20
-0.468016102604707
30
0
41
1
10
10.9224035239155
20
-0.451939315107609
30
0
41
1
10
10.9276483385166
20
-0.436713646017495
30
0
41
1
10
10.9340914036193
20
-0.421941071257265
30
0
41
1
10
10.937890380678
20
-0.414856649743712
30
0
41
1
10
10.9506635031599
20
-0.394956639869918
30
0
41
1
10
10.9610935829989
20
-0.38327134708959
30
0
41
1
10
10.9732365953931
20
-0.373003224050194
30
0
0
SPLINE
5
105
100
AcDbEntity
8
1
62
256
6
ByLayer
370
18
48
1
60
0
100
AcDbSpline
70
4
71
3
72
50
73
46
40
0
40
0
40
0
40
0
40
0.0312499999999938
40
0.0312499999999938
40
0.0624999999999877
40
0.0624999999999877
40
0.0937499999999815
40
0.0937499999999815
40
0.124999999999975
40
0.124999999999975
40
0.156249999999969
40
0.156249999999969
40
0.187499999999963
40
0.187499999999963
40
0.218749999999957
40
0.218749999999957
40
0.249999999999951
40
0.249999999999951
40
0.312499999999955
40
0.312499999999955
40
0.374999999999961
40
0.374999999999961
40
0.437499999999966
40
0.437499999999966
40
0.499999999999971
40
0.499999999999971
40
0.624999999999978
40
0.624999999999978
40
0.687499999999982
40
0.687499999999982
40
0.749999999999987
40
0.749999999999987
40
0.812499999999991
40
0.812499999999991
40
0.843749999999993
40
0.843749999999993
40
0.874999999999994
40
0.874999999999994
40
0.906249999999996
40
0.906249999999996
40
0.937499999999997
40
0.937499999999997
40
0.968749999999999
40
0.968749999999999
40
1
40
1
40
1
40
1
41
1
10
10.3393109365589
20
0.761001038234525
30
0
41
1
10
10.3529788873809
20
0.761938520801948
30
0
41
1
10
10.3666735846415
20
0.761414880640814
30
0
41
1
10
10.3941149016212
20
0.758033410938282
30
0
41
1
10
10.4078478580986
20
0.7551624398792
30
0
41
1
10
10.4349312099281
20
0.74758980234256
30
0
41
1
10
10.4483783495692
20
0.742862681261698
30
0
41
1
10
10.4748128620199
20
0.731964209874803
30
0
41
1
10
10.4878227644788
20
0.725789315637314
30
0
41
1
10
10.5135042981908
20
0.712208630899141
30
0
41
1
10
10.5261508147334
20
0.704812145122645
30
0
41
1
10
10.5509611671209
20
0.689068752645284
30
0
41
1
10
10.5631506774452
20
0.680707511568812
30
0
41
1
10
10.5871579853917
20
0.663114794411115
30
0
41
1
10
10.5989794148383
20
0.653877488047129
30
0
41
1
10
10.6221386109027
20
0.634737643245586
30
0
41
1
10
10.6334976230793
20
0.624819842848495
30
0
41
1
10
10.6669812911105
20
0.594110136410421
30
0
41
1
10
10.6885695794959
20
0.572305068639224
30
0
41
1
10
10.7299856163856
20
0.526870307529265
30
0
41
1
10
10.749848838495
20
0.503213671979353
30
0
41
1
10
10.7880475994717
20
0.454166045367686
30
0
41
1
10
10.8063397639499
20
0.428818558841925
30
0
41
1
10
10.8411126978036
20
0.376970101110913
30
0
41
1
10
10.8576420422001
20
0.350405413895828
30
0
41
1
10
10.9046494268407
20
0.268848911630272
30
0
41
1
10
10.9320560119411
20
0.212983872921257
30
0
41
1
10
10.9669236047855
20
0.126780475224905
30
0
41
1
10
10.97751214734
20
0.0975450904284116
30
0
41
1
10
10.9960013967105
20
0.0391715706834646
30
0
41
1
10
11.0039542923882
20
0.0099310797576777
30
0
41
1
10
11.0169393902509
20
-0.0487232306697933
30
0
41
1
10
11.0219807715168
20
-0.0781359829495898
30
0
41
1
10
11.026816349157
20
-0.122466842202073
30
0
41
1
10
11.0279690577685
20
-0.137324412716651
30
0
41
1
10
11.0291879990699
20
-0.166705227622202
30
0
41
1
10
11.0292618764623
20
-0.181267377064159
30
0
41
1
10
11.0281858887306
20
-0.210113199249861
30
0
41
1
10
11.0270375256738
20
-0.224397165406572
30
0
41
1
10
11.0232815435844
20
-0.252648053509915
30
0
41
1
10
11.0206636874186
20
-0.266666621088063
30
0
41
1
10
11.0136414869944
20
-0.294093215687582
30
0
41
1
10
11.0092830999658
20
-0.30734430281052
30
0
41
1
10
10.9985254727175
20
-0.332750678430898
30
0
41
1
10
10.9921319965005
20
-0.344909077096076
30
0
41
1
10
10.9844246062806
20
-0.356368614379306
30
0
0
SPLINE
5
106
100
AcDbEntity
8
1
62
256
6
ByLayer
370
18
48
1
60
0
100
AcDbSpline
70
4
71
3
72
8
73
4
40
0
40
0
40
0
40
0
40
1
40
1
40
1
40
1
41
1
10
10.3193109365589
20
0.759629241423653
30
0
41
1
10
10.3259773599545
20
0.760086490341365
30
0
41
1
10
10.3326440247207
20
0.760543755814609
30
0
41
1
10
10.3393109365589
20
0.761001038234525
30
0
0
SPLINE
5
107
100
AcDbEntity
8
1
62
256
6
ByLayer
370
18
48
1
60
0
100
AcDbSpline
70
4
71
3
72
8
73
4
40
0
40
0
40
0
40
0
40
1
40
1
40
1
40
1
41
1
10
10.9732365953931
20
-0.373003224050194
30
0
41
1
10
10.9769657962695
20
-0.367458556496018
30
0
41
1
10
10.9806951321688
20
-0.361913688186604
30
0
41
1
10
10.9844246062802
20
-0.356368614379932
30
0
0
SPLINE
5
108
100
AcDbEntity
8
1
62
256
6
ByLayer
370
18
48
1
60
0
100
AcDbSpline
70
4
71
3
72
35
73
31
40
0
40
0
40
0
40
0
40
0.124999999999988
40
0.124999999999988
40
0.249999999999976
40
0.249999999999976
40
0.374999999999964
40
0.374999999999964
40
0.437499999999944
40
0.437499999999944
40
0.499999999999925
40
0.499999999999925
40
0.624999999999914
40
0.624999999999914
40
0.687499999999909
40
0.687499999999909
40
0.718749999999912
40
0.718749999999912
40
0.749999999999915
40
0.749999999999915
40
0.812499999999942
40
0.812499999999942
40
0.843749999999957
40
0.843749999999957
40
0.874999999999972
40
0.906249999999987
40
0.906249999999987
40
0.937500000000002
40
0.937500000000002
40
1
40
1
40
1
40
1
41
1
10
14.1613175788577
20
3.84317350080184
30
0
41
1
10
14.1928579281448
20
3.82496367165055
30
0
41
1
10
14.2237520049778
20
3.80548128927973
30
0
41
1
10
14.2837559621387
20
3.7641713961213
30
0
41
1
10
14.3128759722548
20
3.74234802469633
30
0
41
1
10
14.3691669361437
20
3.69612435383058
30
0
41
1
10
14.3962506400183
20
3.67179407393178
30
0
41
1
10
14.4347451693287
20
3.63337634152126
30
0
41
1
10
14.4472309060938
20
3.62023842442605
30
0
41
1
10
14.4714173553847
20
3.59321216698268
30
0
41
1
10
14.4831165319019
20
3.57932264752469
30
0
41
1
10
14.5165958319155
20
3.53665343228136
30
0
41
1
10
14.5369515747873
20
3.50669133952027
30
0
41
1
10
14.5624277590968
20
3.45960060677234
30
0
41
1
10
14.5701104642261
20
3.4434538902841
30
0
41
1
10
14.5798843990301
20
3.41882323323711
30
0
41
1
10
14.5828521224698
20
3.4105430956821
30
0
41
1
10
14.5881278830613
20
3.39382656710572
30
0
41
1
10
14.5904414121544
20
3.38536069269426
30
0
41
1
10
14.5961671809648
20
3.36002347895445
30
0
41
1
10
14.5984064463634
20
3.34316173379671
30
0
41
1
10
14.5987792493784
20
3.3179499092366
30
0
41
1
10
14.5983922920889
20
3.30949830494151
30
0
41
1
10
14.5965078117609
20
3.29301610260478
30
0
41
1
10
14.5935316337999
20
3.27693931510765
30
0
41
1
10
14.5882868191987
20
3.26171364601757
30
0
41
1
10
14.5818437540961
20
3.24694107125734
30
0
41
1
10
14.5780447770373
20
3.23985664974373
30
0
41
1
10
14.5652716545555
20
3.21995663986996
30
0
41
1
10
14.5548415747165
20
3.20827134708964
30
0
41
1
10
14.5426985623222
20
3.19800322405024
30
0
0
SPLINE
5
109
100
AcDbEntity
8
1
62
256
6
ByLayer
370
18
48
1
60
0
100
AcDbSpline
70
4
71
3
72
35
73
31
40
0
40
0
40
0
40
0
40
0.124999999999993
40
0.124999999999993
40
0.249999999999986
40
0.249999999999986
40
0.374999999999979
40
0.374999999999979
40
0.499999999999972
40
0.499999999999972
40
0.562499999999957
40
0.562499999999957
40
0.624999999999942
40
0.624999999999942
40
0.687499999999927
40
0.687499999999927
40
0.71874999999992
40
0.71874999999992
40
0.749999999999913
40
0.749999999999913
40
0.81249999999994
40
0.81249999999994
40
0.843749999999952
40
0.843749999999952
40
0.874999999999964
40
0.906249999999976
40
0.906249999999976
40
0.937499999999988
40
0.937499999999988
40
1
40
1
40
1
40
1
41
1
10
15.5646675788577
20
1.41250000000002
30
0
41
1
10
15.5646675788577
20
1.44891884007575
30
0
41
1
10
15.5632454886279
20
1.4853700857002
30
0
41
1
10
15.5574689494125
20
1.55804239996871
30
0
41
1
10
15.5531277270819
20
1.59417100911332
30
0
41
1
10
15.5412544742721
20
1.66596879759754
30
0
41
1
10
15.5337178144865
20
1.70165246510393
30
0
41
1
10
15.5149596007097
20
1.77191037394326
30
0
41
1
10
15.5037432335018
20
1.80650834212051
30
0
41
1
10
15.4835133879763
20
1.85684311201587
30
0
41
1
10
15.4762097731642
20
1.87333395675387
30
0
41
1
10
15.4602728522883
20
1.90562594318203
30
0
41
1
10
15.4516551237323
20
1.92138569660943
30
0
41
1
10
15.4330542585175
20
1.95162888883499
30
0
41
1
10
15.4230530359845
20
1.96615951584153
30
0
41
1
10
15.4067311017671
20
1.98682646247877
30
0
41
1
10
15.4010691108821
20
1.9935260947795
30
0
41
1
10
15.3892331276669
20
2.00648442414541
30
0
41
1
10
15.3830496568799
20
2.01274670277877
30
0
41
1
10
15.363967245
20
2.03042570968913
30
0
41
1
10
15.3504466409039
20
2.04086525414053
30
0
41
1
10
15.3286437928898
20
2.05391189981293
30
0
41
1
10
15.3211289837186
20
2.05780429797767
30
0
41
1
10
15.3059893305561
20
2.06439504545918
30
0
41
1
10
15.2906375389058
20
2.06985732018697
30
0
41
1
10
15.2748490625841
20
2.07295339655045
30
0
41
1
10
15.2588310512145
20
2.0747874934975
30
0
41
1
10
15.2507440081956
20
2.07505530384353
30
0
41
1
10
15.2270220282096
20
2.07396510930846
30
0
41
1
10
15.2116326007682
20
2.07076883011808
30
0
41
1
10
15.1966242211564
20
2.06537075857639
30
0
0
SPLINE
5
10A
100
AcDbEntity
8
1
62
256
6
ByLayer
370
18
48
1
60
0
100
AcDbSpline
70
4
71
3
72
52
73
48
40
0
40
0
40
0
40
0
40
0.0156250000000023
40
0.0156250000000023
40
0.0312500000000047
40
0.0312500000000047
40
0.0625000000000064
40
0.0625000000000064
40
0.0937500000000081
40
0.0937500000000081
40
0.12500000000001
40
0.12500000000001
40
0.187500000000012
40
0.187500000000012
40
0.218750000000013
40
0.218750000000013
40
0.250000000000014
40
0.250000000000014
40
0.312500000000019
40
0.312500000000019
40
0.375000000000023
40
0.375000000000023
40
0.437500000000028
40
0.437500000000028
40
0.500000000000033
40
0.500000000000033
40
0.562500000000037
40
0.562500000000037
40
0.625000000000042
40
0.625000000000042
40
0.687500000000047
40
0.687500000000047
40
0.750000000000051
40
0.750000000000051
40
0.812500000000056
40
0.812500000000056
40
0.843750000000047
40
0.843750000000047
40
0.875000000000037
40
0.875000000000037
40
0.906250000000028
40
0.906250000000028
40
0.937500000000019
40
0.937500000000019
40
0.968750000000009
40
0.968750000000009
40
1
40
1
40
1
40
1
41
1
10
14.5315105514348
20
3.18136861437938
30
0
41
1
10
14.5276830539133
20
3.17567779695648
30
0
41
1
10
14.5241632869442
20
3.16978413495716
30
0
41
1
10
14.5176748518947
20
3.15763226749681
30
0
41
1
10
14.5147023367997
20
3.15136065584616
30
0
41
1
10
14.5066237578486
20
3.13226953225512
30
0
41
1
10
14.5023097652093
20
3.11911337591741
30
0
41
1
10
14.4953745631771
20
3.09211124226383
30
0
41
1
10
14.4927572063054
20
3.07826373536008
30
0
41
1
10
14.4889531072044
20
3.04997119072601
30
0
41
1
10
14.4877785207816
20
3.03557402892883
30
0
41
1
10
14.4861235340371
20
2.99216246759781
30
0
41
1
10
14.487481202677
20
2.96265665124417
30
0
41
1
10
14.4922808755457
20
2.91839176147357
30
0
41
1
10
14.4943456956011
20
2.90361298555558
30
0
41
1
10
14.4993129070483
20
2.87400327859137
30
0
41
1
10
14.502219810189
20
2.85915843044546
30
0
41
1
10
14.5120394806927
20
2.81480744429146
30
0
41
1
10
14.5200537688757
20
2.78539901803791
30
0
41
1
10
14.538641467477
20
2.72681666214993
30
0
41
1
10
14.5492084648278
20
2.69769685952841
30
0
41
1
10
14.5724753530048
20
2.64024629000588
30
0
41
1
10
14.5852094898561
20
2.6118211889883
30
0
41
1
10
14.6127349580329
20
2.55565368909092
30
0
41
1
10
14.6274608488298
20
2.52804243423148
30
0
41
1
10
14.6588077900865
20
2.47374841489071
30
0
41
1
10
14.675348984444
20
2.44720399484186
30
0
41
1
10
14.7101910806209
20
2.39533540013466
30
0
41
1
10
14.7284891606848
20
2.37002382061382
30
0
41
1
10
14.7666647843649
20
2.32108242545982
30
0
41
1
10
14.7866188616735
20
2.29735537377209
30
0
41
1
10
14.8280431298291
20
2.25199301108424
30
0
41
1
10
14.8495522035468
20
2.23030319841166
30
0
41
1
10
14.8942813283764
20
2.18935656373301
30
0
41
1
10
14.9173560962663
20
2.17022023299668
30
0
41
1
10
14.953313579924
20
2.14392256336495
30
0
41
1
10
14.9655465431317
20
2.13554876068153
30
0
41
1
10
14.9903722726926
20
2.11983487595853
30
0
41
1
10
15.0029765806862
20
2.11248337791525
30
0
41
1
10
15.0286428728807
20
2.09895039949134
30
0
41
1
10
15.0416805477242
20
2.09278423906326
30
0
41
1
10
15.0680605564997
20
2.08195190501087
30
0
41
1
10
15.0814681355579
20
2.07725877230834
30
0
41
1
10
15.1085474150522
20
2.06973129690385
30
0
41
1
10
15.1221102481508
20
2.0669214174381
30
0
41
1
10
15.1493065731478
20
2.06358912836157
30
0
41
1
10
15.1629398819194
20
2.06306035511935
30
0
41
1
10
15.1766242211565
20
2.06399896176555
30
0
0
SPLINE
5
10B
100
AcDbEntity
8
1
62
256
6
ByLayer
370
18
48
1
60
0
100
AcDbSpline
70
4
71
3
72
8
73
4
40
0
40
0
40
0
40
0
40
1
40
1
40
1
40
1
41
1
10
15.1766242211565
20
2.06399896176555
30
0
41
1
10
15.1832911329946
20
2.06445624418544
30
0
41
1
10
15.1899577977608
20
2.06491350965871
30
0
41
1
10
15.1966242211564
20
2.06537075857639
30
0
0
SPLINE
5
10C
100
AcDbEntity
8
1
62
256
6
ByLayer
370
18
48
1
60
0
100
AcDbSpline
70
4
71
3
72
8
73
4
40
0
40
0
40
0
40
0
40
1
40
1
40
1
40
1
41
1
10
14.5426985623222
20
3.19800322405024
30
0
41
1
10
14.5389693614458
20
3.19245855649609
30
0
41
1
10
14.5352400255466
20
3.18691368818668
30
0
41
1
10
14.5315105514352
20
3.18136861437998
30
0
0
SPLINE
5
10D
100
AcDbEntity
8
1
62
256
6
ByLayer
370
18
48
1
60
0
100
AcDbSpline
70
4
71
3
72
35
73
31
40
0
40
0
40
0
40
0
40
0.125000000000029
40
0.125000000000029
40
0.250000000000057
40
0.250000000000057
40
0.375000000000085
40
0.375000000000085
40
0.4375000000001
40
0.4375000000001
40
0.500000000000116
40
0.500000000000116
40
0.625000000000146
40
0.625000000000146
40
0.687500000000184
40
0.687500000000184
40
0.718750000000178
40
0.718750000000178
40
0.750000000000171
40
0.750000000000171
40
0.812500000000115
40
0.812500000000115
40
0.843750000000092
40
0.843750000000092
40
0.875000000000069
40
0.906250000000046
40
0.906250000000046
40
0.937500000000023
40
0.937500000000023
40
1
40
1
40
1
40
1
41
1
10
14.1613175788577
20
-1.01817350080174
30
0
41
1
10
14.1297772295706
20
-1.036383329953
30
0
41
1
10
14.0974579530947
20
-1.05339719413144
30
0
41
1
10
14.0316805576114
20
-1.08470719878108
30
0
41
1
10
13.9982209585031
20
-1.09901418158765
30
0
41
1
10
13.9300446033327
20
-1.1246517508861
30
0
41
1
10
13.8954321109219
20
-1.13594178652067
30
0
41
1
10
13.8429141140434
20
-1.15007016060491
30
0
41
1
10
13.8252934757036
20
-1.15431416728089
30
0
41
1
10
13.7897948255429
20
-1.1617471180725
30
0
41
1
10
13.7719165605874
20
-1.16493414241074
30
0
41
1
10
13.7182242862203
20
-1.17259345910179
30
0
41
1
10
13.6820984813028
20
-1.17524100316112
30
0
41
1
10
13.6285786183055
20
-1.17375865959062
30
0
41
1
10
13.6107537990743
20
-1.17233871915823
30
0
41
1
10
13.5845360569577
20
-1.16848786646994
30
0
41
1
10
13.5758813857683
20
-1.16691792158269
30
0
41
1
10
13.5587665670624
20
-1.16312859999101
30
0
41
1
10
13.5502781402103
20
-1.16089923775226
30
0
41
1
10
13.5254725850453
20
-1.15318929212842
30
0
41
1
10
13.5097502526873
20
-1.14669768027054
30
0
41
1
10
13.487729770635
20
-1.13441462487205
30
0
41
1
10
13.4806039452574
20
-1.12985370788164
30
0
41
1
10
13.4672721794875
20
-1.11998059887625
30
0
41
1
10
13.4548373620843
20
-1.1093647594073
30
0
41
1
10
13.4442739531632
20
-1.09720978217951
30
0
41
1
10
13.4347020606928
20
-1.08424363674226
30
0
41
1
10
13.4304662602203
20
-1.07741141534424
30
0
41
1
10
13.419618907375
20
-1.05639956185237
30
0
41
1
10
13.4147141868961
20
-1.04152420135816
30
0
41
1
10
13.4118932376919
20
-1.02587398262656
30
0
0
SPLINE
5
10E
100
AcDbEntity
8
1
62
256
6
ByLayer
370
18
48
1
60
0
100
AcDbSpline
70
4
71
3
72
52
73
48
40
0
40
0
40
0
40
0
40
0.0156250000000041
40
0.0156250000000041
40
0.0312500000000081
40
0.0312500000000081
40
0.0625000000000081
40
0.0625000000000081
40
0.0937500000000081
40
0.0937500000000081
40
0.125000000000008
40
0.125000000000008
40
0.187500000000008
40
0.187500000000008
40
0.218750000000019
40
0.218750000000019
40
0.250000000000031
40
0.250000000000031
40
0.312500000000028
40
0.312500000000028
40
0.375000000000025
40
0.375000000000025
40
0.437500000000022
40
0.437500000000022
40
0.500000000000019
40
0.500000000000019
40
0.562500000000016
40
0.562500000000016
40
0.625000000000013
40
0.625000000000013
40
0.68750000000001
40
0.68750000000001
40
0.750000000000008
40
0.750000000000008
40
0.812500000000005
40
0.812500000000005
40
0.843750000000004
40
0.843750000000004
40
0.875000000000003
40
0.875000000000003
40
0.906250000000002
40
0.906250000000002
40
0.937500000000002
40
0.937500000000002
40
0.968750000000001
40
0.968750000000001
40
1
40
1
40
1
40
1
41
1
10
13.4030812485786
20
-1.00786757614478
30
0
41
1
10
13.4000666048828
20
-1.00170745734684
30
0
41
1
10
13.3967224273547
20
-0.995712418736474
30
0
41
1
10
13.3894428189553
20
-0.984017335422664
30
0
41
1
10
13.3854977014907
20
-0.978307256011931
30
0
41
1
10
13.3730035929496
20
-0.961765439618233
30
0
41
1
10
13.3637670236647
20
-0.951451334232075
30
0
41
1
10
13.3438500909804
20
-0.931944206264973
30
0
41
1
10
13.3331664766585
20
-0.922753755271486
30
0
41
1
10
13.3105664638182
20
-0.90531303649442
30
0
41
1
10
13.2986854491708
20
-0.897097233914764
30
0
41
1
10
13.2619174276124
20
-0.87395819268562
30
0
41
1
10
13.2356858067708
20
-0.860381060040851
30
0
41
1
10
13.1949514512994
20
-0.842405253789707
30
0
41
1
10
13.1811202458899
20
-0.836804052453004
30
0
41
1
10
13.1529938817367
20
-0.826300930270065
30
0
41
1
10
13.1386844145567
20
-0.821395958163265
30
0
41
1
10
13.0953654986125
20
-0.807724549199349
30
0
41
1
10
13.0658899103002
20
-0.799960913232212
30
0
41
1
10
13.005862252587
20
-0.786767154474916
30
0
41
1
10
12.9753602650881
20
-0.781358541311675
30
0
41
1
10
12.9139731683313
20
-0.772782972778629
30
0
41
1
10
12.8829892403192
20
-0.769598508278392
30
0
41
1
10
12.8205840244526
20
-0.765352513021838
30
0
41
1
10
12.7893090309156
20
-0.764299881115562
30
0
41
1
10
12.7266155602646
20
-0.764300118904401
30
0
41
1
10
12.6953568209948
20
-0.765353003402566
30
0
41
1
10
12.6330162522313
20
-0.769592846459233
30
0
41
1
10
12.6019467413244
20
-0.77278365887463
30
0
41
1
10
12.5404744379843
20
-0.781374021209928
30
0
41
1
10
12.5099491698116
20
-0.786791233224363
30
0
41
1
10
12.4499520772703
20
-0.799984520436396
30
0
41
1
10
12.4204136116337
20
-0.807767018351512
30
0
41
1
10
12.3625882233878
20
-0.826030259403609
30
0
41
1
10
12.3344782908899
20
-0.836445429214592
30
0
41
1
10
12.2937250990997
20
-0.854436688702407
30
0
41
1
10
12.2803566916457
20
-0.860843844262206
30
0
41
1
10
12.254335203503
20
-0.874486614367839
30
0
41
1
10
12.2416664654448
20
-0.881726516265843
30
0
41
1
10
12.2171134162436
20
-0.897187688115224
30
0
41
1
10
12.2052545272474
20
-0.905395565521957
30
0
41
1
10
12.1826834463879
20
-0.922825156247455
30
0
41
1
10
12.1719152847151
20
-0.932089893963763
30
0
41
1
10
12.1518566600413
20
-0.951777500219805
30
0
41
1
10
12.1426418164931
20
-0.96211831849763
30
0
41
1
10
12.1261578070016
20
-0.98400488229629
30
0
41
1
10
12.1188832215552
20
-0.995547287408982
30
0
41
1
10
12.1128539091364
20
-1.00786757614543
30
0
0
SPLINE
5
10F
100
AcDbEntity
8
1
62
256
6
ByLayer
370
18
48
1
60
0
100
AcDbSpline
70
4
71
3
72
8
73
4
40
0
40
0
40
0
40
0
40
1
40
1
40
1
40
1
41
1
10
12.1128539091364
20
-1.00786757614543
30
0
41
1
10
12.1099164714097
20
-1.01386993237202
30
0
41
1
10
12.1069791425427
20
-1.0198720661547
30
0
41
1
10
12.1040419200234
20
-1.02587398262656
30
0
0
SPLINE
5
110
100
AcDbEntity
8
1
62
256
6
ByLayer
370
18
48
1
60
0
100
AcDbSpline
70
4
71
3
72
35
73
31
40
0
40
0
40
0
40
0
40
0.125000000000024
40
0.125000000000024
40
0.250000000000048
40
0.250000000000048
40
0.375000000000072
40
0.375000000000072
40
0.500000000000095
40
0.500000000000095
40
0.562500000000084
40
0.562500000000084
40
0.625000000000073
40
0.625000000000073
40
0.687500000000061
40
0.687500000000061
40
0.718750000000076
40
0.718750000000076
40
0.750000000000091
40
0.750000000000091
40
0.812500000000077
40
0.812500000000077
40
0.84375000000007
40
0.84375000000007
40
0.875000000000063
40
0.906250000000056
40
0.906250000000056
40
0.937500000000049
40
0.937500000000049
40
1
40
1
40
1
40
1
41
1
10
11.3546175788577
20
-1.01817350080174
30
0
41
1
10
11.3861572195396
20
-1.0363829208396
30
0
41
1
10
11.4184359693648
20
-1.05337697738639
30
0
41
1
10
11.4842603092809
20
-1.0847105048141
30
0
41
1
10
11.5177192137688
20
-1.09901520056471
30
0
41
1
10
11.5858345489366
20
-1.12463155624795
30
0
41
1
10
11.6205058413902
20
-1.13594645116714
30
0
41
1
10
11.6907300821502
20
-1.15483031592643
30
0
41
1
10
11.7263009851149
20
-1.16241564107491
30
0
41
1
10
11.7800070973006
20
-1.17006346588286
30
0
41
1
10
11.7979403951797
20
-1.1719837722851
30
0
41
1
10
11.8338745362031
20
-1.1743279871626
30
0
41
1
10
11.8518317473067
20
-1.17474469202381
30
0
41
1
10
11.8873235526729
20
-1.17375746632823
30
0
41
1
10
11.90490805606
20
-1.17236146704897
30
0
41
1
10
11.9309671239752
20
-1.1685597306965
30
0
41
1
10
11.9396001711861
20
-1.16700611890448
30
0
41
1
10
11.9567404052152
20
-1.16323502144428
30
0
41
1
10
11.9652554329908
20
-1.16101111797585
30
0
41
1
10
11.9901071080288
20
-1.15332476797755
30
0
41
1
10
12.0059083207758
20
-1.14683535358148
30
0
41
1
10
12.0281084713692
20
-1.13447685616262
30
0
41
1
10
12.0352367916471
20
-1.12991503959819
30
0
41
1
10
12.0485143729772
20
-1.12009908909573
30
0
41
1
10
12.0609207374792
20
-1.10953518489686
30
0
41
1
10
12.0714962564228
20
-1.09741000149694
30
0
41
1
10
12.0810936366568
20
-1.08445504520628
30
0
41
1
10
12.0853690887293
20
-1.07758536568346
30
0
41
1
10
12.0962859425599
20
-1.05649643111988
30
0
41
1
10
12.1012125973041
20
-1.04157065641081
30
0
41
1
10
12.1040419200234
20
-1.02587398262656
30
0
0
SPLINE
5
111
100
AcDbEntity
8
1
62
256
6
ByLayer
370
18
48
1
60
0
100
AcDbSpline
70
4
71
3
72
8
73
4
40
0
40
0
40
0
40
0
40
1
40
1
40
1
40
1
41
1
10
13.4118932376919
20
-1.02587398262656
30
0
41
1
10
13.4089560151727
20
-1.0198720661547
30
0
41
1
10
13.4060186863057
20
-1.01386993237202
30
0
41
1
10
13.403081248579
20
-1.00786757614543
30
0
0
SPLINE
5
112
100
AcDbEntity
8
1
62
256
6
ByLayer
370
18
48
1
60
0
100
AcDbSpline
70
4
71
3
72
52
73
48
40
0
40
0
40
0
40
0
40
0.0156250000000138
40
0.0156250000000138
40
0.0312500000000274
40
0.0312500000000274
40
0.0625000000000373
40
0.0625000000000373
40
0.0937500000000471
40
0.0937500000000471
40
0.125000000000057
40
0.125000000000057
40
0.187500000000071
40
0.187500000000071
40
0.218750000000069
40
0.218750000000069
40
0.250000000000067
40
0.250000000000067
40
0.312500000000062
40
0.312500000000062
40
0.375000000000057
40
0.375000000000057
40
0.437500000000052
40
0.437500000000052
40
0.500000000000047
40
0.500000000000047
40
0.562500000000043
40
0.562500000000043
40
0.625000000000038
40
0.625000000000038
40
0.687500000000033
40
0.687500000000033
40
0.750000000000028
40
0.750000000000028
40
0.812500000000023
40
0.812500000000023
40
0.843750000000019
40
0.843750000000019
40
0.875000000000015
40
0.875000000000015
40
0.906250000000012
40
0.906250000000012
40
0.937500000000008
40
0.937500000000008
40
0.968750000000004
40
0.968750000000004
40
1
40
1
40
1
40
1
41
1
10
15.1766242211557
20
0.761001038234582
30
0
41
1
10
15.1697820799385
20
0.761470339609616
30
0
41
1
10
15.1629181354411
20
0.761571716220629
30
0
41
1
10
15.1491500919924
20
0.761114932074122
30
0
41
1
10
15.1422324594327
20
0.760553399834208
30
0
41
1
10
15.1216597719405
20
0.758004092636838
30
0
41
1
10
15.1081092100163
20
0.755162041685338
30
0
41
1
10
15.0812570752998
20
0.74766703599883
30
0
41
1
10
15.0679561041062
20
0.743009980088573
30
0
41
1
10
15.0415519921649
20
0.73215815423157
30
0
41
1
10
15.0284963910948
20
0.72597679501402
30
0
41
1
10
14.9900733827919
20
0.705704274912137
30
0
41
1
10
14.9651994305902
20
0.689775591203272
30
0
41
1
10
14.9292647479875
20
0.663486507683814
30
0
41
1
10
14.9174983626334
20
0.654308933102556
30
0
41
1
10
14.8943392099274
20
0.635202348321258
30
0
41
1
10
14.882936645888
20
0.625262472282145
30
0
41
1
10
14.8494374004476
20
0.594582895092088
30
0
41
1
10
14.8279761003182
20
0.572938104805644
30
0
41
1
10
14.7865361412064
20
0.527549507674962
30
0
41
1
10
14.7666011510583
20
0.503838318216708
30
0
41
1
10
14.7284809424784
20
0.454963317227225
30
0
41
1
10
14.7102311513177
20
0.429722680709887
30
0
41
1
10
14.6753514036279
20
0.377801176069028
30
0
41
1
10
14.6588023008877
20
0.351242553115867
30
0
41
1
10
14.6274557714934
20
0.296948295986283
30
0
41
1
10
14.6127382265811
20
0.269350991439239
30
0
41
1
10
14.5852397539946
20
0.213242553675428
30
0
41
1
10
14.5724683231515
20
0.184740161739143
30
0
41
1
10
14.5491716434915
20
0.127208404249871
30
0
41
1
10
14.5386004526273
20
0.0980641405476774
30
0
41
1
10
14.5200276282418
20
0.0395084906478189
30
0
41
1
10
14.5119982363228
20
0.0100361800600979
30
0
41
1
10
14.4989019729064
20
-0.0491736956706461
30
0
41
1
10
14.4938668082986
20
-0.0787251962179596
30
0
41
1
10
14.489071100166
20
-0.123014125337505
30
0
41
1
10
14.4879356559198
20
-0.137795083580727
30
0
41
1
10
14.4867398973379
20
-0.167151738409331
30
0
41
1
10
14.4866754672734
20
-0.18174313835064
30
0
41
1
10
14.4877887102666
20
-0.210737288623932
30
0
41
1
10
14.4889674961138
20
-0.225111326458716
30
0
41
1
10
14.49277642403
20
-0.25337325123661
30
0
41
1
10
14.4954158414153
20
-0.267331121655474
30
0
41
1
10
14.5024364962358
20
-0.294546203315974
30
0
41
1
10
14.5067844857863
20
-0.307696901059558
30
0
41
1
10
14.5174968012917
20
-0.332915753934742
30
0
41
1
10
14.5238555246169
20
-0.344986932289686
30
0
41
1
10
14.5315105514352
20
-0.356368614379932
30
0
0
SPLINE
5
113
100
AcDbEntity
8
1
62
256
6
ByLayer
370
18
48
1
60
0
100
AcDbSpline
70
4
71
3
72
8
73
4
40
0
40
0
40
0
40
0
40
1
40
1
40
1
40
1
41
1
10
14.5315105514352
20
-0.356368614379932
30
0
41
1
10
14.5352400255466
20
-0.361913688186604
30
0
41
1
10
14.5389693614458
20
-0.367458556496018
30
0
41
1
10
14.5426985623222
20
-0.373003224050194
30
0
0
SPLINE
5
114
100
AcDbEntity
8
1
62
256
6
ByLayer
370
18
48
1
60
0
100
AcDbSpline
70
4
71
3
72
35
73
31
40
0
40
0
40
0
40
0
40
0.124999999999977
40
0.124999999999977
40
0.249999999999954
40
0.249999999999954
40
0.37499999999993
40
0.37499999999993
40
0.499999999999907
40
0.499999999999907
40
0.562499999999899
40
0.562499999999899
40
0.624999999999892
40
0.624999999999892
40
0.687499999999884
40
0.687499999999884
40
0.718749999999892
40
0.718749999999892
40
0.749999999999899
40
0.749999999999899
40
0.81249999999992
40
0.81249999999992
40
0.843749999999928
40
0.843749999999928
40
0.874999999999935
40
0.906249999999943
40
0.906249999999943
40
0.93749999999995
40
0.93749999999995
40
1
40
1
40
1
40
1
41
1
10
14.1613175788577
20
-1.01817350080174
30
0
41
1
10
14.1928572195397
20
-0.999964080763874
30
0
41
1
10
14.2237138791351
20
-0.980506891686247
30
0
41
1
10
14.2837616798357
20
-0.939168104845436
30
0
41
1
10
14.3128793619931
20
-0.917344191451406
30
0
41
1
10
14.3691214443511
20
-0.871162758650428
30
0
41
1
10
14.396256077019
20
-0.846793986063233
30
0
41
1
10
14.4477221040021
20
-0.79541994198317
30
0
41
1
10
14.4720766397591
20
-0.768407298954401
30
0
41
1
10
14.5055529064194
20
-0.725720353867018
30
0
41
1
10
14.5161825894863
20
-0.711149815531257
30
0
41
1
10
14.5361798096338
20
-0.681202043980591
30
0
41
1
10
14.5455192921813
20
-0.665858995414368
30
0
41
1
10
14.5624102323328
20
-0.634628577493231
30
0
41
1
10
14.5699935131868
20
-0.61870195120747
30
0
41
1
10
14.5797306468847
20
-0.594233268217721
30
0
41
1
10
14.5827017032106
20
-0.585980024125007
30
0
41
1
10
14.5880059540245
20
-0.56925059729889
30
0
41
1
10
14.5903375110131
20
-0.56076441519707
30
0
41
1
10
14.5961067741711
20
-0.535399058288448
30
0
41
1
10
14.5983873828219
20
-0.518470099440975
30
0
41
1
10
14.5987846854013
20
-0.493064956349741
30
0
41
1
10
14.5983981965081
20
-0.484610741620543
30
0
41
1
10
14.5965361246757
20
-0.468204043636575
30
0
41
1
10
14.5935909018113
20
-0.452177793865019
30
0
41
1
10
14.5883777401493
20
-0.436956604946516
30
0
41
1
10
14.5819571090136
20
-0.422167551708839
30
0
41
1
10
14.5781455180673
20
-0.415030061839985
30
0
41
1
10
14.5653403919118
20
-0.395031321811473
30
0
41
1
10
14.5548776192146
20
-0.383301826292751
30
0
41
1
10
14.5426985623222
20
-0.373003224050194
30
0
0
SPLINE
5
115
100
AcDbEntity
8
1
62
256
6
ByLayer
370
18
48
1
60
0
100
AcDbSpline
70
4
71
3
72
35
73
31
40
0
40
0
40
0
40
0
40
0.12499999999998
40
0.12499999999998
40
0.24999999999996
40
0.24999999999996
40
0.37499999999994
40
0.37499999999994
40
0.437499999999931
40
0.437499999999931
40
0.499999999999922
40
0.499999999999922
40
0.624999999999891
40
0.624999999999891
40
0.687499999999876
40
0.687499999999876
40
0.718749999999874
40
0.718749999999874
40
0.749999999999871
40
0.749999999999871
40
0.812499999999863
40
0.812499999999863
40
0.843749999999884
40
0.843749999999884
40
0.874999999999905
40
0.906249999999926
40
0.906249999999926
40
0.937499999999946
40
0.937499999999946
40
1
40
1
40
1
40
1
41
1
10
15.5646675788577
20
1.41250000000002
30
0
41
1
10
15.5646675788577
20
1.37608034169747
30
0
41
1
10
15.5632423792148
20
1.33958409514824
30
0
41
1
10
15.5574689408924
20
1.26696419734014
30
0
41
1
10
15.5531293519002
20
1.2308338431086
30
0
41
1
10
15.5412439606187
20
1.1589726029444
30
0
41
1
10
15.5337151720825
20
1.12335228741105
30
0
41
1
10
15.5196917045144
20
1.07080618091629
30
0
41
1
10
15.5145568029397
20
1.05342425714508
30
0
41
1
10
15.50324460207
20
1.01896504891013
30
0
41
1
10
15.4970655136316
20
1.0018885051139
30
0
41
1
10
15.4768525392781
20
0.951559973179542
30
0
41
1
10
15.4610824772324
20
0.918950336359103
30
0
41
1
10
15.4330387985446
20
0.873341947181672
30
0
41
1
10
15.4228966844427
20
0.85861517112582
30
0
41
1
10
15.4064528771301
20
0.837835366767109
30
0
41
1
10
15.4007659293805
20
0.831125174099355
30
0
41
1
10
15.388926871266
20
0.818197967114685
30
0
41
1
10
15.382751973507
20
0.811961454941951
30
0
41
1
10
15.3636721871524
20
0.794334186826006
30
0
41
1
10
15.350189120193
20
0.783964053526176
30
0
41
1
10
15.3285414411556
20
0.77103528436453
30
0
41
1
10
15.3210286584886
20
0.767144597059854
30
0
41
1
10
15.3058124123907
20
0.760535503728505
30
0
41
1
10
15.2904014170265
20
0.755074555700332
30
0
41
1
10
15.2745931935042
20
0.752003863838041
30
0
41
1
10
15.2585782359312
20
0.750197434515059
30
0
41
1
10
15.2505434584
20
0.74994523439949
30
0
41
1
10
15.2269229830728
20
0.751057078017567
30
0
41
1
10
15.2115881827549
20
0.754247145731455
30
0
41
1
10
15.1966242211564
20
0.759629241423653
30
0
0
SPLINE
5
116
100
AcDbEntity
8
1
62
256
6
ByLayer
370
18
48
1
60
0
100
AcDbSpline
70
4
71
3
72
8
73
4
40
0
40
0
40
0
40
0
40
1
40
1
40
1
40
1
41
1
10
15.1966242211564
20
0.759629241423653
30
0
41
1
10
15.1899577977608
20
0.760086490341365
30
0
41
1
10
15.1832911329946
20
0.760543755814609
30
0
41
1
10
15.1766242211565
20
0.761001038234525
30
0
0
SPLINE
5
117
100
AcDbEntity
8
1
62
256
6
ByLayer
370
18
48
1
60
0
100
AcDbSpline
70
4
71
3
72
52
73
48
40
0
40
0
40
0
40
0
40
0.0156249999999882
40
0.0156249999999882
40
0.0312499999999764
40
0.0312499999999764
40
0.0624999999999788
40
0.0624999999999788
40
0.0937499999999812
40
0.0937499999999812
40
0.124999999999984
40
0.124999999999984
40
0.187499999999985
40
0.187499999999985
40
0.218749999999997
40
0.218749999999997
40
0.250000000000008
40
0.250000000000008
40
0.312500000000007
40
0.312500000000007
40
0.375000000000007
40
0.375000000000007
40
0.437500000000006
40
0.437500000000006
40
0.500000000000005
40
0.500000000000005
40
0.562500000000005
40
0.562500000000005
40
0.625000000000004
40
0.625000000000004
40
0.687500000000003
40
0.687500000000003
40
0.750000000000003
40
0.750000000000003
40
0.812500000000002
40
0.812500000000002
40
0.843750000000002
40
0.843750000000002
40
0.875000000000001
40
0.875000000000001
40
0.906250000000001
40
0.906250000000001
40
0.937500000000001
40
0.937500000000001
40
0.96875
40
0.96875
40
1
40
1
40
1
40
1
41
1
10
12.1128539091367
20
3.83286757614482
30
0
41
1
10
12.1158685528326
20
3.82670745734689
30
0
41
1
10
12.1192127303607
20
3.82071241873655
30
0
41
1
10
12.1264923387601
20
3.80901733542271
30
0
41
1
10
12.1304374562247
20
3.80330725601201
30
0
41
1
10
12.1429315647657
20
3.78676543961831
30
0
41
1
10
12.1521681340507
20
3.77645133423212
30
0
41
1
10
12.172085066735
20
3.75694420626505
30
0
41
1
10
12.1827686810569
20
3.74775375527156
30
0
41
1
10
12.2053686938972
20
3.73031303649447
30
0
41
1
10
12.2172497085446
20
3.72209723391481
30
0
41
1
10
12.254017730103
20
3.69895819268569
30
0
41
1
10
12.2802493509445
20
3.68538106004093
30
0
41
1
10
12.3209837064159
20
3.66740525378975
30
0
41
1
10
12.3348149118255
20
3.66180405245305
30
0
41
1
10
12.3629412759786
20
3.65130093027014
30
0
41
1
10
12.3772507431586
20
3.64639595816334
30
0
41
1
10
12.4205696591028
20
3.63272454919942
30
0
41
1
10
12.4500452474152
20
3.62496091323229
30
0
41
1
10
12.5100729051284
20
3.61176715447499
30
0
41
1
10
12.5405748926273
20
3.60635854131175
30
0
41
1
10
12.6019619893841
20
3.59778297277867
30
0
41
1
10
12.6329459173961
20
3.59459850827844
30
0
41
1
10
12.6953511332627
20
3.59035251302191
30
0
41
1
10
12.7266261267998
20
3.58929988111564
30
0
41
1
10
12.7893195974508
20
3.58930011890447
30
0
41
1
10
12.8205783367206
20
3.59035300340264
30
0
41
1
10
12.882918905484
20
3.59459284645928
30
0
41
1
10
12.913988416391
20
3.5977836588747
30
0
41
1
10
12.975460719731
20
3.60637402120997
30
0
41
1
10
13.0059859879038
20
3.61179123322444
30
0
41
1
10
13.065983080445
20
3.62498452043647
30
0
41
1
10
13.0955215460816
20
3.63276701835159
30
0
41
1
10
13.1533469343276
20
3.65103025940366
30
0
41
1
10
13.1814568668254
20
3.66144542921464
30
0
41
1
10
13.2222100586157
20
3.67943668870248
30
0
41
1
10
13.2355784660697
20
3.68584384426228
30
0
41
1
10
13.2615999542124
20
3.69948661436791
30
0
41
1
10
13.2742686922706
20
3.70672651626592
30
0
41
1
10
13.2988217414718
20
3.7221876881153
30
0
41
1
10
13.310680630468
20
3.730395565522
30
0
41
1
10
13.3332517113274
20
3.7478251562475
30
0
41
1
10
13.3440198730002
20
3.75708989396384
30
0
41
1
10
13.3640784976741
20
3.77677750021988
30
0
41
1
10
13.3732933412223
20
3.78711831849768
30
0
41
1
10
13.3897773507138
20
3.80900488229633
30
0
41
1
10
13.3970519361601
20
3.82054728740906
30
0
41
1
10
13.403081248579
20
3.8328675761455
30
0
0
SPLINE
5
118
100
AcDbEntity
8
1
62
256
6
ByLayer
370
18
48
1
60
0
100
AcDbSpline
70
4
71
3
72
8
73
4
40
0
40
0
40
0
40
0
40
1
40
1
40
1
40
1
41
1
10
13.403081248579
20
3.8328675761455
30
0
41
1
10
13.4060186863057
20
3.83886993237209
30
0
41
1
10
13.4089560151727
20
3.84487206615478
30
0
41
1
10
13.4118932376919
20
3.85087398262661
30
0
0
SPLINE
5
119
100
AcDbEntity
8
1
62
256
6
ByLayer
370
18
48
1
60
0
100
AcDbSpline
70
4
71
3
72
35
73
31
40
0
40
0
40
0
40
0
40
0.124999999999944
40
0.124999999999944
40
0.249999999999888
40
0.249999999999888
40
0.374999999999832
40
0.374999999999832
40
0.499999999999776
40
0.499999999999776
40
0.562499999999747
40
0.562499999999747
40
0.624999999999718
40
0.624999999999718
40
0.687499999999689
40
0.687499999999689
40
0.7187499999997
40
0.7187499999997
40
0.749999999999712
40
0.749999999999712
40
0.812499999999778
40
0.812499999999778
40
0.843749999999814
40
0.843749999999814
40
0.87499999999985
40
0.906249999999885
40
0.906249999999885
40
0.937499999999921
40
0.937499999999921
40
1
40
1
40
1
40
1
41
1
10
14.1613175788577
20
3.84317350080184
30
0
41
1
10
14.1297779381757
20
3.8613829208397
30
0
41
1
10
14.0974991883505
20
3.87837697738647
30
0
41
1
10
14.0316748484345
20
3.9097105048142
30
0
41
1
10
13.9982159439465
20
3.92401520056481
30
0
41
1
10
13.9301006087788
20
3.94963155624802
30
0
41
1
10
13.8954293163252
20
3.96094645116725
30
0
41
1
10
13.8252050755652
20
3.97983031592651
30
0
41
1
10
13.7896341726004
20
3.98741564107499
30
0
41
1
10
13.7359280604146
20
3.99506346588294
30
0
41
1
10
13.7179947625356
20
3.99698377228518
30
0
41
1
10
13.6820606215122
20
3.99932798716267
30
0
41
1
10
13.6641034104087
20
3.99974469202388
30
0
41
1
10
13.6286116050424
20
3.99875746632827
30
0
41
1
10
13.6110271016553
20
3.99736146704905
30
0
41
1
10
13.5849680337401
20
3.99355973069655
30
0
41
1
10
13.5763349865292
20
3.99200611890453
30
0
41
1
10
13.5591947525001
20
3.98823502144433
30
0
41
1
10
13.5506797247246
20
3.98601111797589
30
0
41
1
10
13.5258280496866
20
3.97832476797762
30
0
41
1
10
13.5100268369397
20
3.97183535358155
30
0
41
1
10
13.4878266863461
20
3.9594768561627
30
0
41
1
10
13.4806983660682
20
3.95491503959823
30
0
41
1
10
13.467420784738
20
3.94509908909578
30
0
41
1
10
13.4550144202362
20
3.9345351848969
30
0
41
1
10
13.4444389012925
20
3.92241000149698
30
0
41
1
10
13.4348415210586
20
3.90945504520633
30
0
41
1
10
13.430566068986
20
3.90258536568351
30
0
41
1
10
13.4196492151555
20
3.88149643111996
30
0
41
1
10
13.4147225604113
20
3.86657065641089
30
0
41
1
10
13.4118932376919
20
3.85087398262661
30
0
0
SPLINE
5
11A
100
AcDbEntity
8
1
62
256
6
ByLayer
370
18
48
1
60
0
100
AcDbSpline
70
4
71
3
72
35
73
31
40
0
40
0
40
0
40
0
40
0.124999999999983
40
0.124999999999983
40
0.249999999999965
40
0.249999999999965
40
0.374999999999948
40
0.374999999999948
40
0.437499999999938
40
0.437499999999938
40
0.499999999999928
40
0.499999999999928
40
0.624999999999955
40
0.624999999999955
40
0.687499999999946
40
0.687499999999946
40
0.718749999999962
40
0.718749999999962
40
0.749999999999977
40
0.749999999999977
40
0.812499999999969
40
0.812499999999969
40
0.84374999999997
40
0.84374999999997
40
0.87499999999997
40
0.90624999999997
40
0.90624999999997
40
0.937499999999971
40
0.937499999999971
40
1
40
1
40
1
40
1
41
1
10
11.3546175788577
20
3.84317350080181
30
0
41
1
10
11.3861579281449
20
3.8613833299531
30
0
41
1
10
11.4184772046207
20
3.87839719413148
30
0
41
1
10
11.484254600104
20
3.90970719878115
30
0
41
1
10
11.5177141992123
20
3.92401418158772
30
0
41
1
10
11.5858905543826
20
3.94965175088615
30
0
41
1
10
11.6205030467935
20
3.96094178652075
30
0
41
1
10
11.673021043672
20
3.97507016060499
30
0
41
1
10
11.6906416820119
20
3.97931416728096
30
0
41
1
10
11.7261403321724
20
3.98674711807254
30
0
41
1
10
11.744018597128
20
3.98993414241079
30
0
41
1
10
11.7977108714951
20
3.99759345910186
30
0
41
1
10
11.8338366764126
20
4.00024100316119
30
0
41
1
10
11.8873565394099
20
3.99875865959066
30
0
41
1
10
11.905181358641
20
3.99733871915828
30
0
41
1
10
11.9313991007577
20
3.99348786647002
30
0
41
1
10
11.940053771947
20
3.99191792158277
30
0
41
1
10
11.957168590653
20
3.98812859999106
30
0
41
1
10
11.965657017505
20
3.98589923775231
30
0
41
1
10
11.9904625726701
20
3.97818929212849
30
0
41
1
10
12.0061849050281
20
3.97169768027058
30
0
41
1
10
12.0282053870804
20
3.95941462487212
30
0
41
1
10
12.035331212458
20
3.95485370788171
30
0
41
1
10
12.0486629782279
20
3.9449805988763
30
0
41
1
10
12.0610977956311
20
3.93436475940737
30
0
41
1
10
12.0716612045522
20
3.92220978217958
30
0
41
1
10
12.0812330970225
20
3.90924363674233
30
0
41
1
10
12.085468897495
20
3.90241141534429
30
0
41
1
10
12.0963162503403
20
3.88139956185245
30
0
41
1
10
12.1012209708193
20
3.86652420135823
30
0
41
1
10
12.1040419200234
20
3.85087398262661
30
0
0
SPLINE
5
11B
100
AcDbEntity
8
1
62
256
6
ByLayer
370
18
48
1
60
0
100
AcDbSpline
70
4
71
3
72
8
73
4
40
0
40
0
40
0
40
0
40
1
40
1
40
1
40
1
41
1
10
12.1040419200234
20
3.85087398262661
30
0
41
1
10
12.1069791425427
20
3.84487206615478
30
0
41
1
10
12.1099164714097
20
3.83886993237209
30
0
41
1
10
12.1128539091364
20
3.8328675761455
30
0
0
SPLINE
5
11C
100
AcDbEntity
8
1
62
256
6
ByLayer
370
18
48
1
60
0
100
AcDbSpline
70
4
71
3
72
8
73
4
40
0
40
0
40
0
40
0
40
1
40
1
40
1
40
1
41
1
10
10.9844246062802
20
3.18136861437998
30
0
41
1
10
10.9806951321688
20
3.18691368818668
30
0
41
1
10
10.9769657962695
20
3.19245855649609
30
0
41
1
10
10.9732365953931
20
3.19800322405024
30
0
0
SPLINE
5
11D
100
AcDbEntity
8
1
62
256
6
ByLayer
370
18
48
1
60
0
100
AcDbSpline
70
4
71
3
72
35
73
31
40
0
40
0
40
0
40
0
40
0.124999999999987
40
0.124999999999987
40
0.249999999999974
40
0.249999999999974
40
0.374999999999962
40
0.374999999999962
40
0.499999999999949
40
0.499999999999949
40
0.562499999999942
40
0.562499999999942
40
0.624999999999936
40
0.624999999999936
40
0.68749999999993
40
0.68749999999993
40
0.718749999999938
40
0.718749999999938
40
0.749999999999946
40
0.749999999999946
40
0.812499999999952
40
0.812499999999952
40
0.84374999999996
40
0.84374999999996
40
0.874999999999969
40
0.906249999999977
40
0.906249999999977
40
0.937499999999985
40
0.937499999999985
40
1
40
1
40
1
40
1
41
1
10
11.3546175788577
20
3.84317350080181
30
0
41
1
10
11.3230779381757
20
3.82496408076395
30
0
41
1
10
11.2922212785802
20
3.80550689168629
30
0
41
1
10
11.2321734778796
20
3.76416810484548
30
0
41
1
10
11.2030557957222
20
3.74234419145148
30
0
41
1
10
11.1468137133643
20
3.6961627586505
30
0
41
1
10
11.1196790806964
20
3.67179398606331
30
0
41
1
10
11.0682130537132
20
3.62041994198327
30
0
41
1
10
11.0438585179563
20
3.5934072989545
30
0
41
1
10
11.010382251296
20
3.55072035386709
30
0
41
1
10
10.9997525682291
20
3.53614981553133
30
0
41
1
10
10.9797553480815
20
3.50620204398066
30
0
41
1
10
10.9704158655341
20
3.49085899541447
30
0
41
1
10
10.9535249253826
20
3.45962857749331
30
0
41
1
10
10.9459416445285
20
3.44370195120751
30
0
41
1
10
10.9362045108307
20
3.41923326821779
30
0
41
1
10
10.9332334545047
20
3.41098002412508
30
0
41
1
10
10.9279292036909
20
3.39425059729896
30
0
41
1
10
10.9255976467023
20
3.38576441519714
30
0
41
1
10
10.9198283835442
20
3.36039905828852
30
0
41
1
10
10.9175477748934
20
3.34347009944105
30
0
41
1
10
10.917150472314
20
3.31806495634979
30
0
41
1
10
10.9175369612073
20
3.30961074162062
30
0
41
1
10
10.9193990330396
20
3.29320404363662
30
0
41
1
10
10.922344460188
20
3.27717786470996
30
0
41
1
10
10.9275574175661
20
3.26195660494656
30
0
41
1
10
10.9339780487017
20
3.24716755170888
30
0
41
1
10
10.9377896396481
20
3.24003006184003
30
0
41
1
10
10.9505947658036
20
3.22003132181152
30
0
41
1
10
10.9610575385007
20
3.20830182629282
30
0
41
1
10
10.9732365953931
20
3.19800322405024
30
0
0
SPLINE
5
11E
100
AcDbEntity
8
1
62
256
6
ByLayer
370
18
48
1
60
0
100
AcDbSpline
70
4
71
3
72
39
73
35
40
0
40
0
40
0
40
0
40
0.124999999999978
40
0.124999999999978
40
0.249999999999956
40
0.249999999999956
40
0.374999999999934
40
0.374999999999934
40
0.437499999999918
40
0.437499999999918
40
0.499999999999902
40
0.499999999999902
40
0.562499999999886
40
0.562499999999886
40
0.62499999999987
40
0.62499999999987
40
0.687499999999854
40
0.687499999999854
40
0.718749999999861
40
0.718749999999861
40
0.749999999999868
40
0.749999999999868
40
0.81249999999987
40
0.81249999999987
40
0.843749999999892
40
0.843749999999892
40
0.874999999999914
40
0.874999999999914
40
0.906249999999935
40
0.906249999999935
40
0.937499999999957
40
0.968749999999978
40
0.968749999999978
40
1
40
1
40
1
40
1
41
1
10
9.95126757885768
20
1.41250000000002
30
0
41
1
10
9.95126757885771
20
1.44892487228594
30
0
41
1
10
9.95269143389757
20
1.48538509469861
30
0
41
1
10
9.95846109795636
20
1.55798529795456
30
0
41
1
10
9.96281115483615
20
1.59419641599425
30
0
41
1
10
9.97468212369483
20
1.66597461901546
30
0
41
1
10
9.98221214838864
20
1.70161874246378
30
0
41
1
10
9.99624848681083
20
1.75421248199578
30
0
41
1
10
10.0013836854569
20
1.77159147396202
30
0
41
1
10
10.012680293879
20
1.80600419869802
30
0
41
1
10
10.0188510187316
20
1.82306075244574
30
0
41
1
10
10.0323114855813
20
1.85658485042924
30
0
41
1
10
10.0396029554311
20
1.87306693333036
30
0
41
1
10
10.055520775735
20
1.90535781174887
30
0
41
1
10
10.0641093892997
20
1.92108402379441
30
0
41
1
10
10.0826687223087
20
1.95130763675579
30
0
41
1
10
10.0926510104767
20
1.96583823488839
30
0
41
1
10
10.1089517349516
20
1.98652081568639
30
0
41
1
10
10.1146078797633
20
1.99322827372228
30
0
41
1
10
10.1264359213046
20
2.00620759716261
30
0
41
1
10
10.1326026628056
20
2.01246783306763
30
0
41
1
10
10.1516418126009
20
2.03015610276955
30
0
41
1
10
10.1651411149191
20
2.04061835172169
30
0
41
1
10
10.1869349752724
20
2.05371744606754
30
0
41
1
10
10.1944268987453
20
2.0576186868575
30
0
41
1
10
10.2095826763994
20
2.06425647600486
30
0
41
1
10
10.217287944512
20
2.06701927561142
30
0
41
1
10
10.2329662055803
20
2.07135809607846
30
0
41
1
10
10.241004459205
20
2.07293951792639
30
0
41
1
10
10.2570178734334
20
2.07478210350675
30
0
41
1
10
10.2729113054233
20
2.07532304564125
30
0
41
1
10
10.2885714406616
20
2.07338363920579
30
0
41
1
10
10.3041173891927
20
2.07024189284377
30
0
41
1
10
10.3118091263682
20
2.06806893846985
30
0
41
1
10
10.3193109365589
20
2.06537075857639
30
0
0
SPLINE
5
11F
100
AcDbEntity
8
1
62
256
6
ByLayer
370
18
48
1
60
0
100
AcDbSpline
70
4
71
3
72
8
73
4
40
0
40
0
40
0
40
0
40
1
40
1
40
1
40
1
41
1
10
10.3393109365589
20
2.06399896176555
30
0
41
1
10
10.3326440247207
20
2.06445624418544
30
0
41
1
10
10.3259773599545
20
2.06491350965871
30
0
41
1
10
10.3193109365589
20
2.06537075857639
30
0
0
SPLINE
5
120
100
AcDbEntity
8
1
62
256
6
ByLayer
370
18
48
1
60
0
100
AcDbSpline
70
4
71
3
72
50
73
46
40
0
40
0
40
0
40
0
40
0.0312499999999838
40
0.0312499999999838
40
0.046874999999982
40
0.046874999999982
40
0.0624999999999801
40
0.0624999999999801
40
0.124999999999976
40
0.124999999999976
40
0.156249999999975
40
0.156249999999975
40
0.187499999999975
40
0.187499999999975
40
0.249999999999972
40
0.249999999999972
40
0.281249999999972
40
0.281249999999972
40
0.312499999999972
40
0.312499999999972
40
0.374999999999973
40
0.374999999999973
40
0.499999999999968
40
0.499999999999968
40
0.562499999999973
40
0.562499999999973
40
0.624999999999978
40
0.624999999999978
40
0.687499999999982
40
0.687499999999982
40
0.749999999999987
40
0.749999999999987
40
0.812499999999992
40
0.812499999999992
40
0.843749999999993
40
0.843749999999993
40
0.874999999999994
40
0.874999999999994
40
0.906249999999996
40
0.906249999999996
40
0.937499999999997
40
0.937499999999997
40
0.968749999999999
40
0.968749999999999
40
1
40
1
40
1
40
1
41
1
10
10.9844246062802
20
3.18136861437998
30
0
41
1
10
10.9921227509315
20
3.16992282363543
30
0
41
1
10
10.9985261886693
20
3.15775405452209
30
0
41
1
10
11.0066138770056
20
3.13864568520569
30
0
41
1
10
11.0090542187986
20
3.13213218716103
30
0
41
1
10
11.0134704196557
20
3.11884154822124
30
0
41
1
10
11.0154503578249
20
3.1120449371565
30
0
41
1
10
11.0241950899266
20
3.07780640596655
30
0
41
1
10
11.0276646064672
20
3.04947052693052
30
0
41
1
10
11.0292673353731
20
3.00592734754881
30
0
41
1
10
11.0291792981549
20
2.99118949864152
30
0
41
1
10
11.0279329323937
20
2.96177099963651
30
0
41
1
10
11.0267788556846
20
2.94705451242504
30
0
41
1
10
11.0219367556457
20
2.90287223400853
30
0
41
1
10
11.0168819282327
20
2.87337341384168
30
0
41
1
10
11.0070329087388
20
2.82902167291471
30
0
41
1
10
11.0033590575833
20
2.81418796128926
30
0
41
1
10
10.9953323332964
20
2.78463480876607
30
0
41
1
10
10.9909940172227
20
2.76996210736016
30
0
41
1
10
10.9770841565477
20
2.72622586506469
30
0
41
1
10
10.9666231923879
20
2.69744221932206
30
0
41
1
10
10.9320494534015
20
2.61207002010391
30
0
41
1
10
10.9048008526592
20
2.55644031339114
30
0
41
1
10
10.8577857233309
20
2.47483070867071
30
0
41
1
10
10.8412337213783
20
2.44821612064925
30
0
41
1
10
10.8063740796255
20
2.3962268648614
30
0
41
1
10
10.7880619945995
20
2.37085308614451
30
0
41
1
10
10.7498543880364
20
2.32179280602
30
0
41
1
10
10.7298814914412
20
2.29800756761344
30
0
41
1
10
10.688412077502
20
2.25253009279831
30
0
41
1
10
10.6668807246331
20
2.23078734689341
30
0
41
1
10
10.6220936168185
20
2.18973127900975
30
0
41
1
10
10.5989882641337
20
2.17054371366601
30
0
41
1
10
10.5629822644285
20
2.14417453180971
30
0
41
1
10
10.5507321909666
20
2.13577740056758
30
0
41
1
10
10.5258698256436
20
2.12001828074636
30
0
41
1
10
10.5132467977203
20
2.11264537857167
30
0
41
1
10
10.4875421036864
20
2.09907229692766
30
0
41
1
10
10.4744831751114
20
2.09288670539593
30
0
41
1
10
10.4480608095868
20
2.08201988985761
30
0
41
1
10
10.4346324458856
20
2.07731156771953
30
0
41
1
10
10.4075061827005
20
2.06975748061365
30
0
41
1
10
10.393919815633
20
2.066937105167
30
0
41
1
10
10.3666762240668
20
2.06359092752379
30
0
41
1
10
10.3530191840607
20
2.06305871525527
30
0
41
1
10
10.3393109365589
20
2.06399896176555
30
0
0
LINE
5
7F
100
AcDbEntity
8
81
62
256
6
ByLayer
370
18
48
1
60
0
100
AcDbLine
10
43.107968
20
13.5625
30
0
11
48.107968
21
13.5625
31
0
39
0
210
0
220
0
230
1
0
LINE
5
80
100
AcDbEntity
8
80
62
256
6
ByLayer
370
18
48
1
60
0
100
AcDbLine
10
0
20
0
30
0
11
-5
21
0
31
0
39
0
210
0
220
0
230
1
0
LINE
5
81
100
AcDbEntity
8
1
62
256
6
ByLayer
370
18
48
1
60
0
100
AcDbLine
10
0
20
13.01149
30
0
11
0
21
-12.439338
31
0
39
0
210
0
220
0
230
1
0
LINE
5
82
100
AcDbEntity
8
1
62
256
6
ByLayer
370
13
48
1
60
0
100
AcDbLine
10
20.357968
20
8.840592
30
0
11
20.357968
21
9.647356
31
0
39
0
210
0
220
0
230
1
0
LINE
5
83
100
AcDbEntity
8
1
62
256
6
ByLayer
370
13
48
1
60
0
100
AcDbLine
10
20.157968
20
8.1625
30
0
11
20.157968
21
9.575015
31
0
39
0
210
0
220
0
230
1
0
LINE
5
84
100
AcDbEntity
8
1
62
256
6
ByLayer
370
18
48
1
60
0
100
AcDbLine
10
38.824364
20
9.8875
30
0
11
35.913402
21
9.8875
31
0
39
0
210
0
220
0
230
1
0
LINE
5
85
100
AcDbEntity
8
1
62
256
6
ByLayer
370
18
48
1
60
0
100
AcDbLine
10
35.913402
20
9.8875
30
0
11
34.625912
21
9.8875
31
0
39
0
210
0
220
0
230
1
0
LINE
5
86
100
AcDbEntity
8
1
62
256
6
ByLayer
370
18
48
1
60
0
100
AcDbLine
10
35.913402
20
9.8875
30
0
11
35.913268
21
9.962516
31
0
39
0
210
0
220
0
230
1
0
LINE
5
87
100
AcDbEntity
8
1
62
256
6
ByLayer
370
18
48
1
60
0
100
AcDbLine
10
38.824364
20
13.2375
30
0
11
35.913402
21
13.2375
31
0
39
0
210
0
220
0
230
1
0
LINE
5
88
100
AcDbEntity
8
1
62
256
6
ByLayer
370
18
48
1
60
0
100
AcDbLine
10
35.913402
20
13.2375
30
0
11
34.625912
21
13.2375
31
0
39
0
210
0
220
0
230
1
0
LINE
5
89
100
AcDbEntity
8
1
62
256
6
ByLayer
370
18
48
1
60
0
100
AcDbLine
10
35.913268
20
13.162484
30
0
11
35.913402
21
13.2375
31
0
39
0
210
0
220
0
230
1
0
LINE
5
8A
100
AcDbEntity
8
1
62
256
6
ByLayer
370
18
48
1
60
0
100
AcDbLine
10
19.572855
20
8.1625
30
0
11
19.52251
21
8.1625
31
0
39
0
210
0
220
0
230
1
0
LINE
5
8B
100
AcDbEntity
8
1
62
256
6
ByLayer
370
18
48
1
60
0
100
AcDbLine
10
19.572855
20
-5.608945
30
0
11
19.522496
21
-5.638679
31
0
39
0
210
0
220
0
230
1
0
LINE
5
8C
100
AcDbEntity
8
1
62
256
6
ByLayer
370
18
48
1
60
0
100
AcDbLine
10
32.256229
20
1.880028
30
0
11
19.572855
21
-5.608945
31
0
39
0
210
0
220
0
230
1
0
LINE
5
8D
100
AcDbEntity
8
1
62
256
6
ByLayer
370
18
48
1
60
0
100
AcDbLine
10
32.256229
20
1.880028
30
0
11
32.256229
21
8.2875
31
0
39
0
210
0
220
0
230
1
0
LINE
5
8E
100
AcDbEntity
8
1
62
256
6
ByLayer
370
13
48
1
60
0
100
AcDbLine
10
32.256229
20
8.2875
30
0
11
20.256595
21
8.2875
31
0
39
0
210
0
220
0
230
1
0
LINE
5
8F
100
AcDbEntity
8
1
62
256
6
ByLayer
370
18
48
1
60
0
100
AcDbLine
10
20.256595
20
8.1625
30
0
11
20.256595
21
8.2875
31
0
39
0
210
0
220
0
230
1
0
LINE
5
90
100
AcDbEntity
8
1
62
256
6
ByLayer
370
18
48
1
60
0
100
AcDbLine
10
20.256595
20
8.1625
30
0
11
19.572855
21
8.1625
31
0
39
0
210
0
220
0
230
1
0
LINE
5
91
100
AcDbEntity
8
1
62
256
6
ByLayer
370
18
48
1
60
0
100
AcDbLine
10
19.572855
20
8.1625
30
0
11
19.572855
21
-5.608945
31
0
39
0
210
0
220
0
230
1
0
LINE
5
92
100
AcDbEntity
8
1
62
256
6
ByLayer
370
18
48
1
60
0
100
AcDbLine
10
19.522514
20
-5.638669
30
0
11
19.507968
21
-5.647258
31
0
39
0
210
0
220
0
230
1
0
LINE
5
93
100
AcDbEntity
8
1
62
256
6
ByLayer
370
18
48
1
60
0
100
AcDbLine
10
19.522514
20
8.1625
30
0
11
19.507968
21
8.1625
31
0
39
0
210
0
220
0
230
1
0
LINE
5
94
100
AcDbEntity
8
1
62
256
6
ByLayer
370
18
48
1
60
0
100
AcDbLine
10
19.522514
20
-5.638669
30
0
11
19.522514
21
8.1625
31
0
39
0
210
0
220
0
230
1
0
LINE
5
95
100
AcDbEntity
8
1
62
256
6
ByLayer
370
18
48
1
60
0
100
AcDbLine
10
0.157917
20
13.2375
30
0
11
0.481918
21
13.2375
31
0
39
0
210
0
220
0
230
1
0
LINE
5
96
100
AcDbEntity
8
1
62
256
6
ByLayer
370
18
48
1
60
0
100
AcDbLine
10
34.625887
20
9.8875
30
0
11
31.607968
21
9.8875
31
0
39
0
210
0
220
0
230
1
0
LINE
5
97
100
AcDbEntity
8
1
62
256
6
ByLayer
370
18
48
1
60
0
100
AcDbLine
10
31.607968
20
13.2375
30
0
11
34.625887
21
13.2375
31
0
39
0
210
0
220
0
230
1
0
LINE
5
98
100
AcDbEntity
8
1
62
256
6
ByLayer
370
18
48
1
60
0
100
AcDbLine
10
35.107968
20
11.837469
30
0
11
35.107968
21
11.287531
31
0
39
0
210
0
220
0
230
1
0
LINE
5
99
100
AcDbEntity
8
1
62
256
6
ByLayer
370
18
48
1
60
0
100
AcDbLine
10
0.481918
20
-12.443711
30
0
11
2.572312
21
-12.477752
31
0
39
0
210
0
220
0
230
1
0
LINE
5
9A
100
AcDbEntity
8
1
62
256
6
ByLayer
370
18
48
1
60
0
100
AcDbLine
10
0.481918
20
13.2375
30
0
11
2.572312
21
13.2375
31
0
39
0
210
0
220
0
230
1
0
LINE
5
9B
100
AcDbEntity
8
1
62
256
6
ByLayer
370
13
48
1
60
0
100
AcDbLine
10
0.481918
20
-12.443711
30
0
11
0.481918
21
13.2375
31
0
39
0
210
0
220
0
230
1
0
LINE
5
9C
100
AcDbEntity
8
1
62
256
6
ByLayer
370
18
48
1
60
0
100
AcDbLine
10
19.507968
20
-5.647258
30
0
11
7.939797
21
-12.477752
31
0
39
0
210
0
220
0
230
1
0
LINE
5
9D
100
AcDbEntity
8
1
62
256
6
ByLayer
370
18
48
1
60
0
100
AcDbLine
10
21.107968
20
9.8875
30
0
11
24.324413
21
9.8875
31
0
39
0
210
0
220
0
230
1
0
LINE
5
9E
100
AcDbEntity
8
1
62
256
6
ByLayer
370
18
48
1
60
0
100
AcDbLine
10
2.572312
20
-12.477752
30
0
11
7.939797
21
-12.477752
31
0
39
0
210
0
220
0
230
1
0
LINE
5
9F
100
AcDbEntity
8
1
62
256
6
ByLayer
370
18
48
1
60
0
100
AcDbLine
10
19.507968
20
8.2875
30
0
11
19.507968
21
-5.647258
31
0
39
0
210
0
220
0
230
1
0
LINE
5
A0
100
AcDbEntity
8
1
62
256
6
ByLayer
370
18
48
1
60
0
100
AcDbLine
10
2.572312
20
13.2375
30
0
11
24.324413
21
13.2375
31
0
39
0
210
0
220
0
230
1
0
LINE
5
A1
100
AcDbEntity
8
1
62
256
6
ByLayer
370
18
48
1
60
0
100
AcDbLine
10
2.572312
20
13.2375
30
0
11
2.572312
21
-12.477752
31
0
39
0
210
0
220
0
230
1
0
LINE
5
A2
100
AcDbEntity
8
1
62
256
6
ByLayer
370
18
48
1
60
0
100
AcDbLine
10
31.607968
20
9.8875
30
0
11
24.324413
21
9.8875
31
0
39
0
210
0
220
0
230
1
0
LINE
5
A3
100
AcDbEntity
8
1
62
256
6
ByLayer
370
18
48
1
60
0
100
AcDbLine
10
31.607968
20
13.2375
30
0
11
31.607968
21
9.8875
31
0
39
0
210
0
220
0
230
1
0
LINE
5
A4
100
AcDbEntity
8
1
62
256
6
ByLayer
370
18
48
1
60
0
100
AcDbLine
10
24.324413
20
13.2375
30
0
11
31.607968
21
13.2375
31
0
39
0
210
0
220
0
230
1
0
LINE
5
A5
100
AcDbEntity
8
1
62
256
6
ByLayer
370
18
48
1
60
0
100
AcDbLine
10
24.324413
20
9.8875
30
0
11
24.324413
21
13.2375
31
0
39
0
210
0
220
0
230
1
0
LINE
5
A6
100
AcDbEntity
8
1
62
256
6
ByLayer
370
18
48
1
60
0
100
AcDbLine
10
22.107968
20
9.72376
30
0
11
22.391571
21
9.887498
31
0
39
0
210
0
220
0
230
1
0
LINE
5
A7
100
AcDbEntity
8
1
62
256
6
ByLayer
370
18
48
1
60
0
100
AcDbLine
10
20.257886
20
9.642983
30
0
11
22.107968
21
9.72376
31
0
39
0
210
0
220
0
230
1
0
LINE
5
A8
100
AcDbEntity
8
1
62
256
6
ByLayer
370
18
48
1
60
0
100
AcDbLine
10
22.107968
20
13.40124
30
0
11
22.391571
21
13.237502
31
0
39
0
210
0
220
0
230
1
0
LINE
5
A9
100
AcDbEntity
8
1
62
256
6
ByLayer
370
18
48
1
60
0
100
AcDbLine
10
18.107968
20
13.237478
30
0
11
18.107968
21
13.2625
31
0
39
0
210
0
220
0
230
1
0
LINE
5
AA
100
AcDbEntity
8
1
62
256
6
ByLayer
370
18
48
1
60
0
100
AcDbLine
10
18.421053
20
13.562214
30
0
11
22.107968
21
13.40124
31
0
39
0
210
0
220
0
230
1
0
LINE
5
AB
100
AcDbEntity
8
1
62
256
6
ByLayer
370
18
48
1
60
0
100
AcDbLine
10
36.737968
20
9.9625
30
0
11
38.694457
21
9.9625
31
0
39
0
210
0
220
0
230
1
0
LINE
5
AC
100
AcDbEntity
8
1
62
256
6
ByLayer
370
18
48
1
60
0
100
AcDbLine
10
36.737968
20
13.1625
30
0
11
38.694457
21
13.1625
31
0
39
0
210
0
220
0
230
1
0
LINE
5
AD
100
AcDbEntity
8
1
62
256
6
ByLayer
370
18
48
1
60
0
100
AcDbLine
10
43.107968
20
9.8625
30
0
11
43.107968
21
13.2625
31
0
39
0
210
0
220
0
230
1
0
LINE
5
AE
100
AcDbEntity
8
1
62
256
6
ByLayer
370
18
48
1
60
0
100
AcDbLine
10
39.107968
20
9.72376
30
0
11
38.694457
21
9.9625
31
0
39
0
210
0
220
0
230
1
0
LINE
5
AF
100
AcDbEntity
8
1
62
256
6
ByLayer
370
18
48
1
60
0
100
AcDbLine
10
42.794882
20
9.562786
30
0
11
39.107968
21
9.72376
31
0
39
0
210
0
220
0
230
1
0
LINE
5
B0
100
AcDbEntity
8
1
62
256
6
ByLayer
370
18
48
1
60
0
100
AcDbLine
10
42.794882
20
13.562214
30
0
11
39.107968
21
13.40124
31
0
39
0
210
0
220
0
230
1
0
LINE
5
B1
100
AcDbEntity
8
1
62
256
6
ByLayer
370
18
48
1
60
0
100
AcDbLine
10
39.107968
20
13.40124
30
0
11
38.694457
21
13.1625
31
0
39
0
210
0
220
0
230
1
0
LINE
5
B2
100
AcDbEntity
8
1
62
256
6
ByLayer
370
13
48
1
60
0
100
AcDbLine
10
35.107967
20
11.5425
30
0
11
36.045829
21
11.5425
31
0
39
0
210
0
220
0
230
1
0
LINE
5
B3
100
AcDbEntity
8
1
62
256
6
ByLayer
370
13
48
1
60
0
100
AcDbLine
10
35.107967
20
11.5825
30
0
11
36.045829
21
11.5825
31
0
39
0
210
0
220
0
230
1
0
LINE
5
B4
100
AcDbEntity
8
1
62
256
6
ByLayer
370
13
48
1
60
0
100
AcDbLine
10
35.107885
20
11.773236
30
0
11
36.036914
21
11.773236
31
0
39
0
210
0
220
0
230
1
0
LINE
5
B5
100
AcDbEntity
8
1
62
256
6
ByLayer
370
13
48
1
60
0
100
AcDbLine
10
35.107885
20
11.351764
30
0
11
36.036914
21
11.351764
31
0
39
0
210
0
220
0
230
1
0
LINE
5
B6
100
AcDbEntity
8
1
62
256
6
ByLayer
370
13
48
1
60
0
100
AcDbLine
10
34.999449
20
11.134767
30
0
11
35.856913
21
11.134767
31
0
39
0
210
0
220
0
230
1
0
LINE
5
B7
100
AcDbEntity
8
1
62
256
6
ByLayer
370
13
48
1
60
0
100
AcDbLine
10
34.999449
20
11.990233
30
0
11
35.856913
21
11.990233
31
0
39
0
210
0
220
0
230
1
0
LINE
5
B8
100
AcDbEntity
8
1
62
256
6
ByLayer
370
13
48
1
60
0
100
AcDbLine
10
35.698086
20
11.079415
30
0
11
34.869828
21
11.079415
31
0
39
0
210
0
220
0
230
1
0
LINE
5
B9
100
AcDbEntity
8
1
62
256
6
ByLayer
370
13
48
1
60
0
100
AcDbLine
10
35.698086
20
12.045585
30
0
11
34.869828
21
12.045585
31
0
39
0
210
0
220
0
230
1
0
LINE
5
BA
100
AcDbEntity
8
1
62
256
6
ByLayer
370
13
48
1
60
0
100
AcDbLine
10
34.827791
20
12.076388
30
0
11
35.65749
21
12.076388
31
0
39
0
210
0
220
0
230
1
0
LINE
5
BB
100
AcDbEntity
8
1
62
256
6
ByLayer
370
13
48
1
60
0
100
AcDbLine
10
34.827948
20
11.048612
30
0
11
35.65749
21
11.048612
31
0
39
0
210
0
220
0
230
1
0
LINE
5
BC
100
AcDbEntity
8
1
62
256
6
ByLayer
370
13
48
1
60
0
100
AcDbLine
10
34.813028
20
10.956835
30
0
11
35.585659
21
10.956835
31
0
39
0
210
0
220
0
230
1
0
LINE
5
BD
100
AcDbEntity
8
1
62
256
6
ByLayer
370
13
48
1
60
0
100
AcDbLine
10
34.811783
20
12.168165
30
0
11
35.585659
21
12.168165
31
0
39
0
210
0
220
0
230
1
0
LINE
5
BE
100
AcDbEntity
8
1
62
256
6
ByLayer
370
13
48
1
60
0
100
AcDbLine
10
34.804105
20
12.212434
30
0
11
35.565926
21
12.212434
31
0
39
0
210
0
220
0
230
1
0
LINE
5
BF
100
AcDbEntity
8
1
62
256
6
ByLayer
370
13
48
1
60
0
100
AcDbLine
10
34.805809
20
10.912566
30
0
11
35.565926
21
10.912566
31
0
39
0
210
0
220
0
230
1
0
LINE
5
C0
100
AcDbEntity
8
1
62
256
6
ByLayer
370
18
48
1
60
0
100
AcDbLine
10
36.737968
20
9.9625
30
0
11
35.442486
21
9.9625
31
0
39
0
210
0
220
0
230
1
0
LINE
5
C1
100
AcDbEntity
8
1
62
256
6
ByLayer
370
18
48
1
60
0
100
AcDbLine
10
36.737968
20
13.1625
30
0
11
35.442486
21
13.1625
31
0
39
0
210
0
220
0
230
1
0
LINE
5
C2
100
AcDbEntity
8
1
62
256
6
ByLayer
370
18
48
1
60
0
100
AcDbLine
10
35.444005
20
12.903884
30
0
11
35.565926
21
12.212434
31
0
39
0
210
0
220
0
230
1
0
LINE
5
C3
100
AcDbEntity
8
1
62
256
6
ByLayer
370
18
48
1
60
0
100
AcDbLine
10
35.585659
20
12.168165
30
0
11
35.65749
21
12.076388
31
0
39
0
210
0
220
0
230
1
0
LINE
5
C4
100
AcDbEntity
8
1
62
256
6
ByLayer
370
18
48
1
60
0
100
AcDbLine
10
36.045829
20
11.5425
30
0
11
36.045829
21
11.5825
31
0
39
0
210
0
220
0
230
1
0
LINE
5
C5
100
AcDbEntity
8
1
62
256
6
ByLayer
370
18
48
1
60
0
100
AcDbLine
10
35.585659
20
10.956835
30
0
11
35.65749
21
11.048612
31
0
39
0
210
0
220
0
230
1
0
LINE
5
C6
100
AcDbEntity
8
1
62
256
6
ByLayer
370
18
48
1
60
0
100
AcDbLine
10
35.444005
20
10.221116
30
0
11
35.565926
21
10.912566
31
0
39
0
210
0
220
0
230
1
0
LINE
5
C7
100
AcDbEntity
8
1
62
256
6
ByLayer
370
18
48
1
60
0
100
AcDbLine
10
36.737968
20
9.9625
30
0
11
36.737968
21
13.1625
31
0
39
0
210
0
220
0
230
1
0
LINE
5
C8
100
AcDbEntity
8
1
62
256
6
ByLayer
370
18
48
1
60
0
100
AcDbLine
10
34.638898
20
13.1625
30
0
11
35.442486
21
13.1625
31
0
39
0
210
0
220
0
230
1
0
LINE
5
C9
100
AcDbEntity
8
1
62
256
6
ByLayer
370
18
48
1
60
0
100
AcDbLine
10
35.442486
20
13.1625
30
0
11
35.442486
21
12.921249
31
0
39
0
210
0
220
0
230
1
0
LINE
5
CA
100
AcDbEntity
8
1
62
256
6
ByLayer
370
13
48
1
60
0
100
AcDbLine
10
34.687014
20
10.221116
30
0
11
35.444005
21
10.221116
31
0
39
0
210
0
220
0
230
1
0
LINE
5
CB
100
AcDbEntity
8
1
62
256
6
ByLayer
370
18
48
1
60
0
100
AcDbLine
10
34.639805
20
9.9625
30
0
11
35.442486
21
9.9625
31
0
39
0
210
0
220
0
230
1
0
LINE
5
CC
100
AcDbEntity
8
1
62
256
6
ByLayer
370
13
48
1
60
0
100
AcDbLine
10
34.683769
20
10.203751
30
0
11
35.442486
21
10.203751
31
0
39
0
210
0
220
0
230
1
0
LINE
5
CD
100
AcDbEntity
8
1
62
256
6
ByLayer
370
18
48
1
60
0
100
AcDbLine
10
35.442486
20
9.9625
30
0
11
35.442486
21
10.203751
31
0
39
0
210
0
220
0
230
1
0
LINE
5
CE
100
AcDbEntity
8
1
62
256
6
ByLayer
370
13
48
1
60
0
100
AcDbLine
10
34.680747
20
12.921249
30
0
11
35.442486
21
12.921249
31
0
39
0
210
0
220
0
230
1
0
LINE
5
CF
100
AcDbEntity
8
1
62
256
6
ByLayer
370
13
48
1
60
0
100
AcDbLine
10
34.68384
20
12.903884
30
0
11
35.444005
21
12.903884
31
0
39
0
210
0
220
0
230
1
0
LINE
5
D0
100
AcDbEntity
8
SK1
62
256
6
ByLayer
370
18
48
1
60
0
100
AcDbLine
10
-106.892032
20
-12.4375
30
0
11
-4.455467
21
-12.4375
31
0
39
0
210
0
220
0
230
1
0
LINE
5
D2
100
AcDbEntity
8
SK1
62
256
6
ByLayer
370
18
48
1
60
0
100
AcDbLine
10
-106.892032
20
-12.4375
30
0
11
-106.892032
21
12.4375
31
0
39
0
210
0
220
0
230
1
0
LINE
5
D3
100
AcDbEntity
8
SK1
62
256
6
ByLayer
370
18
48
1
60
0
100
AcDbLine
10
-106.892032
20
12.4375
30
0
11
-4.455467
21
12.4375
31
0
39
0
210
0
220
0
230
1
0
LINE
5
D4
100
AcDbEntity
8
SK1
62
256
6
ByLayer
370
18
48
1
60
0
100
AcDbLine
10
0
20
13.01149
30
0
11
0
21
-12.439338
31
0
39
0
210
0
220
0
230
1
0
LINE
5
D5
100
AcDbEntity
8
SK1
62
256
6
ByLayer
370
18
48
1
60
0
100
AcDbLine
10
-4.455467
20
12.4375
30
0
11
-1.227723
21
12.4375
31
0
39
0
210
0
220
0
230
1
0
LINE
5
D6
100
AcDbEntity
8
SK1
62
256
6
ByLayer
370
18
48
1
60
0
100
AcDbLine
10
-4.455467
20
12.4375
30
0
11
-4.455467
21
-12.4375
31
0
39
0
210
0
220
0
230
1
0
MTEXT
5
121
100
AcDbEntity
8
SK6
62
256
6
ByLayer
370
18
48
1
60
0
100
AcDbMText
10
-64.206532
20
-53.674992
30
0
210
0
220
0
230
1
1
\W0.7711;C2R-RS25-RH22DD
40
3.5
41
0
44
1.084337
50
0
71
7
72
5
7
iso_b_vert
0
DIMENSION
5
126
100
AcDbEntity
8
2
62
256
6
ByLayer
370
18
48
1
60
0
100
AcDbDimension
2
_U0
10
70.857968
20
-12.4375
30
0
11
70.857968
21
0.5625
31
0
70
32
71
1
72
1
41
1
210
0
220
0
230
1
3
Standard
100
AcDbAlignedDimension
13
43.107968
23
13.5625
33
0
14
-106.892032
24
-12.4375
34
0
50
90
100
AcDbRotatedDimension
1001
ACAD
1000
DSTYLE
1002
{
1070
   371
1070
    13
1070
   372
1070
    13
1070
   170
1070
     0
1070
   144
1040
1.0
1070
   277
1070
     2
1070
   284
1070
     8
1070
   278
1070
    46
1070
   146
1040
1.0
1070
   345
1005
16
1070
   347
1005
16
1070
   346
1005
16
1070
   344
1005
0
1070
   343
1005
0
1070
   172
1070
     1
1070
    76
1070
     0
1070
    75
1070
     0
1070
   282
1070
     0
1070
   281
1070
     0
1070
    71
1070
     0
1070
    74
1070
     0
1070
   279
1070
     0
1070
   173
1070
     1
1070
   340
1005
122
1070
   271
1070
     2
1070
   272
1070
     2
1070
    77
1070
     1
1070
    73
1070
     0
1070
   171
1070
     3
1070
   274
1070
     4
1070
   177
1070
     2
1070
   176
1070
     2
1070
   178
1070
     2
1070
    78
1070
     8
1070
    48
1040
-0.1
1070
    41
1040
3.5
1070
   147
1040
1.75
1070
    42
1040
1.5875
1070
    44
1040
2.0
1070
   140
1040
3.5
1002
}
1001
ACAD_DSTYLE_DIM_LINETYPE
1070
   380
1005
16
1001
ACAD_DSTYLE_DIM_EXT1_LINETYPE
1070
   381
1005
16
1001
ACAD_DSTYLE_DIM_EXT2_LINETYPE
1070
   382
1005
16
0
DIMENSION
5
140
100
AcDbEntity
8
2
62
256
6
ByLayer
370
18
48
1
60
0
100
AcDbDimension
2
_U1
10
63.207968
20
13.5625
30
0
11
63.207968
21
11.5625
31
0
70
32
71
1
72
1
41
1
210
0
220
0
230
1
3
Standard
100
AcDbAlignedDimension
13
43.107968
23
9.5625
33
0
14
43.107968
24
13.5625
34
0
50
90
100
AcDbRotatedDimension
1001
ACAD
1000
DSTYLE
1002
{
1070
   371
1070
    13
1070
   372
1070
    13
1070
   170
1070
     0
1070
   144
1040
1.0
1070
   277
1070
     2
1070
   284
1070
     8
1070
   278
1070
    46
1070
   146
1040
1.0
1070
   345
1005
16
1070
   347
1005
16
1070
   346
1005
16
1070
   344
1005
0
1070
   343
1005
0
1070
   172
1070
     1
1070
    76
1070
     0
1070
    75
1070
     0
1070
   282
1070
     0
1070
   281
1070
     0
1070
    71
1070
     0
1070
    74
1070
     0
1070
   279
1070
     0
1070
   173
1070
     1
1070
   340
1005
122
1070
   271
1070
     2
1070
   272
1070
     2
1070
    77
1070
     1
1070
    73
1070
     0
1070
   171
1070
     3
1070
   274
1070
     4
1070
   177
1070
     2
1070
   176
1070
     2
1070
   178
1070
     2
1070
    78
1070
     8
1070
    48
1040
-0.1
1070
    41
1040
3.5
1070
   147
1040
1.75
1070
    42
1040
1.5875
1070
    44
1040
2.0
1070
   140
1040
3.5
1002
}
1001
ACAD_DSTYLE_DIM_LINETYPE
1070
   380
1005
16
1001
ACAD_DSTYLE_DIM_EXT1_LINETYPE
1070
   381
1005
16
1001
ACAD_DSTYLE_DIM_EXT2_LINETYPE
1070
   382
1005
16
0
DIMENSION
5
159
100
AcDbEntity
8
SK2
62
256
6
ByLayer
370
18
48
1
60
0
100
AcDbDimension
2
_U2
10
-118.492032
20
12.5625
30
0
11
-118.492032
21
0.0625
31
0
70
32
71
1
72
1
41
1
210
0
220
0
230
1
3
Standard
100
AcDbAlignedDimension
13
-106.892032
23
-12.4375
33
0
14
-106.892032
24
12.5625
34
0
50
90
100
AcDbRotatedDimension
1001
ACAD
1000
DSTYLE
1002
{
1070
   371
1070
    13
1070
   372
1070
    13
1070
   170
1070
     0
1070
   144
1040
1.0
1070
   277
1070
     2
1070
   284
1070
     8
1070
   278
1070
    46
1070
   146
1040
1.0
1070
   345
1005
16
1070
   347
1005
16
1070
   346
1005
16
1070
   344
1005
0
1070
   343
1005
0
1070
   172
1070
     1
1070
    76
1070
     0
1070
    75
1070
     0
1070
   282
1070
     0
1070
   281
1070
     0
1070
    71
1070
     0
1070
    74
1070
     0
1070
   279
1070
     0
1070
   173
1070
     1
1070
   340
1005
122
1070
   271
1070
     2
1070
   272
1070
     2
1070
    77
1070
     1
1070
    73
1070
     0
1070
   171
1070
     3
1070
   274
1070
     4
1070
   177
1070
     2
1070
   176
1070
     2
1070
   178
1070
     2
1070
    78
1070
     8
1070
    48
1040
-0.1
1070
    41
1040
3.5
1070
   147
1040
1.75
1070
    42
1040
1.5875
1070
    44
1040
2.0
1070
   140
1040
3.5
1002
}
1001
ACAD_DSTYLE_DIM_LINETYPE
1070
   380
1005
16
1001
ACAD_DSTYLE_DIM_EXT1_LINETYPE
1070
   381
1005
16
1001
ACAD_DSTYLE_DIM_EXT2_LINETYPE
1070
   382
1005
16
0
DIMENSION
5
172
100
AcDbEntity
8
2
62
256
6
ByLayer
370
18
48
1
60
0
100
AcDbDimension
2
_U3
10
43.107968
20
-24.1875
30
0
11
32.107968
21
-24.1875
31
0
70
32
71
1
72
1
41
1
210
0
220
0
230
1
3
Standard
100
AcDbAlignedDimension
13
21.107968
23
9.8875
33
0
14
43.107968
24
13.5625
34
0
50
0
100
AcDbRotatedDimension
1001
ACAD
1000
DSTYLE
1002
{
1070
   371
1070
    13
1070
   372
1070
    13
1070
   170
1070
     0
1070
   144
1040
1.0
1070
   277
1070
     2
1070
   284
1070
     8
1070
   278
1070
    46
1070
   146
1040
1.0
1070
   345
1005
16
1070
   347
1005
16
1070
   346
1005
16
1070
   344
1005
0
1070
   343
1005
0
1070
   172
1070
     1
1070
    76
1070
     0
1070
    75
1070
     0
1070
   282
1070
     0
1070
   281
1070
     0
1070
    71
1070
     0
1070
    74
1070
     0
1070
   279
1070
     0
1070
   173
1070
     1
1070
   340
1005
122
1070
   271
1070
     1
1070
   272
1070
     2
1070
    77
1070
     1
1070
    73
1070
     1
1070
   171
1070
     3
1070
   274
1070
     4
1070
   177
1070
     2
1070
   176
1070
     2
1070
   178
1070
     2
1070
    78
1070
     8
1070
    48
1040
-0.1
1070
    41
1040
3.5
1070
   147
1040
1.75
1070
    42
1040
1.5875
1070
    44
1040
2.0
1070
   140
1040
3.5
1002
}
1001
ACAD_DSTYLE_DIM_LINETYPE
1070
   380
1005
16
1001
ACAD_DSTYLE_DIM_EXT1_LINETYPE
1070
   381
1005
16
1001
ACAD_DSTYLE_DIM_EXT2_LINETYPE
1070
   382
1005
16
0
DIMENSION
5
18A
100
AcDbEntity
8
SK2
62
256
6
ByLayer
370
18
48
1
60
0
100
AcDbDimension
2
_U4
10
43.107968
20
-30.1875
30
0
11
-31.892032
21
-30.1875
31
0
70
32
71
1
72
1
41
1
210
0
220
0
230
1
3
Standard
100
AcDbAlignedDimension
13
-106.892032
23
-12.4375
33
0
14
43.107968
24
13.5625
34
0
50
0
100
AcDbRotatedDimension
1001
ACAD
1000
DSTYLE
1002
{
1070
   371
1070
    13
1070
   372
1070
    13
1070
   170
1070
     0
1070
   144
1040
1.0
1070
   277
1070
     2
1070
   284
1070
     8
1070
   278
1070
    46
1070
   146
1040
1.0
1070
   345
1005
16
1070
   347
1005
16
1070
   346
1005
16
1070
   344
1005
0
1070
   343
1005
0
1070
   172
1070
     1
1070
    76
1070
     0
1070
    75
1070
     0
1070
   282
1070
     0
1070
   281
1070
     0
1070
    71
1070
     0
1070
    74
1070
     0
1070
   279
1070
     0
1070
   173
1070
     1
1070
   340
1005
122
1070
   271
1070
     1
1070
   272
1070
     2
1070
    77
1070
     1
1070
    73
1070
     1
1070
   171
1070
     3
1070
   274
1070
     4
1070
   177
1070
     2
1070
   176
1070
     2
1070
   178
1070
     2
1070
    78
1070
     8
1070
    48
1040
-0.1
1070
    41
1040
3.5
1070
   147
1040
1.75
1070
    42
1040
1.5875
1070
    44
1040
2.0
1070
   140
1040
3.5
1002
}
1001
ACAD_DSTYLE_DIM_LINETYPE
1070
   380
1005
16
1001
ACAD_DSTYLE_DIM_EXT1_LINETYPE
1070
   381
1005
16
1001
ACAD_DSTYLE_DIM_EXT2_LINETYPE
1070
   382
1005
16
0
ENDSEC
0
SECTION
2
OBJECTS
0
DICTIONARY
5
211
330
0
100
AcDbDictionary
280
0
281
1
3
ACAD_GROUP
350
212
3
ACAD_MLINESTYLE
350
213
0
DICTIONARY
5
212
330
0
100
AcDbDictionary
280
0
281
1
0
DICTIONARY
5
213
330
0
100
AcDbDictionary
280
0
281
1
3
Standard
350
18
0
MLINESTYLE
5
18
330
213
100
AcDbMlineStyle
2
Standard
70
0
3

62
256
51
90
52
90
71
2
49
-0.5
62
256
6
ByLayer
49
0.5
62
256
6
ByLayer
0
RASTERVARIABLES
5
200
330

100
AcDbRasterVariables
90
0
70
1
71
1
72
1
0
ENDSEC
0
EOF
