0
SECTION
2
HEADER
9
$ACADVER
1
AC1015
9
$DWGCODEPAGE
3
ANSI_1252
9
$HANDSEED
5
211
9
$ANGBASE
50
0
9
$ANGDIR
70
0
9
$ATTMODE
70
1
9
$AUNITS
70
0
9
$AUPREC
70
0
9
$CECOLOR
62
256
9
$CELTSCALE
40
1
9
$CELTYPE
6
ByLayer
9
$CELWEIGHT
370
18
9
$CLAYER
8
0
9
$CMLJUST
70
0
9
$CMLSCALE
40
1
9
$CMLSTYLE
2
Standard
9
$DIMSTYLE
2
Standard
9
$TEXTSIZE
40
0.2
9
$TEXTSTYLE
7
Standard
9
$LUNITS
70
2
9
$LUPREC
70
4
9
$EXTNAMES
290
1
9
$INSUNITS
70
4
9
$LTSCALE
40
1
9
$LWDISPLAY
290
1
9
$PDMODE
70
0
9
$PDSIZE
40
0
9
$PLINEGEN
70
0
0
ENDSEC
0
SECTION
2
CLASSES
0
CLASS
1
RASTERVARIABLES
2
AcDbRasterVariables
3
ISM
90
0
280
0
281
0
0
ENDSEC
0
SECTION
2
TABLES
0
TABLE
2
VPORT
5
207
100
AcDbSymbolTable
0
VPORT
5
1
100
AcDbSymbolTableRecord
100
AcDbViewportTableRecord
2
*Active
70
0
10
0
20
0
11
1
21
1
12
-1
22
1
13
0
23
0
14
0.5
24
0.5
15
10
25
10
16
0
26
0
36
1
17
0
27
0
37
0
0
ENDTAB
0
TABLE
2
LTYPE
5
208
100
AcDbSymbolTable
0
LTYPE
5
14
100
AcDbSymbolTableRecord
100
AcDbLinetypeTableRecord
70
0
2
ByBlock
3

72
65
73
0
40
0
0
LTYPE
5
15
100
AcDbSymbolTableRecord
100
AcDbLinetypeTableRecord
70
0
2
ByLayer
3

72
65
73
0
40
0
0
LTYPE
5
16
100
AcDbSymbolTableRecord
100
AcDbLinetypeTableRecord
70
0
2
Continuous
3
Solid line
72
65
73
0
40
0
0
LTYPE
5
6E
100
AcDbSymbolTableRecord
100
AcDbLinetypeTableRecord
70
0
2
CENTER
3
____ _ ____ _ ____ _ ____
72
65
73
4
40
47.5
49
22
74
0
49
-8.5
74
0
49
8.5
74
0
49
-8.5
74
0
0
LTYPE
5
6F
100
AcDbSymbolTableRecord
100
AcDbLinetypeTableRecord
70
0
2
DASHED
3
__ __ __ __ __ __ __ __ __
72
65
73
2
40
25.72
49
12.86
74
0
49
-12.86
74
0
0
ENDTAB
0
TABLE
2
LAYER
5
209
100
AcDbSymbolTable
0
LAYER
5
10
100
AcDbSymbolTableRecord
100
AcDbLayerTableRecord
2
0
70
0
62
7
6
Continuous
290
1
370
-3
390
0
0
LAYER
5
71
100
AcDbSymbolTableRecord
100
AcDbLayerTableRecord
2
81
70
0
62
-3
6
Continuous
290
1
370
-3
390
0
0
LAYER
5
73
100
AcDbSymbolTableRecord
100
AcDbLayerTableRecord
2
80
70
0
62
-6
6
Continuous
290
1
370
-3
390
0
0
LAYER
5
75
100
AcDbSymbolTableRecord
100
AcDbLayerTableRecord
2
1
70
0
62
4
6
Continuous
290
1
370
-3
390
0
0
LAYER
5
11B
100
AcDbSymbolTableRecord
100
AcDbLayerTableRecord
2
Defpoints
70
0
62
7
6
Continuous
290
0
370
-3
390
0
0
LAYER
5
128
100
AcDbSymbolTableRecord
100
AcDbLayerTableRecord
2
2
70
0
62
7
6
Continuous
290
1
370
-3
390
0
0
LAYER
5
1f4
100
AcDbSymbolTableRecord
100
AcDbLayerTableRecord
2
SK1
70
0
62
4
6
Continuous
290
1
370
-3
390
0
0
LAYER
5
1f5
100
AcDbSymbolTableRecord
100
AcDbLayerTableRecord
2
SK6
70
0
62
5
6
Continuous
290
1
370
-3
390
0
0
LAYER
5
1f6
100
AcDbSymbolTableRecord
100
AcDbLayerTableRecord
2
SK2
70
0
62
7
6
Continuous
290
1
370
-3
390
0
0
ENDTAB
0
TABLE
2
STYLE
5
20a
100
AcDbSymbolTable
0
STYLE
5
11
100
AcDbSymbolTableRecord
100
AcDbTextStyleTableRecord
2
Standard
3
txt
70
0
71
0
40
0
41
1
42
0
50
0
0
STYLE
5
114
100
AcDbSymbolTableRecord
100
AcDbTextStyleTableRecord
2
iso_b_vert
3
simplex.shx
70
0
71
0
40
0
41
1
42
0
50
0
0
STYLE
5
115
100
AcDbSymbolTableRecord
100
AcDbTextStyleTableRecord
2
DWGDirectTextStyle
3
simplex
70
0
71
0
40
0
41
1
42
0
50
0
0
ENDTAB
0
TABLE
2
DIMSTYLE
5
20b
100
AcDbSymbolTable
100
AcDbDimStyleTable
0
DIMSTYLE
105
27
100
AcDbSymbolTableRecord
100
AcDbDimStyleTableRecord
2
Standard
70
0
3
<>
41
0.18
42
0.0625
44
0.18
140
0.18
147
0.09
73
0
74
0
77
1
271
2
275
0
278
52
280
0
340
11
0
ENDTAB
0
TABLE
2
VIEW
5
20c
100
AcDbSymbolTable
0
ENDTAB
0
TABLE
2
UCS
5
20d
100
AcDbSymbolTable
0
ENDTAB
0
TABLE
2
APPID
5
20e
100
AcDbSymbolTable
0
APPID
5
12
100
AcDbSymbolTableRecord
100
AcDbRegAppTableRecord
2
ACAD
70
0
0
APPID
5
117
100
AcDbSymbolTableRecord
100
AcDbRegAppTableRecord
2
ACAD_DSTYLE_DIMBREAK
70
0
0
APPID
5
1B3
100
AcDbSymbolTableRecord
100
AcDbRegAppTableRecord
2
ACAD_DSTYLE_DIM_LINETYPE
70
0
0
APPID
5
1B4
100
AcDbSymbolTableRecord
100
AcDbRegAppTableRecord
2
ACAD_DSTYLE_DIM_EXT1_LINETYPE
70
0
0
APPID
5
1B5
100
AcDbSymbolTableRecord
100
AcDbRegAppTableRecord
2
ACAD_DSTYLE_DIM_EXT2_LINETYPE
70
0
0
APPID
5
1F0
100
AcDbSymbolTableRecord
100
AcDbRegAppTableRecord
2
ACAD_MLEADERVER
70
0
0
ENDTAB
0
TABLE
2
BLOCK_RECORD
5
20f
100
AcDbSymbolTable
0
BLOCK_RECORD
5
1F
100
AcDbSymbolTableRecord
100
AcDbBlockTableRecord
2
*Model_Space
340
0
70
0
0
BLOCK_RECORD
5
1B
100
AcDbSymbolTableRecord
100
AcDbBlockTableRecord
2
*Paper_Space
340
0
70
0
0
BLOCK_RECORD
5
23
100
AcDbSymbolTableRecord
100
AcDbBlockTableRecord
2
*Paper_Space0
340
0
70
0
0
BLOCK_RECORD
5
11C
100
AcDbSymbolTableRecord
100
AcDbBlockTableRecord
2
*D1
340
0
70
0
0
BLOCK_RECORD
5
129
100
AcDbSymbolTableRecord
100
AcDbBlockTableRecord
2
_U0
340
0
70
0
0
BLOCK_RECORD
5
135
100
AcDbSymbolTableRecord
100
AcDbBlockTableRecord
2
*D3
340
0
70
0
0
BLOCK_RECORD
5
142
100
AcDbSymbolTableRecord
100
AcDbBlockTableRecord
2
_U1
340
0
70
0
0
BLOCK_RECORD
5
14E
100
AcDbSymbolTableRecord
100
AcDbBlockTableRecord
2
*D5
340
0
70
0
0
BLOCK_RECORD
5
15B
100
AcDbSymbolTableRecord
100
AcDbBlockTableRecord
2
_U2
340
0
70
0
0
BLOCK_RECORD
5
167
100
AcDbSymbolTableRecord
100
AcDbBlockTableRecord
2
*D7
340
0
70
0
0
BLOCK_RECORD
5
174
100
AcDbSymbolTableRecord
100
AcDbBlockTableRecord
2
_U3
340
0
70
0
0
BLOCK_RECORD
5
180
100
AcDbSymbolTableRecord
100
AcDbBlockTableRecord
2
*D9
340
0
70
0
0
BLOCK_RECORD
5
18C
100
AcDbSymbolTableRecord
100
AcDbBlockTableRecord
2
_U4
340
0
70
0
0
ENDTAB
0
ENDSEC
0
SECTION
2
BLOCKS
0
BLOCK
5
20
100
AcDbEntity
8
0
100
AcDbBlockBegin
2
*Model_Space
70
0
10
0
20
0
30
0
3
*Model_Space
0
ENDBLK
5
21
100
AcDbEntity
8
0
100
AcDbBlockEnd
0
BLOCK
5
1C
100
AcDbEntity
8
0
100
AcDbBlockBegin
2
*Paper_Space
70
0
10
0
20
0
30
0
3
*Paper_Space
0
ENDBLK
5
1D
100
AcDbEntity
8
0
100
AcDbBlockEnd
0
BLOCK
5
24
100
AcDbEntity
8
0
100
AcDbBlockBegin
2
*Paper_Space0
70
0
10
0
20
0
30
0
3
*Paper_Space0
0
ENDBLK
5
25
100
AcDbEntity
8
0
100
AcDbBlockEnd
0
BLOCK
5
11D
100
AcDbEntity
8
0
100
AcDbBlockBegin
2
*D1
70
1
10
0
20
0
30
0
3
*D1
0
LINE
5
11F
100
AcDbEntity
8
0
62
256
6
ByLayer
370
-2
48
1
60
0
100
AcDbLine
10
35.695468
20
17.075
30
0
11
63.857968
21
17.075
31
0
39
0
210
0
220
0
230
1
0
LINE
5
120
100
AcDbEntity
8
0
62
256
6
ByLayer
370
-2
48
1
60
0
100
AcDbLine
10
-134.304532
20
-15.925
30
0
11
63.857968
21
-15.925
31
0
39
0
210
0
220
0
230
1
0
LINE
5
121
100
AcDbEntity
8
0
62
256
6
ByLayer
370
-2
48
1
60
0
100
AcDbLine
10
61.857968
20
13.575
30
0
11
61.857968
21
-12.425
31
0
39
0
210
0
220
0
230
1
0
SOLID
5
122
100
AcDbEntity
8
0
62
256
6
ByLayer
370
-1
48
1
60
0
100
AcDbTrace
10
62.441301
20
13.575
30
0
11
61.274634
21
13.575
31
0
12
61.857968
22
17.075
32
0
13
61.857968
23
17.075
33
0
39
0
210
0
220
0
230
1
0
SOLID
5
123
100
AcDbEntity
8
0
62
256
6
ByLayer
370
-1
48
1
60
0
100
AcDbTrace
10
61.274634
20
-12.425
30
0
11
62.441301
21
-12.425
31
0
12
61.857968
22
-15.925
32
0
13
61.857968
23
-15.925
33
0
39
0
210
0
220
0
230
1
0
MTEXT
5
124
100
AcDbEntity
8
0
62
256
6
ByLayer
370
18
48
1
60
0
100
AcDbMText
10
54.857968
20
0.575
30
0
210
0
220
0
230
1
1
\A1;33
40
3.5
41
0
44
1
50
90
71
5
72
5
7
iso_b_vert
0
POINT
5
125
100
AcDbEntity
8
Defpoints
62
0
6
ByLayer
370
-1
48
1
60
0
100
AcDbPoint
10
34.107968
20
17.075
30
0
39
0
210
0
220
0
230
1
50
360
0
POINT
5
126
100
AcDbEntity
8
Defpoints
62
0
6
ByLayer
370
-1
48
1
60
0
100
AcDbPoint
10
-135.892032
20
-15.925
30
0
39
0
210
0
220
0
230
1
50
360
0
POINT
5
127
100
AcDbEntity
8
Defpoints
62
0
6
ByLayer
370
-1
48
1
60
0
100
AcDbPoint
10
61.857968
20
-15.925
30
0
39
0
210
0
220
0
230
1
50
360
0
ENDBLK
5
11E
100
AcDbEntity
8
0
100
AcDbBlockEnd
0
BLOCK
5
130
100
AcDbEntity
8
0
100
AcDbBlockBegin
2
_U0
70
0
10
0
20
0
30
0
3
_U0
0
MTEXT
5
12A
100
AcDbEntity
8
2
62
256
6
ByLayer
370
18
48
1
60
0
100
AcDbMText
10
61.168334
20
-1.357966
30
0
210
0
220
0
230
1
1
\W0.6740;33
40
3.5
41
0
44
1.084337
50
90
71
7
72
5
7
iso_b_vert
0
LINE
5
12B
100
AcDbEntity
8
2
62
256
6
ByLayer
370
13
48
1
60
0
100
AcDbLine
10
35.695468
20
17.075
30
0
11
63.857968
21
17.075
31
0
39
0
210
0
220
0
230
1
0
LINE
5
12C
100
AcDbEntity
8
2
62
256
6
ByLayer
370
13
48
1
60
0
100
AcDbLine
10
-134.304532
20
-15.925
30
0
11
63.857968
21
-15.925
31
0
39
0
210
0
220
0
230
1
0
LINE
5
12D
100
AcDbEntity
8
2
62
256
6
ByLayer
370
13
48
1
60
0
100
AcDbLine
10
61.857968
20
17.075
30
0
11
61.857968
21
-15.925
31
0
39
0
210
0
220
0
230
1
0
SOLID
5
12E
100
AcDbEntity
8
2
62
256
6
ByLayer
370
18
48
1
60
0
100
AcDbTrace
10
61.857968
20
17.075
30
0
11
62.318751
21
13.575002
31
0
12
61.397184
22
13.574998
32
0
13
61.397184
23
13.574998
33
0
39
0
210
0
220
0
230
1
0
SOLID
5
12F
100
AcDbEntity
8
2
62
256
6
ByLayer
370
18
48
1
60
0
100
AcDbTrace
10
61.857968
20
-15.925
30
0
11
61.397184
21
-12.425002
31
0
12
62.318751
22
-12.424998
32
0
13
62.318751
23
-12.424998
33
0
39
0
210
0
220
0
230
1
0
ENDBLK
5
131
100
AcDbEntity
8
0
100
AcDbBlockEnd
0
BLOCK
5
136
100
AcDbEntity
8
0
100
AcDbBlockBegin
2
*D3
70
1
10
0
20
0
30
0
3
*D3
0
LINE
5
138
100
AcDbEntity
8
0
62
256
6
ByLayer
370
-2
48
1
60
0
100
AcDbLine
10
35.695468
20
12.075
30
0
11
56.207968
21
12.075
31
0
39
0
210
0
220
0
230
1
0
LINE
5
139
100
AcDbEntity
8
0
62
256
6
ByLayer
370
-2
48
1
60
0
100
AcDbLine
10
35.695468
20
17.075
30
0
11
56.207968
21
17.075
31
0
39
0
210
0
220
0
230
1
0
LINE
5
13A
100
AcDbEntity
8
0
62
256
6
ByLayer
370
-2
48
1
60
0
100
AcDbLine
10
54.207968
20
8.575
30
0
11
54.207968
21
5.075
31
0
39
0
210
0
220
0
230
1
0
LINE
5
13B
100
AcDbEntity
8
0
62
256
6
ByLayer
370
-2
48
1
60
0
100
AcDbLine
10
54.207968
20
20.575
30
0
11
54.207968
21
24.075
31
0
39
0
210
0
220
0
230
1
0
SOLID
5
13C
100
AcDbEntity
8
0
62
256
6
ByLayer
370
-1
48
1
60
0
100
AcDbTrace
10
54.791301
20
8.575
30
0
11
53.624634
21
8.575
31
0
12
54.207968
22
12.075
32
0
13
54.207968
23
12.075
33
0
39
0
210
0
220
0
230
1
0
SOLID
5
13D
100
AcDbEntity
8
0
62
256
6
ByLayer
370
-1
48
1
60
0
100
AcDbTrace
10
53.624634
20
20.575
30
0
11
54.791301
21
20.575
31
0
12
54.207968
22
17.075
32
0
13
54.207968
23
17.075
33
0
39
0
210
0
220
0
230
1
0
MTEXT
5
13E
100
AcDbEntity
8
0
62
256
6
ByLayer
370
18
48
1
60
0
100
AcDbMText
10
47.207968
20
14.575
30
0
210
0
220
0
230
1
1
\A1;5
40
3.5
41
0
44
1
50
90
71
5
72
5
7
iso_b_vert
0
POINT
5
13F
100
AcDbEntity
8
Defpoints
62
0
6
ByLayer
370
-1
48
1
60
0
100
AcDbPoint
10
34.107968
20
12.075
30
0
39
0
210
0
220
0
230
1
50
360
0
POINT
5
140
100
AcDbEntity
8
Defpoints
62
0
6
ByLayer
370
-1
48
1
60
0
100
AcDbPoint
10
34.107968
20
17.075
30
0
39
0
210
0
220
0
230
1
50
360
0
POINT
5
141
100
AcDbEntity
8
Defpoints
62
0
6
ByLayer
370
-1
48
1
60
0
100
AcDbPoint
10
54.207968
20
17.075
30
0
39
0
210
0
220
0
230
1
50
360
0
ENDBLK
5
137
100
AcDbEntity
8
0
100
AcDbBlockEnd
0
BLOCK
5
149
100
AcDbEntity
8
0
100
AcDbBlockBegin
2
_U1
70
0
10
0
20
0
30
0
3
_U1
0
MTEXT
5
143
100
AcDbEntity
8
2
62
256
6
ByLayer
370
18
48
1
60
0
100
AcDbMText
10
53.518334
20
13.949767
30
0
210
0
220
0
230
1
1
\W0.5404;5
40
3.5
41
0
44
1.084337
50
90
71
7
72
5
7
iso_b_vert
0
LINE
5
144
100
AcDbEntity
8
2
62
256
6
ByLayer
370
13
48
1
60
0
100
AcDbLine
10
35.695468
20
12.075
30
0
11
56.207968
21
12.075
31
0
39
0
210
0
220
0
230
1
0
LINE
5
145
100
AcDbEntity
8
2
62
256
6
ByLayer
370
13
48
1
60
0
100
AcDbLine
10
35.695468
20
17.075
30
0
11
56.207968
21
17.075
31
0
39
0
210
0
220
0
230
1
0
LINE
5
146
100
AcDbEntity
8
2
62
256
6
ByLayer
370
13
48
1
60
0
100
AcDbLine
10
54.207968
20
3.325
30
0
11
54.207968
21
25.825
31
0
39
0
210
0
220
0
230
1
0
SOLID
5
147
100
AcDbEntity
8
2
62
256
6
ByLayer
370
18
48
1
60
0
100
AcDbTrace
10
54.207968
20
12.075
30
0
11
54.668751
21
8.575002
31
0
12
53.747184
22
8.574998
32
0
13
53.747184
23
8.574998
33
0
39
0
210
0
220
0
230
1
0
SOLID
5
148
100
AcDbEntity
8
2
62
256
6
ByLayer
370
18
48
1
60
0
100
AcDbTrace
10
54.207968
20
17.075
30
0
11
53.747184
21
20.574998
31
0
12
54.668751
22
20.575002
32
0
13
54.668751
23
20.575002
33
0
39
0
210
0
220
0
230
1
0
ENDBLK
5
14A
100
AcDbEntity
8
0
100
AcDbBlockEnd
0
BLOCK
5
14F
100
AcDbEntity
8
0
100
AcDbBlockBegin
2
*D5
70
1
10
0
20
0
30
0
3
*D5
0
LINE
5
151
100
AcDbEntity
8
0
62
256
6
ByLayer
370
-2
48
1
60
0
100
AcDbLine
10
-137.479532
20
-15.925
30
0
11
-149.492032
21
-15.925
31
0
39
0
210
0
220
0
230
1
0
LINE
5
152
100
AcDbEntity
8
0
62
256
6
ByLayer
370
-2
48
1
60
0
100
AcDbLine
10
-137.479532
20
16.075
30
0
11
-149.492032
21
16.075
31
0
39
0
210
0
220
0
230
1
0
LINE
5
153
100
AcDbEntity
8
0
62
256
6
ByLayer
370
-2
48
1
60
0
100
AcDbLine
10
-147.492032
20
-12.425
30
0
11
-147.492032
21
12.575
31
0
39
0
210
0
220
0
230
1
0
SOLID
5
154
100
AcDbEntity
8
0
62
256
6
ByLayer
370
-1
48
1
60
0
100
AcDbTrace
10
-148.075366
20
-12.425
30
0
11
-146.908699
21
-12.425
31
0
12
-147.492032
22
-15.925
32
0
13
-147.492032
23
-15.925
33
0
39
0
210
0
220
0
230
1
0
SOLID
5
155
100
AcDbEntity
8
0
62
256
6
ByLayer
370
-1
48
1
60
0
100
AcDbTrace
10
-146.908699
20
12.575
30
0
11
-148.075366
21
12.575
31
0
12
-147.492032
22
16.075
32
0
13
-147.492032
23
16.075
33
0
39
0
210
0
220
0
230
1
0
MTEXT
5
156
100
AcDbEntity
8
0
62
256
6
ByLayer
370
18
48
1
60
0
100
AcDbMText
10
-154.492032
20
0.075
30
0
210
0
220
0
230
1
1
\A1;32
40
3.5
41
0
44
1
50
90
71
5
72
5
7
iso_b_vert
0
POINT
5
157
100
AcDbEntity
8
Defpoints
62
0
6
ByLayer
370
-1
48
1
60
0
100
AcDbPoint
10
-135.892032
20
-15.925
30
0
39
0
210
0
220
0
230
1
50
360
0
POINT
5
158
100
AcDbEntity
8
Defpoints
62
0
6
ByLayer
370
-1
48
1
60
0
100
AcDbPoint
10
-135.892032
20
16.075
30
0
39
0
210
0
220
0
230
1
50
360
0
POINT
5
159
100
AcDbEntity
8
Defpoints
62
0
6
ByLayer
370
-1
48
1
60
0
100
AcDbPoint
10
-147.492032
20
16.075
30
0
39
0
210
0
220
0
230
1
50
360
0
ENDBLK
5
150
100
AcDbEntity
8
0
100
AcDbBlockEnd
0
BLOCK
5
162
100
AcDbEntity
8
0
100
AcDbBlockBegin
2
_U2
70
0
10
0
20
0
30
0
3
_U2
0
MTEXT
5
15C
100
AcDbEntity
8
SK2
62
256
6
ByLayer
370
18
48
1
60
0
100
AcDbMText
10
-148.181666
20
-1.857966
30
0
210
0
220
0
230
1
1
\W0.6740;32
40
3.5
41
0
44
1.084337
50
90
71
7
72
5
7
iso_b_vert
0
LINE
5
15D
100
AcDbEntity
8
SK2
62
256
6
ByLayer
370
13
48
1
60
0
100
AcDbLine
10
-137.479532
20
-15.925
30
0
11
-149.492032
21
-15.925
31
0
39
0
210
0
220
0
230
1
0
LINE
5
15E
100
AcDbEntity
8
SK2
62
256
6
ByLayer
370
13
48
1
60
0
100
AcDbLine
10
-137.479532
20
16.075
30
0
11
-149.492032
21
16.075
31
0
39
0
210
0
220
0
230
1
0
LINE
5
15F
100
AcDbEntity
8
SK2
62
256
6
ByLayer
370
13
48
1
60
0
100
AcDbLine
10
-147.492032
20
-15.925
30
0
11
-147.492032
21
16.075
31
0
39
0
210
0
220
0
230
1
0
SOLID
5
160
100
AcDbEntity
8
SK2
62
256
6
ByLayer
370
18
48
1
60
0
100
AcDbTrace
10
-147.492032
20
-15.925
30
0
11
-147.952816
21
-12.425002
31
0
12
-147.031249
22
-12.424998
32
0
13
-147.031249
23
-12.424998
33
0
39
0
210
0
220
0
230
1
0
SOLID
5
161
100
AcDbEntity
8
SK2
62
256
6
ByLayer
370
18
48
1
60
0
100
AcDbTrace
10
-147.492032
20
16.075
30
0
11
-147.031249
21
12.575002
31
0
12
-147.952816
22
12.574998
32
0
13
-147.952816
23
12.574998
33
0
39
0
210
0
220
0
230
1
0
ENDBLK
5
163
100
AcDbEntity
8
0
100
AcDbBlockEnd
0
BLOCK
5
168
100
AcDbEntity
8
0
100
AcDbBlockBegin
2
*D7
70
1
10
0
20
0
30
0
3
*D7
0
LINE
5
16A
100
AcDbEntity
8
0
62
256
6
ByLayer
370
-2
48
1
60
0
100
AcDbLine
10
21.107968
20
10.8125
30
0
11
21.107968
21
-29.675
31
0
39
0
210
0
220
0
230
1
0
LINE
5
16B
100
AcDbEntity
8
0
62
256
6
ByLayer
370
-2
48
1
60
0
100
AcDbLine
10
34.107968
20
15.4875
30
0
11
34.107968
21
-29.675
31
0
39
0
210
0
220
0
230
1
0
LINE
5
16C
100
AcDbEntity
8
0
62
256
6
ByLayer
370
-2
48
1
60
0
100
AcDbLine
10
17.607968
20
-27.675
30
0
11
14.107968
21
-27.675
31
0
39
0
210
0
220
0
230
1
0
LINE
5
16D
100
AcDbEntity
8
0
62
256
6
ByLayer
370
-2
48
1
60
0
100
AcDbLine
10
37.607968
20
-27.675
30
0
11
41.107968
21
-27.675
31
0
39
0
210
0
220
0
230
1
0
SOLID
5
16E
100
AcDbEntity
8
0
62
256
6
ByLayer
370
-1
48
1
60
0
100
AcDbTrace
10
17.607968
20
-28.258333
30
0
11
17.607968
21
-27.091667
31
0
12
21.107968
22
-27.675
32
0
13
21.107968
23
-27.675
33
0
39
0
210
0
220
0
230
1
0
SOLID
5
16F
100
AcDbEntity
8
0
62
256
6
ByLayer
370
-1
48
1
60
0
100
AcDbTrace
10
37.607968
20
-27.091667
30
0
11
37.607968
21
-28.258333
31
0
12
34.107968
22
-27.675
32
0
13
34.107968
23
-27.675
33
0
39
0
210
0
220
0
230
1
0
MTEXT
5
170
100
AcDbEntity
8
0
62
256
6
ByLayer
370
18
48
1
60
0
100
AcDbMText
10
27.607968
20
-20.675
30
0
210
0
220
0
230
1
1
\A1;13
40
3.5
41
0
44
1
50
0
71
5
72
5
7
iso_b_vert
0
POINT
5
171
100
AcDbEntity
8
Defpoints
62
0
6
ByLayer
370
-1
48
1
60
0
100
AcDbPoint
10
21.107968
20
12.4
30
0
39
0
210
0
220
0
230
1
50
360
0
POINT
5
172
100
AcDbEntity
8
Defpoints
62
0
6
ByLayer
370
-1
48
1
60
0
100
AcDbPoint
10
34.107968
20
17.075
30
0
39
0
210
0
220
0
230
1
50
360
0
POINT
5
173
100
AcDbEntity
8
Defpoints
62
0
6
ByLayer
370
-1
48
1
60
0
100
AcDbPoint
10
34.107968
20
-27.675
30
0
39
0
210
0
220
0
230
1
50
360
0
ENDBLK
5
169
100
AcDbEntity
8
0
100
AcDbBlockEnd
0
BLOCK
5
17B
100
AcDbEntity
8
0
100
AcDbBlockBegin
2
_U3
70
0
10
0
20
0
30
0
3
_U3
0
MTEXT
5
175
100
AcDbEntity
8
2
62
256
6
ByLayer
370
18
48
1
60
0
100
AcDbMText
10
26.140435
20
-26.642366
30
0
210
0
220
0
230
1
1
\W0.5321;13
40
3.5
41
0
44
1.084337
50
0
71
7
72
5
7
iso_b_vert
0
LINE
5
176
100
AcDbEntity
8
2
62
256
6
ByLayer
370
13
48
1
60
0
100
AcDbLine
10
21.107968
20
10.8125
30
0
11
21.107968
21
-29.675
31
0
39
0
210
0
220
0
230
1
0
LINE
5
177
100
AcDbEntity
8
2
62
256
6
ByLayer
370
13
48
1
60
0
100
AcDbLine
10
34.107968
20
15.4875
30
0
11
34.107968
21
-29.675
31
0
39
0
210
0
220
0
230
1
0
LINE
5
178
100
AcDbEntity
8
2
62
256
6
ByLayer
370
13
48
1
60
0
100
AcDbLine
10
21.107968
20
-27.675
30
0
11
34.107968
21
-27.675
31
0
39
0
210
0
220
0
230
1
0
SOLID
5
179
100
AcDbEntity
8
2
62
256
6
ByLayer
370
18
48
1
60
0
100
AcDbTrace
10
21.107968
20
-27.675
30
0
11
24.607966
21
-27.214216
31
0
12
24.607969
22
-28.135784
32
0
13
24.607969
23
-28.135784
33
0
39
0
210
0
220
0
230
1
0
SOLID
5
17A
100
AcDbEntity
8
2
62
256
6
ByLayer
370
18
48
1
60
0
100
AcDbTrace
10
34.107968
20
-27.675
30
0
11
30.607969
21
-28.135784
31
0
12
30.607966
22
-27.214216
32
0
13
30.607966
23
-27.214216
33
0
39
0
210
0
220
0
230
1
0
ENDBLK
5
17C
100
AcDbEntity
8
0
100
AcDbBlockEnd
0
BLOCK
5
181
100
AcDbEntity
8
0
100
AcDbBlockBegin
2
*D9
70
1
10
0
20
0
30
0
3
*D9
0
LINE
5
183
100
AcDbEntity
8
0
62
256
6
ByLayer
370
-2
48
1
60
0
100
AcDbLine
10
-135.892032
20
-17.5125
30
0
11
-135.892032
21
-35.675
31
0
39
0
210
0
220
0
230
1
0
LINE
5
184
100
AcDbEntity
8
0
62
256
6
ByLayer
370
-2
48
1
60
0
100
AcDbLine
10
34.107968
20
15.4875
30
0
11
34.107968
21
-35.675
31
0
39
0
210
0
220
0
230
1
0
LINE
5
185
100
AcDbEntity
8
0
62
256
6
ByLayer
370
-2
48
1
60
0
100
AcDbLine
10
-132.392032
20
-33.675
30
0
11
30.607968
21
-33.675
31
0
39
0
210
0
220
0
230
1
0
SOLID
5
186
100
AcDbEntity
8
0
62
256
6
ByLayer
370
-1
48
1
60
0
100
AcDbTrace
10
-132.392032
20
-33.091667
30
0
11
-132.392032
21
-34.258333
31
0
12
-135.892032
22
-33.675
32
0
13
-135.892032
23
-33.675
33
0
39
0
210
0
220
0
230
1
0
SOLID
5
187
100
AcDbEntity
8
0
62
256
6
ByLayer
370
-1
48
1
60
0
100
AcDbTrace
10
30.607968
20
-34.258333
30
0
11
30.607968
21
-33.091667
31
0
12
34.107968
22
-33.675
32
0
13
34.107968
23
-33.675
33
0
39
0
210
0
220
0
230
1
0
MTEXT
5
188
100
AcDbEntity
8
0
62
256
6
ByLayer
370
18
48
1
60
0
100
AcDbMText
10
-50.892032
20
-26.675
30
0
210
0
220
0
230
1
1
\A1;170
40
3.5
41
0
44
1
50
0
71
5
72
5
7
iso_b_vert
0
POINT
5
189
100
AcDbEntity
8
Defpoints
62
0
6
ByLayer
370
-1
48
1
60
0
100
AcDbPoint
10
-135.892032
20
-15.925
30
0
39
0
210
0
220
0
230
1
50
360
0
POINT
5
18A
100
AcDbEntity
8
Defpoints
62
0
6
ByLayer
370
-1
48
1
60
0
100
AcDbPoint
10
34.107968
20
17.075
30
0
39
0
210
0
220
0
230
1
50
360
0
POINT
5
18B
100
AcDbEntity
8
Defpoints
62
0
6
ByLayer
370
-1
48
1
60
0
100
AcDbPoint
10
34.107968
20
-33.675
30
0
39
0
210
0
220
0
230
1
50
360
0
ENDBLK
5
182
100
AcDbEntity
8
0
100
AcDbBlockEnd
0
BLOCK
5
193
100
AcDbEntity
8
0
100
AcDbBlockBegin
2
_U4
70
0
10
0
20
0
30
0
3
_U4
0
MTEXT
5
18D
100
AcDbEntity
8
SK2
62
256
6
ByLayer
370
18
48
1
60
0
100
AcDbMText
10
-53.667298
20
-32.642366
30
0
210
0
220
0
230
1
1
\W0.6217;170
40
3.5
41
0
44
1.084337
50
0
71
7
72
5
7
iso_b_vert
0
LINE
5
18E
100
AcDbEntity
8
SK2
62
256
6
ByLayer
370
13
48
1
60
0
100
AcDbLine
10
-135.892032
20
-17.5125
30
0
11
-135.892032
21
-35.675
31
0
39
0
210
0
220
0
230
1
0
LINE
5
18F
100
AcDbEntity
8
SK2
62
256
6
ByLayer
370
13
48
1
60
0
100
AcDbLine
10
34.107968
20
15.4875
30
0
11
34.107968
21
-35.675
31
0
39
0
210
0
220
0
230
1
0
LINE
5
190
100
AcDbEntity
8
SK2
62
256
6
ByLayer
370
13
48
1
60
0
100
AcDbLine
10
-135.892032
20
-33.675
30
0
11
34.107968
21
-33.675
31
0
39
0
210
0
220
0
230
1
0
SOLID
5
191
100
AcDbEntity
8
SK2
62
256
6
ByLayer
370
18
48
1
60
0
100
AcDbTrace
10
-135.892032
20
-33.675
30
0
11
-132.392034
21
-33.214216
31
0
12
-132.392031
22
-34.135784
32
0
13
-132.392031
23
-34.135784
33
0
39
0
210
0
220
0
230
1
0
SOLID
5
192
100
AcDbEntity
8
SK2
62
256
6
ByLayer
370
18
48
1
60
0
100
AcDbTrace
10
34.107968
20
-33.675
30
0
11
30.607969
21
-34.135784
31
0
12
30.607966
22
-33.214216
32
0
13
30.607966
23
-33.214216
33
0
39
0
210
0
220
0
230
1
0
ENDBLK
5
194
100
AcDbEntity
8
0
100
AcDbBlockEnd
0
ENDSEC
0
SECTION
2
ENTITIES
0
ARC
5
CA
100
AcDbEntity
8
1
62
256
6
ByLayer
370
18
48
1
60
0
100
AcDbCircle
39
0
10
21.107968
20
10.8
30
0
40
1.6
210
0
220
0
230
1
100
AcDbArc
50
179.995717
51
180
0
ARC
5
CC
100
AcDbEntity
8
1
62
256
6
ByLayer
370
18
48
1
60
0
100
AcDbCircle
39
0
10
12.757968
20
4.425
30
0
40
2.1768
210
0
220
0
230
1
100
AcDbArc
50
150
51
210
0
ARC
5
CD
100
AcDbEntity
8
1
62
256
6
ByLayer
370
18
48
1
60
0
100
AcDbCircle
39
0
10
12.757968
20
4.425
30
0
40
2.1768
210
0
220
0
230
1
100
AcDbArc
50
210
51
270
0
ARC
5
CE
100
AcDbEntity
8
1
62
256
6
ByLayer
370
18
48
1
60
0
100
AcDbCircle
39
0
10
12.757968
20
4.425
30
0
40
2.1768
210
0
220
0
230
1
100
AcDbArc
50
270
51
330
0
ARC
5
CF
100
AcDbEntity
8
1
62
256
6
ByLayer
370
18
48
1
60
0
100
AcDbCircle
39
0
10
12.757968
20
4.425
30
0
40
2.1768
210
0
220
0
230
1
100
AcDbArc
50
90
51
150
0
ARC
5
D0
100
AcDbEntity
8
1
62
256
6
ByLayer
370
18
48
1
60
0
100
AcDbCircle
39
0
10
12.757968
20
4.425
30
0
40
2.1768
210
0
220
0
230
1
100
AcDbArc
50
330
51
30
0
ARC
5
D1
100
AcDbEntity
8
1
62
256
6
ByLayer
370
18
48
1
60
0
100
AcDbCircle
39
0
10
12.757968
20
4.425
30
0
40
2.1768
210
0
220
0
230
1
100
AcDbArc
50
30
51
90
0
ARC
5
D4
100
AcDbEntity
8
1
62
256
6
ByLayer
370
18
48
1
60
0
100
AcDbCircle
39
0
10
12.757968
20
4.425
30
0
40
2.8067
210
0
220
0
230
1
100
AcDbArc
50
180
51
240
0
ARC
5
D5
100
AcDbEntity
8
1
62
256
6
ByLayer
370
18
48
1
60
0
100
AcDbCircle
39
0
10
12.757968
20
4.425
30
0
40
2.8067
210
0
220
0
230
1
100
AcDbArc
50
240
51
300
0
ARC
5
D6
100
AcDbEntity
8
1
62
256
6
ByLayer
370
18
48
1
60
0
100
AcDbCircle
39
0
10
12.757968
20
4.425
30
0
40
2.8067
210
0
220
0
230
1
100
AcDbArc
50
60
51
120
0
ARC
5
D7
100
AcDbEntity
8
1
62
256
6
ByLayer
370
18
48
1
60
0
100
AcDbCircle
39
0
10
12.757968
20
4.425
30
0
40
2.8067
210
0
220
0
230
1
100
AcDbArc
50
0
51
60
0
ARC
5
D8
100
AcDbEntity
8
1
62
256
6
ByLayer
370
18
48
1
60
0
100
AcDbCircle
39
0
10
12.757968
20
4.425
30
0
40
2.8067
210
0
220
0
230
1
100
AcDbArc
50
300
51
0
0
ARC
5
D9
100
AcDbEntity
8
1
62
256
6
ByLayer
370
18
48
1
60
0
100
AcDbCircle
39
0
10
12.757968
20
4.425
30
0
40
2.8067
210
0
220
0
230
1
100
AcDbArc
50
120
51
180
0
ARC
5
DA
100
AcDbEntity
8
1
62
256
6
ByLayer
370
18
48
1
60
0
100
AcDbCircle
39
0
10
33.807968
20
16.775
30
0
40
0.3
210
0
220
0
230
1
100
AcDbArc
50
0
51
92.5
0
ARC
5
DB
100
AcDbEntity
8
1
62
256
6
ByLayer
370
18
48
1
60
0
100
AcDbCircle
39
0
10
33.807968
20
12.375
30
0
40
0.3
210
0
220
0
230
1
100
AcDbArc
50
267.5
51
0
0
ARC
5
DC
100
AcDbEntity
8
1
62
256
6
ByLayer
370
18
48
1
60
0
100
AcDbCircle
39
0
10
9.407968
20
16.775
30
0
40
0.3
210
0
220
0
230
1
100
AcDbArc
50
87.5
51
180
0
CIRCLE
5
CB
100
AcDbEntity
8
1
62
256
6
ByLayer
370
18
48
1
60
0
100
AcDbCircle
10
12.757968
20
4.425
30
0
40
5.75
39
0
210
0
220
0
230
1
0
CIRCLE
5
D2
100
AcDbEntity
8
1
62
256
6
ByLayer
370
18
48
1
60
0
100
AcDbCircle
10
12.757968
20
4.425
30
0
40
5.35
39
0
210
0
220
0
230
1
0
CIRCLE
5
D3
100
AcDbEntity
8
1
62
256
6
ByLayer
370
13
48
1
60
0
100
AcDbCircle
10
12.757968
20
4.425
30
0
40
4.55
39
0
210
0
220
0
230
1
0
ELLIPSE
5
DD
100
AcDbEntity
8
1
62
256
6
ByLayer
370
18
48
1
60
0
100
AcDbEllipse
10
-2.422558
20
-15.934599
30
0
11
3.00000000010122
21
3.51436609386614E-15
31
0
210
0
220
0
230
1
40
0.004363
41
0.261799387797495
42
0.630861997531992
0
ELLIPSE
5
DE
100
AcDbEntity
8
1
62
256
6
ByLayer
370
18
48
1
60
0
100
AcDbEllipse
10
19.542076
20
12.4
30
0
11
-2.78951487299376
21
3.41605763755018E-16
31
0
210
0
220
0
230
1
40
0.573576
41
0
42
1.55856879176519
0
ELLIPSE
5
DF
100
AcDbEntity
8
1
62
256
6
ByLayer
370
18
48
1
60
0
100
AcDbEllipse
10
26.454322
20
16.433749
30
0
11
0.00784181115772267
21
-0.0996920539463536
31
0
210
0
220
0
230
1
40
1
41
-1.64929503529103
42
-1.47476210684925
0
ELLIPSE
5
E0
100
AcDbEntity
8
1
62
256
6
ByLayer
370
18
48
1
60
0
100
AcDbEllipse
10
26.664407
20
15.242299
30
0
11
0.0419304089371763
21
-0.0907845845198683
31
0
210
0
220
0
230
1
40
1
41
-1.82894202594077
42
-1.33939147973624
0
ELLIPSE
5
E1
100
AcDbEntity
8
1
62
256
6
ByLayer
370
18
48
1
60
0
100
AcDbEllipse
10
26.664407
20
13.907701
30
0
11
0.0419304089371765
21
0.0907845845198682
31
0
210
0
220
0
230
1
40
1
41
1.33939147973624
42
1.82894202594077
0
ELLIPSE
5
E2
100
AcDbEntity
8
1
62
256
6
ByLayer
370
18
48
1
60
0
100
AcDbEllipse
10
26.454322
20
12.716251
30
0
11
0.00783276020429884
21
0.0996927653986158
31
0
210
0
220
0
230
1
40
1
41
1.4746713180407
42
1.64920424663141
0
ELLIPSE
5
E3
100
AcDbEntity
8
SK1
62
256
6
ByLayer
370
18
48
1
60
0
100
AcDbEllipse
10
-2.422558
20
-15.934599
30
0
11
3.0000000000001
21
3.51436609374769E-15
31
0
210
0
220
0
230
1
40
0.004363
41
0.630861997541812
42
2.31838067646374
0
POINT
5
70
100
AcDbEntity
8
81
62
256
6
ByLayer
370
18
48
1
60
0
100
AcDbPoint
10
34.107968
20
17.075
30
0
39
0
210
0
220
0
230
1
50
360
0
POINT
5
72
100
AcDbEntity
8
80
62
256
6
ByLayer
370
18
48
1
60
0
100
AcDbPoint
10
0
20
0
30
0
39
0
210
0
220
0
230
1
50
360
0
POINT
5
74
100
AcDbEntity
8
1
62
256
6
ByLayer
370
18
48
1
60
1
100
AcDbPoint
10
34.107968
20
17.075
30
0
39
0
210
0
220
0
230
1
50
360
0
POINT
5
76
100
AcDbEntity
8
1
62
256
6
ByLayer
370
18
48
1
60
1
100
AcDbPoint
10
-135.892032
20
-15.925
30
0
39
0
210
0
220
0
230
1
50
360
0
POINT
5
77
100
AcDbEntity
8
1
62
256
6
ByLayer
370
18
48
1
60
1
100
AcDbPoint
10
34.107968
20
12.075
30
0
39
0
210
0
220
0
230
1
50
360
0
POINT
5
78
100
AcDbEntity
8
1
62
256
6
ByLayer
370
18
48
1
60
1
100
AcDbPoint
10
34.107968
20
17.075
30
0
39
0
210
0
220
0
230
1
50
360
0
POINT
5
79
100
AcDbEntity
8
1
62
256
6
ByLayer
370
18
48
1
60
1
100
AcDbPoint
10
-135.892032
20
-15.925
30
0
39
0
210
0
220
0
230
1
50
360
0
POINT
5
7A
100
AcDbEntity
8
1
62
256
6
ByLayer
370
18
48
1
60
1
100
AcDbPoint
10
-135.892032
20
16.075
30
0
39
0
210
0
220
0
230
1
50
360
0
POINT
5
7B
100
AcDbEntity
8
1
62
256
6
ByLayer
370
18
48
1
60
1
100
AcDbPoint
10
21.107968
20
12.4
30
0
39
0
210
0
220
0
230
1
50
360
0
POINT
5
7C
100
AcDbEntity
8
1
62
256
6
ByLayer
370
18
48
1
60
1
100
AcDbPoint
10
34.107968
20
17.075
30
0
39
0
210
0
220
0
230
1
50
360
0
POINT
5
7D
100
AcDbEntity
8
1
62
256
6
ByLayer
370
18
48
1
60
1
100
AcDbPoint
10
-135.892032
20
-15.925
30
0
39
0
210
0
220
0
230
1
50
360
0
POINT
5
7E
100
AcDbEntity
8
1
62
256
6
ByLayer
370
18
48
1
60
1
100
AcDbPoint
10
34.107968
20
17.075
30
0
39
0
210
0
220
0
230
1
50
360
0
SPLINE
5
E4
100
AcDbEntity
8
1
62
256
6
ByLayer
370
18
48
1
60
0
100
AcDbSpline
70
4
71
3
72
10
73
6
40
0
40
0
40
0
40
0
40
0.5
40
0.5
40
1
40
1
40
1
40
1
41
1
10
0.1720535871506
20
16.75
30
0
41
1
10
0.146895433587559
20
16.7045602595081
30
0
41
1
10
0.119990681654116
20
16.6611529559757
30
0
41
1
10
0.0626669736013525
20
16.577657601529
30
0
41
1
10
0.0322470809632875
20
16.5375772134373
30
0
41
1
10
0
20
16.4989903551092
30
0
0
SPLINE
5
E5
100
AcDbEntity
8
1
62
256
6
ByLayer
370
18
48
1
60
0
100
AcDbSpline
70
4
71
3
72
14
73
10
40
0
40
0
40
0
40
0
40
0.25
40
0.25
40
0.5
40
0.5
40
0.75
40
0.75
40
1
40
1
40
1
40
1
41
1
10
25.8302153477877
20
14.075
30
0
41
1
10
25.8140608278055
20
13.97219877373
30
0
41
1
10
25.7976759289779
20
13.8694579048893
30
0
41
1
10
25.7642385696736
20
13.6641510630619
30
0
41
1
10
25.7471947246829
20
13.5616129046668
30
0
41
1
10
25.7120993217925
20
13.3569089178918
30
0
41
1
10
25.6940589447693
20
13.254737182828
30
0
41
1
10
25.6562654432225
20
13.0510203664403
30
0
41
1
10
25.6365593250571
20
12.9494580866034
30
0
41
1
10
25.6151139307407
20
12.8485321667111
30
0
0
SPLINE
5
E6
100
AcDbEntity
8
1
62
256
6
ByLayer
370
18
48
1
60
0
100
AcDbSpline
70
4
71
3
72
8
73
4
40
0
40
0
40
0
40
0
40
1
40
1
40
1
40
1
41
1
10
26.02712577928
20
14.1590772376137
30
0
41
1
10
25.9616721404867
20
14.1302343063335
30
0
41
1
10
25.8961025793965
20
14.1019085401366
30
0
41
1
10
25.8302153477877
20
14.075
30
0
0
SPLINE
5
E7
100
AcDbEntity
8
1
62
256
6
ByLayer
370
18
48
1
60
0
100
AcDbSpline
70
4
71
3
72
18
73
14
40
0
40
0
40
0
40
0
40
0.249999999999876
40
0.249999999999876
40
0.499999999999753
40
0.499999999999753
40
0.624999999999814
40
0.624999999999814
40
0.749999999999876
40
0.749999999999876
40
0.874999999999938
40
0.874999999999938
40
1
40
1
40
1
40
1
41
1
10
26.1079675788577
20
14.3000311307314
30
0
41
1
10
26.1079675788577
20
14.2842066707605
30
0
41
1
10
26.105982063428
20
14.2688259354211
30
0
41
1
10
26.0981161574225
20
14.2389348946635
30
0
41
1
10
26.0924216759352
20
14.2251741512116
30
0
41
1
10
26.0814223162422
20
14.2063746660171
30
0
41
1
10
26.0773940441613
20
14.2005189291368
30
0
41
1
10
26.0687590323546
20
14.1897311583368
30
0
41
1
10
26.0641365664651
20
14.1847727290415
30
0
41
1
10
26.0542858359855
20
14.1757208978465
30
0
41
1
10
26.0490910285896
20
14.171667496056
30
0
41
1
10
26.0383871450721
20
14.1646203164928
30
0
41
1
10
26.0328489567552
20
14.1615992244377
30
0
41
1
10
26.02712577928
20
14.1590772376137
30
0
0
SPLINE
5
E8
100
AcDbEntity
8
1
62
256
6
ByLayer
370
18
48
1
60
0
100
AcDbSpline
70
4
71
3
72
20
73
16
40
0
40
0
40
0
40
0
40
0.249999999999769
40
0.249999999999769
40
0.374999999999807
40
0.374999999999807
40
0.499999999999846
40
0.499999999999846
40
0.624999999999885
40
0.624999999999885
40
0.749999999999923
40
0.749999999999923
40
0.874999999999961
40
0.874999999999961
40
1
40
1
40
1
40
1
41
1
10
26.0271257792797
20
14.9909227623865
30
0
41
1
10
26.0385771767405
20
14.9858765666956
30
0
41
1
10
26.0492453454356
20
14.978887719873
30
0
41
1
10
26.0640159096366
20
14.9653494779288
30
0
41
1
10
26.0687115475183
20
14.9603222726242
30
0
41
1
10
26.0773490077084
20
14.9495431644952
30
0
41
1
10
26.0813341354953
20
14.9437546142989
30
0
41
1
10
26.0886149272941
20
14.9313528991704
30
0
41
1
10
26.0919343358607
20
14.9246714878332
30
0
41
1
10
26.0976335769423
20
14.9108683739999
30
0
41
1
10
26.1000349899854
20
14.9037308118808
30
0
41
1
10
26.1039382341002
20
14.8889820096556
30
0
41
1
10
26.1054464872661
20
14.881316490514
30
0
41
1
10
26.1074607871041
20
14.8657425880656
30
0
41
1
10
26.1079675788693
20
14.8578893156453
30
0
41
1
10
26.1079675788694
20
14.8499688692701
30
0
0
SPLINE
5
E9
100
AcDbEntity
8
1
62
256
6
ByLayer
370
18
48
1
60
0
100
AcDbSpline
70
4
71
3
72
8
73
4
40
0
40
0
40
0
40
0
40
1
40
1
40
1
40
1
41
1
10
25.8302153477877
20
15.075
30
0
41
1
10
25.8960855537289
20
15.0480984131964
30
0
41
1
10
25.9616597633984
20
15.019771147779
30
0
41
1
10
26.0271257792798
20
14.9909227623865
30
0
0
SPLINE
5
EA
100
AcDbEntity
8
1
62
256
6
ByLayer
370
18
48
1
60
0
100
AcDbSpline
70
4
71
3
72
14
73
10
40
0
40
0
40
0
40
0
40
0.249999999999998
40
0.249999999999998
40
0.499999999999996
40
0.499999999999996
40
0.749999999999994
40
0.749999999999994
40
1
40
1
40
1
40
1
41
1
10
25.6151139307407
20
16.3014678332889
30
0
41
1
10
25.6365734255518
20
16.2004755539083
30
0
41
1
10
25.6562887773647
20
16.098859439707
30
0
41
1
10
25.694097905592
20
15.8950472157429
30
0
41
1
10
25.7121469669502
20
15.7928190502491
30
0
41
1
10
25.7472441871745
20
15.5880927027453
30
0
41
1
10
25.7642807682042
20
15.485592523291
30
0
41
1
10
25.7976960072878
20
15.2804161212579
30
0
41
1
10
25.8140706345094
20
15.177738820133
30
0
41
1
10
25.8302153477877
20
15.075
30
0
0
SPLINE
5
EB
100
AcDbEntity
8
1
62
256
6
ByLayer
370
18
48
1
60
0
100
AcDbSpline
70
4
71
3
72
49
73
45
40
0
40
0
40
0
40
0
40
0.0624999999999886
40
0.0624999999999886
40
0.124999999999977
40
0.124999999999977
40
0.187499999999966
40
0.187499999999966
40
0.203124999999956
40
0.203124999999956
40
0.218749999999945
40
0.24999999999994
40
0.24999999999994
40
0.312499999999945
40
0.312499999999945
40
0.374999999999951
40
0.374999999999951
40
0.406249999999955
40
0.406249999999955
40
0.43749999999996
40
0.43749999999996
40
0.49999999999997
40
0.49999999999997
40
0.56249999999998
40
0.56249999999998
40
0.578124999999982
40
0.578124999999982
40
0.593749999999984
40
0.593749999999984
40
0.624999999999985
40
0.624999999999985
40
0.749999999999988
40
0.749999999999988
40
0.781249999999987
40
0.781249999999987
40
0.812499999999986
40
0.812499999999986
40
0.874999999999989
40
0.874999999999989
40
0.937499999999992
40
0.937499999999992
40
0.968749999999996
40
0.968749999999996
40
1
40
1
40
1
40
1
41
1
10
21.1079675788577
20
12.4
30
0
41
1
10
21.0366610450946
20
12.4
30
0
41
1
10
20.9660176766728
20
12.3952516556755
30
0
41
1
10
20.8261558937774
20
12.3765658228624
30
0
41
1
10
20.7569383456381
20
12.3626217003399
30
0
41
1
10
20.6203495892205
20
12.3255283665439
30
0
41
1
10
20.5529780248553
20
12.3023741289656
30
0
41
1
10
20.4703763675725
20
12.2675826336426
30
0
41
1
10
20.4539123357865
20
12.2603197198371
30
0
41
1
10
20.4213281066402
20
12.2452848094154
30
0
41
1
10
20.3729472412502
20
12.221963893632
30
0
41
1
10
20.3260904397695
20
12.1963965848198
30
0
41
1
10
20.2345212182052
20
12.1424278699292
30
0
41
1
10
20.1763326697011
20
12.1026653737433
30
0
41
1
10
20.0663364447474
20
12.0165053474445
30
0
41
1
10
20.0145313430155
20
11.9701043031217
30
0
41
1
10
19.942128040419
20
11.8963598365146
30
0
41
1
10
19.9188359670718
20
11.8710333382091
30
0
41
1
10
19.874591247384
20
11.8197692026456
30
0
41
1
10
19.8535759180887
20
11.7937744018688
30
0
41
1
10
19.7937926414869
20
11.715034554349
30
0
41
1
10
19.7582937588072
20
11.6615336592322
30
0
41
1
10
19.6955533288527
20
11.5542848619073
30
0
41
1
10
19.6683126708215
20
11.5005353022351
30
0
41
1
10
19.6390051188346
20
11.4343177742956
30
0
41
1
10
19.6333802113985
20
11.421122889354
30
0
41
1
10
19.6225908339032
20
11.3948592047689
30
0
41
1
10
19.6174248229775
20
11.3817846365442
30
0
41
1
10
19.6026810983529
20
11.3430256838418
30
0
41
1
10
19.5938244408328
20
11.3177285817578
30
0
41
1
10
19.5538722073028
20
11.1943916896446
30
0
41
1
10
19.5357148987746
20
11.105902504813
30
0
41
1
10
19.5221968540313
20
11.013725022666
30
0
41
1
10
19.5199547722356
20
10.9961937076961
30
0
41
1
10
19.5162193655165
20
10.9631388067274
30
0
41
1
10
19.5147393528683
20
10.9477449136722
30
0
41
1
10
19.5111580738464
20
10.9049683910775
30
0
41
1
10
19.5099003166851
20
10.8809891124012
30
0
41
1
10
19.5084039211075
20
10.8421226252767
30
0
41
1
10
19.5081662476804
20
10.8272301219584
30
0
41
1
10
19.5080028548179
20
10.8118036656525
30
0
41
1
10
19.5079841894966
20
10.8078149563844
30
0
41
1
10
19.5079665980117
20
10.8021865650186
30
0
41
1
10
19.5079676159193
20
10.8005555765421
30
0
41
1
10
19.5079675833283
20
10.8001196085998
30
0
0
SPLINE
5
EC
100
AcDbEntity
8
1
62
256
6
ByLayer
370
18
48
1
60
0
100
AcDbSpline
70
4
71
3
72
37
73
33
40
0
40
0
40
0
40
0
40
0.125000000000027
40
0.125000000000027
40
0.250000000000053
40
0.250000000000053
40
0.37500000000008
40
0.37500000000008
40
0.437500000000105
40
0.437500000000105
40
0.500000000000129
40
0.500000000000129
40
0.562500000000154
40
0.562500000000154
40
0.625000000000178
40
0.625000000000178
40
0.687500000000203
40
0.687500000000203
40
0.718750000000211
40
0.718750000000211
40
0.750000000000218
40
0.750000000000218
40
0.81250000000016
40
0.81250000000016
40
0.843750000000135
40
0.843750000000135
40
0.87500000000011
40
0.906250000000085
40
0.906250000000085
40
0.937500000000061
40
0.937500000000061
40
1
40
1
40
1
40
1
41
1
10
9.95126757885768
20
4.42500000000001
30
0
41
1
10
9.95126757885771
20
4.38855915125961
30
0
41
1
10
9.95269279243368
20
4.3520815555996
30
0
41
1
10
9.95846730300616
20
4.27945289977507
30
0
41
1
10
9.96282190846361
20
4.24322126672175
30
0
41
1
10
9.97470234576861
20
4.17142044783634
30
0
41
1
10
9.98224192061795
20
4.13575035143811
30
0
41
1
10
9.99628816746844
20
4.08314856749348
30
0
41
1
10
10.001428775853
20
4.06576004335474
30
0
41
1
10
10.0127437917754
20
4.03131360005059
30
0
41
1
10
10.0189191082058
20
4.0142587801781
30
0
41
1
10
10.0323742616869
20
3.98076979481152
30
0
41
1
10
10.0396612168549
20
3.96430767645421
30
0
41
1
10
10.055564003273
20
3.93206174414286
30
0
41
1
10
10.0642051096388
20
3.9162438654032
30
0
41
1
10
10.0828329777417
20
3.8859413353253
30
0
41
1
10
10.0928396100797
20
3.87140060544439
30
0
41
1
10
10.109143757385
20
3.85074676515998
30
0
41
1
10
10.1147954240346
20
3.84405619463226
30
0
41
1
10
10.1265979560343
20
3.83112462188188
30
0
41
1
10
10.132779955872
20
3.82485655870161
30
0
41
1
10
10.1518851018806
20
3.80714017879799
30
0
41
1
10
10.1653876365583
20
3.79671497116331
30
0
41
1
10
10.1870689652934
20
3.78371143879866
30
0
41
1
10
10.1945940453179
20
3.77979663212432
30
0
41
1
10
10.2098446095861
20
3.7731406080805
30
0
41
1
10
10.2252909056517
20
3.76763818925389
30
0
41
1
10
10.2411363642202
20
3.76453721018004
30
0
41
1
10
10.2571895432921
20
3.7627063920344
30
0
41
1
10
10.2652479815453
20
3.76244496970179
30
0
41
1
10
10.288932810844
20
3.76354049157737
30
0
41
1
10
10.3043082486897
20
3.76673321703387
30
0
41
1
10
10.3193109365589
20
3.77212924142364
30
0
0
SPLINE
5
ED
100
AcDbEntity
8
1
62
256
6
ByLayer
370
18
48
1
60
0
100
AcDbSpline
70
4
71
3
72
35
73
31
40
0
40
0
40
0
40
0
40
0.124999999999979
40
0.124999999999979
40
0.249999999999958
40
0.249999999999958
40
0.374999999999937
40
0.374999999999937
40
0.437499999999891
40
0.437499999999891
40
0.499999999999846
40
0.499999999999846
40
0.624999999999817
40
0.624999999999817
40
0.687499999999825
40
0.687499999999825
40
0.718749999999837
40
0.718749999999837
40
0.74999999999985
40
0.74999999999985
40
0.812499999999884
40
0.812499999999884
40
0.843749999999905
40
0.843749999999905
40
0.874999999999925
40
0.906249999999946
40
0.906249999999946
40
0.937499999999967
40
0.937499999999967
40
1
40
1
40
1
40
1
41
1
10
11.3546175788577
20
1.99432649919822
30
0
41
1
10
11.3230772295706
20
2.01253632834951
30
0
41
1
10
11.2921831527376
20
2.03201871072034
30
0
41
1
10
11.2321791955767
20
2.07332860387876
30
0
41
1
10
11.2030591854606
20
2.09515197530371
30
0
41
1
10
11.1467682215717
20
2.14137564616948
30
0
41
1
10
11.1196845176971
20
2.16570592606826
30
0
41
1
10
11.0811899883867
20
2.20412365847878
30
0
41
1
10
11.0687042516216
20
2.21726157557401
30
0
41
1
10
11.0445178023306
20
2.24428783301735
30
0
41
1
10
11.0328186258134
20
2.25817735247537
30
0
41
1
10
10.9993393257999
20
2.30084656771868
30
0
41
1
10
10.978983582928
20
2.33080866047979
30
0
41
1
10
10.9535073986186
20
2.37789939322772
30
0
41
1
10
10.9458246934894
20
2.39404610971596
30
0
41
1
10
10.9360507586853
20
2.41867676676296
30
0
41
1
10
10.9330830352456
20
2.42695690431796
30
0
41
1
10
10.9278072746541
20
2.44367343289432
30
0
41
1
10
10.925493745561
20
2.45213930730577
30
0
41
1
10
10.9197679767506
20
2.47747652104559
30
0
41
1
10
10.9175287113519
20
2.49433826620333
30
0
41
1
10
10.917155908337
20
2.51955009076343
30
0
41
1
10
10.9175428656264
20
2.52800169505852
30
0
41
1
10
10.9194273459545
20
2.54448389739525
30
0
41
1
10
10.9224035239155
20
2.56056068489238
30
0
41
1
10
10.9276483385166
20
2.57578635398247
30
0
41
1
10
10.9340914036193
20
2.59055892874269
30
0
41
1
10
10.937890380678
20
2.59764335025631
30
0
41
1
10
10.9506635031599
20
2.61754336013007
30
0
41
1
10
10.9610935829989
20
2.6292286529104
30
0
41
1
10
10.9732365953931
20
2.63949677594979
30
0
0
SPLINE
5
EE
100
AcDbEntity
8
1
62
256
6
ByLayer
370
18
48
1
60
0
100
AcDbSpline
70
4
71
3
72
50
73
46
40
0
40
0
40
0
40
0
40
0.0312499999999839
40
0.0312499999999839
40
0.0624999999999678
40
0.0624999999999678
40
0.0937499999999518
40
0.0937499999999518
40
0.124999999999936
40
0.124999999999936
40
0.15624999999992
40
0.15624999999992
40
0.187499999999903
40
0.187499999999903
40
0.218749999999887
40
0.218749999999887
40
0.249999999999871
40
0.249999999999871
40
0.31249999999988
40
0.31249999999988
40
0.374999999999888
40
0.374999999999888
40
0.437499999999897
40
0.437499999999897
40
0.499999999999905
40
0.499999999999905
40
0.624999999999922
40
0.624999999999922
40
0.687499999999933
40
0.687499999999933
40
0.749999999999944
40
0.749999999999944
40
0.812499999999955
40
0.812499999999955
40
0.843749999999962
40
0.843749999999962
40
0.87499999999997
40
0.87499999999997
40
0.906249999999977
40
0.906249999999977
40
0.937499999999985
40
0.937499999999985
40
0.968749999999992
40
0.968749999999992
40
1
40
1
40
1
40
1
41
1
10
10.3393109365589
20
3.77350103823448
30
0
41
1
10
10.3529788873809
20
3.77443852080194
30
0
41
1
10
10.3666735846415
20
3.7739148806408
30
0
41
1
10
10.3941149016213
20
3.77053341093827
30
0
41
1
10
10.4078478580987
20
3.76766243987919
30
0
41
1
10
10.4349312099281
20
3.76008980234252
30
0
41
1
10
10.4483783495692
20
3.75536268126169
30
0
41
1
10
10.4748128620199
20
3.74446420987479
30
0
41
1
10
10.4878227644789
20
3.7382893156373
30
0
41
1
10
10.5135042981908
20
3.72470863089913
30
0
41
1
10
10.5261508147335
20
3.71731214512263
30
0
41
1
10
10.5509611671209
20
3.70156875264527
30
0
41
1
10
10.5631506774452
20
3.69320751156877
30
0
41
1
10
10.5871579853918
20
3.6756147944111
30
0
41
1
10
10.5989794148384
20
3.66637748804712
30
0
41
1
10
10.6221386109027
20
3.64723764324558
30
0
41
1
10
10.6334976230793
20
3.63731984284848
30
0
41
1
10
10.6669812911106
20
3.60661013641041
30
0
41
1
10
10.6885695794959
20
3.58480506863921
30
0
41
1
10
10.7299856163856
20
3.53937030752925
30
0
41
1
10
10.749848838495
20
3.51571367197934
30
0
41
1
10
10.7880475994718
20
3.46666604536767
30
0
41
1
10
10.8063397639499
20
3.44131855884194
30
0
41
1
10
10.8411126978035
20
3.38947010111093
30
0
41
1
10
10.8576420422001
20
3.36290541389582
30
0
41
1
10
10.9046494268408
20
3.28134891163026
30
0
41
1
10
10.9320560119412
20
3.22548387292125
30
0
41
1
10
10.9669236047856
20
3.13928047522489
30
0
41
1
10
10.97751214734
20
3.11004509042837
30
0
41
1
10
10.9960013967105
20
3.05167157068345
30
0
41
1
10
11.0039542923881
20
3.02243107975767
30
0
41
1
10
11.0169393902508
20
2.96377676933017
30
0
41
1
10
11.0219807715169
20
2.9343640170504
30
0
41
1
10
11.026816349157
20
2.89003315779792
30
0
41
1
10
11.0279690577686
20
2.87517558728331
30
0
41
1
10
11.0291879990699
20
2.84579477237779
30
0
41
1
10
11.0292618764624
20
2.8312326229358
30
0
41
1
10
11.0281858887306
20
2.80238680075013
30
0
41
1
10
11.0270375256737
20
2.78810283459339
30
0
41
1
10
11.0232815435845
20
2.75985194649004
30
0
41
1
10
11.0206636874187
20
2.74583337891193
30
0
41
1
10
11.0136414869944
20
2.71840678431241
30
0
41
1
10
11.0092830999659
20
2.70515569718944
30
0
41
1
10
10.9985254727176
20
2.67974932156906
30
0
41
1
10
10.9921319965005
20
2.66759092290391
30
0
41
1
10
10.9844246062806
20
2.65613138562065
30
0
0
SPLINE
5
EF
100
AcDbEntity
8
1
62
256
6
ByLayer
370
18
48
1
60
0
100
AcDbSpline
70
4
71
3
72
8
73
4
40
0
40
0
40
0
40
0
40
1
40
1
40
1
40
1
41
1
10
10.3193109365589
20
3.77212924142364
30
0
41
1
10
10.3259773599545
20
3.77258649034132
30
0
41
1
10
10.3326440247207
20
3.7730437558146
30
0
41
1
10
10.3393109365589
20
3.77350103823448
30
0
0
SPLINE
5
F0
100
AcDbEntity
8
1
62
256
6
ByLayer
370
18
48
1
60
0
100
AcDbSpline
70
4
71
3
72
8
73
4
40
0
40
0
40
0
40
0
40
1
40
1
40
1
40
1
41
1
10
10.9732365953931
20
2.63949677594979
30
0
41
1
10
10.9769657962695
20
2.64504144350394
30
0
41
1
10
10.9806951321688
20
2.65058631181336
30
0
41
1
10
10.9844246062802
20
2.65613138562006
30
0
0
SPLINE
5
F1
100
AcDbEntity
8
1
62
256
6
ByLayer
370
18
48
1
60
0
100
AcDbSpline
70
4
71
3
72
35
73
31
40
0
40
0
40
0
40
0
40
0.12500000000002
40
0.12500000000002
40
0.250000000000039
40
0.250000000000039
40
0.375000000000059
40
0.375000000000059
40
0.437500000000069
40
0.437500000000069
40
0.50000000000008
40
0.50000000000008
40
0.625000000000101
40
0.625000000000101
40
0.687500000000112
40
0.687500000000112
40
0.718750000000069
40
0.718750000000069
40
0.750000000000026
40
0.750000000000026
40
0.812500000000026
40
0.812500000000026
40
0.843750000000022
40
0.843750000000022
40
0.875000000000018
40
0.906250000000013
40
0.906250000000013
40
0.937500000000009
40
0.937500000000009
40
1
40
1
40
1
40
1
41
1
10
14.1613175788577
20
1.99432649919825
30
0
41
1
10
14.1297772295706
20
1.97611667004696
30
0
41
1
10
14.0974579530947
20
1.95910280586855
30
0
41
1
10
14.0316805576114
20
1.92779280121888
30
0
41
1
10
13.9982209585031
20
1.91348581841231
30
0
41
1
10
13.9300446033327
20
1.88784824911389
30
0
41
1
10
13.8954321109219
20
1.87655821347931
30
0
41
1
10
13.8429141140434
20
1.86242983939508
30
0
41
1
10
13.8252934757035
20
1.85818583271905
30
0
41
1
10
13.7897948255429
20
1.85075288192746
30
0
41
1
10
13.7719165605874
20
1.84756585758925
30
0
41
1
10
13.7182242862203
20
1.8399065408982
30
0
41
1
10
13.6820984813027
20
1.83725899683884
30
0
41
1
10
13.6285786183055
20
1.83874134040937
30
0
41
1
10
13.6107537990744
20
1.84016128084175
30
0
41
1
10
13.5845360569578
20
1.84401213353002
30
0
41
1
10
13.5758813857683
20
1.84558207841729
30
0
41
1
10
13.5587665670624
20
1.84937140000898
30
0
41
1
10
13.5502781402104
20
1.85160076224773
30
0
41
1
10
13.5254725850453
20
1.85931070787154
30
0
41
1
10
13.5097502526873
20
1.86580231972945
30
0
41
1
10
13.487729770635
20
1.87808537512791
30
0
41
1
10
13.4806039452574
20
1.88264629211838
30
0
41
1
10
13.4672721794875
20
1.89251940112376
30
0
41
1
10
13.4548373620843
20
1.90313524059269
30
0
41
1
10
13.4442739531633
20
1.91529021782046
30
0
41
1
10
13.4347020606929
20
1.9282563632577
30
0
41
1
10
13.4304662602203
20
1.93508858465575
30
0
41
1
10
13.419618907375
20
1.95610043814762
30
0
41
1
10
13.4147141868961
20
1.9709757986418
30
0
41
1
10
13.4118932376919
20
1.98662601737342
30
0
0
SPLINE
5
F2
100
AcDbEntity
8
1
62
256
6
ByLayer
370
18
48
1
60
0
100
AcDbSpline
70
4
71
3
72
52
73
48
40
0
40
0
40
0
40
0
40
0.0156249999999927
40
0.0156249999999927
40
0.0312499999999853
40
0.0312499999999853
40
0.0625000000000018
40
0.0625000000000018
40
0.0937500000000181
40
0.0937500000000181
40
0.125000000000034
40
0.125000000000034
40
0.187500000000067
40
0.187500000000067
40
0.218750000000058
40
0.218750000000058
40
0.250000000000049
40
0.250000000000049
40
0.312500000000033
40
0.312500000000033
40
0.375000000000017
40
0.375000000000017
40
0.437500000000001
40
0.437500000000001
40
0.499999999999985
40
0.499999999999985
40
0.562499999999968
40
0.562499999999968
40
0.624999999999952
40
0.624999999999952
40
0.687499999999936
40
0.687499999999936
40
0.74999999999992
40
0.74999999999992
40
0.812499999999904
40
0.812499999999904
40
0.84374999999992
40
0.84374999999992
40
0.874999999999936
40
0.874999999999936
40
0.906249999999952
40
0.906249999999952
40
0.937499999999968
40
0.937499999999968
40
0.968749999999984
40
0.968749999999984
40
1
40
1
40
1
40
1
41
1
10
13.4030812485786
20
2.00463242385521
30
0
41
1
10
13.4000666048828
20
2.01079254265315
30
0
41
1
10
13.3967224273547
20
2.01678758126352
30
0
41
1
10
13.3894428189553
20
2.02848266457733
30
0
41
1
10
13.3854977014907
20
2.03419274398806
30
0
41
1
10
13.3730035929496
20
2.05073456038176
30
0
41
1
10
13.3637670236647
20
2.06104866576791
30
0
41
1
10
13.3438500909804
20
2.08055579373499
30
0
41
1
10
13.3331664766585
20
2.08974624472847
30
0
41
1
10
13.3105664638182
20
2.10718696350557
30
0
41
1
10
13.2986854491708
20
2.11540276608523
30
0
41
1
10
13.2619174276125
20
2.13854180731434
30
0
41
1
10
13.2356858067709
20
2.15211893995911
30
0
41
1
10
13.1949514512995
20
2.17009474621025
30
0
41
1
10
13.18112024589
20
2.17569594754698
30
0
41
1
10
13.1529938817368
20
2.1861990697299
30
0
41
1
10
13.1386844145568
20
2.19110404183672
30
0
41
1
10
13.0953654986125
20
2.20477545080061
30
0
41
1
10
13.0658899103002
20
2.21253908676775
30
0
41
1
10
13.005862252587
20
2.22573284552504
30
0
41
1
10
12.9753602650882
20
2.23114145868831
30
0
41
1
10
12.9139731683313
20
2.23971702722136
30
0
41
1
10
12.8829892403192
20
2.2429014917216
30
0
41
1
10
12.8205840244526
20
2.24714748697812
30
0
41
1
10
12.7893090309157
20
2.2482001188844
30
0
41
1
10
12.7266155602647
20
2.24819988109559
30
0
41
1
10
12.6953568209948
20
2.24714699659739
30
0
41
1
10
12.6330162522313
20
2.24290715354076
30
0
41
1
10
12.6019467413244
20
2.23971634112533
30
0
41
1
10
12.5404744379843
20
2.23112597879006
30
0
41
1
10
12.5099491698115
20
2.2257087667756
30
0
41
1
10
12.4499520772703
20
2.21251547956356
30
0
41
1
10
12.4204136116337
20
2.20473298164845
30
0
41
1
10
12.3625882233878
20
2.18646974059638
30
0
41
1
10
12.3344782908899
20
2.1760545707854
30
0
41
1
10
12.2937250990997
20
2.15806331129758
30
0
41
1
10
12.2803566916456
20
2.15165615573775
30
0
41
1
10
12.2543352035031
20
2.13801338563212
30
0
41
1
10
12.2416664654448
20
2.13077348373412
30
0
41
1
10
12.2171134162437
20
2.11531231188474
30
0
41
1
10
12.2052545272474
20
2.10710443447803
30
0
41
1
10
12.1826834463879
20
2.08967484375253
30
0
41
1
10
12.1719152847152
20
2.0804101060362
30
0
41
1
10
12.1518566600413
20
2.06072249978016
30
0
41
1
10
12.1426418164931
20
2.05038168150233
30
0
41
1
10
12.1261578070016
20
2.0284951177037
30
0
41
1
10
12.1188832215552
20
2.01695271259098
30
0
41
1
10
12.1128539091364
20
2.00463242385453
30
0
0
SPLINE
5
F3
100
AcDbEntity
8
1
62
256
6
ByLayer
370
18
48
1
60
0
100
AcDbSpline
70
4
71
3
72
8
73
4
40
0
40
0
40
0
40
0
40
1
40
1
40
1
40
1
41
1
10
12.1128539091364
20
2.00463242385453
30
0
41
1
10
12.1099164714097
20
1.99863006762794
30
0
41
1
10
12.1069791425427
20
1.99262793384526
30
0
41
1
10
12.1040419200235
20
1.98662601737342
30
0
0
SPLINE
5
F4
100
AcDbEntity
8
1
62
256
6
ByLayer
370
18
48
1
60
0
100
AcDbSpline
70
4
71
3
72
35
73
31
40
0
40
0
40
0
40
0
40
0.125000000000049
40
0.125000000000049
40
0.250000000000099
40
0.250000000000099
40
0.375000000000148
40
0.375000000000148
40
0.500000000000198
40
0.500000000000198
40
0.562500000000224
40
0.562500000000224
40
0.625000000000249
40
0.625000000000249
40
0.687500000000275
40
0.687500000000275
40
0.718750000000245
40
0.718750000000245
40
0.750000000000215
40
0.750000000000215
40
0.812500000000154
40
0.812500000000154
40
0.843750000000124
40
0.843750000000124
40
0.875000000000094
40
0.906250000000064
40
0.906250000000064
40
0.937500000000034
40
0.937500000000034
40
1
40
1
40
1
40
1
41
1
10
11.3546175788577
20
1.99432649919822
30
0
41
1
10
11.3861572195396
20
1.97611707916036
30
0
41
1
10
11.4184359693649
20
1.95912302261357
30
0
41
1
10
11.484260309281
20
1.92778949518586
30
0
41
1
10
11.5177192137688
20
1.91348479943525
30
0
41
1
10
11.5858345489366
20
1.88786844375204
30
0
41
1
10
11.6205058413902
20
1.87655354883282
30
0
41
1
10
11.6907300821502
20
1.85766968407356
30
0
41
1
10
11.726300985115
20
1.85008435892507
30
0
41
1
10
11.7800070973007
20
1.8424365341171
30
0
41
1
10
11.7979403951797
20
1.84051622771486
30
0
41
1
10
11.8338745362031
20
1.83817201283736
30
0
41
1
10
11.8518317473067
20
1.83775530797618
30
0
41
1
10
11.887323552673
20
1.83874253367176
30
0
41
1
10
11.9049080560601
20
1.84013853295102
30
0
41
1
10
11.9309671239751
20
1.84394026930349
30
0
41
1
10
11.9396001711861
20
1.84549388109551
30
0
41
1
10
11.9567404052153
20
1.84926497855571
30
0
41
1
10
11.9652554329908
20
1.85148888202414
30
0
41
1
10
11.9901071080288
20
1.85917523202241
30
0
41
1
10
12.0059083207758
20
1.86566464641848
30
0
41
1
10
12.0281084713692
20
1.87802314383737
30
0
41
1
10
12.0352367916471
20
1.88258496040177
30
0
41
1
10
12.0485143729772
20
1.89240091090426
30
0
41
1
10
12.0609207374792
20
1.90296481510313
30
0
41
1
10
12.0714962564229
20
1.91508999850305
30
0
41
1
10
12.0810936366568
20
1.92804495479371
30
0
41
1
10
12.0853690887293
20
1.93491463431653
30
0
41
1
10
12.0962859425599
20
1.95600356888008
30
0
41
1
10
12.1012125973041
20
1.97092934358918
30
0
41
1
10
12.1040419200235
20
1.98662601737342
30
0
0
SPLINE
5
F5
100
AcDbEntity
8
1
62
256
6
ByLayer
370
18
48
1
60
0
100
AcDbSpline
70
4
71
3
72
8
73
4
40
0
40
0
40
0
40
0
40
1
40
1
40
1
40
1
41
1
10
13.4118932376919
20
1.98662601737342
30
0
41
1
10
13.4089560151727
20
1.99262793384528
30
0
41
1
10
13.4060186863057
20
1.99863006762794
30
0
41
1
10
13.403081248579
20
2.00463242385453
30
0
0
SPLINE
5
F6
100
AcDbEntity
8
1
62
256
6
ByLayer
370
18
48
1
60
0
100
AcDbSpline
70
4
71
3
72
35
73
31
40
0
40
0
40
0
40
0
40
0.125000000000004
40
0.125000000000004
40
0.250000000000008
40
0.250000000000008
40
0.375000000000012
40
0.375000000000012
40
0.437500000000015
40
0.437500000000015
40
0.500000000000018
40
0.500000000000018
40
0.625000000000022
40
0.625000000000022
40
0.687500000000024
40
0.687500000000024
40
0.718750000000026
40
0.718750000000026
40
0.750000000000028
40
0.750000000000028
40
0.812500000000028
40
0.812500000000028
40
0.843750000000023
40
0.843750000000023
40
0.875000000000019
40
0.906250000000014
40
0.906250000000014
40
0.937500000000009
40
0.937500000000009
40
1
40
1
40
1
40
1
41
1
10
11.3546175788577
20
6.8556735008018
30
0
41
1
10
11.3861579281449
20
6.87388332995306
30
0
41
1
10
11.4184772046207
20
6.89089719413147
30
0
41
1
10
11.484254600104
20
6.92220719878114
30
0
41
1
10
11.5177141992123
20
6.93651418158771
30
0
41
1
10
11.5858905543827
20
6.96215175088614
30
0
41
1
10
11.6205030467935
20
6.97344178652071
30
0
41
1
10
11.6730210436719
20
6.98757016060495
30
0
41
1
10
11.6906416820118
20
6.99181416728095
30
0
41
1
10
11.7261403321725
20
6.99924711807253
30
0
41
1
10
11.744018597128
20
7.00243414241078
30
0
41
1
10
11.7977108714951
20
7.01009345910182
30
0
41
1
10
11.8338366764126
20
7.01274100316115
30
0
41
1
10
11.88735653941
20
7.01125865959065
30
0
41
1
10
11.9051813586411
20
7.00983871915827
30
0
41
1
10
11.9313991007577
20
7.00598786646998
30
0
41
1
10
11.940053771947
20
7.00441792158273
30
0
41
1
10
11.957168590653
20
7.00062859999102
30
0
41
1
10
11.9656570175051
20
6.9983992377523
30
0
41
1
10
11.9904625726701
20
6.99068929212845
30
0
41
1
10
12.0061849050281
20
6.98419768027054
30
0
41
1
10
12.0282053870804
20
6.97191462487208
30
0
41
1
10
12.035331212458
20
6.96735370788167
30
0
41
1
10
12.0486629782279
20
6.95748059887626
30
0
41
1
10
12.0610977956311
20
6.94686475940733
30
0
41
1
10
12.0716612045522
20
6.93470978217957
30
0
41
1
10
12.0812330970225
20
6.92174363674229
30
0
41
1
10
12.085468897495
20
6.91491141534425
30
0
41
1
10
12.0963162503403
20
6.89389956185241
30
0
41
1
10
12.1012209708193
20
6.87902420135819
30
0
41
1
10
12.1040419200235
20
6.8633739826266
30
0
0
SPLINE
5
F7
100
AcDbEntity
8
1
62
256
6
ByLayer
370
18
48
1
60
0
100
AcDbSpline
70
4
71
3
72
52
73
48
40
0
40
0
40
0
40
0
40
0.0156250000000231
40
0.0156250000000231
40
0.0312500000000463
40
0.0312500000000463
40
0.0625000000000583
40
0.0625000000000583
40
0.0937500000000703
40
0.0937500000000703
40
0.125000000000082
40
0.125000000000082
40
0.187500000000111
40
0.187500000000111
40
0.218750000000101
40
0.218750000000101
40
0.25000000000009
40
0.25000000000009
40
0.31250000000007
40
0.31250000000007
40
0.375000000000051
40
0.375000000000051
40
0.437500000000031
40
0.437500000000031
40
0.500000000000012
40
0.500000000000012
40
0.562499999999992
40
0.562499999999992
40
0.624999999999973
40
0.624999999999973
40
0.687499999999953
40
0.687499999999953
40
0.749999999999934
40
0.749999999999934
40
0.812499999999914
40
0.812499999999914
40
0.843749999999929
40
0.843749999999929
40
0.874999999999943
40
0.874999999999943
40
0.906249999999957
40
0.906249999999957
40
0.937499999999971
40
0.937499999999971
40
0.968749999999986
40
0.968749999999986
40
1
40
1
40
1
40
1
41
1
10
12.1128539091367
20
6.84536757614481
30
0
41
1
10
12.1158685528326
20
6.83920745734687
30
0
41
1
10
12.1192127303607
20
6.83321241873651
30
0
41
1
10
12.12649233876
20
6.82151733542267
30
0
41
1
10
12.1304374562247
20
6.81580725601196
30
0
41
1
10
12.1429315647658
20
6.79926543961827
30
0
41
1
10
12.1521681340508
20
6.78895133423211
30
0
41
1
10
12.172085066735
20
6.76944420626501
30
0
41
1
10
12.1827686810569
20
6.76025375527152
30
0
41
1
10
12.2053686938972
20
6.74281303649443
30
0
41
1
10
12.2172497085446
20
6.73459723391477
30
0
41
1
10
12.2540177301029
20
6.71145819268565
30
0
41
1
10
12.2802493509445
20
6.69788106004091
30
0
41
1
10
12.3209837064159
20
6.67990525378974
30
0
41
1
10
12.3348149118255
20
6.67430405245304
30
0
41
1
10
12.3629412759787
20
6.66380093027013
30
0
41
1
10
12.3772507431587
20
6.6588959581633
30
0
41
1
10
12.4205696591029
20
6.64522454919941
30
0
41
1
10
12.4500452474152
20
6.63746091323227
30
0
41
1
10
12.5100729051284
20
6.62426715447498
30
0
41
1
10
12.5405748926272
20
6.61885854131171
30
0
41
1
10
12.6019619893841
20
6.61028297277866
30
0
41
1
10
12.6329459173962
20
6.60709850827843
30
0
41
1
10
12.6953511332627
20
6.6028525130219
30
0
41
1
10
12.7266261267997
20
6.6017998811156
30
0
41
1
10
12.7893195974508
20
6.60180011890444
30
0
41
1
10
12.8205783367206
20
6.6028530034026
30
0
41
1
10
12.8829189054841
20
6.60709284645927
30
0
41
1
10
12.9139884163909
20
6.61028365887469
30
0
41
1
10
12.975460719731
20
6.61887402120996
30
0
41
1
10
13.0059859879038
20
6.62429123322443
30
0
41
1
10
13.0659830804451
20
6.63748452043646
30
0
41
1
10
13.0955215460817
20
6.64526701835158
30
0
41
1
10
13.1533469343277
20
6.66353025940364
30
0
41
1
10
13.1814568668254
20
6.67394542921463
30
0
41
1
10
13.2222100586157
20
6.69193668870244
30
0
41
1
10
13.2355784660697
20
6.69834384426224
30
0
41
1
10
13.2615999542123
20
6.71198661436787
30
0
41
1
10
13.2742686922706
20
6.71922651626591
30
0
41
1
10
13.2988217414718
20
6.73468768811526
30
0
41
1
10
13.3106806304679
20
6.74289556552199
30
0
41
1
10
13.3332517113275
20
6.76032515624749
30
0
41
1
10
13.3440198730002
20
6.7695898939638
30
0
41
1
10
13.364078497674
20
6.78927750021987
30
0
41
1
10
13.3732933412223
20
6.79961831849766
30
0
41
1
10
13.3897773507138
20
6.82150488229632
30
0
41
1
10
13.3970519361602
20
6.83304728740904
30
0
41
1
10
13.403081248579
20
6.84536757614546
30
0
0
SPLINE
5
F8
100
AcDbEntity
8
1
62
256
6
ByLayer
370
18
48
1
60
0
100
AcDbSpline
70
4
71
3
72
8
73
4
40
0
40
0
40
0
40
0
40
1
40
1
40
1
40
1
41
1
10
13.403081248579
20
6.84536757614549
30
0
41
1
10
13.4060186863057
20
6.85136993237205
30
0
41
1
10
13.4089560151727
20
6.85737206615474
30
0
41
1
10
13.4118932376919
20
6.8633739826266
30
0
0
SPLINE
5
F9
100
AcDbEntity
8
1
62
256
6
ByLayer
370
18
48
1
60
0
100
AcDbSpline
70
4
71
3
72
35
73
31
40
0
40
0
40
0
40
0
40
0.124999999999992
40
0.124999999999992
40
0.249999999999983
40
0.249999999999983
40
0.374999999999975
40
0.374999999999975
40
0.499999999999967
40
0.499999999999967
40
0.562499999999915
40
0.562499999999915
40
0.624999999999863
40
0.624999999999863
40
0.687499999999811
40
0.687499999999811
40
0.718749999999789
40
0.718749999999789
40
0.749999999999766
40
0.749999999999766
40
0.812499999999814
40
0.812499999999814
40
0.84374999999984
40
0.84374999999984
40
0.874999999999867
40
0.906249999999894
40
0.906249999999894
40
0.93749999999992
40
0.93749999999992
40
1
40
1
40
1
40
1
41
1
10
14.1613175788577
20
6.85567350080183
30
0
41
1
10
14.1297779381757
20
6.87388292083966
30
0
41
1
10
14.0974991883505
20
6.89087697738645
30
0
41
1
10
14.0316748484344
20
6.92221050481416
30
0
41
1
10
13.9982159439465
20
6.93651520056477
30
0
41
1
10
13.9301006087788
20
6.96213155624798
30
0
41
1
10
13.8954293163253
20
6.97344645116718
30
0
41
1
10
13.8252050755651
20
6.99233031592647
30
0
41
1
10
13.7896341726004
20
6.99991564107498
30
0
41
1
10
13.7359280604146
20
7.0075634658829
30
0
41
1
10
13.7179947625356
20
7.00948377228517
30
0
41
1
10
13.6820606215123
20
7.01182798716266
30
0
41
1
10
13.6641034104086
20
7.01224469202384
30
0
41
1
10
13.6286116050424
20
7.01125746632826
30
0
41
1
10
13.6110271016553
20
7.00986146704901
30
0
41
1
10
13.5849680337401
20
7.00605973069653
30
0
41
1
10
13.5763349865293
20
7.00450611890452
30
0
41
1
10
13.5591947525001
20
7.00073502144431
30
0
41
1
10
13.5506797247245
20
6.99851111797585
30
0
41
1
10
13.5258280496865
20
6.99082476797758
30
0
41
1
10
13.5100268369396
20
6.98433535358151
30
0
41
1
10
13.4878266863462
20
6.97197685616266
30
0
41
1
10
13.4806983660682
20
6.96741503959822
30
0
41
1
10
13.4674207847381
20
6.95759908909577
30
0
41
1
10
13.4550144202362
20
6.94703518489689
30
0
41
1
10
13.4444389012925
20
6.93491000149695
30
0
41
1
10
13.4348415210586
20
6.92195504520632
30
0
41
1
10
13.4305660689861
20
6.9150853656835
30
0
41
1
10
13.4196492151555
20
6.89399643111994
30
0
41
1
10
13.4147225604113
20
6.87907065641085
30
0
41
1
10
13.4118932376919
20
6.8633739826266
30
0
0
SPLINE
5
FA
100
AcDbEntity
8
1
62
256
6
ByLayer
370
18
48
1
60
0
100
AcDbSpline
70
4
71
3
72
8
73
4
40
0
40
0
40
0
40
0
40
1
40
1
40
1
40
1
41
1
10
12.1040419200235
20
6.8633739826266
30
0
41
1
10
12.1069791425427
20
6.85737206615474
30
0
41
1
10
12.1099164714097
20
6.85136993237205
30
0
41
1
10
12.1128539091364
20
6.84536757614546
30
0
0
SPLINE
5
FB
100
AcDbEntity
8
1
62
256
6
ByLayer
370
18
48
1
60
0
100
AcDbSpline
70
4
71
3
72
35
73
31
40
0
40
0
40
0
40
0
40
0.124999999999974
40
0.124999999999974
40
0.249999999999949
40
0.249999999999949
40
0.374999999999923
40
0.374999999999923
40
0.499999999999898
40
0.499999999999898
40
0.562499999999874
40
0.562499999999874
40
0.624999999999851
40
0.624999999999851
40
0.687499999999828
40
0.687499999999828
40
0.718749999999843
40
0.718749999999843
40
0.749999999999859
40
0.749999999999859
40
0.812499999999897
40
0.812499999999897
40
0.843749999999916
40
0.843749999999916
40
0.874999999999935
40
0.906249999999954
40
0.906249999999954
40
0.937499999999973
40
0.937499999999973
40
1
40
1
40
1
40
1
41
1
10
15.5646675788577
20
4.42500000000001
30
0
41
1
10
15.5646675788577
20
4.46141884007571
30
0
41
1
10
15.5632454886279
20
4.49787008570016
30
0
41
1
10
15.5574689494124
20
4.57054239996867
30
0
41
1
10
15.5531277270819
20
4.60667100911331
30
0
41
1
10
15.5412544742721
20
4.6784687975975
30
0
41
1
10
15.5337178144866
20
4.71415246510392
30
0
41
1
10
15.5149596007097
20
4.78441037394325
30
0
41
1
10
15.5037432335019
20
4.8190083421205
30
0
41
1
10
15.4835133879763
20
4.86934311201586
30
0
41
1
10
15.4762097731642
20
4.88583395675386
30
0
41
1
10
15.4602728522883
20
4.91812594318202
30
0
41
1
10
15.4516551237323
20
4.93388569660942
30
0
41
1
10
15.4330542585175
20
4.96412888883498
30
0
41
1
10
15.4230530359844
20
4.97865951584151
30
0
41
1
10
15.4067311017672
20
4.99932646247876
30
0
41
1
10
15.4010691108822
20
5.00602609477949
30
0
41
1
10
15.389233127667
20
5.01898442414537
30
0
41
1
10
15.3830496568799
20
5.02524670277873
30
0
41
1
10
15.363967245
20
5.04292570968911
30
0
41
1
10
15.3504466409039
20
5.05336525414052
30
0
41
1
10
15.3286437928897
20
5.06641189981289
30
0
41
1
10
15.3211289837186
20
5.07030429797766
30
0
41
1
10
15.305989330556
20
5.07689504545917
30
0
41
1
10
15.2906375389059
20
5.08235732018696
30
0
41
1
10
15.2748490625841
20
5.08545339655043
30
0
41
1
10
15.2588310512145
20
5.08728749349746
30
0
41
1
10
15.2507440081957
20
5.08755530384349
30
0
41
1
10
15.2270220282096
20
5.08646510930842
30
0
41
1
10
15.2116326007682
20
5.08326883011807
30
0
41
1
10
15.1966242211565
20
5.07787075857638
30
0
0
SPLINE
5
FC
100
AcDbEntity
8
1
62
256
6
ByLayer
370
18
48
1
60
0
100
AcDbSpline
70
4
71
3
72
52
73
48
40
0
40
0
40
0
40
0
40
0.0156250000000026
40
0.0156250000000026
40
0.0312500000000051
40
0.0312500000000051
40
0.0625000000000103
40
0.0625000000000103
40
0.0937500000000155
40
0.0937500000000155
40
0.125000000000021
40
0.125000000000021
40
0.187500000000027
40
0.187500000000027
40
0.218750000000027
40
0.218750000000027
40
0.250000000000027
40
0.250000000000027
40
0.312500000000024
40
0.312500000000024
40
0.37500000000002
40
0.37500000000002
40
0.437500000000017
40
0.437500000000017
40
0.500000000000014
40
0.500000000000014
40
0.562500000000011
40
0.562500000000011
40
0.625000000000008
40
0.625000000000008
40
0.687500000000004
40
0.687500000000004
40
0.750000000000001
40
0.750000000000001
40
0.812499999999998
40
0.812499999999998
40
0.843749999999998
40
0.843749999999998
40
0.874999999999999
40
0.874999999999999
40
0.906249999999999
40
0.906249999999999
40
0.937499999999999
40
0.937499999999999
40
0.96875
40
0.96875
40
1
40
1
40
1
40
1
41
1
10
14.5315105514348
20
6.19386861437934
30
0
41
1
10
14.5276830539133
20
6.18817779695644
30
0
41
1
10
14.5241632869441
20
6.18228413495714
30
0
41
1
10
14.5176748518947
20
6.1701322674968
30
0
41
1
10
14.5147023367997
20
6.16386065584615
30
0
41
1
10
14.5066237578486
20
6.14476953225511
30
0
41
1
10
14.5023097652093
20
6.1316133759174
30
0
41
1
10
14.4953745631771
20
6.10461124226381
30
0
41
1
10
14.4927572063055
20
6.09076373536007
30
0
41
1
10
14.4889531072044
20
6.062471190726
30
0
41
1
10
14.4877785207816
20
6.0480740289288
30
0
41
1
10
14.4861235340371
20
6.00466246759777
30
0
41
1
10
14.487481202677
20
5.97515665124413
30
0
41
1
10
14.4922808755456
20
5.93089176147353
30
0
41
1
10
14.4943456956011
20
5.91611298555557
30
0
41
1
10
14.4993129070482
20
5.88650327859133
30
0
41
1
10
14.5022198101889
20
5.87165843044542
30
0
41
1
10
14.5120394806927
20
5.82730744429145
30
0
41
1
10
14.5200537688757
20
5.7978990180379
30
0
41
1
10
14.5386414674771
20
5.73931666214992
30
0
41
1
10
14.5492084648279
20
5.7101968595284
30
0
41
1
10
14.5724753530048
20
5.65274629000587
30
0
41
1
10
14.5852094898561
20
5.62432118898829
30
0
41
1
10
14.612734958033
20
5.56815368909088
30
0
41
1
10
14.6274608488298
20
5.54054243423144
30
0
41
1
10
14.6588077900865
20
5.4862484148907
30
0
41
1
10
14.675348984444
20
5.45970399484182
30
0
41
1
10
14.7101910806209
20
5.40783540013464
30
0
41
1
10
14.7284891606848
20
5.38252382061381
30
0
41
1
10
14.7666647843649
20
5.33358242545981
30
0
41
1
10
14.7866188616735
20
5.30985537377208
30
0
41
1
10
14.8280431298291
20
5.2644930110842
30
0
41
1
10
14.8495522035469
20
5.24280319841162
30
0
41
1
10
14.8942813283764
20
5.20185656373297
30
0
41
1
10
14.9173560962663
20
5.18272023299667
30
0
41
1
10
14.953313579924
20
5.15642256336491
30
0
41
1
10
14.9655465431318
20
5.14804876068149
30
0
41
1
10
14.9903722726926
20
5.13233487595849
30
0
41
1
10
15.0029765806863
20
5.12498337791521
30
0
41
1
10
15.0286428728806
20
5.1114503994913
30
0
41
1
10
15.0416805477242
20
5.10528423906325
30
0
41
1
10
15.0680605564997
20
5.09445190501086
30
0
41
1
10
15.0814681355578
20
5.0897587723083
30
0
41
1
10
15.1085474150522
20
5.08223129690384
30
0
41
1
10
15.1221102481509
20
5.07942141743806
30
0
41
1
10
15.1493065731478
20
5.07608912836153
30
0
41
1
10
15.1629398819194
20
5.07556035511931
30
0
41
1
10
15.1766242211565
20
5.07649896176551
30
0
0
SPLINE
5
FD
100
AcDbEntity
8
1
62
256
6
ByLayer
370
18
48
1
60
0
100
AcDbSpline
70
4
71
3
72
8
73
4
40
0
40
0
40
0
40
0
40
1
40
1
40
1
40
1
41
1
10
15.1766242211565
20
5.07649896176551
30
0
41
1
10
15.1832911329946
20
5.07695624418542
30
0
41
1
10
15.1899577977608
20
5.07741350965867
30
0
41
1
10
15.1966242211565
20
5.07787075857638
30
0
0
SPLINE
5
FE
100
AcDbEntity
8
1
62
256
6
ByLayer
370
18
48
1
60
0
100
AcDbSpline
70
4
71
3
72
35
73
31
40
0
40
0
40
0
40
0
40
0.124999999999967
40
0.124999999999967
40
0.249999999999933
40
0.249999999999933
40
0.3749999999999
40
0.3749999999999
40
0.437499999999849
40
0.437499999999849
40
0.499999999999798
40
0.499999999999798
40
0.624999999999754
40
0.624999999999754
40
0.687499999999754
40
0.687499999999754
40
0.718749999999768
40
0.718749999999768
40
0.749999999999782
40
0.749999999999782
40
0.812499999999841
40
0.812499999999841
40
0.843749999999869
40
0.843749999999869
40
0.874999999999897
40
0.906249999999925
40
0.906249999999925
40
0.937499999999953
40
0.937499999999953
40
1
40
1
40
1
40
1
41
1
10
14.1613175788577
20
6.85567350080183
30
0
41
1
10
14.1928579281448
20
6.83746367165054
30
0
41
1
10
14.2237520049778
20
6.81798128927969
30
0
41
1
10
14.2837559621387
20
6.77667139612126
30
0
41
1
10
14.3128759722548
20
6.75484802469632
30
0
41
1
10
14.3691669361437
20
6.70862435383054
30
0
41
1
10
14.3962506400183
20
6.68429407393177
30
0
41
1
10
14.4347451693287
20
6.64587634152125
30
0
41
1
10
14.4472309060939
20
6.63273842442601
30
0
41
1
10
14.4714173553847
20
6.60571216698267
30
0
41
1
10
14.4831165319019
20
6.59182264752465
30
0
41
1
10
14.5165958319155
20
6.54915343228134
30
0
41
1
10
14.5369515747874
20
6.51919133952023
30
0
41
1
10
14.5624277590968
20
6.4721006067723
30
0
41
1
10
14.570110464226
20
6.45595389028406
30
0
41
1
10
14.5798843990301
20
6.43132323323707
30
0
41
1
10
14.5828521224698
20
6.42304309568206
30
0
41
1
10
14.5881278830613
20
6.40632656710571
30
0
41
1
10
14.5904414121544
20
6.39786069269422
30
0
41
1
10
14.5961671809648
20
6.37252347895443
30
0
41
1
10
14.5984064463634
20
6.35566173379669
30
0
41
1
10
14.5987792493784
20
6.33044990923659
30
0
41
1
10
14.5983922920889
20
6.3219983049415
30
0
41
1
10
14.5965078117609
20
6.30551610260477
30
0
41
1
10
14.5935316338
20
6.28943931510761
30
0
41
1
10
14.5882868191987
20
6.27421364601753
30
0
41
1
10
14.581843754096
20
6.2594410712573
30
0
41
1
10
14.5780447770373
20
6.25235664974372
30
0
41
1
10
14.5652716545555
20
6.23245663986995
30
0
41
1
10
14.5548415747166
20
6.22077134708962
30
0
41
1
10
14.5426985623222
20
6.21050322405023
30
0
0
SPLINE
5
FF
100
AcDbEntity
8
1
62
256
6
ByLayer
370
18
48
1
60
0
100
AcDbSpline
70
4
71
3
72
8
73
4
40
0
40
0
40
0
40
0
40
1
40
1
40
1
40
1
41
1
10
14.5426985623222
20
6.21050322405023
30
0
41
1
10
14.5389693614458
20
6.20495855649608
30
0
41
1
10
14.5352400255466
20
6.19941368818667
30
0
41
1
10
14.5315105514352
20
6.19386861437997
30
0
0
SPLINE
5
100
100
AcDbEntity
8
1
62
256
6
ByLayer
370
18
48
1
60
0
100
AcDbSpline
70
4
71
3
72
35
73
31
40
0
40
0
40
0
40
0
40
0.124999999999997
40
0.124999999999997
40
0.249999999999994
40
0.249999999999994
40
0.374999999999991
40
0.374999999999991
40
0.4375
40
0.4375
40
0.50000000000001
40
0.50000000000001
40
0.625000000000043
40
0.625000000000043
40
0.687500000000065
40
0.687500000000065
40
0.718750000000097
40
0.718750000000097
40
0.750000000000129
40
0.750000000000129
40
0.812500000000126
40
0.812500000000126
40
0.843750000000091
40
0.843750000000091
40
0.875000000000056
40
0.906250000000021
40
0.906250000000021
40
0.937499999999986
40
0.937499999999986
40
1
40
1
40
1
40
1
41
1
10
15.5646675788577
20
4.42500000000001
30
0
41
1
10
15.5646675788577
20
4.38858034169746
30
0
41
1
10
15.5632423792148
20
4.3520840951482
30
0
41
1
10
15.5574689408924
20
4.27946419734013
30
0
41
1
10
15.5531293519002
20
4.24333384310859
30
0
41
1
10
15.5412439606187
20
4.17147260294439
30
0
41
1
10
15.5337151720825
20
4.13585228741104
30
0
41
1
10
15.5196917045144
20
4.08330618091625
30
0
41
1
10
15.5145568029397
20
4.06592425714504
30
0
41
1
10
15.50324460207
20
4.03146504891012
30
0
41
1
10
15.4970655136316
20
4.01438850511389
30
0
41
1
10
15.4768525392781
20
3.9640599731795
30
0
41
1
10
15.4610824772324
20
3.93145033635909
30
0
41
1
10
15.4330387985446
20
3.88584194718163
30
0
41
1
10
15.4228966844427
20
3.87111517112581
30
0
41
1
10
15.4064528771301
20
3.8503353667671
30
0
41
1
10
15.4007659293805
20
3.84362517409934
30
0
41
1
10
15.388926871266
20
3.83069796711467
30
0
41
1
10
15.382751973507
20
3.82446145494194
30
0
41
1
10
15.3636721871524
20
3.80683418682597
30
0
41
1
10
15.350189120193
20
3.79646405352614
30
0
41
1
10
15.3285414411556
20
3.78353528436449
30
0
41
1
10
15.3210286584887
20
3.77964459705984
30
0
41
1
10
15.3058124123906
20
3.77303550372849
30
0
41
1
10
15.2904014170265
20
3.76757455570029
30
0
41
1
10
15.2745931935042
20
3.764503863838
30
0
41
1
10
15.2585782359313
20
3.76269743451502
30
0
41
1
10
15.2505434584
20
3.76244523439945
30
0
41
1
10
15.2269229830728
20
3.76355707801753
30
0
41
1
10
15.2115881827549
20
3.76674714573144
30
0
41
1
10
15.1966242211565
20
3.77212924142364
30
0
0
SPLINE
5
101
100
AcDbEntity
8
1
62
256
6
ByLayer
370
18
48
1
60
0
100
AcDbSpline
70
4
71
3
72
35
73
31
40
0
40
0
40
0
40
0
40
0.125000000000033
40
0.125000000000033
40
0.250000000000067
40
0.250000000000067
40
0.3750000000001
40
0.3750000000001
40
0.500000000000133
40
0.500000000000133
40
0.562500000000127
40
0.562500000000127
40
0.625000000000121
40
0.625000000000121
40
0.687500000000115
40
0.687500000000115
40
0.718750000000114
40
0.718750000000114
40
0.750000000000114
40
0.750000000000114
40
0.812500000000083
40
0.812500000000083
40
0.843750000000067
40
0.843750000000067
40
0.875000000000051
40
0.906250000000036
40
0.906250000000036
40
0.93750000000002
40
0.93750000000002
40
1
40
1
40
1
40
1
41
1
10
14.1613175788577
20
1.99432649919825
30
0
41
1
10
14.1928572195397
20
2.01253591923609
30
0
41
1
10
14.2237138791351
20
2.03199310831374
30
0
41
1
10
14.2837616798358
20
2.07333189515455
30
0
41
1
10
14.3128793619931
20
2.09515580854855
30
0
41
1
10
14.3691214443511
20
2.14133724134953
30
0
41
1
10
14.396256077019
20
2.16570601393676
30
0
41
1
10
14.4477221040023
20
2.21708005801679
30
0
41
1
10
14.4720766397591
20
2.24409270104556
30
0
41
1
10
14.5055529064194
20
2.28677964613294
30
0
41
1
10
14.5161825894863
20
2.3013501844687
30
0
41
1
10
14.5361798096337
20
2.33129795601937
30
0
41
1
10
14.5455192921813
20
2.34664100458559
30
0
41
1
10
14.5624102323328
20
2.37787142250673
30
0
41
1
10
14.5699935131868
20
2.39379804879255
30
0
41
1
10
14.5797306468847
20
2.41826673178224
30
0
41
1
10
14.5827017032106
20
2.42651997587498
30
0
41
1
10
14.5880059540245
20
2.44324940270107
30
0
41
1
10
14.590337511013
20
2.45173558480289
30
0
41
1
10
14.5961067741711
20
2.47710094171151
30
0
41
1
10
14.5983873828219
20
2.49402990055899
30
0
41
1
10
14.5987846854014
20
2.51943504365025
30
0
41
1
10
14.5983981965082
20
2.52788925837945
30
0
41
1
10
14.5965361246758
20
2.54429595636341
30
0
41
1
10
14.5935906975273
20
2.56032213529008
30
0
41
1
10
14.5883777401493
20
2.57554339505347
30
0
41
1
10
14.5819571090137
20
2.59033244829115
30
0
41
1
10
14.5781455180673
20
2.59746993816003
30
0
41
1
10
14.5653403919117
20
2.61746867818852
30
0
41
1
10
14.5548776192146
20
2.62919817370724
30
0
41
1
10
14.5426985623222
20
2.63949677594979
30
0
0
SPLINE
5
102
100
AcDbEntity
8
1
62
256
6
ByLayer
370
18
48
1
60
0
100
AcDbSpline
70
4
71
3
72
52
73
48
40
0
40
0
40
0
40
0
40
0.0156250000000193
40
0.0156250000000193
40
0.0312500000000387
40
0.0312500000000387
40
0.0625000000000769
40
0.0625000000000769
40
0.093750000000115
40
0.093750000000115
40
0.125000000000153
40
0.125000000000153
40
0.187500000000181
40
0.187500000000181
40
0.218750000000193
40
0.218750000000193
40
0.250000000000205
40
0.250000000000205
40
0.312500000000185
40
0.312500000000185
40
0.375000000000165
40
0.375000000000165
40
0.437500000000145
40
0.437500000000145
40
0.500000000000124
40
0.500000000000124
40
0.562500000000104
40
0.562500000000104
40
0.625000000000084
40
0.625000000000084
40
0.687500000000064
40
0.687500000000064
40
0.750000000000044
40
0.750000000000044
40
0.812500000000024
40
0.812500000000024
40
0.84375000000002
40
0.84375000000002
40
0.875000000000016
40
0.875000000000016
40
0.906250000000012
40
0.906250000000012
40
0.937500000000008
40
0.937500000000008
40
0.968750000000004
40
0.968750000000004
40
1
40
1
40
1
40
1
41
1
10
15.1766242211557
20
3.77350103823454
30
0
41
1
10
15.1697820799385
20
3.77397033960958
30
0
41
1
10
15.1629181354411
20
3.77407171622059
30
0
41
1
10
15.1491500919923
20
3.77361493207411
30
0
41
1
10
15.1422324594327
20
3.7730533998342
30
0
41
1
10
15.1216597719405
20
3.77050409263683
30
0
41
1
10
15.1081092100163
20
3.76766204168533
30
0
41
1
10
15.0812570752998
20
3.76016703599882
30
0
41
1
10
15.0679561041062
20
3.75550998008853
30
0
41
1
10
15.0415519921649
20
3.74465815423156
30
0
41
1
10
15.0284963910947
20
3.73847679501401
30
0
41
1
10
14.9900733827919
20
3.71820427491213
30
0
41
1
10
14.9651994305901
20
3.70227559120326
30
0
41
1
10
14.9292647479875
20
3.6759865076838
30
0
41
1
10
14.9174983626334
20
3.66680893310254
30
0
41
1
10
14.8943392099274
20
3.64770234832125
30
0
41
1
10
14.882936645888
20
3.63776247228213
30
0
41
1
10
14.8494374004477
20
3.60708289509205
30
0
41
1
10
14.8279761003181
20
3.58543810480566
30
0
41
1
10
14.7865361412064
20
3.54004950767498
30
0
41
1
10
14.7666011510583
20
3.51633831821667
30
0
41
1
10
14.7284809424784
20
3.46746331722721
30
0
41
1
10
14.7102311513177
20
3.44222268070987
30
0
41
1
10
14.6753514036279
20
3.39030117606902
30
0
41
1
10
14.6588023008877
20
3.36374255311583
30
0
41
1
10
14.6274557714934
20
3.30944829598627
30
0
41
1
10
14.6127382265811
20
3.28185099143926
30
0
41
1
10
14.5852397539945
20
3.22574255367542
30
0
41
1
10
14.5724683231515
20
3.19724016173913
30
0
41
1
10
14.5491716434915
20
3.13970840424986
30
0
41
1
10
14.5386004526273
20
3.11056414054767
30
0
41
1
10
14.5200276282419
20
3.05200849064778
30
0
41
1
10
14.5119982363229
20
3.02253618006006
30
0
41
1
10
14.4989019729065
20
2.96332630432934
30
0
41
1
10
14.4938668082986
20
2.93377480378203
30
0
41
1
10
14.489071100166
20
2.88948587466248
30
0
41
1
10
14.4879356559198
20
2.87470491641926
30
0
41
1
10
14.4867398973379
20
2.84534826159066
30
0
41
1
10
14.4866754672733
20
2.83075686164935
30
0
41
1
10
14.4877887102666
20
2.80176271137606
30
0
41
1
10
14.4889674961139
20
2.78738867354124
30
0
41
1
10
14.49277642403
20
2.75912674876335
30
0
41
1
10
14.4954158414153
20
2.74516887834449
30
0
41
1
10
14.5024364962358
20
2.71795379668399
30
0
41
1
10
14.5067844857863
20
2.7048030989404
30
0
41
1
10
14.5174968012917
20
2.67958424606522
30
0
41
1
10
14.5238555246169
20
2.66751306771027
30
0
41
1
10
14.5315105514352
20
2.65613138562006
30
0
0
SPLINE
5
103
100
AcDbEntity
8
1
62
256
6
ByLayer
370
18
48
1
60
0
100
AcDbSpline
70
4
71
3
72
8
73
4
40
0
40
0
40
0
40
0
40
1
40
1
40
1
40
1
41
1
10
14.5315105514352
20
2.65613138562006
30
0
41
1
10
14.5352400255466
20
2.65058631181336
30
0
41
1
10
14.5389693614458
20
2.64504144350394
30
0
41
1
10
14.5426985623222
20
2.63949677594979
30
0
0
SPLINE
5
104
100
AcDbEntity
8
1
62
256
6
ByLayer
370
18
48
1
60
0
100
AcDbSpline
70
4
71
3
72
8
73
4
40
0
40
0
40
0
40
0
40
1
40
1
40
1
40
1
41
1
10
15.1966242211565
20
3.77212924142364
30
0
41
1
10
15.1899577977608
20
3.77258649034132
30
0
41
1
10
15.1832911329946
20
3.7730437558146
30
0
41
1
10
15.1766242211565
20
3.77350103823448
30
0
0
SPLINE
5
105
100
AcDbEntity
8
1
62
256
6
ByLayer
370
18
48
1
60
0
100
AcDbSpline
70
4
71
3
72
8
73
4
40
0
40
0
40
0
40
0
40
1
40
1
40
1
40
1
41
1
10
10.9844246062802
20
6.19386861437997
30
0
41
1
10
10.9806951321688
20
6.19941368818667
30
0
41
1
10
10.9769657962695
20
6.20495855649608
30
0
41
1
10
10.9732365953931
20
6.21050322405023
30
0
0
SPLINE
5
106
100
AcDbEntity
8
1
62
256
6
ByLayer
370
18
48
1
60
0
100
AcDbSpline
70
4
71
3
72
35
73
31
40
0
40
0
40
0
40
0
40
0.124999999999987
40
0.124999999999987
40
0.249999999999973
40
0.249999999999973
40
0.37499999999996
40
0.37499999999996
40
0.499999999999946
40
0.499999999999946
40
0.562499999999969
40
0.562499999999969
40
0.624999999999991
40
0.624999999999991
40
0.687500000000013
40
0.687500000000013
40
0.718750000000016
40
0.718750000000016
40
0.750000000000019
40
0.750000000000019
40
0.812500000000001
40
0.812500000000001
40
0.843749999999997
40
0.843749999999997
40
0.874999999999994
40
0.90624999999999
40
0.90624999999999
40
0.937499999999987
40
0.937499999999987
40
1
40
1
40
1
40
1
41
1
10
11.3546175788577
20
6.8556735008018
30
0
41
1
10
11.3230779381758
20
6.83746408076394
30
0
41
1
10
11.2922212785803
20
6.81800689168628
30
0
41
1
10
11.2321734778797
20
6.77666810484547
30
0
41
1
10
11.2030557957222
20
6.75484419145144
30
0
41
1
10
11.1468137133644
20
6.70866275865046
30
0
41
1
10
11.1196790806964
20
6.6842939860633
30
0
41
1
10
11.0682130537131
20
6.63291994198323
30
0
41
1
10
11.0438585179563
20
6.60590729895446
30
0
41
1
10
11.010382251296
20
6.56322035386705
30
0
41
1
10
10.9997525682291
20
6.54864981553132
30
0
41
1
10
10.9797553480816
20
6.51870204398065
30
0
41
1
10
10.9704158655342
20
6.50335899541446
30
0
41
1
10
10.9535249253826
20
6.47212857749329
30
0
41
1
10
10.9459416445286
20
6.4562019512075
30
0
41
1
10
10.9362045108308
20
6.43173326821778
30
0
41
1
10
10.9332334545048
20
6.42348002412504
30
0
41
1
10
10.9279292036909
20
6.40675059729895
30
0
41
1
10
10.9255976467024
20
6.39826441519713
30
0
41
1
10
10.9198283835443
20
6.37289905828851
30
0
41
1
10
10.9175477748934
20
6.35597009944104
30
0
41
1
10
10.917150472314
20
6.33056495634978
30
0
41
1
10
10.9175369612073
20
6.32211074162061
30
0
41
1
10
10.9193990330396
20
6.30570404363661
30
0
41
1
10
10.9223444601881
20
6.28967786470994
30
0
41
1
10
10.9275574175661
20
6.27445660494655
30
0
41
1
10
10.9339780487018
20
6.25966755170887
30
0
41
1
10
10.9377896396481
20
6.25253006184002
30
0
41
1
10
10.9505947658037
20
6.23253132181151
30
0
41
1
10
10.9610575385007
20
6.22080182629279
30
0
41
1
10
10.9732365953931
20
6.21050322405023
30
0
0
SPLINE
5
107
100
AcDbEntity
8
1
62
256
6
ByLayer
370
18
48
1
60
0
100
AcDbSpline
70
4
71
3
72
39
73
35
40
0
40
0
40
0
40
0
40
0.125000000000066
40
0.125000000000066
40
0.250000000000132
40
0.250000000000132
40
0.375000000000197
40
0.375000000000197
40
0.437500000000231
40
0.437500000000231
40
0.500000000000265
40
0.500000000000265
40
0.562500000000299
40
0.562500000000299
40
0.625000000000333
40
0.625000000000333
40
0.687500000000367
40
0.687500000000367
40
0.718750000000352
40
0.718750000000352
40
0.750000000000337
40
0.750000000000337
40
0.812500000000249
40
0.812500000000249
40
0.843750000000208
40
0.843750000000208
40
0.875000000000166
40
0.875000000000166
40
0.906250000000124
40
0.906250000000124
40
0.937500000000083
40
0.968750000000042
40
0.968750000000042
40
1
40
1
40
1
40
1
41
1
10
9.95126757885768
20
4.42500000000001
30
0
41
1
10
9.95126757885765
20
4.4614248722859
30
0
41
1
10
9.9526914338976
20
4.4978850946986
30
0
41
1
10
9.95846109795633
20
4.57048529795452
30
0
41
1
10
9.96281115483617
20
4.60669641599421
30
0
41
1
10
9.97468212369486
20
4.67847461901545
30
0
41
1
10
9.98221214838858
20
4.71411874246374
30
0
41
1
10
9.99624848681094
20
4.76671248199577
30
0
41
1
10
10.001383685457
20
4.78409147396198
30
0
41
1
10
10.0126802938791
20
4.81850419869801
30
0
41
1
10
10.0188510187317
20
4.83556075244573
30
0
41
1
10
10.0323114855813
20
4.86908485042923
30
0
41
1
10
10.039602955431
20
4.88556693333035
30
0
41
1
10
10.055520775735
20
4.91785781174883
30
0
41
1
10
10.0641093892997
20
4.9335840237944
30
0
41
1
10
10.0826687223087
20
4.96380763675575
30
0
41
1
10
10.0926510104768
20
4.97833823488838
30
0
41
1
10
10.1089517349516
20
4.99902081568635
30
0
41
1
10
10.1146078797633
20
5.00572827372227
30
0
41
1
10
10.1264359213047
20
5.0187075971626
30
0
41
1
10
10.1326026628056
20
5.02496783306759
30
0
41
1
10
10.1516418126009
20
5.04265610276951
30
0
41
1
10
10.1651411149191
20
5.05311835172165
30
0
41
1
10
10.1869349752724
20
5.0662174460675
30
0
41
1
10
10.1944268987452
20
5.07011868685748
30
0
41
1
10
10.2095826763995
20
5.07675647600485
30
0
41
1
10
10.217287944512
20
5.07951927561138
30
0
41
1
10
10.2329662055802
20
5.08385809607844
30
0
41
1
10
10.241004459205
20
5.08543951792635
30
0
41
1
10
10.2570178734335
20
5.08728210350671
30
0
41
1
10
10.2729113102513
20
5.08782315766155
30
0
41
1
10
10.2885714406616
20
5.08588363920575
30
0
41
1
10
10.3041173891927
20
5.08274189284376
30
0
41
1
10
10.3118091263681
20
5.08056893846984
30
0
41
1
10
10.3193109365589
20
5.07787075857638
30
0
0
SPLINE
5
108
100
AcDbEntity
8
1
62
256
6
ByLayer
370
18
48
1
60
0
100
AcDbSpline
70
4
71
3
72
8
73
4
40
0
40
0
40
0
40
0
40
1
40
1
40
1
40
1
41
1
10
10.3393109365589
20
5.07649896176551
30
0
41
1
10
10.3326440247207
20
5.07695624418542
30
0
41
1
10
10.3259773599545
20
5.07741350965867
30
0
41
1
10
10.3193109365589
20
5.07787075857638
30
0
0
SPLINE
5
109
100
AcDbEntity
8
1
62
256
6
ByLayer
370
18
48
1
60
0
100
AcDbSpline
70
4
71
3
72
50
73
46
40
0
40
0
40
0
40
0
40
0.0312500000000298
40
0.0312500000000298
40
0.046875000000038
40
0.046875000000038
40
0.0625000000000462
40
0.0625000000000462
40
0.125000000000049
40
0.125000000000049
40
0.156250000000048
40
0.156250000000048
40
0.187500000000048
40
0.187500000000048
40
0.250000000000042
40
0.250000000000042
40
0.281250000000037
40
0.281250000000037
40
0.312500000000032
40
0.312500000000032
40
0.375000000000032
40
0.375000000000032
40
0.500000000000032
40
0.500000000000032
40
0.562500000000045
40
0.562500000000045
40
0.625000000000058
40
0.625000000000058
40
0.687500000000072
40
0.687500000000072
40
0.750000000000085
40
0.750000000000085
40
0.812500000000099
40
0.812500000000099
40
0.843750000000082
40
0.843750000000082
40
0.875000000000066
40
0.875000000000066
40
0.906250000000049
40
0.906250000000049
40
0.937500000000033
40
0.937500000000033
40
0.968750000000016
40
0.968750000000016
40
1
40
1
40
1
40
1
41
1
10
10.9844246062802
20
6.19386861437997
30
0
41
1
10
10.9921227509315
20
6.18242282363539
30
0
41
1
10
10.9985261886694
20
6.17025405452208
30
0
41
1
10
11.0066138770056
20
6.15114568520565
30
0
41
1
10
11.0090542187988
20
6.14463218716102
30
0
41
1
10
11.0134704196557
20
6.13134154822123
30
0
41
1
10
11.0154503578249
20
6.12454493715649
30
0
41
1
10
11.0241950899266
20
6.09030640596654
30
0
41
1
10
11.0276646064673
20
6.06197052693048
30
0
41
1
10
11.0292673353731
20
6.01842734754877
30
0
41
1
10
11.029179298155
20
6.00368949864148
30
0
41
1
10
11.0279329323937
20
5.9742709996365
30
0
41
1
10
11.0267788556846
20
5.95955451242503
30
0
41
1
10
11.0219367556457
20
5.91537223400852
30
0
41
1
10
11.0168819282327
20
5.88587341384164
30
0
41
1
10
11.0070329087388
20
5.84152167291469
30
0
41
1
10
11.0033590575835
20
5.82668796128925
30
0
41
1
10
10.9953323332964
20
5.79713480876606
30
0
41
1
10
10.9909940172227
20
5.78246210736012
30
0
41
1
10
10.9770841565477
20
5.73872586506468
30
0
41
1
10
10.9666231923879
20
5.70994221932204
30
0
41
1
10
10.9320494534015
20
5.62457002010387
30
0
41
1
10
10.9048008526593
20
5.5689403133911
30
0
41
1
10
10.8577857233309
20
5.48733070867067
30
0
41
1
10
10.8412337213783
20
5.46071612064921
30
0
41
1
10
10.8063740796256
20
5.40872686486136
30
0
41
1
10
10.7880619945996
20
5.38335308614447
30
0
41
1
10
10.7498543880364
20
5.33429280601999
30
0
41
1
10
10.7298814914412
20
5.3105075676134
30
0
41
1
10
10.688412077502
20
5.2650300927983
30
0
41
1
10
10.666880724633
20
5.24328734689337
30
0
41
1
10
10.6220936168185
20
5.20223127900974
30
0
41
1
10
10.5989882641337
20
5.18304371366597
30
0
41
1
10
10.5629822644285
20
5.1566745318097
30
0
41
1
10
10.5507321909665
20
5.14827740056754
30
0
41
1
10
10.5258698256437
20
5.13251828074633
30
0
41
1
10
10.5132467977204
20
5.12514537857163
30
0
41
1
10
10.4875421036864
20
5.11157229692762
30
0
41
1
10
10.4744831751114
20
5.10538670539589
30
0
41
1
10
10.4480608095868
20
5.09451988985757
30
0
41
1
10
10.4346324458856
20
5.08981156771952
30
0
41
1
10
10.4075061827005
20
5.08225748061361
30
0
41
1
10
10.3939198156331
20
5.07943710516699
30
0
41
1
10
10.3666762240668
20
5.07609092752378
30
0
41
1
10
10.3530191840607
20
5.07555871525523
30
0
41
1
10
10.3393109365589
20
5.07649896176551
30
0
0
SPLINE
5
10A
100
AcDbEntity
8
1
62
256
6
ByLayer
370
18
48
1
60
0
100
AcDbSpline
70
4
71
3
72
18
73
14
40
0
40
0
40
0
40
0
40
0.106502320877178
40
0.209819720887548
40
0.309970050662888
40
0.406972922399031
40
0.500849920824098
40
0.591624858694921
40
0.679324076625623
40
0.763976789997817
40
0.84561548838678
40
0.924276395492901
40
1
40
1
40
1
40
1
41
1
10
26.6980862172677
20
15.058085351823
30
0
41
1
10
26.6965091061935
20
15.0587643036506
30
0
41
1
10
26.693402047092
20
15.0601019034492
30
0
41
1
10
26.6888919111762
20
15.0624049623886
30
0
41
1
10
26.6845829023202
20
15.0648663474788
30
0
41
1
10
26.6804802013748
20
15.0674901579403
30
0
41
1
10
26.6765824890682
20
15.0702524658373
30
0
41
1
10
26.6728900240874
20
15.0731370391757
30
0
41
1
10
26.6694029509026
20
15.0761268528404
30
0
41
1
10
26.6661204155718
20
15.0792043544701
30
0
41
1
10
26.6630454487202
20
15.0823584152507
30
0
41
1
10
26.6601672624499
20
15.0855579925821
30
0
41
1
10
26.6583711657764
20
15.0877918768383
30
0
41
1
10
26.6574902036077
20
15.0888875681493
30
0
0
SPLINE
5
10B
100
AcDbEntity
8
1
62
256
6
ByLayer
370
18
48
1
60
0
100
AcDbSpline
70
4
71
3
72
16
73
12
40
0
40
0
40
0
40
0
40
0.117319552095749
40
0.233085853241677
40
0.34729936220225
40
0.459960556706225
40
0.571069934503169
40
0.680628014495702
40
0.788635337949851
40
0.895092469791756
40
1
40
1
40
1
40
1
41
1
10
26.8569129943077
20
15.002732523702
30
0
41
1
10
26.8506453455753
20
15.0045553268685
30
0
41
1
10
26.8381930285788
20
15.0081768002187
30
0
41
1
10
26.8196868349078
20
15.0138914087559
30
0
41
1
10
26.8014648756092
20
15.0197568898025
30
0
41
1
10
26.7835304222722
20
15.0257866733748
30
0
41
1
10
26.7658826942723
20
15.031966269055
30
0
41
1
10
26.7485216077754
20
15.038286920165
30
0
41
1
10
26.7314482370181
20
15.0447449449395
30
0
41
1
10
26.7146584541304
20
15.0513120560499
30
0
41
1
10
26.7035832305425
20
15.0558386486767
30
0
41
1
10
26.6980862172677
20
15.05808535183
30
0
0
SPLINE
5
10C
100
AcDbEntity
8
1
62
256
6
ByLayer
370
18
48
1
60
0
100
AcDbSpline
70
4
71
2
72
10
73
7
40
0
40
0
40
0
40
0.5
40
0.5
40
0.75
40
0.75
40
1
40
1
40
1
41
1
10
26.8569129942982
20
15.002732523738
30
0
41
1
10
26.9245068205207
20
14.9832378364851
30
0
41
1
10
26.9722030616238
20
14.9315142889901
30
0
41
1
10
26.9981900515755
20
14.9033330470739
30
0
41
1
10
27.0148269535851
20
14.8674776461037
30
0
41
1
10
27.032792815007
20
14.8287581077733
30
0
41
1
10
27.0369137759377
20
14.785735586972
30
0
0
SPLINE
5
10D
100
AcDbEntity
8
1
62
256
6
ByLayer
370
18
48
1
60
0
100
AcDbSpline
70
4
71
2
72
6
73
3
40
0
40
0
40
0
40
1
40
1
40
1
41
1
10
27.0369137759757
20
14.785735587058
30
0
41
1
10
27.0458050681477
20
14.6905165540331
30
0
41
1
10
27.0458285383862
20
14.5950000006976
30
0
0
SPLINE
5
10E
100
AcDbEntity
8
1
62
256
6
ByLayer
370
18
48
1
60
0
100
AcDbSpline
70
4
71
3
72
17
73
13
40
0
40
0
40
0
40
0
40
0.100317411816975
40
0.20054131029331
40
0.30068027827332
40
0.400742920447466
40
0.500737861201713
40
0.600673742442725
40
0.700559221399133
40
0.800402968404848
40
0.900213664663565
40
1
40
1
40
1
40
1
41
1
10
27.0369137759777
20
14.364264412942
30
0
41
1
10
27.0374907017394
20
14.3706087701754
30
0
41
1
10
27.0386440154674
20
14.3832915705938
30
0
41
1
10
27.040149403979
20
14.4023460527878
30
0
41
1
10
27.0414892051089
20
14.4214085209795
30
0
41
1
10
27.042647382609
20
14.4404803042831
30
0
41
1
10
27.043628305849
20
14.4595589293337
30
0
41
1
10
27.0444305147006
20
14.4786429412488
30
0
41
1
10
27.0450554832194
20
14.4977306135195
30
0
41
1
10
27.0454987763667
20
14.5168202936691
30
0
41
1
10
27.0457766520422
20
14.5359103103435
30
0
41
1
10
27.0458112443465
20
14.5486372874275
30
0
41
1
10
27.0458285383877
20
14.5549999993024
30
0
0
SPLINE
5
10F
100
AcDbEntity
8
1
62
256
6
ByLayer
370
18
48
1
60
0
100
AcDbSpline
70
4
71
3
72
38
73
34
40
0
40
0
40
0
40
0
40
0.0320161803190778
40
0.0634137556494319
40
0.0941938978101957
40
0.124357850627729
40
0.153906935790829
40
0.182842559292636
40
0.211166218534056
40
0.238879510162458
40
0.265984138740218
40
0.292481926344025
40
0.318374823211782
40
0.3436649195716
40
0.368354458804075
40
0.392445852114334
40
0.415941694911066
40
0.438844785123569
40
0.461158143716737
40
0.482885037704943
40
0.504029006008818
40
0.55136681116327
40
0.597409666800348
40
0.642207857910848
40
0.685815975457105
40
0.728293199079305
40
0.769703557231232
40
0.810116149643032
40
0.849605314210612
40
0.888250718110498
40
0.926137351649331
40
0.963355403684617
40
1
40
1
40
1
40
1
41
1
10
26.8569129942977
20
14.147267476262
30
0
41
1
10
26.8595412022224
20
14.1480485607147
30
0
41
1
10
26.8647468367944
20
14.1495956377904
30
0
41
1
10
26.8724183692594
20
14.1522317158617
30
0
41
1
10
26.8798924884189
20
14.1550558999423
30
0
41
1
10
26.8871650942025
20
14.1580789101444
30
0
41
1
10
26.8942372552918
20
14.161281634091
30
0
41
1
10
26.9011086967204
20
14.1646529401724
30
0
41
1
10
26.9077794928923
20
14.1681798787024
30
0
41
1
10
26.9142496277194
20
14.1718502562536
30
0
41
1
10
26.9205191088584
20
14.1756519927337
30
0
41
1
10
26.9265879381018
20
14.1795733110581
30
0
41
1
10
26.9324561190195
20
14.1836027081713
30
0
41
1
10
26.9381236552239
20
14.187728980183
30
0
41
1
10
26.9435905500443
20
14.1919412313214
30
0
41
1
10
26.9488568095144
20
14.196228883891
30
0
41
1
10
26.953922431273
20
14.2005816889965
30
0
41
1
10
26.9587874446595
20
14.2049897234812
30
0
41
1
10
26.9634517667678
20
14.2094434298666
30
0
41
1
10
26.9679157190755
20
14.2139334948107
30
0
41
1
10
26.9739771356575
20
14.2203580304927
30
0
41
1
10
26.9814263980609
20
14.2289468168094
30
0
41
1
10
26.9899703211373
20
14.2400200836319
30
0
41
1
10
26.9978165015012
20
14.251469441307
30
0
41
1
10
27.0049651843954
20
14.2632493808279
30
0
41
1
10
27.0114161979483
20
14.2753153813823
30
0
41
1
10
27.0171693145935
20
14.2876233474433
30
0
41
1
10
27.0222247334683
20
14.3001298346286
30
0
41
1
10
27.0265808749649
20
14.3127925471701
30
0
41
1
10
27.0302424590416
20
14.3255689765113
30
0
41
1
10
27.0331912788524
20
14.3384219116354
30
0
41
1
10
27.0354922122895
20
14.3512999416634
30
0
41
1
10
27.0364423803637
20
14.3599653481022
30
0
41
1
10
27.0369137759377
20
14.364264413028
30
0
0
SPLINE
5
110
100
AcDbEntity
8
1
62
256
6
ByLayer
370
18
48
1
60
0
100
AcDbSpline
70
4
71
2
72
6
73
3
40
0
40
0
40
0
40
1
40
1
40
1
41
1
10
26.8569129943067
20
14.147267476298
30
0
41
1
10
26.7759142978673
20
14.1240152433268
30
0
41
1
10
26.6980862172672
20
14.09191464817
30
0
0
SPLINE
5
111
100
AcDbEntity
8
1
62
256
6
ByLayer
370
18
48
1
60
0
100
AcDbSpline
70
4
71
2
72
6
73
3
40
0
40
0
40
0
40
1
40
1
40
1
41
1
10
26.6980862172662
20
14.091914648177
30
0
41
1
10
26.6737873382729
20
14.0817453291365
30
0
41
1
10
26.6574902036057
20
14.061112431851
30
0
0
SPLINE
5
112
100
AcDbEntity
8
SK1
62
256
6
ByLayer
370
18
48
1
60
0
100
AcDbSpline
70
4
71
3
72
28
73
24
40
0
40
0
40
0
40
0
40
0.125
40
0.125
40
0.18749999999999
40
0.18749999999999
40
0.249999999999981
40
0.249999999999981
40
0.374999999999996
40
0.374999999999996
40
0.500000000000011
40
0.500000000000011
40
0.625000000000026
40
0.625000000000026
40
0.65625000000004
40
0.65625000000004
40
0.687500000000054
40
0.687500000000054
40
0.750000000000043
40
0.750000000000043
40
0.875000000000022
40
0.875000000000022
40
1
40
1
40
1
40
1
41
1
10
0
20
16.4989903551092
30
0
41
1
10
-0.0343374611514378
20
16.457902147767
30
0
41
1
10
-0.0707457654722532
20
16.4185096216395
30
0
41
1
10
-0.12869005136514
20
16.3618767886827
30
0
41
1
10
-0.148561207406828
20
16.3434105546253
30
0
41
1
10
-0.189468492914898
20
16.3073089943173
30
0
41
1
10
-0.210541292887484
20
16.2896448745841
30
0
41
1
10
-0.275338913410138
20
16.2381397422512
30
0
41
1
10
-0.320442796035934
20
16.2059227742249
30
0
41
1
10
-0.414676400137466
20
16.1458417942149
30
0
41
1
10
-0.463805054711486
20
16.1179772945449
30
0
41
1
10
-0.566419016331281
20
16.0669325807486
30
0
41
1
10
-0.619902298716625
20
16.0437499878101
30
0
41
1
10
-0.689786986116388
20
16.0180672246448
30
0
41
1
10
-0.703915946069969
20
16.0130961996111
30
0
41
1
10
-0.732487836253625
20
16.0034977573806
30
0
41
1
10
-0.746948690809802
20
15.9988653331125
30
0
41
1
10
-0.790578438760008
20
15.9855751069928
30
0
41
1
10
-0.820049599165344
20
15.9775030934498
30
0
41
1
10
-0.909636922342258
20
15.9557330272156
30
0
41
1
10
-0.970924126492605
20
15.9444704103787
30
0
41
1
10
-1.0967895443307
20
15.9291065446609
30
0
41
1
10
-1.1613665767222
20
15.925
30
0
41
1
10
-1.22772318076633
20
15.925
30
0
0
LINE
5
7F
100
AcDbEntity
8
81
62
256
6
ByLayer
370
18
48
1
60
0
100
AcDbLine
10
34.107968
20
17.075
30
0
11
39.107968
21
17.075
31
0
39
0
210
0
220
0
230
1
0
LINE
5
80
100
AcDbEntity
8
80
62
256
6
ByLayer
370
18
48
1
60
0
100
AcDbLine
10
0
20
0
30
0
11
-5
21
0
31
0
39
0
210
0
220
0
230
1
0
LINE
5
81
100
AcDbEntity
8
1
62
256
6
ByLayer
370
18
48
1
60
0
100
AcDbLine
10
0
20
16.49899
30
0
11
0
21
-15.926878
31
0
39
0
210
0
220
0
230
1
0
LINE
5
82
100
AcDbEntity
8
1
62
256
6
ByLayer
370
18
48
1
60
0
100
AcDbLine
10
25.519838
20
16.75
30
0
11
26.914294
21
16.75
31
0
39
0
210
0
220
0
230
1
0
LINE
5
83
100
AcDbEntity
8
1
62
256
6
ByLayer
370
18
48
1
60
0
100
AcDbLine
10
26.914294
20
12.4
30
0
11
29.362247
21
12.4
31
0
39
0
210
0
220
0
230
1
0
LINE
5
84
100
AcDbEntity
8
1
62
256
6
ByLayer
370
18
48
1
60
0
100
AcDbLine
10
25.519838
20
12.4
30
0
11
26.914294
21
12.4
31
0
39
0
210
0
220
0
230
1
0
LINE
5
85
100
AcDbEntity
8
1
62
256
6
ByLayer
370
18
48
1
60
0
100
AcDbLine
10
26.914294
20
12.4
30
0
11
26.91416
21
12.475009
31
0
39
0
210
0
220
0
230
1
0
LINE
5
86
100
AcDbEntity
8
1
62
256
6
ByLayer
370
18
48
1
60
0
100
AcDbLine
10
26.914294
20
16.75
30
0
11
29.362247
21
16.75
31
0
39
0
210
0
220
0
230
1
0
LINE
5
87
100
AcDbEntity
8
1
62
256
6
ByLayer
370
18
48
1
60
0
100
AcDbLine
10
26.91416
20
16.674991
30
0
11
26.914294
21
16.75
31
0
39
0
210
0
220
0
230
1
0
LINE
5
88
100
AcDbEntity
8
1
62
256
6
ByLayer
370
18
48
1
60
0
100
AcDbLine
10
0.475219
20
16.75
30
0
11
0.172054
21
16.75
31
0
39
0
210
0
220
0
230
1
0
LINE
5
89
100
AcDbEntity
8
1
62
256
6
ByLayer
370
18
48
1
60
0
100
AcDbLine
10
22.607968
20
16.75
30
0
11
25.519807
21
16.75
31
0
39
0
210
0
220
0
230
1
0
LINE
5
8A
100
AcDbEntity
8
1
62
256
6
ByLayer
370
18
48
1
60
0
100
AcDbLine
10
25.519807
20
12.4
30
0
11
22.607968
21
12.4
31
0
39
0
210
0
220
0
230
1
0
LINE
5
8B
100
AcDbEntity
8
1
62
256
6
ByLayer
370
18
48
1
60
0
100
AcDbLine
10
26.107968
20
14.849969
30
0
11
26.107968
21
14.300031
31
0
39
0
210
0
220
0
230
1
0
LINE
5
8C
100
AcDbEntity
8
1
62
256
6
ByLayer
370
18
48
1
60
0
100
AcDbLine
10
25.519807
20
16.75
30
0
11
25.615114
21
16.301468
31
0
39
0
210
0
220
0
230
1
0
LINE
5
8D
100
AcDbEntity
8
1
62
256
6
ByLayer
370
18
48
1
60
0
100
AcDbLine
10
25.615114
20
12.848532
30
0
11
25.519807
21
12.4
31
0
39
0
210
0
220
0
230
1
0
LINE
5
8E
100
AcDbEntity
8
1
62
256
6
ByLayer
370
18
48
1
60
0
100
AcDbLine
10
16.752561
20
16.75
30
0
11
22.607968
21
16.75
31
0
39
0
210
0
220
0
230
1
0
LINE
5
8F
100
AcDbEntity
8
1
62
256
6
ByLayer
370
18
48
1
60
0
100
AcDbLine
10
22.607968
20
12.4
30
0
11
21.107968
21
12.4
31
0
39
0
210
0
220
0
230
1
0
LINE
5
90
100
AcDbEntity
8
1
62
256
6
ByLayer
370
18
48
1
60
0
100
AcDbLine
10
22.607968
20
16.75
30
0
11
22.607968
21
12.4
31
0
39
0
210
0
220
0
230
1
0
LINE
5
91
100
AcDbEntity
8
1
62
256
6
ByLayer
370
18
48
1
60
0
100
AcDbLine
10
19.507968
20
1.298112
30
0
11
7.983932
21
-15.960998
31
0
39
0
210
0
220
0
230
1
0
LINE
5
92
100
AcDbEntity
8
1
62
256
6
ByLayer
370
18
48
1
60
0
100
AcDbLine
10
19.507968
20
10.8
30
0
11
19.507968
21
1.298112
31
0
39
0
210
0
220
0
230
1
0
LINE
5
93
100
AcDbEntity
8
1
62
256
6
ByLayer
370
18
48
1
60
0
100
AcDbLine
10
2.304363
20
-15.960998
30
0
11
7.983932
21
-15.960998
31
0
39
0
210
0
220
0
230
1
0
LINE
5
94
100
AcDbEntity
8
1
62
256
6
ByLayer
370
18
48
1
60
0
100
AcDbLine
10
16.752561
20
16.75
30
0
11
2.304363
21
16.75
31
0
39
0
210
0
220
0
230
1
0
LINE
5
95
100
AcDbEntity
8
1
62
256
6
ByLayer
370
18
48
1
60
0
100
AcDbLine
10
16.752561
20
12.4
30
0
11
16.752561
21
16.75
31
0
39
0
210
0
220
0
230
1
0
LINE
5
96
100
AcDbEntity
8
1
62
256
6
ByLayer
370
18
48
1
60
0
100
AcDbLine
10
0.475219
20
-15.931211
30
0
11
2.304363
21
-15.960998
31
0
39
0
210
0
220
0
230
1
0
LINE
5
97
100
AcDbEntity
8
1
62
256
6
ByLayer
370
18
48
1
60
0
100
AcDbLine
10
2.304363
20
16.75
30
0
11
0.475219
21
16.75
31
0
39
0
210
0
220
0
230
1
0
LINE
5
98
100
AcDbEntity
8
1
62
256
6
ByLayer
370
13
48
1
60
0
100
AcDbLine
10
0.475219
20
-15.931211
30
0
11
0.475219
21
16.75
31
0
39
0
210
0
220
0
230
1
0
LINE
5
99
100
AcDbEntity
8
1
62
256
6
ByLayer
370
18
48
1
60
0
100
AcDbLine
10
2.304363
20
16.75
30
0
11
2.304363
21
-15.960998
31
0
39
0
210
0
220
0
230
1
0
LINE
5
9A
100
AcDbEntity
8
1
62
256
6
ByLayer
370
13
48
1
60
0
100
AcDbLine
10
16.752561
20
12.4
30
0
11
21.107968
21
12.4
31
0
39
0
210
0
220
0
230
1
0
LINE
5
9B
100
AcDbEntity
8
1
62
256
6
ByLayer
370
18
48
1
60
0
100
AcDbLine
10
27.737968
20
12.475
30
0
11
29.232269
21
12.475
31
0
39
0
210
0
220
0
230
1
0
LINE
5
9C
100
AcDbEntity
8
1
62
256
6
ByLayer
370
18
48
1
60
0
100
AcDbLine
10
27.737968
20
16.675
30
0
11
29.232269
21
16.675
31
0
39
0
210
0
220
0
230
1
0
LINE
5
9D
100
AcDbEntity
8
1
62
256
6
ByLayer
370
18
48
1
60
0
100
AcDbLine
10
34.107968
20
12.375
30
0
11
34.107968
21
16.775
31
0
39
0
210
0
220
0
230
1
0
LINE
5
9E
100
AcDbEntity
8
1
62
256
6
ByLayer
370
18
48
1
60
0
100
AcDbLine
10
29.607968
20
12.25809
30
0
11
29.232269
21
12.475
31
0
39
0
210
0
220
0
230
1
0
LINE
5
9F
100
AcDbEntity
8
1
62
256
6
ByLayer
370
18
48
1
60
0
100
AcDbLine
10
33.794882
20
17.074714
30
0
11
29.607968
21
16.89191
31
0
39
0
210
0
220
0
230
1
0
LINE
5
A0
100
AcDbEntity
8
1
62
256
6
ByLayer
370
18
48
1
60
0
100
AcDbLine
10
29.607968
20
16.89191
30
0
11
29.232269
21
16.675
31
0
39
0
210
0
220
0
230
1
0
LINE
5
A1
100
AcDbEntity
8
1
62
256
6
ByLayer
370
18
48
1
60
0
100
AcDbLine
10
33.794882
20
12.075286
30
0
11
29.607968
21
12.25809
31
0
39
0
210
0
220
0
230
1
0
LINE
5
A2
100
AcDbEntity
8
1
62
256
6
ByLayer
370
18
48
1
60
0
100
AcDbLine
10
9.107968
20
16.749975
30
0
11
9.107968
21
16.775
31
0
39
0
210
0
220
0
230
1
0
LINE
5
A3
100
AcDbEntity
8
1
62
256
6
ByLayer
370
18
48
1
60
0
100
AcDbLine
10
13.607968
20
16.89191
30
0
11
13.853757
21
16.750003
31
0
39
0
210
0
220
0
230
1
0
LINE
5
A4
100
AcDbEntity
8
1
62
256
6
ByLayer
370
18
48
1
60
0
100
AcDbLine
10
9.421053
20
17.074714
30
0
11
13.607968
21
16.89191
31
0
39
0
210
0
220
0
230
1
0
LINE
5
A5
100
AcDbEntity
8
1
62
256
6
ByLayer
370
13
48
1
60
0
100
AcDbLine
10
26.107967
20
14.595
30
0
11
27.045829
21
14.595
31
0
39
0
210
0
220
0
230
1
0
LINE
5
A6
100
AcDbEntity
8
1
62
256
6
ByLayer
370
13
48
1
60
0
100
AcDbLine
10
26.107967
20
14.555
30
0
11
27.045829
21
14.555
31
0
39
0
210
0
220
0
230
1
0
LINE
5
A7
100
AcDbEntity
8
1
62
256
6
ByLayer
370
13
48
1
60
0
100
AcDbLine
10
26.107885
20
14.785736
30
0
11
27.036914
21
14.785736
31
0
39
0
210
0
220
0
230
1
0
LINE
5
A8
100
AcDbEntity
8
1
62
256
6
ByLayer
370
13
48
1
60
0
100
AcDbLine
10
26.107885
20
14.364264
30
0
11
27.036914
21
14.364264
31
0
39
0
210
0
220
0
230
1
0
LINE
5
A9
100
AcDbEntity
8
1
62
256
6
ByLayer
370
13
48
1
60
0
100
AcDbLine
10
25.999449
20
15.002733
30
0
11
26.856913
21
15.002733
31
0
39
0
210
0
220
0
230
1
0
LINE
5
AA
100
AcDbEntity
8
1
62
256
6
ByLayer
370
13
48
1
60
0
100
AcDbLine
10
25.999449
20
14.147267
30
0
11
26.856913
21
14.147267
31
0
39
0
210
0
220
0
230
1
0
LINE
5
AB
100
AcDbEntity
8
1
62
256
6
ByLayer
370
13
48
1
60
0
100
AcDbLine
10
26.698086
20
14.091915
30
0
11
25.869828
21
14.091915
31
0
39
0
210
0
220
0
230
1
0
LINE
5
AC
100
AcDbEntity
8
1
62
256
6
ByLayer
370
13
48
1
60
0
100
AcDbLine
10
26.698086
20
15.058085
30
0
11
25.869828
21
15.058085
31
0
39
0
210
0
220
0
230
1
0
LINE
5
AD
100
AcDbEntity
8
1
62
256
6
ByLayer
370
13
48
1
60
0
100
AcDbLine
10
25.827948
20
14.061112
30
0
11
26.65749
21
14.061112
31
0
39
0
210
0
220
0
230
1
0
LINE
5
AE
100
AcDbEntity
8
1
62
256
6
ByLayer
370
13
48
1
60
0
100
AcDbLine
10
25.827869
20
15.088888
30
0
11
26.65749
21
15.088888
31
0
39
0
210
0
220
0
230
1
0
LINE
5
AF
100
AcDbEntity
8
1
62
256
6
ByLayer
370
13
48
1
60
0
100
AcDbLine
10
25.812717
20
15.180665
30
0
11
26.585659
21
15.180665
31
0
39
0
210
0
220
0
230
1
0
LINE
5
B0
100
AcDbEntity
8
1
62
256
6
ByLayer
370
13
48
1
60
0
100
AcDbLine
10
25.813183
20
13.969335
30
0
11
26.585659
21
13.969335
31
0
39
0
210
0
220
0
230
1
0
LINE
5
B1
100
AcDbEntity
8
1
62
256
6
ByLayer
370
13
48
1
60
0
100
AcDbLine
10
25.805499
20
15.224934
30
0
11
26.565926
21
15.224934
31
0
39
0
210
0
220
0
230
1
0
LINE
5
B2
100
AcDbEntity
8
1
62
256
6
ByLayer
370
13
48
1
60
0
100
AcDbLine
10
25.806119
20
13.925066
30
0
11
26.565926
21
13.925066
31
0
39
0
210
0
220
0
230
1
0
LINE
5
B3
100
AcDbEntity
8
1
62
256
6
ByLayer
370
13
48
1
60
0
100
AcDbLine
10
25.590692
20
16.416384
30
0
11
26.355842
21
16.416384
31
0
39
0
210
0
220
0
230
1
0
LINE
5
B4
100
AcDbEntity
8
1
62
256
6
ByLayer
370
18
48
1
60
0
100
AcDbLine
10
26.354322
20
12.475
30
0
11
27.737968
21
12.475
31
0
39
0
210
0
220
0
230
1
0
LINE
5
B5
100
AcDbEntity
8
1
62
256
6
ByLayer
370
18
48
1
60
0
100
AcDbLine
10
27.737968
20
12.475
30
0
11
27.737968
21
16.675
31
0
39
0
210
0
220
0
230
1
0
LINE
5
B6
100
AcDbEntity
8
1
62
256
6
ByLayer
370
18
48
1
60
0
100
AcDbLine
10
26.354322
20
16.675
30
0
11
27.737968
21
16.675
31
0
39
0
210
0
220
0
230
1
0
LINE
5
B7
100
AcDbEntity
8
1
62
256
6
ByLayer
370
18
48
1
60
0
100
AcDbLine
10
26.565926
20
15.224934
30
0
11
26.355842
21
16.416384
31
0
39
0
210
0
220
0
230
1
0
LINE
5
B8
100
AcDbEntity
8
1
62
256
6
ByLayer
370
18
48
1
60
0
100
AcDbLine
10
26.65749
20
15.088888
30
0
11
26.585659
21
15.180665
31
0
39
0
210
0
220
0
230
1
0
LINE
5
B9
100
AcDbEntity
8
1
62
256
6
ByLayer
370
18
48
1
60
0
100
AcDbLine
10
27.045829
20
14.555
30
0
11
27.045829
21
14.595
31
0
39
0
210
0
220
0
230
1
0
LINE
5
BA
100
AcDbEntity
8
1
62
256
6
ByLayer
370
18
48
1
60
0
100
AcDbLine
10
26.65749
20
14.061112
30
0
11
26.585659
21
13.969335
31
0
39
0
210
0
220
0
230
1
0
LINE
5
BB
100
AcDbEntity
8
1
62
256
6
ByLayer
370
18
48
1
60
0
100
AcDbLine
10
26.565926
20
13.925066
30
0
11
26.355842
21
12.733616
31
0
39
0
210
0
220
0
230
1
0
LINE
5
BC
100
AcDbEntity
8
1
62
256
6
ByLayer
370
13
48
1
60
0
100
AcDbLine
10
25.590692
20
12.733616
30
0
11
26.355842
21
12.733616
31
0
39
0
210
0
220
0
230
1
0
LINE
5
BD
100
AcDbEntity
8
1
62
256
6
ByLayer
370
13
48
1
60
0
100
AcDbLine
10
25.586896
20
12.716251
30
0
11
26.354322
21
12.716251
31
0
39
0
210
0
220
0
230
1
0
LINE
5
BE
100
AcDbEntity
8
1
62
256
6
ByLayer
370
18
48
1
60
0
100
AcDbLine
10
25.535724
20
12.475
30
0
11
26.354322
21
12.475
31
0
39
0
210
0
220
0
230
1
0
LINE
5
BF
100
AcDbEntity
8
1
62
256
6
ByLayer
370
18
48
1
60
0
100
AcDbLine
10
26.354322
20
12.716251
30
0
11
26.354322
21
12.475
31
0
39
0
210
0
220
0
230
1
0
LINE
5
C0
100
AcDbEntity
8
1
62
256
6
ByLayer
370
13
48
1
60
0
100
AcDbLine
10
25.586896
20
16.433749
30
0
11
26.354322
21
16.433749
31
0
39
0
210
0
220
0
230
1
0
LINE
5
C1
100
AcDbEntity
8
1
62
256
6
ByLayer
370
18
48
1
60
0
100
AcDbLine
10
26.354322
20
16.433749
30
0
11
26.354322
21
16.675
31
0
39
0
210
0
220
0
230
1
0
LINE
5
C2
100
AcDbEntity
8
1
62
256
6
ByLayer
370
18
48
1
60
0
100
AcDbLine
10
25.535724
20
16.675
30
0
11
26.354322
21
16.675
31
0
39
0
210
0
220
0
230
1
0
LINE
5
C3
100
AcDbEntity
8
SK1
62
256
6
ByLayer
370
18
48
1
60
0
100
AcDbLine
10
-135.892032
20
-15.925
30
0
11
-4.462166
21
-15.925
31
0
39
0
210
0
220
0
230
1
0
LINE
5
C5
100
AcDbEntity
8
SK1
62
256
6
ByLayer
370
18
48
1
60
0
100
AcDbLine
10
-135.892032
20
15.925
30
0
11
-4.462166
21
15.925
31
0
39
0
210
0
220
0
230
1
0
LINE
5
C6
100
AcDbEntity
8
SK1
62
256
6
ByLayer
370
18
48
1
60
0
100
AcDbLine
10
-135.892032
20
-15.925
30
0
11
-135.892032
21
15.925
31
0
39
0
210
0
220
0
230
1
0
LINE
5
C7
100
AcDbEntity
8
SK1
62
256
6
ByLayer
370
18
48
1
60
0
100
AcDbLine
10
0
20
16.49899
30
0
11
0
21
-15.926878
31
0
39
0
210
0
220
0
230
1
0
LINE
5
C8
100
AcDbEntity
8
SK1
62
256
6
ByLayer
370
18
48
1
60
0
100
AcDbLine
10
-4.462166
20
15.925
30
0
11
-1.227723
21
15.925
31
0
39
0
210
0
220
0
230
1
0
LINE
5
C9
100
AcDbEntity
8
SK1
62
256
6
ByLayer
370
18
48
1
60
0
100
AcDbLine
10
-4.462166
20
15.925
30
0
11
-4.462166
21
-15.925
31
0
39
0
210
0
220
0
230
1
0
MTEXT
5
113
100
AcDbEntity
8
SK6
62
256
6
ByLayer
370
18
48
1
60
0
100
AcDbMText
10
-83.206532
20
-53.660365
30
0
210
0
220
0
230
1
1
\W0.7544;C2R-RS32-RJ13DB
40
3.5
41
0
44
1.084337
50
0
71
7
72
5
7
iso_b_vert
0
DIMENSION
5
118
100
AcDbEntity
8
2
62
256
6
ByLayer
370
18
48
1
60
0
100
AcDbDimension
2
_U0
10
61.857968
20
-15.925
30
0
11
61.857968
21
0.575
31
0
70
32
71
1
72
1
41
1
210
0
220
0
230
1
3
Standard
100
AcDbAlignedDimension
13
34.107968
23
17.075
33
0
14
-135.892032
24
-15.925
34
0
50
90
100
AcDbRotatedDimension
1001
ACAD
1000
DSTYLE
1002
{
1070
   371
1070
    13
1070
   372
1070
    13
1070
   170
1070
     0
1070
   144
1040
1.0
1070
   277
1070
     2
1070
   284
1070
     8
1070
   278
1070
    46
1070
   146
1040
1.0
1070
   345
1005
16
1070
   347
1005
16
1070
   346
1005
16
1070
   344
1005
0
1070
   343
1005
0
1070
   172
1070
     1
1070
    76
1070
     0
1070
    75
1070
     0
1070
   282
1070
     0
1070
   281
1070
     0
1070
    71
1070
     0
1070
    74
1070
     0
1070
   279
1070
     0
1070
   173
1070
     1
1070
   340
1005
114
1070
   271
1070
     2
1070
   272
1070
     2
1070
    77
1070
     1
1070
    73
1070
     0
1070
   171
1070
     3
1070
   274
1070
     4
1070
   177
1070
     2
1070
   176
1070
     2
1070
   178
1070
     2
1070
    78
1070
     8
1070
    48
1040
-0.1
1070
    41
1040
3.5
1070
   147
1040
1.75
1070
    42
1040
1.5875
1070
    44
1040
2.0
1070
   140
1040
3.5
1002
}
1001
ACAD_DSTYLE_DIM_LINETYPE
1070
   380
1005
16
1001
ACAD_DSTYLE_DIM_EXT1_LINETYPE
1070
   381
1005
16
1001
ACAD_DSTYLE_DIM_EXT2_LINETYPE
1070
   382
1005
16
0
DIMENSION
5
132
100
AcDbEntity
8
2
62
256
6
ByLayer
370
18
48
1
60
0
100
AcDbDimension
2
_U1
10
54.207968
20
17.075
30
0
11
54.207968
21
14.575
31
0
70
32
71
1
72
1
41
1
210
0
220
0
230
1
3
Standard
100
AcDbAlignedDimension
13
34.107968
23
12.075
33
0
14
34.107968
24
17.075
34
0
50
90
100
AcDbRotatedDimension
1001
ACAD
1000
DSTYLE
1002
{
1070
   371
1070
    13
1070
   372
1070
    13
1070
   170
1070
     0
1070
   144
1040
1.0
1070
   277
1070
     2
1070
   284
1070
     8
1070
   278
1070
    46
1070
   146
1040
1.0
1070
   345
1005
16
1070
   347
1005
16
1070
   346
1005
16
1070
   344
1005
0
1070
   343
1005
0
1070
   172
1070
     1
1070
    76
1070
     0
1070
    75
1070
     0
1070
   282
1070
     0
1070
   281
1070
     0
1070
    71
1070
     0
1070
    74
1070
     0
1070
   279
1070
     0
1070
   173
1070
     1
1070
   340
1005
114
1070
   271
1070
     2
1070
   272
1070
     2
1070
    77
1070
     1
1070
    73
1070
     0
1070
   171
1070
     3
1070
   274
1070
     4
1070
   177
1070
     2
1070
   176
1070
     2
1070
   178
1070
     2
1070
    78
1070
     8
1070
    48
1040
-0.1
1070
    41
1040
3.5
1070
   147
1040
1.75
1070
    42
1040
1.5875
1070
    44
1040
2.0
1070
   140
1040
3.5
1002
}
1001
ACAD_DSTYLE_DIM_LINETYPE
1070
   380
1005
16
1001
ACAD_DSTYLE_DIM_EXT1_LINETYPE
1070
   381
1005
16
1001
ACAD_DSTYLE_DIM_EXT2_LINETYPE
1070
   382
1005
16
0
DIMENSION
5
14B
100
AcDbEntity
8
SK2
62
256
6
ByLayer
370
18
48
1
60
0
100
AcDbDimension
2
_U2
10
-147.492032
20
16.075
30
0
11
-147.492032
21
0.075
31
0
70
32
71
1
72
1
41
1
210
0
220
0
230
1
3
Standard
100
AcDbAlignedDimension
13
-135.892032
23
-15.925
33
0
14
-135.892032
24
16.075
34
0
50
90
100
AcDbRotatedDimension
1001
ACAD
1000
DSTYLE
1002
{
1070
   371
1070
    13
1070
   372
1070
    13
1070
   170
1070
     0
1070
   144
1040
1.0
1070
   277
1070
     2
1070
   284
1070
     8
1070
   278
1070
    46
1070
   146
1040
1.0
1070
   345
1005
16
1070
   347
1005
16
1070
   346
1005
16
1070
   344
1005
0
1070
   343
1005
0
1070
   172
1070
     1
1070
    76
1070
     0
1070
    75
1070
     0
1070
   282
1070
     0
1070
   281
1070
     0
1070
    71
1070
     0
1070
    74
1070
     0
1070
   279
1070
     0
1070
   173
1070
     1
1070
   340
1005
114
1070
   271
1070
     2
1070
   272
1070
     2
1070
    77
1070
     1
1070
    73
1070
     0
1070
   171
1070
     3
1070
   274
1070
     4
1070
   177
1070
     2
1070
   176
1070
     2
1070
   178
1070
     2
1070
    78
1070
     8
1070
    48
1040
-0.1
1070
    41
1040
3.5
1070
   147
1040
1.75
1070
    42
1040
1.5875
1070
    44
1040
2.0
1070
   140
1040
3.5
1002
}
1001
ACAD_DSTYLE_DIM_LINETYPE
1070
   380
1005
16
1001
ACAD_DSTYLE_DIM_EXT1_LINETYPE
1070
   381
1005
16
1001
ACAD_DSTYLE_DIM_EXT2_LINETYPE
1070
   382
1005
16
0
DIMENSION
5
164
100
AcDbEntity
8
2
62
256
6
ByLayer
370
18
48
1
60
0
100
AcDbDimension
2
_U3
10
34.107968
20
-27.675
30
0
11
27.607968
21
-27.675
31
0
70
32
71
1
72
1
41
1
210
0
220
0
230
1
3
Standard
100
AcDbAlignedDimension
13
21.107968
23
12.4
33
0
14
34.107968
24
17.075
34
0
50
0
100
AcDbRotatedDimension
1001
ACAD
1000
DSTYLE
1002
{
1070
   371
1070
    13
1070
   372
1070
    13
1070
   170
1070
     0
1070
   144
1040
1.0
1070
   277
1070
     2
1070
   284
1070
     8
1070
   278
1070
    46
1070
   146
1040
1.0
1070
   345
1005
16
1070
   347
1005
16
1070
   346
1005
16
1070
   344
1005
0
1070
   343
1005
0
1070
   172
1070
     1
1070
    76
1070
     0
1070
    75
1070
     0
1070
   282
1070
     0
1070
   281
1070
     0
1070
    71
1070
     0
1070
    74
1070
     0
1070
   279
1070
     0
1070
   173
1070
     1
1070
   340
1005
114
1070
   271
1070
     1
1070
   272
1070
     2
1070
    77
1070
     1
1070
    73
1070
     1
1070
   171
1070
     3
1070
   274
1070
     4
1070
   177
1070
     2
1070
   176
1070
     2
1070
   178
1070
     2
1070
    78
1070
     8
1070
    48
1040
-0.1
1070
    41
1040
3.5
1070
   147
1040
1.75
1070
    42
1040
1.5875
1070
    44
1040
2.0
1070
   140
1040
3.5
1002
}
1001
ACAD_DSTYLE_DIM_LINETYPE
1070
   380
1005
16
1001
ACAD_DSTYLE_DIM_EXT1_LINETYPE
1070
   381
1005
16
1001
ACAD_DSTYLE_DIM_EXT2_LINETYPE
1070
   382
1005
16
0
DIMENSION
5
17D
100
AcDbEntity
8
SK2
62
256
6
ByLayer
370
18
48
1
60
0
100
AcDbDimension
2
_U4
10
34.107968
20
-33.675
30
0
11
-50.892032
21
-33.675
31
0
70
32
71
1
72
1
41
1
210
0
220
0
230
1
3
Standard
100
AcDbAlignedDimension
13
-135.892032
23
-15.925
33
0
14
34.107968
24
17.075
34
0
50
0
100
AcDbRotatedDimension
1001
ACAD
1000
DSTYLE
1002
{
1070
   371
1070
    13
1070
   372
1070
    13
1070
   170
1070
     0
1070
   144
1040
1.0
1070
   277
1070
     2
1070
   284
1070
     8
1070
   278
1070
    46
1070
   146
1040
1.0
1070
   345
1005
16
1070
   347
1005
16
1070
   346
1005
16
1070
   344
1005
0
1070
   343
1005
0
1070
   172
1070
     1
1070
    76
1070
     0
1070
    75
1070
     0
1070
   282
1070
     0
1070
   281
1070
     0
1070
    71
1070
     0
1070
    74
1070
     0
1070
   279
1070
     0
1070
   173
1070
     1
1070
   340
1005
114
1070
   271
1070
     1
1070
   272
1070
     2
1070
    77
1070
     1
1070
    73
1070
     1
1070
   171
1070
     3
1070
   274
1070
     4
1070
   177
1070
     2
1070
   176
1070
     2
1070
   178
1070
     2
1070
    78
1070
     8
1070
    48
1040
-0.1
1070
    41
1040
3.5
1070
   147
1040
1.75
1070
    42
1040
1.5875
1070
    44
1040
2.0
1070
   140
1040
3.5
1002
}
1001
ACAD_DSTYLE_DIM_LINETYPE
1070
   380
1005
16
1001
ACAD_DSTYLE_DIM_EXT1_LINETYPE
1070
   381
1005
16
1001
ACAD_DSTYLE_DIM_EXT2_LINETYPE
1070
   382
1005
16
0
ENDSEC
0
SECTION
2
OBJECTS
0
DICTIONARY
5
204
330
0
100
AcDbDictionary
280
0
281
1
3
ACAD_GROUP
350
205
3
ACAD_MLINESTYLE
350
206
0
DICTIONARY
5
205
330
0
100
AcDbDictionary
280
0
281
1
0
DICTIONARY
5
206
330
0
100
AcDbDictionary
280
0
281
1
3
Standard
350
18
0
MLINESTYLE
5
18
330
206
100
AcDbMlineStyle
2
Standard
70
0
3

62
256
51
90
52
90
71
2
49
-0.5
62
256
6
ByLayer
49
0.5
62
256
6
ByLayer
0
RASTERVARIABLES
5
1f3
330

100
AcDbRasterVariables
90
0
70
1
71
1
72
1
0
ENDSEC
0
EOF
