0
SECTION
2
HEADER
9
$ACADVER
1
AC1015
9
$DWGCODEPAGE
3
ANSI_1252
9
$HANDSEED
5
209
9
$ANGBASE
50
0
9
$ANGDIR
70
0
9
$ATTMODE
70
1
9
$AUNITS
70
0
9
$AUPREC
70
0
9
$CECOLOR
62
256
9
$CELTSCALE
40
1
9
$CELTYPE
6
ByLayer
9
$CELWEIGHT
370
18
9
$CLAYER
8
0
9
$CMLJUST
70
0
9
$CMLSCALE
40
1
9
$CMLSTYLE
2
Standard
9
$DIMSTYLE
2
Standard
9
$TEXTSIZE
40
0.2
9
$TEXTSTYLE
7
Standard
9
$LUNITS
70
2
9
$LUPREC
70
4
9
$EXTNAMES
290
1
9
$INSUNITS
70
4
9
$LTSCALE
40
1
9
$LWDISPLAY
290
1
9
$PDMODE
70
0
9
$PDSIZE
40
0
9
$PLINEGEN
70
0
0
ENDSEC
0
SECTION
2
CLASSES
0
CLASS
1
RASTERVARIABLES
2
AcDbRasterVariables
3
ISM
90
0
280
0
281
0
0
ENDSEC
0
SECTION
2
TABLES
0
TABLE
2
VPORT
5
1ff
100
AcDbSymbolTable
0
VPORT
5
1
100
AcDbSymbolTableRecord
100
AcDbViewportTableRecord
2
*Active
70
0
10
0
20
0
11
1
21
1
12
-1
22
1
13
0
23
0
14
0.5
24
0.5
15
10
25
10
16
0
26
0
36
1
17
0
27
0
37
0
0
ENDTAB
0
TABLE
2
LTYPE
5
200
100
AcDbSymbolTable
0
LTYPE
5
14
100
AcDbSymbolTableRecord
100
AcDbLinetypeTableRecord
70
0
2
ByBlock
3

72
65
73
0
40
0
0
LTYPE
5
15
100
AcDbSymbolTableRecord
100
AcDbLinetypeTableRecord
70
0
2
ByLayer
3

72
65
73
0
40
0
0
LTYPE
5
16
100
AcDbSymbolTableRecord
100
AcDbLinetypeTableRecord
70
0
2
Continuous
3
Solid line
72
65
73
0
40
0
0
LTYPE
5
6E
100
AcDbSymbolTableRecord
100
AcDbLinetypeTableRecord
70
0
2
CENTER
3
____ _ ____ _ ____ _ ____
72
65
73
4
40
47.5
49
22
74
0
49
-8.5
74
0
49
8.5
74
0
49
-8.5
74
0
0
LTYPE
5
6F
100
AcDbSymbolTableRecord
100
AcDbLinetypeTableRecord
70
0
2
DASHED
3
__ __ __ __ __ __ __ __ __
72
65
73
2
40
25.72
49
12.86
74
0
49
-12.86
74
0
0
ENDTAB
0
TABLE
2
LAYER
5
201
100
AcDbSymbolTable
0
LAYER
5
10
100
AcDbSymbolTableRecord
100
AcDbLayerTableRecord
2
0
70
0
62
7
6
Continuous
290
1
370
-3
390
0
0
LAYER
5
71
100
AcDbSymbolTableRecord
100
AcDbLayerTableRecord
2
81
70
0
62
-3
6
Continuous
290
1
370
-3
390
0
0
LAYER
5
73
100
AcDbSymbolTableRecord
100
AcDbLayerTableRecord
2
80
70
0
62
-6
6
Continuous
290
1
370
-3
390
0
0
LAYER
5
75
100
AcDbSymbolTableRecord
100
AcDbLayerTableRecord
2
1
70
0
62
4
6
Continuous
290
1
370
-3
390
0
0
LAYER
5
111
100
AcDbSymbolTableRecord
100
AcDbLayerTableRecord
2
Defpoints
70
0
62
7
6
Continuous
290
0
370
-3
390
0
0
LAYER
5
11F
100
AcDbSymbolTableRecord
100
AcDbLayerTableRecord
2
2
70
0
62
7
6
Continuous
290
1
370
-3
390
0
0
LAYER
5
1ec
100
AcDbSymbolTableRecord
100
AcDbLayerTableRecord
2
SK1
70
0
62
4
6
Continuous
290
1
370
-3
390
0
0
LAYER
5
1ed
100
AcDbSymbolTableRecord
100
AcDbLayerTableRecord
2
SK6
70
0
62
5
6
Continuous
290
1
370
-3
390
0
0
LAYER
5
1ee
100
AcDbSymbolTableRecord
100
AcDbLayerTableRecord
2
SK2
70
0
62
7
6
Continuous
290
1
370
-3
390
0
0
ENDTAB
0
TABLE
2
STYLE
5
202
100
AcDbSymbolTable
0
STYLE
5
11
100
AcDbSymbolTableRecord
100
AcDbTextStyleTableRecord
2
Standard
3
txt
70
0
71
0
40
0
41
1
42
0
50
0
0
STYLE
5
10A
100
AcDbSymbolTableRecord
100
AcDbTextStyleTableRecord
2
iso_b_vert
3
simplex.shx
70
0
71
0
40
0
41
1
42
0
50
0
0
STYLE
5
10B
100
AcDbSymbolTableRecord
100
AcDbTextStyleTableRecord
2
DWGDirectTextStyle
3
simplex
70
0
71
0
40
0
41
1
42
0
50
0
0
ENDTAB
0
TABLE
2
DIMSTYLE
5
203
100
AcDbSymbolTable
100
AcDbDimStyleTable
0
DIMSTYLE
105
27
100
AcDbSymbolTableRecord
100
AcDbDimStyleTableRecord
2
Standard
70
0
3
<>
41
0.18
42
0.0625
44
0.18
140
0.18
147
0.09
73
0
74
0
77
1
271
2
275
0
278
52
280
0
340
11
0
ENDTAB
0
TABLE
2
VIEW
5
204
100
AcDbSymbolTable
0
ENDTAB
0
TABLE
2
UCS
5
205
100
AcDbSymbolTable
0
ENDTAB
0
TABLE
2
APPID
5
206
100
AcDbSymbolTable
0
APPID
5
12
100
AcDbSymbolTableRecord
100
AcDbRegAppTableRecord
2
ACAD
70
0
0
APPID
5
10D
100
AcDbSymbolTableRecord
100
AcDbRegAppTableRecord
2
ACAD_DSTYLE_DIMBREAK
70
0
0
APPID
5
1AB
100
AcDbSymbolTableRecord
100
AcDbRegAppTableRecord
2
ACAD_DSTYLE_DIM_LINETYPE
70
0
0
APPID
5
1AC
100
AcDbSymbolTableRecord
100
AcDbRegAppTableRecord
2
ACAD_DSTYLE_DIM_EXT1_LINETYPE
70
0
0
APPID
5
1AD
100
AcDbSymbolTableRecord
100
AcDbRegAppTableRecord
2
ACAD_DSTYLE_DIM_EXT2_LINETYPE
70
0
0
APPID
5
1E8
100
AcDbSymbolTableRecord
100
AcDbRegAppTableRecord
2
ACAD_MLEADERVER
70
0
0
ENDTAB
0
TABLE
2
BLOCK_RECORD
5
207
100
AcDbSymbolTable
0
BLOCK_RECORD
5
1F
100
AcDbSymbolTableRecord
100
AcDbBlockTableRecord
2
*Model_Space
340
0
70
0
0
BLOCK_RECORD
5
1B
100
AcDbSymbolTableRecord
100
AcDbBlockTableRecord
2
*Paper_Space
340
0
70
0
0
BLOCK_RECORD
5
23
100
AcDbSymbolTableRecord
100
AcDbBlockTableRecord
2
*Paper_Space0
340
0
70
0
0
BLOCK_RECORD
5
112
100
AcDbSymbolTableRecord
100
AcDbBlockTableRecord
2
*D1
340
0
70
0
0
BLOCK_RECORD
5
120
100
AcDbSymbolTableRecord
100
AcDbBlockTableRecord
2
_U0
340
0
70
0
0
BLOCK_RECORD
5
12C
100
AcDbSymbolTableRecord
100
AcDbBlockTableRecord
2
*D3
340
0
70
0
0
BLOCK_RECORD
5
139
100
AcDbSymbolTableRecord
100
AcDbBlockTableRecord
2
_U1
340
0
70
0
0
BLOCK_RECORD
5
145
100
AcDbSymbolTableRecord
100
AcDbBlockTableRecord
2
*D5
340
0
70
0
0
BLOCK_RECORD
5
153
100
AcDbSymbolTableRecord
100
AcDbBlockTableRecord
2
_U2
340
0
70
0
0
BLOCK_RECORD
5
15F
100
AcDbSymbolTableRecord
100
AcDbBlockTableRecord
2
*D7
340
0
70
0
0
BLOCK_RECORD
5
16C
100
AcDbSymbolTableRecord
100
AcDbBlockTableRecord
2
_U3
340
0
70
0
0
BLOCK_RECORD
5
178
100
AcDbSymbolTableRecord
100
AcDbBlockTableRecord
2
*D9
340
0
70
0
0
BLOCK_RECORD
5
184
100
AcDbSymbolTableRecord
100
AcDbBlockTableRecord
2
_U4
340
0
70
0
0
ENDTAB
0
ENDSEC
0
SECTION
2
BLOCKS
0
BLOCK
5
20
100
AcDbEntity
8
0
100
AcDbBlockBegin
2
*Model_Space
70
0
10
0
20
0
30
0
3
*Model_Space
0
ENDBLK
5
21
100
AcDbEntity
8
0
100
AcDbBlockEnd
0
BLOCK
5
1C
100
AcDbEntity
8
0
100
AcDbBlockBegin
2
*Paper_Space
70
0
10
0
20
0
30
0
3
*Paper_Space
0
ENDBLK
5
1D
100
AcDbEntity
8
0
100
AcDbBlockEnd
0
BLOCK
5
24
100
AcDbEntity
8
0
100
AcDbBlockBegin
2
*Paper_Space0
70
0
10
0
20
0
30
0
3
*Paper_Space0
0
ENDBLK
5
25
100
AcDbEntity
8
0
100
AcDbBlockEnd
0
BLOCK
5
113
100
AcDbEntity
8
0
100
AcDbBlockBegin
2
*D1
70
1
10
0
20
0
30
0
3
*D1
0
LINE
5
115
100
AcDbEntity
8
0
62
256
6
ByLayer
370
-2
48
1
60
0
100
AcDbLine
10
33.295468
20
9.0625
30
0
11
61.457968
21
9.0625
31
0
39
0
210
0
220
0
230
1
0
LINE
5
116
100
AcDbEntity
8
0
62
256
6
ByLayer
370
-2
48
1
60
0
100
AcDbLine
10
-91.704532
20
-7.9375
30
0
11
61.457968
21
-7.9375
31
0
39
0
210
0
220
0
230
1
0
LINE
5
117
100
AcDbEntity
8
0
62
256
6
ByLayer
370
-2
48
1
60
0
100
AcDbLine
10
59.457968
20
12.5625
30
0
11
59.457968
21
16.0625
31
0
39
0
210
0
220
0
230
1
0
LINE
5
118
100
AcDbEntity
8
0
62
256
6
ByLayer
370
-2
48
1
60
0
100
AcDbLine
10
59.457968
20
-11.4375
30
0
11
59.457968
21
-14.9375
31
0
39
0
210
0
220
0
230
1
0
SOLID
5
119
100
AcDbEntity
8
0
62
256
6
ByLayer
370
-1
48
1
60
0
100
AcDbTrace
10
58.874634
20
12.5625
30
0
11
60.041301
21
12.5625
31
0
12
59.457968
22
9.0625
32
0
13
59.457968
23
9.0625
33
0
39
0
210
0
220
0
230
1
0
SOLID
5
11A
100
AcDbEntity
8
0
62
256
6
ByLayer
370
-1
48
1
60
0
100
AcDbTrace
10
60.041301
20
-11.4375
30
0
11
58.874634
21
-11.4375
31
0
12
59.457968
22
-7.9375
32
0
13
59.457968
23
-7.9375
33
0
39
0
210
0
220
0
230
1
0
MTEXT
5
11B
100
AcDbEntity
8
0
62
256
6
ByLayer
370
18
48
1
60
0
100
AcDbMText
10
52.457968
20
0.5625
30
0
210
0
220
0
230
1
1
\A1;17
40
3.5
41
0
44
1
50
90
71
5
72
5
7
iso_b_vert
0
POINT
5
11C
100
AcDbEntity
8
Defpoints
62
0
6
ByLayer
370
-1
48
1
60
0
100
AcDbPoint
10
31.707968
20
9.0625
30
0
39
0
210
0
220
0
230
1
50
360
0
POINT
5
11D
100
AcDbEntity
8
Defpoints
62
0
6
ByLayer
370
-1
48
1
60
0
100
AcDbPoint
10
-93.292032
20
-7.9375
30
0
39
0
210
0
220
0
230
1
50
360
0
POINT
5
11E
100
AcDbEntity
8
Defpoints
62
0
6
ByLayer
370
-1
48
1
60
0
100
AcDbPoint
10
59.457968
20
-7.9375
30
0
39
0
210
0
220
0
230
1
50
360
0
ENDBLK
5
114
100
AcDbEntity
8
0
100
AcDbBlockEnd
0
BLOCK
5
127
100
AcDbEntity
8
0
100
AcDbBlockBegin
2
_U0
70
0
10
0
20
0
30
0
3
_U0
0
MTEXT
5
121
100
AcDbEntity
8
2
62
256
6
ByLayer
370
18
48
1
60
0
100
AcDbMText
10
58.768334
20
-0.933033
30
0
210
0
220
0
230
1
1
\W0.5321;17
40
3.5
41
0
44
1.084337
50
90
71
7
72
5
7
iso_b_vert
0
LINE
5
122
100
AcDbEntity
8
2
62
256
6
ByLayer
370
13
48
1
60
0
100
AcDbLine
10
33.295468
20
9.0625
30
0
11
61.457968
21
9.0625
31
0
39
0
210
0
220
0
230
1
0
LINE
5
123
100
AcDbEntity
8
2
62
256
6
ByLayer
370
13
48
1
60
0
100
AcDbLine
10
-91.704532
20
-7.9375
30
0
11
61.457968
21
-7.9375
31
0
39
0
210
0
220
0
230
1
0
LINE
5
124
100
AcDbEntity
8
2
62
256
6
ByLayer
370
13
48
1
60
0
100
AcDbLine
10
59.457968
20
9.0625
30
0
11
59.457968
21
-7.9375
31
0
39
0
210
0
220
0
230
1
0
SOLID
5
125
100
AcDbEntity
8
2
62
256
6
ByLayer
370
18
48
1
60
0
100
AcDbTrace
10
59.457968
20
9.0625
30
0
11
59.918751
21
5.562502
31
0
12
58.997184
22
5.562498
32
0
13
58.997184
23
5.562498
33
0
39
0
210
0
220
0
230
1
0
SOLID
5
126
100
AcDbEntity
8
2
62
256
6
ByLayer
370
18
48
1
60
0
100
AcDbTrace
10
59.457968
20
-7.9375
30
0
11
58.997184
21
-4.437502
31
0
12
59.918751
22
-4.437498
32
0
13
59.918751
23
-4.437498
33
0
39
0
210
0
220
0
230
1
0
ENDBLK
5
128
100
AcDbEntity
8
0
100
AcDbBlockEnd
0
BLOCK
5
12D
100
AcDbEntity
8
0
100
AcDbBlockBegin
2
*D3
70
1
10
0
20
0
30
0
3
*D3
0
LINE
5
12F
100
AcDbEntity
8
0
62
256
6
ByLayer
370
-2
48
1
60
0
100
AcDbLine
10
33.295468
20
5.0625
30
0
11
53.807968
21
5.0625
31
0
39
0
210
0
220
0
230
1
0
LINE
5
130
100
AcDbEntity
8
0
62
256
6
ByLayer
370
-2
48
1
60
0
100
AcDbLine
10
33.295468
20
9.0625
30
0
11
53.807968
21
9.0625
31
0
39
0
210
0
220
0
230
1
0
LINE
5
131
100
AcDbEntity
8
0
62
256
6
ByLayer
370
-2
48
1
60
0
100
AcDbLine
10
51.807968
20
1.5625
30
0
11
51.807968
21
-1.9375
31
0
39
0
210
0
220
0
230
1
0
LINE
5
132
100
AcDbEntity
8
0
62
256
6
ByLayer
370
-2
48
1
60
0
100
AcDbLine
10
51.807968
20
12.5625
30
0
11
51.807968
21
16.0625
31
0
39
0
210
0
220
0
230
1
0
SOLID
5
133
100
AcDbEntity
8
0
62
256
6
ByLayer
370
-1
48
1
60
0
100
AcDbTrace
10
52.391301
20
1.5625
30
0
11
51.224634
21
1.5625
31
0
12
51.807968
22
5.0625
32
0
13
51.807968
23
5.0625
33
0
39
0
210
0
220
0
230
1
0
SOLID
5
134
100
AcDbEntity
8
0
62
256
6
ByLayer
370
-1
48
1
60
0
100
AcDbTrace
10
51.224634
20
12.5625
30
0
11
52.391301
21
12.5625
31
0
12
51.807968
22
9.0625
32
0
13
51.807968
23
9.0625
33
0
39
0
210
0
220
0
230
1
0
MTEXT
5
135
100
AcDbEntity
8
0
62
256
6
ByLayer
370
18
48
1
60
0
100
AcDbMText
10
44.807968
20
7.0625
30
0
210
0
220
0
230
1
1
\A1;4
40
3.5
41
0
44
1
50
90
71
5
72
5
7
iso_b_vert
0
POINT
5
136
100
AcDbEntity
8
Defpoints
62
0
6
ByLayer
370
-1
48
1
60
0
100
AcDbPoint
10
31.707968
20
5.0625
30
0
39
0
210
0
220
0
230
1
50
360
0
POINT
5
137
100
AcDbEntity
8
Defpoints
62
0
6
ByLayer
370
-1
48
1
60
0
100
AcDbPoint
10
31.707968
20
9.0625
30
0
39
0
210
0
220
0
230
1
50
360
0
POINT
5
138
100
AcDbEntity
8
Defpoints
62
0
6
ByLayer
370
-1
48
1
60
0
100
AcDbPoint
10
51.807968
20
9.0625
30
0
39
0
210
0
220
0
230
1
50
360
0
ENDBLK
5
12E
100
AcDbEntity
8
0
100
AcDbBlockEnd
0
BLOCK
5
140
100
AcDbEntity
8
0
100
AcDbBlockBegin
2
_U1
70
0
10
0
20
0
30
0
3
_U1
0
MTEXT
5
13A
100
AcDbEntity
8
2
62
256
6
ByLayer
370
18
48
1
60
0
100
AcDbMText
10
51.118334
20
6.253
30
0
210
0
220
0
230
1
1
\W0.6380;4
40
3.5
41
0
44
1.084337
50
90
71
7
72
5
7
iso_b_vert
0
LINE
5
13B
100
AcDbEntity
8
2
62
256
6
ByLayer
370
13
48
1
60
0
100
AcDbLine
10
33.295468
20
5.0625
30
0
11
53.807968
21
5.0625
31
0
39
0
210
0
220
0
230
1
0
LINE
5
13C
100
AcDbEntity
8
2
62
256
6
ByLayer
370
13
48
1
60
0
100
AcDbLine
10
33.295468
20
9.0625
30
0
11
53.807968
21
9.0625
31
0
39
0
210
0
220
0
230
1
0
LINE
5
13D
100
AcDbEntity
8
2
62
256
6
ByLayer
370
13
48
1
60
0
100
AcDbLine
10
51.807968
20
-3.6875
30
0
11
51.807968
21
17.8125
31
0
39
0
210
0
220
0
230
1
0
SOLID
5
13E
100
AcDbEntity
8
2
62
256
6
ByLayer
370
18
48
1
60
0
100
AcDbTrace
10
51.807968
20
5.0625
30
0
11
52.268751
21
1.562502
31
0
12
51.347184
22
1.562498
32
0
13
51.347184
23
1.562498
33
0
39
0
210
0
220
0
230
1
0
SOLID
5
13F
100
AcDbEntity
8
2
62
256
6
ByLayer
370
18
48
1
60
0
100
AcDbTrace
10
51.807968
20
9.0625
30
0
11
51.347184
21
12.562498
31
0
12
52.268751
22
12.562502
32
0
13
52.268751
23
12.562502
33
0
39
0
210
0
220
0
230
1
0
ENDBLK
5
141
100
AcDbEntity
8
0
100
AcDbBlockEnd
0
BLOCK
5
146
100
AcDbEntity
8
0
100
AcDbBlockBegin
2
*D5
70
1
10
0
20
0
30
0
3
*D5
0
LINE
5
148
100
AcDbEntity
8
0
62
256
6
ByLayer
370
-2
48
1
60
0
100
AcDbLine
10
-94.879532
20
-7.9375
30
0
11
-106.892032
21
-7.9375
31
0
39
0
210
0
220
0
230
1
0
LINE
5
149
100
AcDbEntity
8
0
62
256
6
ByLayer
370
-2
48
1
60
0
100
AcDbLine
10
-94.879532
20
8.0625
30
0
11
-106.892032
21
8.0625
31
0
39
0
210
0
220
0
230
1
0
LINE
5
14A
100
AcDbEntity
8
0
62
256
6
ByLayer
370
-2
48
1
60
0
100
AcDbLine
10
-104.892032
20
-11.4375
30
0
11
-104.892032
21
-14.9375
31
0
39
0
210
0
220
0
230
1
0
LINE
5
14B
100
AcDbEntity
8
0
62
256
6
ByLayer
370
-2
48
1
60
0
100
AcDbLine
10
-104.892032
20
11.5625
30
0
11
-104.892032
21
15.0625
31
0
39
0
210
0
220
0
230
1
0
SOLID
5
14C
100
AcDbEntity
8
0
62
256
6
ByLayer
370
-1
48
1
60
0
100
AcDbTrace
10
-104.308699
20
-11.4375
30
0
11
-105.475366
21
-11.4375
31
0
12
-104.892032
22
-7.9375
32
0
13
-104.892032
23
-7.9375
33
0
39
0
210
0
220
0
230
1
0
SOLID
5
14D
100
AcDbEntity
8
0
62
256
6
ByLayer
370
-1
48
1
60
0
100
AcDbTrace
10
-105.475366
20
11.5625
30
0
11
-104.308699
21
11.5625
31
0
12
-104.892032
22
8.0625
32
0
13
-104.892032
23
8.0625
33
0
39
0
210
0
220
0
230
1
0
MTEXT
5
14E
100
AcDbEntity
8
0
62
256
6
ByLayer
370
18
48
1
60
0
100
AcDbMText
10
-111.892032
20
0.0625
30
0
210
0
220
0
230
1
1
\A1;16
40
3.5
41
0
44
1
50
90
71
5
72
5
7
iso_b_vert
0
POINT
5
14F
100
AcDbEntity
8
Defpoints
62
0
6
ByLayer
370
-1
48
1
60
0
100
AcDbPoint
10
-93.292032
20
-7.9375
30
0
39
0
210
0
220
0
230
1
50
360
0
POINT
5
150
100
AcDbEntity
8
Defpoints
62
0
6
ByLayer
370
-1
48
1
60
0
100
AcDbPoint
10
-93.292032
20
8.0625
30
0
39
0
210
0
220
0
230
1
50
360
0
POINT
5
151
100
AcDbEntity
8
Defpoints
62
0
6
ByLayer
370
-1
48
1
60
0
100
AcDbPoint
10
-104.892032
20
8.0625
30
0
39
0
210
0
220
0
230
1
50
360
0
ENDBLK
5
147
100
AcDbEntity
8
0
100
AcDbBlockEnd
0
BLOCK
5
15A
100
AcDbEntity
8
0
100
AcDbBlockBegin
2
_U2
70
0
10
0
20
0
30
0
3
_U2
0
MTEXT
5
154
100
AcDbEntity
8
SK2
62
256
6
ByLayer
370
18
48
1
60
0
100
AcDbMText
10
-105.581666
20
-1.433033
30
0
210
0
220
0
230
1
1
\W0.5321;16
40
3.5
41
0
44
1.084337
50
90
71
7
72
5
7
iso_b_vert
0
LINE
5
155
100
AcDbEntity
8
SK2
62
256
6
ByLayer
370
13
48
1
60
0
100
AcDbLine
10
-94.879532
20
-7.9375
30
0
11
-106.892032
21
-7.9375
31
0
39
0
210
0
220
0
230
1
0
LINE
5
156
100
AcDbEntity
8
SK2
62
256
6
ByLayer
370
13
48
1
60
0
100
AcDbLine
10
-94.879532
20
8.0625
30
0
11
-106.892032
21
8.0625
31
0
39
0
210
0
220
0
230
1
0
LINE
5
157
100
AcDbEntity
8
SK2
62
256
6
ByLayer
370
13
48
1
60
0
100
AcDbLine
10
-104.892032
20
-7.9375
30
0
11
-104.892032
21
8.0625
31
0
39
0
210
0
220
0
230
1
0
SOLID
5
158
100
AcDbEntity
8
SK2
62
256
6
ByLayer
370
18
48
1
60
0
100
AcDbTrace
10
-104.892032
20
-7.9375
30
0
11
-105.352816
21
-4.437502
31
0
12
-104.431249
22
-4.437498
32
0
13
-104.431249
23
-4.437498
33
0
39
0
210
0
220
0
230
1
0
SOLID
5
159
100
AcDbEntity
8
SK2
62
256
6
ByLayer
370
18
48
1
60
0
100
AcDbTrace
10
-104.892032
20
8.0625
30
0
11
-104.431249
21
4.562502
31
0
12
-105.352816
22
4.562498
32
0
13
-105.352816
23
4.562498
33
0
39
0
210
0
220
0
230
1
0
ENDBLK
5
15B
100
AcDbEntity
8
0
100
AcDbBlockEnd
0
BLOCK
5
160
100
AcDbEntity
8
0
100
AcDbBlockBegin
2
*D7
70
1
10
0
20
0
30
0
3
*D7
0
LINE
5
162
100
AcDbEntity
8
0
62
256
6
ByLayer
370
-2
48
1
60
0
100
AcDbLine
10
18.707968
20
3.8
30
0
11
18.707968
21
-21.6875
31
0
39
0
210
0
220
0
230
1
0
LINE
5
163
100
AcDbEntity
8
0
62
256
6
ByLayer
370
-2
48
1
60
0
100
AcDbLine
10
31.707968
20
7.475
30
0
11
31.707968
21
-21.6875
31
0
39
0
210
0
220
0
230
1
0
LINE
5
164
100
AcDbEntity
8
0
62
256
6
ByLayer
370
-2
48
1
60
0
100
AcDbLine
10
15.207968
20
-19.6875
30
0
11
11.707968
21
-19.6875
31
0
39
0
210
0
220
0
230
1
0
LINE
5
165
100
AcDbEntity
8
0
62
256
6
ByLayer
370
-2
48
1
60
0
100
AcDbLine
10
35.207968
20
-19.6875
30
0
11
38.707968
21
-19.6875
31
0
39
0
210
0
220
0
230
1
0
SOLID
5
166
100
AcDbEntity
8
0
62
256
6
ByLayer
370
-1
48
1
60
0
100
AcDbTrace
10
15.207968
20
-20.270833
30
0
11
15.207968
21
-19.104167
31
0
12
18.707968
22
-19.6875
32
0
13
18.707968
23
-19.6875
33
0
39
0
210
0
220
0
230
1
0
SOLID
5
167
100
AcDbEntity
8
0
62
256
6
ByLayer
370
-1
48
1
60
0
100
AcDbTrace
10
35.207968
20
-19.104167
30
0
11
35.207968
21
-20.270833
31
0
12
31.707968
22
-19.6875
32
0
13
31.707968
23
-19.6875
33
0
39
0
210
0
220
0
230
1
0
MTEXT
5
168
100
AcDbEntity
8
0
62
256
6
ByLayer
370
18
48
1
60
0
100
AcDbMText
10
25.207968
20
-12.6875
30
0
210
0
220
0
230
1
1
\A1;13
40
3.5
41
0
44
1
50
0
71
5
72
5
7
iso_b_vert
0
POINT
5
169
100
AcDbEntity
8
Defpoints
62
0
6
ByLayer
370
-1
48
1
60
0
100
AcDbPoint
10
18.707968
20
5.3875
30
0
39
0
210
0
220
0
230
1
50
360
0
POINT
5
16A
100
AcDbEntity
8
Defpoints
62
0
6
ByLayer
370
-1
48
1
60
0
100
AcDbPoint
10
31.707968
20
9.0625
30
0
39
0
210
0
220
0
230
1
50
360
0
POINT
5
16B
100
AcDbEntity
8
Defpoints
62
0
6
ByLayer
370
-1
48
1
60
0
100
AcDbPoint
10
31.707968
20
-19.6875
30
0
39
0
210
0
220
0
230
1
50
360
0
ENDBLK
5
161
100
AcDbEntity
8
0
100
AcDbBlockEnd
0
BLOCK
5
173
100
AcDbEntity
8
0
100
AcDbBlockBegin
2
_U3
70
0
10
0
20
0
30
0
3
_U3
0
MTEXT
5
16D
100
AcDbEntity
8
2
62
256
6
ByLayer
370
18
48
1
60
0
100
AcDbMText
10
23.740435
20
-18.654866
30
0
210
0
220
0
230
1
1
\W0.5321;13
40
3.5
41
0
44
1.084337
50
0
71
7
72
5
7
iso_b_vert
0
LINE
5
16E
100
AcDbEntity
8
2
62
256
6
ByLayer
370
13
48
1
60
0
100
AcDbLine
10
18.707968
20
3.8
30
0
11
18.707968
21
-21.6875
31
0
39
0
210
0
220
0
230
1
0
LINE
5
16F
100
AcDbEntity
8
2
62
256
6
ByLayer
370
13
48
1
60
0
100
AcDbLine
10
31.707968
20
7.475
30
0
11
31.707968
21
-21.6875
31
0
39
0
210
0
220
0
230
1
0
LINE
5
170
100
AcDbEntity
8
2
62
256
6
ByLayer
370
13
48
1
60
0
100
AcDbLine
10
18.707968
20
-19.6875
30
0
11
31.707968
21
-19.6875
31
0
39
0
210
0
220
0
230
1
0
SOLID
5
171
100
AcDbEntity
8
2
62
256
6
ByLayer
370
18
48
1
60
0
100
AcDbTrace
10
18.707968
20
-19.6875
30
0
11
22.207966
21
-19.226716
31
0
12
22.207969
22
-20.148284
32
0
13
22.207969
23
-20.148284
33
0
39
0
210
0
220
0
230
1
0
SOLID
5
172
100
AcDbEntity
8
2
62
256
6
ByLayer
370
18
48
1
60
0
100
AcDbTrace
10
31.707968
20
-19.6875
30
0
11
28.207969
21
-20.148284
31
0
12
28.207966
22
-19.226716
32
0
13
28.207966
23
-19.226716
33
0
39
0
210
0
220
0
230
1
0
ENDBLK
5
174
100
AcDbEntity
8
0
100
AcDbBlockEnd
0
BLOCK
5
179
100
AcDbEntity
8
0
100
AcDbBlockBegin
2
*D9
70
1
10
0
20
0
30
0
3
*D9
0
LINE
5
17B
100
AcDbEntity
8
0
62
256
6
ByLayer
370
-2
48
1
60
0
100
AcDbLine
10
-93.292032
20
-9.525
30
0
11
-93.292032
21
-27.6875
31
0
39
0
210
0
220
0
230
1
0
LINE
5
17C
100
AcDbEntity
8
0
62
256
6
ByLayer
370
-2
48
1
60
0
100
AcDbLine
10
31.707968
20
7.475
30
0
11
31.707968
21
-27.6875
31
0
39
0
210
0
220
0
230
1
0
LINE
5
17D
100
AcDbEntity
8
0
62
256
6
ByLayer
370
-2
48
1
60
0
100
AcDbLine
10
-89.792032
20
-25.6875
30
0
11
28.207968
21
-25.6875
31
0
39
0
210
0
220
0
230
1
0
SOLID
5
17E
100
AcDbEntity
8
0
62
256
6
ByLayer
370
-1
48
1
60
0
100
AcDbTrace
10
-89.792032
20
-25.104167
30
0
11
-89.792032
21
-26.270833
31
0
12
-93.292032
22
-25.6875
32
0
13
-93.292032
23
-25.6875
33
0
39
0
210
0
220
0
230
1
0
SOLID
5
17F
100
AcDbEntity
8
0
62
256
6
ByLayer
370
-1
48
1
60
0
100
AcDbTrace
10
28.207968
20
-26.270833
30
0
11
28.207968
21
-25.104167
31
0
12
31.707968
22
-25.6875
32
0
13
31.707968
23
-25.6875
33
0
39
0
210
0
220
0
230
1
0
MTEXT
5
180
100
AcDbEntity
8
0
62
256
6
ByLayer
370
18
48
1
60
0
100
AcDbMText
10
-30.792032
20
-18.6875
30
0
210
0
220
0
230
1
1
\A1;125
40
3.5
41
0
44
1
50
0
71
5
72
5
7
iso_b_vert
0
POINT
5
181
100
AcDbEntity
8
Defpoints
62
0
6
ByLayer
370
-1
48
1
60
0
100
AcDbPoint
10
-93.292032
20
-7.9375
30
0
39
0
210
0
220
0
230
1
50
360
0
POINT
5
182
100
AcDbEntity
8
Defpoints
62
0
6
ByLayer
370
-1
48
1
60
0
100
AcDbPoint
10
31.707968
20
9.0625
30
0
39
0
210
0
220
0
230
1
50
360
0
POINT
5
183
100
AcDbEntity
8
Defpoints
62
0
6
ByLayer
370
-1
48
1
60
0
100
AcDbPoint
10
31.707968
20
-25.6875
30
0
39
0
210
0
220
0
230
1
50
360
0
ENDBLK
5
17A
100
AcDbEntity
8
0
100
AcDbBlockEnd
0
BLOCK
5
18B
100
AcDbEntity
8
0
100
AcDbBlockBegin
2
_U4
70
0
10
0
20
0
30
0
3
_U4
0
MTEXT
5
185
100
AcDbEntity
8
SK2
62
256
6
ByLayer
370
18
48
1
60
0
100
AcDbMText
10
-33.567298
20
-24.654866
30
0
210
0
220
0
230
1
1
\W0.6217;125
40
3.5
41
0
44
1.084337
50
0
71
7
72
5
7
iso_b_vert
0
LINE
5
186
100
AcDbEntity
8
SK2
62
256
6
ByLayer
370
13
48
1
60
0
100
AcDbLine
10
-93.292032
20
-9.525
30
0
11
-93.292032
21
-27.6875
31
0
39
0
210
0
220
0
230
1
0
LINE
5
187
100
AcDbEntity
8
SK2
62
256
6
ByLayer
370
13
48
1
60
0
100
AcDbLine
10
31.707968
20
7.475
30
0
11
31.707968
21
-27.6875
31
0
39
0
210
0
220
0
230
1
0
LINE
5
188
100
AcDbEntity
8
SK2
62
256
6
ByLayer
370
13
48
1
60
0
100
AcDbLine
10
-93.292032
20
-25.6875
30
0
11
31.707968
21
-25.6875
31
0
39
0
210
0
220
0
230
1
0
SOLID
5
189
100
AcDbEntity
8
SK2
62
256
6
ByLayer
370
18
48
1
60
0
100
AcDbTrace
10
-93.292032
20
-25.6875
30
0
11
-89.792034
21
-25.226716
31
0
12
-89.792031
22
-26.148284
32
0
13
-89.792031
23
-26.148284
33
0
39
0
210
0
220
0
230
1
0
SOLID
5
18A
100
AcDbEntity
8
SK2
62
256
6
ByLayer
370
18
48
1
60
0
100
AcDbTrace
10
31.707968
20
-25.6875
30
0
11
28.207969
21
-26.148284
31
0
12
28.207966
22
-25.226716
32
0
13
28.207966
23
-25.226716
33
0
39
0
210
0
220
0
230
1
0
ENDBLK
5
18C
100
AcDbEntity
8
0
100
AcDbBlockEnd
0
ENDSEC
0
SECTION
2
ENTITIES
0
ARC
5
C8
100
AcDbEntity
8
1
62
256
6
ByLayer
370
18
48
1
60
0
100
AcDbCircle
39
0
10
18.707968
20
3.7875
30
0
40
1.6
210
0
220
0
230
1
100
AcDbArc
50
179.995717
51
180
0
ARC
5
CA
100
AcDbEntity
8
1
62
256
6
ByLayer
370
18
48
1
60
0
100
AcDbCircle
39
0
10
11.557968
20
-1.8875
30
0
40
1.416
210
0
220
0
230
1
100
AcDbArc
50
209.809289
51
263.807562
0
ARC
5
CB
100
AcDbEntity
8
1
62
256
6
ByLayer
370
18
48
1
60
0
100
AcDbCircle
39
0
10
11.557968
20
-1.8875
30
0
40
1.416
210
0
220
0
230
1
100
AcDbArc
50
29.809289
51
83.807562
0
ARC
5
CC
100
AcDbEntity
8
1
62
256
6
ByLayer
370
18
48
1
60
0
100
AcDbCircle
39
0
10
11.557968
20
-1.8875
30
0
40
1.416
210
0
220
0
230
1
100
AcDbArc
50
96.192438
51
150.190711
0
ARC
5
CD
100
AcDbEntity
8
1
62
256
6
ByLayer
370
18
48
1
60
0
100
AcDbCircle
39
0
10
11.557968
20
-1.8875
30
0
40
1.416
210
0
220
0
230
1
100
AcDbArc
50
330.190711
51
29.809289
0
ARC
5
CE
100
AcDbEntity
8
1
62
256
6
ByLayer
370
18
48
1
60
0
100
AcDbCircle
39
0
10
11.557968
20
-1.8875
30
0
40
1.416
210
0
220
0
230
1
100
AcDbArc
50
276.192438
51
330.190711
0
ARC
5
CF
100
AcDbEntity
8
1
62
256
6
ByLayer
370
18
48
1
60
0
100
AcDbCircle
39
0
10
11.557968
20
-1.8875
30
0
40
1.416
210
0
220
0
230
1
100
AcDbArc
50
150.190711
51
209.809289
0
ARC
5
D0
100
AcDbEntity
8
1
62
256
6
ByLayer
370
18
48
1
60
0
100
AcDbCircle
39
0
10
11.557968
20
-1.8875
30
0
40
1.9685
210
0
220
0
230
1
100
AcDbArc
50
239.618578
51
300.381422
0
ARC
5
D1
100
AcDbEntity
8
1
62
256
6
ByLayer
370
18
48
1
60
0
100
AcDbCircle
39
0
10
11.557968
20
-1.8875
30
0
40
1.416
210
0
220
0
230
1
100
AcDbArc
50
263.807562
51
276.192438
0
ARC
5
D2
100
AcDbEntity
8
1
62
256
6
ByLayer
370
18
48
1
60
0
100
AcDbCircle
39
0
10
11.557968
20
-1.8875
30
0
40
1.9685
210
0
220
0
230
1
100
AcDbArc
50
0
51
59.618578
0
ARC
5
D3
100
AcDbEntity
8
1
62
256
6
ByLayer
370
18
48
1
60
0
100
AcDbCircle
39
0
10
11.557968
20
-1.8875
30
0
40
1.9685
210
0
220
0
230
1
100
AcDbArc
50
120.381422
51
180
0
ARC
5
D4
100
AcDbEntity
8
1
62
256
6
ByLayer
370
18
48
1
60
0
100
AcDbCircle
39
0
10
11.557968
20
-1.8875
30
0
40
1.416
210
0
220
0
230
1
100
AcDbArc
50
83.807562
51
96.192438
0
ARC
5
D5
100
AcDbEntity
8
1
62
256
6
ByLayer
370
18
48
1
60
0
100
AcDbCircle
39
0
10
11.557968
20
-1.8875
30
0
40
1.9685
210
0
220
0
230
1
100
AcDbArc
50
59.618578
51
120.381422
0
ARC
5
D8
100
AcDbEntity
8
1
62
256
6
ByLayer
370
18
48
1
60
0
100
AcDbCircle
39
0
10
11.557968
20
-1.8875
30
0
40
1.9685
210
0
220
0
230
1
100
AcDbArc
50
180
51
239.618578
0
ARC
5
D9
100
AcDbEntity
8
1
62
256
6
ByLayer
370
18
48
1
60
0
100
AcDbCircle
39
0
10
11.557968
20
-1.8875
30
0
40
1.9685
210
0
220
0
230
1
100
AcDbArc
50
300.381422
51
0
0
ARC
5
DA
100
AcDbEntity
8
1
62
256
6
ByLayer
370
18
48
1
60
0
100
AcDbCircle
39
0
10
31.407968
20
5.3625
30
0
40
0.3
210
0
220
0
230
1
100
AcDbArc
50
267.5
51
0
0
ARC
5
DB
100
AcDbEntity
8
1
62
256
6
ByLayer
370
18
48
1
60
0
100
AcDbCircle
39
0
10
31.407968
20
8.7625
30
0
40
0.3
210
0
220
0
230
1
100
AcDbArc
50
0
51
92.5
0
ARC
5
DC
100
AcDbEntity
8
1
62
256
6
ByLayer
370
18
48
1
60
0
100
AcDbCircle
39
0
10
7.007968
20
8.7625
30
0
40
0.3
210
0
220
0
230
1
100
AcDbArc
50
87.5
51
180
0
CIRCLE
5
C9
100
AcDbEntity
8
1
62
256
6
ByLayer
370
18
48
1
60
0
100
AcDbCircle
10
11.557968
20
-1.8875
30
0
40
4.55
39
0
210
0
220
0
230
1
0
CIRCLE
5
D6
100
AcDbEntity
8
1
62
256
6
ByLayer
370
18
48
1
60
0
100
AcDbCircle
10
11.557968
20
-1.8875
30
0
40
4.25
39
0
210
0
220
0
230
1
0
CIRCLE
5
D7
100
AcDbEntity
8
1
62
256
6
ByLayer
370
18
48
1
60
0
100
AcDbCircle
10
11.557968
20
-1.8875
30
0
40
3.75
39
0
210
0
220
0
230
1
0
ELLIPSE
5
DD
100
AcDbEntity
8
1
62
256
6
ByLayer
370
18
48
1
60
0
100
AcDbEllipse
10
-2.415859
20
-7.947099
30
0
11
3.00000000015204
21
3.51436609392568E-15
31
0
210
0
220
0
230
1
40
0.004363
41
0.26179938779689
42
0.634637860114133
0
ELLIPSE
5
DE
100
AcDbEntity
8
1
62
256
6
ByLayer
370
18
48
1
60
0
100
AcDbEllipse
10
17.142076
20
5.3875
30
0
11
-2.78951487299376
21
3.41605763755018E-16
31
0
210
0
220
0
230
1
40
0.573576
41
0
42
1.55856879176523
0
ELLIPSE
5
DF
100
AcDbEntity
8
SK1
62
256
6
ByLayer
370
18
48
1
60
0
100
AcDbEllipse
10
-2.415859
20
-7.947099
30
0
11
3.00000000000007
21
3.51436609374765E-15
31
0
210
0
220
0
230
1
40
0.004363
41
0.634637860128762
42
2.3183806764637
0
ELLIPSE
5
E0
100
AcDbEntity
8
1
62
256
6
ByLayer
370
18
48
1
60
0
100
AcDbEllipse
10
24.264407
20
7.729799
30
0
11
0.041251731532732
21
-0.0910949759162362
31
0
210
0
220
0
230
1
40
1
41
-1.82147912804545
42
-1.33192858213774
0
ELLIPSE
5
E1
100
AcDbEntity
8
1
62
256
6
ByLayer
370
18
48
1
60
0
100
AcDbEllipse
10
24.264407
20
6.395201
30
0
11
0.0411067722626918
21
0.0911604808327524
31
0
210
0
220
0
230
1
40
1
41
1.33033785621912
42
1.81988840212971
0
ELLIPSE
5
E2
100
AcDbEntity
8
1
62
256
6
ByLayer
370
18
48
1
60
0
100
AcDbEllipse
10
24.142486
20
5.703751
30
0
11
0.00754053114463144
21
0.0997152940171293
31
0
210
0
220
0
230
1
40
1
41
1.47174035454701
42
1.64627328431384
0
ELLIPSE
5
E3
100
AcDbEntity
8
1
62
256
6
ByLayer
370
18
48
1
60
0
100
AcDbEllipse
10
24.142486
20
8.421249
30
0
11
0.00754052285432307
21
-0.0997152946440685
31
0
210
0
220
0
230
1
40
1
41
-1.64627320117401
42
-1.47174027140721
0
POINT
5
70
100
AcDbEntity
8
81
62
256
6
ByLayer
370
18
48
1
60
0
100
AcDbPoint
10
31.707968
20
9.0625
30
0
39
0
210
0
220
0
230
1
50
360
0
POINT
5
72
100
AcDbEntity
8
80
62
256
6
ByLayer
370
18
48
1
60
0
100
AcDbPoint
10
0
20
0
30
0
39
0
210
0
220
0
230
1
50
360
0
POINT
5
74
100
AcDbEntity
8
1
62
256
6
ByLayer
370
18
48
1
60
1
100
AcDbPoint
10
31.707968
20
9.0625
30
0
39
0
210
0
220
0
230
1
50
360
0
POINT
5
76
100
AcDbEntity
8
1
62
256
6
ByLayer
370
18
48
1
60
1
100
AcDbPoint
10
-93.292032
20
-7.9375
30
0
39
0
210
0
220
0
230
1
50
360
0
POINT
5
77
100
AcDbEntity
8
1
62
256
6
ByLayer
370
18
48
1
60
1
100
AcDbPoint
10
31.707968
20
5.0625
30
0
39
0
210
0
220
0
230
1
50
360
0
POINT
5
78
100
AcDbEntity
8
1
62
256
6
ByLayer
370
18
48
1
60
1
100
AcDbPoint
10
31.707968
20
9.0625
30
0
39
0
210
0
220
0
230
1
50
360
0
POINT
5
79
100
AcDbEntity
8
1
62
256
6
ByLayer
370
18
48
1
60
1
100
AcDbPoint
10
-93.292032
20
-7.9375
30
0
39
0
210
0
220
0
230
1
50
360
0
POINT
5
7A
100
AcDbEntity
8
1
62
256
6
ByLayer
370
18
48
1
60
1
100
AcDbPoint
10
-93.292032
20
8.0625
30
0
39
0
210
0
220
0
230
1
50
360
0
POINT
5
7B
100
AcDbEntity
8
1
62
256
6
ByLayer
370
18
48
1
60
1
100
AcDbPoint
10
18.707968
20
5.3875
30
0
39
0
210
0
220
0
230
1
50
360
0
POINT
5
7C
100
AcDbEntity
8
1
62
256
6
ByLayer
370
18
48
1
60
1
100
AcDbPoint
10
31.707968
20
9.0625
30
0
39
0
210
0
220
0
230
1
50
360
0
POINT
5
7D
100
AcDbEntity
8
1
62
256
6
ByLayer
370
18
48
1
60
1
100
AcDbPoint
10
-93.292032
20
-7.9375
30
0
39
0
210
0
220
0
230
1
50
360
0
POINT
5
7E
100
AcDbEntity
8
1
62
256
6
ByLayer
370
18
48
1
60
1
100
AcDbPoint
10
31.707968
20
9.0625
30
0
39
0
210
0
220
0
230
1
50
360
0
SPLINE
5
E4
100
AcDbEntity
8
1
62
256
6
ByLayer
370
18
48
1
60
0
100
AcDbSpline
70
4
71
3
72
10
73
6
40
0
40
0
40
0
40
0
40
0.5
40
0.5
40
1
40
1
40
1
40
1
41
1
10
0.157917465288676
20
8.73749999999984
30
0
41
1
10
0.1344665216007
20
8.6968817740468
30
0
41
1
10
0.109591306572213
20
8.65789990705713
30
0
41
1
10
0.0569722395134704
20
8.58268900369615
30
0
41
1
10
0.0292278500070324
20
8.54646440155821
30
0
41
1
10
0
20
8.51149035510917
30
0
0
SPLINE
5
E5
100
AcDbEntity
8
1
62
256
6
ByLayer
370
18
48
1
60
0
100
AcDbSpline
70
4
71
3
72
8
73
4
40
0
40
0
40
0
40
0
40
1
40
1
40
1
40
1
41
1
10
23.6271257792798
20
6.64657723761357
30
0
41
1
10
23.5616721404866
20
6.61773430633343
30
0
41
1
10
23.4961025793964
20
6.58940854013653
30
0
41
1
10
23.4302153477877
20
6.5625
30
0
0
SPLINE
5
E6
100
AcDbEntity
8
1
62
256
6
ByLayer
370
18
48
1
60
0
100
AcDbSpline
70
4
71
3
72
18
73
14
40
0
40
0
40
0
40
0
40
0.249999999999949
40
0.249999999999949
40
0.499999999999898
40
0.499999999999898
40
0.624999999999924
40
0.624999999999924
40
0.749999999999949
40
0.749999999999949
40
0.874999999999975
40
0.874999999999975
40
1
40
1
40
1
40
1
41
1
10
23.7079675788577
20
6.78753113073148
30
0
41
1
10
23.7079675788577
20
6.77170667076049
30
0
41
1
10
23.705982063428
20
6.75632593542105
30
0
41
1
10
23.6981161574226
20
6.72643489466336
30
0
41
1
10
23.6924216759352
20
6.71267415121153
30
0
41
1
10
23.681422316242
20
6.693874666017
30
0
41
1
10
23.6773940441611
20
6.68801892913669
30
0
41
1
10
23.6687590323544
20
6.67723115833661
30
0
41
1
10
23.664136566465
20
6.6722727290414
30
0
41
1
10
23.6542858359853
20
6.66322089784634
30
0
41
1
10
23.6490910285894
20
6.65916749605589
30
0
41
1
10
23.6383871450718
20
6.65212031649267
30
0
41
1
10
23.6328489567549
20
6.64909922443761
30
0
41
1
10
23.6271257792798
20
6.6465772376136
30
0
0
SPLINE
5
E7
100
AcDbEntity
8
1
62
256
6
ByLayer
370
18
48
1
60
0
100
AcDbSpline
70
4
71
3
72
20
73
16
40
0
40
0
40
0
40
0
40
0.250000000000104
40
0.250000000000104
40
0.375000000000086
40
0.375000000000086
40
0.500000000000069
40
0.500000000000069
40
0.625000000000052
40
0.625000000000052
40
0.750000000000035
40
0.750000000000035
40
0.875000000000017
40
0.875000000000017
40
1
40
1
40
1
40
1
41
1
10
23.6271257792801
20
7.47842276238632
30
0
41
1
10
23.6385771767408
20
7.47337656669552
30
0
41
1
10
23.6492453454358
20
7.46638771987281
30
0
41
1
10
23.6640159096368
20
7.45284947792862
30
0
41
1
10
23.6687115475185
20
7.44782227262405
30
0
41
1
10
23.6773490077085
20
7.43704316449507
30
0
41
1
10
23.6813341354954
20
7.43125461429878
30
0
41
1
10
23.6886149272942
20
7.41885289917025
30
0
41
1
10
23.6919343358608
20
7.41217148783315
30
0
41
1
10
23.6976335769425
20
7.39836837399983
30
0
41
1
10
23.7000349899855
20
7.39123081188072
30
0
41
1
10
23.7039382341003
20
7.37648200965552
30
0
41
1
10
23.7054464872661
20
7.36881649051401
30
0
41
1
10
23.7074607871041
20
7.35324258806563
30
0
41
1
10
23.7079675788693
20
7.34538931564532
30
0
41
1
10
23.7079675788694
20
7.33746886927011
30
0
0
SPLINE
5
E8
100
AcDbEntity
8
1
62
256
6
ByLayer
370
18
48
1
60
0
100
AcDbSpline
70
4
71
3
72
8
73
4
40
0
40
0
40
0
40
0
40
1
40
1
40
1
40
1
41
1
10
23.4302153477877
20
7.5625
30
0
41
1
10
23.496085553729
20
7.53559841319637
30
0
41
1
10
23.5616597633986
20
7.50727114777894
30
0
41
1
10
23.6271257792801
20
7.47842276238632
30
0
0
SPLINE
5
E9
100
AcDbEntity
8
1
62
256
6
ByLayer
370
18
48
1
60
0
100
AcDbSpline
70
4
71
3
72
12
73
8
40
0
40
0
40
0
40
0
40
0.25
40
0.25
40
0.5
40
0.5
40
1
40
1
40
1
40
1
41
1
10
23.2258868863198
20
8.73750000000004
30
0
41
1
10
23.2459063311451
20
8.64045880265164
30
0
41
1
10
23.2645090501268
20
8.54300307664923
30
0
41
1
10
23.3002990870627
20
8.34767748362657
30
0
41
1
10
23.3174548677625
20
8.24979838892432
30
0
41
1
10
23.3675988882572
20
7.95577390589256
30
0
41
1
10
23.3992972381321
20
7.75925110062326
30
0
41
1
10
23.4302153477877
20
7.56250000000006
30
0
0
SPLINE
5
EA
100
AcDbEntity
8
1
62
256
6
ByLayer
370
18
48
1
60
0
100
AcDbSpline
70
4
71
3
72
12
73
8
40
0
40
0
40
0
40
0
40
0.500000000000001
40
0.500000000000001
40
0.75
40
0.75
40
1
40
1
40
1
40
1
41
1
10
23.4302153477898
20
6.56249999999946
30
0
41
1
10
23.3992985405695
20
6.3657571875795
30
0
41
1
10
23.367596137499
20
6.1692079830697
30
0
41
1
10
23.3174430225491
20
5.87513314671847
30
0
41
1
10
23.3002854080943
20
5.77724574597428
30
0
41
1
10
23.2644967018711
20
5.58193165064816
30
0
41
1
10
23.2458954143075
20
5.48448827964779
30
0
41
1
10
23.2258868863198
20
5.38750000000002
30
0
0
SPLINE
5
EB
100
AcDbEntity
8
1
62
256
6
ByLayer
370
18
48
1
60
0
100
AcDbSpline
70
4
71
3
72
49
73
45
40
0
40
0
40
0
40
0
40
0.0625000000000141
40
0.0625000000000141
40
0.125000000000028
40
0.125000000000028
40
0.187500000000042
40
0.187500000000042
40
0.203125000000047
40
0.203125000000047
40
0.218750000000052
40
0.250000000000053
40
0.250000000000053
40
0.312500000000054
40
0.312500000000054
40
0.375000000000056
40
0.375000000000056
40
0.406250000000054
40
0.406250000000054
40
0.437500000000052
40
0.437500000000052
40
0.500000000000048
40
0.500000000000048
40
0.562500000000044
40
0.562500000000044
40
0.578125000000043
40
0.578125000000043
40
0.593750000000043
40
0.593750000000043
40
0.625000000000039
40
0.625000000000039
40
0.750000000000028
40
0.750000000000028
40
0.781250000000025
40
0.781250000000025
40
0.812500000000023
40
0.812500000000023
40
0.875000000000015
40
0.875000000000015
40
0.937500000000008
40
0.937500000000008
40
0.968750000000004
40
0.968750000000004
40
1
40
1
40
1
40
1
41
1
10
18.7079675788577
20
5.38749999999999
30
0
41
1
10
18.6366610450945
20
5.38750000000002
30
0
41
1
10
18.5660176766727
20
5.38275165567546
30
0
41
1
10
18.4261558937775
20
5.36406582286244
30
0
41
1
10
18.356938345638
20
5.35012170033991
30
0
41
1
10
18.2203495892206
20
5.31302836654393
30
0
41
1
10
18.1529780248554
20
5.28987412896564
30
0
41
1
10
18.0703763675726
20
5.25508263364259
30
0
41
1
10
18.0539123357865
20
5.24781971983711
30
0
41
1
10
18.0213281066402
20
5.23278480941539
30
0
41
1
10
17.9729472412502
20
5.20946389363206
30
0
41
1
10
17.9260904397696
20
5.18389658481982
30
0
41
1
10
17.8345212182052
20
5.12992786992925
30
0
41
1
10
17.7763326697011
20
5.09016537374333
30
0
41
1
10
17.6663364447475
20
5.00400534744455
30
0
41
1
10
17.6145313430155
20
4.95760430312171
30
0
41
1
10
17.542128040419
20
4.88385983651457
30
0
41
1
10
17.5188359670717
20
4.85853333820907
30
0
41
1
10
17.474591247384
20
4.80726920264559
30
0
41
1
10
17.4535759180887
20
4.78127440186884
30
0
41
1
10
17.3937926414869
20
4.70253455434903
30
0
41
1
10
17.3582937588072
20
4.64903365923223
30
0
41
1
10
17.2955533288527
20
4.54178486190733
30
0
41
1
10
17.2683126708214
20
4.48803530223503
30
0
41
1
10
17.2390051188346
20
4.42181777429565
30
0
41
1
10
17.2333802113985
20
4.40862288935401
30
0
41
1
10
17.2225908339033
20
4.3823592047689
30
0
41
1
10
17.2174248229776
20
4.36928463654425
30
0
41
1
10
17.2026810983529
20
4.33052568384178
30
0
41
1
10
17.1938244408328
20
4.3052285817578
30
0
41
1
10
17.1538722073028
20
4.18189168964463
30
0
41
1
10
17.1357148987747
20
4.09340250481301
30
0
41
1
10
17.1221968540313
20
4.00122502266603
30
0
41
1
10
17.1199547722356
20
3.98369370769615
30
0
41
1
10
17.1162193655164
20
3.9506388067274
30
0
41
1
10
17.1147393528684
20
3.93524491367219
30
0
41
1
10
17.1111580738464
20
3.89246839107744
30
0
41
1
10
17.1099003166851
20
3.86848911240119
30
0
41
1
10
17.1084039211075
20
3.82962262527667
30
0
41
1
10
17.1081662476804
20
3.81473012195841
30
0
41
1
10
17.1080028548178
20
3.7993036656525
30
0
41
1
10
17.1079841894966
20
3.79531495638437
30
0
41
1
10
17.1079665980117
20
3.7896865650186
30
0
41
1
10
17.1079676159193
20
3.78805557654212
30
0
41
1
10
17.1079675833283
20
3.78761960859978
30
0
0
SPLINE
5
EC
100
AcDbEntity
8
1
62
256
6
ByLayer
370
18
48
1
60
0
100
AcDbSpline
70
4
71
3
72
24
73
20
40
0
40
0
40
0
40
0
40
0.125000000000049
40
0.125000000000049
40
0.187500000000034
40
0.187500000000034
40
0.250000000000019
40
0.250000000000019
40
0.375000000000077
40
0.375000000000077
40
0.500000000000135
40
0.500000000000135
40
0.625000000000193
40
0.625000000000193
40
0.687500000000186
40
0.687500000000186
40
0.75000000000018
40
0.75000000000018
40
1
40
1
40
1
40
1
41
1
10
10.5623906892625
20
-3.58568105833976
30
0
41
1
10
10.5790167362838
20
-3.5954282570253
30
0
41
1
10
10.596329330038
20
-3.60363573668982
30
0
41
1
10
10.623315022645
20
-3.61366576349766
30
0
41
1
10
10.6325149499761
20
-3.6166359412957
30
0
41
1
10
10.651112113685
20
-3.62174854955512
30
0
41
1
10
10.6604184994209
20
-3.62386958926606
30
0
41
1
10
10.6883586129759
20
-3.62899634461303
30
0
41
1
10
10.7070132386139
20
-3.63077407382687
30
0
41
1
10
10.7443675207996
20
-3.63118150345832
30
0
41
1
10
10.7632065012841
20
-3.62976047800436
30
0
41
1
10
10.7993826837782
20
-3.62398729490306
30
0
41
1
10
10.8168980524106
20
-3.6196586246314
30
0
41
1
10
10.8423564556761
20
-3.61115209639121
30
0
41
1
10
10.8507060766707
20
-3.60797913939874
30
0
41
1
10
10.8671315197088
20
-3.60096298446996
30
0
41
1
10
10.8752343234489
20
-3.59710285142728
30
0
41
1
10
10.9143834503782
20
-3.57648464130705
30
0
41
1
10
10.9418925645348
20
-3.55571415237353
30
0
41
1
10
10.9658498746905
20
-3.53108262808874
30
0
0
SPLINE
5
ED
100
AcDbEntity
8
1
62
256
6
ByLayer
370
18
48
1
60
0
100
AcDbSpline
70
4
71
3
72
24
73
20
40
0
40
0
40
0
40
0
40
0.24999999999982
40
0.24999999999982
40
0.312499999999814
40
0.312499999999814
40
0.374999999999807
40
0.374999999999807
40
0.499999999999865
40
0.499999999999865
40
0.624999999999923
40
0.624999999999923
40
0.749999999999981
40
0.749999999999981
40
0.812499999999966
40
0.812499999999966
40
0.87499999999995
40
0.87499999999995
40
1
40
1
40
1
40
1
41
1
10
12.1500852830249
20
-3.53108262808874
30
0
41
1
10
12.1740425931806
20
-3.55571415237353
30
0
41
1
10
12.2015517073371
20
-3.57648464130705
30
0
41
1
10
12.2407008342664
20
-3.59710285142728
30
0
41
1
10
12.2488036380065
20
-3.60096298446996
30
0
41
1
10
12.2652290810446
20
-3.60797913939874
30
0
41
1
10
12.2735787020392
20
-3.61115209639121
30
0
41
1
10
12.2990371053047
20
-3.6196586246314
30
0
41
1
10
12.3165524739372
20
-3.62398729490306
30
0
41
1
10
12.3527286564313
20
-3.62976047800436
30
0
41
1
10
12.3715676369158
20
-3.63118150345832
30
0
41
1
10
12.4089219191015
20
-3.63077407382687
30
0
41
1
10
12.4275765447395
20
-3.62899634461303
30
0
41
1
10
12.4555166582945
20
-3.62386958926606
30
0
41
1
10
12.4648230440303
20
-3.62174854955512
30
0
41
1
10
12.4834202077392
20
-3.6166359412957
30
0
41
1
10
12.4926201350704
20
-3.61366576349766
30
0
41
1
10
12.5196058276773
20
-3.60363573668982
30
0
41
1
10
12.5369184214316
20
-3.5954282570253
30
0
41
1
10
12.5535444684529
20
-3.58568105833976
30
0
0
SPLINE
5
EE
100
AcDbEntity
8
1
62
256
6
ByLayer
370
18
48
1
60
0
100
AcDbSpline
70
4
71
3
72
18
73
14
40
0
40
0
40
0
40
0
40
0.250000000000139
40
0.250000000000139
40
0.375000000000174
40
0.375000000000174
40
0.437500000000159
40
0.437500000000159
40
0.500000000000144
40
0.500000000000144
40
0.750000000000072
40
0.750000000000072
40
1
40
1
40
1
40
1
41
1
10
11.4052262854812
20
-3.2952379362998
30
0
41
1
10
11.360801296
20
-3.30359702343514
30
0
41
1
10
11.3184388511745
20
-3.31530592386301
30
0
41
1
10
11.2574799809178
20
-3.33728529958464
30
0
41
1
10
11.2375947660047
20
-3.34535398223076
30
0
41
1
10
11.2083824326143
20
-3.35854090624684
30
0
41
1
10
11.1987477354005
20
-3.36311747444699
30
0
41
1
10
11.1796797032484
20
-3.37263070900482
30
0
41
1
10
11.1702255490332
20
-3.37757912414386
30
0
41
1
10
11.1237587869801
20
-3.4030498531435
30
0
41
1
10
11.0891342350026
20
-3.42571699746728
30
0
41
1
10
11.0242606035479
20
-3.47525052945974
30
0
41
1
10
10.9940183793335
20
-3.50212139656196
30
0
41
1
10
10.9658498746905
20
-3.53108262808874
30
0
0
SPLINE
5
EF
100
AcDbEntity
8
1
62
256
6
ByLayer
370
18
48
1
60
0
100
AcDbSpline
70
4
71
3
72
17
73
13
40
0
40
0
40
0
40
0
40
0.250000000000047
40
0.250000000000047
40
0.500000000000094
40
0.500000000000094
40
0.562500000000069
40
0.562500000000069
40
0.625000000000044
40
0.750000000000053
40
0.750000000000053
40
1
40
1
40
1
40
1
41
1
10
12.1500852830249
20
-3.53108262808874
30
0
41
1
10
12.1219198976671
20
-3.50212460363107
30
0
41
1
10
12.0916933367222
20
-3.47526905890359
30
0
41
1
10
12.0268892554705
20
-3.42578026163298
30
0
41
1
10
11.9923182739912
20
-3.40314270781306
30
0
41
1
10
11.945956090714
20
-3.37771052261235
30
0
41
1
10
11.9365022886686
20
-3.37275755203683
30
0
41
1
10
11.9173928549709
20
-3.36321635835537
30
0
41
1
10
11.8884296158054
20
-3.34945011152735
30
0
41
1
10
11.8585538556006
20
-3.3373230334515
30
0
41
1
10
11.7975169667791
20
-3.3153090763268
30
0
41
1
10
11.7551257761245
20
-3.30359550203559
30
0
41
1
10
11.7107088722341
20
-3.2952379362998
30
0
0
SPLINE
5
F0
100
AcDbEntity
8
1
62
256
6
ByLayer
370
18
48
1
60
0
100
AcDbSpline
70
4
71
3
72
24
73
20
40
0
40
0
40
0
40
0
40
0.062500000000009
40
0.062500000000009
40
0.125000000000018
40
0.125000000000018
40
0.249999999999964
40
0.249999999999964
40
0.312499999999967
40
0.312499999999967
40
0.374999999999969
40
0.374999999999969
40
0.499999999999973
40
0.499999999999973
40
0.624999999999978
40
0.624999999999978
40
0.749999999999982
40
0.749999999999982
40
1
40
1
40
1
40
1
41
1
10
12.5535444684529
20
-0.189318941660218
30
0
41
1
10
12.5616461886708
20
-0.194068662177557
30
0
41
1
10
12.569617388085
20
-0.199210211013508
30
0
41
1
10
12.5850606445585
20
-0.210144678413968
30
0
41
1
10
12.5924852739944
20
-0.215899172225051
30
0
41
1
10
12.6139003304853
20
-0.233992943594956
30
0
41
1
10
12.6270378183828
20
-0.247156894664101
30
0
41
1
10
12.6450480568339
20
-0.268539627160209
30
0
41
1
10
12.6507729333135
20
-0.275956879079445
30
0
41
1
10
12.6614384923562
20
-0.291042981159762
30
0
41
1
10
12.6664101133724
20
-0.298745831483188
30
0
41
1
10
12.6802828092179
20
-0.322313438449697
30
0
41
1
10
12.6881482965861
20
-0.338634443933614
30
0
41
1
10
12.7011579064177
20
-0.372462349958397
30
0
41
1
10
12.7061326397595
20
-0.38952660510401
30
0
41
1
10
12.713291571341
20
-0.423897002240352
30
0
41
1
10
12.7154768857763
20
-0.441262941251949
30
0
41
1
10
12.7179067889037
20
-0.49333055586996
30
0
41
1
10
12.7141068706265
20
-0.526896089291512
30
0
41
1
10
12.7054186124425
20
-0.559347662021395
30
0
0
SPLINE
5
F1
100
AcDbEntity
8
1
62
256
6
ByLayer
370
18
48
1
60
0
100
AcDbSpline
70
4
71
3
72
34
73
30
40
0
40
0
40
0
40
0
40
0.125
40
0.125
40
0.187499999999998
40
0.187499999999998
40
0.21875
40
0.21875
40
0.250000000000002
40
0.250000000000002
40
0.375000000000003
40
0.375000000000003
40
0.406250000000003
40
0.406250000000003
40
0.437500000000003
40
0.500000000000003
40
0.562500000000002
40
0.562500000000002
40
0.625000000000002
40
0.625000000000002
40
0.687500000000001
40
0.687500000000001
40
0.75
40
0.75
40
0.874999999999999
40
0.874999999999999
40
0.9375
40
0.9375
40
1
40
1
40
1
40
1
41
1
10
12.7054186124425
20
-0.559347662021395
30
0
41
1
10
12.6923020406364
20
-0.608339459332285
30
0
41
1
10
12.683669762967
20
-0.658445098419008
30
0
41
1
10
12.6777596184579
20
-0.735602372460647
30
0
41
1
10
12.676971055222
20
-0.76165795011741
30
0
41
1
10
12.6776980882176
20
-0.801327894609301
30
0
41
1
10
12.678261778011
20
-0.814679808530315
30
0
41
1
10
12.6800517019698
20
-0.841453735899336
30
0
41
1
10
12.6812734803848
20
-0.854832189940083
30
0
41
1
10
12.6890342948032
20
-0.921694541905424
30
0
41
1
10
12.7004574271372
20
-0.975089436499786
30
0
41
1
10
12.7222002285939
20
-1.04191137545038
30
0
41
1
10
12.726936723904
20
-1.05529619322394
30
0
41
1
10
12.7370322273045
20
-1.0816478369934
30
0
41
1
10
12.7531578641882
20
-1.12070599295984
30
0
41
1
10
12.7848922191888
20
-1.18348606662008
30
0
41
1
10
12.8154983825003
20
-1.23122468257728
30
0
41
1
10
12.8488172713068
20
-1.27766973154831
30
0
41
1
10
12.8664318988066
20
-1.29968639526436
30
0
41
1
10
12.9034135976324
20
-1.34144921702452
30
0
41
1
10
12.9227871291871
20
-1.36120299133179
30
0
41
1
10
12.9632524839598
20
-1.39856030532872
30
0
41
1
10
12.9844271017492
20
-1.41620685939853
30
0
41
1
10
13.0489517847277
20
-1.46487304287516
30
0
41
1
10
13.0937407336886
20
-1.49213984837408
30
0
41
1
10
13.1635367838861
20
-1.52629244272194
30
0
41
1
10
13.1873184241203
20
-1.53656587395224
30
0
41
1
10
13.235358733861
20
-1.55471938119672
30
0
41
1
10
13.2595968190849
20
-1.56260206652431
30
0
41
1
10
13.284063019002
20
-1.56933803045314
30
0
0
SPLINE
5
F2
100
AcDbEntity
8
1
62
256
6
ByLayer
370
18
48
1
60
0
100
AcDbSpline
70
4
71
3
72
26
73
22
40
0
40
0
40
0
40
0
40
0.124999999999944
40
0.124999999999944
40
0.249999999999889
40
0.249999999999889
40
0.312499999999859
40
0.312499999999859
40
0.37499999999983
40
0.37499999999983
40
0.499999999999824
40
0.499999999999824
40
0.562499999999821
40
0.562499999999821
40
0.624999999999817
40
0.624999999999817
40
0.749999999999878
40
0.749999999999878
40
0.874999999999939
40
0.874999999999939
40
1
40
1
40
1
40
1
41
1
10
13.5264675788577
20
-1.88749999999999
30
0
41
1
10
13.5264675788577
20
-1.8687579161203
30
0
41
1
10
13.5248303743623
20
-1.84970997587899
30
0
41
1
10
13.5184528595406
20
-1.81282945414563
30
0
41
1
10
13.5137403705232
20
-1.79485316252064
30
0
41
1
10
13.5044329649608
20
-1.76857276943917
30
0
41
1
10
13.5009351039531
20
-1.75988638943704
30
0
41
1
10
13.4933017090937
20
-1.74301745238401
30
0
41
1
10
13.4891666781226
20
-1.73482260448415
30
0
41
1
10
13.4758499082734
20
-1.7109267481805
30
0
41
1
10
13.465762141351
20
-1.69591006307544
30
0
41
1
10
13.4488722859438
20
-1.67472446059159
30
0
41
1
10
13.442960196242
20
-1.66790808143091
30
0
41
1
10
13.4307649507006
20
-1.65494041048927
30
0
41
1
10
13.424458875643
20
-1.64875961722879
30
0
41
1
10
13.4049439316335
20
-1.63109091779867
30
0
41
1
10
13.3911417065198
20
-1.62047172902891
30
0
41
1
10
13.3620131120976
20
-1.60149861905384
30
0
41
1
10
13.3469448730439
20
-1.59331884119541
30
0
41
1
10
13.3160853265576
20
-1.57947798017605
30
0
41
1
10
13.3002624683458
20
-1.57379801634457
30
0
41
1
10
13.284063019002
20
-1.56933803045314
30
0
0
SPLINE
5
F3
100
AcDbEntity
8
1
62
256
6
ByLayer
370
18
48
1
60
0
100
AcDbSpline
70
4
71
3
72
24
73
20
40
0
40
0
40
0
40
0
40
0.0625000000000073
40
0.0625000000000073
40
0.125000000000015
40
0.125000000000015
40
0.249999999999957
40
0.249999999999957
40
0.312499999999956
40
0.312499999999956
40
0.374999999999954
40
0.374999999999954
40
0.499999999999962
40
0.499999999999962
40
0.624999999999969
40
0.624999999999969
40
0.749999999999976
40
0.749999999999976
40
1
40
1
40
1
40
1
41
1
10
10.5623906892625
20
-0.189318941660218
30
0
41
1
10
10.5542889690445
20
-0.194068662177557
30
0
41
1
10
10.5463177696303
20
-0.199210211013508
30
0
41
1
10
10.5308745131568
20
-0.210144678413968
30
0
41
1
10
10.523449883721
20
-0.215899172225051
30
0
41
1
10
10.5020348272301
20
-0.233992943594956
30
0
41
1
10
10.4888973393326
20
-0.247156894664101
30
0
41
1
10
10.4708871008814
20
-0.268539627160209
30
0
41
1
10
10.4651622244018
20
-0.275956879079445
30
0
41
1
10
10.4544966653592
20
-0.291042981159762
30
0
41
1
10
10.449525044343
20
-0.298745831483188
30
0
41
1
10
10.4356523484975
20
-0.322313438449697
30
0
41
1
10
10.4277868611292
20
-0.338634443933614
30
0
41
1
10
10.4147772512977
20
-0.372462349958397
30
0
41
1
10
10.4098025179559
20
-0.38952660510401
30
0
41
1
10
10.4026435863744
20
-0.423897002240352
30
0
41
1
10
10.400458271939
20
-0.441262941251949
30
0
41
1
10
10.3980283688116
20
-0.49333055586996
30
0
41
1
10
10.4018282870889
20
-0.526896089291512
30
0
41
1
10
10.4105165452728
20
-0.559347662021395
30
0
0
SPLINE
5
F4
100
AcDbEntity
8
1
62
256
6
ByLayer
370
18
48
1
60
0
100
AcDbSpline
70
4
71
3
72
26
73
22
40
0
40
0
40
0
40
0
40
0.25000000000025
40
0.25000000000025
40
0.312500000000292
40
0.312500000000292
40
0.375000000000335
40
0.375000000000335
40
0.500000000000344
40
0.500000000000344
40
0.562500000000322
40
0.562500000000322
40
0.6250000000003
40
0.6250000000003
40
0.750000000000218
40
0.750000000000218
40
0.812500000000162
40
0.812500000000162
40
0.875000000000105
40
0.875000000000105
40
1
40
1
40
1
40
1
41
1
10
9.83187213871335
20
-1.56933803045314
30
0
41
1
10
9.79939054550869
20
-1.57828076945304
30
0
41
1
10
9.76850388912581
20
-1.59201236774092
30
0
41
1
10
9.7321690615359
20
-1.61566466117094
30
0
41
1
10
9.72499012143351
20
-1.62075049322684
30
0
41
1
10
9.71110818429719
20
-1.63144699082363
30
0
41
1
10
9.70438598441075
20
-1.63706660092885
30
0
41
1
10
9.68488085254864
20
-1.65474049665067
30
0
41
1
10
9.67275477022125
20
-1.66760421588316
30
0
41
1
10
9.65597817210849
20
-1.68861894513205
30
0
41
1
10
9.65062246166445
20
-1.6959116893909
30
0
41
1
10
9.64041601282128
20
-1.71110838655613
30
0
41
1
10
9.6356054659534
20
-1.71895882928871
30
0
41
1
10
9.62224308591919
20
-1.7429562271619
30
0
41
1
10
9.61467067481294
20
-1.75966650035039
30
0
41
1
10
9.60538359900633
20
-1.7858294895866
30
0
41
1
10
9.602634847275
20
-1.79473432990352
30
0
41
1
10
9.59786588475379
20
-1.81292923025671
30
0
41
1
10
9.59585305335312
20
-1.82221540105007
30
0
41
1
10
9.59106399514428
20
-1.85001872314743
30
0
41
1
10
9.58946757885769
20
-1.86869104670995
30
0
41
1
10
9.58946757885769
20
-1.88749999999999
30
0
0
SPLINE
5
F5
100
AcDbEntity
8
1
62
256
6
ByLayer
370
18
48
1
60
0
100
AcDbSpline
70
4
71
3
72
34
73
30
40
0
40
0
40
0
40
0
40
0.124999999999997
40
0.124999999999997
40
0.187499999999983
40
0.187499999999983
40
0.218749999999964
40
0.218749999999964
40
0.249999999999945
40
0.249999999999945
40
0.37499999999989
40
0.37499999999989
40
0.406249999999887
40
0.406249999999887
40
0.437499999999885
40
0.499999999999897
40
0.56249999999991
40
0.56249999999991
40
0.624999999999923
40
0.624999999999923
40
0.687499999999935
40
0.687499999999935
40
0.749999999999948
40
0.749999999999948
40
0.874999999999976
40
0.874999999999976
40
0.937499999999988
40
0.937499999999988
40
1
40
1
40
1
40
1
41
1
10
9.83187213871335
20
-1.56933803045314
30
0
41
1
10
9.8807700262733
20
-1.55587560441575
30
0
41
1
10
9.92836085216197
20
-1.53798134792541
30
0
41
1
10
9.99791179236712
20
-1.50405729250437
30
0
41
1
10
10.0207881779609
20
-1.49155985377641
30
0
41
1
10
10.054642856288
20
-1.47086942182779
30
0
41
1
10
10.0658761676152
20
-1.46363035353954
30
0
41
1
10
10.0880681751325
20
-1.44854520421663
30
0
41
1
10
10.0989915492116
20
-1.44072499604053
30
0
41
1
10
10.1527471440331
20
-1.40021400950889
30
0
41
1
10
10.1930324340034
20
-1.36335484297749
30
0
41
1
10
10.2396817233379
20
-1.31080234223174
30
0
41
1
10
10.2488330049303
20
-1.29994684779916
30
0
41
1
10
10.2664601374468
20
-1.27791023243981
30
0
41
1
10
10.2919991300922
20
-1.24424518546951
30
0
41
1
10
10.330108320665
20
-1.18511738814638
30
0
41
1
10
10.35581216994
20
-1.1345701322235
30
0
41
1
10
10.379028116155
20
-1.08233689361163
30
0
41
1
10
10.3891127300027
20
-1.05600613369495
30
0
41
1
10
10.406436940535
20
-1.00298113008589
30
0
41
1
10
10.4136798389736
20
-0.976277464355235
30
0
41
1
10
10.4254416434376
20
-0.922475289899637
30
0
41
1
10
10.4299557830188
20
-0.895283602922945
30
0
41
1
10
10.4393053933931
20
-0.815006479105648
30
0
41
1
10
10.4401756657117
20
-0.762577753293527
30
0
41
1
10
10.434338710905
20
-0.685093441113821
30
0
41
1
10
10.4311737094637
20
-0.659381719463312
30
0
41
1
10
10.4225377532277
20
-0.608757205277641
30
0
41
1
10
10.4170794597886
20
-0.583860849040008
30
0
41
1
10
10.4105165452728
20
-0.559347662021395
30
0
0
SPLINE
5
F6
100
AcDbEntity
8
1
62
256
6
ByLayer
370
18
48
1
60
0
100
AcDbSpline
70
4
71
3
72
24
73
20
40
0
40
0
40
0
40
0
40
0.12500000000005
40
0.12500000000005
40
0.187500000000035
40
0.187500000000035
40
0.25000000000002
40
0.25000000000002
40
0.375000000000078
40
0.375000000000078
40
0.500000000000136
40
0.500000000000136
40
0.625000000000193
40
0.625000000000193
40
0.687500000000187
40
0.687500000000187
40
0.75000000000018
40
0.75000000000018
40
1
40
1
40
1
40
1
41
1
10
12.5535444684529
20
-0.189318941660218
30
0
41
1
10
12.5369184214316
20
-0.179571742974673
30
0
41
1
10
12.5196058276773
20
-0.171364263310124
30
0
41
1
10
12.4926201350704
20
-0.161334236502313
30
0
41
1
10
12.4834202077392
20
-0.158364058704251
30
0
41
1
10
12.4648230440303
20
-0.153251450444827
30
0
41
1
10
12.4555166582944
20
-0.151130410733913
30
0
41
1
10
12.4275765447395
20
-0.146003655386949
30
0
41
1
10
12.4089219191015
20
-0.144225926173078
30
0
41
1
10
12.3715676369158
20
-0.143818496541627
30
0
41
1
10
12.3527286564312
20
-0.14523952199562
30
0
41
1
10
12.3165524739372
20
-0.151012705096889
30
0
41
1
10
12.2990371053047
20
-0.155341375368579
30
0
41
1
10
12.2735787020393
20
-0.16384790360874
30
0
41
1
10
12.2652290810446
20
-0.167020860601212
30
0
41
1
10
12.2488036380065
20
-0.17403701552999
30
0
41
1
10
12.2407008342665
20
-0.177897148572669
30
0
41
1
10
12.2015517073372
20
-0.198515358692902
30
0
41
1
10
12.1740425931806
20
-0.219285847626423
30
0
41
1
10
12.1500852830249
20
-0.243917371911237
30
0
0
SPLINE
5
F7
100
AcDbEntity
8
1
62
256
6
ByLayer
370
18
48
1
60
0
100
AcDbSpline
70
4
71
3
72
24
73
20
40
0
40
0
40
0
40
0
40
0.249999999999808
40
0.249999999999808
40
0.312499999999798
40
0.312499999999798
40
0.374999999999789
40
0.374999999999789
40
0.499999999999849
40
0.499999999999849
40
0.624999999999908
40
0.624999999999908
40
0.749999999999968
40
0.749999999999968
40
0.812499999999956
40
0.812499999999956
40
0.874999999999944
40
0.874999999999944
40
1
40
1
40
1
40
1
41
1
10
10.9658498746905
20
-0.243917371911237
30
0
41
1
10
10.9418925645348
20
-0.219285847626423
30
0
41
1
10
10.9143834503782
20
-0.198515358692902
30
0
41
1
10
10.8752343234489
20
-0.177897148572669
30
0
41
1
10
10.8671315197088
20
-0.17403701552999
30
0
41
1
10
10.8507060766707
20
-0.167020860601212
30
0
41
1
10
10.8423564556761
20
-0.16384790360874
30
0
41
1
10
10.8168980524106
20
-0.155341375368579
30
0
41
1
10
10.7993826837782
20
-0.151012705096889
30
0
41
1
10
10.7632065012841
20
-0.14523952199562
30
0
41
1
10
10.7443675207996
20
-0.143818496541627
30
0
41
1
10
10.7070132386139
20
-0.144225926173078
30
0
41
1
10
10.6883586129759
20
-0.146003655386949
30
0
41
1
10
10.6604184994209
20
-0.151130410733913
30
0
41
1
10
10.651112113685
20
-0.153251450444827
30
0
41
1
10
10.6325149499761
20
-0.158364058704251
30
0
41
1
10
10.623315022645
20
-0.161334236502313
30
0
41
1
10
10.596329330038
20
-0.171364263310124
30
0
41
1
10
10.5790167362838
20
-0.179571742974673
30
0
41
1
10
10.5623906892625
20
-0.189318941660218
30
0
0
SPLINE
5
F8
100
AcDbEntity
8
1
62
256
6
ByLayer
370
18
48
1
60
0
100
AcDbSpline
70
4
71
3
72
17
73
13
40
0
40
0
40
0
40
0
40
0.250000000000046
40
0.250000000000046
40
0.500000000000092
40
0.500000000000092
40
0.562500000000089
40
0.562500000000089
40
0.625000000000086
40
0.75000000000008
40
0.75000000000008
40
1
40
1
40
1
40
1
41
1
10
10.9658498746905
20
-0.243917371911209
30
0
41
1
10
10.9940152600483
20
-0.272875396368846
30
0
41
1
10
11.024241820993
20
-0.299730941096271
30
0
41
1
10
11.0890459022447
20
-0.349219738366827
30
0
41
1
10
11.1236168837239
20
-0.371857292186718
30
0
41
1
10
11.169979067001
20
-0.397289477387432
30
0
41
1
10
11.1794328690464
20
-0.402242447962919
30
0
41
1
10
11.198542302744
20
-0.411783641644376
30
0
41
1
10
11.2275055419095
20
-0.425549888472432
30
0
41
1
10
11.2573813021143
20
-0.43767696654831
30
0
41
1
10
11.3184181909359
20
-0.459690923673037
30
0
41
1
10
11.3608093815907
20
-0.471404497964329
30
0
41
1
10
11.4052262854812
20
-0.47976206370015
30
0
0
SPLINE
5
F9
100
AcDbEntity
8
1
62
256
6
ByLayer
370
18
48
1
60
0
100
AcDbSpline
70
4
71
3
72
18
73
14
40
0
40
0
40
0
40
0
40
0.250000000000033
40
0.250000000000033
40
0.375000000000051
40
0.375000000000051
40
0.437500000000059
40
0.437500000000059
40
0.500000000000068
40
0.500000000000068
40
0.750000000000034
40
0.750000000000034
40
1
40
1
40
1
40
1
41
1
10
11.7107088722341
20
-0.47976206370015
30
0
41
1
10
11.755133861715
20
-0.471402976564889
30
0
41
1
10
11.7974963065405
20
-0.459694076137083
30
0
41
1
10
11.8584551767973
20
-0.437714700415427
30
0
41
1
10
11.8783403917105
20
-0.429646017769272
30
0
41
1
10
11.9075527251011
20
-0.416459093753133
30
0
41
1
10
11.9171874223149
20
-0.411882525552954
30
0
41
1
10
11.9362554544671
20
-0.40236929099504
30
0
41
1
10
11.9457096086825
20
-0.397420875855943
30
0
41
1
10
11.9921763707353
20
-0.371950146856392
30
0
41
1
10
12.0268009227127
20
-0.349283002532673
30
0
41
1
10
12.0916745541673
20
-0.299749470540263
30
0
41
1
10
12.1219167783819
20
-0.272878603438045
30
0
41
1
10
12.1500852830249
20
-0.243917371911209
30
0
0
SPLINE
5
FA
100
AcDbEntity
8
1
62
256
6
ByLayer
370
18
48
1
60
0
100
AcDbSpline
70
4
71
3
72
34
73
30
40
0
40
0
40
0
40
0
40
0.124999999999992
40
0.124999999999992
40
0.187499999999987
40
0.187499999999987
40
0.218749999999987
40
0.218749999999987
40
0.249999999999987
40
0.249999999999987
40
0.374999999999988
40
0.374999999999988
40
0.406249999999988
40
0.406249999999988
40
0.437499999999988
40
0.499999999999989
40
0.56249999999999
40
0.56249999999999
40
0.624999999999991
40
0.624999999999991
40
0.687499999999992
40
0.687499999999992
40
0.749999999999993
40
0.749999999999993
40
0.874999999999995
40
0.874999999999995
40
0.937499999999997
40
0.937499999999997
40
1
40
1
40
1
40
1
41
1
10
10.4105165452728
20
-3.21565233797855
30
0
41
1
10
10.4236331170789
20
-3.16666054066766
30
0
41
1
10
10.4322653947483
20
-3.11655490158094
30
0
41
1
10
10.4381755392574
20
-3.0393976275393
30
0
41
1
10
10.4389641024934
20
-3.01334204988257
30
0
41
1
10
10.4382370694978
20
-2.97367210539065
30
0
41
1
10
10.4376733797044
20
-2.96032019146963
30
0
41
1
10
10.4358834557456
20
-2.93354626410061
30
0
41
1
10
10.4346616773305
20
-2.92016781005987
30
0
41
1
10
10.4269008629122
20
-2.85330545809453
30
0
41
1
10
10.4154777305781
20
-2.79991056350016
30
0
41
1
10
10.3937349291215
20
-2.7330886245496
30
0
41
1
10
10.3889984338114
20
-2.71970380677601
30
0
41
1
10
10.3789029304109
20
-2.69335216300658
30
0
41
1
10
10.3627772935271
20
-2.65429400704011
30
0
41
1
10
10.3310429385266
20
-2.5915139333799
30
0
41
1
10
10.3004367752151
20
-2.5437753174227
30
0
41
1
10
10.2671178864085
20
-2.49733026845163
30
0
41
1
10
10.2495032589087
20
-2.47531360473562
30
0
41
1
10
10.212521560083
20
-2.43355078297546
30
0
41
1
10
10.1931480285283
20
-2.41379700866818
30
0
41
1
10
10.1526826737556
20
-2.37643969467123
30
0
41
1
10
10.1315080559663
20
-2.35879314060145
30
0
41
1
10
10.0669833729877
20
-2.31012695712482
30
0
41
1
10
10.0221944240267
20
-2.28286015162587
30
0
41
1
10
9.9523983738292
20
-2.24870755727801
30
0
41
1
10
9.92861673359505
20
-2.23843412604771
30
0
41
1
10
9.88057642385445
20
-2.22028061880326
30
0
41
1
10
9.85633833863039
20
-2.21239793347564
30
0
41
1
10
9.83187213871335
20
-2.20566196954681
30
0
0
SPLINE
5
FB
100
AcDbEntity
8
1
62
256
6
ByLayer
370
18
48
1
60
0
100
AcDbSpline
70
4
71
3
72
26
73
22
40
0
40
0
40
0
40
0
40
0.124999999999944
40
0.124999999999944
40
0.249999999999889
40
0.249999999999889
40
0.312499999999859
40
0.312499999999859
40
0.37499999999983
40
0.37499999999983
40
0.499999999999824
40
0.499999999999824
40
0.562499999999821
40
0.562499999999821
40
0.624999999999817
40
0.624999999999817
40
0.749999999999878
40
0.749999999999878
40
0.874999999999939
40
0.874999999999939
40
1
40
1
40
1
40
1
41
1
10
9.58946757885769
20
-1.88749999999999
30
0
41
1
10
9.58946757885769
20
-1.90624208387965
30
0
41
1
10
9.5911047833531
20
-1.92529002412098
30
0
41
1
10
9.59748229817473
20
-1.96217054585432
30
0
41
1
10
9.60219478719216
20
-1.98014683747931
30
0
41
1
10
9.61150219275453
20
-2.0064272305608
30
0
41
1
10
9.61500005376234
20
-2.01511361056293
30
0
41
1
10
9.62263344862163
20
-2.03198254761597
30
0
41
1
10
9.62676847959278
20
-2.04017739551583
30
0
41
1
10
9.64008524944194
20
-2.06407325181948
30
0
41
1
10
9.65017301636433
20
-2.07908993692453
30
0
41
1
10
9.66706287177144
20
-2.10027553940839
30
0
41
1
10
9.67297496147324
20
-2.10709191856904
30
0
41
1
10
9.68517020701483
20
-2.1200595895107
30
0
41
1
10
9.69147628207233
20
-2.12624038277116
30
0
41
1
10
9.71099122608189
20
-2.1439090822013
30
0
41
1
10
9.72479345119561
20
-2.15452827097104
30
0
41
1
10
9.75392204561777
20
-2.17350138094611
30
0
41
1
10
9.76899028467147
20
-2.18168115880456
30
0
41
1
10
9.79984983115776
20
-2.19552201982393
30
0
41
1
10
9.81567268936951
20
-2.20120198365541
30
0
41
1
10
9.83187213871332
20
-2.20566196954681
30
0
0
SPLINE
5
FC
100
AcDbEntity
8
1
62
256
6
ByLayer
370
18
48
1
60
0
100
AcDbSpline
70
4
71
3
72
24
73
20
40
0
40
0
40
0
40
0
40
0.0625000000000057
40
0.0625000000000057
40
0.125000000000011
40
0.125000000000011
40
0.249999999999951
40
0.249999999999951
40
0.31249999999995
40
0.31249999999995
40
0.374999999999949
40
0.374999999999949
40
0.499999999999957
40
0.499999999999957
40
0.624999999999966
40
0.624999999999966
40
0.749999999999974
40
0.749999999999974
40
1
40
1
40
1
40
1
41
1
10
10.5623906892625
20
-3.58568105833976
30
0
41
1
10
10.5542889690445
20
-3.58093133782239
30
0
41
1
10
10.5463177696303
20
-3.57578978898644
30
0
41
1
10
10.5308745131568
20
-3.56485532158601
30
0
41
1
10
10.523449883721
20
-3.55910082777493
30
0
41
1
10
10.50203482723
20
-3.54100705640502
30
0
41
1
10
10.4888973393326
20
-3.52784310533585
30
0
41
1
10
10.4708871008814
20
-3.50646037283977
30
0
41
1
10
10.4651622244018
20
-3.49904312092053
30
0
41
1
10
10.4544966653591
20
-3.48395701884019
30
0
41
1
10
10.449525044343
20
-3.47625416851676
30
0
41
1
10
10.4356523484975
20
-3.45268656155025
30
0
41
1
10
10.4277868611292
20
-3.43636555606634
30
0
41
1
10
10.4147772512977
20
-3.40253765004158
30
0
41
1
10
10.4098025179559
20
-3.38547339489594
30
0
41
1
10
10.4026435863744
20
-3.35110299775963
30
0
41
1
10
10.400458271939
20
-3.333737058748
30
0
41
1
10
10.3980283688116
20
-3.28166944412999
30
0
41
1
10
10.4018282870889
20
-3.24810391070844
30
0
41
1
10
10.4105165452728
20
-3.21565233797855
30
0
0
SPLINE
5
FD
100
AcDbEntity
8
1
62
256
6
ByLayer
370
18
48
1
60
0
100
AcDbSpline
70
4
71
3
72
26
73
22
40
0
40
0
40
0
40
0
40
0.25000000000025
40
0.25000000000025
40
0.312500000000292
40
0.312500000000292
40
0.375000000000335
40
0.375000000000335
40
0.500000000000344
40
0.500000000000344
40
0.562500000000322
40
0.562500000000322
40
0.6250000000003
40
0.6250000000003
40
0.750000000000218
40
0.750000000000218
40
0.812500000000162
40
0.812500000000162
40
0.875000000000105
40
0.875000000000105
40
1
40
1
40
1
40
1
41
1
10
13.284063019002
20
-2.20566196954681
30
0
41
1
10
13.3165446122067
20
-2.1967192305469
30
0
41
1
10
13.3474312685896
20
-2.18298763225903
30
0
41
1
10
13.3837660961794
20
-2.15933533882901
30
0
41
1
10
13.3909450362818
20
-2.15424950677311
30
0
41
1
10
13.4048269734181
20
-2.14355300917632
30
0
41
1
10
13.4115491733046
20
-2.13793339907113
30
0
41
1
10
13.4310543051668
20
-2.12025950334927
30
0
41
1
10
13.4431803874941
20
-2.10739578411679
30
0
41
1
10
13.4599569856069
20
-2.08638105486793
30
0
41
1
10
13.4653126960509
20
-2.07908831060905
30
0
41
1
10
13.4755191448941
20
-2.06389161344382
30
0
41
1
10
13.4803296917619
20
-2.05604117071124
30
0
41
1
10
13.4936920717962
20
-2.03204377283808
30
0
41
1
10
13.5012644829024
20
-2.01533349964956
30
0
41
1
10
13.510551558709
20
-1.98917051041335
30
0
41
1
10
13.5133003104404
20
-1.98026567009643
30
0
41
1
10
13.5180692729616
20
-1.96207076974323
30
0
41
1
10
13.5200821043622
20
-1.9527845989499
30
0
41
1
10
13.5248711625711
20
-1.92498127685255
30
0
41
1
10
13.5264675788577
20
-1.90630895328999
30
0
41
1
10
13.5264675788577
20
-1.88749999999999
30
0
0
SPLINE
5
FE
100
AcDbEntity
8
1
62
256
6
ByLayer
370
18
48
1
60
0
100
AcDbSpline
70
4
71
3
72
34
73
30
40
0
40
0
40
0
40
0
40
0.125
40
0.125
40
0.187499999999988
40
0.187499999999988
40
0.21874999999997
40
0.21874999999997
40
0.249999999999952
40
0.249999999999952
40
0.3749999999999
40
0.3749999999999
40
0.406249999999897
40
0.406249999999897
40
0.437499999999894
40
0.499999999999906
40
0.562499999999917
40
0.562499999999917
40
0.624999999999929
40
0.624999999999929
40
0.687499999999941
40
0.687499999999941
40
0.749999999999952
40
0.749999999999952
40
0.874999999999978
40
0.874999999999978
40
0.937499999999989
40
0.937499999999989
40
1
40
1
40
1
40
1
41
1
10
13.284063019002
20
-2.20566196954681
30
0
41
1
10
13.2351651314421
20
-2.21912439558423
30
0
41
1
10
13.1875743055534
20
-2.23701865207457
30
0
41
1
10
13.1180233653483
20
-2.27094270749561
30
0
41
1
10
13.0951469797545
20
-2.28344014622354
30
0
41
1
10
13.0612923014274
20
-2.30413057817216
30
0
41
1
10
13.0500589901002
20
-2.31136964646044
30
0
41
1
10
13.0278669825829
20
-2.32645479578332
30
0
41
1
10
13.0169436085037
20
-2.33427500395945
30
0
41
1
10
12.9631880136822
20
-2.37478599049109
30
0
41
1
10
12.922902723712
20
-2.41164515702246
30
0
41
1
10
12.8762534343775
20
-2.46419765776824
30
0
41
1
10
12.8671021527851
20
-2.47505315220079
30
0
41
1
10
12.8494750202685
20
-2.49708976756014
30
0
41
1
10
12.8239360276232
20
-2.53075481453047
30
0
41
1
10
12.7858268370504
20
-2.5898826118536
30
0
41
1
10
12.7601229877753
20
-2.64042986777648
30
0
41
1
10
12.7369070415603
20
-2.69266310638832
30
0
41
1
10
12.7268224277126
20
-2.71899386630503
30
0
41
1
10
12.7094982171803
20
-2.77201886991406
30
0
41
1
10
12.7022553187418
20
-2.79872253564471
30
0
41
1
10
12.6904935142778
20
-2.85252471010034
30
0
41
1
10
12.6859793746965
20
-2.879716397077
30
0
41
1
10
12.6766297643223
20
-2.95999352089433
30
0
41
1
10
12.6757594920037
20
-3.01242224670642
30
0
41
1
10
12.6815964468104
20
-3.08990655888613
30
0
41
1
10
12.6847614482516
20
-3.11561828053667
30
0
41
1
10
12.6933974044876
20
-3.16624279472234
30
0
41
1
10
12.6988556979267
20
-3.19113915095997
30
0
41
1
10
12.7054186124425
20
-3.21565233797855
30
0
0
SPLINE
5
FF
100
AcDbEntity
8
1
62
256
6
ByLayer
370
18
48
1
60
0
100
AcDbSpline
70
4
71
3
72
24
73
20
40
0
40
0
40
0
40
0
40
0.0625000000000089
40
0.0625000000000089
40
0.125000000000018
40
0.125000000000018
40
0.249999999999967
40
0.249999999999967
40
0.312499999999971
40
0.312499999999971
40
0.374999999999976
40
0.374999999999976
40
0.499999999999979
40
0.499999999999979
40
0.624999999999982
40
0.624999999999982
40
0.749999999999985
40
0.749999999999985
40
1
40
1
40
1
40
1
41
1
10
12.5535444684529
20
-3.58568105833976
30
0
41
1
10
12.5616461886708
20
-3.58093133782239
30
0
41
1
10
12.569617388085
20
-3.57578978898644
30
0
41
1
10
12.5850606445585
20
-3.56485532158601
30
0
41
1
10
12.5924852739944
20
-3.55910082777493
30
0
41
1
10
12.6139003304854
20
-3.54100705640502
30
0
41
1
10
12.6270378183828
20
-3.52784310533585
30
0
41
1
10
12.6450480568339
20
-3.50646037283977
30
0
41
1
10
12.6507729333135
20
-3.49904312092053
30
0
41
1
10
12.6614384923562
20
-3.48395701884019
30
0
41
1
10
12.6664101133724
20
-3.47625416851676
30
0
41
1
10
12.6802828092179
20
-3.45268656155025
30
0
41
1
10
12.6881482965862
20
-3.43636555606634
30
0
41
1
10
12.7011579064176
20
-3.40253765004158
30
0
41
1
10
12.7061326397595
20
-3.38547339489597
30
0
41
1
10
12.713291571341
20
-3.35110299775963
30
0
41
1
10
12.7154768857763
20
-3.333737058748
30
0
41
1
10
12.7179067889037
20
-3.28166944412999
30
0
41
1
10
12.7141068706265
20
-3.24810391070844
30
0
41
1
10
12.7054186124425
20
-3.21565233797855
30
0
0
SPLINE
5
100
100
AcDbEntity
8
SK1
62
256
6
ByLayer
370
18
48
1
60
0
100
AcDbSpline
70
4
71
3
72
26
73
22
40
0
40
0
40
0
40
0
40
0.124999999999993
40
0.124999999999993
40
0.249999999999985
40
0.249999999999985
40
0.312499999999983
40
0.312499999999983
40
0.374999999999981
40
0.374999999999981
40
0.499999999999994
40
0.499999999999994
40
0.625000000000006
40
0.625000000000006
40
0.687500000000012
40
0.687500000000012
40
0.750000000000019
40
0.750000000000019
40
0.875000000000009
40
0.875000000000009
40
1
40
1
40
1
40
1
41
1
10
0
20
8.51149035510917
30
0
41
1
10
-0.0343769418091711
20
8.47035490521048
30
0
41
1
10
-0.0708043515485883
20
8.43094914648933
30
0
41
1
10
-0.148043732588974
20
8.35546435841081
30
0
41
1
10
-0.188854424159331
20
8.31938654266833
30
0
41
1
10
-0.253687408732787
20
8.26784788745272
30
0
41
1
10
-0.275855693062908
20
8.25114080585078
30
0
41
1
10
-0.3210836510994
20
8.21887326973686
30
0
41
1
10
-0.344179452210596
20
8.2032837031615
30
0
41
1
10
-0.414954058389839
20
8.15817518626329
30
0
41
1
10
-0.464115964693491
20
8.13030928572852
30
0
41
1
10
-0.566707625327922
20
8.07930244060043
30
0
41
1
10
-0.620135538287542
20
8.0561593211543
30
0
41
1
10
-0.703823602959005
20
8.02541122287832
30
0
41
1
10
-0.732312008439123
20
8.01582511958389
30
0
41
1
10
-0.790551744127271
20
7.99808199102941
30
0
41
1
10
-0.820074616825593
20
7.9899958676522
30
0
41
1
10
-0.90975594677991
20
7.96820639988022
30
0
41
1
10
-0.971074506872469
20
7.95694628411101
30
0
41
1
10
-1.09692648091411
20
7.94159561253508
30
0
41
1
10
-1.16145881579916
20
7.9375
30
0
41
1
10
-1.22772318076636
20
7.9375
30
0
0
SPLINE
5
101
100
AcDbEntity
8
1
62
256
6
ByLayer
370
18
48
1
60
0
100
AcDbSpline
70
4
71
3
72
18
73
14
40
0
40
0
40
0
40
0
40
0.10650232087713
40
0.209819720888023
40
0.309970050664437
40
0.406972922399875
40
0.500849920825649
40
0.591624858696169
40
0.679324076625426
40
0.763976789997705
40
0.845615488385789
40
0.924276395492138
40
1
40
1
40
1
40
1
41
1
10
24.2980862172677
20
7.54558535182298
30
0
41
1
10
24.2965091061935
20
7.54626430365056
30
0
41
1
10
24.293402047092
20
7.54760190344922
30
0
41
1
10
24.2888919111762
20
7.54990496238867
30
0
41
1
10
24.28458290232
20
7.55236634747871
30
0
41
1
10
24.2804802013748
20
7.55499015794035
30
0
41
1
10
24.276582489068
20
7.55775246583724
30
0
41
1
10
24.2728900240872
20
7.56063703917562
30
0
41
1
10
24.2694029509026
20
7.56362685284043
30
0
41
1
10
24.2661204155716
20
7.56670435447006
30
0
41
1
10
24.2630454487202
20
7.56985841525068
30
0
41
1
10
24.2601672624498
20
7.57305799258214
30
0
41
1
10
24.2583711657763
20
7.57529187683832
30
0
41
1
10
24.2574902036077
20
7.57638756814936
30
0
0
SPLINE
5
102
100
AcDbEntity
8
1
62
256
6
ByLayer
370
18
48
1
60
0
100
AcDbSpline
70
4
71
3
72
16
73
12
40
0
40
0
40
0
40
0
40
0.117319552192538
40
0.233085853411056
40
0.347299362420284
40
0.459960556948131
40
0.571069934744694
40
0.680628014713013
40
0.788635338118847
40
0.895092469888312
40
1
40
1
40
1
40
1
41
1
10
24.4569129943077
20
7.49023252370202
30
0
41
1
10
24.4506453455703
20
7.49205532687012
30
0
41
1
10
24.4381930285648
20
7.49567680022298
30
0
41
1
10
24.4196868348826
20
7.50139140876416
30
0
41
1
10
24.4014648755764
20
7.50725688981359
30
0
41
1
10
24.3835304222354
20
7.51328667338754
30
0
41
1
10
24.3658826942356
20
7.51946626906832
30
0
41
1
10
24.3485216077425
20
7.52578692017738
30
0
41
1
10
24.3314482369927
20
7.53224494494935
30
0
41
1
10
24.3146584541165
20
7.53881205605552
30
0
41
1
10
24.3035832305375
20
7.54333864867871
30
0
41
1
10
24.2980862172677
20
7.54558535183
30
0
0
SPLINE
5
103
100
AcDbEntity
8
1
62
256
6
ByLayer
370
18
48
1
60
0
100
AcDbSpline
70
4
71
2
72
10
73
7
40
0
40
0
40
0
40
0.5
40
0.5
40
0.75
40
0.75
40
1
40
1
40
1
41
1
10
24.4569129943012
20
7.490232523738
30
0
41
1
10
24.5245068205236
20
7.47073783648494
30
0
41
1
10
24.5722030616267
20
7.41901428899018
30
0
41
1
10
24.5981900515785
20
7.39083304707404
30
0
41
1
10
24.6148269535881
20
7.35497764610378
30
0
41
1
10
24.63279281501
20
7.31625810777331
30
0
41
1
10
24.6369137759407
20
7.27323558697202
30
0
0
SPLINE
5
104
100
AcDbEntity
8
1
62
256
6
ByLayer
370
18
48
1
60
0
100
AcDbSpline
70
4
71
2
72
6
73
3
40
0
40
0
40
0
40
1
40
1
40
1
41
1
10
24.6369137759782
20
7.27323558705803
30
0
41
1
10
24.6458050681508
20
7.17801655403991
30
0
41
1
10
24.6458285383892
20
7.08250000069762
30
0
0
SPLINE
5
105
100
AcDbEntity
8
1
62
256
6
ByLayer
370
18
48
1
60
0
100
AcDbSpline
70
4
71
3
72
17
73
13
40
0
40
0
40
0
40
0
40
0.100317411817073
40
0.200541310293566
40
0.300680278273626
40
0.400742920447666
40
0.50073786120194
40
0.600673742442871
40
0.700559221399298
40
0.800402968404938
40
0.90021366466362
40
1
40
1
40
1
40
1
41
1
10
24.6369137759777
20
6.851764412942
30
0
41
1
10
24.6374907017395
20
6.85810877017545
30
0
41
1
10
24.6386440154674
20
6.87079157059381
30
0
41
1
10
24.640149403979
20
6.88984605278776
30
0
41
1
10
24.6414892051089
20
6.90890852097957
30
0
41
1
10
24.642647382609
20
6.9279803042831
30
0
41
1
10
24.643628305849
20
6.94705892933371
30
0
41
1
10
24.6444305147006
20
6.96614294124882
30
0
41
1
10
24.6450554832193
20
6.98523061351955
30
0
41
1
10
24.6454987763668
20
7.00432029366908
30
0
41
1
10
24.6457766520422
20
7.02341031034354
30
0
41
1
10
24.6458112443465
20
7.03613728742752
30
0
41
1
10
24.6458285383877
20
7.04249999930241
30
0
0
SPLINE
5
106
100
AcDbEntity
8
1
62
256
6
ByLayer
370
18
48
1
60
0
100
AcDbSpline
70
4
71
3
72
38
73
34
40
0
40
0
40
0
40
0
40
0.0320161803202224
40
0.0634137556518768
40
0.0941938978135297
40
0.124357850632156
40
0.153906935795968
40
0.182842559298687
40
0.211166218540764
40
0.238879510169548
40
0.265984138747569
40
0.292481926351473
40
0.318374823219166
40
0.34366491957867
40
0.36835445881069
40
0.39244585212028
40
0.415941694916232
40
0.438844785127737
40
0.461158143719617
40
0.482885037706423
40
0.504029006008672
40
0.551366811163482
40
0.597409666800777
40
0.642207857911414
40
0.685815975457799
40
0.728293199080104
40
0.76970355723212
40
0.810116149643945
40
0.849605314211509
40
0.888250718111321
40
0.926137351649969
40
0.963355403684994
40
1
40
1
40
1
40
1
41
1
10
24.4569129942977
20
6.63476747626203
30
0
41
1
10
24.4595412022225
20
6.63554856071477
30
0
41
1
10
24.4647468367947
20
6.63709563779062
30
0
41
1
10
24.4724183692601
20
6.63973171586198
30
0
41
1
10
24.4798924884199
20
6.64255589994286
30
0
41
1
10
24.4871650942035
20
6.64557891014502
30
0
41
1
10
24.4942372552931
20
6.64878163409179
30
0
41
1
10
24.5011086967219
20
6.65215294017335
30
0
41
1
10
24.5077794928938
20
6.65567987870347
30
0
41
1
10
24.5142496277211
20
6.65935025625484
30
0
41
1
10
24.52051910886
20
6.66315199273498
30
0
41
1
10
24.5265879381036
20
6.66707331105951
30
0
41
1
10
24.5324561190212
20
6.6711027081727
30
0
41
1
10
24.5381236552255
20
6.67522898018444
30
0
41
1
10
24.5435905500458
20
6.67944123132278
30
0
41
1
10
24.5488568095157
20
6.68372888389226
30
0
41
1
10
24.5539224312742
20
6.68808168899761
30
0
41
1
10
24.5587874446604
20
6.6924897234822
30
0
41
1
10
24.5634517667685
20
6.69694342986733
30
0
41
1
10
24.5679157190758
20
6.7014334948112
30
0
41
1
10
24.5739771356576
20
6.70785803049299
30
0
41
1
10
24.581426398061
20
6.71644681680959
30
0
41
1
10
24.5899703211373
20
6.72752008363219
30
0
41
1
10
24.5978165015013
20
6.73896944130743
30
0
41
1
10
24.6049651843955
20
6.75074938082835
30
0
41
1
10
24.6114161979484
20
6.76281538138278
30
0
41
1
10
24.6171693145935
20
6.77512334744378
30
0
41
1
10
24.6222247334685
20
6.78762983462906
30
0
41
1
10
24.6265808749648
20
6.80029254717047
30
0
41
1
10
24.6302424590416
20
6.81306897651163
30
0
41
1
10
24.6331912788524
20
6.82592191163565
30
0
41
1
10
24.6354922122895
20
6.83879994166358
30
0
41
1
10
24.6364423803638
20
6.84746534810219
30
0
41
1
10
24.6369137759377
20
6.85176441302801
30
0
0
SPLINE
5
107
100
AcDbEntity
8
1
62
256
6
ByLayer
370
18
48
1
60
0
100
AcDbSpline
70
4
71
2
72
6
73
3
40
0
40
0
40
0
40
1
40
1
40
1
41
1
10
24.4569129943097
20
6.63476747629801
30
0
41
1
10
24.3759142978734
20
6.61151524332806
30
0
41
1
10
24.2980862172702
20
6.57941464817
30
0
0
SPLINE
5
108
100
AcDbEntity
8
1
62
256
6
ByLayer
370
18
48
1
60
0
100
AcDbSpline
70
4
71
2
72
6
73
3
40
0
40
0
40
0
40
1
40
1
40
1
41
1
10
24.2980862172692
20
6.57941464817702
30
0
41
1
10
24.2737873382768
20
6.56924532913678
30
0
41
1
10
24.2574902036082
20
6.54861243185101
30
0
0
LINE
5
7F
100
AcDbEntity
8
81
62
256
6
ByLayer
370
18
48
1
60
0
100
AcDbLine
10
31.707968
20
9.0625
30
0
11
36.707968
21
9.0625
31
0
39
0
210
0
220
0
230
1
0
LINE
5
80
100
AcDbEntity
8
80
62
256
6
ByLayer
370
18
48
1
60
0
100
AcDbLine
10
0
20
0
30
0
11
-5
21
0
31
0
39
0
210
0
220
0
230
1
0
LINE
5
81
100
AcDbEntity
8
1
62
256
6
ByLayer
370
18
48
1
60
0
100
AcDbLine
10
0
20
8.51149
30
0
11
0
21
-7.939338
31
0
39
0
210
0
220
0
230
1
0
LINE
5
82
100
AcDbEntity
8
1
62
256
6
ByLayer
370
18
48
1
60
0
100
AcDbLine
10
23.225912
20
5.3875
30
0
11
24.513402
21
5.3875
31
0
39
0
210
0
220
0
230
1
0
LINE
5
83
100
AcDbEntity
8
1
62
256
6
ByLayer
370
18
48
1
60
0
100
AcDbLine
10
23.225912
20
8.7375
30
0
11
24.513402
21
8.7375
31
0
39
0
210
0
220
0
230
1
0
LINE
5
84
100
AcDbEntity
8
1
62
256
6
ByLayer
370
18
48
1
60
0
100
AcDbLine
10
24.513402
20
8.7375
30
0
11
27.424364
21
8.7375
31
0
39
0
210
0
220
0
230
1
0
LINE
5
85
100
AcDbEntity
8
1
62
256
6
ByLayer
370
18
48
1
60
0
100
AcDbLine
10
24.513268
20
8.662484
30
0
11
24.513402
21
8.7375
31
0
39
0
210
0
220
0
230
1
0
LINE
5
86
100
AcDbEntity
8
1
62
256
6
ByLayer
370
18
48
1
60
0
100
AcDbLine
10
24.513402
20
5.3875
30
0
11
27.424364
21
5.3875
31
0
39
0
210
0
220
0
230
1
0
LINE
5
87
100
AcDbEntity
8
1
62
256
6
ByLayer
370
18
48
1
60
0
100
AcDbLine
10
24.513402
20
5.3875
30
0
11
24.513268
21
5.462516
31
0
39
0
210
0
220
0
230
1
0
LINE
5
88
100
AcDbEntity
8
1
62
256
6
ByLayer
370
18
48
1
60
0
100
AcDbLine
10
0.481918
20
8.7375
30
0
11
0.157917
21
8.7375
31
0
39
0
210
0
220
0
230
1
0
LINE
5
89
100
AcDbEntity
8
1
62
256
6
ByLayer
370
18
48
1
60
0
100
AcDbLine
10
20.207968
20
8.7375
30
0
11
23.225887
21
8.7375
31
0
39
0
210
0
220
0
230
1
0
LINE
5
8A
100
AcDbEntity
8
1
62
256
6
ByLayer
370
18
48
1
60
0
100
AcDbLine
10
23.225887
20
5.3875
30
0
11
20.207968
21
5.3875
31
0
39
0
210
0
220
0
230
1
0
LINE
5
8B
100
AcDbEntity
8
1
62
256
6
ByLayer
370
18
48
1
60
0
100
AcDbLine
10
23.707968
20
7.337469
30
0
11
23.707968
21
6.787531
31
0
39
0
210
0
220
0
230
1
0
LINE
5
8C
100
AcDbEntity
8
1
62
256
6
ByLayer
370
18
48
1
60
0
100
AcDbLine
10
0.481918
20
-7.943711
30
0
11
2.304363
21
-7.973389
31
0
39
0
210
0
220
0
230
1
0
LINE
5
8D
100
AcDbEntity
8
1
62
256
6
ByLayer
370
18
48
1
60
0
100
AcDbLine
10
2.304363
20
8.7375
30
0
11
0.481918
21
8.7375
31
0
39
0
210
0
220
0
230
1
0
LINE
5
8E
100
AcDbEntity
8
1
62
256
6
ByLayer
370
13
48
1
60
0
100
AcDbLine
10
0.481918
20
-7.943711
30
0
11
0.481918
21
8.7375
31
0
39
0
210
0
220
0
230
1
0
LINE
5
8F
100
AcDbEntity
8
1
62
256
6
ByLayer
370
18
48
1
60
0
100
AcDbLine
10
17.107968
20
-5.183167
30
0
11
13.967575
21
-7.973389
31
0
39
0
210
0
220
0
230
1
0
LINE
5
90
100
AcDbEntity
8
1
62
256
6
ByLayer
370
18
48
1
60
0
100
AcDbLine
10
2.304363
20
-7.973389
30
0
11
13.967575
21
-7.973389
31
0
39
0
210
0
220
0
230
1
0
LINE
5
91
100
AcDbEntity
8
1
62
256
6
ByLayer
370
18
48
1
60
0
100
AcDbLine
10
17.107968
20
3.7875
30
0
11
17.107968
21
-5.183167
31
0
39
0
210
0
220
0
230
1
0
LINE
5
92
100
AcDbEntity
8
1
62
256
6
ByLayer
370
18
48
1
60
0
100
AcDbLine
10
14.352561
20
8.7375
30
0
11
2.304363
21
8.7375
31
0
39
0
210
0
220
0
230
1
0
LINE
5
93
100
AcDbEntity
8
1
62
256
6
ByLayer
370
18
48
1
60
0
100
AcDbLine
10
2.304363
20
8.7375
30
0
11
2.304363
21
-7.973389
31
0
39
0
210
0
220
0
230
1
0
LINE
5
94
100
AcDbEntity
8
1
62
256
6
ByLayer
370
18
48
1
60
0
100
AcDbLine
10
20.207968
20
5.3875
30
0
11
18.707968
21
5.3875
31
0
39
0
210
0
220
0
230
1
0
LINE
5
95
100
AcDbEntity
8
1
62
256
6
ByLayer
370
18
48
1
60
0
100
AcDbLine
10
20.207968
20
8.7375
30
0
11
20.207968
21
5.3875
31
0
39
0
210
0
220
0
230
1
0
LINE
5
96
100
AcDbEntity
8
1
62
256
6
ByLayer
370
18
48
1
60
0
100
AcDbLine
10
14.352561
20
8.7375
30
0
11
20.207968
21
8.7375
31
0
39
0
210
0
220
0
230
1
0
LINE
5
97
100
AcDbEntity
8
1
62
256
6
ByLayer
370
18
48
1
60
0
100
AcDbLine
10
14.352561
20
5.3875
30
0
11
14.352561
21
8.7375
31
0
39
0
210
0
220
0
230
1
0
LINE
5
98
100
AcDbEntity
8
1
62
256
6
ByLayer
370
13
48
1
60
0
100
AcDbLine
10
14.352561
20
5.3875
30
0
11
18.707968
21
5.3875
31
0
39
0
210
0
220
0
230
1
0
LINE
5
99
100
AcDbEntity
8
SK1
62
256
6
ByLayer
370
18
48
1
60
0
100
AcDbLine
10
-93.292032
20
-7.9375
30
0
11
-4.455467
21
-7.9375
31
0
39
0
210
0
220
0
230
1
0
LINE
5
9B
100
AcDbEntity
8
SK1
62
256
6
ByLayer
370
18
48
1
60
0
100
AcDbLine
10
-93.292032
20
7.9375
30
0
11
-4.455467
21
7.9375
31
0
39
0
210
0
220
0
230
1
0
LINE
5
9C
100
AcDbEntity
8
SK1
62
256
6
ByLayer
370
18
48
1
60
0
100
AcDbLine
10
-93.292032
20
-7.9375
30
0
11
-93.292032
21
7.9375
31
0
39
0
210
0
220
0
230
1
0
LINE
5
9D
100
AcDbEntity
8
SK1
62
256
6
ByLayer
370
18
48
1
60
0
100
AcDbLine
10
0
20
8.51149
30
0
11
0
21
-7.939338
31
0
39
0
210
0
220
0
230
1
0
LINE
5
9E
100
AcDbEntity
8
SK1
62
256
6
ByLayer
370
18
48
1
60
0
100
AcDbLine
10
-4.455467
20
7.9375
30
0
11
-1.227723
21
7.9375
31
0
39
0
210
0
220
0
230
1
0
LINE
5
9F
100
AcDbEntity
8
SK1
62
256
6
ByLayer
370
18
48
1
60
0
100
AcDbLine
10
-4.455467
20
7.9375
30
0
11
-4.455467
21
-7.9375
31
0
39
0
210
0
220
0
230
1
0
LINE
5
A0
100
AcDbEntity
8
1
62
256
6
ByLayer
370
18
48
1
60
0
100
AcDbLine
10
25.337968
20
5.4625
30
0
11
27.294457
21
5.4625
31
0
39
0
210
0
220
0
230
1
0
LINE
5
A1
100
AcDbEntity
8
1
62
256
6
ByLayer
370
18
48
1
60
0
100
AcDbLine
10
25.337968
20
8.6625
30
0
11
27.294457
21
8.6625
31
0
39
0
210
0
220
0
230
1
0
LINE
5
A2
100
AcDbEntity
8
1
62
256
6
ByLayer
370
18
48
1
60
0
100
AcDbLine
10
31.707968
20
5.3625
30
0
11
31.707968
21
8.7625
31
0
39
0
210
0
220
0
230
1
0
LINE
5
A3
100
AcDbEntity
8
1
62
256
6
ByLayer
370
18
48
1
60
0
100
AcDbLine
10
31.394882
20
5.062786
30
0
11
27.707968
21
5.22376
31
0
39
0
210
0
220
0
230
1
0
LINE
5
A4
100
AcDbEntity
8
1
62
256
6
ByLayer
370
18
48
1
60
0
100
AcDbLine
10
27.707968
20
5.22376
30
0
11
27.294457
21
5.4625
31
0
39
0
210
0
220
0
230
1
0
LINE
5
A5
100
AcDbEntity
8
1
62
256
6
ByLayer
370
18
48
1
60
0
100
AcDbLine
10
31.394882
20
9.062214
30
0
11
27.707968
21
8.90124
31
0
39
0
210
0
220
0
230
1
0
LINE
5
A6
100
AcDbEntity
8
1
62
256
6
ByLayer
370
18
48
1
60
0
100
AcDbLine
10
27.707968
20
8.90124
30
0
11
27.294457
21
8.6625
31
0
39
0
210
0
220
0
230
1
0
LINE
5
A7
100
AcDbEntity
8
1
62
256
6
ByLayer
370
18
48
1
60
0
100
AcDbLine
10
6.707968
20
8.737478
30
0
11
6.707968
21
8.7625
31
0
39
0
210
0
220
0
230
1
0
LINE
5
A8
100
AcDbEntity
8
1
62
256
6
ByLayer
370
18
48
1
60
0
100
AcDbLine
10
7.021053
20
9.062214
30
0
11
10.707968
21
8.90124
31
0
39
0
210
0
220
0
230
1
0
LINE
5
A9
100
AcDbEntity
8
1
62
256
6
ByLayer
370
18
48
1
60
0
100
AcDbLine
10
10.707968
20
8.90124
30
0
11
10.991571
21
8.737502
31
0
39
0
210
0
220
0
230
1
0
LINE
5
AA
100
AcDbEntity
8
1
62
256
6
ByLayer
370
13
48
1
60
0
100
AcDbLine
10
23.707967
20
7.0825
30
0
11
24.645829
21
7.0825
31
0
39
0
210
0
220
0
230
1
0
LINE
5
AB
100
AcDbEntity
8
1
62
256
6
ByLayer
370
13
48
1
60
0
100
AcDbLine
10
23.707967
20
7.0425
30
0
11
24.645829
21
7.0425
31
0
39
0
210
0
220
0
230
1
0
LINE
5
AC
100
AcDbEntity
8
1
62
256
6
ByLayer
370
13
48
1
60
0
100
AcDbLine
10
23.707885
20
6.851764
30
0
11
24.636914
21
6.851764
31
0
39
0
210
0
220
0
230
1
0
LINE
5
AD
100
AcDbEntity
8
1
62
256
6
ByLayer
370
13
48
1
60
0
100
AcDbLine
10
23.707885
20
7.273236
30
0
11
24.636914
21
7.273236
31
0
39
0
210
0
220
0
230
1
0
LINE
5
AE
100
AcDbEntity
8
1
62
256
6
ByLayer
370
13
48
1
60
0
100
AcDbLine
10
23.599449
20
7.490233
30
0
11
24.456913
21
7.490233
31
0
39
0
210
0
220
0
230
1
0
LINE
5
AF
100
AcDbEntity
8
1
62
256
6
ByLayer
370
13
48
1
60
0
100
AcDbLine
10
23.599449
20
6.634767
30
0
11
24.456913
21
6.634767
31
0
39
0
210
0
220
0
230
1
0
LINE
5
B0
100
AcDbEntity
8
1
62
256
6
ByLayer
370
13
48
1
60
0
100
AcDbLine
10
24.298086
20
6.579415
30
0
11
23.469828
21
6.579415
31
0
39
0
210
0
220
0
230
1
0
LINE
5
B1
100
AcDbEntity
8
1
62
256
6
ByLayer
370
13
48
1
60
0
100
AcDbLine
10
24.298086
20
7.545585
30
0
11
23.469828
21
7.545585
31
0
39
0
210
0
220
0
230
1
0
LINE
5
B2
100
AcDbEntity
8
1
62
256
6
ByLayer
370
13
48
1
60
0
100
AcDbLine
10
23.427791
20
7.576388
30
0
11
24.25749
21
7.576388
31
0
39
0
210
0
220
0
230
1
0
LINE
5
B3
100
AcDbEntity
8
1
62
256
6
ByLayer
370
13
48
1
60
0
100
AcDbLine
10
23.427948
20
6.548612
30
0
11
24.25749
21
6.548612
31
0
39
0
210
0
220
0
230
1
0
LINE
5
B4
100
AcDbEntity
8
1
62
256
6
ByLayer
370
13
48
1
60
0
100
AcDbLine
10
23.411783
20
7.668165
30
0
11
24.185659
21
7.668165
31
0
39
0
210
0
220
0
230
1
0
LINE
5
B5
100
AcDbEntity
8
1
62
256
6
ByLayer
370
13
48
1
60
0
100
AcDbLine
10
23.413028
20
6.456835
30
0
11
24.185659
21
6.456835
31
0
39
0
210
0
220
0
230
1
0
LINE
5
B6
100
AcDbEntity
8
1
62
256
6
ByLayer
370
13
48
1
60
0
100
AcDbLine
10
23.405809
20
6.412566
30
0
11
24.165926
21
6.412566
31
0
39
0
210
0
220
0
230
1
0
LINE
5
B7
100
AcDbEntity
8
1
62
256
6
ByLayer
370
13
48
1
60
0
100
AcDbLine
10
23.404105
20
7.712434
30
0
11
24.165926
21
7.712434
31
0
39
0
210
0
220
0
230
1
0
LINE
5
B8
100
AcDbEntity
8
1
62
256
6
ByLayer
370
18
48
1
60
0
100
AcDbLine
10
25.337968
20
5.4625
30
0
11
24.042486
21
5.4625
31
0
39
0
210
0
220
0
230
1
0
LINE
5
B9
100
AcDbEntity
8
1
62
256
6
ByLayer
370
18
48
1
60
0
100
AcDbLine
10
25.337968
20
8.6625
30
0
11
24.042486
21
8.6625
31
0
39
0
210
0
220
0
230
1
0
LINE
5
BA
100
AcDbEntity
8
1
62
256
6
ByLayer
370
18
48
1
60
0
100
AcDbLine
10
24.044005
20
8.403884
30
0
11
24.165926
21
7.712434
31
0
39
0
210
0
220
0
230
1
0
LINE
5
BB
100
AcDbEntity
8
1
62
256
6
ByLayer
370
18
48
1
60
0
100
AcDbLine
10
24.185659
20
7.668165
30
0
11
24.25749
21
7.576388
31
0
39
0
210
0
220
0
230
1
0
LINE
5
BC
100
AcDbEntity
8
1
62
256
6
ByLayer
370
18
48
1
60
0
100
AcDbLine
10
24.645829
20
7.0425
30
0
11
24.645829
21
7.0825
31
0
39
0
210
0
220
0
230
1
0
LINE
5
BD
100
AcDbEntity
8
1
62
256
6
ByLayer
370
18
48
1
60
0
100
AcDbLine
10
24.185659
20
6.456835
30
0
11
24.25749
21
6.548612
31
0
39
0
210
0
220
0
230
1
0
LINE
5
BE
100
AcDbEntity
8
1
62
256
6
ByLayer
370
18
48
1
60
0
100
AcDbLine
10
24.044005
20
5.721116
30
0
11
24.165926
21
6.412566
31
0
39
0
210
0
220
0
230
1
0
LINE
5
BF
100
AcDbEntity
8
1
62
256
6
ByLayer
370
18
48
1
60
0
100
AcDbLine
10
25.337968
20
5.4625
30
0
11
25.337968
21
8.6625
31
0
39
0
210
0
220
0
230
1
0
LINE
5
C0
100
AcDbEntity
8
1
62
256
6
ByLayer
370
18
48
1
60
0
100
AcDbLine
10
24.042486
20
8.6625
30
0
11
24.042486
21
8.421249
31
0
39
0
210
0
220
0
230
1
0
LINE
5
C1
100
AcDbEntity
8
1
62
256
6
ByLayer
370
18
48
1
60
0
100
AcDbLine
10
23.238898
20
8.6625
30
0
11
24.042486
21
8.6625
31
0
39
0
210
0
220
0
230
1
0
LINE
5
C2
100
AcDbEntity
8
1
62
256
6
ByLayer
370
18
48
1
60
0
100
AcDbLine
10
23.239805
20
5.4625
30
0
11
24.042486
21
5.4625
31
0
39
0
210
0
220
0
230
1
0
LINE
5
C3
100
AcDbEntity
8
1
62
256
6
ByLayer
370
18
48
1
60
0
100
AcDbLine
10
24.042486
20
5.4625
30
0
11
24.042486
21
5.703751
31
0
39
0
210
0
220
0
230
1
0
LINE
5
C4
100
AcDbEntity
8
1
62
256
6
ByLayer
370
13
48
1
60
0
100
AcDbLine
10
23.283769
20
5.703751
30
0
11
24.042486
21
5.703751
31
0
39
0
210
0
220
0
230
1
0
LINE
5
C5
100
AcDbEntity
8
1
62
256
6
ByLayer
370
13
48
1
60
0
100
AcDbLine
10
23.287014
20
5.721116
30
0
11
24.044005
21
5.721116
31
0
39
0
210
0
220
0
230
1
0
LINE
5
C6
100
AcDbEntity
8
1
62
256
6
ByLayer
370
13
48
1
60
0
100
AcDbLine
10
23.280747
20
8.421249
30
0
11
24.042486
21
8.421249
31
0
39
0
210
0
220
0
230
1
0
LINE
5
C7
100
AcDbEntity
8
1
62
256
6
ByLayer
370
13
48
1
60
0
100
AcDbLine
10
23.28384
20
8.403884
30
0
11
24.044005
21
8.403884
31
0
39
0
210
0
220
0
230
1
0
MTEXT
5
109
100
AcDbEntity
8
SK6
62
256
6
ByLayer
370
18
48
1
60
0
100
AcDbMText
10
-63.106532
20
-53.672811
30
0
210
0
220
0
230
1
1
\W0.7380;C2R-RS16-RH13DB
40
3.5
41
0
44
1.084337
50
0
71
7
72
5
7
iso_b_vert
0
DIMENSION
5
10E
100
AcDbEntity
8
2
62
256
6
ByLayer
370
18
48
1
60
0
100
AcDbDimension
2
_U0
10
59.457968
20
-7.9375
30
0
11
59.457968
21
0.5625
31
0
70
32
71
1
72
1
41
1
210
0
220
0
230
1
3
Standard
100
AcDbAlignedDimension
13
31.707968
23
9.0625
33
0
14
-93.292032
24
-7.9375
34
0
50
90
100
AcDbRotatedDimension
1001
ACAD
1000
DSTYLE
1002
{
1070
   371
1070
    13
1070
   372
1070
    13
1070
   170
1070
     0
1070
   144
1040
1.0
1070
   277
1070
     2
1070
   284
1070
     8
1070
   278
1070
    46
1070
   146
1040
1.0
1070
   345
1005
16
1070
   347
1005
16
1070
   346
1005
16
1070
   344
1005
0
1070
   343
1005
0
1070
   172
1070
     1
1070
    76
1070
     0
1070
    75
1070
     0
1070
   282
1070
     0
1070
   281
1070
     0
1070
    71
1070
     0
1070
    74
1070
     0
1070
   279
1070
     0
1070
   173
1070
     1
1070
   340
1005
10A
1070
   271
1070
     2
1070
   272
1070
     2
1070
    77
1070
     1
1070
    73
1070
     0
1070
   171
1070
     3
1070
   274
1070
     4
1070
   177
1070
     2
1070
   176
1070
     2
1070
   178
1070
     2
1070
    78
1070
     8
1070
    48
1040
-0.1
1070
    41
1040
3.5
1070
   147
1040
1.75
1070
    42
1040
1.5875
1070
    44
1040
2.0
1070
   140
1040
3.5
1002
}
1001
ACAD_DSTYLE_DIM_LINETYPE
1070
   380
1005
16
1001
ACAD_DSTYLE_DIM_EXT1_LINETYPE
1070
   381
1005
16
1001
ACAD_DSTYLE_DIM_EXT2_LINETYPE
1070
   382
1005
16
0
DIMENSION
5
129
100
AcDbEntity
8
2
62
256
6
ByLayer
370
18
48
1
60
0
100
AcDbDimension
2
_U1
10
51.807968
20
9.0625
30
0
11
51.807968
21
7.0625
31
0
70
32
71
1
72
1
41
1
210
0
220
0
230
1
3
Standard
100
AcDbAlignedDimension
13
31.707968
23
5.0625
33
0
14
31.707968
24
9.0625
34
0
50
90
100
AcDbRotatedDimension
1001
ACAD
1000
DSTYLE
1002
{
1070
   371
1070
    13
1070
   372
1070
    13
1070
   170
1070
     0
1070
   144
1040
1.0
1070
   277
1070
     2
1070
   284
1070
     8
1070
   278
1070
    46
1070
   146
1040
1.0
1070
   345
1005
16
1070
   347
1005
16
1070
   346
1005
16
1070
   344
1005
0
1070
   343
1005
0
1070
   172
1070
     1
1070
    76
1070
     0
1070
    75
1070
     0
1070
   282
1070
     0
1070
   281
1070
     0
1070
    71
1070
     0
1070
    74
1070
     0
1070
   279
1070
     0
1070
   173
1070
     1
1070
   340
1005
10A
1070
   271
1070
     2
1070
   272
1070
     2
1070
    77
1070
     1
1070
    73
1070
     0
1070
   171
1070
     3
1070
   274
1070
     4
1070
   177
1070
     2
1070
   176
1070
     2
1070
   178
1070
     2
1070
    78
1070
     8
1070
    48
1040
-0.1
1070
    41
1040
3.5
1070
   147
1040
1.75
1070
    42
1040
1.5875
1070
    44
1040
2.0
1070
   140
1040
3.5
1002
}
1001
ACAD_DSTYLE_DIM_LINETYPE
1070
   380
1005
16
1001
ACAD_DSTYLE_DIM_EXT1_LINETYPE
1070
   381
1005
16
1001
ACAD_DSTYLE_DIM_EXT2_LINETYPE
1070
   382
1005
16
0
DIMENSION
5
142
100
AcDbEntity
8
SK2
62
256
6
ByLayer
370
18
48
1
60
0
100
AcDbDimension
2
_U2
10
-104.892032
20
8.0625
30
0
11
-104.892032
21
0.0625
31
0
70
32
71
1
72
1
41
1
210
0
220
0
230
1
3
Standard
100
AcDbAlignedDimension
13
-93.292032
23
-7.9375
33
0
14
-93.292032
24
8.0625
34
0
50
90
100
AcDbRotatedDimension
1001
ACAD
1000
DSTYLE
1002
{
1070
   371
1070
    13
1070
   372
1070
    13
1070
   170
1070
     0
1070
   144
1040
1.0
1070
   277
1070
     2
1070
   284
1070
     8
1070
   278
1070
    46
1070
   146
1040
1.0
1070
   345
1005
16
1070
   347
1005
16
1070
   346
1005
16
1070
   344
1005
0
1070
   343
1005
0
1070
   172
1070
     1
1070
    76
1070
     0
1070
    75
1070
     0
1070
   282
1070
     0
1070
   281
1070
     0
1070
    71
1070
     0
1070
    74
1070
     0
1070
   279
1070
     0
1070
   173
1070
     1
1070
   340
1005
10A
1070
   271
1070
     2
1070
   272
1070
     2
1070
    77
1070
     1
1070
    73
1070
     0
1070
   171
1070
     3
1070
   274
1070
     4
1070
   177
1070
     2
1070
   176
1070
     2
1070
   178
1070
     2
1070
    78
1070
     8
1070
    48
1040
-0.1
1070
    41
1040
3.5
1070
   147
1040
1.75
1070
    42
1040
1.5875
1070
    44
1040
2.0
1070
   140
1040
3.5
1002
}
1001
ACAD_DSTYLE_DIM_LINETYPE
1070
   380
1005
16
1001
ACAD_DSTYLE_DIM_EXT1_LINETYPE
1070
   381
1005
16
1001
ACAD_DSTYLE_DIM_EXT2_LINETYPE
1070
   382
1005
16
0
DIMENSION
5
15C
100
AcDbEntity
8
2
62
256
6
ByLayer
370
18
48
1
60
0
100
AcDbDimension
2
_U3
10
31.707968
20
-19.6875
30
0
11
25.207968
21
-19.6875
31
0
70
32
71
1
72
1
41
1
210
0
220
0
230
1
3
Standard
100
AcDbAlignedDimension
13
18.707968
23
5.3875
33
0
14
31.707968
24
9.0625
34
0
50
0
100
AcDbRotatedDimension
1001
ACAD
1000
DSTYLE
1002
{
1070
   371
1070
    13
1070
   372
1070
    13
1070
   170
1070
     0
1070
   144
1040
1.0
1070
   277
1070
     2
1070
   284
1070
     8
1070
   278
1070
    46
1070
   146
1040
1.0
1070
   345
1005
16
1070
   347
1005
16
1070
   346
1005
16
1070
   344
1005
0
1070
   343
1005
0
1070
   172
1070
     1
1070
    76
1070
     0
1070
    75
1070
     0
1070
   282
1070
     0
1070
   281
1070
     0
1070
    71
1070
     0
1070
    74
1070
     0
1070
   279
1070
     0
1070
   173
1070
     1
1070
   340
1005
10A
1070
   271
1070
     1
1070
   272
1070
     2
1070
    77
1070
     1
1070
    73
1070
     1
1070
   171
1070
     3
1070
   274
1070
     4
1070
   177
1070
     2
1070
   176
1070
     2
1070
   178
1070
     2
1070
    78
1070
     8
1070
    48
1040
-0.1
1070
    41
1040
3.5
1070
   147
1040
1.75
1070
    42
1040
1.5875
1070
    44
1040
2.0
1070
   140
1040
3.5
1002
}
1001
ACAD_DSTYLE_DIM_LINETYPE
1070
   380
1005
16
1001
ACAD_DSTYLE_DIM_EXT1_LINETYPE
1070
   381
1005
16
1001
ACAD_DSTYLE_DIM_EXT2_LINETYPE
1070
   382
1005
16
0
DIMENSION
5
175
100
AcDbEntity
8
SK2
62
256
6
ByLayer
370
18
48
1
60
0
100
AcDbDimension
2
_U4
10
31.707968
20
-25.6875
30
0
11
-30.792032
21
-25.6875
31
0
70
32
71
1
72
1
41
1
210
0
220
0
230
1
3
Standard
100
AcDbAlignedDimension
13
-93.292032
23
-7.9375
33
0
14
31.707968
24
9.0625
34
0
50
0
100
AcDbRotatedDimension
1001
ACAD
1000
DSTYLE
1002
{
1070
   371
1070
    13
1070
   372
1070
    13
1070
   170
1070
     0
1070
   144
1040
1.0
1070
   277
1070
     2
1070
   284
1070
     8
1070
   278
1070
    46
1070
   146
1040
1.0
1070
   345
1005
16
1070
   347
1005
16
1070
   346
1005
16
1070
   344
1005
0
1070
   343
1005
0
1070
   172
1070
     1
1070
    76
1070
     0
1070
    75
1070
     0
1070
   282
1070
     0
1070
   281
1070
     0
1070
    71
1070
     0
1070
    74
1070
     0
1070
   279
1070
     0
1070
   173
1070
     1
1070
   340
1005
10A
1070
   271
1070
     1
1070
   272
1070
     2
1070
    77
1070
     1
1070
    73
1070
     1
1070
   171
1070
     3
1070
   274
1070
     4
1070
   177
1070
     2
1070
   176
1070
     2
1070
   178
1070
     2
1070
    78
1070
     8
1070
    48
1040
-0.1
1070
    41
1040
3.5
1070
   147
1040
1.75
1070
    42
1040
1.5875
1070
    44
1040
2.0
1070
   140
1040
3.5
1002
}
1001
ACAD_DSTYLE_DIM_LINETYPE
1070
   380
1005
16
1001
ACAD_DSTYLE_DIM_EXT1_LINETYPE
1070
   381
1005
16
1001
ACAD_DSTYLE_DIM_EXT2_LINETYPE
1070
   382
1005
16
0
ENDSEC
0
SECTION
2
OBJECTS
0
DICTIONARY
5
1fc
330
0
100
AcDbDictionary
280
0
281
1
3
ACAD_GROUP
350
1fd
3
ACAD_MLINESTYLE
350
1fe
0
DICTIONARY
5
1fd
330
0
100
AcDbDictionary
280
0
281
1
0
DICTIONARY
5
1fe
330
0
100
AcDbDictionary
280
0
281
1
3
Standard
350
18
0
MLINESTYLE
5
18
330
1fe
100
AcDbMlineStyle
2
Standard
70
0
3

62
256
51
90
52
90
71
2
49
-0.5
62
256
6
ByLayer
49
0.5
62
256
6
ByLayer
0
RASTERVARIABLES
5
1eb
330

100
AcDbRasterVariables
90
0
70
1
71
1
72
1
0
ENDSEC
0
EOF
