0
SECTION
2
HEADER
9
$ACADVER
1
AC1015
9
$DWGCODEPAGE
3
ANSI_1252
9
$HANDSEED
5
210
9
$ANGBASE
50
0
9
$ANGDIR
70
0
9
$ATTMODE
70
1
9
$AUNITS
70
0
9
$AUPREC
70
0
9
$CECOLOR
62
256
9
$CELTSCALE
40
1
9
$CELTYPE
6
ByLayer
9
$CELWEIGHT
370
18
9
$CLAYER
8
0
9
$CMLJUST
70
0
9
$CMLSCALE
40
1
9
$CMLSTYLE
2
Standard
9
$DIMSTYLE
2
Standard
9
$TEXTSIZE
40
0.2
9
$TEXTSTYLE
7
Standard
9
$LUNITS
70
2
9
$LUPREC
70
4
9
$EXTNAMES
290
1
9
$INSUNITS
70
4
9
$LTSCALE
40
1
9
$LWDISPLAY
290
1
9
$PDMODE
70
0
9
$PDSIZE
40
0
9
$PLINEGEN
70
0
0
ENDSEC
0
SECTION
2
CLASSES
0
CLASS
1
RASTERVARIABLES
2
AcDbRasterVariables
3
ISM
90
0
280
0
281
0
0
ENDSEC
0
SECTION
2
TABLES
0
TABLE
2
VPORT
5
206
100
AcDbSymbolTable
0
VPORT
5
1
100
AcDbSymbolTableRecord
100
AcDbViewportTableRecord
2
*Active
70
0
10
0
20
0
11
1
21
1
12
-1
22
1
13
0
23
0
14
0.5
24
0.5
15
10
25
10
16
0
26
0
36
1
17
0
27
0
37
0
0
ENDTAB
0
TABLE
2
LTYPE
5
207
100
AcDbSymbolTable
0
LTYPE
5
14
100
AcDbSymbolTableRecord
100
AcDbLinetypeTableRecord
70
0
2
ByBlock
3

72
65
73
0
40
0
0
LTYPE
5
15
100
AcDbSymbolTableRecord
100
AcDbLinetypeTableRecord
70
0
2
ByLayer
3

72
65
73
0
40
0
0
LTYPE
5
16
100
AcDbSymbolTableRecord
100
AcDbLinetypeTableRecord
70
0
2
Continuous
3
Solid line
72
65
73
0
40
0
0
LTYPE
5
6E
100
AcDbSymbolTableRecord
100
AcDbLinetypeTableRecord
70
0
2
CENTER
3
____ _ ____ _ ____ _ ____
72
65
73
4
40
47.5
49
22
74
0
49
-8.5
74
0
49
8.5
74
0
49
-8.5
74
0
0
LTYPE
5
6F
100
AcDbSymbolTableRecord
100
AcDbLinetypeTableRecord
70
0
2
DASHED
3
__ __ __ __ __ __ __ __ __
72
65
73
2
40
25.72
49
12.86
74
0
49
-12.86
74
0
0
ENDTAB
0
TABLE
2
LAYER
5
208
100
AcDbSymbolTable
0
LAYER
5
10
100
AcDbSymbolTableRecord
100
AcDbLayerTableRecord
2
0
70
0
62
7
6
Continuous
290
1
370
-3
390
0
0
LAYER
5
71
100
AcDbSymbolTableRecord
100
AcDbLayerTableRecord
2
81
70
0
62
-3
6
Continuous
290
1
370
-3
390
0
0
LAYER
5
73
100
AcDbSymbolTableRecord
100
AcDbLayerTableRecord
2
80
70
0
62
-6
6
Continuous
290
1
370
-3
390
0
0
LAYER
5
75
100
AcDbSymbolTableRecord
100
AcDbLayerTableRecord
2
1
70
0
62
4
6
Continuous
290
1
370
-3
390
0
0
LAYER
5
11B
100
AcDbSymbolTableRecord
100
AcDbLayerTableRecord
2
Defpoints
70
0
62
7
6
Continuous
290
0
370
-3
390
0
0
LAYER
5
128
100
AcDbSymbolTableRecord
100
AcDbLayerTableRecord
2
2
70
0
62
7
6
Continuous
290
1
370
-3
390
0
0
LAYER
5
1f3
100
AcDbSymbolTableRecord
100
AcDbLayerTableRecord
2
SK1
70
0
62
4
6
Continuous
290
1
370
-3
390
0
0
LAYER
5
1f4
100
AcDbSymbolTableRecord
100
AcDbLayerTableRecord
2
SK6
70
0
62
5
6
Continuous
290
1
370
-3
390
0
0
LAYER
5
1f5
100
AcDbSymbolTableRecord
100
AcDbLayerTableRecord
2
SK2
70
0
62
7
6
Continuous
290
1
370
-3
390
0
0
ENDTAB
0
TABLE
2
STYLE
5
209
100
AcDbSymbolTable
0
STYLE
5
11
100
AcDbSymbolTableRecord
100
AcDbTextStyleTableRecord
2
Standard
3
txt
70
0
71
0
40
0
41
1
42
0
50
0
0
STYLE
5
114
100
AcDbSymbolTableRecord
100
AcDbTextStyleTableRecord
2
iso_b_vert
3
simplex.shx
70
0
71
0
40
0
41
1
42
0
50
0
0
STYLE
5
115
100
AcDbSymbolTableRecord
100
AcDbTextStyleTableRecord
2
DWGDirectTextStyle
3
simplex
70
0
71
0
40
0
41
1
42
0
50
0
0
ENDTAB
0
TABLE
2
DIMSTYLE
5
20a
100
AcDbSymbolTable
100
AcDbDimStyleTable
0
DIMSTYLE
105
27
100
AcDbSymbolTableRecord
100
AcDbDimStyleTableRecord
2
Standard
70
0
3
<>
41
0.18
42
0.0625
44
0.18
140
0.18
147
0.09
73
0
74
0
77
1
271
2
275
0
278
52
280
0
340
11
0
ENDTAB
0
TABLE
2
VIEW
5
20b
100
AcDbSymbolTable
0
ENDTAB
0
TABLE
2
UCS
5
20c
100
AcDbSymbolTable
0
ENDTAB
0
TABLE
2
APPID
5
20d
100
AcDbSymbolTable
0
APPID
5
12
100
AcDbSymbolTableRecord
100
AcDbRegAppTableRecord
2
ACAD
70
0
0
APPID
5
117
100
AcDbSymbolTableRecord
100
AcDbRegAppTableRecord
2
ACAD_DSTYLE_DIMBREAK
70
0
0
APPID
5
1B2
100
AcDbSymbolTableRecord
100
AcDbRegAppTableRecord
2
ACAD_DSTYLE_DIM_LINETYPE
70
0
0
APPID
5
1B3
100
AcDbSymbolTableRecord
100
AcDbRegAppTableRecord
2
ACAD_DSTYLE_DIM_EXT1_LINETYPE
70
0
0
APPID
5
1B4
100
AcDbSymbolTableRecord
100
AcDbRegAppTableRecord
2
ACAD_DSTYLE_DIM_EXT2_LINETYPE
70
0
0
APPID
5
1EF
100
AcDbSymbolTableRecord
100
AcDbRegAppTableRecord
2
ACAD_MLEADERVER
70
0
0
ENDTAB
0
TABLE
2
BLOCK_RECORD
5
20e
100
AcDbSymbolTable
0
BLOCK_RECORD
5
1F
100
AcDbSymbolTableRecord
100
AcDbBlockTableRecord
2
*Model_Space
340
0
70
0
0
BLOCK_RECORD
5
1B
100
AcDbSymbolTableRecord
100
AcDbBlockTableRecord
2
*Paper_Space
340
0
70
0
0
BLOCK_RECORD
5
23
100
AcDbSymbolTableRecord
100
AcDbBlockTableRecord
2
*Paper_Space0
340
0
70
0
0
BLOCK_RECORD
5
11C
100
AcDbSymbolTableRecord
100
AcDbBlockTableRecord
2
*D1
340
0
70
0
0
BLOCK_RECORD
5
129
100
AcDbSymbolTableRecord
100
AcDbBlockTableRecord
2
_U0
340
0
70
0
0
BLOCK_RECORD
5
135
100
AcDbSymbolTableRecord
100
AcDbBlockTableRecord
2
*D3
340
0
70
0
0
BLOCK_RECORD
5
142
100
AcDbSymbolTableRecord
100
AcDbBlockTableRecord
2
_U1
340
0
70
0
0
BLOCK_RECORD
5
14E
100
AcDbSymbolTableRecord
100
AcDbBlockTableRecord
2
*D5
340
0
70
0
0
BLOCK_RECORD
5
15B
100
AcDbSymbolTableRecord
100
AcDbBlockTableRecord
2
_U2
340
0
70
0
0
BLOCK_RECORD
5
167
100
AcDbSymbolTableRecord
100
AcDbBlockTableRecord
2
*D7
340
0
70
0
0
BLOCK_RECORD
5
173
100
AcDbSymbolTableRecord
100
AcDbBlockTableRecord
2
_U3
340
0
70
0
0
BLOCK_RECORD
5
17F
100
AcDbSymbolTableRecord
100
AcDbBlockTableRecord
2
*D9
340
0
70
0
0
BLOCK_RECORD
5
18B
100
AcDbSymbolTableRecord
100
AcDbBlockTableRecord
2
_U4
340
0
70
0
0
ENDTAB
0
ENDSEC
0
SECTION
2
BLOCKS
0
BLOCK
5
20
100
AcDbEntity
8
0
100
AcDbBlockBegin
2
*Model_Space
70
0
10
0
20
0
30
0
3
*Model_Space
0
ENDBLK
5
21
100
AcDbEntity
8
0
100
AcDbBlockEnd
0
BLOCK
5
1C
100
AcDbEntity
8
0
100
AcDbBlockBegin
2
*Paper_Space
70
0
10
0
20
0
30
0
3
*Paper_Space
0
ENDBLK
5
1D
100
AcDbEntity
8
0
100
AcDbBlockEnd
0
BLOCK
5
24
100
AcDbEntity
8
0
100
AcDbBlockBegin
2
*Paper_Space0
70
0
10
0
20
0
30
0
3
*Paper_Space0
0
ENDBLK
5
25
100
AcDbEntity
8
0
100
AcDbBlockEnd
0
BLOCK
5
11D
100
AcDbEntity
8
0
100
AcDbBlockBegin
2
*D1
70
1
10
0
20
0
30
0
3
*D1
0
LINE
5
11F
100
AcDbEntity
8
0
62
256
6
ByLayer
370
-2
48
1
60
0
100
AcDbLine
10
47.695468
20
-11.0625
30
0
11
81.207968
21
-11.0625
31
0
39
0
210
0
220
0
230
1
0
LINE
5
120
100
AcDbEntity
8
0
62
256
6
ByLayer
370
-2
48
1
60
0
100
AcDbLine
10
-77.304532
20
9.9375
30
0
11
81.207968
21
9.9375
31
0
39
0
210
0
220
0
230
1
0
LINE
5
121
100
AcDbEntity
8
0
62
256
6
ByLayer
370
-2
48
1
60
0
100
AcDbLine
10
79.207968
20
-7.5625
30
0
11
79.207968
21
6.4375
31
0
39
0
210
0
220
0
230
1
0
SOLID
5
122
100
AcDbEntity
8
0
62
256
6
ByLayer
370
-1
48
1
60
0
100
AcDbTrace
10
78.624634
20
-7.5625
30
0
11
79.791301
21
-7.5625
31
0
12
79.207968
22
-11.0625
32
0
13
79.207968
23
-11.0625
33
0
39
0
210
0
220
0
230
1
0
SOLID
5
123
100
AcDbEntity
8
0
62
256
6
ByLayer
370
-1
48
1
60
0
100
AcDbTrace
10
79.791301
20
6.4375
30
0
11
78.624634
21
6.4375
31
0
12
79.207968
22
9.9375
32
0
13
79.207968
23
9.9375
33
0
39
0
210
0
220
0
230
1
0
MTEXT
5
124
100
AcDbEntity
8
0
62
256
6
ByLayer
370
18
48
1
60
0
100
AcDbMText
10
72.207968
20
-0.5625
30
0
210
0
220
0
230
1
1
\A1;21
40
3.5
41
0
44
1
50
90
71
5
72
5
7
iso_b_vert
0
POINT
5
125
100
AcDbEntity
8
Defpoints
62
0
6
ByLayer
370
-1
48
1
60
0
100
AcDbPoint
10
46.107968
20
-11.0625
30
0
39
0
210
0
220
0
230
1
50
360
0
POINT
5
126
100
AcDbEntity
8
Defpoints
62
0
6
ByLayer
370
-1
48
1
60
0
100
AcDbPoint
10
-78.892032
20
9.9375
30
0
39
0
210
0
220
0
230
1
50
360
0
POINT
5
127
100
AcDbEntity
8
Defpoints
62
0
6
ByLayer
370
-1
48
1
60
0
100
AcDbPoint
10
79.207968
20
9.9375
30
0
39
0
210
0
220
0
230
1
50
360
0
ENDBLK
5
11E
100
AcDbEntity
8
0
100
AcDbBlockEnd
0
BLOCK
5
130
100
AcDbEntity
8
0
100
AcDbBlockBegin
2
_U0
70
0
10
0
20
0
30
0
3
_U0
0
MTEXT
5
12A
100
AcDbEntity
8
2
62
256
6
ByLayer
370
18
48
1
60
0
100
AcDbMText
10
78.518334
20
-2.058033
30
0
210
0
220
0
230
1
1
\W0.6351;21
40
3.5
41
0
44
1.084337
50
90
71
7
72
5
7
iso_b_vert
0
LINE
5
12B
100
AcDbEntity
8
2
62
256
6
ByLayer
370
13
48
1
60
0
100
AcDbLine
10
47.695468
20
-11.0625
30
0
11
81.207968
21
-11.0625
31
0
39
0
210
0
220
0
230
1
0
LINE
5
12C
100
AcDbEntity
8
2
62
256
6
ByLayer
370
13
48
1
60
0
100
AcDbLine
10
-77.304532
20
9.9375
30
0
11
81.207968
21
9.9375
31
0
39
0
210
0
220
0
230
1
0
LINE
5
12D
100
AcDbEntity
8
2
62
256
6
ByLayer
370
13
48
1
60
0
100
AcDbLine
10
79.207968
20
-11.0625
30
0
11
79.207968
21
9.9375
31
0
39
0
210
0
220
0
230
1
0
SOLID
5
12E
100
AcDbEntity
8
2
62
256
6
ByLayer
370
18
48
1
60
0
100
AcDbTrace
10
79.207968
20
-11.0625
30
0
11
78.747184
21
-7.562502
31
0
12
79.668751
22
-7.562498
32
0
13
79.668751
23
-7.562498
33
0
39
0
210
0
220
0
230
1
0
SOLID
5
12F
100
AcDbEntity
8
2
62
256
6
ByLayer
370
18
48
1
60
0
100
AcDbTrace
10
79.207968
20
9.9375
30
0
11
79.668751
21
6.437502
31
0
12
78.747184
22
6.437498
32
0
13
78.747184
23
6.437498
33
0
39
0
210
0
220
0
230
1
0
ENDBLK
5
131
100
AcDbEntity
8
0
100
AcDbBlockEnd
0
BLOCK
5
136
100
AcDbEntity
8
0
100
AcDbBlockBegin
2
*D3
70
1
10
0
20
0
30
0
3
*D3
0
LINE
5
138
100
AcDbEntity
8
0
62
256
6
ByLayer
370
-2
48
1
60
0
100
AcDbLine
10
47.695468
20
-7.0625
30
0
11
69.207968
21
-7.0625
31
0
39
0
210
0
220
0
230
1
0
LINE
5
139
100
AcDbEntity
8
0
62
256
6
ByLayer
370
-2
48
1
60
0
100
AcDbLine
10
47.695468
20
-11.0625
30
0
11
69.207968
21
-11.0625
31
0
39
0
210
0
220
0
230
1
0
LINE
5
13A
100
AcDbEntity
8
0
62
256
6
ByLayer
370
-2
48
1
60
0
100
AcDbLine
10
67.207968
20
-3.5625
30
0
11
67.207968
21
-0.0625
31
0
39
0
210
0
220
0
230
1
0
LINE
5
13B
100
AcDbEntity
8
0
62
256
6
ByLayer
370
-2
48
1
60
0
100
AcDbLine
10
67.207968
20
-14.5625
30
0
11
67.207968
21
-18.0625
31
0
39
0
210
0
220
0
230
1
0
SOLID
5
13C
100
AcDbEntity
8
0
62
256
6
ByLayer
370
-1
48
1
60
0
100
AcDbTrace
10
66.624634
20
-3.5625
30
0
11
67.791301
21
-3.5625
31
0
12
67.207968
22
-7.0625
32
0
13
67.207968
23
-7.0625
33
0
39
0
210
0
220
0
230
1
0
SOLID
5
13D
100
AcDbEntity
8
0
62
256
6
ByLayer
370
-1
48
1
60
0
100
AcDbTrace
10
67.791301
20
-14.5625
30
0
11
66.624634
21
-14.5625
31
0
12
67.207968
22
-11.0625
32
0
13
67.207968
23
-11.0625
33
0
39
0
210
0
220
0
230
1
0
MTEXT
5
13E
100
AcDbEntity
8
0
62
256
6
ByLayer
370
18
48
1
60
0
100
AcDbMText
10
60.207968
20
-9.0625
30
0
210
0
220
0
230
1
1
\A1;4
40
3.5
41
0
44
1
50
90
71
5
72
5
7
iso_b_vert
0
POINT
5
13F
100
AcDbEntity
8
Defpoints
62
0
6
ByLayer
370
-1
48
1
60
0
100
AcDbPoint
10
46.107968
20
-7.0625
30
0
39
0
210
0
220
0
230
1
50
360
0
POINT
5
140
100
AcDbEntity
8
Defpoints
62
0
6
ByLayer
370
-1
48
1
60
0
100
AcDbPoint
10
46.107968
20
-11.0625
30
0
39
0
210
0
220
0
230
1
50
360
0
POINT
5
141
100
AcDbEntity
8
Defpoints
62
0
6
ByLayer
370
-1
48
1
60
0
100
AcDbPoint
10
67.207968
20
-11.0625
30
0
39
0
210
0
220
0
230
1
50
360
0
ENDBLK
5
137
100
AcDbEntity
8
0
100
AcDbBlockEnd
0
BLOCK
5
149
100
AcDbEntity
8
0
100
AcDbBlockBegin
2
_U1
70
0
10
0
20
0
30
0
3
_U1
0
MTEXT
5
143
100
AcDbEntity
8
2
62
256
6
ByLayer
370
18
48
1
60
0
100
AcDbMText
10
66.518334
20
-9.872
30
0
210
0
220
0
230
1
1
\W0.6380;4
40
3.5
41
0
44
1.084337
50
90
71
7
72
5
7
iso_b_vert
0
LINE
5
144
100
AcDbEntity
8
2
62
256
6
ByLayer
370
13
48
1
60
0
100
AcDbLine
10
47.695468
20
-7.0625
30
0
11
69.207968
21
-7.0625
31
0
39
0
210
0
220
0
230
1
0
LINE
5
145
100
AcDbEntity
8
2
62
256
6
ByLayer
370
13
48
1
60
0
100
AcDbLine
10
47.695468
20
-11.0625
30
0
11
69.207968
21
-11.0625
31
0
39
0
210
0
220
0
230
1
0
LINE
5
146
100
AcDbEntity
8
2
62
256
6
ByLayer
370
13
48
1
60
0
100
AcDbLine
10
67.207968
20
1.6875
30
0
11
67.207968
21
-19.8125
31
0
39
0
210
0
220
0
230
1
0
SOLID
5
147
100
AcDbEntity
8
2
62
256
6
ByLayer
370
18
48
1
60
0
100
AcDbTrace
10
67.207968
20
-7.0625
30
0
11
66.747184
21
-3.562502
31
0
12
67.668751
22
-3.562498
32
0
13
67.668751
23
-3.562498
33
0
39
0
210
0
220
0
230
1
0
SOLID
5
148
100
AcDbEntity
8
2
62
256
6
ByLayer
370
18
48
1
60
0
100
AcDbTrace
10
67.207968
20
-11.0625
30
0
11
67.668751
21
-14.562498
31
0
12
66.747184
22
-14.562502
32
0
13
66.747184
23
-14.562502
33
0
39
0
210
0
220
0
230
1
0
ENDBLK
5
14A
100
AcDbEntity
8
0
100
AcDbBlockEnd
0
BLOCK
5
14F
100
AcDbEntity
8
0
100
AcDbBlockBegin
2
*D5
70
1
10
0
20
0
30
0
3
*D5
0
LINE
5
151
100
AcDbEntity
8
0
62
256
6
ByLayer
370
-2
48
1
60
0
100
AcDbLine
10
-80.479532
20
9.9375
30
0
11
-92.492032
21
9.9375
31
0
39
0
210
0
220
0
230
1
0
LINE
5
152
100
AcDbEntity
8
0
62
256
6
ByLayer
370
-2
48
1
60
0
100
AcDbLine
10
-80.479532
20
-10.0625
30
0
11
-92.492032
21
-10.0625
31
0
39
0
210
0
220
0
230
1
0
LINE
5
153
100
AcDbEntity
8
0
62
256
6
ByLayer
370
-2
48
1
60
0
100
AcDbLine
10
-90.492032
20
6.4375
30
0
11
-90.492032
21
-6.5625
31
0
39
0
210
0
220
0
230
1
0
SOLID
5
154
100
AcDbEntity
8
0
62
256
6
ByLayer
370
-1
48
1
60
0
100
AcDbTrace
10
-89.908699
20
6.4375
30
0
11
-91.075366
21
6.4375
31
0
12
-90.492032
22
9.9375
32
0
13
-90.492032
23
9.9375
33
0
39
0
210
0
220
0
230
1
0
SOLID
5
155
100
AcDbEntity
8
0
62
256
6
ByLayer
370
-1
48
1
60
0
100
AcDbTrace
10
-91.075366
20
-6.5625
30
0
11
-89.908699
21
-6.5625
31
0
12
-90.492032
22
-10.0625
32
0
13
-90.492032
23
-10.0625
33
0
39
0
210
0
220
0
230
1
0
MTEXT
5
156
100
AcDbEntity
8
0
62
256
6
ByLayer
370
18
48
1
60
0
100
AcDbMText
10
-97.492032
20
-0.0625
30
0
210
0
220
0
230
1
1
\A1;20
40
3.5
41
0
44
1
50
90
71
5
72
5
7
iso_b_vert
0
POINT
5
157
100
AcDbEntity
8
Defpoints
62
0
6
ByLayer
370
-1
48
1
60
0
100
AcDbPoint
10
-78.892032
20
9.9375
30
0
39
0
210
0
220
0
230
1
50
360
0
POINT
5
158
100
AcDbEntity
8
Defpoints
62
0
6
ByLayer
370
-1
48
1
60
0
100
AcDbPoint
10
-78.892032
20
-10.0625
30
0
39
0
210
0
220
0
230
1
50
360
0
POINT
5
159
100
AcDbEntity
8
Defpoints
62
0
6
ByLayer
370
-1
48
1
60
0
100
AcDbPoint
10
-90.492032
20
-10.0625
30
0
39
0
210
0
220
0
230
1
50
360
0
ENDBLK
5
150
100
AcDbEntity
8
0
100
AcDbBlockEnd
0
BLOCK
5
162
100
AcDbEntity
8
0
100
AcDbBlockBegin
2
_U2
70
0
10
0
20
0
30
0
3
_U2
0
MTEXT
5
15C
100
AcDbEntity
8
SK2
62
256
6
ByLayer
370
18
48
1
60
0
100
AcDbMText
10
-91.181666
20
-1.995466
30
0
210
0
220
0
230
1
1
\W0.6740;20
40
3.5
41
0
44
1.084337
50
90
71
7
72
5
7
iso_b_vert
0
LINE
5
15D
100
AcDbEntity
8
SK2
62
256
6
ByLayer
370
13
48
1
60
0
100
AcDbLine
10
-80.479532
20
9.9375
30
0
11
-92.492032
21
9.9375
31
0
39
0
210
0
220
0
230
1
0
LINE
5
15E
100
AcDbEntity
8
SK2
62
256
6
ByLayer
370
13
48
1
60
0
100
AcDbLine
10
-80.479532
20
-10.0625
30
0
11
-92.492032
21
-10.0625
31
0
39
0
210
0
220
0
230
1
0
LINE
5
15F
100
AcDbEntity
8
SK2
62
256
6
ByLayer
370
13
48
1
60
0
100
AcDbLine
10
-90.492032
20
9.9375
30
0
11
-90.492032
21
-10.0625
31
0
39
0
210
0
220
0
230
1
0
SOLID
5
160
100
AcDbEntity
8
SK2
62
256
6
ByLayer
370
18
48
1
60
0
100
AcDbTrace
10
-90.492032
20
9.9375
30
0
11
-90.031249
21
6.437502
31
0
12
-90.952816
22
6.437498
32
0
13
-90.952816
23
6.437498
33
0
39
0
210
0
220
0
230
1
0
SOLID
5
161
100
AcDbEntity
8
SK2
62
256
6
ByLayer
370
18
48
1
60
0
100
AcDbTrace
10
-90.492032
20
-10.0625
30
0
11
-90.952816
21
-6.562502
31
0
12
-90.031249
22
-6.562498
32
0
13
-90.031249
23
-6.562498
33
0
39
0
210
0
220
0
230
1
0
ENDBLK
5
163
100
AcDbEntity
8
0
100
AcDbBlockEnd
0
BLOCK
5
168
100
AcDbEntity
8
0
100
AcDbBlockBegin
2
*D7
70
1
10
0
20
0
30
0
3
*D7
0
LINE
5
16A
100
AcDbEntity
8
0
62
256
6
ByLayer
370
-2
48
1
60
0
100
AcDbLine
10
21.107968
20
-5.8
30
0
11
21.107968
21
18.1875
31
0
39
0
210
0
220
0
230
1
0
LINE
5
16B
100
AcDbEntity
8
0
62
256
6
ByLayer
370
-2
48
1
60
0
100
AcDbLine
10
46.107968
20
-9.475
30
0
11
46.107968
21
18.1875
31
0
39
0
210
0
220
0
230
1
0
LINE
5
16C
100
AcDbEntity
8
0
62
256
6
ByLayer
370
-2
48
1
60
0
100
AcDbLine
10
24.607968
20
16.1875
30
0
11
42.607968
21
16.1875
31
0
39
0
210
0
220
0
230
1
0
SOLID
5
16D
100
AcDbEntity
8
0
62
256
6
ByLayer
370
-1
48
1
60
0
100
AcDbTrace
10
24.607968
20
16.770833
30
0
11
24.607968
21
15.604167
31
0
12
21.107968
22
16.1875
32
0
13
21.107968
23
16.1875
33
0
39
0
210
0
220
0
230
1
0
SOLID
5
16E
100
AcDbEntity
8
0
62
256
6
ByLayer
370
-1
48
1
60
0
100
AcDbTrace
10
42.607968
20
15.604167
30
0
11
42.607968
21
16.770833
31
0
12
46.107968
22
16.1875
32
0
13
46.107968
23
16.1875
33
0
39
0
210
0
220
0
230
1
0
MTEXT
5
16F
100
AcDbEntity
8
0
62
256
6
ByLayer
370
18
48
1
60
0
100
AcDbMText
10
33.607968
20
23.1875
30
0
210
0
220
0
230
1
1
\A1;25
40
3.5
41
0
44
1
50
0
71
5
72
5
7
iso_b_vert
0
POINT
5
170
100
AcDbEntity
8
Defpoints
62
0
6
ByLayer
370
-1
48
1
60
0
100
AcDbPoint
10
21.107968
20
-7.3875
30
0
39
0
210
0
220
0
230
1
50
360
0
POINT
5
171
100
AcDbEntity
8
Defpoints
62
0
6
ByLayer
370
-1
48
1
60
0
100
AcDbPoint
10
46.107968
20
-11.0625
30
0
39
0
210
0
220
0
230
1
50
360
0
POINT
5
172
100
AcDbEntity
8
Defpoints
62
0
6
ByLayer
370
-1
48
1
60
0
100
AcDbPoint
10
46.107968
20
16.1875
30
0
39
0
210
0
220
0
230
1
50
360
0
ENDBLK
5
169
100
AcDbEntity
8
0
100
AcDbBlockEnd
0
BLOCK
5
17A
100
AcDbEntity
8
0
100
AcDbBlockBegin
2
_U3
70
0
10
0
20
0
30
0
3
_U3
0
MTEXT
5
174
100
AcDbEntity
8
2
62
256
6
ByLayer
370
18
48
1
60
0
100
AcDbMText
10
31.703001
20
17.220134
30
0
210
0
220
0
230
1
1
\W0.6740;25
40
3.5
41
0
44
1.084337
50
0
71
7
72
5
7
iso_b_vert
0
LINE
5
175
100
AcDbEntity
8
2
62
256
6
ByLayer
370
13
48
1
60
0
100
AcDbLine
10
21.107968
20
-5.8
30
0
11
21.107968
21
18.1875
31
0
39
0
210
0
220
0
230
1
0
LINE
5
176
100
AcDbEntity
8
2
62
256
6
ByLayer
370
13
48
1
60
0
100
AcDbLine
10
46.107968
20
-9.475
30
0
11
46.107968
21
18.1875
31
0
39
0
210
0
220
0
230
1
0
LINE
5
177
100
AcDbEntity
8
2
62
256
6
ByLayer
370
13
48
1
60
0
100
AcDbLine
10
21.107968
20
16.1875
30
0
11
46.107968
21
16.1875
31
0
39
0
210
0
220
0
230
1
0
SOLID
5
178
100
AcDbEntity
8
2
62
256
6
ByLayer
370
18
48
1
60
0
100
AcDbTrace
10
21.107968
20
16.1875
30
0
11
24.607966
21
16.648284
31
0
12
24.607969
22
15.726716
32
0
13
24.607969
23
15.726716
33
0
39
0
210
0
220
0
230
1
0
SOLID
5
179
100
AcDbEntity
8
2
62
256
6
ByLayer
370
18
48
1
60
0
100
AcDbTrace
10
46.107968
20
16.1875
30
0
11
42.607969
21
15.726716
31
0
12
42.607966
22
16.648284
32
0
13
42.607966
23
16.648284
33
0
39
0
210
0
220
0
230
1
0
ENDBLK
5
17B
100
AcDbEntity
8
0
100
AcDbBlockEnd
0
BLOCK
5
180
100
AcDbEntity
8
0
100
AcDbBlockBegin
2
*D9
70
1
10
0
20
0
30
0
3
*D9
0
LINE
5
182
100
AcDbEntity
8
0
62
256
6
ByLayer
370
-2
48
1
60
0
100
AcDbLine
10
-78.892032
20
11.525
30
0
11
-78.892032
21
34.1875
31
0
39
0
210
0
220
0
230
1
0
LINE
5
183
100
AcDbEntity
8
0
62
256
6
ByLayer
370
-2
48
1
60
0
100
AcDbLine
10
46.107968
20
-9.475
30
0
11
46.107968
21
34.1875
31
0
39
0
210
0
220
0
230
1
0
LINE
5
184
100
AcDbEntity
8
0
62
256
6
ByLayer
370
-2
48
1
60
0
100
AcDbLine
10
-75.392032
20
32.1875
30
0
11
42.607968
21
32.1875
31
0
39
0
210
0
220
0
230
1
0
SOLID
5
185
100
AcDbEntity
8
0
62
256
6
ByLayer
370
-1
48
1
60
0
100
AcDbTrace
10
-75.392032
20
32.770833
30
0
11
-75.392032
21
31.604167
31
0
12
-78.892032
22
32.1875
32
0
13
-78.892032
23
32.1875
33
0
39
0
210
0
220
0
230
1
0
SOLID
5
186
100
AcDbEntity
8
0
62
256
6
ByLayer
370
-1
48
1
60
0
100
AcDbTrace
10
42.607968
20
31.604167
30
0
11
42.607968
21
32.770833
31
0
12
46.107968
22
32.1875
32
0
13
46.107968
23
32.1875
33
0
39
0
210
0
220
0
230
1
0
MTEXT
5
187
100
AcDbEntity
8
0
62
256
6
ByLayer
370
18
48
1
60
0
100
AcDbMText
10
-16.392032
20
39.1875
30
0
210
0
220
0
230
1
1
\A1;125
40
3.5
41
0
44
1
50
0
71
5
72
5
7
iso_b_vert
0
POINT
5
188
100
AcDbEntity
8
Defpoints
62
0
6
ByLayer
370
-1
48
1
60
0
100
AcDbPoint
10
-78.892032
20
9.9375
30
0
39
0
210
0
220
0
230
1
50
360
0
POINT
5
189
100
AcDbEntity
8
Defpoints
62
0
6
ByLayer
370
-1
48
1
60
0
100
AcDbPoint
10
46.107968
20
-11.0625
30
0
39
0
210
0
220
0
230
1
50
360
0
POINT
5
18A
100
AcDbEntity
8
Defpoints
62
0
6
ByLayer
370
-1
48
1
60
0
100
AcDbPoint
10
46.107968
20
32.1875
30
0
39
0
210
0
220
0
230
1
50
360
0
ENDBLK
5
181
100
AcDbEntity
8
0
100
AcDbBlockEnd
0
BLOCK
5
192
100
AcDbEntity
8
0
100
AcDbBlockBegin
2
_U4
70
0
10
0
20
0
30
0
3
_U4
0
MTEXT
5
18C
100
AcDbEntity
8
SK2
62
256
6
ByLayer
370
18
48
1
60
0
100
AcDbMText
10
-19.167298
20
33.220134
30
0
210
0
220
0
230
1
1
\W0.6217;125
40
3.5
41
0
44
1.084337
50
0
71
7
72
5
7
iso_b_vert
0
LINE
5
18D
100
AcDbEntity
8
SK2
62
256
6
ByLayer
370
13
48
1
60
0
100
AcDbLine
10
-78.892032
20
11.525
30
0
11
-78.892032
21
34.1875
31
0
39
0
210
0
220
0
230
1
0
LINE
5
18E
100
AcDbEntity
8
SK2
62
256
6
ByLayer
370
13
48
1
60
0
100
AcDbLine
10
46.107968
20
-9.475
30
0
11
46.107968
21
34.1875
31
0
39
0
210
0
220
0
230
1
0
LINE
5
18F
100
AcDbEntity
8
SK2
62
256
6
ByLayer
370
13
48
1
60
0
100
AcDbLine
10
-78.892032
20
32.1875
30
0
11
46.107968
21
32.1875
31
0
39
0
210
0
220
0
230
1
0
SOLID
5
190
100
AcDbEntity
8
SK2
62
256
6
ByLayer
370
18
48
1
60
0
100
AcDbTrace
10
-78.892032
20
32.1875
30
0
11
-75.392034
21
32.648284
31
0
12
-75.392031
22
31.726716
32
0
13
-75.392031
23
31.726716
33
0
39
0
210
0
220
0
230
1
0
SOLID
5
191
100
AcDbEntity
8
SK2
62
256
6
ByLayer
370
18
48
1
60
0
100
AcDbTrace
10
46.107968
20
32.1875
30
0
11
42.607969
21
31.726716
31
0
12
42.607966
22
32.648284
32
0
13
42.607966
23
32.648284
33
0
39
0
210
0
220
0
230
1
0
ENDBLK
5
193
100
AcDbEntity
8
0
100
AcDbBlockEnd
0
ENDSEC
0
SECTION
2
ENTITIES
0
ARC
5
CC
100
AcDbEntity
8
1
62
256
6
ByLayer
370
18
48
1
60
0
100
AcDbCircle
39
0
10
21.107968
20
-5.7875
30
0
40
1.6
210
0
220
0
230
1
100
AcDbArc
50
180
51
270
0
ARC
5
CD
100
AcDbEntity
8
1
62
256
6
ByLayer
370
18
48
1
60
0
100
AcDbCircle
39
0
10
12.757968
20
0.0875
30
0
40
2.1768
210
0
220
0
230
1
100
AcDbArc
50
150
51
210
0
ARC
5
CE
100
AcDbEntity
8
1
62
256
6
ByLayer
370
18
48
1
60
0
100
AcDbCircle
39
0
10
12.757968
20
0.0875
30
0
40
2.1768
210
0
220
0
230
1
100
AcDbArc
50
210
51
270
0
ARC
5
CF
100
AcDbEntity
8
1
62
256
6
ByLayer
370
18
48
1
60
0
100
AcDbCircle
39
0
10
12.757968
20
0.0875
30
0
40
2.1768
210
0
220
0
230
1
100
AcDbArc
50
270
51
330
0
ARC
5
D0
100
AcDbEntity
8
1
62
256
6
ByLayer
370
18
48
1
60
0
100
AcDbCircle
39
0
10
12.757968
20
0.0875
30
0
40
2.1768
210
0
220
0
230
1
100
AcDbArc
50
30
51
90
0
ARC
5
D1
100
AcDbEntity
8
1
62
256
6
ByLayer
370
18
48
1
60
0
100
AcDbCircle
39
0
10
12.757968
20
0.0875
30
0
40
2.1768
210
0
220
0
230
1
100
AcDbArc
50
90
51
150
0
ARC
5
D2
100
AcDbEntity
8
1
62
256
6
ByLayer
370
18
48
1
60
0
100
AcDbCircle
39
0
10
12.757968
20
0.0875
30
0
40
2.1768
210
0
220
0
230
1
100
AcDbArc
50
330
51
30
0
ARC
5
D5
100
AcDbEntity
8
1
62
256
6
ByLayer
370
18
48
1
60
0
100
AcDbCircle
39
0
10
12.757968
20
0.0875
30
0
40
2.8067
210
0
220
0
230
1
100
AcDbArc
50
180
51
240
0
ARC
5
D6
100
AcDbEntity
8
1
62
256
6
ByLayer
370
18
48
1
60
0
100
AcDbCircle
39
0
10
12.757968
20
0.0875
30
0
40
2.8067
210
0
220
0
230
1
100
AcDbArc
50
360
51
60
0
ARC
5
D7
100
AcDbEntity
8
1
62
256
6
ByLayer
370
18
48
1
60
0
100
AcDbCircle
39
0
10
12.757968
20
0.0875
30
0
40
2.8067
210
0
220
0
230
1
100
AcDbArc
50
300
51
360
0
ARC
5
D8
100
AcDbEntity
8
1
62
256
6
ByLayer
370
18
48
1
60
0
100
AcDbCircle
39
0
10
12.757968
20
0.0875
30
0
40
2.8067
210
0
220
0
230
1
100
AcDbArc
50
240
51
300
0
ARC
5
D9
100
AcDbEntity
8
1
62
256
6
ByLayer
370
18
48
1
60
0
100
AcDbCircle
39
0
10
12.757968
20
0.0875
30
0
40
2.8067
210
0
220
0
230
1
100
AcDbArc
50
60
51
120
0
ARC
5
DA
100
AcDbEntity
8
1
62
256
6
ByLayer
370
18
48
1
60
0
100
AcDbCircle
39
0
10
12.757968
20
0.0875
30
0
40
2.8067
210
0
220
0
230
1
100
AcDbArc
50
120
51
180
0
ARC
5
DB
100
AcDbEntity
8
1
62
256
6
ByLayer
370
18
48
1
60
0
100
AcDbCircle
39
0
10
45.807968
20
-10.7625
30
0
40
0.3
210
0
220
0
230
1
100
AcDbArc
50
267.5
51
0
0
ARC
5
DC
100
AcDbEntity
8
1
62
256
6
ByLayer
370
18
48
1
60
0
100
AcDbCircle
39
0
10
45.807968
20
-7.3625
30
0
40
0.3
210
0
220
0
230
1
100
AcDbArc
50
0
51
92.5
0
ARC
5
DD
100
AcDbEntity
8
1
62
256
6
ByLayer
370
18
48
1
60
0
100
AcDbCircle
39
0
10
21.407968
20
-10.7625
30
0
40
0.3
210
0
220
0
230
1
100
AcDbArc
50
180
51
272.5
0
ARC
5
DE
100
AcDbEntity
8
1
62
256
6
ByLayer
370
18
48
1
60
0
100
AcDbCircle
39
0
10
21.407968
20
-7.3625
30
0
40
0.3
210
0
220
0
230
1
100
AcDbArc
50
87.5
51
180
0
ARC
5
DF
100
AcDbEntity
8
1
62
256
6
ByLayer
370
18
48
1
60
0
100
AcDbCircle
39
0
10
38.664407
20
-8.395201
30
0
40
0.0999999999929262
210
0
220
0
230
1
100
AcDbArc
50
190.000001
51
218.049181
0
ARC
5
E0
100
AcDbEntity
8
1
62
256
6
ByLayer
370
18
48
1
60
0
100
AcDbCircle
39
0
10
38.664407
20
-9.729799
30
0
40
0.0999999999929262
210
0
220
0
230
1
100
AcDbArc
50
141.950819
51
169.999999
0
CIRCLE
5
CB
100
AcDbEntity
8
1
62
256
6
ByLayer
370
18
48
1
60
0
100
AcDbCircle
10
12.757968
20
0.0875
30
0
40
5.75
39
0
210
0
220
0
230
1
0
CIRCLE
5
D3
100
AcDbEntity
8
1
62
256
6
ByLayer
370
18
48
1
60
0
100
AcDbCircle
10
12.757968
20
0.0875
30
0
40
5.35
39
0
210
0
220
0
230
1
0
CIRCLE
5
D4
100
AcDbEntity
8
1
62
256
6
ByLayer
370
13
48
1
60
0
100
AcDbCircle
10
12.757968
20
0.0875
30
0
40
4.55
39
0
210
0
220
0
230
1
0
ELLIPSE
5
E1
100
AcDbEntity
8
1
62
256
6
ByLayer
370
18
48
1
60
0
100
AcDbEllipse
10
-2.415859
20
9.947099
30
0
11
2.99999999997037
21
3.51436609371286E-15
31
0
210
0
220
0
230
1
40
0.004363
41
-0.634637860132029
42
-0.261799387800051
0
ELLIPSE
5
E2
100
AcDbEntity
8
SK1
62
256
6
ByLayer
370
18
48
1
60
0
100
AcDbEllipse
10
-2.415859
20
9.947099
30
0
11
3.00000000000004
21
3.51436609374761E-15
31
0
210
0
220
0
230
1
40
0.004363
41
-2.3183806764641
42
-0.634637860129127
0
ELLIPSE
5
E3
100
AcDbEntity
8
1
62
256
6
ByLayer
370
18
48
1
60
0
100
AcDbEllipse
10
38.542486
20
-7.703751
30
0
11
0.099649544459793
21
0.00836478103021757
31
0
210
0
220
0
230
1
40
1
41
3.05784699619331
42
-3.0508053914039
0
ELLIPSE
5
E4
100
AcDbEntity
8
1
62
256
6
ByLayer
370
18
48
1
60
0
100
AcDbEllipse
10
38.542486
20
-10.421249
30
0
11
0.0996495444597931
21
-0.00836478103021748
31
0
210
0
220
0
230
1
40
1
41
3.05080539140391
42
-3.05784699619331
0
POINT
5
70
100
AcDbEntity
8
81
62
256
6
ByLayer
370
18
48
1
60
0
100
AcDbPoint
10
46.107968
20
-11.0625
30
0
39
0
210
0
220
0
230
1
50
360
0
POINT
5
72
100
AcDbEntity
8
80
62
256
6
ByLayer
370
18
48
1
60
0
100
AcDbPoint
10
0
20
0
30
0
39
0
210
0
220
0
230
1
50
360
0
POINT
5
74
100
AcDbEntity
8
1
62
256
6
ByLayer
370
18
48
1
60
1
100
AcDbPoint
10
46.107968
20
-11.0625
30
0
39
0
210
0
220
0
230
1
50
360
0
POINT
5
76
100
AcDbEntity
8
1
62
256
6
ByLayer
370
18
48
1
60
1
100
AcDbPoint
10
-78.892032
20
9.9375
30
0
39
0
210
0
220
0
230
1
50
360
0
POINT
5
77
100
AcDbEntity
8
1
62
256
6
ByLayer
370
18
48
1
60
1
100
AcDbPoint
10
46.107968
20
-7.0625
30
0
39
0
210
0
220
0
230
1
50
360
0
POINT
5
78
100
AcDbEntity
8
1
62
256
6
ByLayer
370
18
48
1
60
1
100
AcDbPoint
10
46.107968
20
-11.0625
30
0
39
0
210
0
220
0
230
1
50
360
0
POINT
5
79
100
AcDbEntity
8
1
62
256
6
ByLayer
370
18
48
1
60
1
100
AcDbPoint
10
-78.892032
20
9.9375
30
0
39
0
210
0
220
0
230
1
50
360
0
POINT
5
7A
100
AcDbEntity
8
1
62
256
6
ByLayer
370
18
48
1
60
1
100
AcDbPoint
10
-78.892032
20
-10.0625
30
0
39
0
210
0
220
0
230
1
50
360
0
POINT
5
7B
100
AcDbEntity
8
1
62
256
6
ByLayer
370
18
48
1
60
1
100
AcDbPoint
10
21.107968
20
-7.3875
30
0
39
0
210
0
220
0
230
1
50
360
0
POINT
5
7C
100
AcDbEntity
8
1
62
256
6
ByLayer
370
18
48
1
60
1
100
AcDbPoint
10
46.107968
20
-11.0625
30
0
39
0
210
0
220
0
230
1
50
360
0
POINT
5
7D
100
AcDbEntity
8
1
62
256
6
ByLayer
370
18
48
1
60
1
100
AcDbPoint
10
-78.892032
20
9.9375
30
0
39
0
210
0
220
0
230
1
50
360
0
POINT
5
7E
100
AcDbEntity
8
1
62
256
6
ByLayer
370
18
48
1
60
1
100
AcDbPoint
10
46.107968
20
-11.0625
30
0
39
0
210
0
220
0
230
1
50
360
0
SPLINE
5
E5
100
AcDbEntity
8
1
62
256
6
ByLayer
370
18
48
1
60
0
100
AcDbSpline
70
4
71
3
72
10
73
6
40
0
40
0
40
0
40
0
40
0.5
40
0.5
40
1
40
1
40
1
40
1
41
1
10
0
20
-10.5114903551092
30
0
41
1
10
0.0292278500070324
20
-10.5464644015582
30
0
41
1
10
0.0569722395135273
20
-10.5826890036962
30
0
41
1
10
0.10959130657227
20
-10.6578999070572
30
0
41
1
10
0.134466521600729
20
-10.6968817740469
30
0
41
1
10
0.157917465288733
20
-10.7374999999999
30
0
0
SPLINE
5
E6
100
AcDbEntity
8
1
62
256
6
ByLayer
370
18
48
1
60
0
100
AcDbSpline
70
4
71
3
72
8
73
4
40
0
40
0
40
0
40
0
40
1
40
1
40
1
40
1
41
1
10
37.8302153477877
20
-8.5625
30
0
41
1
10
37.8961025793965
20
-8.58940854013653
30
0
41
1
10
37.9616721404866
20
-8.61773430633343
30
0
41
1
10
38.0271257792798
20
-8.64657723761357
30
0
0
SPLINE
5
E7
100
AcDbEntity
8
1
62
256
6
ByLayer
370
18
48
1
60
0
100
AcDbSpline
70
4
71
3
72
12
73
8
40
0
40
0
40
0
40
0
40
0.500000000000001
40
0.500000000000001
40
0.75
40
0.75
40
1
40
1
40
1
40
1
41
1
10
37.8302153477899
20
-8.56249999999943
30
0
41
1
10
37.7992985405696
20
-8.3657571875795
30
0
41
1
10
37.7675961374991
20
-8.1692079830697
30
0
41
1
10
37.7174430225492
20
-7.87513314671844
30
0
41
1
10
37.7002854080944
20
-7.77724574597428
30
0
41
1
10
37.6644967018712
20
-7.58193165064816
30
0
41
1
10
37.6458954143076
20
-7.48448827964779
30
0
41
1
10
37.6258868863199
20
-7.38750000000002
30
0
0
SPLINE
5
E8
100
AcDbEntity
8
1
62
256
6
ByLayer
370
18
48
1
60
0
100
AcDbSpline
70
4
71
3
72
12
73
8
40
0
40
0
40
0
40
0
40
0.250000000000002
40
0.250000000000002
40
0.500000000000004
40
0.500000000000004
40
1
40
1
40
1
40
1
41
1
10
37.6258868863199
20
-10.7375
30
0
41
1
10
37.6459063311452
20
-10.6404588026517
30
0
41
1
10
37.6645090501269
20
-10.5430030766493
30
0
41
1
10
37.7002990870628
20
-10.3476774836267
30
0
41
1
10
37.7174548677626
20
-10.2497983889244
30
0
41
1
10
37.7675988882573
20
-9.95577390589264
30
0
41
1
10
37.7992972381321
20
-9.75925110062332
30
0
41
1
10
37.8302153477878
20
-9.56250000000006
30
0
0
SPLINE
5
E9
100
AcDbEntity
8
1
62
256
6
ByLayer
370
18
48
1
60
0
100
AcDbSpline
70
4
71
3
72
8
73
4
40
0
40
0
40
0
40
0
40
1
40
1
40
1
40
1
41
1
10
38.0271257792801
20
-9.47842276238632
30
0
41
1
10
37.9616597633986
20
-9.50727114777891
30
0
41
1
10
37.8960855537291
20
-9.53559841319637
30
0
41
1
10
37.8302153477878
20
-9.5625
30
0
0
SPLINE
5
EA
100
AcDbEntity
8
1
62
256
6
ByLayer
370
18
48
1
60
0
100
AcDbSpline
70
4
71
3
72
20
73
16
40
0
40
0
40
0
40
0
40
0.124999999999987
40
0.124999999999987
40
0.249999999999973
40
0.249999999999973
40
0.37499999999996
40
0.37499999999996
40
0.499999999999947
40
0.499999999999947
40
0.624999999999933
40
0.624999999999933
40
0.74999999999992
40
0.74999999999992
40
1
40
1
40
1
40
1
41
1
10
38.1079675788694
20
-9.33746886927011
30
0
41
1
10
38.1079675788694
20
-9.34538931564532
30
0
41
1
10
38.1074607871041
20
-9.35324258806563
30
0
41
1
10
38.1054464872661
20
-9.36881649051398
30
0
41
1
10
38.1039382341003
20
-9.37648200965549
30
0
41
1
10
38.1000349899856
20
-9.39123081188069
30
0
41
1
10
38.0976335769426
20
-9.39836837399983
30
0
41
1
10
38.0919343358608
20
-9.41217148783312
30
0
41
1
10
38.0886149272942
20
-9.41885289917022
30
0
41
1
10
38.0813341354955
20
-9.43125461429878
30
0
41
1
10
38.0773490077085
20
-9.43704316449504
30
0
41
1
10
38.0687115475185
20
-9.44782227262402
30
0
41
1
10
38.0640159096369
20
-9.45284947792862
30
0
41
1
10
38.0492453454359
20
-9.46638771987278
30
0
41
1
10
38.0385771767409
20
-9.47337656669552
30
0
41
1
10
38.0271257792801
20
-9.47842276238632
30
0
0
SPLINE
5
EB
100
AcDbEntity
8
1
62
256
6
ByLayer
370
18
48
1
60
0
100
AcDbSpline
70
4
71
3
72
18
73
14
40
0
40
0
40
0
40
0
40
0.125000000000026
40
0.125000000000026
40
0.250000000000051
40
0.250000000000051
40
0.375000000000077
40
0.375000000000077
40
0.500000000000102
40
0.500000000000102
40
0.750000000000051
40
0.750000000000051
40
1
40
1
40
1
40
1
41
1
10
38.0271257792798
20
-8.64657723761357
30
0
41
1
10
38.032848956755
20
-8.64909922443758
30
0
41
1
10
38.0383871450719
20
-8.65212031649267
30
0
41
1
10
38.0490910285895
20
-8.65916749605589
30
0
41
1
10
38.0542858359854
20
-8.66322089784632
30
0
41
1
10
38.064136566465
20
-8.6722727290414
30
0
41
1
10
38.0687590323545
20
-8.67723115833661
30
0
41
1
10
38.0773940441613
20
-8.68801892913672
30
0
41
1
10
38.0814223162421
20
-8.693874666017
30
0
41
1
10
38.0924216759353
20
-8.71267415121153
30
0
41
1
10
38.0981161574225
20
-8.72643489466333
30
0
41
1
10
38.105982063428
20
-8.75632593542105
30
0
41
1
10
38.1079675788578
20
-8.77170667076049
30
0
41
1
10
38.1079675788578
20
-8.78753113073145
30
0
0
SPLINE
5
EC
100
AcDbEntity
8
1
62
256
6
ByLayer
370
18
48
1
60
0
100
AcDbSpline
70
4
71
3
72
37
73
33
40
0
40
0
40
0
40
0
40
0.124999999999985
40
0.124999999999985
40
0.249999999999971
40
0.249999999999971
40
0.374999999999956
40
0.374999999999956
40
0.437499999999949
40
0.437499999999949
40
0.499999999999943
40
0.499999999999943
40
0.562499999999936
40
0.562499999999936
40
0.624999999999929
40
0.624999999999929
40
0.687499999999922
40
0.687499999999922
40
0.71874999999993
40
0.71874999999993
40
0.749999999999937
40
0.749999999999937
40
0.812499999999984
40
0.812499999999984
40
0.843749999999987
40
0.843749999999987
40
0.87499999999999
40
0.906249999999992
40
0.906249999999992
40
0.937499999999995
40
0.937499999999995
40
1
40
1
40
1
40
1
41
1
10
9.95126757885771
20
0.0874999999999773
30
0
41
1
10
9.95126757885768
20
0.0510591512595795
30
0
41
1
10
9.95269279243362
20
0.0145815555995625
30
0
41
1
10
9.9584673030061
20
-0.0580471002249965
30
0
41
1
10
9.96282190846361
20
-0.0942787332783155
30
0
41
1
10
9.97470234576855
20
-0.166079552163694
30
0
41
1
10
9.98224192061792
20
-0.201749648561929
30
0
41
1
10
9.99628816746849
20
-0.254351432506553
30
0
41
1
10
10.001428775853
20
-0.27173995664532
30
0
41
1
10
10.0127437917753
20
-0.306186399949468
30
0
41
1
10
10.0189191082059
20
-0.323241219821938
30
0
41
1
10
10.0323742616869
20
-0.356730205188541
30
0
41
1
10
10.0396612168549
20
-0.373192323545822
30
0
41
1
10
10.0555640032729
20
-0.405438255857177
30
0
41
1
10
10.0642051096388
20
-0.421256134596831
30
0
41
1
10
10.0828329777416
20
-0.451558664674735
30
0
41
1
10
10.0928396100797
20
-0.466099394555641
30
0
41
1
10
10.109143757385
20
-0.48675323484008
30
0
41
1
10
10.1147954240346
20
-0.493443805367804
30
0
41
1
10
10.1265979560343
20
-0.506375378118179
30
0
41
1
10
10.132779955872
20
-0.512643441298422
30
0
41
1
10
10.1518851018806
20
-0.53035982120204
30
0
41
1
10
10.1653876365583
20
-0.540785028836751
30
0
41
1
10
10.1870689652934
20
-0.553788561201372
30
0
41
1
10
10.194594045318
20
-0.557703367875718
30
0
41
1
10
10.2098446095861
20
-0.564359391919538
30
0
41
1
10
10.2252909056516
20
-0.569861810746119
30
0
41
1
10
10.2411363642202
20
-0.572962789819996
30
0
41
1
10
10.2571895432921
20
-0.574793607965603
30
0
41
1
10
10.2652479815454
20
-0.575055030298273
30
0
41
1
10
10.288932810844
20
-0.573959508422661
30
0
41
1
10
10.3043082486897
20
-0.570766782966132
30
0
41
1
10
10.3193109365589
20
-0.565370758576393
30
0
0
SPLINE
5
ED
100
AcDbEntity
8
1
62
256
6
ByLayer
370
18
48
1
60
0
100
AcDbSpline
70
4
71
3
72
35
73
31
40
0
40
0
40
0
40
0
40
0.124999999999995
40
0.124999999999995
40
0.24999999999999
40
0.24999999999999
40
0.374999999999985
40
0.374999999999985
40
0.437499999999981
40
0.437499999999981
40
0.499999999999976
40
0.499999999999976
40
0.624999999999961
40
0.624999999999961
40
0.687499999999954
40
0.687499999999954
40
0.718749999999964
40
0.718749999999964
40
0.749999999999973
40
0.749999999999973
40
0.812499999999984
40
0.812499999999984
40
0.843749999999992
40
0.843749999999992
40
0.874999999999999
40
0.906250000000006
40
0.906250000000006
40
0.937500000000014
40
0.937500000000014
40
1
40
1
40
1
40
1
41
1
10
11.3546175788577
20
-2.34317350080178
30
0
41
1
10
11.3230772295705
20
-2.32496367165052
30
0
41
1
10
11.2921831527376
20
-2.3054812892797
30
0
41
1
10
11.2321791955767
20
-2.26417139612127
30
0
41
1
10
11.2030591854606
20
-2.2423480246963
30
0
41
1
10
11.1467682215716
20
-2.19612435383053
30
0
41
1
10
11.119684517697
20
-2.17179407393175
30
0
41
1
10
11.0811899883867
20
-2.1333763415212
30
0
41
1
10
11.0687042516215
20
-2.12023842442599
30
0
41
1
10
11.0445178023306
20
-2.09321216698265
30
0
41
1
10
11.0328186258135
20
-2.07932264752466
30
0
41
1
10
10.9993393257998
20
-2.03665343228133
30
0
41
1
10
10.978983582928
20
-2.00669133952024
30
0
41
1
10
10.9535073986186
20
-1.95960060677228
30
0
41
1
10
10.9458246934894
20
-1.94345389028408
30
0
41
1
10
10.9360507586853
20
-1.91882323323708
30
0
41
1
10
10.9330830352456
20
-1.91054309568207
30
0
41
1
10
10.9278072746541
20
-1.89382656710572
30
0
41
1
10
10.925493745561
20
-1.88536069269424
30
0
41
1
10
10.9197679767506
20
-1.86002347895445
30
0
41
1
10
10.917528711352
20
-1.84316173379671
30
0
41
1
10
10.917155908337
20
-1.8179499092366
30
0
41
1
10
10.9175428656265
20
-1.80949830494151
30
0
41
1
10
10.9194273459545
20
-1.79301610260478
30
0
41
1
10
10.9224035239155
20
-1.77693931510765
30
0
41
1
10
10.9276483385167
20
-1.76171364601757
30
0
41
1
10
10.9340914036193
20
-1.74694107125734
30
0
41
1
10
10.937890380678
20
-1.73985664974376
30
0
41
1
10
10.9506635031599
20
-1.71995663986996
30
0
41
1
10
10.9610935829989
20
-1.70827134708963
30
0
41
1
10
10.9732365953931
20
-1.69800322405024
30
0
0
SPLINE
5
EE
100
AcDbEntity
8
1
62
256
6
ByLayer
370
18
48
1
60
0
100
AcDbSpline
70
4
71
3
72
50
73
46
40
0
40
0
40
0
40
0
40
0.0312499999999932
40
0.0312499999999932
40
0.0624999999999867
40
0.0624999999999867
40
0.09374999999998
40
0.09374999999998
40
0.124999999999973
40
0.124999999999973
40
0.156249999999967
40
0.156249999999967
40
0.18749999999996
40
0.18749999999996
40
0.218749999999954
40
0.218749999999954
40
0.249999999999947
40
0.249999999999947
40
0.312499999999952
40
0.312499999999952
40
0.374999999999956
40
0.374999999999956
40
0.437499999999961
40
0.437499999999961
40
0.499999999999966
40
0.499999999999966
40
0.624999999999972
40
0.624999999999972
40
0.687499999999975
40
0.687499999999975
40
0.749999999999979
40
0.749999999999979
40
0.812499999999982
40
0.812499999999982
40
0.843749999999985
40
0.843749999999985
40
0.874999999999988
40
0.874999999999988
40
0.906249999999991
40
0.906249999999991
40
0.937499999999994
40
0.937499999999994
40
0.968749999999997
40
0.968749999999997
40
1
40
1
40
1
40
1
41
1
10
10.3393109365589
20
-0.563998961765549
30
0
41
1
10
10.3529788873809
20
-0.563061479198097
30
0
41
1
10
10.3666735846414
20
-0.563585119359232
30
0
41
1
10
10.3941149016213
20
-0.566966589061764
30
0
41
1
10
10.4078478580987
20
-0.569837560120845
30
0
41
1
10
10.4349312099281
20
-0.577410197657514
30
0
41
1
10
10.4483783495692
20
-0.582137318738347
30
0
41
1
10
10.4748128620199
20
-0.593035790125242
30
0
41
1
10
10.4878227644788
20
-0.599210684362731
30
0
41
1
10
10.5135042981908
20
-0.612791369100904
30
0
41
1
10
10.5261508147335
20
-0.6201878548774
30
0
41
1
10
10.5509611671209
20
-0.635931247354762
30
0
41
1
10
10.5631506774452
20
-0.644292488431262
30
0
41
1
10
10.5871579853917
20
-0.661885205588931
30
0
41
1
10
10.5989794148383
20
-0.671122511952944
30
0
41
1
10
10.6221386109027
20
-0.690262356754459
30
0
41
1
10
10.6334976230793
20
-0.70018015715155
30
0
41
1
10
10.6669812911105
20
-0.730889863589624
30
0
41
1
10
10.6885695794959
20
-0.75269493136085
30
0
41
1
10
10.7299856163856
20
-0.798129692470809
30
0
41
1
10
10.749848838495
20
-0.821786328020693
30
0
41
1
10
10.7880475994717
20
-0.87083395463236
30
0
41
1
10
10.8063397639499
20
-0.89618144115812
30
0
41
1
10
10.8411126978036
20
-0.948029898889132
30
0
41
1
10
10.8576420422001
20
-0.974594586104217
30
0
41
1
10
10.9046494268408
20
-1.0561510883698
30
0
41
1
10
10.9320560119411
20
-1.11201612707879
30
0
41
1
10
10.9669236047856
20
-1.19821952477514
30
0
41
1
10
10.97751214734
20
-1.22745490957166
30
0
41
1
10
10.9960013967104
20
-1.28582842931658
30
0
41
1
10
11.0039542923882
20
-1.31506892024237
30
0
41
1
10
11.0169393902508
20
-1.37372323066984
30
0
41
1
10
11.0219807715168
20
-1.40313598294964
30
0
41
1
10
11.026816349157
20
-1.44746684220212
30
0
41
1
10
11.0279690577685
20
-1.46232441271672
30
0
41
1
10
11.0291879990699
20
-1.49170522762225
30
0
41
1
10
11.0292618764623
20
-1.50626737706423
30
0
41
1
10
11.0281858887306
20
-1.53511319924991
30
0
41
1
10
11.0270375256737
20
-1.54939716540662
30
0
41
1
10
11.0232815435844
20
-1.57764805350999
30
0
41
1
10
11.0206636874187
20
-1.59166662108811
30
0
41
1
10
11.0136414869944
20
-1.61909321568763
30
0
41
1
10
11.0092830999658
20
-1.63234430281057
30
0
41
1
10
10.9985254727176
20
-1.65775067843094
30
0
41
1
10
10.9921319965005
20
-1.66990907709612
30
0
41
1
10
10.9844246062806
20
-1.68136861437938
30
0
0
SPLINE
5
EF
100
AcDbEntity
8
1
62
256
6
ByLayer
370
18
48
1
60
0
100
AcDbSpline
70
4
71
3
72
8
73
4
40
0
40
0
40
0
40
0
40
1
40
1
40
1
40
1
41
1
10
10.3193109365589
20
-0.565370758576393
30
0
41
1
10
10.3259773599545
20
-0.564913509658709
30
0
41
1
10
10.3326440247208
20
-0.564456244185436
30
0
41
1
10
10.3393109365589
20
-0.563998961765549
30
0
0
SPLINE
5
F0
100
AcDbEntity
8
1
62
256
6
ByLayer
370
18
48
1
60
0
100
AcDbSpline
70
4
71
3
72
8
73
4
40
0
40
0
40
0
40
0
40
1
40
1
40
1
40
1
41
1
10
10.9732365953931
20
-1.69800322405024
30
0
41
1
10
10.9769657962695
20
-1.69245855649609
30
0
41
1
10
10.9806951321688
20
-1.68691368818668
30
0
41
1
10
10.9844246062802
20
-1.68136861437998
30
0
0
SPLINE
5
F1
100
AcDbEntity
8
1
62
256
6
ByLayer
370
18
48
1
60
0
100
AcDbSpline
70
4
71
3
72
35
73
31
40
0
40
0
40
0
40
0
40
0.124999999999988
40
0.124999999999988
40
0.249999999999976
40
0.249999999999976
40
0.374999999999963
40
0.374999999999963
40
0.437499999999941
40
0.437499999999941
40
0.499999999999918
40
0.499999999999918
40
0.624999999999905
40
0.624999999999905
40
0.687499999999901
40
0.687499999999901
40
0.718749999999909
40
0.718749999999909
40
0.749999999999917
40
0.749999999999917
40
0.812499999999944
40
0.812499999999944
40
0.843749999999959
40
0.843749999999959
40
0.874999999999974
40
0.906249999999989
40
0.906249999999989
40
0.937500000000003
40
0.937500000000003
40
1
40
1
40
1
40
1
41
1
10
14.1613175788577
20
2.51817350080176
30
0
41
1
10
14.1928579281449
20
2.49996367165051
30
0
41
1
10
14.2237520049778
20
2.48048128927965
30
0
41
1
10
14.2837559621387
20
2.43917139612123
30
0
41
1
10
14.3128759722548
20
2.41734802469628
30
0
41
1
10
14.3691669361437
20
2.37112435383051
30
0
41
1
10
14.3962506400183
20
2.34679407393173
30
0
41
1
10
14.4347451693287
20
2.30837634152118
30
0
41
1
10
14.4472309060939
20
2.29523842442598
30
0
41
1
10
14.4714173553847
20
2.26821216698261
30
0
41
1
10
14.4831165319019
20
2.25432264752465
30
0
41
1
10
14.5165958319155
20
2.21165343228131
30
0
41
1
10
14.5369515747873
20
2.1816913395202
30
0
41
1
10
14.5624277590968
20
2.13460060677227
30
0
41
1
10
14.570110464226
20
2.11845389028403
30
0
41
1
10
14.5798843990301
20
2.09382323323703
30
0
41
1
10
14.5828521224699
20
2.08554309568203
30
0
41
1
10
14.5881278830613
20
2.06882656710567
30
0
41
1
10
14.5904414121544
20
2.06036069269422
30
0
41
1
10
14.5961671809649
20
2.0350234789544
30
0
41
1
10
14.5984064463634
20
2.01816173379666
30
0
41
1
10
14.5987792493784
20
1.99294990923656
30
0
41
1
10
14.5983922920889
20
1.98449830494147
30
0
41
1
10
14.5965078117609
20
1.96801610260471
30
0
41
1
10
14.5935316337999
20
1.95193931510761
30
0
41
1
10
14.5882868191988
20
1.93671364601749
30
0
41
1
10
14.5818437540961
20
1.92194107125727
30
0
41
1
10
14.5780447770374
20
1.91485664974368
30
0
41
1
10
14.5652716545555
20
1.89495663986992
30
0
41
1
10
14.5548415747165
20
1.88327134708959
30
0
41
1
10
14.5426985623222
20
1.87300322405019
30
0
0
SPLINE
5
F2
100
AcDbEntity
8
1
62
256
6
ByLayer
370
18
48
1
60
0
100
AcDbSpline
70
4
71
3
72
52
73
48
40
0
40
0
40
0
40
0
40
0.0156250000000042
40
0.0156250000000042
40
0.0312500000000083
40
0.0312500000000083
40
0.0625000000000039
40
0.0625000000000039
40
0.0937499999999993
40
0.0937499999999993
40
0.124999999999995
40
0.124999999999995
40
0.18749999999999
40
0.18749999999999
40
0.218749999999988
40
0.218749999999988
40
0.249999999999985
40
0.249999999999985
40
0.312499999999991
40
0.312499999999991
40
0.374999999999997
40
0.374999999999997
40
0.437500000000003
40
0.437500000000003
40
0.500000000000009
40
0.500000000000009
40
0.562500000000016
40
0.562500000000016
40
0.625000000000022
40
0.625000000000022
40
0.687500000000028
40
0.687500000000028
40
0.750000000000034
40
0.750000000000034
40
0.81250000000004
40
0.81250000000004
40
0.843750000000033
40
0.843750000000033
40
0.875000000000027
40
0.875000000000027
40
0.90625000000002
40
0.90625000000002
40
0.937500000000013
40
0.937500000000013
40
0.968750000000007
40
0.968750000000007
40
1
40
1
40
1
40
1
41
1
10
14.5315105514348
20
1.85636861437933
30
0
41
1
10
14.5276830539133
20
1.8506777969564
30
0
41
1
10
14.5241632869442
20
1.84478413495708
30
0
41
1
10
14.5176748518947
20
1.83263226749673
30
0
41
1
10
14.5147023367998
20
1.82636065584612
30
0
41
1
10
14.5066237578486
20
1.80726953225505
30
0
41
1
10
14.5023097652094
20
1.79411337591736
30
0
41
1
10
14.495374563177
20
1.76711124226378
30
0
41
1
10
14.4927572063054
20
1.75326373536004
30
0
41
1
10
14.4889531072044
20
1.72497119072597
30
0
41
1
10
14.4877785207816
20
1.71057402892876
30
0
41
1
10
14.4861235340371
20
1.66716246759773
30
0
41
1
10
14.487481202677
20
1.63765665124413
30
0
41
1
10
14.4922808755458
20
1.5933917614735
30
0
41
1
10
14.4943456956012
20
1.57861298555554
30
0
41
1
10
14.4993129070483
20
1.54900327859133
30
0
41
1
10
14.502219810189
20
1.53415843044542
30
0
41
1
10
14.5120394806928
20
1.48980744429142
30
0
41
1
10
14.5200537688757
20
1.46039901803786
30
0
41
1
10
14.5386414674771
20
1.40181666214988
30
0
41
1
10
14.5492084648279
20
1.37269685952836
30
0
41
1
10
14.5724753530048
20
1.31524629000583
30
0
41
1
10
14.5852094898561
20
1.28682118898826
30
0
41
1
10
14.612734958033
20
1.23065368909084
30
0
41
1
10
14.6274608488298
20
1.20304243423141
30
0
41
1
10
14.6588077900864
20
1.14874841489066
30
0
41
1
10
14.675348984444
20
1.12220399484181
30
0
41
1
10
14.7101910806209
20
1.07033540013461
30
0
41
1
10
14.7284891606848
20
1.04502382061378
30
0
41
1
10
14.7666647843649
20
0.996082425459775
30
0
41
1
10
14.7866188616735
20
0.972355373772047
30
0
41
1
10
14.8280431298291
20
0.926993011084164
30
0
41
1
10
14.8495522035468
20
0.905303198411588
30
0
41
1
10
14.8942813283763
20
0.86435656373294
30
0
41
1
10
14.9173560962664
20
0.84522023299661
30
0
41
1
10
14.953313579924
20
0.818922563364879
30
0
41
1
10
14.9655465431318
20
0.810548760681456
30
0
41
1
10
14.9903722726926
20
0.794834875958486
30
0
41
1
10
15.0029765806862
20
0.78748337791518
30
0
41
1
10
15.0286428728806
20
0.77395039949127
30
0
41
1
10
15.0416805477241
20
0.767784239063218
30
0
41
1
10
15.0680605564998
20
0.756951905010823
30
0
41
1
10
15.0814681355579
20
0.752258772308267
30
0
41
1
10
15.1085474150522
20
0.744731296903808
30
0
41
1
10
15.1221102481509
20
0.74192141743805
30
0
41
1
10
15.1493065731478
20
0.738589128361497
30
0
41
1
10
15.1629398819194
20
0.738060355119273
30
0
41
1
10
15.1766242211565
20
0.738998961765475
30
0
0
SPLINE
5
F3
100
AcDbEntity
8
1
62
256
6
ByLayer
370
18
48
1
60
0
100
AcDbSpline
70
4
71
3
72
8
73
4
40
0
40
0
40
0
40
0
40
1
40
1
40
1
40
1
41
1
10
15.1766242211565
20
0.738998961765475
30
0
41
1
10
15.1832911329946
20
0.739456244185391
30
0
41
1
10
15.1899577977608
20
0.739913509658663
30
0
41
1
10
15.1966242211565
20
0.740370758576347
30
0
0
SPLINE
5
F4
100
AcDbEntity
8
1
62
256
6
ByLayer
370
18
48
1
60
0
100
AcDbSpline
70
4
71
3
72
35
73
31
40
0
40
0
40
0
40
0
40
0.124999999999996
40
0.124999999999996
40
0.249999999999992
40
0.249999999999992
40
0.374999999999989
40
0.374999999999989
40
0.499999999999985
40
0.499999999999985
40
0.562499999999977
40
0.562499999999977
40
0.624999999999969
40
0.624999999999969
40
0.687499999999961
40
0.687499999999961
40
0.718749999999954
40
0.718749999999954
40
0.749999999999948
40
0.749999999999948
40
0.812499999999965
40
0.812499999999965
40
0.84374999999997
40
0.84374999999997
40
0.874999999999975
40
0.90624999999998
40
0.90624999999998
40
0.937499999999984
40
0.937499999999984
40
1
40
1
40
1
40
1
41
1
10
15.5646675788577
20
0.0874999999999773
30
0
41
1
10
15.5646675788577
20
0.123918840075675
30
0
41
1
10
15.5632454886279
20
0.160370085700123
30
0
41
1
10
15.5574689494125
20
0.233042399968639
30
0
41
1
10
15.553127727082
20
0.269171009113279
30
0
41
1
10
15.5412544742721
20
0.340968797597469
30
0
41
1
10
15.5337178144865
20
0.376652465103888
30
0
41
1
10
15.5149596007097
20
0.446910373943211
30
0
41
1
10
15.5037432335019
20
0.481508342120463
30
0
41
1
10
15.4835133879764
20
0.531843112015821
30
0
41
1
10
15.4762097731642
20
0.548333956753822
30
0
41
1
10
15.4602728522884
20
0.580625943181985
30
0
41
1
10
15.4516551237323
20
0.596385696609389
30
0
41
1
10
15.4330542585175
20
0.626628888834944
30
0
41
1
10
15.4230530359845
20
0.64115951584148
30
0
41
1
10
15.4067311017672
20
0.661826462478729
30
0
41
1
10
15.4010691108822
20
0.668526094779452
30
0
41
1
10
15.3892331276669
20
0.681484424145367
30
0
41
1
10
15.3830496568799
20
0.687746702778725
30
0
41
1
10
15.363967245
20
0.705425709689081
30
0
41
1
10
15.3504466409039
20
0.715865254140482
30
0
41
1
10
15.3286437928898
20
0.728911899812857
30
0
41
1
10
15.3211289837187
20
0.732804297977623
30
0
41
1
10
15.3059893305561
20
0.739395045459133
30
0
41
1
10
15.2906375389059
20
0.744857320186924
30
0
41
1
10
15.2748490625841
20
0.7479533965504
30
0
41
1
10
15.2588310512145
20
0.749787493497422
30
0
41
1
10
15.2507440081956
20
0.750055303843482
30
0
41
1
10
15.2270220282096
20
0.748965109308386
30
0
41
1
10
15.2116326007682
20
0.745768830118038
30
0
41
1
10
15.1966242211565
20
0.740370758576347
30
0
0
SPLINE
5
F5
100
AcDbEntity
8
1
62
256
6
ByLayer
370
18
48
1
60
0
100
AcDbSpline
70
4
71
3
72
8
73
4
40
0
40
0
40
0
40
0
40
1
40
1
40
1
40
1
41
1
10
14.5426985623222
20
1.87300322405019
30
0
41
1
10
14.5389693614458
20
1.86745855649605
30
0
41
1
10
14.5352400255466
20
1.8619136881866
30
0
41
1
10
14.5315105514352
20
1.85636861437993
30
0
0
SPLINE
5
F6
100
AcDbEntity
8
1
62
256
6
ByLayer
370
18
48
1
60
0
100
AcDbSpline
70
4
71
3
72
52
73
48
40
0
40
0
40
0
40
0
40
0.0156250000000143
40
0.0156250000000143
40
0.0312500000000288
40
0.0312500000000288
40
0.0625000000000365
40
0.0625000000000365
40
0.0937500000000443
40
0.0937500000000443
40
0.125000000000052
40
0.125000000000052
40
0.187500000000068
40
0.187500000000068
40
0.218750000000066
40
0.218750000000066
40
0.250000000000064
40
0.250000000000064
40
0.312500000000059
40
0.312500000000059
40
0.375000000000055
40
0.375000000000055
40
0.437500000000051
40
0.437500000000051
40
0.500000000000046
40
0.500000000000046
40
0.562500000000042
40
0.562500000000042
40
0.625000000000038
40
0.625000000000038
40
0.687500000000033
40
0.687500000000033
40
0.750000000000029
40
0.750000000000029
40
0.812500000000025
40
0.812500000000025
40
0.843750000000021
40
0.843750000000021
40
0.875000000000016
40
0.875000000000016
40
0.906250000000012
40
0.906250000000012
40
0.937500000000008
40
0.937500000000008
40
0.968750000000004
40
0.968750000000004
40
1
40
1
40
1
40
1
41
1
10
15.1766242211558
20
-0.563998961765492
30
0
41
1
10
15.1697820799385
20
-0.563529660390429
30
0
41
1
10
15.1629181354411
20
-0.563428283779416
30
0
41
1
10
15.1491500919924
20
-0.563885067925924
30
0
41
1
10
15.1422324594328
20
-0.564446600165866
30
0
41
1
10
15.1216597719405
20
-0.566995907363207
30
0
41
1
10
15.1081092100163
20
-0.569837958314736
30
0
41
1
10
15.0812570752998
20
-0.577332964001243
30
0
41
1
10
15.0679561041063
20
-0.581990019911501
30
0
41
1
10
15.0415519921649
20
-0.592841845768476
30
0
41
1
10
15.0284963910947
20
-0.599023204986025
30
0
41
1
10
14.9900733827919
20
-0.619295725087909
30
0
41
1
10
14.9651994305902
20
-0.635224408796773
30
0
41
1
10
14.9292647479875
20
-0.661513492316232
30
0
41
1
10
14.9174983626334
20
-0.67069106689749
30
0
41
1
10
14.8943392099274
20
-0.689797651678788
30
0
41
1
10
14.882936645888
20
-0.6997375277179
30
0
41
1
10
14.8494374004477
20
-0.730417104907986
30
0
41
1
10
14.8279761003182
20
-0.752061895194402
30
0
41
1
10
14.7865361412064
20
-0.797450492325083
30
0
41
1
10
14.7666011510583
20
-0.821161681783366
30
0
41
1
10
14.7284809424784
20
-0.87003668277282
30
0
41
1
10
14.7102311513177
20
-0.895277319290187
30
0
41
1
10
14.6753514036279
20
-0.947198823931018
30
0
41
1
10
14.6588023008877
20
-0.973757446884179
30
0
41
1
10
14.6274557714934
20
-1.02805170401376
30
0
41
1
10
14.6127382265811
20
-1.05564900856081
30
0
41
1
10
14.5852397539946
20
-1.11175744632465
30
0
41
1
10
14.5724683231515
20
-1.1402598382609
30
0
41
1
10
14.5491716434915
20
-1.19779159575018
30
0
41
1
10
14.5386004526274
20
-1.22693585945237
30
0
41
1
10
14.5200276282418
20
-1.28549150935225
30
0
41
1
10
14.5119982363229
20
-1.31496381993995
30
0
41
1
10
14.4989019729065
20
-1.37417369567069
30
0
41
1
10
14.4938668082986
20
-1.40372519621801
30
0
41
1
10
14.489071100166
20
-1.44801412533755
30
0
41
1
10
14.4879356559197
20
-1.46279508358077
30
0
41
1
10
14.4867398973379
20
-1.4921517384094
30
0
41
1
10
14.4866754672734
20
-1.50674313835071
30
0
41
1
10
14.4877887102666
20
-1.53573728862398
30
0
41
1
10
14.4889674961138
20
-1.55011132645876
30
0
41
1
10
14.49277642403
20
-1.57837325123666
30
0
41
1
10
14.4954158414153
20
-1.59233112165552
30
0
41
1
10
14.5024364962358
20
-1.61954620331602
30
0
41
1
10
14.5067844857863
20
-1.6326969010596
30
0
41
1
10
14.5174968012917
20
-1.65791575393482
30
0
41
1
10
14.5238555246169
20
-1.66998693228976
30
0
41
1
10
14.5315105514352
20
-1.68136861437998
30
0
0
SPLINE
5
F7
100
AcDbEntity
8
1
62
256
6
ByLayer
370
18
48
1
60
0
100
AcDbSpline
70
4
71
3
72
8
73
4
40
0
40
0
40
0
40
0
40
1
40
1
40
1
40
1
41
1
10
14.5315105514352
20
-1.68136861437998
30
0
41
1
10
14.5352400255466
20
-1.68691368818668
30
0
41
1
10
14.5389693614458
20
-1.69245855649609
30
0
41
1
10
14.5426985623222
20
-1.69800322405024
30
0
0
SPLINE
5
F8
100
AcDbEntity
8
1
62
256
6
ByLayer
370
18
48
1
60
0
100
AcDbSpline
70
4
71
3
72
35
73
31
40
0
40
0
40
0
40
0
40
0.124999999999983
40
0.124999999999983
40
0.249999999999966
40
0.249999999999966
40
0.374999999999949
40
0.374999999999949
40
0.499999999999932
40
0.499999999999932
40
0.562499999999926
40
0.562499999999926
40
0.62499999999992
40
0.62499999999992
40
0.687499999999914
40
0.687499999999914
40
0.71874999999992
40
0.71874999999992
40
0.749999999999925
40
0.749999999999925
40
0.812499999999945
40
0.812499999999945
40
0.843749999999958
40
0.843749999999958
40
0.874999999999971
40
0.906249999999984
40
0.906249999999984
40
0.937499999999997
40
0.937499999999997
40
1
40
1
40
1
40
1
41
1
10
14.1613175788577
20
-2.34317350080178
30
0
41
1
10
14.1928572195397
20
-2.32496408076395
30
0
41
1
10
14.2237138791351
20
-2.30550689168629
30
0
41
1
10
14.2837616798357
20
-2.26416810484548
30
0
41
1
10
14.3128793619931
20
-2.24234419145148
30
0
41
1
10
14.3691214443511
20
-2.1961627586505
30
0
41
1
10
14.396256077019
20
-2.17179398606328
30
0
41
1
10
14.4477221040022
20
-2.12041994198324
30
0
41
1
10
14.4720766397591
20
-2.09340729895448
30
0
41
1
10
14.5055529064194
20
-2.05072035386706
30
0
41
1
10
14.5161825894863
20
-2.0361498155313
30
0
41
1
10
14.5361798096338
20
-2.00620204398064
30
0
41
1
10
14.5455192921813
20
-1.99085899541444
30
0
41
1
10
14.5624102323328
20
-1.95962857749331
30
0
41
1
10
14.5699935131868
20
-1.94370195120752
30
0
41
1
10
14.5797306468847
20
-1.9192332682178
30
0
41
1
10
14.5827017032106
20
-1.91098002412505
30
0
41
1
10
14.5880059540245
20
-1.89425059729893
30
0
41
1
10
14.590337511013
20
-1.88576441519714
30
0
41
1
10
14.5961067741712
20
-1.86039905828849
30
0
41
1
10
14.5983873828219
20
-1.84347009944102
30
0
41
1
10
14.5987846854014
20
-1.81806495634979
30
0
41
1
10
14.5983981965081
20
-1.80961074162062
30
0
41
1
10
14.5965361246758
20
-1.79320404363662
30
0
41
1
10
14.5935909018114
20
-1.77717779386509
30
0
41
1
10
14.5883777401493
20
-1.76195660494656
30
0
41
1
10
14.5819571090137
20
-1.74716755170888
30
0
41
1
10
14.5781455180672
20
-1.74003006184003
30
0
41
1
10
14.5653403919118
20
-1.72003132181152
30
0
41
1
10
14.5548776192146
20
-1.7083018262928
30
0
41
1
10
14.5426985623222
20
-1.69800322405024
30
0
0
SPLINE
5
F9
100
AcDbEntity
8
1
62
256
6
ByLayer
370
18
48
1
60
0
100
AcDbSpline
70
4
71
3
72
35
73
31
40
0
40
0
40
0
40
0
40
0.124999999999996
40
0.124999999999996
40
0.249999999999992
40
0.249999999999992
40
0.374999999999988
40
0.374999999999988
40
0.437499999999987
40
0.437499999999987
40
0.499999999999985
40
0.499999999999985
40
0.624999999999956
40
0.624999999999956
40
0.687499999999945
40
0.687499999999945
40
0.718749999999936
40
0.718749999999936
40
0.749999999999927
40
0.749999999999927
40
0.812499999999917
40
0.812499999999917
40
0.84374999999993
40
0.84374999999993
40
0.874999999999942
40
0.906249999999955
40
0.906249999999955
40
0.937499999999968
40
0.937499999999968
40
1
40
1
40
1
40
1
41
1
10
15.5646675788577
20
0.0874999999999773
30
0
41
1
10
15.5646675788577
20
0.0510803416974284
30
0
41
1
10
15.5632423792148
20
0.0145840951481659
30
0
41
1
10
15.5574689408924
20
-0.0580358026599015
30
0
41
1
10
15.5531293519002
20
-0.0941661568914469
30
0
41
1
10
15.5412439606187
20
-0.166027397055643
30
0
41
1
10
15.5337151720826
20
-0.201647712588994
30
0
41
1
10
15.5196917045144
20
-0.254193819083753
30
0
41
1
10
15.5145568029397
20
-0.271575742854964
30
0
41
1
10
15.50324460207
20
-0.306034951089913
30
0
41
1
10
15.4970655136316
20
-0.323111494886149
30
0
41
1
10
15.4768525392781
20
-0.373440026820532
30
0
41
1
10
15.4610824772324
20
-0.406049663640971
30
0
41
1
10
15.4330387985445
20
-0.451658052818402
30
0
41
1
10
15.4228966844427
20
-0.466384828874226
30
0
41
1
10
15.4064528771301
20
-0.487164633232965
30
0
41
1
10
15.4007659293805
20
-0.49387482590069
30
0
41
1
10
15.388926871266
20
-0.506802032885389
30
0
41
1
10
15.382751973507
20
-0.513038545058095
30
0
41
1
10
15.3636721871524
20
-0.530665813174068
30
0
41
1
10
15.350189120193
20
-0.541035946473897
30
0
41
1
10
15.3285414411556
20
-0.553964715635516
30
0
41
1
10
15.3210286584886
20
-0.55785540294022
30
0
41
1
10
15.3058124123907
20
-0.56446449627154
30
0
41
1
10
15.2904014170265
20
-0.569925444299741
30
0
41
1
10
15.2745931935042
20
-0.572996136162033
30
0
41
1
10
15.2585782359312
20
-0.574802565485015
30
0
41
1
10
15.2505434584001
20
-0.575054765600555
30
0
41
1
10
15.2269229830728
20
-0.573942921982479
30
0
41
1
10
15.2115881827549
20
-0.570752854268619
30
0
41
1
10
15.1966242211565
20
-0.565370758576393
30
0
0
SPLINE
5
FA
100
AcDbEntity
8
1
62
256
6
ByLayer
370
18
48
1
60
0
100
AcDbSpline
70
4
71
3
72
8
73
4
40
0
40
0
40
0
40
0
40
1
40
1
40
1
40
1
41
1
10
15.1966242211565
20
-0.565370758576393
30
0
41
1
10
15.1899577977608
20
-0.564913509658709
30
0
41
1
10
15.1832911329946
20
-0.564456244185436
30
0
41
1
10
15.1766242211565
20
-0.563998961765549
30
0
0
SPLINE
5
FB
100
AcDbEntity
8
1
62
256
6
ByLayer
370
18
48
1
60
0
100
AcDbSpline
70
4
71
3
72
52
73
48
40
0
40
0
40
0
40
0
40
0.0156249999999998
40
0.0156249999999998
40
0.0312499999999997
40
0.0312499999999997
40
0.0624999999999813
40
0.0624999999999813
40
0.093749999999963
40
0.093749999999963
40
0.124999999999945
40
0.124999999999945
40
0.187499999999905
40
0.187499999999905
40
0.218749999999898
40
0.218749999999898
40
0.249999999999891
40
0.249999999999891
40
0.312499999999901
40
0.312499999999901
40
0.374999999999911
40
0.374999999999911
40
0.437499999999921
40
0.437499999999921
40
0.499999999999931
40
0.499999999999931
40
0.562499999999941
40
0.562499999999941
40
0.624999999999951
40
0.624999999999951
40
0.687499999999961
40
0.687499999999961
40
0.749999999999971
40
0.749999999999971
40
0.812499999999981
40
0.812499999999981
40
0.843749999999984
40
0.843749999999984
40
0.874999999999987
40
0.874999999999987
40
0.90624999999999
40
0.90624999999999
40
0.937499999999994
40
0.937499999999994
40
0.968749999999997
40
0.968749999999997
40
1
40
1
40
1
40
1
41
1
10
13.4030812485786
20
-2.33286757614482
30
0
41
1
10
13.4000666048828
20
-2.32670745734689
30
0
41
1
10
13.3967224273547
20
-2.32071241873655
30
0
41
1
10
13.3894428189553
20
-2.30901733542271
30
0
41
1
10
13.3854977014907
20
-2.30330725601198
30
0
41
1
10
13.3730035929497
20
-2.28676543961831
30
0
41
1
10
13.3637670236647
20
-2.27645133423212
30
0
41
1
10
13.3438500909804
20
-2.25694420626502
30
0
41
1
10
13.3331664766585
20
-2.24775375527156
30
0
41
1
10
13.3105664638182
20
-2.23031303649447
30
0
41
1
10
13.2986854491708
20
-2.22209723391481
30
0
41
1
10
13.2619174276125
20
-2.19895819268569
30
0
41
1
10
13.2356858067708
20
-2.18538106004093
30
0
41
1
10
13.1949514512994
20
-2.16740525378975
30
0
41
1
10
13.1811202458899
20
-2.16180405245305
30
0
41
1
10
13.1529938817367
20
-2.15130093027014
30
0
41
1
10
13.1386844145567
20
-2.14639595816331
30
0
41
1
10
13.0953654986125
20
-2.13272454919942
30
0
41
1
10
13.0658899103002
20
-2.12496091323226
30
0
41
1
10
13.005862252587
20
-2.11176715447499
30
0
41
1
10
12.9753602650882
20
-2.10635854131175
30
0
41
1
10
12.9139731683313
20
-2.09778297277867
30
0
41
1
10
12.8829892403193
20
-2.09459850827844
30
0
41
1
10
12.8205840244527
20
-2.09035251302191
30
0
41
1
10
12.7893090309156
20
-2.08929988111564
30
0
41
1
10
12.7266155602646
20
-2.08930011890447
30
0
41
1
10
12.6953568209948
20
-2.09035300340264
30
0
41
1
10
12.6330162522314
20
-2.09459284645928
30
0
41
1
10
12.6019467413244
20
-2.0977836588747
30
0
41
1
10
12.5404744379843
20
-2.10637402120997
30
0
41
1
10
12.5099491698116
20
-2.11179123322444
30
0
41
1
10
12.4499520772704
20
-2.12498452043647
30
0
41
1
10
12.4204136116338
20
-2.13276701835159
30
0
41
1
10
12.3625882233878
20
-2.15103025940366
30
0
41
1
10
12.3344782908899
20
-2.16144542921464
30
0
41
1
10
12.2937250990996
20
-2.17943668870245
30
0
41
1
10
12.2803566916457
20
-2.18584384426225
30
0
41
1
10
12.2543352035031
20
-2.19948661436791
30
0
41
1
10
12.2416664654448
20
-2.20672651626592
30
0
41
1
10
12.2171134162437
20
-2.22218768811527
30
0
41
1
10
12.2052545272473
20
-2.230395565522
30
0
41
1
10
12.1826834463879
20
-2.2478251562475
30
0
41
1
10
12.1719152847151
20
-2.25708989396381
30
0
41
1
10
12.1518566600414
20
-2.27677750021988
30
0
41
1
10
12.1426418164931
20
-2.28711831849768
30
0
41
1
10
12.1261578070016
20
-2.30900488229633
30
0
41
1
10
12.1188832215552
20
-2.32054728740906
30
0
41
1
10
12.1128539091364
20
-2.3328675761455
30
0
0
SPLINE
5
FC
100
AcDbEntity
8
1
62
256
6
ByLayer
370
18
48
1
60
0
100
AcDbSpline
70
4
71
3
72
8
73
4
40
0
40
0
40
0
40
0
40
1
40
1
40
1
40
1
41
1
10
12.1128539091364
20
-2.3328675761455
30
0
41
1
10
12.1099164714097
20
-2.33886993237206
30
0
41
1
10
12.1069791425427
20
-2.34487206615478
30
0
41
1
10
12.1040419200235
20
-2.35087398262661
30
0
0
SPLINE
5
FD
100
AcDbEntity
8
1
62
256
6
ByLayer
370
18
48
1
60
0
100
AcDbSpline
70
4
71
3
72
35
73
31
40
0
40
0
40
0
40
0
40
0.125000000000014
40
0.125000000000014
40
0.250000000000028
40
0.250000000000028
40
0.375000000000042
40
0.375000000000042
40
0.500000000000056
40
0.500000000000056
40
0.56250000000004
40
0.56250000000004
40
0.625000000000023
40
0.625000000000023
40
0.687500000000007
40
0.687500000000007
40
0.718750000000021
40
0.718750000000021
40
0.750000000000036
40
0.750000000000036
40
0.812500000000017
40
0.812500000000017
40
0.843750000000011
40
0.843750000000011
40
0.875000000000004
40
0.906249999999997
40
0.906249999999997
40
0.93749999999999
40
0.93749999999999
40
1
40
1
40
1
40
1
41
1
10
11.3546175788577
20
-2.34317350080178
30
0
41
1
10
11.3861572195396
20
-2.36138292083964
30
0
41
1
10
11.4184359693649
20
-2.37837697738644
30
0
41
1
10
11.4842603092809
20
-2.40971050481417
30
0
41
1
10
11.5177192137688
20
-2.42401520056478
30
0
41
1
10
11.5858345489366
20
-2.44963155624799
30
0
41
1
10
11.6205058413902
20
-2.46094645116722
30
0
41
1
10
11.6907300821502
20
-2.47983031592648
30
0
41
1
10
11.726300985115
20
-2.48741564107496
30
0
41
1
10
11.7800070973007
20
-2.49506346588294
30
0
41
1
10
11.7979403951798
20
-2.49698377228518
30
0
41
1
10
11.8338745362031
20
-2.49932798716267
30
0
41
1
10
11.8518317473067
20
-2.49974469202385
30
0
41
1
10
11.8873235526729
20
-2.49875746632827
30
0
41
1
10
11.90490805606
20
-2.49736146704905
30
0
41
1
10
11.9309671239752
20
-2.49355973069655
30
0
41
1
10
11.9396001711861
20
-2.49200611890456
30
0
41
1
10
11.9567404052152
20
-2.48823502144433
30
0
41
1
10
11.9652554329908
20
-2.48601111797589
30
0
41
1
10
11.9901071080288
20
-2.47832476797762
30
0
41
1
10
12.0059083207758
20
-2.47183535358155
30
0
41
1
10
12.0281084713693
20
-2.4594768561627
30
0
41
1
10
12.0352367916471
20
-2.45491503959826
30
0
41
1
10
12.0485143729773
20
-2.44509908909578
30
0
41
1
10
12.0609207374792
20
-2.43453518489693
30
0
41
1
10
12.0714962564229
20
-2.42241000149698
30
0
41
1
10
12.0810936366568
20
-2.40945504520633
30
0
41
1
10
12.0853690887293
20
-2.40258536568354
30
0
41
1
10
12.0962859425599
20
-2.38149643111996
30
0
41
1
10
12.1012125973041
20
-2.36657065641086
30
0
41
1
10
12.1040419200235
20
-2.35087398262661
30
0
0
SPLINE
5
FE
100
AcDbEntity
8
1
62
256
6
ByLayer
370
18
48
1
60
0
100
AcDbSpline
70
4
71
3
72
35
73
31
40
0
40
0
40
0
40
0
40
0.125000000000028
40
0.125000000000028
40
0.250000000000057
40
0.250000000000057
40
0.375000000000085
40
0.375000000000085
40
0.437500000000099
40
0.437500000000099
40
0.500000000000114
40
0.500000000000114
40
0.625000000000144
40
0.625000000000144
40
0.687500000000183
40
0.687500000000183
40
0.718750000000181
40
0.718750000000181
40
0.750000000000179
40
0.750000000000179
40
0.812500000000126
40
0.812500000000126
40
0.843750000000102
40
0.843750000000102
40
0.875000000000078
40
0.906250000000054
40
0.906250000000054
40
0.93750000000003
40
0.93750000000003
40
1
40
1
40
1
40
1
41
1
10
14.1613175788577
20
-2.34317350080178
30
0
41
1
10
14.1297772295705
20
-2.36138332995307
30
0
41
1
10
14.0974579530947
20
-2.37839719413148
30
0
41
1
10
14.0316805576114
20
-2.40970719878115
30
0
41
1
10
13.9982209585031
20
-2.42401418158772
30
0
41
1
10
13.9300446033328
20
-2.44965175088615
30
0
41
1
10
13.8954321109219
20
-2.46094178652072
30
0
41
1
10
13.8429141140434
20
-2.47507016060496
30
0
41
1
10
13.8252934757035
20
-2.47931416728096
30
0
41
1
10
13.7897948255429
20
-2.48674711807254
30
0
41
1
10
13.7719165605874
20
-2.48993414241079
30
0
41
1
10
13.7182242862203
20
-2.49759345910184
30
0
41
1
10
13.6820984813028
20
-2.50024100316119
30
0
41
1
10
13.6285786183055
20
-2.49875865959066
30
0
41
1
10
13.6107537990744
20
-2.49733871915828
30
0
41
1
10
13.5845360569578
20
-2.49348786647002
30
0
41
1
10
13.5758813857684
20
-2.49191792158274
30
0
41
1
10
13.5587665670624
20
-2.48812859999106
30
0
41
1
10
13.5502781402103
20
-2.48589923775234
30
0
41
1
10
13.5254725850452
20
-2.47818929212846
30
0
41
1
10
13.5097502526873
20
-2.47169768027058
30
0
41
1
10
13.487729770635
20
-2.45941462487212
30
0
41
1
10
13.4806039452574
20
-2.45485370788168
30
0
41
1
10
13.4672721794875
20
-2.4449805988763
30
0
41
1
10
13.4548375042635
20
-2.43436464076481
30
0
41
1
10
13.4442739531633
20
-2.42220978217958
30
0
41
1
10
13.4347020606929
20
-2.4092436367423
30
0
41
1
10
13.4304662602203
20
-2.40241141534429
30
0
41
1
10
13.419618907375
20
-2.38139956185242
30
0
41
1
10
13.4147141868961
20
-2.36652420135823
30
0
41
1
10
13.4118932376919
20
-2.35087398262661
30
0
0
SPLINE
5
FF
100
AcDbEntity
8
1
62
256
6
ByLayer
370
18
48
1
60
0
100
AcDbSpline
70
4
71
3
72
8
73
4
40
0
40
0
40
0
40
0
40
1
40
1
40
1
40
1
41
1
10
13.4118932376919
20
-2.35087398262661
30
0
41
1
10
13.4089560151727
20
-2.34487206615478
30
0
41
1
10
13.4060186863057
20
-2.33886993237209
30
0
41
1
10
13.403081248579
20
-2.3328675761455
30
0
0
SPLINE
5
100
100
AcDbEntity
8
1
62
256
6
ByLayer
370
18
48
1
60
0
100
AcDbSpline
70
4
71
3
72
35
73
31
40
0
40
0
40
0
40
0
40
0.125000000000031
40
0.125000000000031
40
0.250000000000062
40
0.250000000000062
40
0.375000000000093
40
0.375000000000093
40
0.500000000000124
40
0.500000000000124
40
0.562500000000116
40
0.562500000000116
40
0.625000000000108
40
0.625000000000108
40
0.6875000000001
40
0.6875000000001
40
0.718750000000073
40
0.718750000000073
40
0.750000000000046
40
0.750000000000046
40
0.812500000000032
40
0.812500000000032
40
0.843750000000023
40
0.843750000000023
40
0.875000000000015
40
0.906250000000006
40
0.906250000000006
40
0.937499999999998
40
0.937499999999998
40
1
40
1
40
1
40
1
41
1
10
14.1613175788577
20
2.51817350080176
30
0
41
1
10
14.1297779381757
20
2.53638292083963
30
0
41
1
10
14.0974991883505
20
2.55337697738642
30
0
41
1
10
14.0316748484344
20
2.58471050481413
30
0
41
1
10
13.9982159439465
20
2.59901520056474
30
0
41
1
10
13.9301006087788
20
2.62463155624795
30
0
41
1
10
13.8954293163252
20
2.63594645116717
30
0
41
1
10
13.8252050755652
20
2.65483031592643
30
0
41
1
10
13.7896341726004
20
2.66241564107494
30
0
41
1
10
13.7359280604146
20
2.67006346588289
30
0
41
1
10
13.7179947625356
20
2.67198377228513
30
0
41
1
10
13.6820606215123
20
2.67432798716263
30
0
41
1
10
13.6641034104087
20
2.67474469202381
30
0
41
1
10
13.6286116050425
20
2.67375746632823
30
0
41
1
10
13.6110271016553
20
2.67236146704897
30
0
41
1
10
13.5849680337402
20
2.6685597306965
30
0
41
1
10
13.5763349865293
20
2.66700611890448
30
0
41
1
10
13.5591947525001
20
2.66323502144428
30
0
41
1
10
13.5506797247245
20
2.66101111797582
30
0
41
1
10
13.5258280496865
20
2.65332476797755
30
0
41
1
10
13.5100268369396
20
2.64683535358148
30
0
41
1
10
13.4878266863461
20
2.63447685616262
30
0
41
1
10
13.4806983660682
20
2.62991503959819
30
0
41
1
10
13.4674207847381
20
2.62009908909573
30
0
41
1
10
13.4550144202362
20
2.60953518489686
30
0
41
1
10
13.4444389012925
20
2.59741000149694
30
0
41
1
10
13.4348415210586
20
2.58445504520628
30
0
41
1
10
13.4305660689861
20
2.57758536568346
30
0
41
1
10
13.4196492151555
20
2.55649643111991
30
0
41
1
10
13.4147225604112
20
2.54157065641081
30
0
41
1
10
13.4118932376919
20
2.52587398262656
30
0
0
SPLINE
5
101
100
AcDbEntity
8
1
62
256
6
ByLayer
370
18
48
1
60
0
100
AcDbSpline
70
4
71
3
72
52
73
48
40
0
40
0
40
0
40
0
40
0.01562499999999
40
0.01562499999999
40
0.03124999999998
40
0.03124999999998
40
0.0624999999999791
40
0.0624999999999791
40
0.0937499999999781
40
0.0937499999999781
40
0.124999999999977
40
0.124999999999977
40
0.187499999999978
40
0.187499999999978
40
0.21874999999999
40
0.21874999999999
40
0.250000000000002
40
0.250000000000002
40
0.312500000000003
40
0.312500000000003
40
0.375000000000003
40
0.375000000000003
40
0.437500000000003
40
0.437500000000003
40
0.500000000000004
40
0.500000000000004
40
0.562500000000004
40
0.562500000000004
40
0.625000000000004
40
0.625000000000004
40
0.687500000000005
40
0.687500000000005
40
0.750000000000005
40
0.750000000000005
40
0.812500000000006
40
0.812500000000006
40
0.843750000000005
40
0.843750000000005
40
0.875000000000004
40
0.875000000000004
40
0.906250000000003
40
0.906250000000003
40
0.937500000000002
40
0.937500000000002
40
0.968750000000001
40
0.968750000000001
40
1
40
1
40
1
40
1
41
1
10
12.1128539091367
20
2.50786757614478
30
0
41
1
10
12.1158685528326
20
2.50170745734684
30
0
41
1
10
12.1192127303607
20
2.4957124187365
30
0
41
1
10
12.1264923387601
20
2.48401733542266
30
0
41
1
10
12.1304374562247
20
2.47830725601193
30
0
41
1
10
12.1429315647657
20
2.46176543961823
30
0
41
1
10
12.1521681340507
20
2.45145133423208
30
0
41
1
10
12.172085066735
20
2.43194420626497
30
0
41
1
10
12.1827686810569
20
2.42275375527149
30
0
41
1
10
12.2053686938972
20
2.40531303649442
30
0
41
1
10
12.2172497085446
20
2.39709723391476
30
0
41
1
10
12.2540177301029
20
2.37395819268562
30
0
41
1
10
12.2802493509445
20
2.36038106004088
30
0
41
1
10
12.3209837064159
20
2.34240525378971
30
0
41
1
10
12.3348149118255
20
2.336804052453
30
0
41
1
10
12.3629412759786
20
2.32630093027009
30
0
41
1
10
12.3772507431586
20
2.32139595816327
30
0
41
1
10
12.4205696591028
20
2.30772454919938
30
0
41
1
10
12.4500452474152
20
2.29996091323221
30
0
41
1
10
12.5100729051284
20
2.28676715447494
30
0
41
1
10
12.5405748926272
20
2.28135854131168
30
0
41
1
10
12.6019619893841
20
2.2727829727786
30
0
41
1
10
12.6329459173962
20
2.26959850827839
30
0
41
1
10
12.6953511332628
20
2.26535251302184
30
0
41
1
10
12.7266261267998
20
2.26429988111559
30
0
41
1
10
12.7893195974507
20
2.2643001189044
30
0
41
1
10
12.8205783367206
20
2.26535300340259
30
0
41
1
10
12.8829189054841
20
2.26959284645923
30
0
41
1
10
12.913988416391
20
2.27278365887463
30
0
41
1
10
12.975460719731
20
2.28137402120993
30
0
41
1
10
13.0059859879038
20
2.28679123322439
30
0
41
1
10
13.065983080445
20
2.2999845204364
30
0
41
1
10
13.0955215460817
20
2.30776701835154
30
0
41
1
10
13.1533469343276
20
2.32603025940361
30
0
41
1
10
13.1814568668254
20
2.33644542921459
30
0
41
1
10
13.2222100586157
20
2.35443668870241
30
0
41
1
10
13.2355784660697
20
2.36084384426221
30
0
41
1
10
13.2615999542123
20
2.37448661436784
30
0
41
1
10
13.2742686922705
20
2.38172651626584
30
0
41
1
10
13.2988217414717
20
2.39718768811522
30
0
41
1
10
13.310680630468
20
2.40539556552196
30
0
41
1
10
13.3332517113274
20
2.42282515624746
30
0
41
1
10
13.3440198730002
20
2.43208989396376
30
0
41
1
10
13.364078497674
20
2.45177750021981
30
0
41
1
10
13.3732933412223
20
2.46211831849763
30
0
41
1
10
13.3897773507138
20
2.48400488229629
30
0
41
1
10
13.3970519361601
20
2.49554728740901
30
0
41
1
10
13.403081248579
20
2.50786757614543
30
0
0
SPLINE
5
102
100
AcDbEntity
8
1
62
256
6
ByLayer
370
18
48
1
60
0
100
AcDbSpline
70
4
71
3
72
8
73
4
40
0
40
0
40
0
40
0
40
1
40
1
40
1
40
1
41
1
10
13.403081248579
20
2.50786757614543
30
0
41
1
10
13.4060186863057
20
2.51386993237202
30
0
41
1
10
13.4089560151727
20
2.5198720661547
30
0
41
1
10
13.4118932376919
20
2.52587398262656
30
0
0
SPLINE
5
103
100
AcDbEntity
8
1
62
256
6
ByLayer
370
18
48
1
60
0
100
AcDbSpline
70
4
71
3
72
35
73
31
40
0
40
0
40
0
40
0
40
0.124999999999952
40
0.124999999999952
40
0.249999999999904
40
0.249999999999904
40
0.374999999999856
40
0.374999999999856
40
0.437499999999832
40
0.437499999999832
40
0.499999999999807
40
0.499999999999807
40
0.624999999999807
40
0.624999999999807
40
0.687499999999829
40
0.687499999999829
40
0.718749999999864
40
0.718749999999864
40
0.749999999999899
40
0.749999999999899
40
0.812499999999923
40
0.812499999999923
40
0.843749999999934
40
0.843749999999934
40
0.874999999999944
40
0.906249999999955
40
0.906249999999955
40
0.937499999999966
40
0.937499999999966
40
1
40
1
40
1
40
1
41
1
10
11.3546175788577
20
2.51817350080176
30
0
41
1
10
11.3861579281448
20
2.53638332995303
30
0
41
1
10
11.4184772046207
20
2.55339719413143
30
0
41
1
10
11.484254600104
20
2.5847071987811
30
0
41
1
10
11.5177141992123
20
2.59901418158768
30
0
41
1
10
11.5858905543827
20
2.6246517508861
30
0
41
1
10
11.6205030467935
20
2.63594178652068
30
0
41
1
10
11.673021043672
20
2.65007016060491
30
0
41
1
10
11.6906416820118
20
2.65431416728092
30
0
41
1
10
11.7261403321724
20
2.6617471180725
30
0
41
1
10
11.744018597128
20
2.66493414241074
30
0
41
1
10
11.7977108714951
20
2.67259345910179
30
0
41
1
10
11.8338366764126
20
2.67524100316112
30
0
41
1
10
11.88735653941
20
2.67375865959062
30
0
41
1
10
11.9051813586411
20
2.67233871915823
30
0
41
1
10
11.9313991007577
20
2.66848786646995
30
0
41
1
10
11.940053771947
20
2.66691792158269
30
0
41
1
10
11.957168590653
20
2.66312859999101
30
0
41
1
10
11.965657017505
20
2.66089923775226
30
0
41
1
10
11.9904625726701
20
2.65318929212842
30
0
41
1
10
12.0061849050281
20
2.64669768027054
30
0
41
1
10
12.0282053870804
20
2.63441462487205
30
0
41
1
10
12.035331212458
20
2.62985370788164
30
0
41
1
10
12.0486629782279
20
2.61998059887625
30
0
41
1
10
12.0610977956312
20
2.60936475940733
30
0
41
1
10
12.0716612045522
20
2.59720978217951
30
0
41
1
10
12.0812330970225
20
2.58424363674226
30
0
41
1
10
12.085468897495
20
2.57741141534424
30
0
41
1
10
12.0963162503403
20
2.55639956185237
30
0
41
1
10
12.1012209708193
20
2.54152420135819
30
0
41
1
10
12.1040419200235
20
2.52587398262656
30
0
0
SPLINE
5
104
100
AcDbEntity
8
1
62
256
6
ByLayer
370
18
48
1
60
0
100
AcDbSpline
70
4
71
3
72
8
73
4
40
0
40
0
40
0
40
0
40
1
40
1
40
1
40
1
41
1
10
12.1040419200235
20
2.52587398262656
30
0
41
1
10
12.1069791425427
20
2.5198720661547
30
0
41
1
10
12.1099164714097
20
2.51386993237202
30
0
41
1
10
12.1128539091364
20
2.50786757614546
30
0
0
SPLINE
5
105
100
AcDbEntity
8
1
62
256
6
ByLayer
370
18
48
1
60
0
100
AcDbSpline
70
4
71
3
72
39
73
35
40
0
40
0
40
0
40
0
40
0.124999999999981
40
0.124999999999981
40
0.249999999999963
40
0.249999999999963
40
0.374999999999944
40
0.374999999999944
40
0.437499999999929
40
0.437499999999929
40
0.499999999999913
40
0.499999999999913
40
0.562499999999898
40
0.562499999999898
40
0.624999999999882
40
0.624999999999882
40
0.687499999999867
40
0.687499999999867
40
0.718749999999871
40
0.718749999999871
40
0.749999999999876
40
0.749999999999876
40
0.812499999999881
40
0.812499999999881
40
0.843749999999901
40
0.843749999999901
40
0.87499999999992
40
0.87499999999992
40
0.90624999999994
40
0.90624999999994
40
0.93749999999996
40
0.96874999999998
40
0.96874999999998
40
1
40
1
40
1
40
1
41
1
10
9.95126757885771
20
0.0874999999999773
30
0
41
1
10
9.95126757885768
20
0.123924872285869
30
0
41
1
10
9.95269143389763
20
0.160385094698569
30
0
41
1
10
9.95846109795633
20
0.232985297954485
30
0
41
1
10
9.96281115483612
20
0.269196415994202
30
0
41
1
10
9.97468212369486
20
0.340974619015412
30
0
41
1
10
9.98221214838861
20
0.376618742463705
30
0
41
1
10
9.99624848681086
20
0.429212481995734
30
0
41
1
10
10.0013836854569
20
0.446591473961945
30
0
41
1
10
10.012680293879
20
0.481004198697974
30
0
41
1
10
10.0188510187317
20
0.498060752445696
30
0
41
1
10
10.0323114855813
20
0.531584850429198
30
0
41
1
10
10.0396029554311
20
0.548066933330318
30
0
41
1
10
10.055520775735
20
0.580357811748826
30
0
41
1
10
10.0641093892997
20
0.596084023794361
30
0
41
1
10
10.0826687223087
20
0.62630763675574
30
0
41
1
10
10.0926510104768
20
0.640838234888349
30
0
41
1
10
10.1089517349517
20
0.661520815686316
30
0
41
1
10
10.1146078797633
20
0.668228273722235
30
0
41
1
10
10.1264359213047
20
0.681207597162569
30
0
41
1
10
10.1326026628057
20
0.687467833067558
30
0
41
1
10
10.1516418126009
20
0.705156102769479
30
0
41
1
10
10.1651411149191
20
0.715618351721616
30
0
41
1
10
10.1869349752724
20
0.728717446067463
30
0
41
1
10
10.1944268987453
20
0.73261868685745
30
0
41
1
10
10.2095826763995
20
0.739256476004812
30
0
41
1
10
10.217287944512
20
0.742019275611341
30
0
41
1
10
10.2329662055803
20
0.746358096078382
30
0
41
1
10
10.241004459205
20
0.747939517926312
30
0
41
1
10
10.2570178734335
20
0.749782103506675
30
0
41
1
10
10.2729113054233
20
0.75032304564121
30
0
41
1
10
10.2885714406617
20
0.748383639205713
30
0
41
1
10
10.3041173891928
20
0.745241892843694
30
0
41
1
10
10.3118091263682
20
0.743068938469804
30
0
41
1
10
10.3193109365589
20
0.740370758576347
30
0
0
SPLINE
5
106
100
AcDbEntity
8
1
62
256
6
ByLayer
370
18
48
1
60
0
100
AcDbSpline
70
4
71
3
72
8
73
4
40
0
40
0
40
0
40
0
40
1
40
1
40
1
40
1
41
1
10
10.9844246062802
20
1.85636861437993
30
0
41
1
10
10.9806951321688
20
1.86191368818663
30
0
41
1
10
10.9769657962695
20
1.86745855649605
30
0
41
1
10
10.9732365953931
20
1.87300322405019
30
0
0
SPLINE
5
107
100
AcDbEntity
8
1
62
256
6
ByLayer
370
18
48
1
60
0
100
AcDbSpline
70
4
71
3
72
35
73
31
40
0
40
0
40
0
40
0
40
0.124999999999992
40
0.124999999999992
40
0.249999999999983
40
0.249999999999983
40
0.374999999999975
40
0.374999999999975
40
0.499999999999967
40
0.499999999999967
40
0.562499999999962
40
0.562499999999962
40
0.624999999999958
40
0.624999999999958
40
0.687499999999957
40
0.687499999999957
40
0.718749999999962
40
0.718749999999962
40
0.749999999999967
40
0.749999999999967
40
0.812499999999981
40
0.812499999999981
40
0.843749999999988
40
0.843749999999988
40
0.874999999999995
40
0.906250000000002
40
0.906250000000002
40
0.937500000000008
40
0.937500000000008
40
1
40
1
40
1
40
1
41
1
10
11.3546175788577
20
2.51817350080176
30
0
41
1
10
11.3230779381758
20
2.4999640807639
30
0
41
1
10
11.2922212785803
20
2.48050689168625
30
0
41
1
10
11.2321734778797
20
2.43916810484544
30
0
41
1
10
11.2030557957223
20
2.41734419145141
30
0
41
1
10
11.1468137133643
20
2.37116275865043
30
0
41
1
10
11.1196790806964
20
2.34679398606323
30
0
41
1
10
11.0682130537132
20
2.2954199419832
30
0
41
1
10
11.0438585179563
20
2.26840729895443
30
0
41
1
10
11.010382251296
20
2.22572035386702
30
0
41
1
10
10.9997525682291
20
2.21114981553126
30
0
41
1
10
10.9797553480816
20
2.18120204398062
30
0
41
1
10
10.9704158655341
20
2.1658589954144
30
0
41
1
10
10.9535249253826
20
2.13462857749326
30
0
41
1
10
10.9459416445286
20
2.11870195120747
30
0
41
1
10
10.9362045108307
20
2.09423326821775
30
0
41
1
10
10.9332334545048
20
2.08598002412501
30
0
41
1
10
10.9279292036909
20
2.06925059729889
30
0
41
1
10
10.9255976467023
20
2.0607644151971
30
0
41
1
10
10.9198283835442
20
2.03539905828845
30
0
41
1
10
10.9175477748935
20
2.018470099441
30
0
41
1
10
10.917150472314
20
1.99306495634974
30
0
41
1
10
10.9175369612073
20
1.98461074162054
30
0
41
1
10
10.9193990330397
20
1.96820404363658
30
0
41
1
10
10.9223444601881
20
1.95217786470991
30
0
41
1
10
10.9275574175661
20
1.93695660494652
30
0
41
1
10
10.9339780487018
20
1.92216755170884
30
0
41
1
10
10.9377896396481
20
1.91503006183998
30
0
41
1
10
10.9505947658036
20
1.89503132181147
30
0
41
1
10
10.9610575385007
20
1.88330182629275
30
0
41
1
10
10.9732365953931
20
1.87300322405019
30
0
0
SPLINE
5
108
100
AcDbEntity
8
1
62
256
6
ByLayer
370
18
48
1
60
0
100
AcDbSpline
70
4
71
3
72
8
73
4
40
0
40
0
40
0
40
0
40
1
40
1
40
1
40
1
41
1
10
10.3393109365589
20
0.738998961765475
30
0
41
1
10
10.3326440247208
20
0.739456244185391
30
0
41
1
10
10.3259773599545
20
0.739913509658663
30
0
41
1
10
10.3193109365589
20
0.740370758576347
30
0
0
SPLINE
5
109
100
AcDbEntity
8
1
62
256
6
ByLayer
370
18
48
1
60
0
100
AcDbSpline
70
4
71
3
72
50
73
46
40
0
40
0
40
0
40
0
40
0.03124999999999
40
0.03124999999999
40
0.0468749999999867
40
0.0468749999999867
40
0.0624999999999833
40
0.0624999999999833
40
0.124999999999982
40
0.124999999999982
40
0.156249999999982
40
0.156249999999982
40
0.187499999999983
40
0.187499999999983
40
0.24999999999998
40
0.24999999999998
40
0.281249999999979
40
0.281249999999979
40
0.312499999999978
40
0.312499999999978
40
0.374999999999974
40
0.374999999999974
40
0.499999999999971
40
0.499999999999971
40
0.562499999999974
40
0.562499999999974
40
0.624999999999978
40
0.624999999999978
40
0.687499999999982
40
0.687499999999982
40
0.749999999999986
40
0.749999999999986
40
0.812499999999989
40
0.812499999999989
40
0.843749999999991
40
0.843749999999991
40
0.874999999999993
40
0.874999999999993
40
0.906249999999995
40
0.906249999999995
40
0.937499999999996
40
0.937499999999996
40
0.968749999999998
40
0.968749999999998
40
1
40
1
40
1
40
1
41
1
10
10.9844246062802
20
1.85636861437993
30
0
41
1
10
10.9921227509316
20
1.84492282363539
30
0
41
1
10
10.9985261886694
20
1.83275405452201
30
0
41
1
10
11.0066138770056
20
1.81364568520564
30
0
41
1
10
11.0090542187987
20
1.80713218716099
30
0
41
1
10
11.0134704196556
20
1.79384154822119
30
0
41
1
10
11.0154503578249
20
1.78704493715645
30
0
41
1
10
11.0241950899266
20
1.75280640596651
30
0
41
1
10
11.0276646064672
20
1.72447052693047
30
0
41
1
10
11.0292673353731
20
1.68092734754873
30
0
41
1
10
11.0291792981549
20
1.66618949864144
30
0
41
1
10
11.0279329323938
20
1.63677099963647
30
0
41
1
10
11.0267788556847
20
1.62205451242499
30
0
41
1
10
11.0219367556457
20
1.57787223400848
30
0
41
1
10
11.0168819282327
20
1.5483734138416
30
0
41
1
10
11.0070329087388
20
1.50402167291466
30
0
41
1
10
11.0033590575834
20
1.48918796128919
30
0
41
1
10
10.9953323332964
20
1.459634808766
30
0
41
1
10
10.9909940172227
20
1.44496210736008
30
0
41
1
10
10.9770841565477
20
1.40122586506465
30
0
41
1
10
10.9666231923879
20
1.37244221932201
30
0
41
1
10
10.9320494534015
20
1.28707002010384
30
0
41
1
10
10.9048008526592
20
1.23144031339109
30
0
41
1
10
10.857785723331
20
1.14983070867066
30
0
41
1
10
10.8412337213783
20
1.12321612064918
30
0
41
1
10
10.8063740796255
20
1.07122686486136
30
0
41
1
10
10.7880619945995
20
1.04585308614443
30
0
41
1
10
10.7498543880364
20
0.996792806019926
30
0
41
1
10
10.7298814914412
20
0.973007567613365
30
0
41
1
10
10.688412077502
20
0.927530092798264
30
0
41
1
10
10.6668807246331
20
0.905787346893362
30
0
41
1
10
10.6220936168185
20
0.864731279009703
30
0
41
1
10
10.5989882641337
20
0.845543713665933
30
0
41
1
10
10.5629822644285
20
0.819174531809665
30
0
41
1
10
10.5507321909665
20
0.810777400567503
30
0
41
1
10
10.5258698256437
20
0.795018280746291
30
0
41
1
10
10.5132467977204
20
0.787645378571597
30
0
41
1
10
10.4875421036864
20
0.774072296927613
30
0
41
1
10
10.4744831751114
20
0.767886705395881
30
0
41
1
10
10.4480608095868
20
0.757019889857531
30
0
41
1
10
10.4346324458856
20
0.75231156771946
30
0
41
1
10
10.4075061827004
20
0.744757480613572
30
0
41
1
10
10.393919815633
20
0.741937105166954
30
0
41
1
10
10.3666762240668
20
0.738590927523745
30
0
41
1
10
10.3530191840608
20
0.738058715255221
30
0
41
1
10
10.3393109365589
20
0.738998961765503
30
0
0
SPLINE
5
10A
100
AcDbEntity
8
SK1
62
256
6
ByLayer
370
18
48
1
60
0
100
AcDbSpline
70
4
71
3
72
26
73
22
40
0
40
0
40
0
40
0
40
0.124999999999975
40
0.124999999999975
40
0.24999999999995
40
0.24999999999995
40
0.312499999999948
40
0.312499999999948
40
0.374999999999946
40
0.374999999999946
40
0.499999999999941
40
0.499999999999941
40
0.624999999999936
40
0.624999999999936
40
0.687499999999942
40
0.687499999999942
40
0.749999999999948
40
0.749999999999948
40
0.874999999999974
40
0.874999999999974
40
1
40
1
40
1
40
1
41
1
10
-1.2277231807663
20
-9.9375
30
0
41
1
10
-1.16145881579914
20
-9.9375
30
0
41
1
10
-1.09692648091414
20
-9.94159561253508
30
0
41
1
10
-0.971074506872441
20
-9.95694628411101
30
0
41
1
10
-0.90975594677991
20
-9.96820639988022
30
0
41
1
10
-0.820074616825536
20
-9.9899958676522
30
0
41
1
10
-0.790551744127271
20
-9.99808199102944
30
0
41
1
10
-0.732312008439095
20
-10.0158251195839
30
0
41
1
10
-0.703823602958977
20
-10.0254112228784
30
0
41
1
10
-0.62013553828757
20
-10.0561593211543
30
0
41
1
10
-0.566707625327865
20
-10.0793024406004
30
0
41
1
10
-0.464115964693463
20
-10.1303092857285
30
0
41
1
10
-0.41495405838981
20
-10.1581751862633
30
0
41
1
10
-0.344179452210596
20
-10.2032837031615
30
0
41
1
10
-0.3210836510994
20
-10.2188732697369
30
0
41
1
10
-0.27585569306288
20
-10.2511408058508
30
0
41
1
10
-0.253687408732787
20
-10.2678478874527
30
0
41
1
10
-0.188854424159331
20
-10.3193865426683
30
0
41
1
10
-0.148043732588974
20
-10.3554643584108
30
0
41
1
10
-0.0708043515486452
20
-10.4309491464893
30
0
41
1
10
-0.0343769418091711
20
-10.4703549052105
30
0
41
1
10
0
20
-10.5114903551092
30
0
0
SPLINE
5
10B
100
AcDbEntity
8
1
62
256
6
ByLayer
370
18
48
1
60
0
100
AcDbSpline
70
4
71
3
72
18
73
14
40
0
40
0
40
0
40
0
40
0.106502320877089
40
0.209819720887999
40
0.309970050664476
40
0.406972922399936
40
0.500849920825595
40
0.591624858696165
40
0.679324076625394
40
0.763976789997701
40
0.845615488385875
40
0.924276395492115
40
1
40
1
40
1
40
1
41
1
10
38.6980862172677
20
-8.57941464817705
30
0
41
1
10
38.6965091061935
20
-8.57873569634947
30
0
41
1
10
38.693402047092
20
-8.57739809655084
30
0
41
1
10
38.6888919111762
20
-8.57509503761136
30
0
41
1
10
38.68458290232
20
-8.57263365252132
30
0
41
1
10
38.6804802013747
20
-8.57000984205968
30
0
41
1
10
38.6765824890681
20
-8.56724753416279
30
0
41
1
10
38.6728900240872
20
-8.56436296082438
30
0
41
1
10
38.6694029509026
20
-8.5613731471596
30
0
41
1
10
38.6661204155716
20
-8.55829564552997
30
0
41
1
10
38.6630454487202
20
-8.55514158474932
30
0
41
1
10
38.6601672624499
20
-8.55194200741789
30
0
41
1
10
38.6583711657764
20
-8.54970812316171
30
0
41
1
10
38.6574902036077
20
-8.54861243185067
30
0
0
SPLINE
5
10C
100
AcDbEntity
8
1
62
256
6
ByLayer
370
18
48
1
60
0
100
AcDbSpline
70
4
71
3
72
16
73
12
40
0
40
0
40
0
40
0
40
0.117319552192547
40
0.233085853411068
40
0.347299362420276
40
0.459960556948122
40
0.571069934744699
40
0.680628014713015
40
0.788635338118837
40
0.895092469888339
40
1
40
1
40
1
40
1
41
1
10
38.8569129943077
20
-8.63476747629801
30
0
41
1
10
38.8506453455703
20
-8.63294467312991
30
0
41
1
10
38.8381930285647
20
-8.62932319977705
30
0
41
1
10
38.8196868348827
20
-8.62360859123589
30
0
41
1
10
38.8014648755764
20
-8.61774311018644
30
0
41
1
10
38.7835304222354
20
-8.61171332661246
30
0
41
1
10
38.7658826942356
20
-8.60553373093168
30
0
41
1
10
38.7485216077426
20
-8.59921307982262
30
0
41
1
10
38.7314482369927
20
-8.59275505505067
30
0
41
1
10
38.7146584541166
20
-8.58618794394448
30
0
41
1
10
38.7035832305375
20
-8.58166135132132
30
0
41
1
10
38.6980862172677
20
-8.57941464817
30
0
0
SPLINE
5
10D
100
AcDbEntity
8
1
62
256
6
ByLayer
370
18
48
1
60
0
100
AcDbSpline
70
4
71
2
72
10
73
7
40
0
40
0
40
0
40
0.5
40
0.5
40
0.75
40
0.75
40
1
40
1
40
1
41
1
10
38.8569129943012
20
-8.634767476262
30
0
41
1
10
38.9245068205236
20
-8.65426216351506
30
0
41
1
10
38.9722030616268
20
-8.70598571100984
30
0
41
1
10
38.9981900515785
20
-8.73416695292599
30
0
41
1
10
39.0148269535881
20
-8.77002235389625
30
0
41
1
10
39.03279281501
20
-8.80874189222669
30
0
41
1
10
39.0369137759407
20
-8.85176441302801
30
0
0
SPLINE
5
10E
100
AcDbEntity
8
1
62
256
6
ByLayer
370
18
48
1
60
0
100
AcDbSpline
70
4
71
2
72
6
73
3
40
0
40
0
40
0
40
1
40
1
40
1
41
1
10
39.0369137759782
20
-8.851764412942
30
0
41
1
10
39.0458050681508
20
-8.94698344596011
30
0
41
1
10
39.0458285383892
20
-9.04249999930241
30
0
0
SPLINE
5
10F
100
AcDbEntity
8
1
62
256
6
ByLayer
370
18
48
1
60
0
100
AcDbSpline
70
4
71
3
72
17
73
13
40
0
40
0
40
0
40
0
40
0.100317411816991
40
0.200541310293676
40
0.300680278273645
40
0.400742920447688
40
0.500737861201936
40
0.600673742442858
40
0.700559221399286
40
0.800402968404953
40
0.900213664663601
40
1
40
1
40
1
40
1
41
1
10
39.0369137759777
20
-9.27323558705803
30
0
41
1
10
39.0374907017394
20
-9.26689122982458
30
0
41
1
10
39.0386440154674
20
-9.25420842940619
30
0
41
1
10
39.0401494039791
20
-9.23515394721224
30
0
41
1
10
39.041489205109
20
-9.21609147902046
30
0
41
1
10
39.042647382609
20
-9.19701969571693
30
0
41
1
10
39.0436283058491
20
-9.17794107066632
30
0
41
1
10
39.0444305147006
20
-9.15885705875121
30
0
41
1
10
39.0450554832194
20
-9.13976938648048
30
0
41
1
10
39.0454987763668
20
-9.12067970633095
30
0
41
1
10
39.0457766520423
20
-9.10158968965649
30
0
41
1
10
39.0458112443466
20
-9.08886271257251
30
0
41
1
10
39.0458285383877
20
-9.08250000069762
30
0
0
SPLINE
5
110
100
AcDbEntity
8
1
62
256
6
ByLayer
370
18
48
1
60
0
100
AcDbSpline
70
4
71
3
72
38
73
34
40
0
40
0
40
0
40
0
40
0.0320161803202388
40
0.0634137556518515
40
0.0941938978135382
40
0.124357850632132
40
0.153906935795984
40
0.182842559298691
40
0.211166218540729
40
0.238879510169531
40
0.265984138747567
40
0.292481926351483
40
0.318374823219176
40
0.343664919578707
40
0.368354458810697
40
0.392445852120248
40
0.4159416949162
40
0.438844785127734
40
0.461158143719652
40
0.482885037706391
40
0.504029006008712
40
0.551366811163482
40
0.597409666800783
40
0.642207857911409
40
0.685815975457805
40
0.728293199080102
40
0.769703557232102
40
0.810116149643934
40
0.849605314211507
40
0.88825071811131
40
0.926137351649954
40
0.963355403684987
40
1
40
1
40
1
40
1
41
1
10
38.8569129942977
20
-9.490232523738
30
0
41
1
10
38.8595412022225
20
-9.48945143928526
30
0
41
1
10
38.8647468367947
20
-9.48790436220938
30
0
41
1
10
38.8724183692601
20
-9.4852682841381
30
0
41
1
10
38.8798924884198
20
-9.48244410005714
30
0
41
1
10
38.8871650942036
20
-9.47942108985504
30
0
41
1
10
38.8942372552931
20
-9.47621836590821
30
0
41
1
10
38.9011086967219
20
-9.47284705982668
30
0
41
1
10
38.9077794928939
20
-9.46932012129659
30
0
41
1
10
38.9142496277211
20
-9.46564974374522
30
0
41
1
10
38.9205191088601
20
-9.46184800726505
30
0
41
1
10
38.9265879381035
20
-9.45792668894052
30
0
41
1
10
38.9324561190213
20
-9.45389729182733
30
0
41
1
10
38.9381236552255
20
-9.44977101981556
30
0
41
1
10
38.9435905500458
20
-9.44555876867724
30
0
41
1
10
38.9488568095158
20
-9.44127111610777
30
0
41
1
10
38.9539224312742
20
-9.43691831100244
30
0
41
1
10
38.9587874446605
20
-9.43251027651783
30
0
41
1
10
38.9634517667685
20
-9.42805657013267
30
0
41
1
10
38.9679157190758
20
-9.42356650518886
30
0
41
1
10
38.9739771356576
20
-9.41714196950699
30
0
41
1
10
38.9814263980611
20
-9.40855318319043
30
0
41
1
10
38.9899703211373
20
-9.39747991636784
30
0
41
1
10
38.9978165015013
20
-9.3860305586926
30
0
41
1
10
39.0049651843956
20
-9.37425061917168
30
0
41
1
10
39.0114161979483
20
-9.36218461861725
30
0
41
1
10
39.0171693145935
20
-9.34987665255625
30
0
41
1
10
39.0222247334685
20
-9.33737016537097
30
0
41
1
10
39.0265808749649
20
-9.32470745282956
30
0
41
1
10
39.0302424590416
20
-9.3119310234884
30
0
41
1
10
39.0331912788525
20
-9.29907808836438
30
0
41
1
10
39.0354922122894
20
-9.28620005833645
30
0
41
1
10
39.0364423803637
20
-9.27753465189781
30
0
41
1
10
39.0369137759377
20
-9.27323558697202
30
0
0
SPLINE
5
111
100
AcDbEntity
8
1
62
256
6
ByLayer
370
18
48
1
60
0
100
AcDbSpline
70
4
71
2
72
6
73
3
40
0
40
0
40
0
40
1
40
1
40
1
41
1
10
38.8569129943097
20
-9.49023252370202
30
0
41
1
10
38.7759142978734
20
-9.51348475667197
30
0
41
1
10
38.6980862172702
20
-9.54558535183
30
0
0
SPLINE
5
112
100
AcDbEntity
8
1
62
256
6
ByLayer
370
18
48
1
60
0
100
AcDbSpline
70
4
71
2
72
6
73
3
40
0
40
0
40
0
40
1
40
1
40
1
41
1
10
38.6980862172692
20
-9.54558535182301
30
0
41
1
10
38.6737873382768
20
-9.55575467086325
30
0
41
1
10
38.6574902036082
20
-9.57638756814902
30
0
0
LINE
5
7F
100
AcDbEntity
8
80
62
256
6
ByLayer
370
18
48
1
60
0
100
AcDbLine
10
0
20
0
30
0
11
-5
21
0
31
0
39
0
210
0
220
0
230
1
0
LINE
5
80
100
AcDbEntity
8
81
62
256
6
ByLayer
370
18
48
1
60
0
100
AcDbLine
10
46.107968
20
-11.0625
30
0
11
51.107968
21
-11.0625
31
0
39
0
210
0
220
0
230
1
0
LINE
5
81
100
AcDbEntity
8
1
62
256
6
ByLayer
370
18
48
1
60
0
100
AcDbLine
10
0
20
9.939338
30
0
11
0
21
-10.51149
31
0
39
0
210
0
220
0
230
1
0
LINE
5
82
100
AcDbEntity
8
1
62
256
6
ByLayer
370
18
48
1
60
0
100
AcDbLine
10
38.913402
20
-10.7375
30
0
11
37.625912
21
-10.7375
31
0
39
0
210
0
220
0
230
1
0
LINE
5
83
100
AcDbEntity
8
1
62
256
6
ByLayer
370
18
48
1
60
0
100
AcDbLine
10
38.913402
20
-7.3875
30
0
11
37.625912
21
-7.3875
31
0
39
0
210
0
220
0
230
1
0
LINE
5
84
100
AcDbEntity
8
1
62
256
6
ByLayer
370
18
48
1
60
0
100
AcDbLine
10
41.824364
20
-10.7375
30
0
11
38.913402
21
-10.7375
31
0
39
0
210
0
220
0
230
1
0
LINE
5
85
100
AcDbEntity
8
1
62
256
6
ByLayer
370
18
48
1
60
0
100
AcDbLine
10
38.913402
20
-10.7375
30
0
11
38.913268
21
-10.662484
31
0
39
0
210
0
220
0
230
1
0
LINE
5
86
100
AcDbEntity
8
1
62
256
6
ByLayer
370
18
48
1
60
0
100
AcDbLine
10
41.824364
20
-7.3875
30
0
11
38.913402
21
-7.3875
31
0
39
0
210
0
220
0
230
1
0
LINE
5
87
100
AcDbEntity
8
1
62
256
6
ByLayer
370
18
48
1
60
0
100
AcDbLine
10
38.913268
20
-7.462516
30
0
11
38.913402
21
-7.3875
31
0
39
0
210
0
220
0
230
1
0
LINE
5
88
100
AcDbEntity
8
1
62
256
6
ByLayer
370
18
48
1
60
0
100
AcDbLine
10
0.157917
20
-10.7375
30
0
11
0.481918
21
-10.7375
31
0
39
0
210
0
220
0
230
1
0
LINE
5
89
100
AcDbEntity
8
1
62
256
6
ByLayer
370
18
48
1
60
0
100
AcDbLine
10
37.625887
20
-10.7375
30
0
11
34.607968
21
-10.7375
31
0
39
0
210
0
220
0
230
1
0
LINE
5
8A
100
AcDbEntity
8
1
62
256
6
ByLayer
370
18
48
1
60
0
100
AcDbLine
10
34.607968
20
-7.3875
30
0
11
37.625887
21
-7.3875
31
0
39
0
210
0
220
0
230
1
0
LINE
5
8B
100
AcDbEntity
8
1
62
256
6
ByLayer
370
18
48
1
60
0
100
AcDbLine
10
38.107968
20
-8.787531
30
0
11
38.107968
21
-9.337469
31
0
39
0
210
0
220
0
230
1
0
LINE
5
8C
100
AcDbEntity
8
1
62
256
6
ByLayer
370
18
48
1
60
0
100
AcDbLine
10
2.572312
20
9.977752
30
0
11
0.481918
21
9.943711
31
0
39
0
210
0
220
0
230
1
0
LINE
5
8D
100
AcDbEntity
8
1
62
256
6
ByLayer
370
18
48
1
60
0
100
AcDbLine
10
0.481918
20
-10.7375
30
0
11
2.572312
21
-10.7375
31
0
39
0
210
0
220
0
230
1
0
LINE
5
8E
100
AcDbEntity
8
1
62
256
6
ByLayer
370
13
48
1
60
0
100
AcDbLine
10
0.481918
20
-10.7375
30
0
11
0.481918
21
9.943711
31
0
39
0
210
0
220
0
230
1
0
LINE
5
8F
100
AcDbEntity
8
1
62
256
6
ByLayer
370
18
48
1
60
0
100
AcDbLine
10
25.774508
20
-7.3875
30
0
11
34.607968
21
-7.3875
31
0
39
0
210
0
220
0
230
1
0
LINE
5
90
100
AcDbEntity
8
1
62
256
6
ByLayer
370
18
48
1
60
0
100
AcDbLine
10
34.607968
20
-10.7375
30
0
11
25.774508
21
-10.7375
31
0
39
0
210
0
220
0
230
1
0
LINE
5
91
100
AcDbEntity
8
1
62
256
6
ByLayer
370
18
48
1
60
0
100
AcDbLine
10
34.607968
20
-7.3875
30
0
11
34.607968
21
-10.7375
31
0
39
0
210
0
220
0
230
1
0
LINE
5
92
100
AcDbEntity
8
1
62
256
6
ByLayer
370
18
48
1
60
0
100
AcDbLine
10
13.973564
20
9.977752
30
0
11
2.572312
21
9.977752
31
0
39
0
210
0
220
0
230
1
0
LINE
5
93
100
AcDbEntity
8
1
62
256
6
ByLayer
370
18
48
1
60
0
100
AcDbLine
10
13.973564
20
9.977752
30
0
11
19.507968
21
3.50257
31
0
39
0
210
0
220
0
230
1
0
LINE
5
94
100
AcDbEntity
8
1
62
256
6
ByLayer
370
18
48
1
60
0
100
AcDbLine
10
2.572312
20
9.977752
30
0
11
2.572312
21
-10.7375
31
0
39
0
210
0
220
0
230
1
0
LINE
5
95
100
AcDbEntity
8
1
62
256
6
ByLayer
370
18
48
1
60
0
100
AcDbLine
10
2.572312
20
-10.7375
30
0
11
25.774508
21
-10.7375
31
0
39
0
210
0
220
0
230
1
0
LINE
5
96
100
AcDbEntity
8
1
62
256
6
ByLayer
370
18
48
1
60
0
100
AcDbLine
10
25.774508
20
-10.7375
30
0
11
25.774508
21
-7.3875
31
0
39
0
210
0
220
0
230
1
0
LINE
5
97
100
AcDbEntity
8
1
62
256
6
ByLayer
370
18
48
1
60
0
100
AcDbLine
10
21.107968
20
-7.3875
30
0
11
25.774508
21
-7.3875
31
0
39
0
210
0
220
0
230
1
0
LINE
5
98
100
AcDbEntity
8
1
62
256
6
ByLayer
370
18
48
1
60
0
100
AcDbLine
10
19.507968
20
3.50257
30
0
11
19.507968
21
-5.7875
31
0
39
0
210
0
220
0
230
1
0
LINE
5
99
100
AcDbEntity
8
SK1
62
256
6
ByLayer
370
18
48
1
60
0
100
AcDbLine
10
-4.455467
20
9.9375
30
0
11
-78.892032
21
9.9375
31
0
39
0
210
0
220
0
230
1
0
LINE
5
9B
100
AcDbEntity
8
SK1
62
256
6
ByLayer
370
18
48
1
60
0
100
AcDbLine
10
-78.892032
20
-9.9375
30
0
11
-78.892032
21
9.9375
31
0
39
0
210
0
220
0
230
1
0
LINE
5
9C
100
AcDbEntity
8
SK1
62
256
6
ByLayer
370
18
48
1
60
0
100
AcDbLine
10
-4.455467
20
-9.9375
30
0
11
-78.892032
21
-9.9375
31
0
39
0
210
0
220
0
230
1
0
LINE
5
9D
100
AcDbEntity
8
SK1
62
256
6
ByLayer
370
18
48
1
60
0
100
AcDbLine
10
0
20
9.939338
30
0
11
0
21
-10.51149
31
0
39
0
210
0
220
0
230
1
0
LINE
5
9E
100
AcDbEntity
8
SK1
62
256
6
ByLayer
370
18
48
1
60
0
100
AcDbLine
10
-4.455467
20
9.9375
30
0
11
-4.455467
21
-9.9375
31
0
39
0
210
0
220
0
230
1
0
LINE
5
9F
100
AcDbEntity
8
SK1
62
256
6
ByLayer
370
18
48
1
60
0
100
AcDbLine
10
-1.227723
20
-9.9375
30
0
11
-4.455467
21
-9.9375
31
0
39
0
210
0
220
0
230
1
0
LINE
5
A0
100
AcDbEntity
8
1
62
256
6
ByLayer
370
18
48
1
60
0
100
AcDbLine
10
39.737968
20
-7.4625
30
0
11
41.694457
21
-7.4625
31
0
39
0
210
0
220
0
230
1
0
LINE
5
A1
100
AcDbEntity
8
1
62
256
6
ByLayer
370
18
48
1
60
0
100
AcDbLine
10
39.737968
20
-10.6625
30
0
11
41.694457
21
-10.6625
31
0
39
0
210
0
220
0
230
1
0
LINE
5
A2
100
AcDbEntity
8
1
62
256
6
ByLayer
370
18
48
1
60
0
100
AcDbLine
10
46.107968
20
-10.7625
30
0
11
46.107968
21
-7.3625
31
0
39
0
210
0
220
0
230
1
0
LINE
5
A3
100
AcDbEntity
8
1
62
256
6
ByLayer
370
18
48
1
60
0
100
AcDbLine
10
45.794882
20
-7.062786
30
0
11
42.107968
21
-7.22376
31
0
39
0
210
0
220
0
230
1
0
LINE
5
A4
100
AcDbEntity
8
1
62
256
6
ByLayer
370
18
48
1
60
0
100
AcDbLine
10
42.107968
20
-10.90124
30
0
11
41.694457
21
-10.6625
31
0
39
0
210
0
220
0
230
1
0
LINE
5
A5
100
AcDbEntity
8
1
62
256
6
ByLayer
370
18
48
1
60
0
100
AcDbLine
10
45.794882
20
-11.062214
30
0
11
42.107968
21
-10.90124
31
0
39
0
210
0
220
0
230
1
0
LINE
5
A6
100
AcDbEntity
8
1
62
256
6
ByLayer
370
18
48
1
60
0
100
AcDbLine
10
42.107968
20
-7.22376
30
0
11
41.694457
21
-7.4625
31
0
39
0
210
0
220
0
230
1
0
LINE
5
A7
100
AcDbEntity
8
1
62
256
6
ByLayer
370
18
48
1
60
0
100
AcDbLine
10
25.107968
20
-7.22376
30
0
11
25.391571
21
-7.387498
31
0
39
0
210
0
220
0
230
1
0
LINE
5
A8
100
AcDbEntity
8
1
62
256
6
ByLayer
370
18
48
1
60
0
100
AcDbLine
10
21.421053
20
-11.062214
30
0
11
25.107968
21
-10.90124
31
0
39
0
210
0
220
0
230
1
0
LINE
5
A9
100
AcDbEntity
8
1
62
256
6
ByLayer
370
18
48
1
60
0
100
AcDbLine
10
21.421053
20
-7.062786
30
0
11
25.107968
21
-7.22376
31
0
39
0
210
0
220
0
230
1
0
LINE
5
AA
100
AcDbEntity
8
1
62
256
6
ByLayer
370
18
48
1
60
0
100
AcDbLine
10
21.107968
20
-10.7625
30
0
11
21.107968
21
-10.737478
31
0
39
0
210
0
220
0
230
1
0
LINE
5
AB
100
AcDbEntity
8
1
62
256
6
ByLayer
370
18
48
1
60
0
100
AcDbLine
10
21.107968
20
-7.387522
30
0
11
21.107968
21
-7.3625
31
0
39
0
210
0
220
0
230
1
0
LINE
5
AC
100
AcDbEntity
8
1
62
256
6
ByLayer
370
18
48
1
60
0
100
AcDbLine
10
25.107968
20
-10.90124
30
0
11
25.391571
21
-10.737502
31
0
39
0
210
0
220
0
230
1
0
LINE
5
AD
100
AcDbEntity
8
1
62
256
6
ByLayer
370
13
48
1
60
0
100
AcDbLine
10
38.107967
20
-9.0425
30
0
11
39.045829
21
-9.0425
31
0
39
0
210
0
220
0
230
1
0
LINE
5
AE
100
AcDbEntity
8
1
62
256
6
ByLayer
370
13
48
1
60
0
100
AcDbLine
10
38.107967
20
-9.0825
30
0
11
39.045829
21
-9.0825
31
0
39
0
210
0
220
0
230
1
0
LINE
5
AF
100
AcDbEntity
8
1
62
256
6
ByLayer
370
13
48
1
60
0
100
AcDbLine
10
38.107885
20
-9.273236
30
0
11
39.036914
21
-9.273236
31
0
39
0
210
0
220
0
230
1
0
LINE
5
B0
100
AcDbEntity
8
1
62
256
6
ByLayer
370
13
48
1
60
0
100
AcDbLine
10
38.107885
20
-8.851764
30
0
11
39.036914
21
-8.851764
31
0
39
0
210
0
220
0
230
1
0
LINE
5
B1
100
AcDbEntity
8
1
62
256
6
ByLayer
370
13
48
1
60
0
100
AcDbLine
10
37.999449
20
-8.634767
30
0
11
38.856913
21
-8.634767
31
0
39
0
210
0
220
0
230
1
0
LINE
5
B2
100
AcDbEntity
8
1
62
256
6
ByLayer
370
13
48
1
60
0
100
AcDbLine
10
37.999449
20
-9.490233
30
0
11
38.856913
21
-9.490233
31
0
39
0
210
0
220
0
230
1
0
LINE
5
B3
100
AcDbEntity
8
1
62
256
6
ByLayer
370
13
48
1
60
0
100
AcDbLine
10
38.698086
20
-9.545585
30
0
11
37.869828
21
-9.545585
31
0
39
0
210
0
220
0
230
1
0
LINE
5
B4
100
AcDbEntity
8
1
62
256
6
ByLayer
370
13
48
1
60
0
100
AcDbLine
10
38.698086
20
-8.579415
30
0
11
37.869828
21
-8.579415
31
0
39
0
210
0
220
0
230
1
0
LINE
5
B5
100
AcDbEntity
8
1
62
256
6
ByLayer
370
13
48
1
60
0
100
AcDbLine
10
37.827948
20
-8.548612
30
0
11
38.65749
21
-8.548612
31
0
39
0
210
0
220
0
230
1
0
LINE
5
B6
100
AcDbEntity
8
1
62
256
6
ByLayer
370
13
48
1
60
0
100
AcDbLine
10
37.827791
20
-9.576388
30
0
11
38.65749
21
-9.576388
31
0
39
0
210
0
220
0
230
1
0
LINE
5
B7
100
AcDbEntity
8
1
62
256
6
ByLayer
370
13
48
1
60
0
100
AcDbLine
10
37.813028
20
-8.456835
30
0
11
38.585659
21
-8.456835
31
0
39
0
210
0
220
0
230
1
0
LINE
5
B8
100
AcDbEntity
8
1
62
256
6
ByLayer
370
13
48
1
60
0
100
AcDbLine
10
37.811783
20
-9.668165
30
0
11
38.585659
21
-9.668165
31
0
39
0
210
0
220
0
230
1
0
LINE
5
B9
100
AcDbEntity
8
1
62
256
6
ByLayer
370
13
48
1
60
0
100
AcDbLine
10
37.805809
20
-8.412566
30
0
11
38.565926
21
-8.412566
31
0
39
0
210
0
220
0
230
1
0
LINE
5
BA
100
AcDbEntity
8
1
62
256
6
ByLayer
370
13
48
1
60
0
100
AcDbLine
10
37.804105
20
-9.712434
30
0
11
38.565926
21
-9.712434
31
0
39
0
210
0
220
0
230
1
0
LINE
5
BB
100
AcDbEntity
8
1
62
256
6
ByLayer
370
13
48
1
60
0
100
AcDbLine
10
37.687014
20
-7.721116
30
0
11
38.444005
21
-7.721116
31
0
39
0
210
0
220
0
230
1
0
LINE
5
BC
100
AcDbEntity
8
1
62
256
6
ByLayer
370
18
48
1
60
0
100
AcDbLine
10
37.638898
20
-10.6625
30
0
11
38.442486
21
-10.6625
31
0
39
0
210
0
220
0
230
1
0
LINE
5
BD
100
AcDbEntity
8
1
62
256
6
ByLayer
370
13
48
1
60
0
100
AcDbLine
10
37.680747
20
-10.421249
30
0
11
38.442486
21
-10.421249
31
0
39
0
210
0
220
0
230
1
0
LINE
5
BE
100
AcDbEntity
8
1
62
256
6
ByLayer
370
13
48
1
60
0
100
AcDbLine
10
37.68384
20
-10.403884
30
0
11
38.444005
21
-10.403884
31
0
39
0
210
0
220
0
230
1
0
LINE
5
BF
100
AcDbEntity
8
1
62
256
6
ByLayer
370
13
48
1
60
0
100
AcDbLine
10
37.683769
20
-7.703751
30
0
11
38.442486
21
-7.703751
31
0
39
0
210
0
220
0
230
1
0
LINE
5
C0
100
AcDbEntity
8
1
62
256
6
ByLayer
370
18
48
1
60
0
100
AcDbLine
10
37.639805
20
-7.4625
30
0
11
38.442486
21
-7.4625
31
0
39
0
210
0
220
0
230
1
0
LINE
5
C1
100
AcDbEntity
8
1
62
256
6
ByLayer
370
18
48
1
60
0
100
AcDbLine
10
39.737968
20
-7.4625
30
0
11
38.442486
21
-7.4625
31
0
39
0
210
0
220
0
230
1
0
LINE
5
C2
100
AcDbEntity
8
1
62
256
6
ByLayer
370
18
48
1
60
0
100
AcDbLine
10
38.442486
20
-7.4625
30
0
11
38.442486
21
-7.703751
31
0
39
0
210
0
220
0
230
1
0
LINE
5
C3
100
AcDbEntity
8
1
62
256
6
ByLayer
370
18
48
1
60
0
100
AcDbLine
10
38.444005
20
-7.721116
30
0
11
38.565926
21
-8.412566
31
0
39
0
210
0
220
0
230
1
0
LINE
5
C4
100
AcDbEntity
8
1
62
256
6
ByLayer
370
18
48
1
60
0
100
AcDbLine
10
38.585659
20
-8.456835
30
0
11
38.65749
21
-8.548612
31
0
39
0
210
0
220
0
230
1
0
LINE
5
C5
100
AcDbEntity
8
1
62
256
6
ByLayer
370
18
48
1
60
0
100
AcDbLine
10
39.045829
20
-9.0825
30
0
11
39.045829
21
-9.0425
31
0
39
0
210
0
220
0
230
1
0
LINE
5
C6
100
AcDbEntity
8
1
62
256
6
ByLayer
370
18
48
1
60
0
100
AcDbLine
10
38.585659
20
-9.668165
30
0
11
38.65749
21
-9.576388
31
0
39
0
210
0
220
0
230
1
0
LINE
5
C7
100
AcDbEntity
8
1
62
256
6
ByLayer
370
18
48
1
60
0
100
AcDbLine
10
38.444005
20
-10.403884
30
0
11
38.565926
21
-9.712434
31
0
39
0
210
0
220
0
230
1
0
LINE
5
C8
100
AcDbEntity
8
1
62
256
6
ByLayer
370
18
48
1
60
0
100
AcDbLine
10
38.442486
20
-10.6625
30
0
11
38.442486
21
-10.421249
31
0
39
0
210
0
220
0
230
1
0
LINE
5
C9
100
AcDbEntity
8
1
62
256
6
ByLayer
370
18
48
1
60
0
100
AcDbLine
10
39.737968
20
-10.6625
30
0
11
38.442486
21
-10.6625
31
0
39
0
210
0
220
0
230
1
0
LINE
5
CA
100
AcDbEntity
8
1
62
256
6
ByLayer
370
18
48
1
60
0
100
AcDbLine
10
39.737968
20
-10.6625
30
0
11
39.737968
21
-7.4625
31
0
39
0
210
0
220
0
230
1
0
MTEXT
5
113
100
AcDbEntity
8
SK6
62
256
6
ByLayer
370
18
48
1
60
0
100
AcDbMText
10
-48.706532
20
-54.759741
30
0
210
0
220
0
230
1
1
\W0.7737;C2R-RS20-LH25DB
40
3.5
41
0
44
1.084337
50
0
71
7
72
5
7
iso_b_vert
0
DIMENSION
5
118
100
AcDbEntity
8
2
62
256
6
ByLayer
370
18
48
1
60
0
100
AcDbDimension
2
_U0
10
79.207968
20
9.9375
30
0
11
79.207968
21
-0.5625
31
0
70
32
71
1
72
1
41
1
210
0
220
0
230
1
3
Standard
100
AcDbAlignedDimension
13
46.107968
23
-11.0625
33
0
14
-78.892032
24
9.9375
34
0
50
90
100
AcDbRotatedDimension
1001
ACAD
1000
DSTYLE
1002
{
1070
   371
1070
    13
1070
   372
1070
    13
1070
   170
1070
     0
1070
   144
1040
1.0
1070
   277
1070
     2
1070
   284
1070
     8
1070
   278
1070
    46
1070
   146
1040
1.0
1070
   345
1005
16
1070
   347
1005
16
1070
   346
1005
16
1070
   344
1005
0
1070
   343
1005
0
1070
   172
1070
     1
1070
    76
1070
     0
1070
    75
1070
     0
1070
   282
1070
     0
1070
   281
1070
     0
1070
    71
1070
     0
1070
    74
1070
     0
1070
   279
1070
     0
1070
   173
1070
     1
1070
   340
1005
114
1070
   271
1070
     2
1070
   272
1070
     2
1070
    77
1070
     1
1070
    73
1070
     0
1070
   171
1070
     3
1070
   274
1070
     4
1070
   177
1070
     2
1070
   176
1070
     2
1070
   178
1070
     2
1070
    78
1070
     8
1070
    48
1040
-0.1
1070
    41
1040
3.5
1070
   147
1040
1.75
1070
    42
1040
1.5875
1070
    44
1040
2.0
1070
   140
1040
3.5
1002
}
1001
ACAD_DSTYLE_DIM_LINETYPE
1070
   380
1005
16
1001
ACAD_DSTYLE_DIM_EXT1_LINETYPE
1070
   381
1005
16
1001
ACAD_DSTYLE_DIM_EXT2_LINETYPE
1070
   382
1005
16
0
DIMENSION
5
132
100
AcDbEntity
8
2
62
256
6
ByLayer
370
18
48
1
60
0
100
AcDbDimension
2
_U1
10
67.207968
20
-11.0625
30
0
11
67.207968
21
-9.0625
31
0
70
32
71
1
72
1
41
1
210
0
220
0
230
1
3
Standard
100
AcDbAlignedDimension
13
46.107968
23
-7.0625
33
0
14
46.107968
24
-11.0625
34
0
50
90
100
AcDbRotatedDimension
1001
ACAD
1000
DSTYLE
1002
{
1070
   371
1070
    13
1070
   372
1070
    13
1070
   170
1070
     0
1070
   144
1040
1.0
1070
   277
1070
     2
1070
   284
1070
     8
1070
   278
1070
    46
1070
   146
1040
1.0
1070
   345
1005
16
1070
   347
1005
16
1070
   346
1005
16
1070
   344
1005
0
1070
   343
1005
0
1070
   172
1070
     1
1070
    76
1070
     0
1070
    75
1070
     0
1070
   282
1070
     0
1070
   281
1070
     0
1070
    71
1070
     0
1070
    74
1070
     0
1070
   279
1070
     0
1070
   173
1070
     1
1070
   340
1005
114
1070
   271
1070
     2
1070
   272
1070
     2
1070
    77
1070
     1
1070
    73
1070
     0
1070
   171
1070
     3
1070
   274
1070
     4
1070
   177
1070
     2
1070
   176
1070
     2
1070
   178
1070
     2
1070
    78
1070
     8
1070
    48
1040
-0.1
1070
    41
1040
3.5
1070
   147
1040
1.75
1070
    42
1040
1.5875
1070
    44
1040
2.0
1070
   140
1040
3.5
1002
}
1001
ACAD_DSTYLE_DIM_LINETYPE
1070
   380
1005
16
1001
ACAD_DSTYLE_DIM_EXT1_LINETYPE
1070
   381
1005
16
1001
ACAD_DSTYLE_DIM_EXT2_LINETYPE
1070
   382
1005
16
0
DIMENSION
5
14B
100
AcDbEntity
8
SK2
62
256
6
ByLayer
370
18
48
1
60
0
100
AcDbDimension
2
_U2
10
-90.492032
20
-10.0625
30
0
11
-90.492032
21
-0.0625
31
0
70
32
71
1
72
1
41
1
210
0
220
0
230
1
3
Standard
100
AcDbAlignedDimension
13
-78.892032
23
9.9375
33
0
14
-78.892032
24
-10.0625
34
0
50
90
100
AcDbRotatedDimension
1001
ACAD
1000
DSTYLE
1002
{
1070
   371
1070
    13
1070
   372
1070
    13
1070
   170
1070
     0
1070
   144
1040
1.0
1070
   277
1070
     2
1070
   284
1070
     8
1070
   278
1070
    46
1070
   146
1040
1.0
1070
   345
1005
16
1070
   347
1005
16
1070
   346
1005
16
1070
   344
1005
0
1070
   343
1005
0
1070
   172
1070
     1
1070
    76
1070
     0
1070
    75
1070
     0
1070
   282
1070
     0
1070
   281
1070
     0
1070
    71
1070
     0
1070
    74
1070
     0
1070
   279
1070
     0
1070
   173
1070
     1
1070
   340
1005
114
1070
   271
1070
     2
1070
   272
1070
     2
1070
    77
1070
     1
1070
    73
1070
     0
1070
   171
1070
     3
1070
   274
1070
     4
1070
   177
1070
     2
1070
   176
1070
     2
1070
   178
1070
     2
1070
    78
1070
     8
1070
    48
1040
-0.1
1070
    41
1040
3.5
1070
   147
1040
1.75
1070
    42
1040
1.5875
1070
    44
1040
2.0
1070
   140
1040
3.5
1002
}
1001
ACAD_DSTYLE_DIM_LINETYPE
1070
   380
1005
16
1001
ACAD_DSTYLE_DIM_EXT1_LINETYPE
1070
   381
1005
16
1001
ACAD_DSTYLE_DIM_EXT2_LINETYPE
1070
   382
1005
16
0
DIMENSION
5
164
100
AcDbEntity
8
2
62
256
6
ByLayer
370
18
48
1
60
0
100
AcDbDimension
2
_U3
10
46.107968
20
16.1875
30
0
11
33.607968
21
16.1875
31
0
70
32
71
1
72
1
41
1
210
0
220
0
230
1
3
Standard
100
AcDbAlignedDimension
13
21.107968
23
-7.3875
33
0
14
46.107968
24
-11.0625
34
0
50
0
100
AcDbRotatedDimension
1001
ACAD
1000
DSTYLE
1002
{
1070
   371
1070
    13
1070
   372
1070
    13
1070
   170
1070
     0
1070
   144
1040
1.0
1070
   277
1070
     2
1070
   284
1070
     8
1070
   278
1070
    46
1070
   146
1040
1.0
1070
   345
1005
16
1070
   347
1005
16
1070
   346
1005
16
1070
   344
1005
0
1070
   343
1005
0
1070
   172
1070
     1
1070
    76
1070
     0
1070
    75
1070
     0
1070
   282
1070
     0
1070
   281
1070
     0
1070
    71
1070
     0
1070
    74
1070
     0
1070
   279
1070
     0
1070
   173
1070
     1
1070
   340
1005
114
1070
   271
1070
     1
1070
   272
1070
     2
1070
    77
1070
     1
1070
    73
1070
     1
1070
   171
1070
     3
1070
   274
1070
     4
1070
   177
1070
     2
1070
   176
1070
     2
1070
   178
1070
     2
1070
    78
1070
     8
1070
    48
1040
-0.1
1070
    41
1040
3.5
1070
   147
1040
1.75
1070
    42
1040
1.5875
1070
    44
1040
2.0
1070
   140
1040
3.5
1002
}
1001
ACAD_DSTYLE_DIM_LINETYPE
1070
   380
1005
16
1001
ACAD_DSTYLE_DIM_EXT1_LINETYPE
1070
   381
1005
16
1001
ACAD_DSTYLE_DIM_EXT2_LINETYPE
1070
   382
1005
16
0
DIMENSION
5
17C
100
AcDbEntity
8
SK2
62
256
6
ByLayer
370
18
48
1
60
0
100
AcDbDimension
2
_U4
10
46.107968
20
32.1875
30
0
11
-16.392032
21
32.1875
31
0
70
32
71
1
72
1
41
1
210
0
220
0
230
1
3
Standard
100
AcDbAlignedDimension
13
-78.892032
23
9.9375
33
0
14
46.107968
24
-11.0625
34
0
50
0
100
AcDbRotatedDimension
1001
ACAD
1000
DSTYLE
1002
{
1070
   371
1070
    13
1070
   372
1070
    13
1070
   170
1070
     0
1070
   144
1040
1.0
1070
   277
1070
     2
1070
   284
1070
     8
1070
   278
1070
    46
1070
   146
1040
1.0
1070
   345
1005
16
1070
   347
1005
16
1070
   346
1005
16
1070
   344
1005
0
1070
   343
1005
0
1070
   172
1070
     1
1070
    76
1070
     0
1070
    75
1070
     0
1070
   282
1070
     0
1070
   281
1070
     0
1070
    71
1070
     0
1070
    74
1070
     0
1070
   279
1070
     0
1070
   173
1070
     1
1070
   340
1005
114
1070
   271
1070
     1
1070
   272
1070
     2
1070
    77
1070
     1
1070
    73
1070
     1
1070
   171
1070
     3
1070
   274
1070
     4
1070
   177
1070
     2
1070
   176
1070
     2
1070
   178
1070
     2
1070
    78
1070
     8
1070
    48
1040
-0.1
1070
    41
1040
3.5
1070
   147
1040
1.75
1070
    42
1040
1.5875
1070
    44
1040
2.0
1070
   140
1040
3.5
1002
}
1001
ACAD_DSTYLE_DIM_LINETYPE
1070
   380
1005
16
1001
ACAD_DSTYLE_DIM_EXT1_LINETYPE
1070
   381
1005
16
1001
ACAD_DSTYLE_DIM_EXT2_LINETYPE
1070
   382
1005
16
0
ENDSEC
0
SECTION
2
OBJECTS
0
DICTIONARY
5
203
330
0
100
AcDbDictionary
280
0
281
1
3
ACAD_GROUP
350
204
3
ACAD_MLINESTYLE
350
205
0
DICTIONARY
5
204
330
0
100
AcDbDictionary
280
0
281
1
0
DICTIONARY
5
205
330
0
100
AcDbDictionary
280
0
281
1
3
Standard
350
18
0
MLINESTYLE
5
18
330
205
100
AcDbMlineStyle
2
Standard
70
0
3

62
256
51
90
52
90
71
2
49
-0.5
62
256
6
ByLayer
49
0.5
62
256
6
ByLayer
0
RASTERVARIABLES
5
1f2
330

100
AcDbRasterVariables
90
0
70
1
71
1
72
1
0
ENDSEC
0
EOF
