0
SECTION
2
HEADER
9
$ACADVER
1
AC1015
9
$DWGCODEPAGE
3
ANSI_1252
9
$HANDSEED
5
210
9
$ANGBASE
50
0
9
$ANGDIR
70
0
9
$ATTMODE
70
1
9
$AUNITS
70
0
9
$AUPREC
70
0
9
$CECOLOR
62
256
9
$CELTSCALE
40
1
9
$CELTYPE
6
ByLayer
9
$CELWEIGHT
370
18
9
$CLAYER
8
0
9
$CMLJUST
70
0
9
$CMLSCALE
40
1
9
$CMLSTYLE
2
Standard
9
$DIMSTYLE
2
Standard
9
$TEXTSIZE
40
0.2
9
$TEXTSTYLE
7
Standard
9
$LUNITS
70
2
9
$LUPREC
70
4
9
$EXTNAMES
290
1
9
$INSUNITS
70
4
9
$LTSCALE
40
1
9
$LWDISPLAY
290
1
9
$PDMODE
70
0
9
$PDSIZE
40
0
9
$PLINEGEN
70
0
0
ENDSEC
0
SECTION
2
CLASSES
0
CLASS
1
RASTERVARIABLES
2
AcDbRasterVariables
3
ISM
90
0
280
0
281
0
0
ENDSEC
0
SECTION
2
TABLES
0
TABLE
2
VPORT
5
206
100
AcDbSymbolTable
0
VPORT
5
1
100
AcDbSymbolTableRecord
100
AcDbViewportTableRecord
2
*Active
70
0
10
0
20
0
11
1
21
1
12
-1
22
1
13
0
23
0
14
0.5
24
0.5
15
10
25
10
16
0
26
0
36
1
17
0
27
0
37
0
0
ENDTAB
0
TABLE
2
LTYPE
5
207
100
AcDbSymbolTable
0
LTYPE
5
14
100
AcDbSymbolTableRecord
100
AcDbLinetypeTableRecord
70
0
2
ByBlock
3

72
65
73
0
40
0
0
LTYPE
5
15
100
AcDbSymbolTableRecord
100
AcDbLinetypeTableRecord
70
0
2
ByLayer
3

72
65
73
0
40
0
0
LTYPE
5
16
100
AcDbSymbolTableRecord
100
AcDbLinetypeTableRecord
70
0
2
Continuous
3
Solid line
72
65
73
0
40
0
0
LTYPE
5
6E
100
AcDbSymbolTableRecord
100
AcDbLinetypeTableRecord
70
0
2
CENTER
3
____ _ ____ _ ____ _ ____
72
65
73
4
40
47.5
49
22
74
0
49
-8.5
74
0
49
8.5
74
0
49
-8.5
74
0
0
LTYPE
5
6F
100
AcDbSymbolTableRecord
100
AcDbLinetypeTableRecord
70
0
2
DASHED
3
__ __ __ __ __ __ __ __ __
72
65
73
2
40
25.72
49
12.86
74
0
49
-12.86
74
0
0
ENDTAB
0
TABLE
2
LAYER
5
208
100
AcDbSymbolTable
0
LAYER
5
10
100
AcDbSymbolTableRecord
100
AcDbLayerTableRecord
2
0
70
0
62
7
6
Continuous
290
1
370
-3
390
0
0
LAYER
5
71
100
AcDbSymbolTableRecord
100
AcDbLayerTableRecord
2
81
70
0
62
-3
6
Continuous
290
1
370
-3
390
0
0
LAYER
5
73
100
AcDbSymbolTableRecord
100
AcDbLayerTableRecord
2
80
70
0
62
-6
6
Continuous
290
1
370
-3
390
0
0
LAYER
5
75
100
AcDbSymbolTableRecord
100
AcDbLayerTableRecord
2
1
70
0
62
4
6
Continuous
290
1
370
-3
390
0
0
LAYER
5
11B
100
AcDbSymbolTableRecord
100
AcDbLayerTableRecord
2
Defpoints
70
0
62
7
6
Continuous
290
0
370
-3
390
0
0
LAYER
5
128
100
AcDbSymbolTableRecord
100
AcDbLayerTableRecord
2
2
70
0
62
7
6
Continuous
290
1
370
-3
390
0
0
LAYER
5
1f3
100
AcDbSymbolTableRecord
100
AcDbLayerTableRecord
2
SK1
70
0
62
4
6
Continuous
290
1
370
-3
390
0
0
LAYER
5
1f4
100
AcDbSymbolTableRecord
100
AcDbLayerTableRecord
2
SK6
70
0
62
5
6
Continuous
290
1
370
-3
390
0
0
LAYER
5
1f5
100
AcDbSymbolTableRecord
100
AcDbLayerTableRecord
2
SK2
70
0
62
7
6
Continuous
290
1
370
-3
390
0
0
ENDTAB
0
TABLE
2
STYLE
5
209
100
AcDbSymbolTable
0
STYLE
5
11
100
AcDbSymbolTableRecord
100
AcDbTextStyleTableRecord
2
Standard
3
txt
70
0
71
0
40
0
41
1
42
0
50
0
0
STYLE
5
114
100
AcDbSymbolTableRecord
100
AcDbTextStyleTableRecord
2
iso_b_vert
3
simplex.shx
70
0
71
0
40
0
41
1
42
0
50
0
0
STYLE
5
115
100
AcDbSymbolTableRecord
100
AcDbTextStyleTableRecord
2
DWGDirectTextStyle
3
simplex
70
0
71
0
40
0
41
1
42
0
50
0
0
ENDTAB
0
TABLE
2
DIMSTYLE
5
20a
100
AcDbSymbolTable
100
AcDbDimStyleTable
0
DIMSTYLE
105
27
100
AcDbSymbolTableRecord
100
AcDbDimStyleTableRecord
2
Standard
70
0
3
<>
41
0.18
42
0.0625
44
0.18
140
0.18
147
0.09
73
0
74
0
77
1
271
2
275
0
278
52
280
0
340
11
0
ENDTAB
0
TABLE
2
VIEW
5
20b
100
AcDbSymbolTable
0
ENDTAB
0
TABLE
2
UCS
5
20c
100
AcDbSymbolTable
0
ENDTAB
0
TABLE
2
APPID
5
20d
100
AcDbSymbolTable
0
APPID
5
12
100
AcDbSymbolTableRecord
100
AcDbRegAppTableRecord
2
ACAD
70
0
0
APPID
5
117
100
AcDbSymbolTableRecord
100
AcDbRegAppTableRecord
2
ACAD_DSTYLE_DIMBREAK
70
0
0
APPID
5
1B2
100
AcDbSymbolTableRecord
100
AcDbRegAppTableRecord
2
ACAD_DSTYLE_DIM_LINETYPE
70
0
0
APPID
5
1B3
100
AcDbSymbolTableRecord
100
AcDbRegAppTableRecord
2
ACAD_DSTYLE_DIM_EXT1_LINETYPE
70
0
0
APPID
5
1B4
100
AcDbSymbolTableRecord
100
AcDbRegAppTableRecord
2
ACAD_DSTYLE_DIM_EXT2_LINETYPE
70
0
0
APPID
5
1EF
100
AcDbSymbolTableRecord
100
AcDbRegAppTableRecord
2
ACAD_MLEADERVER
70
0
0
ENDTAB
0
TABLE
2
BLOCK_RECORD
5
20e
100
AcDbSymbolTable
0
BLOCK_RECORD
5
1F
100
AcDbSymbolTableRecord
100
AcDbBlockTableRecord
2
*Model_Space
340
0
70
0
0
BLOCK_RECORD
5
1B
100
AcDbSymbolTableRecord
100
AcDbBlockTableRecord
2
*Paper_Space
340
0
70
0
0
BLOCK_RECORD
5
23
100
AcDbSymbolTableRecord
100
AcDbBlockTableRecord
2
*Paper_Space0
340
0
70
0
0
BLOCK_RECORD
5
11C
100
AcDbSymbolTableRecord
100
AcDbBlockTableRecord
2
*D1
340
0
70
0
0
BLOCK_RECORD
5
129
100
AcDbSymbolTableRecord
100
AcDbBlockTableRecord
2
_U0
340
0
70
0
0
BLOCK_RECORD
5
135
100
AcDbSymbolTableRecord
100
AcDbBlockTableRecord
2
*D3
340
0
70
0
0
BLOCK_RECORD
5
142
100
AcDbSymbolTableRecord
100
AcDbBlockTableRecord
2
_U1
340
0
70
0
0
BLOCK_RECORD
5
14E
100
AcDbSymbolTableRecord
100
AcDbBlockTableRecord
2
*D5
340
0
70
0
0
BLOCK_RECORD
5
15B
100
AcDbSymbolTableRecord
100
AcDbBlockTableRecord
2
_U2
340
0
70
0
0
BLOCK_RECORD
5
167
100
AcDbSymbolTableRecord
100
AcDbBlockTableRecord
2
*D7
340
0
70
0
0
BLOCK_RECORD
5
173
100
AcDbSymbolTableRecord
100
AcDbBlockTableRecord
2
_U3
340
0
70
0
0
BLOCK_RECORD
5
17F
100
AcDbSymbolTableRecord
100
AcDbBlockTableRecord
2
*D9
340
0
70
0
0
BLOCK_RECORD
5
18B
100
AcDbSymbolTableRecord
100
AcDbBlockTableRecord
2
_U4
340
0
70
0
0
ENDTAB
0
ENDSEC
0
SECTION
2
BLOCKS
0
BLOCK
5
20
100
AcDbEntity
8
0
100
AcDbBlockBegin
2
*Model_Space
70
0
10
0
20
0
30
0
3
*Model_Space
0
ENDBLK
5
21
100
AcDbEntity
8
0
100
AcDbBlockEnd
0
BLOCK
5
1C
100
AcDbEntity
8
0
100
AcDbBlockBegin
2
*Paper_Space
70
0
10
0
20
0
30
0
3
*Paper_Space
0
ENDBLK
5
1D
100
AcDbEntity
8
0
100
AcDbBlockEnd
0
BLOCK
5
24
100
AcDbEntity
8
0
100
AcDbBlockBegin
2
*Paper_Space0
70
0
10
0
20
0
30
0
3
*Paper_Space0
0
ENDBLK
5
25
100
AcDbEntity
8
0
100
AcDbBlockEnd
0
BLOCK
5
11D
100
AcDbEntity
8
0
100
AcDbBlockBegin
2
*D1
70
1
10
0
20
0
30
0
3
*D1
0
LINE
5
11F
100
AcDbEntity
8
0
62
256
6
ByLayer
370
-2
48
1
60
0
100
AcDbLine
10
47.695468
20
-17.075
30
0
11
81.207968
21
-17.075
31
0
39
0
210
0
220
0
230
1
0
LINE
5
120
100
AcDbEntity
8
0
62
256
6
ByLayer
370
-2
48
1
60
0
100
AcDbLine
10
-122.304532
20
15.925
30
0
11
81.207968
21
15.925
31
0
39
0
210
0
220
0
230
1
0
LINE
5
121
100
AcDbEntity
8
0
62
256
6
ByLayer
370
-2
48
1
60
0
100
AcDbLine
10
79.207968
20
-13.575
30
0
11
79.207968
21
12.425
31
0
39
0
210
0
220
0
230
1
0
SOLID
5
122
100
AcDbEntity
8
0
62
256
6
ByLayer
370
-1
48
1
60
0
100
AcDbTrace
10
78.624634
20
-13.575
30
0
11
79.791301
21
-13.575
31
0
12
79.207968
22
-17.075
32
0
13
79.207968
23
-17.075
33
0
39
0
210
0
220
0
230
1
0
SOLID
5
123
100
AcDbEntity
8
0
62
256
6
ByLayer
370
-1
48
1
60
0
100
AcDbTrace
10
79.791301
20
12.425
30
0
11
78.624634
21
12.425
31
0
12
79.207968
22
15.925
32
0
13
79.207968
23
15.925
33
0
39
0
210
0
220
0
230
1
0
MTEXT
5
124
100
AcDbEntity
8
0
62
256
6
ByLayer
370
18
48
1
60
0
100
AcDbMText
10
72.207968
20
-0.575
30
0
210
0
220
0
230
1
1
\A1;33
40
3.5
41
0
44
1
50
90
71
5
72
5
7
iso_b_vert
0
POINT
5
125
100
AcDbEntity
8
Defpoints
62
0
6
ByLayer
370
-1
48
1
60
0
100
AcDbPoint
10
46.107968
20
-17.075
30
0
39
0
210
0
220
0
230
1
50
360
0
POINT
5
126
100
AcDbEntity
8
Defpoints
62
0
6
ByLayer
370
-1
48
1
60
0
100
AcDbPoint
10
-123.892032
20
15.925
30
0
39
0
210
0
220
0
230
1
50
360
0
POINT
5
127
100
AcDbEntity
8
Defpoints
62
0
6
ByLayer
370
-1
48
1
60
0
100
AcDbPoint
10
79.207968
20
15.925
30
0
39
0
210
0
220
0
230
1
50
360
0
ENDBLK
5
11E
100
AcDbEntity
8
0
100
AcDbBlockEnd
0
BLOCK
5
130
100
AcDbEntity
8
0
100
AcDbBlockBegin
2
_U0
70
0
10
0
20
0
30
0
3
_U0
0
MTEXT
5
12A
100
AcDbEntity
8
2
62
256
6
ByLayer
370
18
48
1
60
0
100
AcDbMText
10
78.518334
20
-2.507966
30
0
210
0
220
0
230
1
1
\W0.6740;33
40
3.5
41
0
44
1.084337
50
90
71
7
72
5
7
iso_b_vert
0
LINE
5
12B
100
AcDbEntity
8
2
62
256
6
ByLayer
370
13
48
1
60
0
100
AcDbLine
10
47.695468
20
-17.075
30
0
11
81.207968
21
-17.075
31
0
39
0
210
0
220
0
230
1
0
LINE
5
12C
100
AcDbEntity
8
2
62
256
6
ByLayer
370
13
48
1
60
0
100
AcDbLine
10
-122.304532
20
15.925
30
0
11
81.207968
21
15.925
31
0
39
0
210
0
220
0
230
1
0
LINE
5
12D
100
AcDbEntity
8
2
62
256
6
ByLayer
370
13
48
1
60
0
100
AcDbLine
10
79.207968
20
-17.075
30
0
11
79.207968
21
15.925
31
0
39
0
210
0
220
0
230
1
0
SOLID
5
12E
100
AcDbEntity
8
2
62
256
6
ByLayer
370
18
48
1
60
0
100
AcDbTrace
10
79.207968
20
-17.075
30
0
11
78.747184
21
-13.575002
31
0
12
79.668751
22
-13.574998
32
0
13
79.668751
23
-13.574998
33
0
39
0
210
0
220
0
230
1
0
SOLID
5
12F
100
AcDbEntity
8
2
62
256
6
ByLayer
370
18
48
1
60
0
100
AcDbTrace
10
79.207968
20
15.925
30
0
11
79.668751
21
12.425002
31
0
12
78.747184
22
12.424998
32
0
13
78.747184
23
12.424998
33
0
39
0
210
0
220
0
230
1
0
ENDBLK
5
131
100
AcDbEntity
8
0
100
AcDbBlockEnd
0
BLOCK
5
136
100
AcDbEntity
8
0
100
AcDbBlockBegin
2
*D3
70
1
10
0
20
0
30
0
3
*D3
0
LINE
5
138
100
AcDbEntity
8
0
62
256
6
ByLayer
370
-2
48
1
60
0
100
AcDbLine
10
47.695468
20
-13.075
30
0
11
69.207968
21
-13.075
31
0
39
0
210
0
220
0
230
1
0
LINE
5
139
100
AcDbEntity
8
0
62
256
6
ByLayer
370
-2
48
1
60
0
100
AcDbLine
10
47.695468
20
-17.075
30
0
11
69.207968
21
-17.075
31
0
39
0
210
0
220
0
230
1
0
LINE
5
13A
100
AcDbEntity
8
0
62
256
6
ByLayer
370
-2
48
1
60
0
100
AcDbLine
10
67.207968
20
-9.575
30
0
11
67.207968
21
-6.075
31
0
39
0
210
0
220
0
230
1
0
LINE
5
13B
100
AcDbEntity
8
0
62
256
6
ByLayer
370
-2
48
1
60
0
100
AcDbLine
10
67.207968
20
-20.575
30
0
11
67.207968
21
-24.075
31
0
39
0
210
0
220
0
230
1
0
SOLID
5
13C
100
AcDbEntity
8
0
62
256
6
ByLayer
370
-1
48
1
60
0
100
AcDbTrace
10
66.624634
20
-9.575
30
0
11
67.791301
21
-9.575
31
0
12
67.207968
22
-13.075
32
0
13
67.207968
23
-13.075
33
0
39
0
210
0
220
0
230
1
0
SOLID
5
13D
100
AcDbEntity
8
0
62
256
6
ByLayer
370
-1
48
1
60
0
100
AcDbTrace
10
67.791301
20
-20.575
30
0
11
66.624634
21
-20.575
31
0
12
67.207968
22
-17.075
32
0
13
67.207968
23
-17.075
33
0
39
0
210
0
220
0
230
1
0
MTEXT
5
13E
100
AcDbEntity
8
0
62
256
6
ByLayer
370
18
48
1
60
0
100
AcDbMText
10
60.207968
20
-15.075
30
0
210
0
220
0
230
1
1
\A1;4
40
3.5
41
0
44
1
50
90
71
5
72
5
7
iso_b_vert
0
POINT
5
13F
100
AcDbEntity
8
Defpoints
62
0
6
ByLayer
370
-1
48
1
60
0
100
AcDbPoint
10
46.107968
20
-13.075
30
0
39
0
210
0
220
0
230
1
50
360
0
POINT
5
140
100
AcDbEntity
8
Defpoints
62
0
6
ByLayer
370
-1
48
1
60
0
100
AcDbPoint
10
46.107968
20
-17.075
30
0
39
0
210
0
220
0
230
1
50
360
0
POINT
5
141
100
AcDbEntity
8
Defpoints
62
0
6
ByLayer
370
-1
48
1
60
0
100
AcDbPoint
10
67.207968
20
-17.075
30
0
39
0
210
0
220
0
230
1
50
360
0
ENDBLK
5
137
100
AcDbEntity
8
0
100
AcDbBlockEnd
0
BLOCK
5
149
100
AcDbEntity
8
0
100
AcDbBlockBegin
2
_U1
70
0
10
0
20
0
30
0
3
_U1
0
MTEXT
5
143
100
AcDbEntity
8
2
62
256
6
ByLayer
370
18
48
1
60
0
100
AcDbMText
10
66.518334
20
-15.8845
30
0
210
0
220
0
230
1
1
\W0.6380;4
40
3.5
41
0
44
1.084337
50
90
71
7
72
5
7
iso_b_vert
0
LINE
5
144
100
AcDbEntity
8
2
62
256
6
ByLayer
370
13
48
1
60
0
100
AcDbLine
10
47.695468
20
-13.075
30
0
11
69.207968
21
-13.075
31
0
39
0
210
0
220
0
230
1
0
LINE
5
145
100
AcDbEntity
8
2
62
256
6
ByLayer
370
13
48
1
60
0
100
AcDbLine
10
47.695468
20
-17.075
30
0
11
69.207968
21
-17.075
31
0
39
0
210
0
220
0
230
1
0
LINE
5
146
100
AcDbEntity
8
2
62
256
6
ByLayer
370
13
48
1
60
0
100
AcDbLine
10
67.207968
20
-4.325
30
0
11
67.207968
21
-25.825
31
0
39
0
210
0
220
0
230
1
0
SOLID
5
147
100
AcDbEntity
8
2
62
256
6
ByLayer
370
18
48
1
60
0
100
AcDbTrace
10
67.207968
20
-13.075
30
0
11
66.747184
21
-9.575002
31
0
12
67.668751
22
-9.574998
32
0
13
67.668751
23
-9.574998
33
0
39
0
210
0
220
0
230
1
0
SOLID
5
148
100
AcDbEntity
8
2
62
256
6
ByLayer
370
18
48
1
60
0
100
AcDbTrace
10
67.207968
20
-17.075
30
0
11
67.668751
21
-20.574998
31
0
12
66.747184
22
-20.575002
32
0
13
66.747184
23
-20.575002
33
0
39
0
210
0
220
0
230
1
0
ENDBLK
5
14A
100
AcDbEntity
8
0
100
AcDbBlockEnd
0
BLOCK
5
14F
100
AcDbEntity
8
0
100
AcDbBlockBegin
2
*D5
70
1
10
0
20
0
30
0
3
*D5
0
LINE
5
151
100
AcDbEntity
8
0
62
256
6
ByLayer
370
-2
48
1
60
0
100
AcDbLine
10
-125.479532
20
15.925
30
0
11
-137.492032
21
15.925
31
0
39
0
210
0
220
0
230
1
0
LINE
5
152
100
AcDbEntity
8
0
62
256
6
ByLayer
370
-2
48
1
60
0
100
AcDbLine
10
-125.479532
20
-16.075
30
0
11
-137.492032
21
-16.075
31
0
39
0
210
0
220
0
230
1
0
LINE
5
153
100
AcDbEntity
8
0
62
256
6
ByLayer
370
-2
48
1
60
0
100
AcDbLine
10
-135.492032
20
12.425
30
0
11
-135.492032
21
-12.575
31
0
39
0
210
0
220
0
230
1
0
SOLID
5
154
100
AcDbEntity
8
0
62
256
6
ByLayer
370
-1
48
1
60
0
100
AcDbTrace
10
-134.908699
20
12.425
30
0
11
-136.075366
21
12.425
31
0
12
-135.492032
22
15.925
32
0
13
-135.492032
23
15.925
33
0
39
0
210
0
220
0
230
1
0
SOLID
5
155
100
AcDbEntity
8
0
62
256
6
ByLayer
370
-1
48
1
60
0
100
AcDbTrace
10
-136.075366
20
-12.575
30
0
11
-134.908699
21
-12.575
31
0
12
-135.492032
22
-16.075
32
0
13
-135.492032
23
-16.075
33
0
39
0
210
0
220
0
230
1
0
MTEXT
5
156
100
AcDbEntity
8
0
62
256
6
ByLayer
370
18
48
1
60
0
100
AcDbMText
10
-142.492032
20
-0.075
30
0
210
0
220
0
230
1
1
\A1;32
40
3.5
41
0
44
1
50
90
71
5
72
5
7
iso_b_vert
0
POINT
5
157
100
AcDbEntity
8
Defpoints
62
0
6
ByLayer
370
-1
48
1
60
0
100
AcDbPoint
10
-123.892032
20
15.925
30
0
39
0
210
0
220
0
230
1
50
360
0
POINT
5
158
100
AcDbEntity
8
Defpoints
62
0
6
ByLayer
370
-1
48
1
60
0
100
AcDbPoint
10
-123.892032
20
-16.075
30
0
39
0
210
0
220
0
230
1
50
360
0
POINT
5
159
100
AcDbEntity
8
Defpoints
62
0
6
ByLayer
370
-1
48
1
60
0
100
AcDbPoint
10
-135.492032
20
-16.075
30
0
39
0
210
0
220
0
230
1
50
360
0
ENDBLK
5
150
100
AcDbEntity
8
0
100
AcDbBlockEnd
0
BLOCK
5
162
100
AcDbEntity
8
0
100
AcDbBlockBegin
2
_U2
70
0
10
0
20
0
30
0
3
_U2
0
MTEXT
5
15C
100
AcDbEntity
8
SK2
62
256
6
ByLayer
370
18
48
1
60
0
100
AcDbMText
10
-136.181666
20
-2.007966
30
0
210
0
220
0
230
1
1
\W0.6740;32
40
3.5
41
0
44
1.084337
50
90
71
7
72
5
7
iso_b_vert
0
LINE
5
15D
100
AcDbEntity
8
SK2
62
256
6
ByLayer
370
13
48
1
60
0
100
AcDbLine
10
-125.479532
20
15.925
30
0
11
-137.492032
21
15.925
31
0
39
0
210
0
220
0
230
1
0
LINE
5
15E
100
AcDbEntity
8
SK2
62
256
6
ByLayer
370
13
48
1
60
0
100
AcDbLine
10
-125.479532
20
-16.075
30
0
11
-137.492032
21
-16.075
31
0
39
0
210
0
220
0
230
1
0
LINE
5
15F
100
AcDbEntity
8
SK2
62
256
6
ByLayer
370
13
48
1
60
0
100
AcDbLine
10
-135.492032
20
15.925
30
0
11
-135.492032
21
-16.075
31
0
39
0
210
0
220
0
230
1
0
SOLID
5
160
100
AcDbEntity
8
SK2
62
256
6
ByLayer
370
18
48
1
60
0
100
AcDbTrace
10
-135.492032
20
15.925
30
0
11
-135.031249
21
12.425002
31
0
12
-135.952816
22
12.424998
32
0
13
-135.952816
23
12.424998
33
0
39
0
210
0
220
0
230
1
0
SOLID
5
161
100
AcDbEntity
8
SK2
62
256
6
ByLayer
370
18
48
1
60
0
100
AcDbTrace
10
-135.492032
20
-16.075
30
0
11
-135.952816
21
-12.575002
31
0
12
-135.031249
22
-12.574998
32
0
13
-135.031249
23
-12.574998
33
0
39
0
210
0
220
0
230
1
0
ENDBLK
5
163
100
AcDbEntity
8
0
100
AcDbBlockEnd
0
BLOCK
5
168
100
AcDbEntity
8
0
100
AcDbBlockBegin
2
*D7
70
1
10
0
20
0
30
0
3
*D7
0
LINE
5
16A
100
AcDbEntity
8
0
62
256
6
ByLayer
370
-2
48
1
60
0
100
AcDbLine
10
21.107968
20
-11.8125
30
0
11
21.107968
21
24.175
31
0
39
0
210
0
220
0
230
1
0
LINE
5
16B
100
AcDbEntity
8
0
62
256
6
ByLayer
370
-2
48
1
60
0
100
AcDbLine
10
46.107968
20
-15.4875
30
0
11
46.107968
21
24.175
31
0
39
0
210
0
220
0
230
1
0
LINE
5
16C
100
AcDbEntity
8
0
62
256
6
ByLayer
370
-2
48
1
60
0
100
AcDbLine
10
24.607968
20
22.175
30
0
11
42.607968
21
22.175
31
0
39
0
210
0
220
0
230
1
0
SOLID
5
16D
100
AcDbEntity
8
0
62
256
6
ByLayer
370
-1
48
1
60
0
100
AcDbTrace
10
24.607968
20
22.758333
30
0
11
24.607968
21
21.591667
31
0
12
21.107968
22
22.175
32
0
13
21.107968
23
22.175
33
0
39
0
210
0
220
0
230
1
0
SOLID
5
16E
100
AcDbEntity
8
0
62
256
6
ByLayer
370
-1
48
1
60
0
100
AcDbTrace
10
42.607968
20
21.591667
30
0
11
42.607968
21
22.758333
31
0
12
46.107968
22
22.175
32
0
13
46.107968
23
22.175
33
0
39
0
210
0
220
0
230
1
0
MTEXT
5
16F
100
AcDbEntity
8
0
62
256
6
ByLayer
370
18
48
1
60
0
100
AcDbMText
10
33.607968
20
29.175
30
0
210
0
220
0
230
1
1
\A1;25
40
3.5
41
0
44
1
50
0
71
5
72
5
7
iso_b_vert
0
POINT
5
170
100
AcDbEntity
8
Defpoints
62
0
6
ByLayer
370
-1
48
1
60
0
100
AcDbPoint
10
21.107968
20
-13.4
30
0
39
0
210
0
220
0
230
1
50
360
0
POINT
5
171
100
AcDbEntity
8
Defpoints
62
0
6
ByLayer
370
-1
48
1
60
0
100
AcDbPoint
10
46.107968
20
-17.075
30
0
39
0
210
0
220
0
230
1
50
360
0
POINT
5
172
100
AcDbEntity
8
Defpoints
62
0
6
ByLayer
370
-1
48
1
60
0
100
AcDbPoint
10
46.107968
20
22.175
30
0
39
0
210
0
220
0
230
1
50
360
0
ENDBLK
5
169
100
AcDbEntity
8
0
100
AcDbBlockEnd
0
BLOCK
5
17A
100
AcDbEntity
8
0
100
AcDbBlockBegin
2
_U3
70
0
10
0
20
0
30
0
3
_U3
0
MTEXT
5
174
100
AcDbEntity
8
2
62
256
6
ByLayer
370
18
48
1
60
0
100
AcDbMText
10
31.703001
20
23.207634
30
0
210
0
220
0
230
1
1
\W0.6740;25
40
3.5
41
0
44
1.084337
50
0
71
7
72
5
7
iso_b_vert
0
LINE
5
175
100
AcDbEntity
8
2
62
256
6
ByLayer
370
13
48
1
60
0
100
AcDbLine
10
21.107968
20
-11.8125
30
0
11
21.107968
21
24.175
31
0
39
0
210
0
220
0
230
1
0
LINE
5
176
100
AcDbEntity
8
2
62
256
6
ByLayer
370
13
48
1
60
0
100
AcDbLine
10
46.107968
20
-15.4875
30
0
11
46.107968
21
24.175
31
0
39
0
210
0
220
0
230
1
0
LINE
5
177
100
AcDbEntity
8
2
62
256
6
ByLayer
370
13
48
1
60
0
100
AcDbLine
10
21.107968
20
22.175
30
0
11
46.107968
21
22.175
31
0
39
0
210
0
220
0
230
1
0
SOLID
5
178
100
AcDbEntity
8
2
62
256
6
ByLayer
370
18
48
1
60
0
100
AcDbTrace
10
21.107968
20
22.175
30
0
11
24.607966
21
22.635784
31
0
12
24.607969
22
21.714216
32
0
13
24.607969
23
21.714216
33
0
39
0
210
0
220
0
230
1
0
SOLID
5
179
100
AcDbEntity
8
2
62
256
6
ByLayer
370
18
48
1
60
0
100
AcDbTrace
10
46.107968
20
22.175
30
0
11
42.607969
21
21.714216
31
0
12
42.607966
22
22.635784
32
0
13
42.607966
23
22.635784
33
0
39
0
210
0
220
0
230
1
0
ENDBLK
5
17B
100
AcDbEntity
8
0
100
AcDbBlockEnd
0
BLOCK
5
180
100
AcDbEntity
8
0
100
AcDbBlockBegin
2
*D9
70
1
10
0
20
0
30
0
3
*D9
0
LINE
5
182
100
AcDbEntity
8
0
62
256
6
ByLayer
370
-2
48
1
60
0
100
AcDbLine
10
-123.892032
20
17.5125
30
0
11
-123.892032
21
40.175
31
0
39
0
210
0
220
0
230
1
0
LINE
5
183
100
AcDbEntity
8
0
62
256
6
ByLayer
370
-2
48
1
60
0
100
AcDbLine
10
46.107968
20
-15.4875
30
0
11
46.107968
21
40.175
31
0
39
0
210
0
220
0
230
1
0
LINE
5
184
100
AcDbEntity
8
0
62
256
6
ByLayer
370
-2
48
1
60
0
100
AcDbLine
10
-120.392032
20
38.175
30
0
11
42.607968
21
38.175
31
0
39
0
210
0
220
0
230
1
0
SOLID
5
185
100
AcDbEntity
8
0
62
256
6
ByLayer
370
-1
48
1
60
0
100
AcDbTrace
10
-120.392032
20
38.758333
30
0
11
-120.392032
21
37.591667
31
0
12
-123.892032
22
38.175
32
0
13
-123.892032
23
38.175
33
0
39
0
210
0
220
0
230
1
0
SOLID
5
186
100
AcDbEntity
8
0
62
256
6
ByLayer
370
-1
48
1
60
0
100
AcDbTrace
10
42.607968
20
37.591667
30
0
11
42.607968
21
38.758333
31
0
12
46.107968
22
38.175
32
0
13
46.107968
23
38.175
33
0
39
0
210
0
220
0
230
1
0
MTEXT
5
187
100
AcDbEntity
8
0
62
256
6
ByLayer
370
18
48
1
60
0
100
AcDbMText
10
-38.892032
20
45.175
30
0
210
0
220
0
230
1
1
\A1;170
40
3.5
41
0
44
1
50
0
71
5
72
5
7
iso_b_vert
0
POINT
5
188
100
AcDbEntity
8
Defpoints
62
0
6
ByLayer
370
-1
48
1
60
0
100
AcDbPoint
10
-123.892032
20
15.925
30
0
39
0
210
0
220
0
230
1
50
360
0
POINT
5
189
100
AcDbEntity
8
Defpoints
62
0
6
ByLayer
370
-1
48
1
60
0
100
AcDbPoint
10
46.107968
20
-17.075
30
0
39
0
210
0
220
0
230
1
50
360
0
POINT
5
18A
100
AcDbEntity
8
Defpoints
62
0
6
ByLayer
370
-1
48
1
60
0
100
AcDbPoint
10
46.107968
20
38.175
30
0
39
0
210
0
220
0
230
1
50
360
0
ENDBLK
5
181
100
AcDbEntity
8
0
100
AcDbBlockEnd
0
BLOCK
5
192
100
AcDbEntity
8
0
100
AcDbBlockBegin
2
_U4
70
0
10
0
20
0
30
0
3
_U4
0
MTEXT
5
18C
100
AcDbEntity
8
SK2
62
256
6
ByLayer
370
18
48
1
60
0
100
AcDbMText
10
-41.667298
20
39.207634
30
0
210
0
220
0
230
1
1
\W0.6217;170
40
3.5
41
0
44
1.084337
50
0
71
7
72
5
7
iso_b_vert
0
LINE
5
18D
100
AcDbEntity
8
SK2
62
256
6
ByLayer
370
13
48
1
60
0
100
AcDbLine
10
-123.892032
20
17.5125
30
0
11
-123.892032
21
40.175
31
0
39
0
210
0
220
0
230
1
0
LINE
5
18E
100
AcDbEntity
8
SK2
62
256
6
ByLayer
370
13
48
1
60
0
100
AcDbLine
10
46.107968
20
-15.4875
30
0
11
46.107968
21
40.175
31
0
39
0
210
0
220
0
230
1
0
LINE
5
18F
100
AcDbEntity
8
SK2
62
256
6
ByLayer
370
13
48
1
60
0
100
AcDbLine
10
-123.892032
20
38.175
30
0
11
46.107968
21
38.175
31
0
39
0
210
0
220
0
230
1
0
SOLID
5
190
100
AcDbEntity
8
SK2
62
256
6
ByLayer
370
18
48
1
60
0
100
AcDbTrace
10
-123.892032
20
38.175
30
0
11
-120.392034
21
38.635784
31
0
12
-120.392031
22
37.714216
32
0
13
-120.392031
23
37.714216
33
0
39
0
210
0
220
0
230
1
0
SOLID
5
191
100
AcDbEntity
8
SK2
62
256
6
ByLayer
370
18
48
1
60
0
100
AcDbTrace
10
46.107968
20
38.175
30
0
11
42.607969
21
37.714216
31
0
12
42.607966
22
38.635784
32
0
13
42.607966
23
38.635784
33
0
39
0
210
0
220
0
230
1
0
ENDBLK
5
193
100
AcDbEntity
8
0
100
AcDbBlockEnd
0
ENDSEC
0
SECTION
2
ENTITIES
0
ARC
5
CB
100
AcDbEntity
8
1
62
256
6
ByLayer
370
18
48
1
60
0
100
AcDbCircle
39
0
10
21.107968
20
-11.8
30
0
40
1.6
210
0
220
0
230
1
100
AcDbArc
50
180
51
270
0
ARC
5
CD
100
AcDbEntity
8
1
62
256
6
ByLayer
370
18
48
1
60
0
100
AcDbCircle
39
0
10
12.757968
20
-5.925
30
0
40
2.1768
210
0
220
0
230
1
100
AcDbArc
50
150
51
210
0
ARC
5
CE
100
AcDbEntity
8
1
62
256
6
ByLayer
370
18
48
1
60
0
100
AcDbCircle
39
0
10
12.757968
20
-5.925
30
0
40
2.1768
210
0
220
0
230
1
100
AcDbArc
50
210
51
270
0
ARC
5
CF
100
AcDbEntity
8
1
62
256
6
ByLayer
370
18
48
1
60
0
100
AcDbCircle
39
0
10
12.757968
20
-5.925
30
0
40
2.1768
210
0
220
0
230
1
100
AcDbArc
50
270
51
330
0
ARC
5
D0
100
AcDbEntity
8
1
62
256
6
ByLayer
370
18
48
1
60
0
100
AcDbCircle
39
0
10
12.757968
20
-5.925
30
0
40
2.1768
210
0
220
0
230
1
100
AcDbArc
50
90
51
150
0
ARC
5
D1
100
AcDbEntity
8
1
62
256
6
ByLayer
370
18
48
1
60
0
100
AcDbCircle
39
0
10
12.757968
20
-5.925
30
0
40
2.1768
210
0
220
0
230
1
100
AcDbArc
50
30
51
90
0
ARC
5
D2
100
AcDbEntity
8
1
62
256
6
ByLayer
370
18
48
1
60
0
100
AcDbCircle
39
0
10
12.757968
20
-5.925
30
0
40
2.1768
210
0
220
0
230
1
100
AcDbArc
50
330
51
30
0
ARC
5
D5
100
AcDbEntity
8
1
62
256
6
ByLayer
370
18
48
1
60
0
100
AcDbCircle
39
0
10
12.757968
20
-5.925
30
0
40
2.8067
210
0
220
0
230
1
100
AcDbArc
50
180
51
240
0
ARC
5
D6
100
AcDbEntity
8
1
62
256
6
ByLayer
370
18
48
1
60
0
100
AcDbCircle
39
0
10
12.757968
20
-5.925
30
0
40
2.8067
210
0
220
0
230
1
100
AcDbArc
50
240
51
300
0
ARC
5
D7
100
AcDbEntity
8
1
62
256
6
ByLayer
370
18
48
1
60
0
100
AcDbCircle
39
0
10
12.757968
20
-5.925
30
0
40
2.8067
210
0
220
0
230
1
100
AcDbArc
50
60
51
120
0
ARC
5
D8
100
AcDbEntity
8
1
62
256
6
ByLayer
370
18
48
1
60
0
100
AcDbCircle
39
0
10
12.757968
20
-5.925
30
0
40
2.8067
210
0
220
0
230
1
100
AcDbArc
50
300
51
0
0
ARC
5
D9
100
AcDbEntity
8
1
62
256
6
ByLayer
370
18
48
1
60
0
100
AcDbCircle
39
0
10
12.757968
20
-5.925
30
0
40
2.8067
210
0
220
0
230
1
100
AcDbArc
50
0
51
60
0
ARC
5
DA
100
AcDbEntity
8
1
62
256
6
ByLayer
370
18
48
1
60
0
100
AcDbCircle
39
0
10
12.757968
20
-5.925
30
0
40
2.8067
210
0
220
0
230
1
100
AcDbArc
50
120
51
180
0
ARC
5
DB
100
AcDbEntity
8
1
62
256
6
ByLayer
370
18
48
1
60
0
100
AcDbCircle
39
0
10
21.407968
20
-16.775
30
0
40
0.3
210
0
220
0
230
1
100
AcDbArc
50
180
51
272.5
0
ARC
5
DC
100
AcDbEntity
8
1
62
256
6
ByLayer
370
18
48
1
60
0
100
AcDbCircle
39
0
10
21.407968
20
-13.375
30
0
40
0.3
210
0
220
0
230
1
100
AcDbArc
50
87.5
51
180
0
ARC
5
DD
100
AcDbEntity
8
1
62
256
6
ByLayer
370
18
48
1
60
0
100
AcDbCircle
39
0
10
45.807968
20
-16.775
30
0
40
0.3
210
0
220
0
230
1
100
AcDbArc
50
267.5
51
0
0
ARC
5
DE
100
AcDbEntity
8
1
62
256
6
ByLayer
370
18
48
1
60
0
100
AcDbCircle
39
0
10
45.807968
20
-13.375
30
0
40
0.3
210
0
220
0
230
1
100
AcDbArc
50
0
51
92.5
0
CIRCLE
5
CC
100
AcDbEntity
8
1
62
256
6
ByLayer
370
18
48
1
60
0
100
AcDbCircle
10
12.757968
20
-5.925
30
0
40
5.75
39
0
210
0
220
0
230
1
0
CIRCLE
5
D3
100
AcDbEntity
8
1
62
256
6
ByLayer
370
13
48
1
60
0
100
AcDbCircle
10
12.757968
20
-5.925
30
0
40
4.55
39
0
210
0
220
0
230
1
0
CIRCLE
5
D4
100
AcDbEntity
8
1
62
256
6
ByLayer
370
18
48
1
60
0
100
AcDbCircle
10
12.757968
20
-5.925
30
0
40
5.35
39
0
210
0
220
0
230
1
0
ELLIPSE
5
DF
100
AcDbEntity
8
1
62
256
6
ByLayer
370
18
48
1
60
0
100
AcDbEllipse
10
-2.422558
20
15.934599
30
0
11
2.99999999991873
21
3.51436609365237E-15
31
0
210
0
220
0
230
1
40
0.004363
41
-0.630861997549842
42
-0.261799387800591
0
ELLIPSE
5
E0
100
AcDbEntity
8
SK1
62
256
6
ByLayer
370
18
48
1
60
0
100
AcDbEllipse
10
-2.422558
20
15.934599
30
0
11
2.99999999999993
21
3.51436609374749E-15
31
0
210
0
220
0
230
1
40
0.004363
41
-2.31838067646408
42
-0.630861997542052
0
ELLIPSE
5
E1
100
AcDbEntity
8
1
62
256
6
ByLayer
370
18
48
1
60
0
100
AcDbEllipse
10
38.664407
20
-14.407701
30
0
11
0.0918734937862368
21
0.0394874812443679
31
0
210
0
220
0
230
1
40
1
41
2.91019400259989
42
-2.88344075931794
0
ELLIPSE
5
E2
100
AcDbEntity
8
1
62
256
6
ByLayer
370
18
48
1
60
0
100
AcDbEllipse
10
38.664407
20
-15.742299
30
0
11
0.0919143867219611
21
-0.0393922015949
31
0
210
0
220
0
230
1
40
1
41
2.88240391578852
42
-2.91123084609809
0
ELLIPSE
5
E3
100
AcDbEntity
8
1
62
256
6
ByLayer
370
18
48
1
60
0
100
AcDbEllipse
10
38.542486
20
-16.433749
30
0
11
0.00787727195019069
21
0.0996892580146681
31
0
210
0
220
0
230
1
40
1
41
1.4751178151005
42
1.64965074393928
0
ELLIPSE
5
E4
100
AcDbEntity
8
1
62
256
6
ByLayer
370
18
48
1
60
0
100
AcDbEllipse
10
38.542486
20
-13.716251
30
0
11
0.00785149444944517
21
-0.0996912917251366
31
0
210
0
220
0
230
1
40
1
41
-1.64939216778506
42
-1.47485923924389
0
POINT
5
70
100
AcDbEntity
8
81
62
256
6
ByLayer
370
18
48
1
60
0
100
AcDbPoint
10
46.107968
20
-17.075
30
0
39
0
210
0
220
0
230
1
50
360
0
POINT
5
72
100
AcDbEntity
8
80
62
256
6
ByLayer
370
18
48
1
60
0
100
AcDbPoint
10
0
20
0
30
0
39
0
210
0
220
0
230
1
50
360
0
POINT
5
74
100
AcDbEntity
8
1
62
256
6
ByLayer
370
18
48
1
60
1
100
AcDbPoint
10
46.107968
20
-17.075
30
0
39
0
210
0
220
0
230
1
50
360
0
POINT
5
76
100
AcDbEntity
8
1
62
256
6
ByLayer
370
18
48
1
60
1
100
AcDbPoint
10
-123.892032
20
15.925
30
0
39
0
210
0
220
0
230
1
50
360
0
POINT
5
77
100
AcDbEntity
8
1
62
256
6
ByLayer
370
18
48
1
60
1
100
AcDbPoint
10
46.107968
20
-13.075
30
0
39
0
210
0
220
0
230
1
50
360
0
POINT
5
78
100
AcDbEntity
8
1
62
256
6
ByLayer
370
18
48
1
60
1
100
AcDbPoint
10
46.107968
20
-17.075
30
0
39
0
210
0
220
0
230
1
50
360
0
POINT
5
79
100
AcDbEntity
8
1
62
256
6
ByLayer
370
18
48
1
60
1
100
AcDbPoint
10
-123.892032
20
15.925
30
0
39
0
210
0
220
0
230
1
50
360
0
POINT
5
7A
100
AcDbEntity
8
1
62
256
6
ByLayer
370
18
48
1
60
1
100
AcDbPoint
10
-123.892032
20
-16.075
30
0
39
0
210
0
220
0
230
1
50
360
0
POINT
5
7B
100
AcDbEntity
8
1
62
256
6
ByLayer
370
18
48
1
60
1
100
AcDbPoint
10
21.107968
20
-13.4
30
0
39
0
210
0
220
0
230
1
50
360
0
POINT
5
7C
100
AcDbEntity
8
1
62
256
6
ByLayer
370
18
48
1
60
1
100
AcDbPoint
10
46.107968
20
-17.075
30
0
39
0
210
0
220
0
230
1
50
360
0
POINT
5
7D
100
AcDbEntity
8
1
62
256
6
ByLayer
370
18
48
1
60
1
100
AcDbPoint
10
-123.892032
20
15.925
30
0
39
0
210
0
220
0
230
1
50
360
0
POINT
5
7E
100
AcDbEntity
8
1
62
256
6
ByLayer
370
18
48
1
60
1
100
AcDbPoint
10
46.107968
20
-17.075
30
0
39
0
210
0
220
0
230
1
50
360
0
SPLINE
5
E5
100
AcDbEntity
8
1
62
256
6
ByLayer
370
18
48
1
60
0
100
AcDbSpline
70
4
71
3
72
10
73
6
40
0
40
0
40
0
40
0
40
0.5
40
0.5
40
1
40
1
40
1
40
1
41
1
10
0
20
-16.4989903551092
30
0
41
1
10
0.0322470809632591
20
-16.5375772134373
30
0
41
1
10
0.062666973601381
20
-16.577657601529
30
0
41
1
10
0.119990681654087
20
-16.6611529559757
30
0
41
1
10
0.146895433587588
20
-16.7045602595081
30
0
41
1
10
0.172053587150629
20
-16.75
30
0
0
SPLINE
5
E6
100
AcDbEntity
8
1
62
256
6
ByLayer
370
18
48
1
60
0
100
AcDbSpline
70
4
71
3
72
8
73
4
40
0
40
0
40
0
40
0
40
1
40
1
40
1
40
1
41
1
10
37.8302153477877
20
-14.575
30
0
41
1
10
37.8961025793964
20
-14.6019085401366
30
0
41
1
10
37.9616721404865
20
-14.6302343063334
30
0
41
1
10
38.0271257792798
20
-14.6590772376136
30
0
0
SPLINE
5
E7
100
AcDbEntity
8
1
62
256
6
ByLayer
370
18
48
1
60
0
100
AcDbSpline
70
4
71
3
72
12
73
8
40
0
40
0
40
0
40
0
40
0.500000000000004
40
0.500000000000004
40
0.750000000000002
40
0.750000000000002
40
1
40
1
40
1
40
1
41
1
10
37.8302153477898
20
-14.5749999999995
30
0
41
1
10
37.7992985405696
20
-14.3782571875795
30
0
41
1
10
37.767596137499
20
-14.1817079830697
30
0
41
1
10
37.717443022549
20
-13.8876331467185
30
0
41
1
10
37.7002854080944
20
-13.7897457459743
30
0
41
1
10
37.6644967018712
20
-13.5944316506482
30
0
41
1
10
37.6458954143075
20
-13.4969882796478
30
0
41
1
10
37.6258868863198
20
-13.4
30
0
0
SPLINE
5
E8
100
AcDbEntity
8
1
62
256
6
ByLayer
370
18
48
1
60
0
100
AcDbSpline
70
4
71
3
72
12
73
8
40
0
40
0
40
0
40
0
40
0.25
40
0.25
40
0.5
40
0.5
40
1
40
1
40
1
40
1
41
1
10
37.6258868863199
20
-16.75
30
0
41
1
10
37.6459063311452
20
-16.6529588026517
30
0
41
1
10
37.6645090501268
20
-16.5555030766493
30
0
41
1
10
37.7002990870627
20
-16.3601774836267
30
0
41
1
10
37.7174548677625
20
-16.2622983889244
30
0
41
1
10
37.7675988882573
20
-15.9682739058927
30
0
41
1
10
37.7992972381321
20
-15.7717511006233
30
0
41
1
10
37.8302153477877
20
-15.5750000000001
30
0
0
SPLINE
5
E9
100
AcDbEntity
8
1
62
256
6
ByLayer
370
18
48
1
60
0
100
AcDbSpline
70
4
71
3
72
8
73
4
40
0
40
0
40
0
40
0
40
1
40
1
40
1
40
1
41
1
10
38.02712577928
20
-15.4909227623863
30
0
41
1
10
37.9616597633986
20
-15.5197711477789
30
0
41
1
10
37.896085553729
20
-15.5480984131964
30
0
41
1
10
37.8302153477877
20
-15.575
30
0
0
SPLINE
5
EA
100
AcDbEntity
8
1
62
256
6
ByLayer
370
18
48
1
60
0
100
AcDbSpline
70
4
71
3
72
20
73
16
40
0
40
0
40
0
40
0
40
0.125000000000035
40
0.125000000000035
40
0.250000000000069
40
0.250000000000069
40
0.375000000000104
40
0.375000000000104
40
0.500000000000138
40
0.500000000000138
40
0.625000000000173
40
0.625000000000173
40
0.750000000000207
40
0.750000000000207
40
1
40
1
40
1
40
1
41
1
10
38.1079675788694
20
-15.3499688692701
30
0
41
1
10
38.1079675788693
20
-15.3578893156453
30
0
41
1
10
38.1074607871041
20
-15.3657425880657
30
0
41
1
10
38.105446487266
20
-15.381316490514
30
0
41
1
10
38.1039382341003
20
-15.3889820096555
30
0
41
1
10
38.1000349899855
20
-15.4037308118807
30
0
41
1
10
38.0976335769425
20
-15.4108683739999
30
0
41
1
10
38.0919343358608
20
-15.4246714878331
30
0
41
1
10
38.0886149272942
20
-15.4313528991702
30
0
41
1
10
38.0813341354954
20
-15.4437546142988
30
0
41
1
10
38.0773490077085
20
-15.4495431644951
30
0
41
1
10
38.0687115475184
20
-15.460322272624
30
0
41
1
10
38.0640159096368
20
-15.4653494779286
30
0
41
1
10
38.0492453454358
20
-15.4788877198728
30
0
41
1
10
38.0385771767409
20
-15.4858765666955
30
0
41
1
10
38.02712577928
20
-15.4909227623863
30
0
0
SPLINE
5
EB
100
AcDbEntity
8
1
62
256
6
ByLayer
370
18
48
1
60
0
100
AcDbSpline
70
4
71
3
72
18
73
14
40
0
40
0
40
0
40
0
40
0.124999999999989
40
0.124999999999989
40
0.249999999999978
40
0.249999999999978
40
0.374999999999968
40
0.374999999999968
40
0.499999999999957
40
0.499999999999957
40
0.749999999999978
40
0.749999999999978
40
1
40
1
40
1
40
1
41
1
10
38.0271257792798
20
-14.6590772376136
30
0
41
1
10
38.0328489567549
20
-14.6615992244376
30
0
41
1
10
38.0383871450719
20
-14.6646203164927
30
0
41
1
10
38.0490910285894
20
-14.6716674960559
30
0
41
1
10
38.0542858359853
20
-14.6757208978463
30
0
41
1
10
38.064136566465
20
-14.6847727290414
30
0
41
1
10
38.0687590323545
20
-14.6897311583366
30
0
41
1
10
38.0773940441612
20
-14.7005189291367
30
0
41
1
10
38.081422316242
20
-14.706374666017
30
0
41
1
10
38.0924216759352
20
-14.7251741512115
30
0
41
1
10
38.0981161574225
20
-14.7389348946633
30
0
41
1
10
38.1059820634279
20
-14.7688259354211
30
0
41
1
10
38.1079675788577
20
-14.7842066707605
30
0
41
1
10
38.1079675788577
20
-14.8000311307315
30
0
0
SPLINE
5
EC
100
AcDbEntity
8
1
62
256
6
ByLayer
370
18
48
1
60
0
100
AcDbSpline
70
4
71
3
72
37
73
33
40
0
40
0
40
0
40
0
40
0.125000000000027
40
0.125000000000027
40
0.250000000000053
40
0.250000000000053
40
0.37500000000008
40
0.37500000000008
40
0.437500000000105
40
0.437500000000105
40
0.500000000000129
40
0.500000000000129
40
0.562500000000154
40
0.562500000000154
40
0.625000000000178
40
0.625000000000178
40
0.687500000000203
40
0.687500000000203
40
0.718750000000211
40
0.718750000000211
40
0.750000000000218
40
0.750000000000218
40
0.81250000000016
40
0.81250000000016
40
0.843750000000135
40
0.843750000000135
40
0.87500000000011
40
0.906250000000085
40
0.906250000000085
40
0.937500000000061
40
0.937500000000061
40
1
40
1
40
1
40
1
41
1
10
9.9512675788578
20
-5.92500000000001
30
0
41
1
10
9.95126757885785
20
-5.96144084874041
30
0
41
1
10
9.95269279243382
20
-5.99791844440046
30
0
41
1
10
9.95846730300624
20
-6.07054710022499
30
0
41
1
10
9.96282190846375
20
-6.10677873327828
30
0
41
1
10
9.97470234576866
20
-6.17857955216368
30
0
41
1
10
9.98224192061804
20
-6.21424964856192
30
0
41
1
10
9.99628816746858
20
-6.26685143250654
30
0
41
1
10
10.0014287758531
20
-6.28423995664528
30
0
41
1
10
10.0127437917754
20
-6.31868639994943
30
0
41
1
10
10.0189191082059
20
-6.3357412198219
30
0
41
1
10
10.032374261687
20
-6.3692302051885
30
0
41
1
10
10.039661216855
20
-6.38569232354578
30
0
41
1
10
10.0555640032731
20
-6.41793825585717
30
0
41
1
10
10.0642051096389
20
-6.43375613459682
30
0
41
1
10
10.0828329777418
20
-6.46405866467472
30
0
41
1
10
10.0928396100798
20
-6.47859939455563
30
0
41
1
10
10.1091437573851
20
-6.49925323484004
30
0
41
1
10
10.1147954240347
20
-6.50594380536776
30
0
41
1
10
10.1265979560344
20
-6.51887537811814
30
0
41
1
10
10.1327799558721
20
-6.52514344129841
30
0
41
1
10
10.1518851018807
20
-6.54285982120203
30
0
41
1
10
10.1653876365584
20
-6.55328502883674
30
0
41
1
10
10.1870689652935
20
-6.56628856120136
30
0
41
1
10
10.194594045318
20
-6.57020336787568
30
0
41
1
10
10.2098446095862
20
-6.5768593919195
30
0
41
1
10
10.2252909056518
20
-6.58236181074611
30
0
41
1
10
10.2411363642202
20
-6.58546278981999
30
0
41
1
10
10.2571895432922
20
-6.58729360796562
30
0
41
1
10
10.2652479815455
20
-6.58755503029826
30
0
41
1
10
10.2889328108441
20
-6.58645950842265
30
0
41
1
10
10.3043082486898
20
-6.58326678296615
30
0
41
1
10
10.319310936559
20
-6.57787075857638
30
0
0
SPLINE
5
ED
100
AcDbEntity
8
1
62
256
6
ByLayer
370
18
48
1
60
0
100
AcDbSpline
70
4
71
3
72
35
73
31
40
0
40
0
40
0
40
0
40
0.124999999999979
40
0.124999999999979
40
0.249999999999958
40
0.249999999999958
40
0.374999999999937
40
0.374999999999937
40
0.437499999999891
40
0.437499999999891
40
0.499999999999846
40
0.499999999999846
40
0.624999999999817
40
0.624999999999817
40
0.687499999999825
40
0.687499999999825
40
0.718749999999837
40
0.718749999999837
40
0.74999999999985
40
0.74999999999985
40
0.812499999999884
40
0.812499999999884
40
0.843749999999905
40
0.843749999999905
40
0.874999999999925
40
0.906249999999946
40
0.906249999999946
40
0.937499999999967
40
0.937499999999967
40
1
40
1
40
1
40
1
41
1
10
11.3546175788578
20
-8.3556735008018
30
0
41
1
10
11.3230772295707
20
-8.33746367165054
30
0
41
1
10
11.2921831527377
20
-8.31798128927971
30
0
41
1
10
11.2321791955768
20
-8.27667139612126
30
0
41
1
10
11.2030591854606
20
-8.25484802469632
30
0
41
1
10
11.1467682215718
20
-8.20862435383054
30
0
41
1
10
11.1196845176972
20
-8.18429407393177
30
0
41
1
10
11.0811899883868
20
-8.14587634152124
30
0
41
1
10
11.0687042516216
20
-8.13273842442601
30
0
41
1
10
11.0445178023307
20
-8.10571216698267
30
0
41
1
10
11.0328186258135
20
-8.09182264752465
30
0
41
1
10
10.9993393257999
20
-8.04915343228134
30
0
41
1
10
10.9789835829281
20
-8.01919133952023
30
0
41
1
10
10.9535073986187
20
-7.9721006067723
30
0
41
1
10
10.9458246934894
20
-7.95595389028406
30
0
41
1
10
10.9360507586854
20
-7.93132323323709
30
0
41
1
10
10.9330830352457
20
-7.92304309568206
30
0
41
1
10
10.9278072746542
20
-7.90632656710571
30
0
41
1
10
10.9254937455611
20
-7.89786069269425
30
0
41
1
10
10.9197679767507
20
-7.87252347895443
30
0
41
1
10
10.9175287113521
20
-7.85566173379669
30
0
41
1
10
10.9171559083371
20
-7.83044990923659
30
0
41
1
10
10.9175428656266
20
-7.8219983049415
30
0
41
1
10
10.9194273459546
20
-7.80551610260477
30
0
41
1
10
10.9224035239156
20
-7.78943931510761
30
0
41
1
10
10.9276483385168
20
-7.77421364601756
30
0
41
1
10
10.9340914036194
20
-7.75944107125733
30
0
41
1
10
10.9378903806781
20
-7.75235664974372
30
0
41
1
10
10.95066350316
20
-7.73245663986995
30
0
41
1
10
10.961093582999
20
-7.72077134708962
30
0
41
1
10
10.9732365953932
20
-7.71050322405023
30
0
0
SPLINE
5
EE
100
AcDbEntity
8
1
62
256
6
ByLayer
370
18
48
1
60
0
100
AcDbSpline
70
4
71
3
72
50
73
46
40
0
40
0
40
0
40
0
40
0.0312499999999839
40
0.0312499999999839
40
0.0624999999999678
40
0.0624999999999678
40
0.0937499999999518
40
0.0937499999999518
40
0.124999999999936
40
0.124999999999936
40
0.15624999999992
40
0.15624999999992
40
0.187499999999903
40
0.187499999999903
40
0.218749999999887
40
0.218749999999887
40
0.249999999999871
40
0.249999999999871
40
0.31249999999988
40
0.31249999999988
40
0.374999999999888
40
0.374999999999888
40
0.437499999999897
40
0.437499999999897
40
0.499999999999905
40
0.499999999999905
40
0.624999999999922
40
0.624999999999922
40
0.687499999999933
40
0.687499999999933
40
0.749999999999944
40
0.749999999999944
40
0.812499999999955
40
0.812499999999955
40
0.843749999999962
40
0.843749999999962
40
0.87499999999997
40
0.87499999999997
40
0.906249999999977
40
0.906249999999977
40
0.937499999999985
40
0.937499999999985
40
0.968749999999992
40
0.968749999999992
40
1
40
1
40
1
40
1
41
1
10
10.339310936559
20
-6.57649896176554
30
0
41
1
10
10.352978887381
20
-6.57556147919809
30
0
41
1
10
10.3666735846416
20
-6.57608511935925
30
0
41
1
10
10.3941149016214
20
-6.57946658906175
30
0
41
1
10
10.4078478580988
20
-6.58233756012086
30
0
41
1
10
10.4349312099282
20
-6.58991019765747
30
0
41
1
10
10.4483783495693
20
-6.59463731873834
30
0
41
1
10
10.47481286202
20
-6.60553579012523
30
0
41
1
10
10.487822764479
20
-6.61171068436275
30
0
41
1
10
10.513504298191
20
-6.62529136910089
30
0
41
1
10
10.5261508147335
20
-6.63268785487739
30
0
41
1
10
10.550961167121
20
-6.64843124735478
30
0
41
1
10
10.5631506774453
20
-6.65679248843125
30
0
41
1
10
10.5871579853919
20
-6.67438520558895
30
0
41
1
10
10.5989794148384
20
-6.6836225119529
30
0
41
1
10
10.6221386109028
20
-6.70276235675445
30
0
41
1
10
10.6334976230794
20
-6.71268015715154
30
0
41
1
10
10.6669812911106
20
-6.74338986358961
30
0
41
1
10
10.6885695794961
20
-6.76519493136084
30
0
41
1
10
10.7299856163857
20
-6.81062969247077
30
0
41
1
10
10.749848838495
20
-6.83428632802071
30
0
41
1
10
10.7880475994719
20
-6.88333395463235
30
0
41
1
10
10.8063397639499
20
-6.90868144115808
30
0
41
1
10
10.8411126978037
20
-6.96052989888909
30
0
41
1
10
10.8576420422003
20
-6.98709458610423
30
0
41
1
10
10.9046494268409
20
-7.06865108836979
30
0
41
1
10
10.9320560119413
20
-7.12451612707878
30
0
41
1
10
10.9669236047857
20
-7.21071952477513
30
0
41
1
10
10.9775121473401
20
-7.23995490957165
30
0
41
1
10
10.9960013967106
20
-7.29832842931657
30
0
41
1
10
11.0039542923883
20
-7.32756892024236
30
0
41
1
10
11.0169393902509
20
-7.38622323066986
30
0
41
1
10
11.0219807715169
20
-7.41563598294962
30
0
41
1
10
11.0268163491571
20
-7.45996684220211
30
0
41
1
10
11.0279690577686
20
-7.47482441271669
30
0
41
1
10
11.02918799907
20
-7.50420522762224
30
0
41
1
10
11.0292618764624
20
-7.51876737706422
30
0
41
1
10
11.0281858887307
20
-7.54761319924989
30
0
41
1
10
11.0270375256738
20
-7.56189716540663
30
0
41
1
10
11.0232815435846
20
-7.59014805350998
30
0
41
1
10
11.0206636874187
20
-7.6041666210881
30
0
41
1
10
11.0136414869945
20
-7.63159321568762
30
0
41
1
10
11.009283099966
20
-7.64484430281058
30
0
41
1
10
10.9985254727177
20
-7.67025067843096
30
0
41
1
10
10.9921319965006
20
-7.68240907709611
30
0
41
1
10
10.9844246062807
20
-7.69386861437937
30
0
0
SPLINE
5
EF
100
AcDbEntity
8
1
62
256
6
ByLayer
370
18
48
1
60
0
100
AcDbSpline
70
4
71
3
72
8
73
4
40
0
40
0
40
0
40
0
40
1
40
1
40
1
40
1
41
1
10
10.319310936559
20
-6.57787075857638
30
0
41
1
10
10.3259773599546
20
-6.5774135096587
30
0
41
1
10
10.3326440247208
20
-6.57695624418542
30
0
41
1
10
10.339310936559
20
-6.57649896176554
30
0
0
SPLINE
5
F0
100
AcDbEntity
8
1
62
256
6
ByLayer
370
18
48
1
60
0
100
AcDbSpline
70
4
71
3
72
8
73
4
40
0
40
0
40
0
40
0
40
1
40
1
40
1
40
1
41
1
10
10.9732365953932
20
-7.71050322405023
30
0
41
1
10
10.9769657962696
20
-7.70495855649608
30
0
41
1
10
10.9806951321689
20
-7.69941368818667
30
0
41
1
10
10.9844246062803
20
-7.69386861437997
30
0
0
SPLINE
5
F1
100
AcDbEntity
8
1
62
256
6
ByLayer
370
18
48
1
60
0
100
AcDbSpline
70
4
71
3
72
35
73
31
40
0
40
0
40
0
40
0
40
0.12500000000002
40
0.12500000000002
40
0.250000000000039
40
0.250000000000039
40
0.375000000000059
40
0.375000000000059
40
0.437500000000069
40
0.437500000000069
40
0.50000000000008
40
0.50000000000008
40
0.625000000000101
40
0.625000000000101
40
0.687500000000112
40
0.687500000000112
40
0.718750000000069
40
0.718750000000069
40
0.750000000000026
40
0.750000000000026
40
0.812500000000026
40
0.812500000000026
40
0.843750000000022
40
0.843750000000022
40
0.875000000000018
40
0.906250000000013
40
0.906250000000013
40
0.937500000000009
40
0.937500000000009
40
1
40
1
40
1
40
1
41
1
10
14.1613175788578
20
-8.35567350080177
30
0
41
1
10
14.1297772295707
20
-8.37388332995306
30
0
41
1
10
14.0974579530948
20
-8.3908971941315
30
0
41
1
10
14.0316805576115
20
-8.42220719878114
30
0
41
1
10
13.9982209585032
20
-8.43651418158771
30
0
41
1
10
13.9300446033329
20
-8.46215175088616
30
0
41
1
10
13.895432110922
20
-8.47344178652071
30
0
41
1
10
13.8429141140435
20
-8.48757016060497
30
0
41
1
10
13.8252934757036
20
-8.49181416728095
30
0
41
1
10
13.789794825543
20
-8.49924711807253
30
0
41
1
10
13.7719165605874
20
-8.50243414241078
30
0
41
1
10
13.7182242862204
20
-8.51009345910185
30
0
41
1
10
13.6820984813028
20
-8.51274100316115
30
0
41
1
10
13.6285786183056
20
-8.51125865959065
30
0
41
1
10
13.6107537990745
20
-8.5098387191583
30
0
41
1
10
13.5845360569579
20
-8.50598786647001
30
0
41
1
10
13.5758813857685
20
-8.50441792158273
30
0
41
1
10
13.5587665670625
20
-8.50062859999105
30
0
41
1
10
13.5502781402105
20
-8.49839923775232
30
0
41
1
10
13.5254725850454
20
-8.49068929212845
30
0
41
1
10
13.5097502526874
20
-8.48419768027057
30
0
41
1
10
13.4877297706351
20
-8.47191462487211
30
0
41
1
10
13.4806039452575
20
-8.46735370788167
30
0
41
1
10
13.4672721794877
20
-8.45748059887629
30
0
41
1
10
13.4548373620843
20
-8.44686475940733
30
0
41
1
10
13.4442739531633
20
-8.43470978217957
30
0
41
1
10
13.434702060693
20
-8.42174363674232
30
0
41
1
10
13.4304662602204
20
-8.41491141534428
30
0
41
1
10
13.4196189073751
20
-8.39389956185241
30
0
41
1
10
13.4147141868962
20
-8.37902420135822
30
0
41
1
10
13.411893237692
20
-8.3633739826266
30
0
0
SPLINE
5
F2
100
AcDbEntity
8
1
62
256
6
ByLayer
370
18
48
1
60
0
100
AcDbSpline
70
4
71
3
72
52
73
48
40
0
40
0
40
0
40
0
40
0.0156249999999927
40
0.0156249999999927
40
0.0312499999999853
40
0.0312499999999853
40
0.0625000000000018
40
0.0625000000000018
40
0.0937500000000181
40
0.0937500000000181
40
0.125000000000034
40
0.125000000000034
40
0.187500000000067
40
0.187500000000067
40
0.218750000000058
40
0.218750000000058
40
0.250000000000049
40
0.250000000000049
40
0.312500000000033
40
0.312500000000033
40
0.375000000000017
40
0.375000000000017
40
0.437500000000001
40
0.437500000000001
40
0.499999999999985
40
0.499999999999985
40
0.562499999999968
40
0.562499999999968
40
0.624999999999952
40
0.624999999999952
40
0.687499999999936
40
0.687499999999936
40
0.74999999999992
40
0.74999999999992
40
0.812499999999904
40
0.812499999999904
40
0.84374999999992
40
0.84374999999992
40
0.874999999999936
40
0.874999999999936
40
0.906249999999952
40
0.906249999999952
40
0.937499999999968
40
0.937499999999968
40
0.968749999999984
40
0.968749999999984
40
1
40
1
40
1
40
1
41
1
10
13.4030812485787
20
-8.34536757614481
30
0
41
1
10
13.4000666048829
20
-8.33920745734687
30
0
41
1
10
13.3967224273548
20
-8.33321241873654
30
0
41
1
10
13.3894428189554
20
-8.3215173354227
30
0
41
1
10
13.3854977014907
20
-8.31580725601196
30
0
41
1
10
13.3730035929497
20
-8.29926543961827
30
0
41
1
10
13.3637670236648
20
-8.28895133423211
30
0
41
1
10
13.3438500909805
20
-8.26944420626504
30
0
41
1
10
13.3331664766586
20
-8.26025375527155
30
0
41
1
10
13.3105664638183
20
-8.24281303649445
30
0
41
1
10
13.2986854491709
20
-8.2345972339148
30
0
41
1
10
13.2619174276126
20
-8.21145819268568
30
0
41
1
10
13.235685806771
20
-8.19788106004094
30
0
41
1
10
13.1949514512996
20
-8.17990525378977
30
0
41
1
10
13.1811202458901
20
-8.17430405245304
30
0
41
1
10
13.1529938817369
20
-8.16380093027013
30
0
41
1
10
13.1386844145568
20
-8.15889595816333
30
0
41
1
10
13.0953654986126
20
-8.14522454919941
30
0
41
1
10
13.0658899103003
20
-8.13746091323225
30
0
41
1
10
13.0058622525871
20
-8.12426715447498
30
0
41
1
10
12.9753602650883
20
-8.11885854131174
30
0
41
1
10
12.9139731683314
20
-8.11028297277866
30
0
41
1
10
12.8829892403194
20
-8.10709850827843
30
0
41
1
10
12.8205840244528
20
-8.10285251302187
30
0
41
1
10
12.7893090309157
20
-8.10179988111562
30
0
41
1
10
12.7266155602647
20
-8.10180011890444
30
0
41
1
10
12.6953568209948
20
-8.10285300340263
30
0
41
1
10
12.6330162522314
20
-8.10709284645927
30
0
41
1
10
12.6019467413245
20
-8.11028365887469
30
0
41
1
10
12.5404744379844
20
-8.11887402120996
30
0
41
1
10
12.5099491698116
20
-8.12429123322443
30
0
41
1
10
12.4499520772705
20
-8.13748452043646
30
0
41
1
10
12.4204136116338
20
-8.14526701835158
30
0
41
1
10
12.3625882233879
20
-8.16353025940364
30
0
41
1
10
12.33447829089
20
-8.17394542921463
30
0
41
1
10
12.2937250990998
20
-8.19193668870244
30
0
41
1
10
12.2803566916457
20
-8.19834384426224
30
0
41
1
10
12.2543352035031
20
-8.21198661436787
30
0
41
1
10
12.2416664654449
20
-8.21922651626591
30
0
41
1
10
12.2171134162437
20
-8.23468768811526
30
0
41
1
10
12.2052545272475
20
-8.24289556552199
30
0
41
1
10
12.182683446388
20
-8.26032515624749
30
0
41
1
10
12.1719152847152
20
-8.2695898939638
30
0
41
1
10
12.1518566600414
20
-8.28927750021987
30
0
41
1
10
12.1426418164933
20
-8.29961831849766
30
0
41
1
10
12.1261578070017
20
-8.32150488229632
30
0
41
1
10
12.1188832215553
20
-8.33304728740904
30
0
41
1
10
12.1128539091365
20
-8.34536757614549
30
0
0
SPLINE
5
F3
100
AcDbEntity
8
1
62
256
6
ByLayer
370
18
48
1
60
0
100
AcDbSpline
70
4
71
3
72
8
73
4
40
0
40
0
40
0
40
0
40
1
40
1
40
1
40
1
41
1
10
12.1128539091365
20
-8.34536757614549
30
0
41
1
10
12.1099164714098
20
-8.35136993237208
30
0
41
1
10
12.1069791425428
20
-8.35737206615477
30
0
41
1
10
12.1040419200236
20
-8.3633739826266
30
0
0
SPLINE
5
F4
100
AcDbEntity
8
1
62
256
6
ByLayer
370
18
48
1
60
0
100
AcDbSpline
70
4
71
3
72
35
73
31
40
0
40
0
40
0
40
0
40
0.125000000000049
40
0.125000000000049
40
0.250000000000099
40
0.250000000000099
40
0.375000000000148
40
0.375000000000148
40
0.500000000000198
40
0.500000000000198
40
0.562500000000224
40
0.562500000000224
40
0.625000000000249
40
0.625000000000249
40
0.687500000000275
40
0.687500000000275
40
0.718750000000245
40
0.718750000000245
40
0.750000000000215
40
0.750000000000215
40
0.812500000000154
40
0.812500000000154
40
0.843750000000124
40
0.843750000000124
40
0.875000000000094
40
0.906250000000064
40
0.906250000000064
40
0.937500000000034
40
0.937500000000034
40
1
40
1
40
1
40
1
41
1
10
11.3546175788578
20
-8.3556735008018
30
0
41
1
10
11.3861572195397
20
-8.37388292083966
30
0
41
1
10
11.4184359693649
20
-8.39087697738645
30
0
41
1
10
11.484260309281
20
-8.42221050481416
30
0
41
1
10
11.5177192137689
20
-8.43651520056477
30
0
41
1
10
11.5858345489367
20
-8.46213155624801
30
0
41
1
10
11.6205058413902
20
-8.47344645116721
30
0
41
1
10
11.6907300821504
20
-8.49233031592649
30
0
41
1
10
11.726300985115
20
-8.49991564107498
30
0
41
1
10
11.7800070973008
20
-8.5075634658829
30
0
41
1
10
11.7979403951799
20
-8.50948377228517
30
0
41
1
10
11.8338745362032
20
-8.51182798716266
30
0
41
1
10
11.8518317473068
20
-8.51224469202387
30
0
41
1
10
11.8873235526731
20
-8.51125746632826
30
0
41
1
10
11.9049080560601
20
-8.50986146704903
30
0
41
1
10
11.9309671239753
20
-8.50605973069653
30
0
41
1
10
11.9396001711862
20
-8.50450611890452
30
0
41
1
10
11.9567404052153
20
-8.50073502144431
30
0
41
1
10
11.9652554329909
20
-8.49851111797588
30
0
41
1
10
11.9901071080289
20
-8.49082476797761
30
0
41
1
10
12.0059083207758
20
-8.48433535358154
30
0
41
1
10
12.0281084713694
20
-8.47197685616266
30
0
41
1
10
12.0352367916472
20
-8.46741503959822
30
0
41
1
10
12.0485143729774
20
-8.45759908909577
30
0
41
1
10
12.0609207374793
20
-8.44703518489689
30
0
41
1
10
12.071496256423
20
-8.43491000149697
30
0
41
1
10
12.0810936366569
20
-8.42195504520632
30
0
41
1
10
12.0853690887294
20
-8.4150853656835
30
0
41
1
10
12.09628594256
20
-8.39399643111994
30
0
41
1
10
12.1012125973043
20
-8.37907065641085
30
0
41
1
10
12.1040419200235
20
-8.3633739826266
30
0
0
SPLINE
5
F5
100
AcDbEntity
8
1
62
256
6
ByLayer
370
18
48
1
60
0
100
AcDbSpline
70
4
71
3
72
8
73
4
40
0
40
0
40
0
40
0
40
1
40
1
40
1
40
1
41
1
10
13.411893237692
20
-8.3633739826266
30
0
41
1
10
13.4089560151728
20
-8.35737206615474
30
0
41
1
10
13.4060186863058
20
-8.35136993237208
30
0
41
1
10
13.4030812485791
20
-8.34536757614549
30
0
0
SPLINE
5
F6
100
AcDbEntity
8
1
62
256
6
ByLayer
370
18
48
1
60
0
100
AcDbSpline
70
4
71
3
72
35
73
31
40
0
40
0
40
0
40
0
40
0.125000000000004
40
0.125000000000004
40
0.250000000000008
40
0.250000000000008
40
0.375000000000012
40
0.375000000000012
40
0.437500000000015
40
0.437500000000015
40
0.500000000000018
40
0.500000000000018
40
0.625000000000022
40
0.625000000000022
40
0.687500000000024
40
0.687500000000024
40
0.718750000000026
40
0.718750000000026
40
0.750000000000028
40
0.750000000000028
40
0.812500000000028
40
0.812500000000028
40
0.843750000000023
40
0.843750000000023
40
0.875000000000019
40
0.906250000000014
40
0.906250000000014
40
0.937500000000009
40
0.937500000000009
40
1
40
1
40
1
40
1
41
1
10
11.3546175788578
20
-3.49432649919822
30
0
41
1
10
11.386157928145
20
-3.47611667004696
30
0
41
1
10
11.4184772046208
20
-3.45910280586855
30
0
41
1
10
11.4842546001041
20
-3.42779280121889
30
0
41
1
10
11.5177141992124
20
-3.41348581841231
30
0
41
1
10
11.5858905543828
20
-3.38784824911389
30
0
41
1
10
11.6205030467936
20
-3.37655821347931
30
0
41
1
10
11.6730210436721
20
-3.36242983939508
30
0
41
1
10
11.6906416820119
20
-3.35818583271907
30
0
41
1
10
11.7261403321726
20
-3.35075288192749
30
0
41
1
10
11.7440185971281
20
-3.34756585758924
30
0
41
1
10
11.7977108714952
20
-3.3399065408982
30
0
41
1
10
11.8338366764127
20
-3.33725899683887
30
0
41
1
10
11.88735653941
20
-3.33874134040937
30
0
41
1
10
11.9051813586411
20
-3.34016128084175
30
0
41
1
10
11.9313991007578
20
-3.34401213353004
30
0
41
1
10
11.9400537719471
20
-3.34558207841729
30
0
41
1
10
11.957168590653
20
-3.34937140000898
30
0
41
1
10
11.9656570175051
20
-3.35160076224773
30
0
41
1
10
11.9904625726702
20
-3.35931070787157
30
0
41
1
10
12.0061849050283
20
-3.36580231972948
30
0
41
1
10
12.0282053870805
20
-3.37808537512794
30
0
41
1
10
12.0353312124581
20
-3.38264629211838
30
0
41
1
10
12.048662978228
20
-3.39251940112374
30
0
41
1
10
12.0610977956312
20
-3.40313524059269
30
0
41
1
10
12.0716612045523
20
-3.41529021782048
30
0
41
1
10
12.0812330970227
20
-3.42825636325773
30
0
41
1
10
12.0854688974952
20
-3.43508858465575
30
0
41
1
10
12.0963162503404
20
-3.45610043814761
30
0
41
1
10
12.1012209708194
20
-3.4709757986418
30
0
41
1
10
12.1040419200235
20
-3.48662601737343
30
0
0
SPLINE
5
F7
100
AcDbEntity
8
1
62
256
6
ByLayer
370
18
48
1
60
0
100
AcDbSpline
70
4
71
3
72
52
73
48
40
0
40
0
40
0
40
0
40
0.0156250000000231
40
0.0156250000000231
40
0.0312500000000463
40
0.0312500000000463
40
0.0625000000000583
40
0.0625000000000583
40
0.0937500000000703
40
0.0937500000000703
40
0.125000000000082
40
0.125000000000082
40
0.187500000000111
40
0.187500000000111
40
0.218750000000101
40
0.218750000000101
40
0.25000000000009
40
0.25000000000009
40
0.31250000000007
40
0.31250000000007
40
0.375000000000051
40
0.375000000000051
40
0.437500000000031
40
0.437500000000031
40
0.500000000000012
40
0.500000000000012
40
0.562499999999992
40
0.562499999999992
40
0.624999999999973
40
0.624999999999973
40
0.687499999999953
40
0.687499999999953
40
0.749999999999934
40
0.749999999999934
40
0.812499999999914
40
0.812499999999914
40
0.843749999999929
40
0.843749999999929
40
0.874999999999943
40
0.874999999999943
40
0.906249999999957
40
0.906249999999957
40
0.937499999999971
40
0.937499999999971
40
0.968749999999986
40
0.968749999999986
40
1
40
1
40
1
40
1
41
1
10
12.1128539091369
20
-3.50463242385521
30
0
41
1
10
12.1158685528327
20
-3.51079254265315
30
0
41
1
10
12.1192127303608
20
-3.51678758126352
30
0
41
1
10
12.1264923387602
20
-3.52848266457735
30
0
41
1
10
12.1304374562248
20
-3.53419274398806
30
0
41
1
10
12.1429315647659
20
-3.55073456038176
30
0
41
1
10
12.1521681340509
20
-3.56104866576791
30
0
41
1
10
12.1720850667351
20
-3.58055579373502
30
0
41
1
10
12.182768681057
20
-3.5897462447285
30
0
41
1
10
12.2053686938973
20
-3.6071869635056
30
0
41
1
10
12.2172497085446
20
-3.61540276608523
30
0
41
1
10
12.254017730103
20
-3.63854180731437
30
0
41
1
10
12.2802493509446
20
-3.65211893995911
30
0
41
1
10
12.320983706416
20
-3.67009474621028
30
0
41
1
10
12.3348149118256
20
-3.67569594754698
30
0
41
1
10
12.3629412759788
20
-3.6861990697299
30
0
41
1
10
12.3772507431588
20
-3.69110404183672
30
0
41
1
10
12.420569659103
20
-3.70477545080064
30
0
41
1
10
12.4500452474153
20
-3.71253908676778
30
0
41
1
10
12.5100729051285
20
-3.72573284552504
30
0
41
1
10
12.5405748926274
20
-3.73114145868831
30
0
41
1
10
12.6019619893843
20
-3.73971702722136
30
0
41
1
10
12.6329459173962
20
-3.7429014917216
30
0
41
1
10
12.6953511332628
20
-3.74714748697815
30
0
41
1
10
12.7266261267998
20
-3.7482001188844
30
0
41
1
10
12.7893195974509
20
-3.74819988109559
30
0
41
1
10
12.8205783367207
20
-3.74714699659739
30
0
41
1
10
12.8829189054842
20
-3.74290715354076
30
0
41
1
10
12.9139884163911
20
-3.73971634112533
30
0
41
1
10
12.9754607197312
20
-3.73112597879006
30
0
41
1
10
13.0059859879039
20
-3.72570876677562
30
0
41
1
10
13.0659830804452
20
-3.71251547956359
30
0
41
1
10
13.0955215460818
20
-3.70473298164848
30
0
41
1
10
13.1533469343277
20
-3.68646974059638
30
0
41
1
10
13.1814568668256
20
-3.6760545707854
30
0
41
1
10
13.2222100586158
20
-3.65806331129758
30
0
41
1
10
13.2355784660698
20
-3.65165615573778
30
0
41
1
10
13.2615999542124
20
-3.63801338563215
30
0
41
1
10
13.2742686922707
20
-3.63077348373412
30
0
41
1
10
13.2988217414719
20
-3.61531231188474
30
0
41
1
10
13.3106806304681
20
-3.60710443447803
30
0
41
1
10
13.3332517113276
20
-3.58967484375253
30
0
41
1
10
13.3440198730003
20
-3.58041010603623
30
0
41
1
10
13.3640784976741
20
-3.56072249978018
30
0
41
1
10
13.3732933412223
20
-3.55038168150236
30
0
41
1
10
13.3897773507139
20
-3.5284951177037
30
0
41
1
10
13.3970519361603
20
-3.51695271259101
30
0
41
1
10
13.4030812485791
20
-3.50463242385453
30
0
0
SPLINE
5
F8
100
AcDbEntity
8
1
62
256
6
ByLayer
370
18
48
1
60
0
100
AcDbSpline
70
4
71
3
72
8
73
4
40
0
40
0
40
0
40
0
40
1
40
1
40
1
40
1
41
1
10
13.4030812485791
20
-3.50463242385453
30
0
41
1
10
13.4060186863058
20
-3.49863006762797
30
0
41
1
10
13.4089560151728
20
-3.49262793384528
30
0
41
1
10
13.411893237692
20
-3.48662601737343
30
0
0
SPLINE
5
F9
100
AcDbEntity
8
1
62
256
6
ByLayer
370
18
48
1
60
0
100
AcDbSpline
70
4
71
3
72
35
73
31
40
0
40
0
40
0
40
0
40
0.124999999999992
40
0.124999999999992
40
0.249999999999983
40
0.249999999999983
40
0.374999999999975
40
0.374999999999975
40
0.499999999999967
40
0.499999999999967
40
0.562499999999915
40
0.562499999999915
40
0.624999999999863
40
0.624999999999863
40
0.687499999999811
40
0.687499999999811
40
0.718749999999789
40
0.718749999999789
40
0.749999999999766
40
0.749999999999766
40
0.812499999999814
40
0.812499999999814
40
0.84374999999984
40
0.84374999999984
40
0.874999999999867
40
0.906249999999894
40
0.906249999999894
40
0.93749999999992
40
0.93749999999992
40
1
40
1
40
1
40
1
41
1
10
14.1613175788578
20
-3.49432649919819
30
0
41
1
10
14.1297779381759
20
-3.47611707916036
30
0
41
1
10
14.0974991883506
20
-3.45912302261357
30
0
41
1
10
14.0316748484345
20
-3.42778949518586
30
0
41
1
10
13.9982159439466
20
-3.41348479943525
30
0
41
1
10
13.9301006087788
20
-3.38786844375201
30
0
41
1
10
13.8954293163253
20
-3.37655354883282
30
0
41
1
10
13.8252050755652
20
-3.35766968407356
30
0
41
1
10
13.7896341726005
20
-3.35008435892505
30
0
41
1
10
13.7359280604147
20
-3.34243653411713
30
0
41
1
10
13.7179947625357
20
-3.34051622771486
30
0
41
1
10
13.6820606215124
20
-3.33817201283739
30
0
41
1
10
13.6641034104088
20
-3.33775530797618
30
0
41
1
10
13.6286116050425
20
-3.33874253367176
30
0
41
1
10
13.6110271016555
20
-3.34013853295102
30
0
41
1
10
13.5849680337402
20
-3.34394026930349
30
0
41
1
10
13.5763349865293
20
-3.34549388109551
30
0
41
1
10
13.5591947525002
20
-3.34926497855571
30
0
41
1
10
13.5506797247246
20
-3.35148888202417
30
0
41
1
10
13.5258280496867
20
-3.35917523202244
30
0
41
1
10
13.5100268369397
20
-3.36566464641848
30
0
41
1
10
13.4878266863462
20
-3.37802314383734
30
0
41
1
10
13.4806983660684
20
-3.3825849604018
30
0
41
1
10
13.4674207847382
20
-3.39240091090426
30
0
41
1
10
13.4550144202363
20
-3.40296481510313
30
0
41
1
10
13.4444389012926
20
-3.41508999850305
30
0
41
1
10
13.4348415210587
20
-3.4280449547937
30
0
41
1
10
13.4305660689862
20
-3.43491463431653
30
0
41
1
10
13.4196492151556
20
-3.45600356888011
30
0
41
1
10
13.4147225604114
20
-3.47092934358918
30
0
41
1
10
13.411893237692
20
-3.48662601737343
30
0
0
SPLINE
5
FA
100
AcDbEntity
8
1
62
256
6
ByLayer
370
18
48
1
60
0
100
AcDbSpline
70
4
71
3
72
8
73
4
40
0
40
0
40
0
40
0
40
1
40
1
40
1
40
1
41
1
10
12.1040419200235
20
-3.48662601737343
30
0
41
1
10
12.1069791425428
20
-3.49262793384528
30
0
41
1
10
12.1099164714098
20
-3.49863006762797
30
0
41
1
10
12.1128539091365
20
-3.50463242385453
30
0
0
SPLINE
5
FB
100
AcDbEntity
8
1
62
256
6
ByLayer
370
18
48
1
60
0
100
AcDbSpline
70
4
71
3
72
35
73
31
40
0
40
0
40
0
40
0
40
0.124999999999997
40
0.124999999999997
40
0.249999999999994
40
0.249999999999994
40
0.374999999999991
40
0.374999999999991
40
0.4375
40
0.4375
40
0.50000000000001
40
0.50000000000001
40
0.625000000000043
40
0.625000000000043
40
0.687500000000065
40
0.687500000000065
40
0.718750000000097
40
0.718750000000097
40
0.750000000000129
40
0.750000000000129
40
0.812500000000126
40
0.812500000000126
40
0.843750000000091
40
0.843750000000091
40
0.875000000000056
40
0.906250000000021
40
0.906250000000021
40
0.937499999999986
40
0.937499999999986
40
1
40
1
40
1
40
1
41
1
10
15.5646675788578
20
-5.92500000000001
30
0
41
1
10
15.5646675788578
20
-5.96141965830256
30
0
41
1
10
15.5632423792149
20
-5.99791590485182
30
0
41
1
10
15.5574689408925
20
-6.07053580265992
30
0
41
1
10
15.5531293519003
20
-6.10666615689144
30
0
41
1
10
15.5412439606188
20
-6.17852739705563
30
0
41
1
10
15.5337151720826
20
-6.21414771258898
30
0
41
1
10
15.5196917045145
20
-6.26669381908374
30
0
41
1
10
15.5145568029398
20
-6.28407574285498
30
0
41
1
10
15.5032446020701
20
-6.3185349510899
30
0
41
1
10
15.4970655136317
20
-6.33561149488614
30
0
41
1
10
15.4768525392782
20
-6.38594002682052
30
0
41
1
10
15.4610824772325
20
-6.41854966364093
30
0
41
1
10
15.4330387985447
20
-6.46415805281836
30
0
41
1
10
15.4228966844428
20
-6.47888482887421
30
0
41
1
10
15.4064528771301
20
-6.49966463323292
30
0
41
1
10
15.4007659293806
20
-6.50637482590068
30
0
41
1
10
15.3889268712661
20
-6.51930203288535
30
0
41
1
10
15.3827519735071
20
-6.52553854505808
30
0
41
1
10
15.3636721871526
20
-6.54316581317406
30
0
41
1
10
15.3501891201931
20
-6.55353594647389
30
0
41
1
10
15.3285414411558
20
-6.5664647156355
30
0
41
1
10
15.3210286584888
20
-6.57035540294018
30
0
41
1
10
15.3058124123907
20
-6.57696449627153
30
0
41
1
10
15.2904014170266
20
-6.5824254442997
30
0
41
1
10
15.2745931935043
20
-6.58549613616202
30
0
41
1
10
15.2585782359314
20
-6.587302565485
30
0
41
1
10
15.2505434584001
20
-6.58755476560054
30
0
41
1
10
15.2269229830729
20
-6.58644292198247
30
0
41
1
10
15.211588182755
20
-6.58325285426861
30
0
41
1
10
15.1966242211566
20
-6.57787075857638
30
0
0
SPLINE
5
FC
100
AcDbEntity
8
1
62
256
6
ByLayer
370
18
48
1
60
0
100
AcDbSpline
70
4
71
3
72
35
73
31
40
0
40
0
40
0
40
0
40
0.125000000000033
40
0.125000000000033
40
0.250000000000067
40
0.250000000000067
40
0.3750000000001
40
0.3750000000001
40
0.500000000000133
40
0.500000000000133
40
0.562500000000127
40
0.562500000000127
40
0.625000000000121
40
0.625000000000121
40
0.687500000000115
40
0.687500000000115
40
0.718750000000114
40
0.718750000000114
40
0.750000000000114
40
0.750000000000114
40
0.812500000000083
40
0.812500000000083
40
0.843750000000067
40
0.843750000000067
40
0.875000000000051
40
0.906250000000036
40
0.906250000000036
40
0.93750000000002
40
0.93750000000002
40
1
40
1
40
1
40
1
41
1
10
14.1613175788578
20
-8.35567350080177
30
0
41
1
10
14.1928572195398
20
-8.33746408076394
30
0
41
1
10
14.2237138791352
20
-8.31800689168628
30
0
41
1
10
14.2837616798358
20
-8.27666810484547
30
0
41
1
10
14.3128793619932
20
-8.25484419145147
30
0
41
1
10
14.3691214443511
20
-8.20866275865049
30
0
41
1
10
14.3962560770192
20
-8.18429398606327
30
0
41
1
10
14.4477221040024
20
-8.13291994198323
30
0
41
1
10
14.4720766397592
20
-8.10590729895446
30
0
41
1
10
14.5055529064195
20
-8.06322035386705
30
0
41
1
10
14.5161825894864
20
-8.04864981553132
30
0
41
1
10
14.5361798096339
20
-8.01870204398062
30
0
41
1
10
14.5455192921814
20
-8.00335899541443
30
0
41
1
10
14.5624102323329
20
-7.97212857749329
30
0
41
1
10
14.5699935131869
20
-7.9562019512075
30
0
41
1
10
14.5797306468848
20
-7.93173326821778
30
0
41
1
10
14.5827017032107
20
-7.92348002412504
30
0
41
1
10
14.5880059540245
20
-7.90675059729892
30
0
41
1
10
14.5903375110131
20
-7.89826441519713
30
0
41
1
10
14.5961067741712
20
-7.87289905828848
30
0
41
1
10
14.598387382822
20
-7.85597009944104
30
0
41
1
10
14.5987846854015
20
-7.83056495634978
30
0
41
1
10
14.5983981965082
20
-7.82211074162061
30
0
41
1
10
14.5965361246759
20
-7.80570404363661
30
0
41
1
10
14.5935906975274
20
-7.78967786470994
30
0
41
1
10
14.5883777401494
20
-7.77445660494655
30
0
41
1
10
14.5819571090138
20
-7.75966755170887
30
0
41
1
10
14.5781455180674
20
-7.75253006183999
30
0
41
1
10
14.5653403919118
20
-7.73253132181151
30
0
41
1
10
14.5548776192147
20
-7.72080182629279
30
0
41
1
10
14.5426985623223
20
-7.71050322405023
30
0
0
SPLINE
5
FD
100
AcDbEntity
8
1
62
256
6
ByLayer
370
18
48
1
60
0
100
AcDbSpline
70
4
71
3
72
52
73
48
40
0
40
0
40
0
40
0
40
0.0156250000000193
40
0.0156250000000193
40
0.0312500000000387
40
0.0312500000000387
40
0.0625000000000769
40
0.0625000000000769
40
0.093750000000115
40
0.093750000000115
40
0.125000000000153
40
0.125000000000153
40
0.187500000000181
40
0.187500000000181
40
0.218750000000193
40
0.218750000000193
40
0.250000000000205
40
0.250000000000205
40
0.312500000000185
40
0.312500000000185
40
0.375000000000165
40
0.375000000000165
40
0.437500000000145
40
0.437500000000145
40
0.500000000000124
40
0.500000000000124
40
0.562500000000104
40
0.562500000000104
40
0.625000000000084
40
0.625000000000084
40
0.687500000000064
40
0.687500000000064
40
0.750000000000044
40
0.750000000000044
40
0.812500000000024
40
0.812500000000024
40
0.84375000000002
40
0.84375000000002
40
0.875000000000016
40
0.875000000000016
40
0.906250000000012
40
0.906250000000012
40
0.937500000000008
40
0.937500000000008
40
0.968750000000004
40
0.968750000000004
40
1
40
1
40
1
40
1
41
1
10
15.1766242211558
20
-6.57649896176545
30
0
41
1
10
15.1697820799386
20
-6.57602966039045
30
0
41
1
10
15.1629181354413
20
-6.5759282837794
30
0
41
1
10
15.1491500919925
20
-6.57638506792591
30
0
41
1
10
15.1422324594328
20
-6.57694660016583
30
0
41
1
10
15.1216597719406
20
-6.5794959073632
30
0
41
1
10
15.1081092100164
20
-6.58233795831472
30
0
41
1
10
15.0812570752999
20
-6.5898329640012
30
0
41
1
10
15.0679561041063
20
-6.59449001991146
30
0
41
1
10
15.041551992165
20
-6.60534184576846
30
0
41
1
10
15.0284963910949
20
-6.61152320498601
30
0
41
1
10
14.990073382792
20
-6.6317957250879
30
0
41
1
10
14.9651994305902
20
-6.64772440879676
30
0
41
1
10
14.9292647479876
20
-6.67401349231622
30
0
41
1
10
14.9174983626335
20
-6.68319106689748
30
0
41
1
10
14.8943392099275
20
-6.70229765167878
30
0
41
1
10
14.8829366458881
20
-6.71223752771789
30
0
41
1
10
14.8494374004478
20
-6.74291710490797
30
0
41
1
10
14.8279761003183
20
-6.76456189519436
30
0
41
1
10
14.7865361412064
20
-6.80995049232504
30
0
41
1
10
14.7666011510584
20
-6.83366168178333
30
0
41
1
10
14.7284809424785
20
-6.88253668277281
30
0
41
1
10
14.7102311513179
20
-6.90777731929018
30
0
41
1
10
14.675351403628
20
-6.95969882393101
30
0
41
1
10
14.6588023008878
20
-6.98625744688417
30
0
41
1
10
14.6274557714935
20
-7.04055170401375
30
0
41
1
10
14.6127382265812
20
-7.06814900856079
30
0
41
1
10
14.5852397539946
20
-7.12425744632461
30
0
41
1
10
14.5724683231516
20
-7.15275983826089
30
0
41
1
10
14.5491716434916
20
-7.21029159575016
30
0
41
1
10
14.5386004526274
20
-7.23943585945236
30
0
41
1
10
14.5200276282419
20
-7.29799150935224
30
0
41
1
10
14.511998236323
20
-7.32746381993996
30
0
41
1
10
14.4989019729066
20
-7.38667369567068
30
0
41
1
10
14.4938668082987
20
-7.41622519621799
30
0
41
1
10
14.4890711001661
20
-7.46051412533754
30
0
41
1
10
14.4879356559199
20
-7.47529508358076
30
0
41
1
10
14.486739897338
20
-7.50465173840939
30
0
41
1
10
14.4866754672734
20
-7.51924313835067
30
0
41
1
10
14.4877887102668
20
-7.54823728862397
30
0
41
1
10
14.488967496114
20
-7.56261132645875
30
0
41
1
10
14.4927764240302
20
-7.59087325123667
30
0
41
1
10
14.4954158414154
20
-7.60483112165554
30
0
41
1
10
14.502436496236
20
-7.63204620331604
30
0
41
1
10
14.5067844857864
20
-7.64519690105962
30
0
41
1
10
14.5174968012918
20
-7.6704157539348
30
0
41
1
10
14.523855524617
20
-7.68248693228975
30
0
41
1
10
14.5315105514353
20
-7.69386861437997
30
0
0
SPLINE
5
FE
100
AcDbEntity
8
1
62
256
6
ByLayer
370
18
48
1
60
0
100
AcDbSpline
70
4
71
3
72
8
73
4
40
0
40
0
40
0
40
0
40
1
40
1
40
1
40
1
41
1
10
14.5315105514353
20
-7.69386861437997
30
0
41
1
10
14.5352400255467
20
-7.69941368818667
30
0
41
1
10
14.5389693614459
20
-7.70495855649608
30
0
41
1
10
14.5426985623223
20
-7.71050322405023
30
0
0
SPLINE
5
FF
100
AcDbEntity
8
1
62
256
6
ByLayer
370
18
48
1
60
0
100
AcDbSpline
70
4
71
3
72
8
73
4
40
0
40
0
40
0
40
0
40
1
40
1
40
1
40
1
41
1
10
15.1966242211566
20
-6.57787075857638
30
0
41
1
10
15.1899577977609
20
-6.5774135096587
30
0
41
1
10
15.1832911329947
20
-6.57695624418542
30
0
41
1
10
15.1766242211566
20
-6.57649896176554
30
0
0
SPLINE
5
100
100
AcDbEntity
8
1
62
256
6
ByLayer
370
18
48
1
60
0
100
AcDbSpline
70
4
71
3
72
35
73
31
40
0
40
0
40
0
40
0
40
0.124999999999974
40
0.124999999999974
40
0.249999999999949
40
0.249999999999949
40
0.374999999999923
40
0.374999999999923
40
0.499999999999898
40
0.499999999999898
40
0.562499999999874
40
0.562499999999874
40
0.624999999999851
40
0.624999999999851
40
0.687499999999828
40
0.687499999999828
40
0.718749999999843
40
0.718749999999843
40
0.749999999999859
40
0.749999999999859
40
0.812499999999897
40
0.812499999999897
40
0.843749999999916
40
0.843749999999916
40
0.874999999999935
40
0.906249999999954
40
0.906249999999954
40
0.937499999999973
40
0.937499999999973
40
1
40
1
40
1
40
1
41
1
10
15.5646675788578
20
-5.92500000000001
30
0
41
1
10
15.5646675788578
20
-5.88858115992431
30
0
41
1
10
15.5632454886281
20
-5.85212991429987
30
0
41
1
10
15.5574689494126
20
-5.77945760003135
30
0
41
1
10
15.5531277270821
20
-5.74332899088671
30
0
41
1
10
15.5412544742722
20
-5.67153120240252
30
0
41
1
10
15.5337178144867
20
-5.6358475348961
30
0
41
1
10
15.5149596007098
20
-5.56558962605678
30
0
41
1
10
15.503743233502
20
-5.53099165787953
30
0
41
1
10
15.4835133879764
20
-5.48065688798417
30
0
41
1
10
15.4762097731644
20
-5.46416604324617
30
0
41
1
10
15.4602728522885
20
-5.431874056818
30
0
41
1
10
15.4516551237324
20
-5.4161143033906
30
0
41
1
10
15.4330542585176
20
-5.38587111116505
30
0
41
1
10
15.4230530359845
20
-5.37134048415851
30
0
41
1
10
15.4067311017672
20
-5.35067353752126
30
0
41
1
10
15.4010691108823
20
-5.34397390522054
30
0
41
1
10
15.389233127667
20
-5.33101557585465
30
0
41
1
10
15.38304965688
20
-5.32475329722129
30
0
41
1
10
15.3639672450001
20
-5.30707429031091
30
0
41
1
10
15.350446640904
20
-5.29663474585951
30
0
41
1
10
15.3286437928899
20
-5.28358810018713
30
0
41
1
10
15.3211289837187
20
-5.27969570202237
30
0
41
1
10
15.3059893305562
20
-5.27310495454086
30
0
41
1
10
15.2906375389059
20
-5.26764267981306
30
0
41
1
10
15.2748490625842
20
-5.26454660344959
30
0
41
1
10
15.2588310512146
20
-5.26271250650254
30
0
41
1
10
15.2507440081958
20
-5.26244469615651
30
0
41
1
10
15.2270220282097
20
-5.2635348906916
30
0
41
1
10
15.2116326007683
20
-5.26673116988195
30
0
41
1
10
15.1966242211566
20
-5.27212924142364
30
0
0
SPLINE
5
101
100
AcDbEntity
8
1
62
256
6
ByLayer
370
18
48
1
60
0
100
AcDbSpline
70
4
71
3
72
52
73
48
40
0
40
0
40
0
40
0
40
0.0156250000000026
40
0.0156250000000026
40
0.0312500000000051
40
0.0312500000000051
40
0.0625000000000103
40
0.0625000000000103
40
0.0937500000000155
40
0.0937500000000155
40
0.125000000000021
40
0.125000000000021
40
0.187500000000027
40
0.187500000000027
40
0.218750000000027
40
0.218750000000027
40
0.250000000000027
40
0.250000000000027
40
0.312500000000024
40
0.312500000000024
40
0.37500000000002
40
0.37500000000002
40
0.437500000000017
40
0.437500000000017
40
0.500000000000014
40
0.500000000000014
40
0.562500000000011
40
0.562500000000011
40
0.625000000000008
40
0.625000000000008
40
0.687500000000004
40
0.687500000000004
40
0.750000000000001
40
0.750000000000001
40
0.812499999999998
40
0.812499999999998
40
0.843749999999998
40
0.843749999999998
40
0.874999999999999
40
0.874999999999999
40
0.906249999999999
40
0.906249999999999
40
0.937499999999999
40
0.937499999999999
40
0.96875
40
0.96875
40
1
40
1
40
1
40
1
41
1
10
14.5315105514349
20
-4.15613138562065
30
0
41
1
10
14.5276830539134
20
-4.16182220304356
30
0
41
1
10
14.5241632869443
20
-4.16771586504288
30
0
41
1
10
14.5176748518948
20
-4.17986773250323
30
0
41
1
10
14.5147023367998
20
-4.18613934415387
30
0
41
1
10
14.5066237578487
20
-4.20523046774494
30
0
41
1
10
14.5023097652094
20
-4.21838662408263
30
0
41
1
10
14.4953745631772
20
-4.24538875773621
30
0
41
1
10
14.4927572063055
20
-4.25923626463995
30
0
41
1
10
14.4889531072045
20
-4.28752880927402
30
0
41
1
10
14.4877785207817
20
-4.30192597107123
30
0
41
1
10
14.4861235340372
20
-4.34533753240226
30
0
41
1
10
14.4874812026771
20
-4.37484334875589
30
0
41
1
10
14.4922808755458
20
-4.41910823852649
30
0
41
1
10
14.4943456956012
20
-4.43388701444445
30
0
41
1
10
14.4993129070484
20
-4.46349672140866
30
0
41
1
10
14.502219810189
20
-4.47834156955457
30
0
41
1
10
14.5120394806929
20
-4.52269255570857
30
0
41
1
10
14.5200537688758
20
-4.55210098196213
30
0
41
1
10
14.5386414674772
20
-4.61068333785011
30
0
41
1
10
14.549208464828
20
-4.63980314047163
30
0
41
1
10
14.5724753530049
20
-4.69725370999419
30
0
41
1
10
14.5852094898562
20
-4.72567881101176
30
0
41
1
10
14.612734958033
20
-4.78184631090915
30
0
41
1
10
14.6274608488299
20
-4.80945756576858
30
0
41
1
10
14.6588077900866
20
-4.86375158510933
30
0
41
1
10
14.6753489844442
20
-4.89029600515821
30
0
41
1
10
14.710191080621
20
-4.94216459986541
30
0
41
1
10
14.7284891606849
20
-4.96747617938624
30
0
41
1
10
14.766664784365
20
-5.01641757454021
30
0
41
1
10
14.7866188616736
20
-5.04014462622797
30
0
41
1
10
14.8280431298292
20
-5.08550698891582
30
0
41
1
10
14.8495522035469
20
-5.1071968015884
30
0
41
1
10
14.8942813283765
20
-5.14814343626705
30
0
41
1
10
14.9173560962664
20
-5.16727976700338
30
0
41
1
10
14.9533135799241
20
-5.19357743663511
30
0
41
1
10
14.9655465431319
20
-5.20195123931853
30
0
41
1
10
14.9903722726927
20
-5.2176651240415
30
0
41
1
10
15.0029765806864
20
-5.22501662208481
30
0
41
1
10
15.0286428728808
20
-5.23854960050872
30
0
41
1
10
15.0416805477243
20
-5.2447157609368
30
0
41
1
10
15.0680605564999
20
-5.25554809498919
30
0
41
1
10
15.0814681355579
20
-5.26024122769172
30
0
41
1
10
15.1085474150523
20
-5.26776870309618
30
0
41
1
10
15.122110248151
20
-5.27057858256197
30
0
41
1
10
15.1493065731479
20
-5.27391087163849
30
0
41
1
10
15.1629398819194
20
-5.27443964488072
30
0
41
1
10
15.1766242211566
20
-5.27350103823451
30
0
0
SPLINE
5
102
100
AcDbEntity
8
1
62
256
6
ByLayer
370
18
48
1
60
0
100
AcDbSpline
70
4
71
3
72
8
73
4
40
0
40
0
40
0
40
0
40
1
40
1
40
1
40
1
41
1
10
15.1766242211566
20
-5.27350103823451
30
0
41
1
10
15.1832911329947
20
-5.2730437558146
30
0
41
1
10
15.1899577977609
20
-5.27258649034133
30
0
41
1
10
15.1966242211566
20
-5.27212924142364
30
0
0
SPLINE
5
103
100
AcDbEntity
8
1
62
256
6
ByLayer
370
18
48
1
60
0
100
AcDbSpline
70
4
71
3
72
35
73
31
40
0
40
0
40
0
40
0
40
0.124999999999967
40
0.124999999999967
40
0.249999999999933
40
0.249999999999933
40
0.3749999999999
40
0.3749999999999
40
0.437499999999849
40
0.437499999999849
40
0.499999999999798
40
0.499999999999798
40
0.624999999999754
40
0.624999999999754
40
0.687499999999754
40
0.687499999999754
40
0.718749999999768
40
0.718749999999768
40
0.749999999999782
40
0.749999999999782
40
0.812499999999841
40
0.812499999999841
40
0.843749999999869
40
0.843749999999869
40
0.874999999999897
40
0.906249999999925
40
0.906249999999925
40
0.937499999999953
40
0.937499999999953
40
1
40
1
40
1
40
1
41
1
10
14.1613175788578
20
-3.49432649919819
30
0
41
1
10
14.1928579281449
20
-3.51253632834948
30
0
41
1
10
14.2237520049779
20
-3.53201871072034
30
0
41
1
10
14.2837559621388
20
-3.57332860387876
30
0
41
1
10
14.3128759722549
20
-3.59515197530371
30
0
41
1
10
14.3691669361438
20
-3.64137564616948
30
0
41
1
10
14.3962506400184
20
-3.66570592606826
30
0
41
1
10
14.4347451693288
20
-3.70412365847878
30
0
41
1
10
14.447230906094
20
-3.71726157557401
30
0
41
1
10
14.4714173553849
20
-3.74428783301735
30
0
41
1
10
14.4831165319021
20
-3.75817735247537
30
0
41
1
10
14.5165958319156
20
-3.80084656771868
30
0
41
1
10
14.5369515747874
20
-3.83080866047979
30
0
41
1
10
14.5624277590969
20
-3.87789939322772
30
0
41
1
10
14.5701104642262
20
-3.89404610971596
30
0
41
1
10
14.5798843990302
20
-3.91867676676296
30
0
41
1
10
14.5828521224699
20
-3.92695690431796
30
0
41
1
10
14.5881278830614
20
-3.94367343289432
30
0
41
1
10
14.5904414121545
20
-3.95213930730577
30
0
41
1
10
14.5961671809649
20
-3.97747652104559
30
0
41
1
10
14.5984064463635
20
-3.99433826620333
30
0
41
1
10
14.5987792493785
20
-4.01955009076343
30
0
41
1
10
14.598392292089
20
-4.02800169505852
30
0
41
1
10
14.596507811761
20
-4.04448389739525
30
0
41
1
10
14.5935316338
20
-4.06056068489238
30
0
41
1
10
14.5882868191988
20
-4.07578635398249
30
0
41
1
10
14.5818437540961
20
-4.09055892874272
30
0
41
1
10
14.5780447770374
20
-4.09764335025631
30
0
41
1
10
14.5652716545556
20
-4.11754336013007
30
0
41
1
10
14.5548415747166
20
-4.1292286529104
30
0
41
1
10
14.5426985623223
20
-4.13949677594979
30
0
0
SPLINE
5
104
100
AcDbEntity
8
1
62
256
6
ByLayer
370
18
48
1
60
0
100
AcDbSpline
70
4
71
3
72
8
73
4
40
0
40
0
40
0
40
0
40
1
40
1
40
1
40
1
41
1
10
14.5426985623223
20
-4.13949677594979
30
0
41
1
10
14.5389693614459
20
-4.14504144350394
30
0
41
1
10
14.5352400255467
20
-4.15058631181336
30
0
41
1
10
14.5315105514353
20
-4.15613138562006
30
0
0
SPLINE
5
105
100
AcDbEntity
8
1
62
256
6
ByLayer
370
18
48
1
60
0
100
AcDbSpline
70
4
71
3
72
39
73
35
40
0
40
0
40
0
40
0
40
0.125000000000066
40
0.125000000000066
40
0.250000000000132
40
0.250000000000132
40
0.375000000000197
40
0.375000000000197
40
0.437500000000231
40
0.437500000000231
40
0.500000000000265
40
0.500000000000265
40
0.562500000000299
40
0.562500000000299
40
0.625000000000333
40
0.625000000000333
40
0.687500000000367
40
0.687500000000367
40
0.718750000000352
40
0.718750000000352
40
0.750000000000337
40
0.750000000000337
40
0.812500000000249
40
0.812500000000249
40
0.843750000000208
40
0.843750000000208
40
0.875000000000166
40
0.875000000000166
40
0.906250000000124
40
0.906250000000124
40
0.937500000000083
40
0.968750000000042
40
0.968750000000042
40
1
40
1
40
1
40
1
41
1
10
9.9512675788578
20
-5.92500000000001
30
0
41
1
10
9.95126757885782
20
-5.88857512771412
30
0
41
1
10
9.95269143389768
20
-5.85211490530142
30
0
41
1
10
9.95846109795642
20
-5.7795147020455
30
0
41
1
10
9.96281115483626
20
-5.74330358400579
30
0
41
1
10
9.974682123695
20
-5.67152538098458
30
0
41
1
10
9.9822121483887
20
-5.63588125753628
30
0
41
1
10
9.99624848681097
20
-5.58328751800425
30
0
41
1
10
10.0013836854571
20
-5.56590852603804
30
0
41
1
10
10.0126802938792
20
-5.53149580130201
30
0
41
1
10
10.0188510187318
20
-5.51443924755429
30
0
41
1
10
10.0323114855815
20
-5.48091514957082
30
0
41
1
10
10.0396029554311
20
-5.46443306666967
30
0
41
1
10
10.0555207757352
20
-5.43214218825116
30
0
41
1
10
10.0641093892997
20
-5.41641597620563
30
0
41
1
10
10.0826687223088
20
-5.38619236324428
30
0
41
1
10
10.0926510104769
20
-5.37166176511164
30
0
41
1
10
10.1089517349517
20
-5.35097918431367
30
0
41
1
10
10.1146078797634
20
-5.34427172627775
30
0
41
1
10
10.1264359213049
20
-5.33129240283742
30
0
41
1
10
10.1326026628057
20
-5.32503216693243
30
0
41
1
10
10.151641812601
20
-5.30734389723051
30
0
41
1
10
10.1651411149192
20
-5.29688164827837
30
0
41
1
10
10.1869349752725
20
-5.28378255393253
30
0
41
1
10
10.1944268987454
20
-5.27988131314254
30
0
41
1
10
10.2095826763996
20
-5.27324352399518
30
0
41
1
10
10.2172879445121
20
-5.27048072438865
30
0
41
1
10
10.2329662055803
20
-5.26614190392158
30
0
41
1
10
10.2410044592051
20
-5.26456048207368
30
0
41
1
10
10.2570178734336
20
-5.26271789649331
30
0
41
1
10
10.2729113102514
20
-5.26217684233848
30
0
41
1
10
10.2885714406618
20
-5.26411636079425
30
0
41
1
10
10.3041173891928
20
-5.26725810715629
30
0
41
1
10
10.3118091263683
20
-5.26943106153018
30
0
41
1
10
10.319310936559
20
-5.27212924142364
30
0
0
SPLINE
5
106
100
AcDbEntity
8
1
62
256
6
ByLayer
370
18
48
1
60
0
100
AcDbSpline
70
4
71
3
72
8
73
4
40
0
40
0
40
0
40
0
40
1
40
1
40
1
40
1
41
1
10
10.9844246062803
20
-4.15613138562006
30
0
41
1
10
10.9806951321689
20
-4.15058631181336
30
0
41
1
10
10.9769657962696
20
-4.14504144350394
30
0
41
1
10
10.9732365953932
20
-4.13949677594979
30
0
0
SPLINE
5
107
100
AcDbEntity
8
1
62
256
6
ByLayer
370
18
48
1
60
0
100
AcDbSpline
70
4
71
3
72
35
73
31
40
0
40
0
40
0
40
0
40
0.124999999999987
40
0.124999999999987
40
0.249999999999973
40
0.249999999999973
40
0.37499999999996
40
0.37499999999996
40
0.499999999999946
40
0.499999999999946
40
0.562499999999969
40
0.562499999999969
40
0.624999999999991
40
0.624999999999991
40
0.687500000000013
40
0.687500000000013
40
0.718750000000016
40
0.718750000000016
40
0.750000000000019
40
0.750000000000019
40
0.812500000000001
40
0.812500000000001
40
0.843749999999997
40
0.843749999999997
40
0.874999999999994
40
0.90624999999999
40
0.90624999999999
40
0.937499999999987
40
0.937499999999987
40
1
40
1
40
1
40
1
41
1
10
11.3546175788578
20
-3.49432649919822
30
0
41
1
10
11.3230779381758
20
-3.51253591923609
30
0
41
1
10
11.2922212785804
20
-3.53199310831374
30
0
41
1
10
11.2321734778798
20
-3.57333189515455
30
0
41
1
10
11.2030557957223
20
-3.59515580854858
30
0
41
1
10
11.1468137133644
20
-3.64133724134953
30
0
41
1
10
11.1196790806964
20
-3.66570601393673
30
0
41
1
10
11.0682130537133
20
-3.71708005801682
30
0
41
1
10
11.0438585179564
20
-3.74409270104556
30
0
41
1
10
11.0103822512961
20
-3.78677964613294
30
0
41
1
10
10.9997525682292
20
-3.8013501844687
30
0
41
1
10
10.9797553480817
20
-3.83129795601937
30
0
41
1
10
10.9704158655343
20
-3.84664100458559
30
0
41
1
10
10.9535249253827
20
-3.87787142250673
30
0
41
1
10
10.9459416445287
20
-3.89379804879252
30
0
41
1
10
10.9362045108308
20
-3.91826673178224
30
0
41
1
10
10.9332334545049
20
-3.92651997587498
30
0
41
1
10
10.927929203691
20
-3.9432494027011
30
0
41
1
10
10.9255976467025
20
-3.95173558480289
30
0
41
1
10
10.9198283835444
20
-3.97710094171154
30
0
41
1
10
10.9175477748935
20
-3.99402990055899
30
0
41
1
10
10.9171504723141
20
-4.01943504365025
30
0
41
1
10
10.9175369612074
20
-4.02788925837942
30
0
41
1
10
10.9193990330397
20
-4.04429595636341
30
0
41
1
10
10.9223444601882
20
-4.06032213529008
30
0
41
1
10
10.9275574175662
20
-4.07554339505347
30
0
41
1
10
10.9339780487018
20
-4.09033244829115
30
0
41
1
10
10.9377896396482
20
-4.09746993816
30
0
41
1
10
10.9505947658037
20
-4.11746867818852
30
0
41
1
10
10.9610575385008
20
-4.12919817370724
30
0
41
1
10
10.9732365953932
20
-4.13949677594979
30
0
0
SPLINE
5
108
100
AcDbEntity
8
1
62
256
6
ByLayer
370
18
48
1
60
0
100
AcDbSpline
70
4
71
3
72
8
73
4
40
0
40
0
40
0
40
0
40
1
40
1
40
1
40
1
41
1
10
10.339310936559
20
-5.27350103823451
30
0
41
1
10
10.3326440247208
20
-5.2730437558146
30
0
41
1
10
10.3259773599546
20
-5.27258649034133
30
0
41
1
10
10.319310936559
20
-5.27212924142364
30
0
0
SPLINE
5
109
100
AcDbEntity
8
1
62
256
6
ByLayer
370
18
48
1
60
0
100
AcDbSpline
70
4
71
3
72
50
73
46
40
0
40
0
40
0
40
0
40
0.0312500000000298
40
0.0312500000000298
40
0.046875000000038
40
0.046875000000038
40
0.0625000000000462
40
0.0625000000000462
40
0.125000000000049
40
0.125000000000049
40
0.156250000000048
40
0.156250000000048
40
0.187500000000048
40
0.187500000000048
40
0.250000000000042
40
0.250000000000042
40
0.281250000000037
40
0.281250000000037
40
0.312500000000032
40
0.312500000000032
40
0.375000000000032
40
0.375000000000032
40
0.500000000000032
40
0.500000000000032
40
0.562500000000045
40
0.562500000000045
40
0.625000000000058
40
0.625000000000058
40
0.687500000000072
40
0.687500000000072
40
0.750000000000085
40
0.750000000000085
40
0.812500000000099
40
0.812500000000099
40
0.843750000000082
40
0.843750000000082
40
0.875000000000066
40
0.875000000000066
40
0.906250000000049
40
0.906250000000049
40
0.937500000000033
40
0.937500000000033
40
0.968750000000016
40
0.968750000000016
40
1
40
1
40
1
40
1
41
1
10
10.9844246062803
20
-4.15613138562006
30
0
41
1
10
10.9921227509316
20
-4.1675771763646
30
0
41
1
10
10.9985261886695
20
-4.17974594547795
30
0
41
1
10
11.0066138770056
20
-4.19885431479435
30
0
41
1
10
11.0090542187988
20
-4.205367812839
30
0
41
1
10
11.0134704196558
20
-4.21865845177879
30
0
41
1
10
11.015450357825
20
-4.22545506284354
30
0
41
1
10
11.0241950899267
20
-4.25969359403348
30
0
41
1
10
11.0276646064674
20
-4.28802947306954
30
0
41
1
10
11.0292673353732
20
-4.33157265245126
30
0
41
1
10
11.0291792981551
20
-4.34631050135854
30
0
41
1
10
11.0279329323939
20
-4.37572900036352
30
0
41
1
10
11.0267788556847
20
-4.39044548757499
30
0
41
1
10
11.0219367556458
20
-4.43462776599151
30
0
41
1
10
11.0168819282327
20
-4.46412658615836
30
0
41
1
10
11.0070329087389
20
-4.50847832708533
30
0
41
1
10
11.0033590575835
20
-4.52331203871077
30
0
41
1
10
10.9953323332965
20
-4.55286519123396
30
0
41
1
10
10.9909940172228
20
-4.5675378926399
30
0
41
1
10
10.9770841565478
20
-4.61127413493534
30
0
41
1
10
10.966623192388
20
-4.64005778067801
30
0
41
1
10
10.9320494534016
20
-4.72542997989615
30
0
41
1
10
10.9048008526594
20
-4.78105968660893
30
0
41
1
10
10.857785723331
20
-4.86266929132935
30
0
41
1
10
10.8412337213784
20
-4.88928387935081
30
0
41
1
10
10.8063740796257
20
-4.94127313513866
30
0
41
1
10
10.7880619945996
20
-4.96664691385556
30
0
41
1
10
10.7498543880365
20
-5.01570719398006
30
0
41
1
10
10.7298814914414
20
-5.03949243238662
30
0
41
1
10
10.6884120775021
20
-5.08496990720172
30
0
41
1
10
10.6668807246331
20
-5.10671265310663
30
0
41
1
10
10.6220936168186
20
-5.14776872099029
30
0
41
1
10
10.5989882641338
20
-5.16695628633406
30
0
41
1
10
10.5629822644286
20
-5.19332546819032
30
0
41
1
10
10.5507321909667
20
-5.20172259943249
30
0
41
1
10
10.5258698256438
20
-5.2174817192537
30
0
41
1
10
10.5132467977205
20
-5.22485462142839
30
0
41
1
10
10.4875421036865
20
-5.23842770307238
30
0
41
1
10
10.4744831751115
20
-5.24461329460414
30
0
41
1
10
10.4480608095869
20
-5.25548011014246
30
0
41
1
10
10.4346324458857
20
-5.26018843228053
30
0
41
1
10
10.4075061827006
20
-5.26774251938642
30
0
41
1
10
10.3939198156331
20
-5.27056289483303
30
0
41
1
10
10.3666762240669
20
-5.27390907247624
30
0
41
1
10
10.3530191840608
20
-5.27444128474477
30
0
41
1
10
10.339310936559
20
-5.27350103823451
30
0
0
SPLINE
5
10A
100
AcDbEntity
8
SK1
62
256
6
ByLayer
370
18
48
1
60
0
100
AcDbSpline
70
4
71
3
72
28
73
24
40
0
40
0
40
0
40
0
40
0.125000000000037
40
0.125000000000037
40
0.250000000000074
40
0.250000000000074
40
0.312500000000082
40
0.312500000000082
40
0.343750000000076
40
0.343750000000076
40
0.375000000000071
40
0.375000000000071
40
0.500000000000057
40
0.500000000000057
40
0.625000000000043
40
0.625000000000043
40
0.75000000000003
40
0.75000000000003
40
0.812500000000027
40
0.812500000000027
40
0.875000000000025
40
0.875000000000025
40
1
40
1
40
1
40
1
41
1
10
-1.22772318076633
20
-15.925
30
0
41
1
10
-1.16136657672209
20
-15.925
30
0
41
1
10
-1.09678954433079
20
-15.9291065446609
30
0
41
1
10
-0.970924126492577
20
-15.9444704103787
30
0
41
1
10
-0.909636922342173
20
-15.9557330272156
30
0
41
1
10
-0.820049599165344
20
-15.9775030934498
30
0
41
1
10
-0.790578438760065
20
-15.9855751069928
30
0
41
1
10
-0.74694869080983
20
-15.9988653331126
30
0
41
1
10
-0.732487836253625
20
-16.0034977573806
30
0
41
1
10
-0.703915946070026
20
-16.0130961996111
30
0
41
1
10
-0.68978698611636
20
-16.0180672246448
30
0
41
1
10
-0.619902298716568
20
-16.0437499878101
30
0
41
1
10
-0.566419016331224
20
-16.0669325807486
30
0
41
1
10
-0.463805054711429
20
-16.1179772945449
30
0
41
1
10
-0.414676400137409
20
-16.145841794215
30
0
41
1
10
-0.32044279603582
20
-16.2059227742249
30
0
41
1
10
-0.275338913410138
20
-16.2381397422512
30
0
41
1
10
-0.210541292887427
20
-16.2896448745841
30
0
41
1
10
-0.189468492914898
20
-16.3073089943173
30
0
41
1
10
-0.148561207406772
20
-16.3434105546253
30
0
41
1
10
-0.128690051365169
20
-16.3618767886827
30
0
41
1
10
-0.0707457654722532
20
-16.4185096216394
30
0
41
1
10
-0.0343374611514378
20
-16.457902147767
30
0
41
1
10
0
20
-16.4989903551092
30
0
0
SPLINE
5
10B
100
AcDbEntity
8
1
62
256
6
ByLayer
370
18
48
1
60
0
100
AcDbSpline
70
4
71
3
72
18
73
14
40
0
40
0
40
0
40
0
40
0.106502320877076
40
0.209819720888292
40
0.309970050664473
40
0.406972922400256
40
0.500849920825807
40
0.591624858696408
40
0.679324076625762
40
0.763976789997764
40
0.845615488385912
40
0.924276395492597
40
1
40
1
40
1
40
1
41
1
10
38.6980862172677
20
-14.591914648177
30
0
41
1
10
38.6965091061935
20
-14.5912356963495
30
0
41
1
10
38.693402047092
20
-14.5898980965508
30
0
41
1
10
38.6888919111763
20
-14.5875950376114
30
0
41
1
10
38.6845829023199
20
-14.5851336525213
30
0
41
1
10
38.6804802013748
20
-14.5825098420597
30
0
41
1
10
38.676582489068
20
-14.5797475341628
30
0
41
1
10
38.6728900240871
20
-14.5768629608244
30
0
41
1
10
38.6694029509026
20
-14.5738731471596
30
0
41
1
10
38.6661204155716
20
-14.57079564553
30
0
41
1
10
38.6630454487202
20
-14.5676415847493
30
0
41
1
10
38.6601672624497
20
-14.5644420074179
30
0
41
1
10
38.6583711657763
20
-14.5622081231617
30
0
41
1
10
38.6574902036077
20
-14.5611124318507
30
0
0
SPLINE
5
10C
100
AcDbEntity
8
1
62
256
6
ByLayer
370
18
48
1
60
0
100
AcDbSpline
70
4
71
3
72
16
73
12
40
0
40
0
40
0
40
0
40
0.117319552192519
40
0.233085853411002
40
0.347299362420246
40
0.459960556948181
40
0.57106993474476
40
0.680628014712951
40
0.788635338118816
40
0.895092469888322
40
1
40
1
40
1
40
1
41
1
10
38.8569129943077
20
-14.647267476298
30
0
41
1
10
38.8506453455702
20
-14.6454446731299
30
0
41
1
10
38.8381930285648
20
-14.641823199777
30
0
41
1
10
38.8196868348826
20
-14.6361085912359
30
0
41
1
10
38.8014648755764
20
-14.6302431101865
30
0
41
1
10
38.7835304222354
20
-14.6242133266125
30
0
41
1
10
38.7658826942356
20
-14.6180337309317
30
0
41
1
10
38.7485216077424
20
-14.6117130798226
30
0
41
1
10
38.7314482369928
20
-14.6052550550507
30
0
41
1
10
38.7146584541165
20
-14.5986879439445
30
0
41
1
10
38.7035832305374
20
-14.5941613513213
30
0
41
1
10
38.6980862172677
20
-14.59191464817
30
0
0
SPLINE
5
10D
100
AcDbEntity
8
1
62
256
6
ByLayer
370
18
48
1
60
0
100
AcDbSpline
70
4
71
2
72
10
73
7
40
0
40
0
40
0
40
0.5
40
0.5
40
0.75
40
0.75
40
1
40
1
40
1
41
1
10
38.8569129943012
20
-14.647267476262
30
0
41
1
10
38.9245068205236
20
-14.6667621635151
30
0
41
1
10
38.9722030616267
20
-14.7184857110099
30
0
41
1
10
38.9981900515785
20
-14.746666952926
30
0
41
1
10
39.0148269535881
20
-14.7825223538963
30
0
41
1
10
39.03279281501
20
-14.8212418922267
30
0
41
1
10
39.0369137759407
20
-14.864264413028
30
0
0
SPLINE
5
10E
100
AcDbEntity
8
1
62
256
6
ByLayer
370
18
48
1
60
0
100
AcDbSpline
70
4
71
2
72
6
73
3
40
0
40
0
40
0
40
1
40
1
40
1
41
1
10
39.0369137759782
20
-14.864264412942
30
0
41
1
10
39.0458050681508
20
-14.9594834459601
30
0
41
1
10
39.0458285383892
20
-15.0549999993024
30
0
0
SPLINE
5
10F
100
AcDbEntity
8
1
62
256
6
ByLayer
370
18
48
1
60
0
100
AcDbSpline
70
4
71
3
72
17
73
13
40
0
40
0
40
0
40
0
40
0.10031741181699
40
0.200541310293692
40
0.300680278273629
40
0.400742920447648
40
0.500737861201953
40
0.600673742442857
40
0.700559221399301
40
0.800402968404934
40
0.900213664663619
40
1
40
1
40
1
40
1
41
1
10
39.0369137759777
20
-15.285735587058
30
0
41
1
10
39.0374907017395
20
-15.2793912298246
30
0
41
1
10
39.0386440154675
20
-15.2667084294062
30
0
41
1
10
39.0401494039788
20
-15.2476539472122
30
0
41
1
10
39.041489205109
20
-15.2285914790205
30
0
41
1
10
39.042647382609
20
-15.2095196957169
30
0
41
1
10
39.043628305849
20
-15.1904410706663
30
0
41
1
10
39.0444305147006
20
-15.1713570587512
30
0
41
1
10
39.0450554832193
20
-15.1522693864805
30
0
41
1
10
39.0454987763668
20
-15.1331797063309
30
0
41
1
10
39.0457766520422
20
-15.1140896896565
30
0
41
1
10
39.0458112443465
20
-15.1013627125725
30
0
41
1
10
39.0458285383877
20
-15.0950000006976
30
0
0
SPLINE
5
110
100
AcDbEntity
8
1
62
256
6
ByLayer
370
18
48
1
60
0
100
AcDbSpline
70
4
71
3
72
38
73
34
40
0
40
0
40
0
40
0
40
0.0320161803202257
40
0.0634137556517183
40
0.0941938978135862
40
0.124357850632103
40
0.153906935795995
40
0.182842559298786
40
0.211166218540818
40
0.238879510169541
40
0.26598413874764
40
0.292481926351478
40
0.318374823219169
40
0.343664919578667
40
0.368354458810756
40
0.392445852120268
40
0.415941694916191
40
0.438844785127721
40
0.461158143719632
40
0.482885037706398
40
0.504029006008708
40
0.551366811163473
40
0.597409666800777
40
0.642207857911442
40
0.685815975457831
40
0.728293199080092
40
0.769703557232107
40
0.810116149644001
40
0.849605314211505
40
0.888250718111348
40
0.926137351649964
40
0.963355403685003
40
1
40
1
40
1
40
1
41
1
10
38.8569129942977
20
-15.502732523738
30
0
41
1
10
38.8595412022225
20
-15.5019514392853
30
0
41
1
10
38.8647468367947
20
-15.5004043622094
30
0
41
1
10
38.87241836926
20
-15.4977682841381
30
0
41
1
10
38.8798924884199
20
-15.4949441000572
30
0
41
1
10
38.8871650942036
20
-15.491921089855
30
0
41
1
10
38.894237255293
20
-15.4887183659082
30
0
41
1
10
38.9011086967219
20
-15.4853470598267
30
0
41
1
10
38.9077794928938
20
-15.4818201212966
30
0
41
1
10
38.9142496277212
20
-15.4781497437452
30
0
41
1
10
38.92051910886
20
-15.474348007265
30
0
41
1
10
38.9265879381035
20
-15.4704266889405
30
0
41
1
10
38.9324561190212
20
-15.4663972918274
30
0
41
1
10
38.9381236552255
20
-15.4622710198155
30
0
41
1
10
38.9435905500458
20
-15.4580587686773
30
0
41
1
10
38.9488568095157
20
-15.4537711161078
30
0
41
1
10
38.9539224312742
20
-15.4494183110025
30
0
41
1
10
38.9587874446604
20
-15.4450102765179
30
0
41
1
10
38.9634517667685
20
-15.4405565701327
30
0
41
1
10
38.9679157190759
20
-15.4360665051889
30
0
41
1
10
38.9739771356574
20
-15.4296419695069
30
0
41
1
10
38.981426398061
20
-15.4210531831905
30
0
41
1
10
38.9899703211373
20
-15.4099799163679
30
0
41
1
10
38.9978165015012
20
-15.3985305586926
30
0
41
1
10
39.0049651843955
20
-15.3867506191717
30
0
41
1
10
39.0114161979483
20
-15.3746846186172
30
0
41
1
10
39.0171693145935
20
-15.3623766525562
30
0
41
1
10
39.0222247334684
20
-15.349870165371
30
0
41
1
10
39.0265808749648
20
-15.3372074528295
30
0
41
1
10
39.0302424590416
20
-15.3244310234884
30
0
41
1
10
39.0331912788525
20
-15.3115780883644
30
0
41
1
10
39.0354922122895
20
-15.2987000583364
30
0
41
1
10
39.0364423803637
20
-15.2900346518978
30
0
41
1
10
39.0369137759377
20
-15.285735586972
30
0
0
SPLINE
5
111
100
AcDbEntity
8
1
62
256
6
ByLayer
370
18
48
1
60
0
100
AcDbSpline
70
4
71
2
72
6
73
3
40
0
40
0
40
0
40
1
40
1
40
1
41
1
10
38.8569129943097
20
-15.502732523702
30
0
41
1
10
38.7759142978734
20
-15.525984756672
30
0
41
1
10
38.6980862172702
20
-15.55808535183
30
0
0
SPLINE
5
112
100
AcDbEntity
8
1
62
256
6
ByLayer
370
18
48
1
60
0
100
AcDbSpline
70
4
71
2
72
6
73
3
40
0
40
0
40
0
40
1
40
1
40
1
41
1
10
38.6980862172692
20
-15.558085351823
30
0
41
1
10
38.6737873382768
20
-15.5682546708632
30
0
41
1
10
38.6574902036082
20
-15.588887568149
30
0
0
LINE
5
7F
100
AcDbEntity
8
80
62
256
6
ByLayer
370
18
48
1
60
0
100
AcDbLine
10
0
20
0
30
0
11
-5
21
0
31
0
39
0
210
0
220
0
230
1
0
LINE
5
80
100
AcDbEntity
8
81
62
256
6
ByLayer
370
18
48
1
60
0
100
AcDbLine
10
46.107968
20
-17.075
30
0
11
51.107968
21
-17.075
31
0
39
0
210
0
220
0
230
1
0
LINE
5
81
100
AcDbEntity
8
1
62
256
6
ByLayer
370
18
48
1
60
0
100
AcDbLine
10
0
20
15.926878
30
0
11
0
21
-16.49899
31
0
39
0
210
0
220
0
230
1
0
LINE
5
82
100
AcDbEntity
8
1
62
256
6
ByLayer
370
18
48
1
60
0
100
AcDbLine
10
38.913402
20
-16.75
30
0
11
37.625912
21
-16.75
31
0
39
0
210
0
220
0
230
1
0
LINE
5
83
100
AcDbEntity
8
1
62
256
6
ByLayer
370
18
48
1
60
0
100
AcDbLine
10
38.913402
20
-13.4
30
0
11
37.625912
21
-13.4
31
0
39
0
210
0
220
0
230
1
0
LINE
5
84
100
AcDbEntity
8
1
62
256
6
ByLayer
370
18
48
1
60
0
100
AcDbLine
10
41.824364
20
-13.4
30
0
11
38.913402
21
-13.4
31
0
39
0
210
0
220
0
230
1
0
LINE
5
85
100
AcDbEntity
8
1
62
256
6
ByLayer
370
18
48
1
60
0
100
AcDbLine
10
38.913268
20
-13.475016
30
0
11
38.913402
21
-13.4
31
0
39
0
210
0
220
0
230
1
0
LINE
5
86
100
AcDbEntity
8
1
62
256
6
ByLayer
370
18
48
1
60
0
100
AcDbLine
10
41.824364
20
-16.75
30
0
11
38.913402
21
-16.75
31
0
39
0
210
0
220
0
230
1
0
LINE
5
87
100
AcDbEntity
8
1
62
256
6
ByLayer
370
18
48
1
60
0
100
AcDbLine
10
38.913402
20
-16.75
30
0
11
38.913268
21
-16.674984
31
0
39
0
210
0
220
0
230
1
0
LINE
5
88
100
AcDbEntity
8
1
62
256
6
ByLayer
370
18
48
1
60
0
100
AcDbLine
10
0.172054
20
-16.75
30
0
11
0.475219
21
-16.75
31
0
39
0
210
0
220
0
230
1
0
LINE
5
89
100
AcDbEntity
8
1
62
256
6
ByLayer
370
18
48
1
60
0
100
AcDbLine
10
34.607968
20
-13.4
30
0
11
37.625887
21
-13.4
31
0
39
0
210
0
220
0
230
1
0
LINE
5
8A
100
AcDbEntity
8
1
62
256
6
ByLayer
370
18
48
1
60
0
100
AcDbLine
10
37.625887
20
-16.75
30
0
11
34.607968
21
-16.75
31
0
39
0
210
0
220
0
230
1
0
LINE
5
8B
100
AcDbEntity
8
1
62
256
6
ByLayer
370
18
48
1
60
0
100
AcDbLine
10
38.107968
20
-14.800031
30
0
11
38.107968
21
-15.349969
31
0
39
0
210
0
220
0
230
1
0
LINE
5
8C
100
AcDbEntity
8
1
62
256
6
ByLayer
370
18
48
1
60
0
100
AcDbLine
10
2.572312
20
15.965361
30
0
11
0.475219
21
15.931211
31
0
39
0
210
0
220
0
230
1
0
LINE
5
8D
100
AcDbEntity
8
1
62
256
6
ByLayer
370
18
48
1
60
0
100
AcDbLine
10
0.475219
20
-16.75
30
0
11
2.572312
21
-16.75
31
0
39
0
210
0
220
0
230
1
0
LINE
5
8E
100
AcDbEntity
8
1
62
256
6
ByLayer
370
13
48
1
60
0
100
AcDbLine
10
0.475219
20
-16.75
30
0
11
0.475219
21
15.931211
31
0
39
0
210
0
220
0
230
1
0
LINE
5
8F
100
AcDbEntity
8
1
62
256
6
ByLayer
370
18
48
1
60
0
100
AcDbLine
10
25.774508
20
-13.4
30
0
11
34.607968
21
-13.4
31
0
39
0
210
0
220
0
230
1
0
LINE
5
90
100
AcDbEntity
8
1
62
256
6
ByLayer
370
18
48
1
60
0
100
AcDbLine
10
34.607968
20
-16.75
30
0
11
25.774508
21
-16.75
31
0
39
0
210
0
220
0
230
1
0
LINE
5
91
100
AcDbEntity
8
1
62
256
6
ByLayer
370
18
48
1
60
0
100
AcDbLine
10
34.607968
20
-13.4
30
0
11
34.607968
21
-16.75
31
0
39
0
210
0
220
0
230
1
0
LINE
5
92
100
AcDbEntity
8
1
62
256
6
ByLayer
370
18
48
1
60
0
100
AcDbLine
10
19.507968
20
-2.874359
30
0
11
19.507968
21
-11.8
31
0
39
0
210
0
220
0
230
1
0
LINE
5
93
100
AcDbEntity
8
1
62
256
6
ByLayer
370
18
48
1
60
0
100
AcDbLine
10
7.983278
20
15.965361
30
0
11
19.507968
21
-2.874359
31
0
39
0
210
0
220
0
230
1
0
LINE
5
94
100
AcDbEntity
8
1
62
256
6
ByLayer
370
18
48
1
60
0
100
AcDbLine
10
7.983278
20
15.965361
30
0
11
2.572312
21
15.965361
31
0
39
0
210
0
220
0
230
1
0
LINE
5
95
100
AcDbEntity
8
1
62
256
6
ByLayer
370
18
48
1
60
0
100
AcDbLine
10
2.572312
20
15.965361
30
0
11
2.572312
21
-16.75
31
0
39
0
210
0
220
0
230
1
0
LINE
5
96
100
AcDbEntity
8
1
62
256
6
ByLayer
370
18
48
1
60
0
100
AcDbLine
10
2.572312
20
-16.75
30
0
11
25.774508
21
-16.75
31
0
39
0
210
0
220
0
230
1
0
LINE
5
97
100
AcDbEntity
8
1
62
256
6
ByLayer
370
18
48
1
60
0
100
AcDbLine
10
25.774508
20
-16.75
30
0
11
25.774508
21
-13.4
31
0
39
0
210
0
220
0
230
1
0
LINE
5
98
100
AcDbEntity
8
1
62
256
6
ByLayer
370
18
48
1
60
0
100
AcDbLine
10
21.107968
20
-13.4
30
0
11
25.774508
21
-13.4
31
0
39
0
210
0
220
0
230
1
0
LINE
5
99
100
AcDbEntity
8
SK1
62
256
6
ByLayer
370
18
48
1
60
0
100
AcDbLine
10
-4.462166
20
15.925
30
0
11
-123.892032
21
15.925
31
0
39
0
210
0
220
0
230
1
0
LINE
5
9B
100
AcDbEntity
8
SK1
62
256
6
ByLayer
370
18
48
1
60
0
100
AcDbLine
10
-123.892032
20
-15.925
30
0
11
-123.892032
21
15.925
31
0
39
0
210
0
220
0
230
1
0
LINE
5
9C
100
AcDbEntity
8
SK1
62
256
6
ByLayer
370
18
48
1
60
0
100
AcDbLine
10
-4.462166
20
-15.925
30
0
11
-123.892032
21
-15.925
31
0
39
0
210
0
220
0
230
1
0
LINE
5
9D
100
AcDbEntity
8
SK1
62
256
6
ByLayer
370
18
48
1
60
0
100
AcDbLine
10
0
20
15.926878
30
0
11
0
21
-16.49899
31
0
39
0
210
0
220
0
230
1
0
LINE
5
9E
100
AcDbEntity
8
SK1
62
256
6
ByLayer
370
18
48
1
60
0
100
AcDbLine
10
-4.462166
20
15.925
30
0
11
-4.462166
21
-15.925
31
0
39
0
210
0
220
0
230
1
0
LINE
5
9F
100
AcDbEntity
8
SK1
62
256
6
ByLayer
370
18
48
1
60
0
100
AcDbLine
10
-1.227723
20
-15.925
30
0
11
-4.462166
21
-15.925
31
0
39
0
210
0
220
0
230
1
0
LINE
5
A0
100
AcDbEntity
8
1
62
256
6
ByLayer
370
18
48
1
60
0
100
AcDbLine
10
25.107968
20
-13.23626
30
0
11
25.391571
21
-13.399998
31
0
39
0
210
0
220
0
230
1
0
LINE
5
A1
100
AcDbEntity
8
1
62
256
6
ByLayer
370
18
48
1
60
0
100
AcDbLine
10
21.421053
20
-13.075286
30
0
11
25.107968
21
-13.23626
31
0
39
0
210
0
220
0
230
1
0
LINE
5
A2
100
AcDbEntity
8
1
62
256
6
ByLayer
370
18
48
1
60
0
100
AcDbLine
10
25.107968
20
-16.91374
30
0
11
25.391571
21
-16.750002
31
0
39
0
210
0
220
0
230
1
0
LINE
5
A3
100
AcDbEntity
8
1
62
256
6
ByLayer
370
18
48
1
60
0
100
AcDbLine
10
21.421053
20
-17.074714
30
0
11
25.107968
21
-16.91374
31
0
39
0
210
0
220
0
230
1
0
LINE
5
A4
100
AcDbEntity
8
1
62
256
6
ByLayer
370
18
48
1
60
0
100
AcDbLine
10
21.107968
20
-16.775
30
0
11
21.107968
21
-16.749978
31
0
39
0
210
0
220
0
230
1
0
LINE
5
A5
100
AcDbEntity
8
1
62
256
6
ByLayer
370
18
48
1
60
0
100
AcDbLine
10
21.107968
20
-13.400022
30
0
11
21.107968
21
-13.375
31
0
39
0
210
0
220
0
230
1
0
LINE
5
A6
100
AcDbEntity
8
1
62
256
6
ByLayer
370
18
48
1
60
0
100
AcDbLine
10
39.737968
20
-13.475
30
0
11
41.694457
21
-13.475
31
0
39
0
210
0
220
0
230
1
0
LINE
5
A7
100
AcDbEntity
8
1
62
256
6
ByLayer
370
18
48
1
60
0
100
AcDbLine
10
39.737968
20
-16.675
30
0
11
41.694457
21
-16.675
31
0
39
0
210
0
220
0
230
1
0
LINE
5
A8
100
AcDbEntity
8
1
62
256
6
ByLayer
370
18
48
1
60
0
100
AcDbLine
10
46.107968
20
-16.775
30
0
11
46.107968
21
-13.375
31
0
39
0
210
0
220
0
230
1
0
LINE
5
A9
100
AcDbEntity
8
1
62
256
6
ByLayer
370
18
48
1
60
0
100
AcDbLine
10
42.107968
20
-16.91374
30
0
11
41.694457
21
-16.675
31
0
39
0
210
0
220
0
230
1
0
LINE
5
AA
100
AcDbEntity
8
1
62
256
6
ByLayer
370
18
48
1
60
0
100
AcDbLine
10
45.794882
20
-17.074714
30
0
11
42.107968
21
-16.91374
31
0
39
0
210
0
220
0
230
1
0
LINE
5
AB
100
AcDbEntity
8
1
62
256
6
ByLayer
370
18
48
1
60
0
100
AcDbLine
10
45.794882
20
-13.075286
30
0
11
42.107968
21
-13.23626
31
0
39
0
210
0
220
0
230
1
0
LINE
5
AC
100
AcDbEntity
8
1
62
256
6
ByLayer
370
18
48
1
60
0
100
AcDbLine
10
42.107968
20
-13.23626
30
0
11
41.694457
21
-13.475
31
0
39
0
210
0
220
0
230
1
0
LINE
5
AD
100
AcDbEntity
8
1
62
256
6
ByLayer
370
13
48
1
60
0
100
AcDbLine
10
38.107967
20
-15.095
30
0
11
39.045829
21
-15.095
31
0
39
0
210
0
220
0
230
1
0
LINE
5
AE
100
AcDbEntity
8
1
62
256
6
ByLayer
370
13
48
1
60
0
100
AcDbLine
10
38.107967
20
-15.055
30
0
11
39.045829
21
-15.055
31
0
39
0
210
0
220
0
230
1
0
LINE
5
AF
100
AcDbEntity
8
1
62
256
6
ByLayer
370
13
48
1
60
0
100
AcDbLine
10
38.107885
20
-14.864264
30
0
11
39.036914
21
-14.864264
31
0
39
0
210
0
220
0
230
1
0
LINE
5
B0
100
AcDbEntity
8
1
62
256
6
ByLayer
370
13
48
1
60
0
100
AcDbLine
10
38.107885
20
-15.285736
30
0
11
39.036914
21
-15.285736
31
0
39
0
210
0
220
0
230
1
0
LINE
5
B1
100
AcDbEntity
8
1
62
256
6
ByLayer
370
13
48
1
60
0
100
AcDbLine
10
37.999449
20
-15.502733
30
0
11
38.856913
21
-15.502733
31
0
39
0
210
0
220
0
230
1
0
LINE
5
B2
100
AcDbEntity
8
1
62
256
6
ByLayer
370
13
48
1
60
0
100
AcDbLine
10
37.999449
20
-14.647267
30
0
11
38.856913
21
-14.647267
31
0
39
0
210
0
220
0
230
1
0
LINE
5
B3
100
AcDbEntity
8
1
62
256
6
ByLayer
370
13
48
1
60
0
100
AcDbLine
10
38.698086
20
-15.558085
30
0
11
37.869828
21
-15.558085
31
0
39
0
210
0
220
0
230
1
0
LINE
5
B4
100
AcDbEntity
8
1
62
256
6
ByLayer
370
13
48
1
60
0
100
AcDbLine
10
38.698086
20
-14.591915
30
0
11
37.869828
21
-14.591915
31
0
39
0
210
0
220
0
230
1
0
LINE
5
B5
100
AcDbEntity
8
1
62
256
6
ByLayer
370
13
48
1
60
0
100
AcDbLine
10
37.827791
20
-15.588888
30
0
11
38.65749
21
-15.588888
31
0
39
0
210
0
220
0
230
1
0
LINE
5
B6
100
AcDbEntity
8
1
62
256
6
ByLayer
370
13
48
1
60
0
100
AcDbLine
10
37.827948
20
-14.561112
30
0
11
38.65749
21
-14.561112
31
0
39
0
210
0
220
0
230
1
0
LINE
5
B7
100
AcDbEntity
8
1
62
256
6
ByLayer
370
13
48
1
60
0
100
AcDbLine
10
37.813028
20
-14.469335
30
0
11
38.585659
21
-14.469335
31
0
39
0
210
0
220
0
230
1
0
LINE
5
B8
100
AcDbEntity
8
1
62
256
6
ByLayer
370
13
48
1
60
0
100
AcDbLine
10
37.811783
20
-15.680665
30
0
11
38.585659
21
-15.680665
31
0
39
0
210
0
220
0
230
1
0
LINE
5
B9
100
AcDbEntity
8
1
62
256
6
ByLayer
370
13
48
1
60
0
100
AcDbLine
10
37.805809
20
-14.425066
30
0
11
38.565926
21
-14.425066
31
0
39
0
210
0
220
0
230
1
0
LINE
5
BA
100
AcDbEntity
8
1
62
256
6
ByLayer
370
13
48
1
60
0
100
AcDbLine
10
37.804105
20
-15.724934
30
0
11
38.565926
21
-15.724934
31
0
39
0
210
0
220
0
230
1
0
LINE
5
BB
100
AcDbEntity
8
1
62
256
6
ByLayer
370
18
48
1
60
0
100
AcDbLine
10
39.737968
20
-13.475
30
0
11
38.442486
21
-13.475
31
0
39
0
210
0
220
0
230
1
0
LINE
5
BC
100
AcDbEntity
8
1
62
256
6
ByLayer
370
18
48
1
60
0
100
AcDbLine
10
39.737968
20
-16.675
30
0
11
38.442486
21
-16.675
31
0
39
0
210
0
220
0
230
1
0
LINE
5
BD
100
AcDbEntity
8
1
62
256
6
ByLayer
370
18
48
1
60
0
100
AcDbLine
10
38.444005
20
-13.733616
30
0
11
38.565926
21
-14.425066
31
0
39
0
210
0
220
0
230
1
0
LINE
5
BE
100
AcDbEntity
8
1
62
256
6
ByLayer
370
18
48
1
60
0
100
AcDbLine
10
38.585659
20
-14.469335
30
0
11
38.65749
21
-14.561112
31
0
39
0
210
0
220
0
230
1
0
LINE
5
BF
100
AcDbEntity
8
1
62
256
6
ByLayer
370
18
48
1
60
0
100
AcDbLine
10
39.045829
20
-15.095
30
0
11
39.045829
21
-15.055
31
0
39
0
210
0
220
0
230
1
0
LINE
5
C0
100
AcDbEntity
8
1
62
256
6
ByLayer
370
18
48
1
60
0
100
AcDbLine
10
38.585659
20
-15.680665
30
0
11
38.65749
21
-15.588888
31
0
39
0
210
0
220
0
230
1
0
LINE
5
C1
100
AcDbEntity
8
1
62
256
6
ByLayer
370
18
48
1
60
0
100
AcDbLine
10
38.444005
20
-16.416384
30
0
11
38.565926
21
-15.724934
31
0
39
0
210
0
220
0
230
1
0
LINE
5
C2
100
AcDbEntity
8
1
62
256
6
ByLayer
370
18
48
1
60
0
100
AcDbLine
10
39.737968
20
-16.675
30
0
11
39.737968
21
-13.475
31
0
39
0
210
0
220
0
230
1
0
LINE
5
C3
100
AcDbEntity
8
1
62
256
6
ByLayer
370
18
48
1
60
0
100
AcDbLine
10
37.639805
20
-13.475
30
0
11
38.442486
21
-13.475
31
0
39
0
210
0
220
0
230
1
0
LINE
5
C4
100
AcDbEntity
8
1
62
256
6
ByLayer
370
18
48
1
60
0
100
AcDbLine
10
38.442486
20
-13.475
30
0
11
38.442486
21
-13.716251
31
0
39
0
210
0
220
0
230
1
0
LINE
5
C5
100
AcDbEntity
8
1
62
256
6
ByLayer
370
13
48
1
60
0
100
AcDbLine
10
37.68384
20
-16.416384
30
0
11
38.444005
21
-16.416384
31
0
39
0
210
0
220
0
230
1
0
LINE
5
C6
100
AcDbEntity
8
1
62
256
6
ByLayer
370
13
48
1
60
0
100
AcDbLine
10
37.680747
20
-16.433749
30
0
11
38.442486
21
-16.433749
31
0
39
0
210
0
220
0
230
1
0
LINE
5
C7
100
AcDbEntity
8
1
62
256
6
ByLayer
370
18
48
1
60
0
100
AcDbLine
10
37.638898
20
-16.675
30
0
11
38.442486
21
-16.675
31
0
39
0
210
0
220
0
230
1
0
LINE
5
C8
100
AcDbEntity
8
1
62
256
6
ByLayer
370
18
48
1
60
0
100
AcDbLine
10
38.442486
20
-16.675
30
0
11
38.442486
21
-16.433749
31
0
39
0
210
0
220
0
230
1
0
LINE
5
C9
100
AcDbEntity
8
1
62
256
6
ByLayer
370
13
48
1
60
0
100
AcDbLine
10
37.683769
20
-13.716251
30
0
11
38.442486
21
-13.716251
31
0
39
0
210
0
220
0
230
1
0
LINE
5
CA
100
AcDbEntity
8
1
62
256
6
ByLayer
370
13
48
1
60
0
100
AcDbLine
10
37.687014
20
-13.733616
30
0
11
38.444005
21
-13.733616
31
0
39
0
210
0
220
0
230
1
0
MTEXT
5
113
100
AcDbEntity
8
SK6
62
256
6
ByLayer
370
18
48
1
60
0
100
AcDbMText
10
-71.206532
20
-54.772186
30
0
210
0
220
0
230
1
1
\W0.7737;C2R-RS32-LH25DB
40
3.5
41
0
44
1.084337
50
0
71
7
72
5
7
iso_b_vert
0
DIMENSION
5
118
100
AcDbEntity
8
2
62
256
6
ByLayer
370
18
48
1
60
0
100
AcDbDimension
2
_U0
10
79.207968
20
15.925
30
0
11
79.207968
21
-0.575
31
0
70
32
71
1
72
1
41
1
210
0
220
0
230
1
3
Standard
100
AcDbAlignedDimension
13
46.107968
23
-17.075
33
0
14
-123.892032
24
15.925
34
0
50
90
100
AcDbRotatedDimension
1001
ACAD
1000
DSTYLE
1002
{
1070
   371
1070
    13
1070
   372
1070
    13
1070
   170
1070
     0
1070
   144
1040
1.0
1070
   277
1070
     2
1070
   284
1070
     8
1070
   278
1070
    46
1070
   146
1040
1.0
1070
   345
1005
16
1070
   347
1005
16
1070
   346
1005
16
1070
   344
1005
0
1070
   343
1005
0
1070
   172
1070
     1
1070
    76
1070
     0
1070
    75
1070
     0
1070
   282
1070
     0
1070
   281
1070
     0
1070
    71
1070
     0
1070
    74
1070
     0
1070
   279
1070
     0
1070
   173
1070
     1
1070
   340
1005
114
1070
   271
1070
     2
1070
   272
1070
     2
1070
    77
1070
     1
1070
    73
1070
     0
1070
   171
1070
     3
1070
   274
1070
     4
1070
   177
1070
     2
1070
   176
1070
     2
1070
   178
1070
     2
1070
    78
1070
     8
1070
    48
1040
-0.1
1070
    41
1040
3.5
1070
   147
1040
1.75
1070
    42
1040
1.5875
1070
    44
1040
2.0
1070
   140
1040
3.5
1002
}
1001
ACAD_DSTYLE_DIM_LINETYPE
1070
   380
1005
16
1001
ACAD_DSTYLE_DIM_EXT1_LINETYPE
1070
   381
1005
16
1001
ACAD_DSTYLE_DIM_EXT2_LINETYPE
1070
   382
1005
16
0
DIMENSION
5
132
100
AcDbEntity
8
2
62
256
6
ByLayer
370
18
48
1
60
0
100
AcDbDimension
2
_U1
10
67.207968
20
-17.075
30
0
11
67.207968
21
-15.075
31
0
70
32
71
1
72
1
41
1
210
0
220
0
230
1
3
Standard
100
AcDbAlignedDimension
13
46.107968
23
-13.075
33
0
14
46.107968
24
-17.075
34
0
50
90
100
AcDbRotatedDimension
1001
ACAD
1000
DSTYLE
1002
{
1070
   371
1070
    13
1070
   372
1070
    13
1070
   170
1070
     0
1070
   144
1040
1.0
1070
   277
1070
     2
1070
   284
1070
     8
1070
   278
1070
    46
1070
   146
1040
1.0
1070
   345
1005
16
1070
   347
1005
16
1070
   346
1005
16
1070
   344
1005
0
1070
   343
1005
0
1070
   172
1070
     1
1070
    76
1070
     0
1070
    75
1070
     0
1070
   282
1070
     0
1070
   281
1070
     0
1070
    71
1070
     0
1070
    74
1070
     0
1070
   279
1070
     0
1070
   173
1070
     1
1070
   340
1005
114
1070
   271
1070
     2
1070
   272
1070
     2
1070
    77
1070
     1
1070
    73
1070
     0
1070
   171
1070
     3
1070
   274
1070
     4
1070
   177
1070
     2
1070
   176
1070
     2
1070
   178
1070
     2
1070
    78
1070
     8
1070
    48
1040
-0.1
1070
    41
1040
3.5
1070
   147
1040
1.75
1070
    42
1040
1.5875
1070
    44
1040
2.0
1070
   140
1040
3.5
1002
}
1001
ACAD_DSTYLE_DIM_LINETYPE
1070
   380
1005
16
1001
ACAD_DSTYLE_DIM_EXT1_LINETYPE
1070
   381
1005
16
1001
ACAD_DSTYLE_DIM_EXT2_LINETYPE
1070
   382
1005
16
0
DIMENSION
5
14B
100
AcDbEntity
8
SK2
62
256
6
ByLayer
370
18
48
1
60
0
100
AcDbDimension
2
_U2
10
-135.492032
20
-16.075
30
0
11
-135.492032
21
-0.075
31
0
70
32
71
1
72
1
41
1
210
0
220
0
230
1
3
Standard
100
AcDbAlignedDimension
13
-123.892032
23
15.925
33
0
14
-123.892032
24
-16.075
34
0
50
90
100
AcDbRotatedDimension
1001
ACAD
1000
DSTYLE
1002
{
1070
   371
1070
    13
1070
   372
1070
    13
1070
   170
1070
     0
1070
   144
1040
1.0
1070
   277
1070
     2
1070
   284
1070
     8
1070
   278
1070
    46
1070
   146
1040
1.0
1070
   345
1005
16
1070
   347
1005
16
1070
   346
1005
16
1070
   344
1005
0
1070
   343
1005
0
1070
   172
1070
     1
1070
    76
1070
     0
1070
    75
1070
     0
1070
   282
1070
     0
1070
   281
1070
     0
1070
    71
1070
     0
1070
    74
1070
     0
1070
   279
1070
     0
1070
   173
1070
     1
1070
   340
1005
114
1070
   271
1070
     2
1070
   272
1070
     2
1070
    77
1070
     1
1070
    73
1070
     0
1070
   171
1070
     3
1070
   274
1070
     4
1070
   177
1070
     2
1070
   176
1070
     2
1070
   178
1070
     2
1070
    78
1070
     8
1070
    48
1040
-0.1
1070
    41
1040
3.5
1070
   147
1040
1.75
1070
    42
1040
1.5875
1070
    44
1040
2.0
1070
   140
1040
3.5
1002
}
1001
ACAD_DSTYLE_DIM_LINETYPE
1070
   380
1005
16
1001
ACAD_DSTYLE_DIM_EXT1_LINETYPE
1070
   381
1005
16
1001
ACAD_DSTYLE_DIM_EXT2_LINETYPE
1070
   382
1005
16
0
DIMENSION
5
164
100
AcDbEntity
8
2
62
256
6
ByLayer
370
18
48
1
60
0
100
AcDbDimension
2
_U3
10
46.107968
20
22.175
30
0
11
33.607968
21
22.175
31
0
70
32
71
1
72
1
41
1
210
0
220
0
230
1
3
Standard
100
AcDbAlignedDimension
13
21.107968
23
-13.4
33
0
14
46.107968
24
-17.075
34
0
50
0
100
AcDbRotatedDimension
1001
ACAD
1000
DSTYLE
1002
{
1070
   371
1070
    13
1070
   372
1070
    13
1070
   170
1070
     0
1070
   144
1040
1.0
1070
   277
1070
     2
1070
   284
1070
     8
1070
   278
1070
    46
1070
   146
1040
1.0
1070
   345
1005
16
1070
   347
1005
16
1070
   346
1005
16
1070
   344
1005
0
1070
   343
1005
0
1070
   172
1070
     1
1070
    76
1070
     0
1070
    75
1070
     0
1070
   282
1070
     0
1070
   281
1070
     0
1070
    71
1070
     0
1070
    74
1070
     0
1070
   279
1070
     0
1070
   173
1070
     1
1070
   340
1005
114
1070
   271
1070
     1
1070
   272
1070
     2
1070
    77
1070
     1
1070
    73
1070
     1
1070
   171
1070
     3
1070
   274
1070
     4
1070
   177
1070
     2
1070
   176
1070
     2
1070
   178
1070
     2
1070
    78
1070
     8
1070
    48
1040
-0.1
1070
    41
1040
3.5
1070
   147
1040
1.75
1070
    42
1040
1.5875
1070
    44
1040
2.0
1070
   140
1040
3.5
1002
}
1001
ACAD_DSTYLE_DIM_LINETYPE
1070
   380
1005
16
1001
ACAD_DSTYLE_DIM_EXT1_LINETYPE
1070
   381
1005
16
1001
ACAD_DSTYLE_DIM_EXT2_LINETYPE
1070
   382
1005
16
0
DIMENSION
5
17C
100
AcDbEntity
8
SK2
62
256
6
ByLayer
370
18
48
1
60
0
100
AcDbDimension
2
_U4
10
46.107968
20
38.175
30
0
11
-38.892032
21
38.175
31
0
70
32
71
1
72
1
41
1
210
0
220
0
230
1
3
Standard
100
AcDbAlignedDimension
13
-123.892032
23
15.925
33
0
14
46.107968
24
-17.075
34
0
50
0
100
AcDbRotatedDimension
1001
ACAD
1000
DSTYLE
1002
{
1070
   371
1070
    13
1070
   372
1070
    13
1070
   170
1070
     0
1070
   144
1040
1.0
1070
   277
1070
     2
1070
   284
1070
     8
1070
   278
1070
    46
1070
   146
1040
1.0
1070
   345
1005
16
1070
   347
1005
16
1070
   346
1005
16
1070
   344
1005
0
1070
   343
1005
0
1070
   172
1070
     1
1070
    76
1070
     0
1070
    75
1070
     0
1070
   282
1070
     0
1070
   281
1070
     0
1070
    71
1070
     0
1070
    74
1070
     0
1070
   279
1070
     0
1070
   173
1070
     1
1070
   340
1005
114
1070
   271
1070
     1
1070
   272
1070
     2
1070
    77
1070
     1
1070
    73
1070
     1
1070
   171
1070
     3
1070
   274
1070
     4
1070
   177
1070
     2
1070
   176
1070
     2
1070
   178
1070
     2
1070
    78
1070
     8
1070
    48
1040
-0.1
1070
    41
1040
3.5
1070
   147
1040
1.75
1070
    42
1040
1.5875
1070
    44
1040
2.0
1070
   140
1040
3.5
1002
}
1001
ACAD_DSTYLE_DIM_LINETYPE
1070
   380
1005
16
1001
ACAD_DSTYLE_DIM_EXT1_LINETYPE
1070
   381
1005
16
1001
ACAD_DSTYLE_DIM_EXT2_LINETYPE
1070
   382
1005
16
0
ENDSEC
0
SECTION
2
OBJECTS
0
DICTIONARY
5
203
330
0
100
AcDbDictionary
280
0
281
1
3
ACAD_GROUP
350
204
3
ACAD_MLINESTYLE
350
205
0
DICTIONARY
5
204
330
0
100
AcDbDictionary
280
0
281
1
0
DICTIONARY
5
205
330
0
100
AcDbDictionary
280
0
281
1
3
Standard
350
18
0
MLINESTYLE
5
18
330
205
100
AcDbMlineStyle
2
Standard
70
0
3

62
256
51
90
52
90
71
2
49
-0.5
62
256
6
ByLayer
49
0.5
62
256
6
ByLayer
0
RASTERVARIABLES
5
1f2
330

100
AcDbRasterVariables
90
0
70
1
71
1
72
1
0
ENDSEC
0
EOF
