0
SECTION
2
HEADER
9
$ACADVER
1
AC1015
9
$DWGCODEPAGE
3
ANSI_1252
9
$HANDSEED
5
210
9
$ANGBASE
50
0
9
$ANGDIR
70
0
9
$ATTMODE
70
1
9
$AUNITS
70
0
9
$AUPREC
70
0
9
$CECOLOR
62
256
9
$CELTSCALE
40
1
9
$CELTYPE
6
ByLayer
9
$CELWEIGHT
370
18
9
$CLAYER
8
0
9
$CMLJUST
70
0
9
$CMLSCALE
40
1
9
$CMLSTYLE
2
Standard
9
$DIMSTYLE
2
Standard
9
$TEXTSIZE
40
0.2
9
$TEXTSTYLE
7
Standard
9
$LUNITS
70
2
9
$LUPREC
70
4
9
$EXTNAMES
290
1
9
$INSUNITS
70
4
9
$LTSCALE
40
1
9
$LWDISPLAY
290
1
9
$PDMODE
70
0
9
$PDSIZE
40
0
9
$PLINEGEN
70
0
0
ENDSEC
0
SECTION
2
CLASSES
0
CLASS
1
RASTERVARIABLES
2
AcDbRasterVariables
3
ISM
90
0
280
0
281
0
0
ENDSEC
0
SECTION
2
TABLES
0
TABLE
2
VPORT
5
206
100
AcDbSymbolTable
0
VPORT
5
1
100
AcDbSymbolTableRecord
100
AcDbViewportTableRecord
2
*Active
70
0
10
0
20
0
11
1
21
1
12
-1
22
1
13
0
23
0
14
0.5
24
0.5
15
10
25
10
16
0
26
0
36
1
17
0
27
0
37
0
0
ENDTAB
0
TABLE
2
LTYPE
5
207
100
AcDbSymbolTable
0
LTYPE
5
14
100
AcDbSymbolTableRecord
100
AcDbLinetypeTableRecord
70
0
2
ByBlock
3

72
65
73
0
40
0
0
LTYPE
5
15
100
AcDbSymbolTableRecord
100
AcDbLinetypeTableRecord
70
0
2
ByLayer
3

72
65
73
0
40
0
0
LTYPE
5
16
100
AcDbSymbolTableRecord
100
AcDbLinetypeTableRecord
70
0
2
Continuous
3
Solid line
72
65
73
0
40
0
0
LTYPE
5
6E
100
AcDbSymbolTableRecord
100
AcDbLinetypeTableRecord
70
0
2
CENTER
3
____ _ ____ _ ____ _ ____
72
65
73
4
40
47.5
49
22
74
0
49
-8.5
74
0
49
8.5
74
0
49
-8.5
74
0
0
LTYPE
5
6F
100
AcDbSymbolTableRecord
100
AcDbLinetypeTableRecord
70
0
2
DASHED
3
__ __ __ __ __ __ __ __ __
72
65
73
2
40
25.72
49
12.86
74
0
49
-12.86
74
0
0
ENDTAB
0
TABLE
2
LAYER
5
208
100
AcDbSymbolTable
0
LAYER
5
10
100
AcDbSymbolTableRecord
100
AcDbLayerTableRecord
2
0
70
0
62
7
6
Continuous
290
1
370
-3
390
0
0
LAYER
5
71
100
AcDbSymbolTableRecord
100
AcDbLayerTableRecord
2
81
70
0
62
-3
6
Continuous
290
1
370
-3
390
0
0
LAYER
5
73
100
AcDbSymbolTableRecord
100
AcDbLayerTableRecord
2
80
70
0
62
-6
6
Continuous
290
1
370
-3
390
0
0
LAYER
5
75
100
AcDbSymbolTableRecord
100
AcDbLayerTableRecord
2
1
70
0
62
4
6
Continuous
290
1
370
-3
390
0
0
LAYER
5
11B
100
AcDbSymbolTableRecord
100
AcDbLayerTableRecord
2
Defpoints
70
0
62
7
6
Continuous
290
0
370
-3
390
0
0
LAYER
5
128
100
AcDbSymbolTableRecord
100
AcDbLayerTableRecord
2
2
70
0
62
7
6
Continuous
290
1
370
-3
390
0
0
LAYER
5
1f3
100
AcDbSymbolTableRecord
100
AcDbLayerTableRecord
2
SK1
70
0
62
4
6
Continuous
290
1
370
-3
390
0
0
LAYER
5
1f4
100
AcDbSymbolTableRecord
100
AcDbLayerTableRecord
2
SK6
70
0
62
5
6
Continuous
290
1
370
-3
390
0
0
LAYER
5
1f5
100
AcDbSymbolTableRecord
100
AcDbLayerTableRecord
2
SK2
70
0
62
7
6
Continuous
290
1
370
-3
390
0
0
ENDTAB
0
TABLE
2
STYLE
5
209
100
AcDbSymbolTable
0
STYLE
5
11
100
AcDbSymbolTableRecord
100
AcDbTextStyleTableRecord
2
Standard
3
txt
70
0
71
0
40
0
41
1
42
0
50
0
0
STYLE
5
114
100
AcDbSymbolTableRecord
100
AcDbTextStyleTableRecord
2
iso_b_vert
3
simplex.shx
70
0
71
0
40
0
41
1
42
0
50
0
0
STYLE
5
115
100
AcDbSymbolTableRecord
100
AcDbTextStyleTableRecord
2
DWGDirectTextStyle
3
simplex
70
0
71
0
40
0
41
1
42
0
50
0
0
ENDTAB
0
TABLE
2
DIMSTYLE
5
20a
100
AcDbSymbolTable
100
AcDbDimStyleTable
0
DIMSTYLE
105
27
100
AcDbSymbolTableRecord
100
AcDbDimStyleTableRecord
2
Standard
70
0
3
<>
41
0.18
42
0.0625
44
0.18
140
0.18
147
0.09
73
0
74
0
77
1
271
2
275
0
278
52
280
0
340
11
0
ENDTAB
0
TABLE
2
VIEW
5
20b
100
AcDbSymbolTable
0
ENDTAB
0
TABLE
2
UCS
5
20c
100
AcDbSymbolTable
0
ENDTAB
0
TABLE
2
APPID
5
20d
100
AcDbSymbolTable
0
APPID
5
12
100
AcDbSymbolTableRecord
100
AcDbRegAppTableRecord
2
ACAD
70
0
0
APPID
5
117
100
AcDbSymbolTableRecord
100
AcDbRegAppTableRecord
2
ACAD_DSTYLE_DIMBREAK
70
0
0
APPID
5
1B2
100
AcDbSymbolTableRecord
100
AcDbRegAppTableRecord
2
ACAD_DSTYLE_DIM_LINETYPE
70
0
0
APPID
5
1B3
100
AcDbSymbolTableRecord
100
AcDbRegAppTableRecord
2
ACAD_DSTYLE_DIM_EXT1_LINETYPE
70
0
0
APPID
5
1B4
100
AcDbSymbolTableRecord
100
AcDbRegAppTableRecord
2
ACAD_DSTYLE_DIM_EXT2_LINETYPE
70
0
0
APPID
5
1EF
100
AcDbSymbolTableRecord
100
AcDbRegAppTableRecord
2
ACAD_MLEADERVER
70
0
0
ENDTAB
0
TABLE
2
BLOCK_RECORD
5
20e
100
AcDbSymbolTable
0
BLOCK_RECORD
5
1F
100
AcDbSymbolTableRecord
100
AcDbBlockTableRecord
2
*Model_Space
340
0
70
0
0
BLOCK_RECORD
5
1B
100
AcDbSymbolTableRecord
100
AcDbBlockTableRecord
2
*Paper_Space
340
0
70
0
0
BLOCK_RECORD
5
23
100
AcDbSymbolTableRecord
100
AcDbBlockTableRecord
2
*Paper_Space0
340
0
70
0
0
BLOCK_RECORD
5
11C
100
AcDbSymbolTableRecord
100
AcDbBlockTableRecord
2
*D1
340
0
70
0
0
BLOCK_RECORD
5
129
100
AcDbSymbolTableRecord
100
AcDbBlockTableRecord
2
_U0
340
0
70
0
0
BLOCK_RECORD
5
135
100
AcDbSymbolTableRecord
100
AcDbBlockTableRecord
2
*D3
340
0
70
0
0
BLOCK_RECORD
5
142
100
AcDbSymbolTableRecord
100
AcDbBlockTableRecord
2
_U1
340
0
70
0
0
BLOCK_RECORD
5
14E
100
AcDbSymbolTableRecord
100
AcDbBlockTableRecord
2
*D5
340
0
70
0
0
BLOCK_RECORD
5
15B
100
AcDbSymbolTableRecord
100
AcDbBlockTableRecord
2
_U2
340
0
70
0
0
BLOCK_RECORD
5
167
100
AcDbSymbolTableRecord
100
AcDbBlockTableRecord
2
*D7
340
0
70
0
0
BLOCK_RECORD
5
173
100
AcDbSymbolTableRecord
100
AcDbBlockTableRecord
2
_U3
340
0
70
0
0
BLOCK_RECORD
5
17F
100
AcDbSymbolTableRecord
100
AcDbBlockTableRecord
2
*D9
340
0
70
0
0
BLOCK_RECORD
5
18B
100
AcDbSymbolTableRecord
100
AcDbBlockTableRecord
2
_U4
340
0
70
0
0
ENDTAB
0
ENDSEC
0
SECTION
2
BLOCKS
0
BLOCK
5
20
100
AcDbEntity
8
0
100
AcDbBlockBegin
2
*Model_Space
70
0
10
0
20
0
30
0
3
*Model_Space
0
ENDBLK
5
21
100
AcDbEntity
8
0
100
AcDbBlockEnd
0
BLOCK
5
1C
100
AcDbEntity
8
0
100
AcDbBlockBegin
2
*Paper_Space
70
0
10
0
20
0
30
0
3
*Paper_Space
0
ENDBLK
5
1D
100
AcDbEntity
8
0
100
AcDbBlockEnd
0
BLOCK
5
24
100
AcDbEntity
8
0
100
AcDbBlockBegin
2
*Paper_Space0
70
0
10
0
20
0
30
0
3
*Paper_Space0
0
ENDBLK
5
25
100
AcDbEntity
8
0
100
AcDbBlockEnd
0
BLOCK
5
11D
100
AcDbEntity
8
0
100
AcDbBlockBegin
2
*D1
70
1
10
0
20
0
30
0
3
*D1
0
LINE
5
11F
100
AcDbEntity
8
0
62
256
6
ByLayer
370
-2
48
1
60
0
100
AcDbLine
10
47.695468
20
13.5625
30
0
11
75.857968
21
13.5625
31
0
39
0
210
0
220
0
230
1
0
LINE
5
120
100
AcDbEntity
8
0
62
256
6
ByLayer
370
-2
48
1
60
0
100
AcDbLine
10
-102.304532
20
-12.4375
30
0
11
75.857968
21
-12.4375
31
0
39
0
210
0
220
0
230
1
0
LINE
5
121
100
AcDbEntity
8
0
62
256
6
ByLayer
370
-2
48
1
60
0
100
AcDbLine
10
73.857968
20
10.0625
30
0
11
73.857968
21
-8.9375
31
0
39
0
210
0
220
0
230
1
0
SOLID
5
122
100
AcDbEntity
8
0
62
256
6
ByLayer
370
-1
48
1
60
0
100
AcDbTrace
10
74.441301
20
10.0625
30
0
11
73.274634
21
10.0625
31
0
12
73.857968
22
13.5625
32
0
13
73.857968
23
13.5625
33
0
39
0
210
0
220
0
230
1
0
SOLID
5
123
100
AcDbEntity
8
0
62
256
6
ByLayer
370
-1
48
1
60
0
100
AcDbTrace
10
73.274634
20
-8.9375
30
0
11
74.441301
21
-8.9375
31
0
12
73.857968
22
-12.4375
32
0
13
73.857968
23
-12.4375
33
0
39
0
210
0
220
0
230
1
0
MTEXT
5
124
100
AcDbEntity
8
0
62
256
6
ByLayer
370
18
48
1
60
0
100
AcDbMText
10
66.857968
20
0.5625
30
0
210
0
220
0
230
1
1
\A1;26
40
3.5
41
0
44
1
50
90
71
5
72
5
7
iso_b_vert
0
POINT
5
125
100
AcDbEntity
8
Defpoints
62
0
6
ByLayer
370
-1
48
1
60
0
100
AcDbPoint
10
46.107968
20
13.5625
30
0
39
0
210
0
220
0
230
1
50
360
0
POINT
5
126
100
AcDbEntity
8
Defpoints
62
0
6
ByLayer
370
-1
48
1
60
0
100
AcDbPoint
10
-103.892032
20
-12.4375
30
0
39
0
210
0
220
0
230
1
50
360
0
POINT
5
127
100
AcDbEntity
8
Defpoints
62
0
6
ByLayer
370
-1
48
1
60
0
100
AcDbPoint
10
73.857968
20
-12.4375
30
0
39
0
210
0
220
0
230
1
50
360
0
ENDBLK
5
11E
100
AcDbEntity
8
0
100
AcDbBlockEnd
0
BLOCK
5
130
100
AcDbEntity
8
0
100
AcDbBlockBegin
2
_U0
70
0
10
0
20
0
30
0
3
_U0
0
MTEXT
5
12A
100
AcDbEntity
8
2
62
256
6
ByLayer
370
18
48
1
60
0
100
AcDbMText
10
73.168334
20
-1.370466
30
0
210
0
220
0
230
1
1
\W0.6740;26
40
3.5
41
0
44
1.084337
50
90
71
7
72
5
7
iso_b_vert
0
LINE
5
12B
100
AcDbEntity
8
2
62
256
6
ByLayer
370
13
48
1
60
0
100
AcDbLine
10
47.695468
20
13.5625
30
0
11
75.857968
21
13.5625
31
0
39
0
210
0
220
0
230
1
0
LINE
5
12C
100
AcDbEntity
8
2
62
256
6
ByLayer
370
13
48
1
60
0
100
AcDbLine
10
-102.304532
20
-12.4375
30
0
11
75.857968
21
-12.4375
31
0
39
0
210
0
220
0
230
1
0
LINE
5
12D
100
AcDbEntity
8
2
62
256
6
ByLayer
370
13
48
1
60
0
100
AcDbLine
10
73.857968
20
13.5625
30
0
11
73.857968
21
-12.4375
31
0
39
0
210
0
220
0
230
1
0
SOLID
5
12E
100
AcDbEntity
8
2
62
256
6
ByLayer
370
18
48
1
60
0
100
AcDbTrace
10
73.857968
20
13.5625
30
0
11
74.318751
21
10.062502
31
0
12
73.397184
22
10.062498
32
0
13
73.397184
23
10.062498
33
0
39
0
210
0
220
0
230
1
0
SOLID
5
12F
100
AcDbEntity
8
2
62
256
6
ByLayer
370
18
48
1
60
0
100
AcDbTrace
10
73.857968
20
-12.4375
30
0
11
73.397184
21
-8.937502
31
0
12
74.318751
22
-8.937498
32
0
13
74.318751
23
-8.937498
33
0
39
0
210
0
220
0
230
1
0
ENDBLK
5
131
100
AcDbEntity
8
0
100
AcDbBlockEnd
0
BLOCK
5
136
100
AcDbEntity
8
0
100
AcDbBlockBegin
2
*D3
70
1
10
0
20
0
30
0
3
*D3
0
LINE
5
138
100
AcDbEntity
8
0
62
256
6
ByLayer
370
-2
48
1
60
0
100
AcDbLine
10
47.695468
20
9.5625
30
0
11
68.207968
21
9.5625
31
0
39
0
210
0
220
0
230
1
0
LINE
5
139
100
AcDbEntity
8
0
62
256
6
ByLayer
370
-2
48
1
60
0
100
AcDbLine
10
47.695468
20
13.5625
30
0
11
68.207968
21
13.5625
31
0
39
0
210
0
220
0
230
1
0
LINE
5
13A
100
AcDbEntity
8
0
62
256
6
ByLayer
370
-2
48
1
60
0
100
AcDbLine
10
66.207968
20
6.0625
30
0
11
66.207968
21
2.5625
31
0
39
0
210
0
220
0
230
1
0
LINE
5
13B
100
AcDbEntity
8
0
62
256
6
ByLayer
370
-2
48
1
60
0
100
AcDbLine
10
66.207968
20
17.0625
30
0
11
66.207968
21
20.5625
31
0
39
0
210
0
220
0
230
1
0
SOLID
5
13C
100
AcDbEntity
8
0
62
256
6
ByLayer
370
-1
48
1
60
0
100
AcDbTrace
10
66.791301
20
6.0625
30
0
11
65.624634
21
6.0625
31
0
12
66.207968
22
9.5625
32
0
13
66.207968
23
9.5625
33
0
39
0
210
0
220
0
230
1
0
SOLID
5
13D
100
AcDbEntity
8
0
62
256
6
ByLayer
370
-1
48
1
60
0
100
AcDbTrace
10
65.624634
20
17.0625
30
0
11
66.791301
21
17.0625
31
0
12
66.207968
22
13.5625
32
0
13
66.207968
23
13.5625
33
0
39
0
210
0
220
0
230
1
0
MTEXT
5
13E
100
AcDbEntity
8
0
62
256
6
ByLayer
370
18
48
1
60
0
100
AcDbMText
10
59.207968
20
11.5625
30
0
210
0
220
0
230
1
1
\A1;4
40
3.5
41
0
44
1
50
90
71
5
72
5
7
iso_b_vert
0
POINT
5
13F
100
AcDbEntity
8
Defpoints
62
0
6
ByLayer
370
-1
48
1
60
0
100
AcDbPoint
10
46.107968
20
9.5625
30
0
39
0
210
0
220
0
230
1
50
360
0
POINT
5
140
100
AcDbEntity
8
Defpoints
62
0
6
ByLayer
370
-1
48
1
60
0
100
AcDbPoint
10
46.107968
20
13.5625
30
0
39
0
210
0
220
0
230
1
50
360
0
POINT
5
141
100
AcDbEntity
8
Defpoints
62
0
6
ByLayer
370
-1
48
1
60
0
100
AcDbPoint
10
66.207968
20
13.5625
30
0
39
0
210
0
220
0
230
1
50
360
0
ENDBLK
5
137
100
AcDbEntity
8
0
100
AcDbBlockEnd
0
BLOCK
5
149
100
AcDbEntity
8
0
100
AcDbBlockBegin
2
_U1
70
0
10
0
20
0
30
0
3
_U1
0
MTEXT
5
143
100
AcDbEntity
8
2
62
256
6
ByLayer
370
18
48
1
60
0
100
AcDbMText
10
65.518334
20
10.753
30
0
210
0
220
0
230
1
1
\W0.6380;4
40
3.5
41
0
44
1.084337
50
90
71
7
72
5
7
iso_b_vert
0
LINE
5
144
100
AcDbEntity
8
2
62
256
6
ByLayer
370
13
48
1
60
0
100
AcDbLine
10
47.695468
20
9.5625
30
0
11
68.207968
21
9.5625
31
0
39
0
210
0
220
0
230
1
0
LINE
5
145
100
AcDbEntity
8
2
62
256
6
ByLayer
370
13
48
1
60
0
100
AcDbLine
10
47.695468
20
13.5625
30
0
11
68.207968
21
13.5625
31
0
39
0
210
0
220
0
230
1
0
LINE
5
146
100
AcDbEntity
8
2
62
256
6
ByLayer
370
13
48
1
60
0
100
AcDbLine
10
66.207968
20
0.8125
30
0
11
66.207968
21
22.3125
31
0
39
0
210
0
220
0
230
1
0
SOLID
5
147
100
AcDbEntity
8
2
62
256
6
ByLayer
370
18
48
1
60
0
100
AcDbTrace
10
66.207968
20
9.5625
30
0
11
66.668751
21
6.062502
31
0
12
65.747184
22
6.062498
32
0
13
65.747184
23
6.062498
33
0
39
0
210
0
220
0
230
1
0
SOLID
5
148
100
AcDbEntity
8
2
62
256
6
ByLayer
370
18
48
1
60
0
100
AcDbTrace
10
66.207968
20
13.5625
30
0
11
65.747184
21
17.062498
31
0
12
66.668751
22
17.062502
32
0
13
66.668751
23
17.062502
33
0
39
0
210
0
220
0
230
1
0
ENDBLK
5
14A
100
AcDbEntity
8
0
100
AcDbBlockEnd
0
BLOCK
5
14F
100
AcDbEntity
8
0
100
AcDbBlockBegin
2
*D5
70
1
10
0
20
0
30
0
3
*D5
0
LINE
5
151
100
AcDbEntity
8
0
62
256
6
ByLayer
370
-2
48
1
60
0
100
AcDbLine
10
-105.479532
20
-12.4375
30
0
11
-117.492032
21
-12.4375
31
0
39
0
210
0
220
0
230
1
0
LINE
5
152
100
AcDbEntity
8
0
62
256
6
ByLayer
370
-2
48
1
60
0
100
AcDbLine
10
-105.479532
20
12.5625
30
0
11
-117.492032
21
12.5625
31
0
39
0
210
0
220
0
230
1
0
LINE
5
153
100
AcDbEntity
8
0
62
256
6
ByLayer
370
-2
48
1
60
0
100
AcDbLine
10
-115.492032
20
-8.9375
30
0
11
-115.492032
21
9.0625
31
0
39
0
210
0
220
0
230
1
0
SOLID
5
154
100
AcDbEntity
8
0
62
256
6
ByLayer
370
-1
48
1
60
0
100
AcDbTrace
10
-116.075366
20
-8.9375
30
0
11
-114.908699
21
-8.9375
31
0
12
-115.492032
22
-12.4375
32
0
13
-115.492032
23
-12.4375
33
0
39
0
210
0
220
0
230
1
0
SOLID
5
155
100
AcDbEntity
8
0
62
256
6
ByLayer
370
-1
48
1
60
0
100
AcDbTrace
10
-114.908699
20
9.0625
30
0
11
-116.075366
21
9.0625
31
0
12
-115.492032
22
12.5625
32
0
13
-115.492032
23
12.5625
33
0
39
0
210
0
220
0
230
1
0
MTEXT
5
156
100
AcDbEntity
8
0
62
256
6
ByLayer
370
18
48
1
60
0
100
AcDbMText
10
-122.492032
20
0.0625
30
0
210
0
220
0
230
1
1
\A1;25
40
3.5
41
0
44
1
50
90
71
5
72
5
7
iso_b_vert
0
POINT
5
157
100
AcDbEntity
8
Defpoints
62
0
6
ByLayer
370
-1
48
1
60
0
100
AcDbPoint
10
-103.892032
20
-12.4375
30
0
39
0
210
0
220
0
230
1
50
360
0
POINT
5
158
100
AcDbEntity
8
Defpoints
62
0
6
ByLayer
370
-1
48
1
60
0
100
AcDbPoint
10
-103.892032
20
12.5625
30
0
39
0
210
0
220
0
230
1
50
360
0
POINT
5
159
100
AcDbEntity
8
Defpoints
62
0
6
ByLayer
370
-1
48
1
60
0
100
AcDbPoint
10
-115.492032
20
12.5625
30
0
39
0
210
0
220
0
230
1
50
360
0
ENDBLK
5
150
100
AcDbEntity
8
0
100
AcDbBlockEnd
0
BLOCK
5
162
100
AcDbEntity
8
0
100
AcDbBlockBegin
2
_U2
70
0
10
0
20
0
30
0
3
_U2
0
MTEXT
5
15C
100
AcDbEntity
8
SK2
62
256
6
ByLayer
370
18
48
1
60
0
100
AcDbMText
10
-116.181666
20
-1.870466
30
0
210
0
220
0
230
1
1
\W0.6740;25
40
3.5
41
0
44
1.084337
50
90
71
7
72
5
7
iso_b_vert
0
LINE
5
15D
100
AcDbEntity
8
SK2
62
256
6
ByLayer
370
13
48
1
60
0
100
AcDbLine
10
-105.479532
20
-12.4375
30
0
11
-117.492032
21
-12.4375
31
0
39
0
210
0
220
0
230
1
0
LINE
5
15E
100
AcDbEntity
8
SK2
62
256
6
ByLayer
370
13
48
1
60
0
100
AcDbLine
10
-105.479532
20
12.5625
30
0
11
-117.492032
21
12.5625
31
0
39
0
210
0
220
0
230
1
0
LINE
5
15F
100
AcDbEntity
8
SK2
62
256
6
ByLayer
370
13
48
1
60
0
100
AcDbLine
10
-115.492032
20
-12.4375
30
0
11
-115.492032
21
12.5625
31
0
39
0
210
0
220
0
230
1
0
SOLID
5
160
100
AcDbEntity
8
SK2
62
256
6
ByLayer
370
18
48
1
60
0
100
AcDbTrace
10
-115.492032
20
-12.4375
30
0
11
-115.952816
21
-8.937502
31
0
12
-115.031249
22
-8.937498
32
0
13
-115.031249
23
-8.937498
33
0
39
0
210
0
220
0
230
1
0
SOLID
5
161
100
AcDbEntity
8
SK2
62
256
6
ByLayer
370
18
48
1
60
0
100
AcDbTrace
10
-115.492032
20
12.5625
30
0
11
-115.031249
21
9.062502
31
0
12
-115.952816
22
9.062498
32
0
13
-115.952816
23
9.062498
33
0
39
0
210
0
220
0
230
1
0
ENDBLK
5
163
100
AcDbEntity
8
0
100
AcDbBlockEnd
0
BLOCK
5
168
100
AcDbEntity
8
0
100
AcDbBlockBegin
2
*D7
70
1
10
0
20
0
30
0
3
*D7
0
LINE
5
16A
100
AcDbEntity
8
0
62
256
6
ByLayer
370
-2
48
1
60
0
100
AcDbLine
10
21.107968
20
8.3
30
0
11
21.107968
21
-26.1875
31
0
39
0
210
0
220
0
230
1
0
LINE
5
16B
100
AcDbEntity
8
0
62
256
6
ByLayer
370
-2
48
1
60
0
100
AcDbLine
10
46.107968
20
11.975
30
0
11
46.107968
21
-26.1875
31
0
39
0
210
0
220
0
230
1
0
LINE
5
16C
100
AcDbEntity
8
0
62
256
6
ByLayer
370
-2
48
1
60
0
100
AcDbLine
10
24.607968
20
-24.1875
30
0
11
42.607968
21
-24.1875
31
0
39
0
210
0
220
0
230
1
0
SOLID
5
16D
100
AcDbEntity
8
0
62
256
6
ByLayer
370
-1
48
1
60
0
100
AcDbTrace
10
24.607968
20
-23.604167
30
0
11
24.607968
21
-24.770833
31
0
12
21.107968
22
-24.1875
32
0
13
21.107968
23
-24.1875
33
0
39
0
210
0
220
0
230
1
0
SOLID
5
16E
100
AcDbEntity
8
0
62
256
6
ByLayer
370
-1
48
1
60
0
100
AcDbTrace
10
42.607968
20
-24.770833
30
0
11
42.607968
21
-23.604167
31
0
12
46.107968
22
-24.1875
32
0
13
46.107968
23
-24.1875
33
0
39
0
210
0
220
0
230
1
0
MTEXT
5
16F
100
AcDbEntity
8
0
62
256
6
ByLayer
370
18
48
1
60
0
100
AcDbMText
10
33.607968
20
-17.1875
30
0
210
0
220
0
230
1
1
\A1;25
40
3.5
41
0
44
1
50
0
71
5
72
5
7
iso_b_vert
0
POINT
5
170
100
AcDbEntity
8
Defpoints
62
0
6
ByLayer
370
-1
48
1
60
0
100
AcDbPoint
10
21.107968
20
9.8875
30
0
39
0
210
0
220
0
230
1
50
360
0
POINT
5
171
100
AcDbEntity
8
Defpoints
62
0
6
ByLayer
370
-1
48
1
60
0
100
AcDbPoint
10
46.107968
20
13.5625
30
0
39
0
210
0
220
0
230
1
50
360
0
POINT
5
172
100
AcDbEntity
8
Defpoints
62
0
6
ByLayer
370
-1
48
1
60
0
100
AcDbPoint
10
46.107968
20
-24.1875
30
0
39
0
210
0
220
0
230
1
50
360
0
ENDBLK
5
169
100
AcDbEntity
8
0
100
AcDbBlockEnd
0
BLOCK
5
17A
100
AcDbEntity
8
0
100
AcDbBlockBegin
2
_U3
70
0
10
0
20
0
30
0
3
_U3
0
MTEXT
5
174
100
AcDbEntity
8
2
62
256
6
ByLayer
370
18
48
1
60
0
100
AcDbMText
10
31.703001
20
-23.154866
30
0
210
0
220
0
230
1
1
\W0.6740;25
40
3.5
41
0
44
1.084337
50
0
71
7
72
5
7
iso_b_vert
0
LINE
5
175
100
AcDbEntity
8
2
62
256
6
ByLayer
370
13
48
1
60
0
100
AcDbLine
10
21.107968
20
8.3
30
0
11
21.107968
21
-26.1875
31
0
39
0
210
0
220
0
230
1
0
LINE
5
176
100
AcDbEntity
8
2
62
256
6
ByLayer
370
13
48
1
60
0
100
AcDbLine
10
46.107968
20
11.975
30
0
11
46.107968
21
-26.1875
31
0
39
0
210
0
220
0
230
1
0
LINE
5
177
100
AcDbEntity
8
2
62
256
6
ByLayer
370
13
48
1
60
0
100
AcDbLine
10
21.107968
20
-24.1875
30
0
11
46.107968
21
-24.1875
31
0
39
0
210
0
220
0
230
1
0
SOLID
5
178
100
AcDbEntity
8
2
62
256
6
ByLayer
370
18
48
1
60
0
100
AcDbTrace
10
21.107968
20
-24.1875
30
0
11
24.607966
21
-23.726716
31
0
12
24.607969
22
-24.648284
32
0
13
24.607969
23
-24.648284
33
0
39
0
210
0
220
0
230
1
0
SOLID
5
179
100
AcDbEntity
8
2
62
256
6
ByLayer
370
18
48
1
60
0
100
AcDbTrace
10
46.107968
20
-24.1875
30
0
11
42.607969
21
-24.648284
31
0
12
42.607966
22
-23.726716
32
0
13
42.607966
23
-23.726716
33
0
39
0
210
0
220
0
230
1
0
ENDBLK
5
17B
100
AcDbEntity
8
0
100
AcDbBlockEnd
0
BLOCK
5
180
100
AcDbEntity
8
0
100
AcDbBlockBegin
2
*D9
70
1
10
0
20
0
30
0
3
*D9
0
LINE
5
182
100
AcDbEntity
8
0
62
256
6
ByLayer
370
-2
48
1
60
0
100
AcDbLine
10
-103.892032
20
-14.025
30
0
11
-103.892032
21
-32.1875
31
0
39
0
210
0
220
0
230
1
0
LINE
5
183
100
AcDbEntity
8
0
62
256
6
ByLayer
370
-2
48
1
60
0
100
AcDbLine
10
46.107968
20
11.975
30
0
11
46.107968
21
-32.1875
31
0
39
0
210
0
220
0
230
1
0
LINE
5
184
100
AcDbEntity
8
0
62
256
6
ByLayer
370
-2
48
1
60
0
100
AcDbLine
10
-100.392032
20
-30.1875
30
0
11
42.607968
21
-30.1875
31
0
39
0
210
0
220
0
230
1
0
SOLID
5
185
100
AcDbEntity
8
0
62
256
6
ByLayer
370
-1
48
1
60
0
100
AcDbTrace
10
-100.392032
20
-29.604167
30
0
11
-100.392032
21
-30.770833
31
0
12
-103.892032
22
-30.1875
32
0
13
-103.892032
23
-30.1875
33
0
39
0
210
0
220
0
230
1
0
SOLID
5
186
100
AcDbEntity
8
0
62
256
6
ByLayer
370
-1
48
1
60
0
100
AcDbTrace
10
42.607968
20
-30.770833
30
0
11
42.607968
21
-29.604167
31
0
12
46.107968
22
-30.1875
32
0
13
46.107968
23
-30.1875
33
0
39
0
210
0
220
0
230
1
0
MTEXT
5
187
100
AcDbEntity
8
0
62
256
6
ByLayer
370
18
48
1
60
0
100
AcDbMText
10
-28.892032
20
-23.1875
30
0
210
0
220
0
230
1
1
\A1;150
40
3.5
41
0
44
1
50
0
71
5
72
5
7
iso_b_vert
0
POINT
5
188
100
AcDbEntity
8
Defpoints
62
0
6
ByLayer
370
-1
48
1
60
0
100
AcDbPoint
10
-103.892032
20
-12.4375
30
0
39
0
210
0
220
0
230
1
50
360
0
POINT
5
189
100
AcDbEntity
8
Defpoints
62
0
6
ByLayer
370
-1
48
1
60
0
100
AcDbPoint
10
46.107968
20
13.5625
30
0
39
0
210
0
220
0
230
1
50
360
0
POINT
5
18A
100
AcDbEntity
8
Defpoints
62
0
6
ByLayer
370
-1
48
1
60
0
100
AcDbPoint
10
46.107968
20
-30.1875
30
0
39
0
210
0
220
0
230
1
50
360
0
ENDBLK
5
181
100
AcDbEntity
8
0
100
AcDbBlockEnd
0
BLOCK
5
192
100
AcDbEntity
8
0
100
AcDbBlockBegin
2
_U4
70
0
10
0
20
0
30
0
3
_U4
0
MTEXT
5
18C
100
AcDbEntity
8
SK2
62
256
6
ByLayer
370
18
48
1
60
0
100
AcDbMText
10
-31.667298
20
-29.154866
30
0
210
0
220
0
230
1
1
\W0.6217;150
40
3.5
41
0
44
1.084337
50
0
71
7
72
5
7
iso_b_vert
0
LINE
5
18D
100
AcDbEntity
8
SK2
62
256
6
ByLayer
370
13
48
1
60
0
100
AcDbLine
10
-103.892032
20
-14.025
30
0
11
-103.892032
21
-32.1875
31
0
39
0
210
0
220
0
230
1
0
LINE
5
18E
100
AcDbEntity
8
SK2
62
256
6
ByLayer
370
13
48
1
60
0
100
AcDbLine
10
46.107968
20
11.975
30
0
11
46.107968
21
-32.1875
31
0
39
0
210
0
220
0
230
1
0
LINE
5
18F
100
AcDbEntity
8
SK2
62
256
6
ByLayer
370
13
48
1
60
0
100
AcDbLine
10
-103.892032
20
-30.1875
30
0
11
46.107968
21
-30.1875
31
0
39
0
210
0
220
0
230
1
0
SOLID
5
190
100
AcDbEntity
8
SK2
62
256
6
ByLayer
370
18
48
1
60
0
100
AcDbTrace
10
-103.892032
20
-30.1875
30
0
11
-100.392034
21
-29.726716
31
0
12
-100.392031
22
-30.648284
32
0
13
-100.392031
23
-30.648284
33
0
39
0
210
0
220
0
230
1
0
SOLID
5
191
100
AcDbEntity
8
SK2
62
256
6
ByLayer
370
18
48
1
60
0
100
AcDbTrace
10
46.107968
20
-30.1875
30
0
11
42.607969
21
-30.648284
31
0
12
42.607966
22
-29.726716
32
0
13
42.607966
23
-29.726716
33
0
39
0
210
0
220
0
230
1
0
ENDBLK
5
193
100
AcDbEntity
8
0
100
AcDbBlockEnd
0
ENDSEC
0
SECTION
2
ENTITIES
0
ARC
5
CB
100
AcDbEntity
8
1
62
256
6
ByLayer
370
18
48
1
60
0
100
AcDbCircle
39
0
10
21.107968
20
8.2875
30
0
40
1.6
210
0
220
0
230
1
100
AcDbArc
50
90
51
180
0
ARC
5
CD
100
AcDbEntity
8
1
62
256
6
ByLayer
370
18
48
1
60
0
100
AcDbCircle
39
0
10
45.807968
20
9.8625
30
0
40
0.3
210
0
220
0
230
1
100
AcDbArc
50
267.5
51
0
0
ARC
5
CE
100
AcDbEntity
8
1
62
256
6
ByLayer
370
18
48
1
60
0
100
AcDbCircle
39
0
10
45.807968
20
13.2625
30
0
40
0.3
210
0
220
0
230
1
100
AcDbArc
50
0
51
92.5
0
ARC
5
CF
100
AcDbEntity
8
1
62
256
6
ByLayer
370
18
48
1
60
0
100
AcDbCircle
39
0
10
21.407968
20
13.2625
30
0
40
0.3
210
0
220
0
230
1
100
AcDbArc
50
87.5
51
180
0
ARC
5
D0
100
AcDbEntity
8
1
62
256
6
ByLayer
370
18
48
1
60
0
100
AcDbCircle
39
0
10
21.407968
20
9.8625
30
0
40
0.3
210
0
220
0
230
1
100
AcDbArc
50
180
51
272.5
0
ARC
5
D1
100
AcDbEntity
8
1
62
256
6
ByLayer
370
18
48
1
60
0
100
AcDbCircle
39
0
10
12.757968
20
2.4125
30
0
40
2.1768
210
0
220
0
230
1
100
AcDbArc
50
150
51
210
0
ARC
5
D2
100
AcDbEntity
8
1
62
256
6
ByLayer
370
18
48
1
60
0
100
AcDbCircle
39
0
10
12.757968
20
2.4125
30
0
40
2.1768
210
0
220
0
230
1
100
AcDbArc
50
210
51
270
0
ARC
5
D3
100
AcDbEntity
8
1
62
256
6
ByLayer
370
18
48
1
60
0
100
AcDbCircle
39
0
10
12.757968
20
2.4125
30
0
40
2.1768
210
0
220
0
230
1
100
AcDbArc
50
270
51
330
0
ARC
5
D4
100
AcDbEntity
8
1
62
256
6
ByLayer
370
18
48
1
60
0
100
AcDbCircle
39
0
10
12.757968
20
2.4125
30
0
40
2.1768
210
0
220
0
230
1
100
AcDbArc
50
330
51
30
0
ARC
5
D5
100
AcDbEntity
8
1
62
256
6
ByLayer
370
18
48
1
60
0
100
AcDbCircle
39
0
10
12.757968
20
2.4125
30
0
40
2.1768
210
0
220
0
230
1
100
AcDbArc
50
90
51
150
0
ARC
5
D6
100
AcDbEntity
8
1
62
256
6
ByLayer
370
18
48
1
60
0
100
AcDbCircle
39
0
10
12.757968
20
2.4125
30
0
40
2.1768
210
0
220
0
230
1
100
AcDbArc
50
30
51
90
0
ARC
5
D9
100
AcDbEntity
8
1
62
256
6
ByLayer
370
18
48
1
60
0
100
AcDbCircle
39
0
10
12.757968
20
2.4125
30
0
40
2.8067
210
0
220
0
230
1
100
AcDbArc
50
180
51
240
0
ARC
5
DA
100
AcDbEntity
8
1
62
256
6
ByLayer
370
18
48
1
60
0
100
AcDbCircle
39
0
10
12.757968
20
2.4125
30
0
40
2.8067
210
0
220
0
230
1
100
AcDbArc
50
240
51
300
0
ARC
5
DB
100
AcDbEntity
8
1
62
256
6
ByLayer
370
18
48
1
60
0
100
AcDbCircle
39
0
10
12.757968
20
2.4125
30
0
40
2.8067
210
0
220
0
230
1
100
AcDbArc
50
360
51
60
0
ARC
5
DC
100
AcDbEntity
8
1
62
256
6
ByLayer
370
18
48
1
60
0
100
AcDbCircle
39
0
10
12.757968
20
2.4125
30
0
40
2.8067
210
0
220
0
230
1
100
AcDbArc
50
300
51
360
0
ARC
5
DD
100
AcDbEntity
8
1
62
256
6
ByLayer
370
18
48
1
60
0
100
AcDbCircle
39
0
10
12.757968
20
2.4125
30
0
40
2.8067
210
0
220
0
230
1
100
AcDbArc
50
60
51
120
0
ARC
5
DE
100
AcDbEntity
8
1
62
256
6
ByLayer
370
18
48
1
60
0
100
AcDbCircle
39
0
10
12.757968
20
2.4125
30
0
40
2.8067
210
0
220
0
230
1
100
AcDbArc
50
120
51
180
0
CIRCLE
5
CC
100
AcDbEntity
8
1
62
256
6
ByLayer
370
18
48
1
60
0
100
AcDbCircle
10
12.757968
20
2.4125
30
0
40
5.75
39
0
210
0
220
0
230
1
0
CIRCLE
5
D7
100
AcDbEntity
8
1
62
256
6
ByLayer
370
18
48
1
60
0
100
AcDbCircle
10
12.757968
20
2.4125
30
0
40
5.35
39
0
210
0
220
0
230
1
0
CIRCLE
5
D8
100
AcDbEntity
8
1
62
256
6
ByLayer
370
13
48
1
60
0
100
AcDbCircle
10
12.757968
20
2.4125
30
0
40
4.55
39
0
210
0
220
0
230
1
0
ELLIPSE
5
DF
100
AcDbEntity
8
1
62
256
6
ByLayer
370
18
48
1
60
0
100
AcDbEllipse
10
-2.415859
20
-12.447099
30
0
11
2.99999999997917
21
3.51436609372317E-15
31
0
210
0
220
0
230
1
40
0.004363
41
0.261799387799404
42
0.634637860130854
0
ELLIPSE
5
E0
100
AcDbEntity
8
SK1
62
256
6
ByLayer
370
18
48
1
60
0
100
AcDbEllipse
10
-2.415859
20
-12.447099
30
0
11
2.99999999999998
21
3.51436609374755E-15
31
0
210
0
220
0
230
1
40
0.004363
41
0.634637860128628
42
2.31838067646369
0
ELLIPSE
5
E1
100
AcDbEntity
8
1
62
256
6
ByLayer
370
18
48
1
60
0
100
AcDbEllipse
10
38.664407
20
12.229799
30
0
11
0.0919143867219611
21
0.0393922015948999
31
0
210
0
220
0
230
1
40
1
41
2.91123084609809
42
-2.88240391578852
0
ELLIPSE
5
E2
100
AcDbEntity
8
1
62
256
6
ByLayer
370
18
48
1
60
0
100
AcDbEllipse
10
38.664407
20
10.895201
30
0
11
0.0919143867219611
21
-0.0393922015949
31
0
210
0
220
0
230
1
40
1
41
2.88240391578852
42
-2.91123084609809
0
ELLIPSE
5
E3
100
AcDbEntity
8
1
62
256
6
ByLayer
370
18
48
1
60
0
100
AcDbEllipse
10
38.542486
20
12.921249
30
0
11
0.0999868334568811
21
0.00162276112631418
31
0
210
0
220
0
230
1
40
1
41
3.12536433028505
42
-2.98328805270646
0
ELLIPSE
5
E4
100
AcDbEntity
8
1
62
256
6
ByLayer
370
18
48
1
60
0
100
AcDbEllipse
10
38.542486
20
10.203751
30
0
11
0.0999868334568811
21
-0.00162276112631417
31
0
210
0
220
0
230
1
40
1
41
2.98328805270646
42
-3.12536433028505
0
POINT
5
70
100
AcDbEntity
8
81
62
256
6
ByLayer
370
18
48
1
60
0
100
AcDbPoint
10
46.107968
20
13.5625
30
0
39
0
210
0
220
0
230
1
50
360
0
POINT
5
72
100
AcDbEntity
8
80
62
256
6
ByLayer
370
18
48
1
60
0
100
AcDbPoint
10
0
20
0
30
0
39
0
210
0
220
0
230
1
50
360
0
POINT
5
74
100
AcDbEntity
8
1
62
256
6
ByLayer
370
18
48
1
60
1
100
AcDbPoint
10
46.107968
20
13.5625
30
0
39
0
210
0
220
0
230
1
50
360
0
POINT
5
76
100
AcDbEntity
8
1
62
256
6
ByLayer
370
18
48
1
60
1
100
AcDbPoint
10
-103.892032
20
-12.4375
30
0
39
0
210
0
220
0
230
1
50
360
0
POINT
5
77
100
AcDbEntity
8
1
62
256
6
ByLayer
370
18
48
1
60
1
100
AcDbPoint
10
46.107968
20
9.5625
30
0
39
0
210
0
220
0
230
1
50
360
0
POINT
5
78
100
AcDbEntity
8
1
62
256
6
ByLayer
370
18
48
1
60
1
100
AcDbPoint
10
46.107968
20
13.5625
30
0
39
0
210
0
220
0
230
1
50
360
0
POINT
5
79
100
AcDbEntity
8
1
62
256
6
ByLayer
370
18
48
1
60
1
100
AcDbPoint
10
-103.892032
20
-12.4375
30
0
39
0
210
0
220
0
230
1
50
360
0
POINT
5
7A
100
AcDbEntity
8
1
62
256
6
ByLayer
370
18
48
1
60
1
100
AcDbPoint
10
-103.892032
20
12.5625
30
0
39
0
210
0
220
0
230
1
50
360
0
POINT
5
7B
100
AcDbEntity
8
1
62
256
6
ByLayer
370
18
48
1
60
1
100
AcDbPoint
10
21.107968
20
9.8875
30
0
39
0
210
0
220
0
230
1
50
360
0
POINT
5
7C
100
AcDbEntity
8
1
62
256
6
ByLayer
370
18
48
1
60
1
100
AcDbPoint
10
46.107968
20
13.5625
30
0
39
0
210
0
220
0
230
1
50
360
0
POINT
5
7D
100
AcDbEntity
8
1
62
256
6
ByLayer
370
18
48
1
60
1
100
AcDbPoint
10
-103.892032
20
-12.4375
30
0
39
0
210
0
220
0
230
1
50
360
0
POINT
5
7E
100
AcDbEntity
8
1
62
256
6
ByLayer
370
18
48
1
60
1
100
AcDbPoint
10
46.107968
20
13.5625
30
0
39
0
210
0
220
0
230
1
50
360
0
SPLINE
5
E5
100
AcDbEntity
8
1
62
256
6
ByLayer
370
18
48
1
60
0
100
AcDbSpline
70
4
71
3
72
10
73
6
40
0
40
0
40
0
40
0
40
0.5
40
0.5
40
1
40
1
40
1
40
1
41
1
10
0.157917465288818
20
13.2375000000001
30
0
41
1
10
0.134466521600785
20
13.196881774047
30
0
41
1
10
0.109591306572298
20
13.1578999070573
30
0
41
1
10
0.0569722395135557
20
13.0826890036962
30
0
41
1
10
0.0292278500070609
20
13.0464644015583
30
0
41
1
10
0
20
13.0114903551092
30
0
0
SPLINE
5
E6
100
AcDbEntity
8
1
62
256
6
ByLayer
370
18
48
1
60
0
100
AcDbSpline
70
4
71
3
72
8
73
4
40
0
40
0
40
0
40
0
40
1
40
1
40
1
40
1
41
1
10
38.0271257792798
20
11.1465772376136
30
0
41
1
10
37.9616721404866
20
11.1177343063334
30
0
41
1
10
37.8961025793965
20
11.0894085401366
30
0
41
1
10
37.8302153477878
20
11.0625
30
0
0
SPLINE
5
E7
100
AcDbEntity
8
1
62
256
6
ByLayer
370
18
48
1
60
0
100
AcDbSpline
70
4
71
3
72
18
73
14
40
0
40
0
40
0
40
0
40
0.249999999999989
40
0.249999999999989
40
0.499999999999979
40
0.499999999999979
40
0.624999999999984
40
0.624999999999984
40
0.749999999999989
40
0.749999999999989
40
0.874999999999995
40
0.874999999999995
40
1
40
1
40
1
40
1
41
1
10
38.1079675788577
20
11.2875311307315
30
0
41
1
10
38.1079675788577
20
11.2717066707605
30
0
41
1
10
38.105982063428
20
11.2563259354211
30
0
41
1
10
38.0981161574225
20
11.2264348946634
30
0
41
1
10
38.0924216759352
20
11.2126741512116
30
0
41
1
10
38.081422316242
20
11.193874666017
30
0
41
1
10
38.0773940441612
20
11.1880189291367
30
0
41
1
10
38.0687590323545
20
11.1772311583366
30
0
41
1
10
38.064136566465
20
11.1722727290414
30
0
41
1
10
38.0542858359853
20
11.1632208978463
30
0
41
1
10
38.0490910285895
20
11.1591674960559
30
0
41
1
10
38.0383871450719
20
11.1521203164927
30
0
41
1
10
38.0328489567549
20
11.1490992244376
30
0
41
1
10
38.0271257792798
20
11.1465772376136
30
0
0
SPLINE
5
E8
100
AcDbEntity
8
1
62
256
6
ByLayer
370
18
48
1
60
0
100
AcDbSpline
70
4
71
3
72
20
73
16
40
0
40
0
40
0
40
0
40
0.250000000000231
40
0.250000000000231
40
0.375000000000193
40
0.375000000000193
40
0.500000000000154
40
0.500000000000154
40
0.625000000000115
40
0.625000000000115
40
0.750000000000077
40
0.750000000000077
40
0.875000000000039
40
0.875000000000039
40
1
40
1
40
1
40
1
41
1
10
38.0271257792801
20
11.9784227623863
30
0
41
1
10
38.0385771767409
20
11.9733765666955
30
0
41
1
10
38.0492453454359
20
11.9663877198728
30
0
41
1
10
38.0640159096368
20
11.9528494779286
30
0
41
1
10
38.0687115475184
20
11.947822272624
30
0
41
1
10
38.0773490077085
20
11.9370431644951
30
0
41
1
10
38.0813341354954
20
11.9312546142988
30
0
41
1
10
38.0886149272942
20
11.9188528991702
30
0
41
1
10
38.0919343358608
20
11.9121714878331
30
0
41
1
10
38.0976335769425
20
11.8983683739998
30
0
41
1
10
38.1000349899856
20
11.8912308118807
30
0
41
1
10
38.1039382341003
20
11.8764820096555
30
0
41
1
10
38.1054464872661
20
11.868816490514
30
0
41
1
10
38.1074607871041
20
11.8532425880656
30
0
41
1
10
38.1079675788694
20
11.8453893156453
30
0
41
1
10
38.1079675788694
20
11.8374688692701
30
0
0
SPLINE
5
E9
100
AcDbEntity
8
1
62
256
6
ByLayer
370
18
48
1
60
0
100
AcDbSpline
70
4
71
3
72
8
73
4
40
0
40
0
40
0
40
0
40
1
40
1
40
1
40
1
41
1
10
37.8302153477878
20
12.0625
30
0
41
1
10
37.8960855537291
20
12.0355984131964
30
0
41
1
10
37.9616597633986
20
12.0072711477789
30
0
41
1
10
38.0271257792801
20
11.9784227623863
30
0
0
SPLINE
5
EA
100
AcDbEntity
8
1
62
256
6
ByLayer
370
18
48
1
60
0
100
AcDbSpline
70
4
71
3
72
12
73
8
40
0
40
0
40
0
40
0
40
0.25
40
0.25
40
0.5
40
0.5
40
1
40
1
40
1
40
1
41
1
10
37.62588688632
20
13.2375
30
0
41
1
10
37.6459063311452
20
13.1404588026517
30
0
41
1
10
37.6645090501269
20
13.0430030766493
30
0
41
1
10
37.7002990870628
20
12.8476774836267
30
0
41
1
10
37.7174548677626
20
12.7497983889245
30
0
41
1
10
37.7675988882573
20
12.4557739058927
30
0
41
1
10
37.7992972381321
20
12.2592511006234
30
0
41
1
10
37.8302153477878
20
12.0625
30
0
0
SPLINE
5
EB
100
AcDbEntity
8
1
62
256
6
ByLayer
370
18
48
1
60
0
100
AcDbSpline
70
4
71
3
72
12
73
8
40
0
40
0
40
0
40
0
40
0.499999999999999
40
0.499999999999999
40
0.75
40
0.75
40
1
40
1
40
1
40
1
41
1
10
37.8302153477899
20
11.0624999999995
30
0
41
1
10
37.7992985405695
20
10.8657571875795
30
0
41
1
10
37.7675961374991
20
10.6692079830697
30
0
41
1
10
37.7174430225491
20
10.3751331467185
30
0
41
1
10
37.7002854080944
20
10.2772457459743
30
0
41
1
10
37.6644967018713
20
10.0819316506482
30
0
41
1
10
37.6458954143076
20
9.98448827964782
30
0
41
1
10
37.6258868863199
20
9.88750000000002
30
0
0
SPLINE
5
EC
100
AcDbEntity
8
SK1
62
256
6
ByLayer
370
18
48
1
60
0
100
AcDbSpline
70
4
71
3
72
26
73
22
40
0
40
0
40
0
40
0
40
0.125000000000019
40
0.125000000000019
40
0.250000000000038
40
0.250000000000038
40
0.312500000000039
40
0.312500000000039
40
0.375000000000041
40
0.375000000000041
40
0.500000000000035
40
0.500000000000035
40
0.625000000000028
40
0.625000000000028
40
0.687500000000025
40
0.687500000000025
40
0.750000000000022
40
0.750000000000022
40
0.875000000000011
40
0.875000000000011
40
1
40
1
40
1
40
1
41
1
10
0
20
13.0114903551092
30
0
41
1
10
-0.0343769418091711
20
12.9703549052105
30
0
41
1
10
-0.0708043515486168
20
12.9309491464893
30
0
41
1
10
-0.148043732589002
20
12.8554643584108
30
0
41
1
10
-0.188854424159302
20
12.8193865426683
30
0
41
1
10
-0.253687408732816
20
12.7678478874527
30
0
41
1
10
-0.27585569306288
20
12.7511408058508
30
0
41
1
10
-0.321083651099371
20
12.7188732697369
30
0
41
1
10
-0.344179452210568
20
12.7032837031615
30
0
41
1
10
-0.414954058389782
20
12.6581751862633
30
0
41
1
10
-0.464115964693434
20
12.6303092857285
30
0
41
1
10
-0.566707625327894
20
12.5793024406005
30
0
41
1
10
-0.620135538287542
20
12.5561593211543
30
0
41
1
10
-0.703823602958948
20
12.5254112228784
30
0
41
1
10
-0.732312008439095
20
12.5158251195839
30
0
41
1
10
-0.790551744127271
20
12.4980819910294
30
0
41
1
10
-0.820074616825565
20
12.4899958676522
30
0
41
1
10
-0.909755946779939
20
12.4682063998802
30
0
41
1
10
-0.971074506872441
20
12.456946284111
30
0
41
1
10
-1.09692648091411
20
12.4415956125351
30
0
41
1
10
-1.16145881579911
20
12.4375
30
0
41
1
10
-1.22772318076633
20
12.4375
30
0
0
SPLINE
5
ED
100
AcDbEntity
8
1
62
256
6
ByLayer
370
18
48
1
60
0
100
AcDbSpline
70
4
71
3
72
18
73
14
40
0
40
0
40
0
40
0
40
0.106502320877742
40
0.209819720888349
40
0.309970050664505
40
0.406972922400015
40
0.50084992082595
40
0.591624858696634
40
0.679324076625912
40
0.763976789997966
40
0.845615488386315
40
0.924276395492683
40
1
40
1
40
1
40
1
41
1
10
38.6980862172677
20
12.045585351823
30
0
41
1
10
38.6965091061934
20
12.0462643036506
30
0
41
1
10
38.6934020470919
20
12.0476019034492
30
0
41
1
10
38.6888919111762
20
12.0499049623887
30
0
41
1
10
38.68458290232
20
12.0523663474787
30
0
41
1
10
38.6804802013748
20
12.0549901579404
30
0
41
1
10
38.676582489068
20
12.0577524658373
30
0
41
1
10
38.6728900240872
20
12.0606370391756
30
0
41
1
10
38.6694029509025
20
12.0636268528404
30
0
41
1
10
38.6661204155716
20
12.0667043544701
30
0
41
1
10
38.6630454487201
20
12.0698584152507
30
0
41
1
10
38.6601672624498
20
12.0730579925822
30
0
41
1
10
38.6583711657763
20
12.0752918768383
30
0
41
1
10
38.6574902036077
20
12.0763875681494
30
0
0
SPLINE
5
EE
100
AcDbEntity
8
1
62
256
6
ByLayer
370
18
48
1
60
0
100
AcDbSpline
70
4
71
3
72
16
73
12
40
0
40
0
40
0
40
0
40
0.11731955219253
40
0.233085853411031
40
0.347299362420241
40
0.45996055694815
40
0.571069934744766
40
0.68062801471296
40
0.788635338118803
40
0.8950924698883
40
1
40
1
40
1
40
1
41
1
10
38.8569129943077
20
11.990232523702
30
0
41
1
10
38.8506453455702
20
11.9920553268701
30
0
41
1
10
38.8381930285647
20
11.995676800223
30
0
41
1
10
38.8196868348826
20
12.0013914087642
30
0
41
1
10
38.8014648755764
20
12.0072568898136
30
0
41
1
10
38.7835304222354
20
12.0132866733875
30
0
41
1
10
38.7658826942355
20
12.0194662690683
30
0
41
1
10
38.7485216077425
20
12.0257869201774
30
0
41
1
10
38.7314482369927
20
12.0322449449493
30
0
41
1
10
38.7146584541165
20
12.0388120560555
30
0
41
1
10
38.7035832305374
20
12.0433386486787
30
0
41
1
10
38.6980862172677
20
12.04558535183
30
0
0
SPLINE
5
EF
100
AcDbEntity
8
1
62
256
6
ByLayer
370
18
48
1
60
0
100
AcDbSpline
70
4
71
2
72
10
73
7
40
0
40
0
40
0
40
0.5
40
0.5
40
0.75
40
0.75
40
1
40
1
40
1
41
1
10
38.8569129943012
20
11.990232523738
30
0
41
1
10
38.9245068205236
20
11.970737836485
30
0
41
1
10
38.9722030616267
20
11.9190142889902
30
0
41
1
10
38.9981900515785
20
11.890833047074
30
0
41
1
10
39.0148269535881
20
11.8549776461038
30
0
41
1
10
39.03279281501
20
11.8162581077733
30
0
41
1
10
39.0369137759407
20
11.773235586972
30
0
0
SPLINE
5
F0
100
AcDbEntity
8
1
62
256
6
ByLayer
370
18
48
1
60
0
100
AcDbSpline
70
4
71
2
72
6
73
3
40
0
40
0
40
0
40
1
40
1
40
1
41
1
10
39.0369137759782
20
11.773235587058
30
0
41
1
10
39.0458050681508
20
11.6780165540399
30
0
41
1
10
39.0458285383892
20
11.5825000006976
30
0
0
SPLINE
5
F1
100
AcDbEntity
8
1
62
256
6
ByLayer
370
18
48
1
60
0
100
AcDbSpline
70
4
71
3
72
17
73
13
40
0
40
0
40
0
40
0
40
0.100317411817079
40
0.200541310293528
40
0.300680278273651
40
0.400742920447667
40
0.500737861201955
40
0.600673742442858
40
0.700559221399283
40
0.800402968404953
40
0.900213664663637
40
1
40
1
40
1
40
1
41
1
10
39.0369137759777
20
11.351764412942
30
0
41
1
10
39.0374907017394
20
11.3581087701755
30
0
41
1
10
39.0386440154674
20
11.3707915705938
30
0
41
1
10
39.040149403979
20
11.3898460527878
30
0
41
1
10
39.041489205109
20
11.4089085209796
30
0
41
1
10
39.0426473826089
20
11.4279803042831
30
0
41
1
10
39.0436283058491
20
11.4470589293337
30
0
41
1
10
39.0444305147006
20
11.4661429412488
30
0
41
1
10
39.0450554832193
20
11.4852306135196
30
0
41
1
10
39.0454987763667
20
11.5043202936691
30
0
41
1
10
39.0457766520422
20
11.5234103103435
30
0
41
1
10
39.0458112443465
20
11.5361372874275
30
0
41
1
10
39.0458285383877
20
11.5424999993024
30
0
0
SPLINE
5
F2
100
AcDbEntity
8
1
62
256
6
ByLayer
370
18
48
1
60
0
100
AcDbSpline
70
4
71
3
72
38
73
34
40
0
40
0
40
0
40
0
40
0.0320161803202336
40
0.0634137556517296
40
0.0941938978135638
40
0.124357850632242
40
0.153906935796048
40
0.182842559298728
40
0.211166218540813
40
0.238879510169562
40
0.265984138747604
40
0.292481926351457
40
0.318374823219174
40
0.343664919578611
40
0.368354458810733
40
0.392445852120361
40
0.41594169491626
40
0.438844785127715
40
0.461158143719588
40
0.482885037706501
40
0.504029006008668
40
0.551366811163491
40
0.597409666800783
40
0.642207857911429
40
0.685815975457833
40
0.728293199080119
40
0.769703557232122
40
0.810116149643948
40
0.849605314211521
40
0.888250718111325
40
0.926137351649977
40
0.963355403684979
40
1
40
1
40
1
40
1
41
1
10
38.8569129942977
20
11.134767476262
30
0
41
1
10
38.8595412022225
20
11.1355485607148
30
0
41
1
10
38.8647468367947
20
11.1370956377906
30
0
41
1
10
38.8724183692599
20
11.139731715862
30
0
41
1
10
38.8798924884198
20
11.1425558999428
30
0
41
1
10
38.8871650942036
20
11.145578910145
30
0
41
1
10
38.8942372552931
20
11.1487816340918
30
0
41
1
10
38.9011086967219
20
11.1521529401733
30
0
41
1
10
38.9077794928938
20
11.1556798787035
30
0
41
1
10
38.9142496277211
20
11.1593502562549
30
0
41
1
10
38.92051910886
20
11.1631519927349
30
0
41
1
10
38.9265879381035
20
11.1670733110595
30
0
41
1
10
38.9324561190212
20
11.1711027081727
30
0
41
1
10
38.9381236552254
20
11.1752289801845
30
0
41
1
10
38.9435905500458
20
11.1794412313228
30
0
41
1
10
38.9488568095157
20
11.1837288838923
30
0
41
1
10
38.9539224312742
20
11.1880816889976
30
0
41
1
10
38.9587874446604
20
11.1924897234822
30
0
41
1
10
38.9634517667684
20
11.1969434298673
30
0
41
1
10
38.9679157190759
20
11.2014334948112
30
0
41
1
10
38.9739771356575
20
11.207858030493
30
0
41
1
10
38.981426398061
20
11.2164468168096
30
0
41
1
10
38.9899703211373
20
11.2275200836322
30
0
41
1
10
38.9978165015012
20
11.2389694413074
30
0
41
1
10
39.0049651843956
20
11.2507493808283
30
0
41
1
10
39.0114161979484
20
11.2628153813828
30
0
41
1
10
39.0171693145935
20
11.2751233474438
30
0
41
1
10
39.0222247334684
20
11.2876298346291
30
0
41
1
10
39.0265808749648
20
11.3002925471705
30
0
41
1
10
39.0302424590415
20
11.3130689765116
30
0
41
1
10
39.0331912788524
20
11.3259219116356
30
0
41
1
10
39.0354922122894
20
11.3387999416636
30
0
41
1
10
39.0364423803638
20
11.3474653481022
30
0
41
1
10
39.0369137759377
20
11.351764413028
30
0
0
SPLINE
5
F3
100
AcDbEntity
8
1
62
256
6
ByLayer
370
18
48
1
60
0
100
AcDbSpline
70
4
71
2
72
6
73
3
40
0
40
0
40
0
40
1
40
1
40
1
41
1
10
38.8569129943097
20
11.134767476298
30
0
41
1
10
38.7759142978733
20
11.1115152433281
30
0
41
1
10
38.6980862172702
20
11.07941464817
30
0
0
SPLINE
5
F4
100
AcDbEntity
8
1
62
256
6
ByLayer
370
18
48
1
60
0
100
AcDbSpline
70
4
71
2
72
6
73
3
40
0
40
0
40
0
40
1
40
1
40
1
41
1
10
38.6980862172692
20
11.079414648177
30
0
41
1
10
38.6737873382768
20
11.0692453291368
30
0
41
1
10
38.6574902036082
20
11.048612431851
30
0
0
SPLINE
5
F5
100
AcDbEntity
8
1
62
256
6
ByLayer
370
18
48
1
60
0
100
AcDbSpline
70
4
71
3
72
37
73
33
40
0
40
0
40
0
40
0
40
0.124999999999986
40
0.124999999999986
40
0.249999999999973
40
0.249999999999973
40
0.374999999999959
40
0.374999999999959
40
0.437499999999951
40
0.437499999999951
40
0.499999999999943
40
0.499999999999943
40
0.562499999999935
40
0.562499999999935
40
0.624999999999927
40
0.624999999999927
40
0.68749999999992
40
0.68749999999992
40
0.718749999999928
40
0.718749999999928
40
0.749999999999936
40
0.749999999999936
40
0.812499999999985
40
0.812499999999985
40
0.84374999999999
40
0.84374999999999
40
0.874999999999994
40
0.906249999999999
40
0.906249999999999
40
0.937500000000003
40
0.937500000000003
40
1
40
1
40
1
40
1
41
1
10
9.95126757885768
20
2.41250000000002
30
0
41
1
10
9.95126757885768
20
2.37605915125963
30
0
41
1
10
9.95269279243362
20
2.33958155559961
30
0
41
1
10
9.95846730300613
20
2.26695289977508
30
0
41
1
10
9.96282190846361
20
2.23072126672176
30
0
41
1
10
9.97470234576855
20
2.15892044783635
30
0
41
1
10
9.98224192061795
20
2.12325035143812
30
0
41
1
10
9.99628816746846
20
2.07064856749349
30
0
41
1
10
10.001428775853
20
2.05326004335475
30
0
41
1
10
10.0127437917753
20
2.01881360005061
30
0
41
1
10
10.0189191082058
20
2.00175878017811
30
0
41
1
10
10.032374261687
20
1.96826979481153
30
0
41
1
10
10.0396612168549
20
1.95180767645425
30
0
41
1
10
10.055564003273
20
1.91956174414287
30
0
41
1
10
10.0642051096388
20
1.90374386540321
30
0
41
1
10
10.0828329777416
20
1.87344133532531
30
0
41
1
10
10.0928396100797
20
1.8589006054444
30
0
41
1
10
10.109143757385
20
1.83824676515999
30
0
41
1
10
10.1147954240346
20
1.83155619463227
30
0
41
1
10
10.1265979560343
20
1.8186246218819
30
0
41
1
10
10.132779955872
20
1.81235655870165
30
0
41
1
10
10.1518851018806
20
1.79464017879801
30
0
41
1
10
10.1653876365583
20
1.78421497116329
30
0
41
1
10
10.1870689652933
20
1.77121143879867
30
0
41
1
10
10.1945940453179
20
1.76729663212436
30
0
41
1
10
10.209844609586
20
1.76064060808051
30
0
41
1
10
10.2252909056516
20
1.75513818925393
30
0
41
1
10
10.2411363642202
20
1.75203721018005
30
0
41
1
10
10.2571895432921
20
1.75020639203444
30
0
41
1
10
10.2652479815453
20
1.74994496970177
30
0
41
1
10
10.288932810844
20
1.75104049157738
30
0
41
1
10
10.3043082486897
20
1.75423321703391
30
0
41
1
10
10.3193109365589
20
1.75962924142365
30
0
0
SPLINE
5
F6
100
AcDbEntity
8
1
62
256
6
ByLayer
370
18
48
1
60
0
100
AcDbSpline
70
4
71
3
72
35
73
31
40
0
40
0
40
0
40
0
40
0.124999999999996
40
0.124999999999996
40
0.249999999999993
40
0.249999999999993
40
0.374999999999989
40
0.374999999999989
40
0.437499999999984
40
0.437499999999984
40
0.499999999999979
40
0.499999999999979
40
0.624999999999965
40
0.624999999999965
40
0.68749999999996
40
0.68749999999996
40
0.718749999999966
40
0.718749999999966
40
0.749999999999972
40
0.749999999999972
40
0.81249999999998
40
0.81249999999998
40
0.843749999999987
40
0.843749999999987
40
0.874999999999995
40
0.906250000000003
40
0.906250000000003
40
0.937500000000011
40
0.937500000000011
40
1
40
1
40
1
40
1
41
1
10
11.3546175788576
20
-0.018173500801737
30
0
41
1
10
11.3230772295705
20
3.63283495233E-05
30
0
41
1
10
11.2921831527375
20
0.0195187107203765
30
0
41
1
10
11.2321791955767
20
0.0608286038788037
30
0
41
1
10
11.2030591854605
20
0.0826519753037473
30
0
41
1
10
11.1467682215716
20
0.128875646169519
30
0
41
1
10
11.119684517697
20
0.153205926068296
30
0
41
1
10
11.0811899883866
20
0.191623658478846
30
0
41
1
10
11.0687042516215
20
0.204761575574054
30
0
41
1
10
11.0445178023305
20
0.231787833017421
30
0
41
1
10
11.0328186258134
20
0.245677352475411
30
0
41
1
10
10.9993393257998
20
0.288346567718719
30
0
41
1
10
10.978983582928
20
0.318308660479829
30
0
41
1
10
10.9535073986185
20
0.365399393227761
30
0
41
1
10
10.9458246934893
20
0.38154610971597
30
0
41
1
10
10.9360507586853
20
0.406176766762968
30
0
41
1
10
10.9330830352456
20
0.414456904317973
30
0
41
1
10
10.927807274654
20
0.431173432894326
30
0
41
1
10
10.925493745561
20
0.439639307305811
30
0
41
1
10
10.9197679767505
20
0.4649765210456
30
0
41
1
10
10.917528711352
20
0.48183826620334
30
0
41
1
10
10.917155908337
20
0.507050090763443
30
0
41
1
10
10.9175428656265
20
0.51550169505856
30
0
41
1
10
10.9194273459545
20
0.531983897395293
30
0
41
1
10
10.9224035239155
20
0.548060684892391
30
0
41
1
10
10.9276483385166
20
0.563286353982477
30
0
41
1
10
10.9340914036193
20
0.578058928742735
30
0
41
1
10
10.937890380678
20
0.585143350256288
30
0
41
1
10
10.9506635031599
20
0.605043360130082
30
0
41
1
10
10.9610935829989
20
0.61672865291041
30
0
41
1
10
10.9732365953931
20
0.626996775949806
30
0
0
SPLINE
5
F7
100
AcDbEntity
8
1
62
256
6
ByLayer
370
18
48
1
60
0
100
AcDbSpline
70
4
71
3
72
50
73
46
40
0
40
0
40
0
40
0
40
0.031249999999993
40
0.031249999999993
40
0.062499999999986
40
0.062499999999986
40
0.0937499999999789
40
0.0937499999999789
40
0.124999999999972
40
0.124999999999972
40
0.156249999999965
40
0.156249999999965
40
0.187499999999958
40
0.187499999999958
40
0.218749999999951
40
0.218749999999951
40
0.249999999999944
40
0.249999999999944
40
0.312499999999949
40
0.312499999999949
40
0.374999999999955
40
0.374999999999955
40
0.437499999999961
40
0.437499999999961
40
0.499999999999966
40
0.499999999999966
40
0.624999999999974
40
0.624999999999974
40
0.68749999999998
40
0.68749999999998
40
0.749999999999984
40
0.749999999999984
40
0.81249999999999
40
0.81249999999999
40
0.843749999999991
40
0.843749999999991
40
0.874999999999993
40
0.874999999999993
40
0.906249999999995
40
0.906249999999995
40
0.937499999999996
40
0.937499999999996
40
0.968749999999998
40
0.968749999999998
40
1
40
1
40
1
40
1
41
1
10
10.3393109365589
20
1.76100103823452
30
0
41
1
10
10.3529788873809
20
1.76193852080195
30
0
41
1
10
10.3666735846415
20
1.76141488064081
30
0
41
1
10
10.3941149016212
20
1.75803341093828
30
0
41
1
10
10.4078478580986
20
1.7551624398792
30
0
41
1
10
10.4349312099281
20
1.74758980234256
30
0
41
1
10
10.4483783495692
20
1.7428626812617
30
0
41
1
10
10.4748128620199
20
1.7319642098748
30
0
41
1
10
10.4878227644788
20
1.72578931563731
30
0
41
1
10
10.5135042981908
20
1.71220863089914
30
0
41
1
10
10.5261508147335
20
1.70481214512265
30
0
41
1
10
10.5509611671208
20
1.68906875264528
30
0
41
1
10
10.5631506774451
20
1.68070751156881
30
0
41
1
10
10.5871579853917
20
1.66311479441112
30
0
41
1
10
10.5989794148383
20
1.65387748804713
30
0
41
1
10
10.6221386109027
20
1.63473764324559
30
0
41
1
10
10.6334976230793
20
1.6248198428485
30
0
41
1
10
10.6669812911104
20
1.59411013641042
30
0
41
1
10
10.6885695794959
20
1.57230506863922
30
0
41
1
10
10.7299856163855
20
1.52687030752926
30
0
41
1
10
10.7498488384949
20
1.50321367197935
30
0
41
1
10
10.7880475994717
20
1.45416604536769
30
0
41
1
10
10.8063397639499
20
1.42881855884193
30
0
41
1
10
10.8411126978035
20
1.37697010111091
30
0
41
1
10
10.8576420422001
20
1.35040541389583
30
0
41
1
10
10.9046494268407
20
1.26884891163027
30
0
41
1
10
10.9320560119411
20
1.21298387292126
30
0
41
1
10
10.9669236047855
20
1.12678047522491
30
0
41
1
10
10.97751214734
20
1.09754509042838
30
0
41
1
10
10.9960013967105
20
1.03917157068347
30
0
41
1
10
11.0039542923882
20
1.00993107975768
30
0
41
1
10
11.0169393902508
20
0.951276769330207
30
0
41
1
10
11.0219807715168
20
0.92186401705041
30
0
41
1
10
11.0268163491569
20
0.877533157797927
30
0
41
1
10
11.0279690577685
20
0.86267558728332
30
0
41
1
10
11.0291879990698
20
0.833294772377798
30
0
41
1
10
11.0292618764623
20
0.818732622935812
30
0
41
1
10
11.0281858887306
20
0.789886800750139
30
0
41
1
10
11.0270375256737
20
0.775602834593428
30
0
41
1
10
11.0232815435844
20
0.747351946490085
30
0
41
1
10
11.0206636874186
20
0.733333378911937
30
0
41
1
10
11.0136414869944
20
0.705906784312418
30
0
41
1
10
11.0092830999658
20
0.69265569718948
30
0
41
1
10
10.9985254727175
20
0.667249321569102
30
0
41
1
10
10.9921319965005
20
0.655090922903923
30
0
41
1
10
10.9844246062806
20
0.643631385620665
30
0
0
SPLINE
5
F8
100
AcDbEntity
8
1
62
256
6
ByLayer
370
18
48
1
60
0
100
AcDbSpline
70
4
71
3
72
8
73
4
40
0
40
0
40
0
40
0
40
1
40
1
40
1
40
1
41
1
10
10.3193109365589
20
1.75962924142365
30
0
41
1
10
10.3259773599545
20
1.76008649034134
30
0
41
1
10
10.3326440247207
20
1.76054375581461
30
0
41
1
10
10.3393109365589
20
1.76100103823452
30
0
0
SPLINE
5
F9
100
AcDbEntity
8
1
62
256
6
ByLayer
370
18
48
1
60
0
100
AcDbSpline
70
4
71
3
72
8
73
4
40
0
40
0
40
0
40
0
40
1
40
1
40
1
40
1
41
1
10
10.9732365953931
20
0.626996775949806
30
0
41
1
10
10.9769657962695
20
0.632541443503953
30
0
41
1
10
10.9806951321687
20
0.638086311813396
30
0
41
1
10
10.9844246062802
20
0.643631385620068
30
0
0
SPLINE
5
FA
100
AcDbEntity
8
1
62
256
6
ByLayer
370
18
48
1
60
0
100
AcDbSpline
70
4
71
3
72
35
73
31
40
0
40
0
40
0
40
0
40
0.125000000000031
40
0.125000000000031
40
0.250000000000063
40
0.250000000000063
40
0.375000000000094
40
0.375000000000094
40
0.43750000000011
40
0.43750000000011
40
0.500000000000127
40
0.500000000000127
40
0.62500000000016
40
0.62500000000016
40
0.6875000000002
40
0.6875000000002
40
0.718750000000194
40
0.718750000000194
40
0.750000000000188
40
0.750000000000188
40
0.81250000000013
40
0.81250000000013
40
0.843750000000106
40
0.843750000000106
40
0.875000000000082
40
0.906250000000058
40
0.906250000000058
40
0.937500000000034
40
0.937500000000034
40
1
40
1
40
1
40
1
41
1
10
14.1613175788577
20
-0.018173500801737
30
0
41
1
10
14.1297772295705
20
-0.0363833299530256
30
0
41
1
10
14.0974579530947
20
-0.0533971941314348
30
0
41
1
10
14.0316805576115
20
-0.0847071987811034
30
0
41
1
10
13.9982209585031
20
-0.0990141815876768
30
0
41
1
10
13.9300446033327
20
-0.124651750886102
30
0
41
1
10
13.8954321109219
20
-0.135941786520675
30
0
41
1
10
13.8429141140434
20
-0.150070160604912
30
0
41
1
10
13.8252934757035
20
-0.154314167280916
30
0
41
1
10
13.7897948255429
20
-0.161747118072498
30
0
41
1
10
13.7719165605874
20
-0.164934142410743
30
0
41
1
10
13.7182242862203
20
-0.17259345910179
30
0
41
1
10
13.6820984813027
20
-0.175241003161119
30
0
41
1
10
13.6285786183055
20
-0.173758659590618
30
0
41
1
10
13.6107537990744
20
-0.172338719158233
30
0
41
1
10
13.5845360569577
20
-0.168487866469945
30
0
41
1
10
13.5758813857684
20
-0.166917921582694
30
0
41
1
10
13.5587665670624
20
-0.163128599991012
30
0
41
1
10
13.5502781402103
20
-0.160899237752261
30
0
41
1
10
13.5254725850453
20
-0.153189292128417
30
0
41
1
10
13.5097502526873
20
-0.146697680270506
30
0
41
1
10
13.487729770635
20
-0.134414624872051
30
0
41
1
10
13.4806039452574
20
-0.129853707881637
30
0
41
1
10
13.4672721794875
20
-0.119980598876253
30
0
41
1
10
13.4548373620843
20
-0.109364759407299
30
0
41
1
10
13.4442739531632
20
-0.0972097821795046
30
0
41
1
10
13.4347020606929
20
-0.0842436367422579
30
0
41
1
10
13.4304662602203
20
-0.077411415344244
30
0
41
1
10
13.419618907375
20
-0.0563995618523734
30
0
41
1
10
13.4147141868961
20
-0.041524201358186
30
0
41
1
10
13.4118932376919
20
-0.0258739826265639
30
0
0
SPLINE
5
FB
100
AcDbEntity
8
1
62
256
6
ByLayer
370
18
48
1
60
0
100
AcDbSpline
70
4
71
3
72
52
73
48
40
0
40
0
40
0
40
0
40
0.015624999999994
40
0.015624999999994
40
0.031249999999988
40
0.031249999999988
40
0.0624999999999679
40
0.0624999999999679
40
0.0937499999999478
40
0.0937499999999478
40
0.124999999999928
40
0.124999999999928
40
0.187499999999888
40
0.187499999999888
40
0.21874999999988
40
0.21874999999988
40
0.249999999999873
40
0.249999999999873
40
0.312499999999884
40
0.312499999999884
40
0.374999999999895
40
0.374999999999895
40
0.437499999999906
40
0.437499999999906
40
0.499999999999917
40
0.499999999999917
40
0.562499999999928
40
0.562499999999928
40
0.624999999999938
40
0.624999999999938
40
0.687499999999949
40
0.687499999999949
40
0.74999999999996
40
0.74999999999996
40
0.812499999999971
40
0.812499999999971
40
0.843749999999976
40
0.843749999999976
40
0.874999999999981
40
0.874999999999981
40
0.906249999999986
40
0.906249999999986
40
0.93749999999999
40
0.93749999999999
40
0.968749999999995
40
0.968749999999995
40
1
40
1
40
1
40
1
41
1
10
13.4030812485786
20
-0.0078675761447755
30
0
41
1
10
13.4000666048828
20
-0.0017074573468392
30
0
41
1
10
13.3967224273547
20
0.0042875812634975
30
0
41
1
10
13.3894428189553
20
0.0159826645773364
30
0
41
1
10
13.3854977014907
20
0.0216927439880692
30
0
41
1
10
13.3730035929496
20
0.0382345603817669
30
0
41
1
10
13.3637670236647
20
0.0485486657679246
30
0
41
1
10
13.3438500909804
20
0.0680557937350272
30
0
41
1
10
13.3331664766585
20
0.0772462447284852
30
0
41
1
10
13.3105664638182
20
0.0946869635055805
30
0
41
1
10
13.2986854491709
20
0.102902766085236
30
0
41
1
10
13.2619174276124
20
0.12604180731438
30
0
41
1
10
13.2356858067708
20
0.139618939959121
30
0
41
1
10
13.1949514512994
20
0.157594746210293
30
0
41
1
10
13.1811202458899
20
0.163195947546996
30
0
41
1
10
13.1529938817367
20
0.173699069729935
30
0
41
1
10
13.1386844145567
20
0.178604041836735
30
0
41
1
10
13.0953654986125
20
0.192275450800622
30
0
41
1
10
13.0658899103002
20
0.200039086767788
30
0
41
1
10
13.005862252587
20
0.213232845525056
30
0
41
1
10
12.9753602650881
20
0.218641458688324
30
0
41
1
10
12.9139731683313
20
0.227217027221371
30
0
41
1
10
12.8829892403192
20
0.230401491721608
30
0
41
1
10
12.8205840244526
20
0.234647486978162
30
0
41
1
10
12.7893090309156
20
0.235700118884409
30
0
41
1
10
12.7266155602646
20
0.235699881095599
30
0
41
1
10
12.6953568209948
20
0.234646996597405
30
0
41
1
10
12.6330162522314
20
0.230407153540767
30
0
41
1
10
12.6019467413244
20
0.22721634112537
30
0
41
1
10
12.5404744379843
20
0.218625978790072
30
0
41
1
10
12.5099491698115
20
0.213208766775608
30
0
41
1
10
12.4499520772703
20
0.200015479563603
30
0
41
1
10
12.4204136116337
20
0.192232981648459
30
0
41
1
10
12.3625882233877
20
0.173969740596391
30
0
41
1
10
12.3344782908899
20
0.163554570785408
30
0
41
1
10
12.2937250990997
20
0.145563311297593
30
0
41
1
10
12.2803566916457
20
0.139156155737794
30
0
41
1
10
12.254335203503
20
0.125513385632161
30
0
41
1
10
12.2416664654448
20
0.118273483734157
30
0
41
1
10
12.2171134162437
20
0.102812311884776
30
0
41
1
10
12.2052545272474
20
0.0946044344780432
30
0
41
1
10
12.1826834463879
20
0.0771748437525446
30
0
41
1
10
12.1719152847151
20
0.067910106036237
30
0
41
1
10
12.1518566600414
20
0.048222499780195
30
0
41
1
10
12.1426418164931
20
0.0378816815023697
30
0
41
1
10
12.1261578070016
20
0.0159951177037101
30
0
41
1
10
12.1188832215551
20
0.0044527125909894
30
0
41
1
10
12.1128539091364
20
-0.0078675761454292
30
0
0
SPLINE
5
FC
100
AcDbEntity
8
1
62
256
6
ByLayer
370
18
48
1
60
0
100
AcDbSpline
70
4
71
3
72
8
73
4
40
0
40
0
40
0
40
0
40
1
40
1
40
1
40
1
41
1
10
12.1128539091364
20
-0.0078675761454576
30
0
41
1
10
12.1099164714097
20
-0.0138699323720175
30
0
41
1
10
12.1069791425427
20
-0.0198720661547043
30
0
41
1
10
12.1040419200234
20
-0.0258739826265639
30
0
0
SPLINE
5
FD
100
AcDbEntity
8
1
62
256
6
ByLayer
370
18
48
1
60
0
100
AcDbSpline
70
4
71
3
72
35
73
31
40
0
40
0
40
0
40
0
40
0.125000000000018
40
0.125000000000018
40
0.250000000000035
40
0.250000000000035
40
0.375000000000052
40
0.375000000000052
40
0.50000000000007
40
0.50000000000007
40
0.562500000000057
40
0.562500000000057
40
0.625000000000044
40
0.625000000000044
40
0.687500000000031
40
0.687500000000031
40
0.718750000000044
40
0.718750000000044
40
0.750000000000057
40
0.750000000000057
40
0.81250000000004
40
0.81250000000004
40
0.843750000000031
40
0.843750000000031
40
0.875000000000022
40
0.906250000000014
40
0.906250000000014
40
0.937500000000005
40
0.937500000000005
40
1
40
1
40
1
40
1
41
1
10
11.3546175788576
20
-0.018173500801737
30
0
41
1
10
11.3861572195396
20
-0.0363829208395998
30
0
41
1
10
11.4184359693649
20
-0.0533769773863924
30
0
41
1
10
11.4842603092809
20
-0.0847105048141259
30
0
41
1
10
11.5177192137688
20
-0.0990152005647076
30
0
41
1
10
11.5858345489366
20
-0.124631556247948
30
0
41
1
10
11.6205058413902
20
-0.135946451167143
30
0
41
1
10
11.6907300821502
20
-0.154830315926432
30
0
41
1
10
11.7263009851149
20
-0.162415641074915
30
0
41
1
10
11.7800070973007
20
-0.170063465882862
30
0
41
1
10
11.7979403951797
20
-0.171983772285131
30
0
41
1
10
11.8338745362031
20
-0.174327987162627
30
0
41
1
10
11.8518317473066
20
-0.174744692023808
30
0
41
1
10
11.8873235526729
20
-0.173757466328226
30
0
41
1
10
11.90490805606
20
-0.172361467048972
30
0
41
1
10
11.9309671239752
20
-0.168559730696501
30
0
41
1
10
11.9396001711861
20
-0.167006118904482
30
0
41
1
10
11.9567404052152
20
-0.16323502144428
30
0
41
1
10
11.9652554329908
20
-0.161011117975846
30
0
41
1
10
11.9901071080288
20
-0.15332476797758
30
0
41
1
10
12.0059083207757
20
-0.146835353581508
30
0
41
1
10
12.0281084713692
20
-0.13447685616265
30
0
41
1
10
12.0352367916471
20
-0.129915039598188
30
0
41
1
10
12.0485143729773
20
-0.120099089095731
30
0
41
1
10
12.0609207374792
20
-0.109535184896856
30
0
41
1
10
12.0714962564229
20
-0.0974100014969395
30
0
41
1
10
12.0810936366568
20
-0.0844550452062833
30
0
41
1
10
12.0853690887293
20
-0.0775853656834613
30
0
41
1
10
12.0962859425599
20
-0.0564964311199105
30
0
41
1
10
12.1012125973041
20
-0.041570656410812
30
0
41
1
10
12.1040419200234
20
-0.0258739826265639
30
0
0
SPLINE
5
FE
100
AcDbEntity
8
1
62
256
6
ByLayer
370
18
48
1
60
0
100
AcDbSpline
70
4
71
3
72
8
73
4
40
0
40
0
40
0
40
0
40
1
40
1
40
1
40
1
41
1
10
13.4118932376919
20
-0.0258739826265639
30
0
41
1
10
13.4089560151727
20
-0.0198720661547043
30
0
41
1
10
13.4060186863057
20
-0.0138699323720175
30
0
41
1
10
13.403081248579
20
-0.0078675761454576
30
0
0
SPLINE
5
FF
100
AcDbEntity
8
1
62
256
6
ByLayer
370
18
48
1
60
0
100
AcDbSpline
70
4
71
3
72
35
73
31
40
0
40
0
40
0
40
0
40
0.124999999999984
40
0.124999999999984
40
0.249999999999967
40
0.249999999999967
40
0.374999999999951
40
0.374999999999951
40
0.43749999999993
40
0.43749999999993
40
0.499999999999908
40
0.499999999999908
40
0.624999999999893
40
0.624999999999893
40
0.687499999999886
40
0.687499999999886
40
0.718749999999888
40
0.718749999999888
40
0.74999999999989
40
0.74999999999989
40
0.812499999999915
40
0.812499999999915
40
0.843749999999927
40
0.843749999999927
40
0.874999999999939
40
0.906249999999951
40
0.906249999999951
40
0.937499999999963
40
0.937499999999963
40
1
40
1
40
1
40
1
41
1
10
14.1613175788577
20
4.84317350080184
30
0
41
1
10
14.1928579281448
20
4.82496367165055
30
0
41
1
10
14.2237520049778
20
4.80548128927973
30
0
41
1
10
14.2837559621386
20
4.7641713961213
30
0
41
1
10
14.3128759722548
20
4.74234802469633
30
0
41
1
10
14.3691669361437
20
4.69612435383056
30
0
41
1
10
14.3962506400183
20
4.67179407393178
30
0
41
1
10
14.4347451693286
20
4.63337634152123
30
0
41
1
10
14.4472309060938
20
4.62023842442602
30
0
41
1
10
14.4714173553847
20
4.59321216698268
30
0
41
1
10
14.4831165319019
20
4.57932264752469
30
0
41
1
10
14.5165958319155
20
4.53665343228136
30
0
41
1
10
14.5369515747874
20
4.50669133952024
30
0
41
1
10
14.5624277590968
20
4.45960060677234
30
0
41
1
10
14.570110464226
20
4.4434538902841
30
0
41
1
10
14.57988439903
20
4.41882323323711
30
0
41
1
10
14.5828521224699
20
4.41054309568207
30
0
41
1
10
14.5881278830613
20
4.39382656710572
30
0
41
1
10
14.5904414121544
20
4.38536069269426
30
0
41
1
10
14.5961671809649
20
4.36002347895445
30
0
41
1
10
14.5984064463634
20
4.34316173379673
30
0
41
1
10
14.5987792493784
20
4.3179499092366
30
0
41
1
10
14.5983922920889
20
4.30949830494151
30
0
41
1
10
14.5965078117608
20
4.29301610260478
30
0
41
1
10
14.5935316337999
20
4.27693931510765
30
0
41
1
10
14.5882868191987
20
4.26171364601757
30
0
41
1
10
14.5818437540961
20
4.24694107125734
30
0
41
1
10
14.5780447770374
20
4.23985664974376
30
0
41
1
10
14.5652716545555
20
4.21995663986996
30
0
41
1
10
14.5548415747165
20
4.20827134708966
30
0
41
1
10
14.5426985623222
20
4.19800322405024
30
0
0
SPLINE
5
100
100
AcDbEntity
8
1
62
256
6
ByLayer
370
18
48
1
60
0
100
AcDbSpline
70
4
71
3
72
52
73
48
40
0
40
0
40
0
40
0
40
0.0156250000000042
40
0.0156250000000042
40
0.0312500000000082
40
0.0312500000000082
40
0.0625000000000134
40
0.0625000000000134
40
0.0937500000000185
40
0.0937500000000185
40
0.125000000000024
40
0.125000000000024
40
0.18750000000003
40
0.18750000000003
40
0.218750000000033
40
0.218750000000033
40
0.250000000000036
40
0.250000000000036
40
0.312500000000038
40
0.312500000000038
40
0.37500000000004
40
0.37500000000004
40
0.437500000000041
40
0.437500000000041
40
0.500000000000043
40
0.500000000000043
40
0.562500000000045
40
0.562500000000045
40
0.625000000000047
40
0.625000000000047
40
0.687500000000049
40
0.687500000000049
40
0.750000000000051
40
0.750000000000051
40
0.812500000000052
40
0.812500000000052
40
0.843750000000044
40
0.843750000000044
40
0.875000000000035
40
0.875000000000035
40
0.906250000000026
40
0.906250000000026
40
0.937500000000017
40
0.937500000000017
40
0.968750000000009
40
0.968750000000009
40
1
40
1
40
1
40
1
41
1
10
14.5315105514348
20
4.18136861437938
30
0
41
1
10
14.5276830539133
20
4.17567779695648
30
0
41
1
10
14.5241632869442
20
4.16978413495715
30
0
41
1
10
14.5176748518947
20
4.15763226749681
30
0
41
1
10
14.5147023367997
20
4.15136065584616
30
0
41
1
10
14.5066237578486
20
4.13226953225509
30
0
41
1
10
14.5023097652093
20
4.11911337591741
30
0
41
1
10
14.4953745631771
20
4.09211124226383
30
0
41
1
10
14.4927572063054
20
4.07826373536008
30
0
41
1
10
14.4889531072044
20
4.04997119072601
30
0
41
1
10
14.4877785207816
20
4.03557402892881
30
0
41
1
10
14.4861235340371
20
3.99216246759781
30
0
41
1
10
14.4874812026771
20
3.96265665124417
30
0
41
1
10
14.4922808755457
20
3.91839176147354
30
0
41
1
10
14.4943456956012
20
3.90361298555558
30
0
41
1
10
14.4993129070482
20
3.87400327859137
30
0
41
1
10
14.502219810189
20
3.85915843044546
30
0
41
1
10
14.5120394806928
20
3.81480744429146
30
0
41
1
10
14.5200537688757
20
3.78539901803791
30
0
41
1
10
14.538641467477
20
3.72681666214993
30
0
41
1
10
14.5492084648278
20
3.69769685952841
30
0
41
1
10
14.5724753530048
20
3.64024629000588
30
0
41
1
10
14.5852094898561
20
3.6118211889883
30
0
41
1
10
14.6127349580329
20
3.55565368909089
30
0
41
1
10
14.6274608488298
20
3.52804243423148
30
0
41
1
10
14.6588077900865
20
3.47374841489071
30
0
41
1
10
14.675348984444
20
3.44720399484186
30
0
41
1
10
14.7101910806209
20
3.39533540013466
30
0
41
1
10
14.7284891606848
20
3.37002382061382
30
0
41
1
10
14.7666647843649
20
3.32108242545982
30
0
41
1
10
14.7866188616735
20
3.29735537377209
30
0
41
1
10
14.8280431298291
20
3.25199301108424
30
0
41
1
10
14.8495522035468
20
3.23030319841166
30
0
41
1
10
14.8942813283763
20
3.18935656373299
30
0
41
1
10
14.9173560962664
20
3.17022023299668
30
0
41
1
10
14.953313579924
20
3.14392256336492
30
0
41
1
10
14.9655465431318
20
3.13554876068153
30
0
41
1
10
14.9903722726926
20
3.11983487595853
30
0
41
1
10
15.0029765806862
20
3.11248337791523
30
0
41
1
10
15.0286428728806
20
3.09895039949134
30
0
41
1
10
15.0416805477242
20
3.09278423906326
30
0
41
1
10
15.0680605564998
20
3.08195190501087
30
0
41
1
10
15.0814681355579
20
3.07725877230831
30
0
41
1
10
15.1085474150522
20
3.06973129690385
30
0
41
1
10
15.1221102481508
20
3.0669214174381
30
0
41
1
10
15.1493065731478
20
3.06358912836154
30
0
41
1
10
15.1629398819194
20
3.06306035511932
30
0
41
1
10
15.1766242211565
20
3.06399896176555
30
0
0
SPLINE
5
101
100
AcDbEntity
8
1
62
256
6
ByLayer
370
18
48
1
60
0
100
AcDbSpline
70
4
71
3
72
8
73
4
40
0
40
0
40
0
40
0
40
1
40
1
40
1
40
1
41
1
10
15.1766242211565
20
3.06399896176555
30
0
41
1
10
15.1832911329946
20
3.06445624418544
30
0
41
1
10
15.1899577977608
20
3.06491350965871
30
0
41
1
10
15.1966242211564
20
3.06537075857639
30
0
0
SPLINE
5
102
100
AcDbEntity
8
1
62
256
6
ByLayer
370
18
48
1
60
0
100
AcDbSpline
70
4
71
3
72
35
73
31
40
0
40
0
40
0
40
0
40
0.124999999999985
40
0.124999999999985
40
0.24999999999997
40
0.24999999999997
40
0.374999999999955
40
0.374999999999955
40
0.499999999999941
40
0.499999999999941
40
0.562499999999922
40
0.562499999999922
40
0.624999999999903
40
0.624999999999903
40
0.687499999999884
40
0.687499999999884
40
0.718749999999879
40
0.718749999999879
40
0.749999999999875
40
0.749999999999875
40
0.812499999999907
40
0.812499999999907
40
0.843749999999925
40
0.843749999999925
40
0.874999999999942
40
0.906249999999959
40
0.906249999999959
40
0.937499999999977
40
0.937499999999977
40
1
40
1
40
1
40
1
41
1
10
15.5646675788577
20
2.41250000000002
30
0
41
1
10
15.5646675788577
20
2.44891884007572
30
0
41
1
10
15.563245488628
20
2.4853700857002
30
0
41
1
10
15.5574689494124
20
2.55804239996871
30
0
41
1
10
15.553127727082
20
2.59417100911333
30
0
41
1
10
15.5412544742722
20
2.66596879759754
30
0
41
1
10
15.5337178144866
20
2.70165246510393
30
0
41
1
10
15.5149596007097
20
2.77191037394326
30
0
41
1
10
15.5037432335018
20
2.80650834212051
30
0
41
1
10
15.4835133879763
20
2.85684311201587
30
0
41
1
10
15.4762097731642
20
2.87333395675387
30
0
41
1
10
15.4602728522883
20
2.90562594318203
30
0
41
1
10
15.4516551237322
20
2.92138569660943
30
0
41
1
10
15.4330542585175
20
2.95162888883499
30
0
41
1
10
15.4230530359845
20
2.96615951584152
30
0
41
1
10
15.4067311017671
20
2.98682646247877
30
0
41
1
10
15.4010691108822
20
2.9935260947795
30
0
41
1
10
15.3892331276669
20
3.00648442414541
30
0
41
1
10
15.3830496568799
20
3.01274670277877
30
0
41
1
10
15.363967245
20
3.03042570968913
30
0
41
1
10
15.3504466409039
20
3.04086525414053
30
0
41
1
10
15.3286437928898
20
3.05391189981293
30
0
41
1
10
15.3211289837186
20
3.05780429797767
30
0
41
1
10
15.3059893305561
20
3.06439504545918
30
0
41
1
10
15.2906375389058
20
3.06985732018697
30
0
41
1
10
15.2748490625841
20
3.07295339655045
30
0
41
1
10
15.2588310512145
20
3.0747874934975
30
0
41
1
10
15.2507440081956
20
3.07505530384353
30
0
41
1
10
15.2270220282095
20
3.07396510930846
30
0
41
1
10
15.2116326007681
20
3.07076883011808
30
0
41
1
10
15.1966242211564
20
3.06537075857639
30
0
0
SPLINE
5
103
100
AcDbEntity
8
1
62
256
6
ByLayer
370
18
48
1
60
0
100
AcDbSpline
70
4
71
3
72
8
73
4
40
0
40
0
40
0
40
0
40
1
40
1
40
1
40
1
41
1
10
14.5426985623222
20
4.19800322405024
30
0
41
1
10
14.5389693614458
20
4.19245855649609
30
0
41
1
10
14.5352400255466
20
4.18691368818668
30
0
41
1
10
14.5315105514352
20
4.18136861437998
30
0
0
SPLINE
5
104
100
AcDbEntity
8
1
62
256
6
ByLayer
370
18
48
1
60
0
100
AcDbSpline
70
4
71
3
72
52
73
48
40
0
40
0
40
0
40
0
40
0.0156250000000138
40
0.0156250000000138
40
0.0312500000000274
40
0.0312500000000274
40
0.0625000000000373
40
0.0625000000000373
40
0.0937500000000471
40
0.0937500000000471
40
0.125000000000057
40
0.125000000000057
40
0.187500000000071
40
0.187500000000071
40
0.218750000000069
40
0.218750000000069
40
0.250000000000067
40
0.250000000000067
40
0.312500000000062
40
0.312500000000062
40
0.375000000000057
40
0.375000000000057
40
0.437500000000052
40
0.437500000000052
40
0.500000000000047
40
0.500000000000047
40
0.562500000000043
40
0.562500000000043
40
0.625000000000038
40
0.625000000000038
40
0.687500000000033
40
0.687500000000033
40
0.750000000000028
40
0.750000000000028
40
0.812500000000023
40
0.812500000000023
40
0.843750000000019
40
0.843750000000019
40
0.875000000000015
40
0.875000000000015
40
0.906250000000012
40
0.906250000000012
40
0.937500000000008
40
0.937500000000008
40
0.968750000000004
40
0.968750000000004
40
1
40
1
40
1
40
1
41
1
10
15.1766242211557
20
1.76100103823458
30
0
41
1
10
15.1697820799385
20
1.76147033960962
30
0
41
1
10
15.1629181354411
20
1.76157171622063
30
0
41
1
10
15.1491500919923
20
1.76111493207412
30
0
41
1
10
15.1422324594327
20
1.76055339983418
30
0
41
1
10
15.1216597719405
20
1.75800409263684
30
0
41
1
10
15.1081092100163
20
1.75516204168534
30
0
41
1
10
15.0812570752998
20
1.74766703599883
30
0
41
1
10
15.0679561041062
20
1.74300998008854
30
0
41
1
10
15.0415519921649
20
1.73215815423157
30
0
41
1
10
15.0284963910948
20
1.72597679501402
30
0
41
1
10
14.9900733827919
20
1.70570427491214
30
0
41
1
10
14.9651994305902
20
1.68977559120327
30
0
41
1
10
14.9292647479875
20
1.66348650768381
30
0
41
1
10
14.9174983626334
20
1.65430893310256
30
0
41
1
10
14.8943392099274
20
1.63520234832126
30
0
41
1
10
14.882936645888
20
1.62526247228214
30
0
41
1
10
14.8494374004476
20
1.59458289509206
30
0
41
1
10
14.8279761003182
20
1.57293810480564
30
0
41
1
10
14.7865361412063
20
1.52754950767496
30
0
41
1
10
14.7666011510583
20
1.50383831821668
30
0
41
1
10
14.7284809424784
20
1.45496331722722
30
0
41
1
10
14.7102311513177
20
1.42972268070989
30
0
41
1
10
14.6753514036279
20
1.37780117606903
30
0
41
1
10
14.6588023008877
20
1.35124255311587
30
0
41
1
10
14.6274557714934
20
1.29694829598628
30
0
41
1
10
14.6127382265811
20
1.26935099143924
30
0
41
1
10
14.5852397539946
20
1.2132425536754
30
0
41
1
10
14.5724683231515
20
1.18474016173914
30
0
41
1
10
14.5491716434915
20
1.12720840424987
30
0
41
1
10
14.5386004526273
20
1.09806414054768
30
0
41
1
10
14.5200276282418
20
1.03950849064779
30
0
41
1
10
14.5119982363229
20
1.0100361800601
30
0
41
1
10
14.4989019729064
20
0.950826304329354
30
0
41
1
10
14.4938668082986
20
0.92127480378204
30
0
41
1
10
14.489071100166
20
0.876985874662495
30
0
41
1
10
14.4879356559198
20
0.862204916419273
30
0
41
1
10
14.4867398973379
20
0.832848261590669
30
0
41
1
10
14.4866754672734
20
0.81825686164936
30
0
41
1
10
14.4877887102666
20
0.789262711376068
30
0
41
1
10
14.4889674961138
20
0.774888673541284
30
0
41
1
10
14.49277642403
20
0.74662674876339
30
0
41
1
10
14.4954158414153
20
0.732668878344526
30
0
41
1
10
14.5024364962358
20
0.705453796684026
30
0
41
1
10
14.5067844857863
20
0.692303098940442
30
0
41
1
10
14.5174968012917
20
0.667084246065258
30
0
41
1
10
14.5238555246169
20
0.655013067710314
30
0
41
1
10
14.5315105514352
20
0.643631385620068
30
0
0
SPLINE
5
105
100
AcDbEntity
8
1
62
256
6
ByLayer
370
18
48
1
60
0
100
AcDbSpline
70
4
71
3
72
8
73
4
40
0
40
0
40
0
40
0
40
1
40
1
40
1
40
1
41
1
10
14.5315105514352
20
0.643631385620068
30
0
41
1
10
14.5352400255466
20
0.638086311813396
30
0
41
1
10
14.5389693614458
20
0.632541443503953
30
0
41
1
10
14.5426985623222
20
0.626996775949806
30
0
0
SPLINE
5
106
100
AcDbEntity
8
1
62
256
6
ByLayer
370
18
48
1
60
0
100
AcDbSpline
70
4
71
3
72
35
73
31
40
0
40
0
40
0
40
0
40
0.124999999999981
40
0.124999999999981
40
0.249999999999962
40
0.249999999999962
40
0.374999999999943
40
0.374999999999943
40
0.499999999999924
40
0.499999999999924
40
0.562499999999918
40
0.562499999999918
40
0.624999999999913
40
0.624999999999913
40
0.687499999999907
40
0.687499999999907
40
0.718749999999916
40
0.718749999999916
40
0.749999999999925
40
0.749999999999925
40
0.812499999999942
40
0.812499999999942
40
0.843749999999953
40
0.843749999999953
40
0.874999999999965
40
0.906249999999976
40
0.906249999999976
40
0.937499999999988
40
0.937499999999988
40
1
40
1
40
1
40
1
41
1
10
14.1613175788577
20
-0.018173500801737
30
0
41
1
10
14.1928572195396
20
3.59192360975E-05
30
0
41
1
10
14.2237138791351
20
0.0194931083137533
30
0
41
1
10
14.2837616798358
20
0.0608318951545641
30
0
41
1
10
14.3128793619931
20
0.0826558085485942
30
0
41
1
10
14.3691214443511
20
0.128837241349572
30
0
41
1
10
14.396256077019
20
0.153206013936767
30
0
41
1
10
14.4477221040022
20
0.20458005801683
30
0
41
1
10
14.4720766397591
20
0.231592701045571
30
0
41
1
10
14.5055529064194
20
0.274279646132982
30
0
41
1
10
14.5161825894863
20
0.288850184468743
30
0
41
1
10
14.5361798096338
20
0.318797956019409
30
0
41
1
10
14.5455192921813
20
0.334141004585604
30
0
41
1
10
14.5624102323327
20
0.36537142250674
30
0
41
1
10
14.5699935131868
20
0.38129804879253
30
0
41
1
10
14.5797306468847
20
0.405766731782279
30
0
41
1
10
14.5827017032106
20
0.414019975874993
30
0
41
1
10
14.5880059540245
20
0.43074940270111
30
0
41
1
10
14.590337511013
20
0.439235584802901
30
0
41
1
10
14.5961067741711
20
0.464600941711552
30
0
41
1
10
14.5983873828219
20
0.481529900559025
30
0
41
1
10
14.5987846854013
20
0.506935043650259
30
0
41
1
10
14.5983981965081
20
0.515389258379457
30
0
41
1
10
14.5965361246758
20
0.531795956363425
30
0
41
1
10
14.5935906975273
20
0.54782213529009
30
0
41
1
10
14.5883777401492
20
0.563043395053484
30
0
41
1
10
14.5819571090136
20
0.577832448291161
30
0
41
1
10
14.5781455180672
20
0.584969938160015
30
0
41
1
10
14.5653403919118
20
0.604968678188527
30
0
41
1
10
14.5548776192146
20
0.616698173707249
30
0
41
1
10
14.5426985623222
20
0.626996775949806
30
0
0
SPLINE
5
107
100
AcDbEntity
8
1
62
256
6
ByLayer
370
18
48
1
60
0
100
AcDbSpline
70
4
71
3
72
35
73
31
40
0
40
0
40
0
40
0
40
0.124999999999995
40
0.124999999999995
40
0.24999999999999
40
0.24999999999999
40
0.374999999999985
40
0.374999999999985
40
0.437499999999984
40
0.437499999999984
40
0.499999999999982
40
0.499999999999982
40
0.624999999999956
40
0.624999999999956
40
0.687499999999943
40
0.687499999999943
40
0.718749999999937
40
0.718749999999937
40
0.749999999999932
40
0.749999999999932
40
0.812499999999913
40
0.812499999999913
40
0.843749999999925
40
0.843749999999925
40
0.874999999999938
40
0.90624999999995
40
0.90624999999995
40
0.937499999999963
40
0.937499999999963
40
1
40
1
40
1
40
1
41
1
10
15.5646675788577
20
2.41250000000002
30
0
41
1
10
15.5646675788576
20
2.37608034169747
30
0
41
1
10
15.5632423792148
20
2.33958409514824
30
0
41
1
10
15.5574689408924
20
2.26696419734014
30
0
41
1
10
15.5531293519002
20
2.2308338431086
30
0
41
1
10
15.5412439606187
20
2.1589726029444
30
0
41
1
10
15.5337151720825
20
2.12335228741105
30
0
41
1
10
15.5196917045144
20
2.07080618091629
30
0
41
1
10
15.5145568029397
20
2.05342425714508
30
0
41
1
10
15.50324460207
20
2.01896504891013
30
0
41
1
10
15.4970655136316
20
2.0018885051139
30
0
41
1
10
15.4768525392781
20
1.95155997317951
30
0
41
1
10
15.4610824772324
20
1.9189503363591
30
0
41
1
10
15.4330387985446
20
1.87334194718167
30
0
41
1
10
15.4228966844427
20
1.85861517112582
30
0
41
1
10
15.4064528771301
20
1.83783536676711
30
0
41
1
10
15.4007659293805
20
1.83112517409936
30
0
41
1
10
15.388926871266
20
1.81819796711469
30
0
41
1
10
15.382751973507
20
1.81196145494195
30
0
41
1
10
15.3636721871524
20
1.79433418682598
30
0
41
1
10
15.350189120193
20
1.78396405352615
30
0
41
1
10
15.3285414411556
20
1.77103528436453
30
0
41
1
10
15.3210286584886
20
1.76714459705985
30
0
41
1
10
15.3058124123907
20
1.76053550372851
30
0
41
1
10
15.2904014170265
20
1.75507455570033
30
0
41
1
10
15.2745931935042
20
1.75200386383804
30
0
41
1
10
15.2585782359312
20
1.75019743451503
30
0
41
1
10
15.2505434584
20
1.74994523439949
30
0
41
1
10
15.2269229830728
20
1.75105707801757
30
0
41
1
10
15.2115881827549
20
1.75424714573146
30
0
41
1
10
15.1966242211564
20
1.75962924142365
30
0
0
SPLINE
5
108
100
AcDbEntity
8
1
62
256
6
ByLayer
370
18
48
1
60
0
100
AcDbSpline
70
4
71
3
72
8
73
4
40
0
40
0
40
0
40
0
40
1
40
1
40
1
40
1
41
1
10
15.1966242211564
20
1.75962924142365
30
0
41
1
10
15.1899577977608
20
1.76008649034134
30
0
41
1
10
15.1832911329946
20
1.76054375581461
30
0
41
1
10
15.1766242211565
20
1.76100103823452
30
0
0
SPLINE
5
109
100
AcDbEntity
8
1
62
256
6
ByLayer
370
18
48
1
60
0
100
AcDbSpline
70
4
71
3
72
35
73
31
40
0
40
0
40
0
40
0
40
0.125000000000025
40
0.125000000000025
40
0.250000000000049
40
0.250000000000049
40
0.375000000000074
40
0.375000000000074
40
0.500000000000098
40
0.500000000000098
40
0.562500000000087
40
0.562500000000087
40
0.625000000000075
40
0.625000000000075
40
0.687500000000063
40
0.687500000000063
40
0.718750000000037
40
0.718750000000037
40
0.750000000000011
40
0.750000000000011
40
0.812500000000002
40
0.812500000000002
40
0.843750000000001
40
0.843750000000001
40
0.874999999999999
40
0.906249999999998
40
0.906249999999998
40
0.937499999999996
40
0.937499999999996
40
1
40
1
40
1
40
1
41
1
10
14.1613175788577
20
4.84317350080184
30
0
41
1
10
14.1297779381757
20
4.8613829208397
30
0
41
1
10
14.0974991883504
20
4.87837697738647
30
0
41
1
10
14.0316748484344
20
4.9097105048142
30
0
41
1
10
13.9982159439465
20
4.92401520056478
30
0
41
1
10
13.9301006087787
20
4.94963155624802
30
0
41
1
10
13.8954293163252
20
4.96094645116722
30
0
41
1
10
13.8252050755651
20
4.97983031592651
30
0
41
1
10
13.7896341726004
20
4.98741564107499
30
0
41
1
10
13.7359280604146
20
4.99506346588294
30
0
41
1
10
13.7179947625356
20
4.99698377228518
30
0
41
1
10
13.6820606215122
20
4.99932798716267
30
0
41
1
10
13.6641034104087
20
4.99974469202388
30
0
41
1
10
13.6286116050424
20
4.99875746632827
30
0
41
1
10
13.6110271016553
20
4.99736146704905
30
0
41
1
10
13.5849680337401
20
4.99355973069655
30
0
41
1
10
13.5763349865292
20
4.99200611890453
30
0
41
1
10
13.5591947525001
20
4.98823502144433
30
0
41
1
10
13.5506797247246
20
4.98601111797589
30
0
41
1
10
13.5258280496866
20
4.9783247679776
30
0
41
1
10
13.5100268369397
20
4.97183535358155
30
0
41
1
10
13.4878266863461
20
4.95947685616267
30
0
41
1
10
13.4806983660682
20
4.95491503959823
30
0
41
1
10
13.4674207847381
20
4.94509908909578
30
0
41
1
10
13.4550144202362
20
4.93453518489693
30
0
41
1
10
13.4444389012925
20
4.92241000149698
30
0
41
1
10
13.4348415210586
20
4.90945504520633
30
0
41
1
10
13.4305660689861
20
4.90258536568351
30
0
41
1
10
13.4196492151555
20
4.88149643111996
30
0
41
1
10
13.4147225604112
20
4.86657065641086
30
0
41
1
10
13.4118932376919
20
4.85087398262661
30
0
0
SPLINE
5
10A
100
AcDbEntity
8
1
62
256
6
ByLayer
370
18
48
1
60
0
100
AcDbSpline
70
4
71
3
72
52
73
48
40
0
40
0
40
0
40
0
40
0.0156250000000034
40
0.0156250000000034
40
0.0312500000000071
40
0.0312500000000071
40
0.062500000000011
40
0.062500000000011
40
0.0937500000000148
40
0.0937500000000148
40
0.125000000000019
40
0.125000000000019
40
0.187500000000023
40
0.187500000000023
40
0.218750000000036
40
0.218750000000036
40
0.250000000000049
40
0.250000000000049
40
0.312500000000045
40
0.312500000000045
40
0.375000000000042
40
0.375000000000042
40
0.437500000000039
40
0.437500000000039
40
0.500000000000035
40
0.500000000000035
40
0.562500000000032
40
0.562500000000032
40
0.625000000000028
40
0.625000000000028
40
0.687500000000025
40
0.687500000000025
40
0.750000000000022
40
0.750000000000022
40
0.812500000000018
40
0.812500000000018
40
0.843750000000015
40
0.843750000000015
40
0.875000000000012
40
0.875000000000012
40
0.906250000000009
40
0.906250000000009
40
0.937500000000006
40
0.937500000000006
40
0.968750000000003
40
0.968750000000003
40
1
40
1
40
1
40
1
41
1
10
12.1128539091367
20
4.83286757614482
30
0
41
1
10
12.1158685528326
20
4.82670745734688
30
0
41
1
10
12.1192127303607
20
4.82071241873655
30
0
41
1
10
12.12649233876
20
4.80901733542271
30
0
41
1
10
12.1304374562247
20
4.803307256012
30
0
41
1
10
12.1429315647658
20
4.78676543961831
30
0
41
1
10
12.1521681340508
20
4.77645133423212
30
0
41
1
10
12.1720850667349
20
4.75694420626502
30
0
41
1
10
12.1827686810568
20
4.74775375527156
30
0
41
1
10
12.2053686938971
20
4.73031303649447
30
0
41
1
10
12.2172497085446
20
4.72209723391481
30
0
41
1
10
12.2540177301029
20
4.69895819268569
30
0
41
1
10
12.2802493509445
20
4.68538106004092
30
0
41
1
10
12.3209837064159
20
4.66740525378975
30
0
41
1
10
12.3348149118255
20
4.66180405245305
30
0
41
1
10
12.3629412759787
20
4.65130093027014
30
0
41
1
10
12.3772507431587
20
4.64639595816334
30
0
41
1
10
12.4205696591028
20
4.63272454919942
30
0
41
1
10
12.4500452474152
20
4.62496091323229
30
0
41
1
10
12.5100729051284
20
4.61176715447499
30
0
41
1
10
12.5405748926272
20
4.60635854131172
30
0
41
1
10
12.6019619893841
20
4.59778297277867
30
0
41
1
10
12.6329459173961
20
4.59459850827844
30
0
41
1
10
12.6953511332627
20
4.59035251302188
30
0
41
1
10
12.7266261267997
20
4.58929988111564
30
0
41
1
10
12.7893195974508
20
4.58930011890445
30
0
41
1
10
12.8205783367206
20
4.59035300340264
30
0
41
1
10
12.882918905484
20
4.59459284645928
30
0
41
1
10
12.913988416391
20
4.5977836588747
30
0
41
1
10
12.975460719731
20
4.60637402120997
30
0
41
1
10
13.0059859879038
20
4.61179123322444
30
0
41
1
10
13.065983080445
20
4.62498452043647
30
0
41
1
10
13.0955215460817
20
4.63276701835159
30
0
41
1
10
13.1533469343276
20
4.65103025940366
30
0
41
1
10
13.1814568668254
20
4.66144542921464
30
0
41
1
10
13.2222100586157
20
4.67943668870248
30
0
41
1
10
13.2355784660697
20
4.68584384426228
30
0
41
1
10
13.2615999542124
20
4.69948661436791
30
0
41
1
10
13.2742686922706
20
4.70672651626592
30
0
41
1
10
13.2988217414718
20
4.7221876881153
30
0
41
1
10
13.310680630468
20
4.730395565522
30
0
41
1
10
13.3332517113274
20
4.7478251562475
30
0
41
1
10
13.3440198730002
20
4.75708989396381
30
0
41
1
10
13.364078497674
20
4.77677750021988
30
0
41
1
10
13.3732933412223
20
4.7871183184977
30
0
41
1
10
13.3897773507138
20
4.80900488229634
30
0
41
1
10
13.3970519361602
20
4.82054728740906
30
0
41
1
10
13.403081248579
20
4.8328675761455
30
0
0
SPLINE
5
10B
100
AcDbEntity
8
1
62
256
6
ByLayer
370
18
48
1
60
0
100
AcDbSpline
70
4
71
3
72
8
73
4
40
0
40
0
40
0
40
0
40
1
40
1
40
1
40
1
41
1
10
13.403081248579
20
4.8328675761455
30
0
41
1
10
13.4060186863057
20
4.83886993237209
30
0
41
1
10
13.4089560151727
20
4.84487206615478
30
0
41
1
10
13.4118932376919
20
4.85087398262661
30
0
0
SPLINE
5
10C
100
AcDbEntity
8
1
62
256
6
ByLayer
370
18
48
1
60
0
100
AcDbSpline
70
4
71
3
72
35
73
31
40
0
40
0
40
0
40
0
40
0.124999999999985
40
0.124999999999985
40
0.24999999999997
40
0.24999999999997
40
0.374999999999955
40
0.374999999999955
40
0.437499999999948
40
0.437499999999948
40
0.499999999999942
40
0.499999999999942
40
0.624999999999975
40
0.624999999999975
40
0.687499999999969
40
0.687499999999969
40
0.718749999999986
40
0.718749999999986
40
0.750000000000003
40
0.750000000000003
40
0.812499999999991
40
0.812499999999991
40
0.843749999999989
40
0.843749999999989
40
0.874999999999988
40
0.906249999999986
40
0.906249999999986
40
0.937499999999984
40
0.937499999999984
40
1
40
1
40
1
40
1
41
1
10
11.3546175788577
20
4.84317350080181
30
0
41
1
10
11.3861579281449
20
4.86138332995307
30
0
41
1
10
11.4184772046207
20
4.87839719413148
30
0
41
1
10
11.484254600104
20
4.90970719878115
30
0
41
1
10
11.5177141992123
20
4.92401418158772
30
0
41
1
10
11.5858905543826
20
4.94965175088615
30
0
41
1
10
11.6205030467935
20
4.96094178652075
30
0
41
1
10
11.673021043672
20
4.97507016060496
30
0
41
1
10
11.6906416820119
20
4.97931416728096
30
0
41
1
10
11.7261403321724
20
4.98674711807254
30
0
41
1
10
11.744018597128
20
4.98993414241079
30
0
41
1
10
11.7977108714951
20
4.99759345910184
30
0
41
1
10
11.8338366764127
20
5.00024100316119
30
0
41
1
10
11.8873565394099
20
4.99875865959066
30
0
41
1
10
11.905181358641
20
4.99733871915828
30
0
41
1
10
11.9313991007577
20
4.99348786646999
30
0
41
1
10
11.940053771947
20
4.99191792158274
30
0
41
1
10
11.957168590653
20
4.98812859999106
30
0
41
1
10
11.965657017505
20
4.98589923775231
30
0
41
1
10
11.99046257267
20
4.97818929212849
30
0
41
1
10
12.0061849050281
20
4.97169768027058
30
0
41
1
10
12.0282053870804
20
4.9594146248721
30
0
41
1
10
12.035331212458
20
4.95485370788168
30
0
41
1
10
12.0486629782278
20
4.9449805988763
30
0
41
1
10
12.0610977956311
20
4.93436475940737
30
0
41
1
10
12.0716612045522
20
4.92220978217958
30
0
41
1
10
12.0812330970225
20
4.90924363674233
30
0
41
1
10
12.085468897495
20
4.90241141534429
30
0
41
1
10
12.0963162503403
20
4.88139956185242
30
0
41
1
10
12.1012209708193
20
4.86652420135823
30
0
41
1
10
12.1040419200234
20
4.85087398262661
30
0
0
SPLINE
5
10D
100
AcDbEntity
8
1
62
256
6
ByLayer
370
18
48
1
60
0
100
AcDbSpline
70
4
71
3
72
8
73
4
40
0
40
0
40
0
40
0
40
1
40
1
40
1
40
1
41
1
10
12.1040419200234
20
4.85087398262661
30
0
41
1
10
12.1069791425427
20
4.84487206615478
30
0
41
1
10
12.1099164714097
20
4.83886993237209
30
0
41
1
10
12.1128539091364
20
4.8328675761455
30
0
0
SPLINE
5
10E
100
AcDbEntity
8
1
62
256
6
ByLayer
370
18
48
1
60
0
100
AcDbSpline
70
4
71
3
72
39
73
35
40
0
40
0
40
0
40
0
40
0.124999999999972
40
0.124999999999972
40
0.249999999999945
40
0.249999999999945
40
0.374999999999918
40
0.374999999999918
40
0.437499999999899
40
0.437499999999899
40
0.49999999999988
40
0.49999999999988
40
0.562499999999861
40
0.562499999999861
40
0.624999999999842
40
0.624999999999842
40
0.687499999999823
40
0.687499999999823
40
0.718749999999834
40
0.718749999999834
40
0.749999999999844
40
0.749999999999844
40
0.812499999999857
40
0.812499999999857
40
0.843749999999881
40
0.843749999999881
40
0.874999999999905
40
0.874999999999905
40
0.906249999999928
40
0.906249999999928
40
0.937499999999952
40
0.968749999999976
40
0.968749999999976
40
1
40
1
40
1
40
1
41
1
10
9.95126757885768
20
2.41250000000002
30
0
41
1
10
9.95126757885774
20
2.44892487228594
30
0
41
1
10
9.95269143389757
20
2.48538509469861
30
0
41
1
10
9.95846109795633
20
2.55798529795456
30
0
41
1
10
9.96281115483612
20
2.59419641599425
30
0
41
1
10
9.97468212369481
20
2.66597461901546
30
0
41
1
10
9.98221214838861
20
2.70161874246375
30
0
41
1
10
9.99624848681086
20
2.75421248199578
30
0
41
1
10
10.0013836854569
20
2.77159147396202
30
0
41
1
10
10.012680293879
20
2.80600419869802
30
0
41
1
10
10.0188510187316
20
2.82306075244574
30
0
41
1
10
10.0323114855813
20
2.85658485042924
30
0
41
1
10
10.0396029554311
20
2.87306693333036
30
0
41
1
10
10.055520775735
20
2.90535781174887
30
0
41
1
10
10.0641093892997
20
2.92108402379441
30
0
41
1
10
10.0826687223087
20
2.95130763675579
30
0
41
1
10
10.0926510104768
20
2.9658382348884
30
0
41
1
10
10.1089517349516
20
2.98652081568639
30
0
41
1
10
10.1146078797633
20
2.99322827372228
30
0
41
1
10
10.1264359213047
20
3.00620759716261
30
0
41
1
10
10.1326026628056
20
3.01246783306763
30
0
41
1
10
10.1516418126009
20
3.03015610276955
30
0
41
1
10
10.1651411149191
20
3.04061835172169
30
0
41
1
10
10.1869349752724
20
3.05371744606754
30
0
41
1
10
10.1944268987452
20
3.0576186868575
30
0
41
1
10
10.2095826763995
20
3.06425647600486
30
0
41
1
10
10.217287944512
20
3.06701927561139
30
0
41
1
10
10.2329662055803
20
3.07135809607846
30
0
41
1
10
10.241004459205
20
3.07293951792639
30
0
41
1
10
10.2570178734334
20
3.07478210350672
30
0
41
1
10
10.2729113054233
20
3.07532304564125
30
0
41
1
10
10.2885714406616
20
3.07338363920579
30
0
41
1
10
10.3041173891927
20
3.07024189284374
30
0
41
1
10
10.3118091263682
20
3.06806893846985
30
0
41
1
10
10.3193109365589
20
3.06537075857639
30
0
0
SPLINE
5
10F
100
AcDbEntity
8
1
62
256
6
ByLayer
370
18
48
1
60
0
100
AcDbSpline
70
4
71
3
72
8
73
4
40
0
40
0
40
0
40
0
40
1
40
1
40
1
40
1
41
1
10
10.9844246062802
20
4.18136861437998
30
0
41
1
10
10.9806951321687
20
4.18691368818668
30
0
41
1
10
10.9769657962695
20
4.19245855649609
30
0
41
1
10
10.9732365953931
20
4.19800322405024
30
0
0
SPLINE
5
110
100
AcDbEntity
8
1
62
256
6
ByLayer
370
18
48
1
60
0
100
AcDbSpline
70
4
71
3
72
35
73
31
40
0
40
0
40
0
40
0
40
0.124999999999993
40
0.124999999999993
40
0.249999999999986
40
0.249999999999986
40
0.374999999999979
40
0.374999999999979
40
0.499999999999972
40
0.499999999999972
40
0.562499999999973
40
0.562499999999973
40
0.624999999999974
40
0.624999999999974
40
0.687499999999975
40
0.687499999999975
40
0.718749999999987
40
0.718749999999987
40
0.75
40
0.75
40
0.812500000000013
40
0.812500000000013
40
0.843750000000014
40
0.843750000000014
40
0.875000000000015
40
0.906250000000016
40
0.906250000000016
40
0.937500000000017
40
0.937500000000017
40
1
40
1
40
1
40
1
41
1
10
11.3546175788577
20
4.84317350080181
30
0
41
1
10
11.3230779381758
20
4.82496408076395
30
0
41
1
10
11.2922212785803
20
4.80550689168629
30
0
41
1
10
11.2321734778796
20
4.76416810484548
30
0
41
1
10
11.2030557957223
20
4.74234419145148
30
0
41
1
10
11.1468137133643
20
4.6961627586505
30
0
41
1
10
11.1196790806963
20
4.67179398606331
30
0
41
1
10
11.0682130537132
20
4.62041994198324
30
0
41
1
10
11.0438585179562
20
4.59340729895448
30
0
41
1
10
11.010382251296
20
4.55072035386709
30
0
41
1
10
10.9997525682291
20
4.53614981553133
30
0
41
1
10
10.9797553480815
20
4.50620204398066
30
0
41
1
10
10.9704158655341
20
4.49085899541444
30
0
41
1
10
10.9535249253826
20
4.45962857749331
30
0
41
1
10
10.9459416445285
20
4.44370195120752
30
0
41
1
10
10.9362045108307
20
4.41923326821779
30
0
41
1
10
10.9332334545047
20
4.41098002412505
30
0
41
1
10
10.9279292036909
20
4.39425059729896
30
0
41
1
10
10.9255976467023
20
4.38576441519714
30
0
41
1
10
10.9198283835442
20
4.36039905828852
30
0
41
1
10
10.9175477748934
20
4.34347009944105
30
0
41
1
10
10.917150472314
20
4.31806495634979
30
0
41
1
10
10.9175369612073
20
4.30961074162062
30
0
41
1
10
10.9193990330396
20
4.29320404363662
30
0
41
1
10
10.922344255904
20
4.27717779386509
30
0
41
1
10
10.9275574175661
20
4.26195660494656
30
0
41
1
10
10.9339780487018
20
4.24716755170888
30
0
41
1
10
10.9377896396481
20
4.24003006184003
30
0
41
1
10
10.9505947658036
20
4.22003132181152
30
0
41
1
10
10.9610575385007
20
4.2083018262928
30
0
41
1
10
10.9732365953931
20
4.19800322405024
30
0
0
SPLINE
5
111
100
AcDbEntity
8
1
62
256
6
ByLayer
370
18
48
1
60
0
100
AcDbSpline
70
4
71
3
72
8
73
4
40
0
40
0
40
0
40
0
40
1
40
1
40
1
40
1
41
1
10
10.3393109365589
20
3.06399896176555
30
0
41
1
10
10.3326440247207
20
3.06445624418544
30
0
41
1
10
10.3259773599545
20
3.06491350965871
30
0
41
1
10
10.3193109365589
20
3.06537075857639
30
0
0
SPLINE
5
112
100
AcDbEntity
8
1
62
256
6
ByLayer
370
18
48
1
60
0
100
AcDbSpline
70
4
71
3
72
50
73
46
40
0
40
0
40
0
40
0
40
0.0312499999999793
40
0.0312499999999793
40
0.0468749999999766
40
0.0468749999999766
40
0.0624999999999738
40
0.0624999999999738
40
0.124999999999975
40
0.124999999999975
40
0.156249999999976
40
0.156249999999976
40
0.187499999999977
40
0.187499999999977
40
0.249999999999976
40
0.249999999999976
40
0.281249999999971
40
0.281249999999971
40
0.312499999999966
40
0.312499999999966
40
0.374999999999963
40
0.374999999999963
40
0.499999999999954
40
0.499999999999954
40
0.56249999999996
40
0.56249999999996
40
0.624999999999966
40
0.624999999999966
40
0.687499999999971
40
0.687499999999971
40
0.749999999999977
40
0.749999999999977
40
0.812499999999983
40
0.812499999999983
40
0.843749999999986
40
0.843749999999986
40
0.874999999999989
40
0.874999999999989
40
0.906249999999991
40
0.906249999999991
40
0.937499999999994
40
0.937499999999994
40
0.968749999999997
40
0.968749999999997
40
1
40
1
40
1
40
1
41
1
10
10.9844246062802
20
4.18136861437998
30
0
41
1
10
10.9921227509316
20
4.16992282363543
30
0
41
1
10
10.9985261886693
20
4.15775405452209
30
0
41
1
10
11.0066138770056
20
4.13864568520569
30
0
41
1
10
11.0090542187986
20
4.13213218716103
30
0
41
1
10
11.0134704196556
20
4.11884154822124
30
0
41
1
10
11.0154503578249
20
4.1120449371565
30
0
41
1
10
11.0241950899266
20
4.07780640596656
30
0
41
1
10
11.0276646064672
20
4.04947052693052
30
0
41
1
10
11.0292673353731
20
4.00592734754878
30
0
41
1
10
11.0291792981549
20
3.99118949864149
30
0
41
1
10
11.0279329323937
20
3.96177099963651
30
0
41
1
10
11.0267788556846
20
3.94705451242504
30
0
41
1
10
11.0219367556457
20
3.90287223400853
30
0
41
1
10
11.0168819282326
20
3.87337341384165
30
0
41
1
10
11.0070329087388
20
3.82902167291471
30
0
41
1
10
11.0033590575833
20
3.81418796128926
30
0
41
1
10
10.9953323332963
20
3.78463480876604
30
0
41
1
10
10.9909940172226
20
3.76996210736013
30
0
41
1
10
10.9770841565476
20
3.72622586506469
30
0
41
1
10
10.9666231923879
20
3.69744221932206
30
0
41
1
10
10.9320494534015
20
3.61207002010389
30
0
41
1
10
10.9048008526592
20
3.55644031339114
30
0
41
1
10
10.8577857233309
20
3.47483070867071
30
0
41
1
10
10.8412337213783
20
3.44821612064922
30
0
41
1
10
10.8063740796255
20
3.3962268648614
30
0
41
1
10
10.7880619945995
20
3.37085308614448
30
0
41
1
10
10.7498543880364
20
3.32179280602
30
0
41
1
10
10.7298814914412
20
3.29800756761341
30
0
41
1
10
10.688412077502
20
3.25253009279831
30
0
41
1
10
10.666880724633
20
3.23078734689341
30
0
41
1
10
10.6220936168185
20
3.18973127900975
30
0
41
1
10
10.5989882641337
20
3.17054371366598
30
0
41
1
10
10.5629822644285
20
3.14417453180971
30
0
41
1
10
10.5507321909665
20
3.13577740056758
30
0
41
1
10
10.5258698256436
20
3.12001828074636
30
0
41
1
10
10.5132467977203
20
3.11264537857164
30
0
41
1
10
10.4875421036864
20
3.09907229692766
30
0
41
1
10
10.4744831751114
20
3.09288670539593
30
0
41
1
10
10.4480608095868
20
3.08201988985758
30
0
41
1
10
10.4346324458856
20
3.07731156771953
30
0
41
1
10
10.4075061827004
20
3.06975748061362
30
0
41
1
10
10.3939198156329
20
3.066937105167
30
0
41
1
10
10.3666762240668
20
3.06359092752379
30
0
41
1
10
10.3530191840607
20
3.06305871525527
30
0
41
1
10
10.3393109365589
20
3.06399896176555
30
0
0
LINE
5
7F
100
AcDbEntity
8
81
62
256
6
ByLayer
370
18
48
1
60
0
100
AcDbLine
10
46.107968
20
13.5625
30
0
11
51.107968
21
13.5625
31
0
39
0
210
0
220
0
230
1
0
LINE
5
80
100
AcDbEntity
8
80
62
256
6
ByLayer
370
18
48
1
60
0
100
AcDbLine
10
0
20
0
30
0
11
-5
21
0
31
0
39
0
210
0
220
0
230
1
0
LINE
5
81
100
AcDbEntity
8
1
62
256
6
ByLayer
370
18
48
1
60
0
100
AcDbLine
10
0
20
13.01149
30
0
11
0
21
-12.439338
31
0
39
0
210
0
220
0
230
1
0
LINE
5
82
100
AcDbEntity
8
1
62
256
6
ByLayer
370
18
48
1
60
0
100
AcDbLine
10
37.625912
20
13.2375
30
0
11
38.913402
21
13.2375
31
0
39
0
210
0
220
0
230
1
0
LINE
5
83
100
AcDbEntity
8
1
62
256
6
ByLayer
370
18
48
1
60
0
100
AcDbLine
10
38.913402
20
9.8875
30
0
11
41.824364
21
9.8875
31
0
39
0
210
0
220
0
230
1
0
LINE
5
84
100
AcDbEntity
8
1
62
256
6
ByLayer
370
18
48
1
60
0
100
AcDbLine
10
37.625912
20
9.8875
30
0
11
38.913402
21
9.8875
31
0
39
0
210
0
220
0
230
1
0
LINE
5
85
100
AcDbEntity
8
1
62
256
6
ByLayer
370
18
48
1
60
0
100
AcDbLine
10
38.913402
20
9.8875
30
0
11
38.913268
21
9.962516
31
0
39
0
210
0
220
0
230
1
0
LINE
5
86
100
AcDbEntity
8
1
62
256
6
ByLayer
370
18
48
1
60
0
100
AcDbLine
10
38.913402
20
13.2375
30
0
11
41.824364
21
13.2375
31
0
39
0
210
0
220
0
230
1
0
LINE
5
87
100
AcDbEntity
8
1
62
256
6
ByLayer
370
18
48
1
60
0
100
AcDbLine
10
38.913268
20
13.162484
30
0
11
38.913402
21
13.2375
31
0
39
0
210
0
220
0
230
1
0
LINE
5
88
100
AcDbEntity
8
1
62
256
6
ByLayer
370
18
48
1
60
0
100
AcDbLine
10
0.481918
20
13.2375
30
0
11
0.157917
21
13.2375
31
0
39
0
210
0
220
0
230
1
0
LINE
5
89
100
AcDbEntity
8
1
62
256
6
ByLayer
370
18
48
1
60
0
100
AcDbLine
10
34.607968
20
13.2375
30
0
11
37.625887
21
13.2375
31
0
39
0
210
0
220
0
230
1
0
LINE
5
8A
100
AcDbEntity
8
1
62
256
6
ByLayer
370
18
48
1
60
0
100
AcDbLine
10
37.625887
20
9.8875
30
0
11
34.607968
21
9.8875
31
0
39
0
210
0
220
0
230
1
0
LINE
5
8B
100
AcDbEntity
8
1
62
256
6
ByLayer
370
18
48
1
60
0
100
AcDbLine
10
38.107968
20
11.837469
30
0
11
38.107968
21
11.287531
31
0
39
0
210
0
220
0
230
1
0
LINE
5
8C
100
AcDbEntity
8
1
62
256
6
ByLayer
370
18
48
1
60
0
100
AcDbLine
10
2.572312
20
13.2375
30
0
11
0.481918
21
13.2375
31
0
39
0
210
0
220
0
230
1
0
LINE
5
8D
100
AcDbEntity
8
1
62
256
6
ByLayer
370
13
48
1
60
0
100
AcDbLine
10
0.481918
20
-12.443711
30
0
11
0.481918
21
13.2375
31
0
39
0
210
0
220
0
230
1
0
LINE
5
8E
100
AcDbEntity
8
1
62
256
6
ByLayer
370
18
48
1
60
0
100
AcDbLine
10
0.481918
20
-12.443711
30
0
11
2.572312
21
-12.477752
31
0
39
0
210
0
220
0
230
1
0
LINE
5
8F
100
AcDbEntity
8
1
62
256
6
ByLayer
370
18
48
1
60
0
100
AcDbLine
10
19.507968
20
-1.279283
30
0
11
7.966483
21
-12.477752
31
0
39
0
210
0
220
0
230
1
0
LINE
5
90
100
AcDbEntity
8
1
62
256
6
ByLayer
370
18
48
1
60
0
100
AcDbLine
10
19.507968
20
8.2875
30
0
11
19.507968
21
-1.279283
31
0
39
0
210
0
220
0
230
1
0
LINE
5
91
100
AcDbEntity
8
1
62
256
6
ByLayer
370
18
48
1
60
0
100
AcDbLine
10
25.774508
20
13.2375
30
0
11
2.572312
21
13.2375
31
0
39
0
210
0
220
0
230
1
0
LINE
5
92
100
AcDbEntity
8
1
62
256
6
ByLayer
370
18
48
1
60
0
100
AcDbLine
10
25.774508
20
9.8875
30
0
11
21.107968
21
9.8875
31
0
39
0
210
0
220
0
230
1
0
LINE
5
93
100
AcDbEntity
8
1
62
256
6
ByLayer
370
18
48
1
60
0
100
AcDbLine
10
2.572312
20
13.2375
30
0
11
2.572312
21
-12.477752
31
0
39
0
210
0
220
0
230
1
0
LINE
5
94
100
AcDbEntity
8
1
62
256
6
ByLayer
370
18
48
1
60
0
100
AcDbLine
10
2.572312
20
-12.477752
30
0
11
7.966483
21
-12.477752
31
0
39
0
210
0
220
0
230
1
0
LINE
5
95
100
AcDbEntity
8
1
62
256
6
ByLayer
370
18
48
1
60
0
100
AcDbLine
10
25.774508
20
13.2375
30
0
11
34.607968
21
13.2375
31
0
39
0
210
0
220
0
230
1
0
LINE
5
96
100
AcDbEntity
8
1
62
256
6
ByLayer
370
18
48
1
60
0
100
AcDbLine
10
34.607968
20
9.8875
30
0
11
25.774508
21
9.8875
31
0
39
0
210
0
220
0
230
1
0
LINE
5
97
100
AcDbEntity
8
1
62
256
6
ByLayer
370
18
48
1
60
0
100
AcDbLine
10
34.607968
20
13.2375
30
0
11
34.607968
21
9.8875
31
0
39
0
210
0
220
0
230
1
0
LINE
5
98
100
AcDbEntity
8
1
62
256
6
ByLayer
370
18
48
1
60
0
100
AcDbLine
10
25.774508
20
9.8875
30
0
11
25.774508
21
13.2375
31
0
39
0
210
0
220
0
230
1
0
LINE
5
99
100
AcDbEntity
8
SK1
62
256
6
ByLayer
370
18
48
1
60
0
100
AcDbLine
10
-103.892032
20
-12.4375
30
0
11
-4.455467
21
-12.4375
31
0
39
0
210
0
220
0
230
1
0
LINE
5
9B
100
AcDbEntity
8
SK1
62
256
6
ByLayer
370
18
48
1
60
0
100
AcDbLine
10
-103.892032
20
12.4375
30
0
11
-4.455467
21
12.4375
31
0
39
0
210
0
220
0
230
1
0
LINE
5
9C
100
AcDbEntity
8
SK1
62
256
6
ByLayer
370
18
48
1
60
0
100
AcDbLine
10
-103.892032
20
-12.4375
30
0
11
-103.892032
21
12.4375
31
0
39
0
210
0
220
0
230
1
0
LINE
5
9D
100
AcDbEntity
8
SK1
62
256
6
ByLayer
370
18
48
1
60
0
100
AcDbLine
10
0
20
13.01149
30
0
11
0
21
-12.439338
31
0
39
0
210
0
220
0
230
1
0
LINE
5
9E
100
AcDbEntity
8
SK1
62
256
6
ByLayer
370
18
48
1
60
0
100
AcDbLine
10
-4.455467
20
12.4375
30
0
11
-1.227723
21
12.4375
31
0
39
0
210
0
220
0
230
1
0
LINE
5
9F
100
AcDbEntity
8
SK1
62
256
6
ByLayer
370
18
48
1
60
0
100
AcDbLine
10
-4.455467
20
12.4375
30
0
11
-4.455467
21
-12.4375
31
0
39
0
210
0
220
0
230
1
0
LINE
5
A0
100
AcDbEntity
8
1
62
256
6
ByLayer
370
18
48
1
60
0
100
AcDbLine
10
39.737968
20
9.9625
30
0
11
41.694457
21
9.9625
31
0
39
0
210
0
220
0
230
1
0
LINE
5
A1
100
AcDbEntity
8
1
62
256
6
ByLayer
370
18
48
1
60
0
100
AcDbLine
10
39.737968
20
13.1625
30
0
11
41.694457
21
13.1625
31
0
39
0
210
0
220
0
230
1
0
LINE
5
A2
100
AcDbEntity
8
1
62
256
6
ByLayer
370
18
48
1
60
0
100
AcDbLine
10
46.107968
20
9.8625
30
0
11
46.107968
21
13.2625
31
0
39
0
210
0
220
0
230
1
0
LINE
5
A3
100
AcDbEntity
8
1
62
256
6
ByLayer
370
18
48
1
60
0
100
AcDbLine
10
45.794882
20
13.562214
30
0
11
42.107968
21
13.40124
31
0
39
0
210
0
220
0
230
1
0
LINE
5
A4
100
AcDbEntity
8
1
62
256
6
ByLayer
370
18
48
1
60
0
100
AcDbLine
10
42.107968
20
9.72376
30
0
11
41.694457
21
9.9625
31
0
39
0
210
0
220
0
230
1
0
LINE
5
A5
100
AcDbEntity
8
1
62
256
6
ByLayer
370
18
48
1
60
0
100
AcDbLine
10
45.794882
20
9.562786
30
0
11
42.107968
21
9.72376
31
0
39
0
210
0
220
0
230
1
0
LINE
5
A6
100
AcDbEntity
8
1
62
256
6
ByLayer
370
18
48
1
60
0
100
AcDbLine
10
42.107968
20
13.40124
30
0
11
41.694457
21
13.1625
31
0
39
0
210
0
220
0
230
1
0
LINE
5
A7
100
AcDbEntity
8
1
62
256
6
ByLayer
370
18
48
1
60
0
100
AcDbLine
10
21.107968
20
9.8625
30
0
11
21.107968
21
9.887522
31
0
39
0
210
0
220
0
230
1
0
LINE
5
A8
100
AcDbEntity
8
1
62
256
6
ByLayer
370
18
48
1
60
0
100
AcDbLine
10
21.107968
20
13.237478
30
0
11
21.107968
21
13.2625
31
0
39
0
210
0
220
0
230
1
0
LINE
5
A9
100
AcDbEntity
8
1
62
256
6
ByLayer
370
18
48
1
60
0
100
AcDbLine
10
25.107968
20
13.40124
30
0
11
25.391571
21
13.237502
31
0
39
0
210
0
220
0
230
1
0
LINE
5
AA
100
AcDbEntity
8
1
62
256
6
ByLayer
370
18
48
1
60
0
100
AcDbLine
10
21.421053
20
13.562214
30
0
11
25.107968
21
13.40124
31
0
39
0
210
0
220
0
230
1
0
LINE
5
AB
100
AcDbEntity
8
1
62
256
6
ByLayer
370
18
48
1
60
0
100
AcDbLine
10
21.421053
20
9.562786
30
0
11
25.107968
21
9.72376
31
0
39
0
210
0
220
0
230
1
0
LINE
5
AC
100
AcDbEntity
8
1
62
256
6
ByLayer
370
18
48
1
60
0
100
AcDbLine
10
25.107968
20
9.72376
30
0
11
25.391571
21
9.887498
31
0
39
0
210
0
220
0
230
1
0
LINE
5
AD
100
AcDbEntity
8
1
62
256
6
ByLayer
370
13
48
1
60
0
100
AcDbLine
10
38.107967
20
11.5825
30
0
11
39.045829
21
11.5825
31
0
39
0
210
0
220
0
230
1
0
LINE
5
AE
100
AcDbEntity
8
1
62
256
6
ByLayer
370
13
48
1
60
0
100
AcDbLine
10
38.107967
20
11.5425
30
0
11
39.045829
21
11.5425
31
0
39
0
210
0
220
0
230
1
0
LINE
5
AF
100
AcDbEntity
8
1
62
256
6
ByLayer
370
13
48
1
60
0
100
AcDbLine
10
38.107885
20
11.773236
30
0
11
39.036914
21
11.773236
31
0
39
0
210
0
220
0
230
1
0
LINE
5
B0
100
AcDbEntity
8
1
62
256
6
ByLayer
370
13
48
1
60
0
100
AcDbLine
10
38.107885
20
11.351764
30
0
11
39.036914
21
11.351764
31
0
39
0
210
0
220
0
230
1
0
LINE
5
B1
100
AcDbEntity
8
1
62
256
6
ByLayer
370
13
48
1
60
0
100
AcDbLine
10
37.999449
20
11.134767
30
0
11
38.856913
21
11.134767
31
0
39
0
210
0
220
0
230
1
0
LINE
5
B2
100
AcDbEntity
8
1
62
256
6
ByLayer
370
13
48
1
60
0
100
AcDbLine
10
37.999449
20
11.990233
30
0
11
38.856913
21
11.990233
31
0
39
0
210
0
220
0
230
1
0
LINE
5
B3
100
AcDbEntity
8
1
62
256
6
ByLayer
370
13
48
1
60
0
100
AcDbLine
10
38.698086
20
11.079415
30
0
11
37.869828
21
11.079415
31
0
39
0
210
0
220
0
230
1
0
LINE
5
B4
100
AcDbEntity
8
1
62
256
6
ByLayer
370
13
48
1
60
0
100
AcDbLine
10
38.698086
20
12.045585
30
0
11
37.869828
21
12.045585
31
0
39
0
210
0
220
0
230
1
0
LINE
5
B5
100
AcDbEntity
8
1
62
256
6
ByLayer
370
13
48
1
60
0
100
AcDbLine
10
37.827791
20
12.076388
30
0
11
38.65749
21
12.076388
31
0
39
0
210
0
220
0
230
1
0
LINE
5
B6
100
AcDbEntity
8
1
62
256
6
ByLayer
370
13
48
1
60
0
100
AcDbLine
10
37.827948
20
11.048612
30
0
11
38.65749
21
11.048612
31
0
39
0
210
0
220
0
230
1
0
LINE
5
B7
100
AcDbEntity
8
1
62
256
6
ByLayer
370
13
48
1
60
0
100
AcDbLine
10
37.811783
20
12.168165
30
0
11
38.585659
21
12.168165
31
0
39
0
210
0
220
0
230
1
0
LINE
5
B8
100
AcDbEntity
8
1
62
256
6
ByLayer
370
13
48
1
60
0
100
AcDbLine
10
37.813028
20
10.956835
30
0
11
38.585659
21
10.956835
31
0
39
0
210
0
220
0
230
1
0
LINE
5
B9
100
AcDbEntity
8
1
62
256
6
ByLayer
370
13
48
1
60
0
100
AcDbLine
10
37.805809
20
10.912566
30
0
11
38.565926
21
10.912566
31
0
39
0
210
0
220
0
230
1
0
LINE
5
BA
100
AcDbEntity
8
1
62
256
6
ByLayer
370
13
48
1
60
0
100
AcDbLine
10
37.804105
20
12.212434
30
0
11
38.565926
21
12.212434
31
0
39
0
210
0
220
0
230
1
0
LINE
5
BB
100
AcDbEntity
8
1
62
256
6
ByLayer
370
18
48
1
60
0
100
AcDbLine
10
39.737968
20
9.9625
30
0
11
38.442486
21
9.9625
31
0
39
0
210
0
220
0
230
1
0
LINE
5
BC
100
AcDbEntity
8
1
62
256
6
ByLayer
370
18
48
1
60
0
100
AcDbLine
10
39.737968
20
13.1625
30
0
11
38.442486
21
13.1625
31
0
39
0
210
0
220
0
230
1
0
LINE
5
BD
100
AcDbEntity
8
1
62
256
6
ByLayer
370
18
48
1
60
0
100
AcDbLine
10
38.444005
20
12.903884
30
0
11
38.565926
21
12.212434
31
0
39
0
210
0
220
0
230
1
0
LINE
5
BE
100
AcDbEntity
8
1
62
256
6
ByLayer
370
18
48
1
60
0
100
AcDbLine
10
38.585659
20
12.168165
30
0
11
38.65749
21
12.076388
31
0
39
0
210
0
220
0
230
1
0
LINE
5
BF
100
AcDbEntity
8
1
62
256
6
ByLayer
370
18
48
1
60
0
100
AcDbLine
10
39.045829
20
11.5425
30
0
11
39.045829
21
11.5825
31
0
39
0
210
0
220
0
230
1
0
LINE
5
C0
100
AcDbEntity
8
1
62
256
6
ByLayer
370
18
48
1
60
0
100
AcDbLine
10
38.585659
20
10.956835
30
0
11
38.65749
21
11.048612
31
0
39
0
210
0
220
0
230
1
0
LINE
5
C1
100
AcDbEntity
8
1
62
256
6
ByLayer
370
18
48
1
60
0
100
AcDbLine
10
38.444005
20
10.221116
30
0
11
38.565926
21
10.912566
31
0
39
0
210
0
220
0
230
1
0
LINE
5
C2
100
AcDbEntity
8
1
62
256
6
ByLayer
370
18
48
1
60
0
100
AcDbLine
10
39.737968
20
9.9625
30
0
11
39.737968
21
13.1625
31
0
39
0
210
0
220
0
230
1
0
LINE
5
C3
100
AcDbEntity
8
1
62
256
6
ByLayer
370
18
48
1
60
0
100
AcDbLine
10
37.639805
20
9.9625
30
0
11
38.442486
21
9.9625
31
0
39
0
210
0
220
0
230
1
0
LINE
5
C4
100
AcDbEntity
8
1
62
256
6
ByLayer
370
18
48
1
60
0
100
AcDbLine
10
38.442486
20
9.9625
30
0
11
38.442486
21
10.203751
31
0
39
0
210
0
220
0
230
1
0
LINE
5
C5
100
AcDbEntity
8
1
62
256
6
ByLayer
370
18
48
1
60
0
100
AcDbLine
10
38.442486
20
13.1625
30
0
11
38.442486
21
12.921249
31
0
39
0
210
0
220
0
230
1
0
LINE
5
C6
100
AcDbEntity
8
1
62
256
6
ByLayer
370
18
48
1
60
0
100
AcDbLine
10
37.638898
20
13.1625
30
0
11
38.442486
21
13.1625
31
0
39
0
210
0
220
0
230
1
0
LINE
5
C7
100
AcDbEntity
8
1
62
256
6
ByLayer
370
13
48
1
60
0
100
AcDbLine
10
37.680747
20
12.921249
30
0
11
38.442486
21
12.921249
31
0
39
0
210
0
220
0
230
1
0
LINE
5
C8
100
AcDbEntity
8
1
62
256
6
ByLayer
370
13
48
1
60
0
100
AcDbLine
10
37.68384
20
12.903884
30
0
11
38.444005
21
12.903884
31
0
39
0
210
0
220
0
230
1
0
LINE
5
C9
100
AcDbEntity
8
1
62
256
6
ByLayer
370
13
48
1
60
0
100
AcDbLine
10
37.683769
20
10.203751
30
0
11
38.442486
21
10.203751
31
0
39
0
210
0
220
0
230
1
0
LINE
5
CA
100
AcDbEntity
8
1
62
256
6
ByLayer
370
13
48
1
60
0
100
AcDbLine
10
37.687014
20
10.221116
30
0
11
38.444005
21
10.221116
31
0
39
0
210
0
220
0
230
1
0
MTEXT
5
113
100
AcDbEntity
8
SK6
62
256
6
ByLayer
370
18
48
1
60
0
100
AcDbMText
10
-61.206532
20
-53.674992
30
0
210
0
220
0
230
1
1
\W0.7711;C2R-RS25-RH25DB
40
3.5
41
0
44
1.084337
50
0
71
7
72
5
7
iso_b_vert
0
DIMENSION
5
118
100
AcDbEntity
8
2
62
256
6
ByLayer
370
18
48
1
60
0
100
AcDbDimension
2
_U0
10
73.857968
20
-12.4375
30
0
11
73.857968
21
0.5625
31
0
70
32
71
1
72
1
41
1
210
0
220
0
230
1
3
Standard
100
AcDbAlignedDimension
13
46.107968
23
13.5625
33
0
14
-103.892032
24
-12.4375
34
0
50
90
100
AcDbRotatedDimension
1001
ACAD
1000
DSTYLE
1002
{
1070
   371
1070
    13
1070
   372
1070
    13
1070
   170
1070
     0
1070
   144
1040
1.0
1070
   277
1070
     2
1070
   284
1070
     8
1070
   278
1070
    46
1070
   146
1040
1.0
1070
   345
1005
16
1070
   347
1005
16
1070
   346
1005
16
1070
   344
1005
0
1070
   343
1005
0
1070
   172
1070
     1
1070
    76
1070
     0
1070
    75
1070
     0
1070
   282
1070
     0
1070
   281
1070
     0
1070
    71
1070
     0
1070
    74
1070
     0
1070
   279
1070
     0
1070
   173
1070
     1
1070
   340
1005
114
1070
   271
1070
     2
1070
   272
1070
     2
1070
    77
1070
     1
1070
    73
1070
     0
1070
   171
1070
     3
1070
   274
1070
     4
1070
   177
1070
     2
1070
   176
1070
     2
1070
   178
1070
     2
1070
    78
1070
     8
1070
    48
1040
-0.1
1070
    41
1040
3.5
1070
   147
1040
1.75
1070
    42
1040
1.5875
1070
    44
1040
2.0
1070
   140
1040
3.5
1002
}
1001
ACAD_DSTYLE_DIM_LINETYPE
1070
   380
1005
16
1001
ACAD_DSTYLE_DIM_EXT1_LINETYPE
1070
   381
1005
16
1001
ACAD_DSTYLE_DIM_EXT2_LINETYPE
1070
   382
1005
16
0
DIMENSION
5
132
100
AcDbEntity
8
2
62
256
6
ByLayer
370
18
48
1
60
0
100
AcDbDimension
2
_U1
10
66.207968
20
13.5625
30
0
11
66.207968
21
11.5625
31
0
70
32
71
1
72
1
41
1
210
0
220
0
230
1
3
Standard
100
AcDbAlignedDimension
13
46.107968
23
9.5625
33
0
14
46.107968
24
13.5625
34
0
50
90
100
AcDbRotatedDimension
1001
ACAD
1000
DSTYLE
1002
{
1070
   371
1070
    13
1070
   372
1070
    13
1070
   170
1070
     0
1070
   144
1040
1.0
1070
   277
1070
     2
1070
   284
1070
     8
1070
   278
1070
    46
1070
   146
1040
1.0
1070
   345
1005
16
1070
   347
1005
16
1070
   346
1005
16
1070
   344
1005
0
1070
   343
1005
0
1070
   172
1070
     1
1070
    76
1070
     0
1070
    75
1070
     0
1070
   282
1070
     0
1070
   281
1070
     0
1070
    71
1070
     0
1070
    74
1070
     0
1070
   279
1070
     0
1070
   173
1070
     1
1070
   340
1005
114
1070
   271
1070
     2
1070
   272
1070
     2
1070
    77
1070
     1
1070
    73
1070
     0
1070
   171
1070
     3
1070
   274
1070
     4
1070
   177
1070
     2
1070
   176
1070
     2
1070
   178
1070
     2
1070
    78
1070
     8
1070
    48
1040
-0.1
1070
    41
1040
3.5
1070
   147
1040
1.75
1070
    42
1040
1.5875
1070
    44
1040
2.0
1070
   140
1040
3.5
1002
}
1001
ACAD_DSTYLE_DIM_LINETYPE
1070
   380
1005
16
1001
ACAD_DSTYLE_DIM_EXT1_LINETYPE
1070
   381
1005
16
1001
ACAD_DSTYLE_DIM_EXT2_LINETYPE
1070
   382
1005
16
0
DIMENSION
5
14B
100
AcDbEntity
8
SK2
62
256
6
ByLayer
370
18
48
1
60
0
100
AcDbDimension
2
_U2
10
-115.492032
20
12.5625
30
0
11
-115.492032
21
0.0625
31
0
70
32
71
1
72
1
41
1
210
0
220
0
230
1
3
Standard
100
AcDbAlignedDimension
13
-103.892032
23
-12.4375
33
0
14
-103.892032
24
12.5625
34
0
50
90
100
AcDbRotatedDimension
1001
ACAD
1000
DSTYLE
1002
{
1070
   371
1070
    13
1070
   372
1070
    13
1070
   170
1070
     0
1070
   144
1040
1.0
1070
   277
1070
     2
1070
   284
1070
     8
1070
   278
1070
    46
1070
   146
1040
1.0
1070
   345
1005
16
1070
   347
1005
16
1070
   346
1005
16
1070
   344
1005
0
1070
   343
1005
0
1070
   172
1070
     1
1070
    76
1070
     0
1070
    75
1070
     0
1070
   282
1070
     0
1070
   281
1070
     0
1070
    71
1070
     0
1070
    74
1070
     0
1070
   279
1070
     0
1070
   173
1070
     1
1070
   340
1005
114
1070
   271
1070
     2
1070
   272
1070
     2
1070
    77
1070
     1
1070
    73
1070
     0
1070
   171
1070
     3
1070
   274
1070
     4
1070
   177
1070
     2
1070
   176
1070
     2
1070
   178
1070
     2
1070
    78
1070
     8
1070
    48
1040
-0.1
1070
    41
1040
3.5
1070
   147
1040
1.75
1070
    42
1040
1.5875
1070
    44
1040
2.0
1070
   140
1040
3.5
1002
}
1001
ACAD_DSTYLE_DIM_LINETYPE
1070
   380
1005
16
1001
ACAD_DSTYLE_DIM_EXT1_LINETYPE
1070
   381
1005
16
1001
ACAD_DSTYLE_DIM_EXT2_LINETYPE
1070
   382
1005
16
0
DIMENSION
5
164
100
AcDbEntity
8
2
62
256
6
ByLayer
370
18
48
1
60
0
100
AcDbDimension
2
_U3
10
46.107968
20
-24.1875
30
0
11
33.607968
21
-24.1875
31
0
70
32
71
1
72
1
41
1
210
0
220
0
230
1
3
Standard
100
AcDbAlignedDimension
13
21.107968
23
9.8875
33
0
14
46.107968
24
13.5625
34
0
50
0
100
AcDbRotatedDimension
1001
ACAD
1000
DSTYLE
1002
{
1070
   371
1070
    13
1070
   372
1070
    13
1070
   170
1070
     0
1070
   144
1040
1.0
1070
   277
1070
     2
1070
   284
1070
     8
1070
   278
1070
    46
1070
   146
1040
1.0
1070
   345
1005
16
1070
   347
1005
16
1070
   346
1005
16
1070
   344
1005
0
1070
   343
1005
0
1070
   172
1070
     1
1070
    76
1070
     0
1070
    75
1070
     0
1070
   282
1070
     0
1070
   281
1070
     0
1070
    71
1070
     0
1070
    74
1070
     0
1070
   279
1070
     0
1070
   173
1070
     1
1070
   340
1005
114
1070
   271
1070
     1
1070
   272
1070
     2
1070
    77
1070
     1
1070
    73
1070
     1
1070
   171
1070
     3
1070
   274
1070
     4
1070
   177
1070
     2
1070
   176
1070
     2
1070
   178
1070
     2
1070
    78
1070
     8
1070
    48
1040
-0.1
1070
    41
1040
3.5
1070
   147
1040
1.75
1070
    42
1040
1.5875
1070
    44
1040
2.0
1070
   140
1040
3.5
1002
}
1001
ACAD_DSTYLE_DIM_LINETYPE
1070
   380
1005
16
1001
ACAD_DSTYLE_DIM_EXT1_LINETYPE
1070
   381
1005
16
1001
ACAD_DSTYLE_DIM_EXT2_LINETYPE
1070
   382
1005
16
0
DIMENSION
5
17C
100
AcDbEntity
8
SK2
62
256
6
ByLayer
370
18
48
1
60
0
100
AcDbDimension
2
_U4
10
46.107968
20
-30.1875
30
0
11
-28.892032
21
-30.1875
31
0
70
32
71
1
72
1
41
1
210
0
220
0
230
1
3
Standard
100
AcDbAlignedDimension
13
-103.892032
23
-12.4375
33
0
14
46.107968
24
13.5625
34
0
50
0
100
AcDbRotatedDimension
1001
ACAD
1000
DSTYLE
1002
{
1070
   371
1070
    13
1070
   372
1070
    13
1070
   170
1070
     0
1070
   144
1040
1.0
1070
   277
1070
     2
1070
   284
1070
     8
1070
   278
1070
    46
1070
   146
1040
1.0
1070
   345
1005
16
1070
   347
1005
16
1070
   346
1005
16
1070
   344
1005
0
1070
   343
1005
0
1070
   172
1070
     1
1070
    76
1070
     0
1070
    75
1070
     0
1070
   282
1070
     0
1070
   281
1070
     0
1070
    71
1070
     0
1070
    74
1070
     0
1070
   279
1070
     0
1070
   173
1070
     1
1070
   340
1005
114
1070
   271
1070
     1
1070
   272
1070
     2
1070
    77
1070
     1
1070
    73
1070
     1
1070
   171
1070
     3
1070
   274
1070
     4
1070
   177
1070
     2
1070
   176
1070
     2
1070
   178
1070
     2
1070
    78
1070
     8
1070
    48
1040
-0.1
1070
    41
1040
3.5
1070
   147
1040
1.75
1070
    42
1040
1.5875
1070
    44
1040
2.0
1070
   140
1040
3.5
1002
}
1001
ACAD_DSTYLE_DIM_LINETYPE
1070
   380
1005
16
1001
ACAD_DSTYLE_DIM_EXT1_LINETYPE
1070
   381
1005
16
1001
ACAD_DSTYLE_DIM_EXT2_LINETYPE
1070
   382
1005
16
0
ENDSEC
0
SECTION
2
OBJECTS
0
DICTIONARY
5
203
330
0
100
AcDbDictionary
280
0
281
1
3
ACAD_GROUP
350
204
3
ACAD_MLINESTYLE
350
205
0
DICTIONARY
5
204
330
0
100
AcDbDictionary
280
0
281
1
0
DICTIONARY
5
205
330
0
100
AcDbDictionary
280
0
281
1
3
Standard
350
18
0
MLINESTYLE
5
18
330
205
100
AcDbMlineStyle
2
Standard
70
0
3

62
256
51
90
52
90
71
2
49
-0.5
62
256
6
ByLayer
49
0.5
62
256
6
ByLayer
0
RASTERVARIABLES
5
1f2
330

100
AcDbRasterVariables
90
0
70
1
71
1
72
1
0
ENDSEC
0
EOF
