0
SECTION
2
HEADER
9
$ACADVER
1
AC1015
9
$DWGCODEPAGE
3
ANSI_1252
9
$HANDSEED
5
206
9
$ANGBASE
50
0
9
$ANGDIR
70
0
9
$ATTMODE
70
1
9
$AUNITS
70
0
9
$AUPREC
70
0
9
$CECOLOR
62
256
9
$CELTSCALE
40
1
9
$CELTYPE
6
ByLayer
9
$CELWEIGHT
370
18
9
$CLAYER
8
0
9
$CMLJUST
70
0
9
$CMLSCALE
40
1
9
$CMLSTYLE
2
Standard
9
$DIMSTYLE
2
Standard
9
$TEXTSIZE
40
0.2
9
$TEXTSTYLE
7
Standard
9
$LUNITS
70
2
9
$LUPREC
70
4
9
$EXTNAMES
290
1
9
$INSUNITS
70
4
9
$LTSCALE
40
1
9
$LWDISPLAY
290
1
9
$PDMODE
70
0
9
$PDSIZE
40
0
9
$PLINEGEN
70
0
0
ENDSEC
0
SECTION
2
CLASSES
0
CLASS
1
RASTERVARIABLES
2
AcDbRasterVariables
3
ISM
90
0
280
0
281
0
0
ENDSEC
0
SECTION
2
TABLES
0
TABLE
2
VPORT
5
1fc
100
AcDbSymbolTable
0
VPORT
5
1
100
AcDbSymbolTableRecord
100
AcDbViewportTableRecord
2
*Active
70
0
10
0
20
0
11
1
21
1
12
-1
22
1
13
0
23
0
14
0.5
24
0.5
15
10
25
10
16
0
26
0
36
1
17
0
27
0
37
0
0
ENDTAB
0
TABLE
2
LTYPE
5
1fd
100
AcDbSymbolTable
0
LTYPE
5
14
100
AcDbSymbolTableRecord
100
AcDbLinetypeTableRecord
70
0
2
ByBlock
3

72
65
73
0
40
0
0
LTYPE
5
15
100
AcDbSymbolTableRecord
100
AcDbLinetypeTableRecord
70
0
2
ByLayer
3

72
65
73
0
40
0
0
LTYPE
5
16
100
AcDbSymbolTableRecord
100
AcDbLinetypeTableRecord
70
0
2
Continuous
3
Solid line
72
65
73
0
40
0
0
LTYPE
5
6E
100
AcDbSymbolTableRecord
100
AcDbLinetypeTableRecord
70
0
2
CENTER
3
____ _ ____ _ ____ _ ____
72
65
73
4
40
47.5
49
22
74
0
49
-8.5
74
0
49
8.5
74
0
49
-8.5
74
0
0
LTYPE
5
6F
100
AcDbSymbolTableRecord
100
AcDbLinetypeTableRecord
70
0
2
DASHED
3
__ __ __ __ __ __ __ __ __
72
65
73
2
40
25.72
49
12.86
74
0
49
-12.86
74
0
0
ENDTAB
0
TABLE
2
LAYER
5
1fe
100
AcDbSymbolTable
0
LAYER
5
10
100
AcDbSymbolTableRecord
100
AcDbLayerTableRecord
2
0
70
0
62
7
6
Continuous
290
1
370
-3
390
0
0
LAYER
5
71
100
AcDbSymbolTableRecord
100
AcDbLayerTableRecord
2
81
70
0
62
-3
6
Continuous
290
1
370
-3
390
0
0
LAYER
5
73
100
AcDbSymbolTableRecord
100
AcDbLayerTableRecord
2
80
70
0
62
-6
6
Continuous
290
1
370
-3
390
0
0
LAYER
5
75
100
AcDbSymbolTableRecord
100
AcDbLayerTableRecord
2
1
70
0
62
4
6
Continuous
290
1
370
-3
390
0
0
LAYER
5
10E
100
AcDbSymbolTableRecord
100
AcDbLayerTableRecord
2
Defpoints
70
0
62
7
6
Continuous
290
0
370
-3
390
0
0
LAYER
5
11C
100
AcDbSymbolTableRecord
100
AcDbLayerTableRecord
2
2
70
0
62
7
6
Continuous
290
1
370
-3
390
0
0
LAYER
5
1e9
100
AcDbSymbolTableRecord
100
AcDbLayerTableRecord
2
SK1
70
0
62
4
6
Continuous
290
1
370
-3
390
0
0
LAYER
5
1ea
100
AcDbSymbolTableRecord
100
AcDbLayerTableRecord
2
SK6
70
0
62
5
6
Continuous
290
1
370
-3
390
0
0
LAYER
5
1eb
100
AcDbSymbolTableRecord
100
AcDbLayerTableRecord
2
SK2
70
0
62
7
6
Continuous
290
1
370
-3
390
0
0
ENDTAB
0
TABLE
2
STYLE
5
1ff
100
AcDbSymbolTable
0
STYLE
5
11
100
AcDbSymbolTableRecord
100
AcDbTextStyleTableRecord
2
Standard
3
txt
70
0
71
0
40
0
41
1
42
0
50
0
0
STYLE
5
107
100
AcDbSymbolTableRecord
100
AcDbTextStyleTableRecord
2
iso_b_vert
3
simplex.shx
70
0
71
0
40
0
41
1
42
0
50
0
0
STYLE
5
108
100
AcDbSymbolTableRecord
100
AcDbTextStyleTableRecord
2
DWGDirectTextStyle
3
simplex
70
0
71
0
40
0
41
1
42
0
50
0
0
ENDTAB
0
TABLE
2
DIMSTYLE
5
200
100
AcDbSymbolTable
100
AcDbDimStyleTable
0
DIMSTYLE
105
27
100
AcDbSymbolTableRecord
100
AcDbDimStyleTableRecord
2
Standard
70
0
3
<>
41
0.18
42
0.0625
44
0.18
140
0.18
147
0.09
73
0
74
0
77
1
271
2
275
0
278
52
280
0
340
11
0
ENDTAB
0
TABLE
2
VIEW
5
201
100
AcDbSymbolTable
0
ENDTAB
0
TABLE
2
UCS
5
202
100
AcDbSymbolTable
0
ENDTAB
0
TABLE
2
APPID
5
203
100
AcDbSymbolTable
0
APPID
5
12
100
AcDbSymbolTableRecord
100
AcDbRegAppTableRecord
2
ACAD
70
0
0
APPID
5
10A
100
AcDbSymbolTableRecord
100
AcDbRegAppTableRecord
2
ACAD_DSTYLE_DIMBREAK
70
0
0
APPID
5
1A8
100
AcDbSymbolTableRecord
100
AcDbRegAppTableRecord
2
ACAD_DSTYLE_DIM_LINETYPE
70
0
0
APPID
5
1A9
100
AcDbSymbolTableRecord
100
AcDbRegAppTableRecord
2
ACAD_DSTYLE_DIM_EXT1_LINETYPE
70
0
0
APPID
5
1AA
100
AcDbSymbolTableRecord
100
AcDbRegAppTableRecord
2
ACAD_DSTYLE_DIM_EXT2_LINETYPE
70
0
0
APPID
5
1E5
100
AcDbSymbolTableRecord
100
AcDbRegAppTableRecord
2
ACAD_MLEADERVER
70
0
0
ENDTAB
0
TABLE
2
BLOCK_RECORD
5
204
100
AcDbSymbolTable
0
BLOCK_RECORD
5
1F
100
AcDbSymbolTableRecord
100
AcDbBlockTableRecord
2
*Model_Space
340
0
70
0
0
BLOCK_RECORD
5
1B
100
AcDbSymbolTableRecord
100
AcDbBlockTableRecord
2
*Paper_Space
340
0
70
0
0
BLOCK_RECORD
5
23
100
AcDbSymbolTableRecord
100
AcDbBlockTableRecord
2
*Paper_Space0
340
0
70
0
0
BLOCK_RECORD
5
10F
100
AcDbSymbolTableRecord
100
AcDbBlockTableRecord
2
*D1
340
0
70
0
0
BLOCK_RECORD
5
11D
100
AcDbSymbolTableRecord
100
AcDbBlockTableRecord
2
_U0
340
0
70
0
0
BLOCK_RECORD
5
129
100
AcDbSymbolTableRecord
100
AcDbBlockTableRecord
2
*D3
340
0
70
0
0
BLOCK_RECORD
5
136
100
AcDbSymbolTableRecord
100
AcDbBlockTableRecord
2
_U1
340
0
70
0
0
BLOCK_RECORD
5
142
100
AcDbSymbolTableRecord
100
AcDbBlockTableRecord
2
*D5
340
0
70
0
0
BLOCK_RECORD
5
150
100
AcDbSymbolTableRecord
100
AcDbBlockTableRecord
2
_U2
340
0
70
0
0
BLOCK_RECORD
5
15C
100
AcDbSymbolTableRecord
100
AcDbBlockTableRecord
2
*D7
340
0
70
0
0
BLOCK_RECORD
5
169
100
AcDbSymbolTableRecord
100
AcDbBlockTableRecord
2
_U3
340
0
70
0
0
BLOCK_RECORD
5
175
100
AcDbSymbolTableRecord
100
AcDbBlockTableRecord
2
*D9
340
0
70
0
0
BLOCK_RECORD
5
181
100
AcDbSymbolTableRecord
100
AcDbBlockTableRecord
2
_U4
340
0
70
0
0
ENDTAB
0
ENDSEC
0
SECTION
2
BLOCKS
0
BLOCK
5
20
100
AcDbEntity
8
0
100
AcDbBlockBegin
2
*Model_Space
70
0
10
0
20
0
30
0
3
*Model_Space
0
ENDBLK
5
21
100
AcDbEntity
8
0
100
AcDbBlockEnd
0
BLOCK
5
1C
100
AcDbEntity
8
0
100
AcDbBlockBegin
2
*Paper_Space
70
0
10
0
20
0
30
0
3
*Paper_Space
0
ENDBLK
5
1D
100
AcDbEntity
8
0
100
AcDbBlockEnd
0
BLOCK
5
24
100
AcDbEntity
8
0
100
AcDbBlockBegin
2
*Paper_Space0
70
0
10
0
20
0
30
0
3
*Paper_Space0
0
ENDBLK
5
25
100
AcDbEntity
8
0
100
AcDbBlockEnd
0
BLOCK
5
110
100
AcDbEntity
8
0
100
AcDbBlockBegin
2
*D1
70
1
10
0
20
0
30
0
3
*D1
0
LINE
5
112
100
AcDbEntity
8
0
62
256
6
ByLayer
370
-2
48
1
60
0
100
AcDbLine
10
33.774032
20
9.0625
30
0
11
61.936532
21
9.0625
31
0
39
0
210
0
220
0
230
1
0
LINE
5
113
100
AcDbEntity
8
0
62
256
6
ByLayer
370
-2
48
1
60
0
100
AcDbLine
10
-91.225968
20
-7.9375
30
0
11
61.936532
21
-7.9375
31
0
39
0
210
0
220
0
230
1
0
LINE
5
114
100
AcDbEntity
8
0
62
256
6
ByLayer
370
-2
48
1
60
0
100
AcDbLine
10
59.936532
20
12.5625
30
0
11
59.936532
21
16.0625
31
0
39
0
210
0
220
0
230
1
0
LINE
5
115
100
AcDbEntity
8
0
62
256
6
ByLayer
370
-2
48
1
60
0
100
AcDbLine
10
59.936532
20
-11.4375
30
0
11
59.936532
21
-14.9375
31
0
39
0
210
0
220
0
230
1
0
SOLID
5
116
100
AcDbEntity
8
0
62
256
6
ByLayer
370
-1
48
1
60
0
100
AcDbTrace
10
59.353198
20
12.5625
30
0
11
60.519865
21
12.5625
31
0
12
59.936532
22
9.0625
32
0
13
59.936532
23
9.0625
33
0
39
0
210
0
220
0
230
1
0
SOLID
5
117
100
AcDbEntity
8
0
62
256
6
ByLayer
370
-1
48
1
60
0
100
AcDbTrace
10
60.519865
20
-11.4375
30
0
11
59.353198
21
-11.4375
31
0
12
59.936532
22
-7.9375
32
0
13
59.936532
23
-7.9375
33
0
39
0
210
0
220
0
230
1
0
MTEXT
5
118
100
AcDbEntity
8
0
62
256
6
ByLayer
370
18
48
1
60
0
100
AcDbMText
10
52.936532
20
0.5625
30
0
210
0
220
0
230
1
1
\A1;17
40
3.5
41
0
44
1
50
90
71
5
72
5
7
iso_b_vert
0
POINT
5
119
100
AcDbEntity
8
Defpoints
62
0
6
ByLayer
370
-1
48
1
60
0
100
AcDbPoint
10
32.186532
20
9.0625
30
0
39
0
210
0
220
0
230
1
50
360
0
POINT
5
11A
100
AcDbEntity
8
Defpoints
62
0
6
ByLayer
370
-1
48
1
60
0
100
AcDbPoint
10
-92.813468
20
-7.9375
30
0
39
0
210
0
220
0
230
1
50
360
0
POINT
5
11B
100
AcDbEntity
8
Defpoints
62
0
6
ByLayer
370
-1
48
1
60
0
100
AcDbPoint
10
59.936532
20
-7.9375
30
0
39
0
210
0
220
0
230
1
50
360
0
ENDBLK
5
111
100
AcDbEntity
8
0
100
AcDbBlockEnd
0
BLOCK
5
124
100
AcDbEntity
8
0
100
AcDbBlockBegin
2
_U0
70
0
10
0
20
0
30
0
3
_U0
0
MTEXT
5
11E
100
AcDbEntity
8
2
62
256
6
ByLayer
370
18
48
1
60
0
100
AcDbMText
10
59.246898
20
-0.933033
30
0
210
0
220
0
230
1
1
\W0.5321;17
40
3.5
41
0
44
1.084337
50
90
71
7
72
5
7
iso_b_vert
0
LINE
5
11F
100
AcDbEntity
8
2
62
256
6
ByLayer
370
13
48
1
60
0
100
AcDbLine
10
33.774032
20
9.0625
30
0
11
61.936532
21
9.0625
31
0
39
0
210
0
220
0
230
1
0
LINE
5
120
100
AcDbEntity
8
2
62
256
6
ByLayer
370
13
48
1
60
0
100
AcDbLine
10
-91.225968
20
-7.9375
30
0
11
61.936532
21
-7.9375
31
0
39
0
210
0
220
0
230
1
0
LINE
5
121
100
AcDbEntity
8
2
62
256
6
ByLayer
370
13
48
1
60
0
100
AcDbLine
10
59.936532
20
9.0625
30
0
11
59.936532
21
-7.9375
31
0
39
0
210
0
220
0
230
1
0
SOLID
5
122
100
AcDbEntity
8
2
62
256
6
ByLayer
370
18
48
1
60
0
100
AcDbTrace
10
59.936532
20
9.0625
30
0
11
60.397315
21
5.562502
31
0
12
59.475748
22
5.562498
32
0
13
59.475748
23
5.562498
33
0
39
0
210
0
220
0
230
1
0
SOLID
5
123
100
AcDbEntity
8
2
62
256
6
ByLayer
370
18
48
1
60
0
100
AcDbTrace
10
59.936532
20
-7.9375
30
0
11
59.475748
21
-4.437502
31
0
12
60.397315
22
-4.437498
32
0
13
60.397315
23
-4.437498
33
0
39
0
210
0
220
0
230
1
0
ENDBLK
5
125
100
AcDbEntity
8
0
100
AcDbBlockEnd
0
BLOCK
5
12A
100
AcDbEntity
8
0
100
AcDbBlockBegin
2
*D3
70
1
10
0
20
0
30
0
3
*D3
0
LINE
5
12C
100
AcDbEntity
8
0
62
256
6
ByLayer
370
-2
48
1
60
0
100
AcDbLine
10
33.774032
20
7.5625
30
0
11
54.286532
21
7.5625
31
0
39
0
210
0
220
0
230
1
0
LINE
5
12D
100
AcDbEntity
8
0
62
256
6
ByLayer
370
-2
48
1
60
0
100
AcDbLine
10
33.774032
20
9.0625
30
0
11
54.286532
21
9.0625
31
0
39
0
210
0
220
0
230
1
0
LINE
5
12E
100
AcDbEntity
8
0
62
256
6
ByLayer
370
-2
48
1
60
0
100
AcDbLine
10
52.286532
20
4.0625
30
0
11
52.286532
21
0.5625
31
0
39
0
210
0
220
0
230
1
0
LINE
5
12F
100
AcDbEntity
8
0
62
256
6
ByLayer
370
-2
48
1
60
0
100
AcDbLine
10
52.286532
20
12.5625
30
0
11
52.286532
21
16.0625
31
0
39
0
210
0
220
0
230
1
0
SOLID
5
130
100
AcDbEntity
8
0
62
256
6
ByLayer
370
-1
48
1
60
0
100
AcDbTrace
10
52.869865
20
4.0625
30
0
11
51.703198
21
4.0625
31
0
12
52.286532
22
7.5625
32
0
13
52.286532
23
7.5625
33
0
39
0
210
0
220
0
230
1
0
SOLID
5
131
100
AcDbEntity
8
0
62
256
6
ByLayer
370
-1
48
1
60
0
100
AcDbTrace
10
51.703198
20
12.5625
30
0
11
52.869865
21
12.5625
31
0
12
52.286532
22
9.0625
32
0
13
52.286532
23
9.0625
33
0
39
0
210
0
220
0
230
1
0
MTEXT
5
132
100
AcDbEntity
8
0
62
256
6
ByLayer
370
18
48
1
60
0
100
AcDbMText
10
45.286532
20
8.3125
30
0
210
0
220
0
230
1
1
\A1;1.5
40
3.5
41
0
44
1
50
90
71
5
72
5
7
iso_b_vert
0
POINT
5
133
100
AcDbEntity
8
Defpoints
62
0
6
ByLayer
370
-1
48
1
60
0
100
AcDbPoint
10
32.186532
20
7.5625
30
0
39
0
210
0
220
0
230
1
50
360
0
POINT
5
134
100
AcDbEntity
8
Defpoints
62
0
6
ByLayer
370
-1
48
1
60
0
100
AcDbPoint
10
32.186532
20
9.0625
30
0
39
0
210
0
220
0
230
1
50
360
0
POINT
5
135
100
AcDbEntity
8
Defpoints
62
0
6
ByLayer
370
-1
48
1
60
0
100
AcDbPoint
10
52.286532
20
9.0625
30
0
39
0
210
0
220
0
230
1
50
360
0
ENDBLK
5
12B
100
AcDbEntity
8
0
100
AcDbBlockEnd
0
BLOCK
5
13D
100
AcDbEntity
8
0
100
AcDbBlockBegin
2
_U1
70
0
10
0
20
0
30
0
3
_U1
0
MTEXT
5
137
100
AcDbEntity
8
2
62
256
6
ByLayer
370
18
48
1
60
0
100
AcDbMText
10
51.596898
20
6.107967
30
0
210
0
220
0
230
1
1
\W0.6004;1.5
40
3.5
41
0
44
1.084337
50
90
71
7
72
5
7
iso_b_vert
0
LINE
5
138
100
AcDbEntity
8
2
62
256
6
ByLayer
370
13
48
1
60
0
100
AcDbLine
10
33.774032
20
7.5625
30
0
11
54.286532
21
7.5625
31
0
39
0
210
0
220
0
230
1
0
LINE
5
139
100
AcDbEntity
8
2
62
256
6
ByLayer
370
13
48
1
60
0
100
AcDbLine
10
33.774032
20
9.0625
30
0
11
54.286532
21
9.0625
31
0
39
0
210
0
220
0
230
1
0
LINE
5
13A
100
AcDbEntity
8
2
62
256
6
ByLayer
370
13
48
1
60
0
100
AcDbLine
10
52.286532
20
-1.1875
30
0
11
52.286532
21
17.8125
31
0
39
0
210
0
220
0
230
1
0
SOLID
5
13B
100
AcDbEntity
8
2
62
256
6
ByLayer
370
18
48
1
60
0
100
AcDbTrace
10
52.286532
20
7.5625
30
0
11
52.747315
21
4.062502
31
0
12
51.825748
22
4.062498
32
0
13
51.825748
23
4.062498
33
0
39
0
210
0
220
0
230
1
0
SOLID
5
13C
100
AcDbEntity
8
2
62
256
6
ByLayer
370
18
48
1
60
0
100
AcDbTrace
10
52.286532
20
9.0625
30
0
11
51.825748
21
12.562498
31
0
12
52.747315
22
12.562502
32
0
13
52.747315
23
12.562502
33
0
39
0
210
0
220
0
230
1
0
ENDBLK
5
13E
100
AcDbEntity
8
0
100
AcDbBlockEnd
0
BLOCK
5
143
100
AcDbEntity
8
0
100
AcDbBlockBegin
2
*D5
70
1
10
0
20
0
30
0
3
*D5
0
LINE
5
145
100
AcDbEntity
8
0
62
256
6
ByLayer
370
-2
48
1
60
0
100
AcDbLine
10
-94.400968
20
-7.9375
30
0
11
-106.413468
21
-7.9375
31
0
39
0
210
0
220
0
230
1
0
LINE
5
146
100
AcDbEntity
8
0
62
256
6
ByLayer
370
-2
48
1
60
0
100
AcDbLine
10
-94.400968
20
8.0625
30
0
11
-106.413468
21
8.0625
31
0
39
0
210
0
220
0
230
1
0
LINE
5
147
100
AcDbEntity
8
0
62
256
6
ByLayer
370
-2
48
1
60
0
100
AcDbLine
10
-104.413468
20
-11.4375
30
0
11
-104.413468
21
-14.9375
31
0
39
0
210
0
220
0
230
1
0
LINE
5
148
100
AcDbEntity
8
0
62
256
6
ByLayer
370
-2
48
1
60
0
100
AcDbLine
10
-104.413468
20
11.5625
30
0
11
-104.413468
21
15.0625
31
0
39
0
210
0
220
0
230
1
0
SOLID
5
149
100
AcDbEntity
8
0
62
256
6
ByLayer
370
-1
48
1
60
0
100
AcDbTrace
10
-103.830135
20
-11.4375
30
0
11
-104.996802
21
-11.4375
31
0
12
-104.413468
22
-7.9375
32
0
13
-104.413468
23
-7.9375
33
0
39
0
210
0
220
0
230
1
0
SOLID
5
14A
100
AcDbEntity
8
0
62
256
6
ByLayer
370
-1
48
1
60
0
100
AcDbTrace
10
-104.996802
20
11.5625
30
0
11
-103.830135
21
11.5625
31
0
12
-104.413468
22
8.0625
32
0
13
-104.413468
23
8.0625
33
0
39
0
210
0
220
0
230
1
0
MTEXT
5
14B
100
AcDbEntity
8
0
62
256
6
ByLayer
370
18
48
1
60
0
100
AcDbMText
10
-111.413468
20
0.0625
30
0
210
0
220
0
230
1
1
\A1;16
40
3.5
41
0
44
1
50
90
71
5
72
5
7
iso_b_vert
0
POINT
5
14C
100
AcDbEntity
8
Defpoints
62
0
6
ByLayer
370
-1
48
1
60
0
100
AcDbPoint
10
-92.813468
20
-7.9375
30
0
39
0
210
0
220
0
230
1
50
360
0
POINT
5
14D
100
AcDbEntity
8
Defpoints
62
0
6
ByLayer
370
-1
48
1
60
0
100
AcDbPoint
10
-92.813468
20
8.0625
30
0
39
0
210
0
220
0
230
1
50
360
0
POINT
5
14E
100
AcDbEntity
8
Defpoints
62
0
6
ByLayer
370
-1
48
1
60
0
100
AcDbPoint
10
-104.413468
20
8.0625
30
0
39
0
210
0
220
0
230
1
50
360
0
ENDBLK
5
144
100
AcDbEntity
8
0
100
AcDbBlockEnd
0
BLOCK
5
157
100
AcDbEntity
8
0
100
AcDbBlockBegin
2
_U2
70
0
10
0
20
0
30
0
3
_U2
0
MTEXT
5
151
100
AcDbEntity
8
SK2
62
256
6
ByLayer
370
18
48
1
60
0
100
AcDbMText
10
-105.103102
20
-1.433033
30
0
210
0
220
0
230
1
1
\W0.5321;16
40
3.5
41
0
44
1.084337
50
90
71
7
72
5
7
iso_b_vert
0
LINE
5
152
100
AcDbEntity
8
SK2
62
256
6
ByLayer
370
13
48
1
60
0
100
AcDbLine
10
-94.400968
20
-7.9375
30
0
11
-106.413468
21
-7.9375
31
0
39
0
210
0
220
0
230
1
0
LINE
5
153
100
AcDbEntity
8
SK2
62
256
6
ByLayer
370
13
48
1
60
0
100
AcDbLine
10
-94.400968
20
8.0625
30
0
11
-106.413468
21
8.0625
31
0
39
0
210
0
220
0
230
1
0
LINE
5
154
100
AcDbEntity
8
SK2
62
256
6
ByLayer
370
13
48
1
60
0
100
AcDbLine
10
-104.413468
20
-7.9375
30
0
11
-104.413468
21
8.0625
31
0
39
0
210
0
220
0
230
1
0
SOLID
5
155
100
AcDbEntity
8
SK2
62
256
6
ByLayer
370
18
48
1
60
0
100
AcDbTrace
10
-104.413468
20
-7.9375
30
0
11
-104.874252
21
-4.437502
31
0
12
-103.952685
22
-4.437498
32
0
13
-103.952685
23
-4.437498
33
0
39
0
210
0
220
0
230
1
0
SOLID
5
156
100
AcDbEntity
8
SK2
62
256
6
ByLayer
370
18
48
1
60
0
100
AcDbTrace
10
-104.413468
20
8.0625
30
0
11
-103.952685
21
4.562502
31
0
12
-104.874252
22
4.562498
32
0
13
-104.874252
23
4.562498
33
0
39
0
210
0
220
0
230
1
0
ENDBLK
5
158
100
AcDbEntity
8
0
100
AcDbBlockEnd
0
BLOCK
5
15D
100
AcDbEntity
8
0
100
AcDbBlockBegin
2
*D7
70
1
10
0
20
0
30
0
3
*D7
0
LINE
5
15F
100
AcDbEntity
8
0
62
256
6
ByLayer
370
-2
48
1
60
0
100
AcDbLine
10
17.186532
20
6.225
30
0
11
17.186532
21
-21.6875
31
0
39
0
210
0
220
0
230
1
0
LINE
5
160
100
AcDbEntity
8
0
62
256
6
ByLayer
370
-2
48
1
60
0
100
AcDbLine
10
32.186532
20
7.475
30
0
11
32.186532
21
-21.6875
31
0
39
0
210
0
220
0
230
1
0
LINE
5
161
100
AcDbEntity
8
0
62
256
6
ByLayer
370
-2
48
1
60
0
100
AcDbLine
10
13.686532
20
-19.6875
30
0
11
10.186532
21
-19.6875
31
0
39
0
210
0
220
0
230
1
0
LINE
5
162
100
AcDbEntity
8
0
62
256
6
ByLayer
370
-2
48
1
60
0
100
AcDbLine
10
35.686532
20
-19.6875
30
0
11
39.186532
21
-19.6875
31
0
39
0
210
0
220
0
230
1
0
SOLID
5
163
100
AcDbEntity
8
0
62
256
6
ByLayer
370
-1
48
1
60
0
100
AcDbTrace
10
13.686532
20
-20.270833
30
0
11
13.686532
21
-19.104167
31
0
12
17.186532
22
-19.6875
32
0
13
17.186532
23
-19.6875
33
0
39
0
210
0
220
0
230
1
0
SOLID
5
164
100
AcDbEntity
8
0
62
256
6
ByLayer
370
-1
48
1
60
0
100
AcDbTrace
10
35.686532
20
-19.104167
30
0
11
35.686532
21
-20.270833
31
0
12
32.186532
22
-19.6875
32
0
13
32.186532
23
-19.6875
33
0
39
0
210
0
220
0
230
1
0
MTEXT
5
165
100
AcDbEntity
8
0
62
256
6
ByLayer
370
18
48
1
60
0
100
AcDbMText
10
24.686532
20
-12.6875
30
0
210
0
220
0
230
1
1
\A1;15
40
3.5
41
0
44
1
50
0
71
5
72
5
7
iso_b_vert
0
POINT
5
166
100
AcDbEntity
8
Defpoints
62
0
6
ByLayer
370
-1
48
1
60
0
100
AcDbPoint
10
17.186532
20
7.8125
30
0
39
0
210
0
220
0
230
1
50
360
0
POINT
5
167
100
AcDbEntity
8
Defpoints
62
0
6
ByLayer
370
-1
48
1
60
0
100
AcDbPoint
10
32.186532
20
9.0625
30
0
39
0
210
0
220
0
230
1
50
360
0
POINT
5
168
100
AcDbEntity
8
Defpoints
62
0
6
ByLayer
370
-1
48
1
60
0
100
AcDbPoint
10
32.186532
20
-19.6875
30
0
39
0
210
0
220
0
230
1
50
360
0
ENDBLK
5
15E
100
AcDbEntity
8
0
100
AcDbBlockEnd
0
BLOCK
5
170
100
AcDbEntity
8
0
100
AcDbBlockBegin
2
_U3
70
0
10
0
20
0
30
0
3
_U3
0
MTEXT
5
16A
100
AcDbEntity
8
2
62
256
6
ByLayer
370
18
48
1
60
0
100
AcDbMText
10
23.218999
20
-18.654866
30
0
210
0
220
0
230
1
1
\W0.5321;15
40
3.5
41
0
44
1.084337
50
0
71
7
72
5
7
iso_b_vert
0
LINE
5
16B
100
AcDbEntity
8
2
62
256
6
ByLayer
370
13
48
1
60
0
100
AcDbLine
10
17.186532
20
6.225
30
0
11
17.186532
21
-21.6875
31
0
39
0
210
0
220
0
230
1
0
LINE
5
16C
100
AcDbEntity
8
2
62
256
6
ByLayer
370
13
48
1
60
0
100
AcDbLine
10
32.186532
20
7.475
30
0
11
32.186532
21
-21.6875
31
0
39
0
210
0
220
0
230
1
0
LINE
5
16D
100
AcDbEntity
8
2
62
256
6
ByLayer
370
13
48
1
60
0
100
AcDbLine
10
17.186532
20
-19.6875
30
0
11
32.186532
21
-19.6875
31
0
39
0
210
0
220
0
230
1
0
SOLID
5
16E
100
AcDbEntity
8
2
62
256
6
ByLayer
370
18
48
1
60
0
100
AcDbTrace
10
17.186532
20
-19.6875
30
0
11
20.68653
21
-19.226716
31
0
12
20.686533
22
-20.148284
32
0
13
20.686533
23
-20.148284
33
0
39
0
210
0
220
0
230
1
0
SOLID
5
16F
100
AcDbEntity
8
2
62
256
6
ByLayer
370
18
48
1
60
0
100
AcDbTrace
10
32.186532
20
-19.6875
30
0
11
28.686533
21
-20.148284
31
0
12
28.68653
22
-19.226716
32
0
13
28.68653
23
-19.226716
33
0
39
0
210
0
220
0
230
1
0
ENDBLK
5
171
100
AcDbEntity
8
0
100
AcDbBlockEnd
0
BLOCK
5
176
100
AcDbEntity
8
0
100
AcDbBlockBegin
2
*D9
70
1
10
0
20
0
30
0
3
*D9
0
LINE
5
178
100
AcDbEntity
8
0
62
256
6
ByLayer
370
-2
48
1
60
0
100
AcDbLine
10
-92.813468
20
-9.525
30
0
11
-92.813468
21
-27.6875
31
0
39
0
210
0
220
0
230
1
0
LINE
5
179
100
AcDbEntity
8
0
62
256
6
ByLayer
370
-2
48
1
60
0
100
AcDbLine
10
32.186532
20
7.475
30
0
11
32.186532
21
-27.6875
31
0
39
0
210
0
220
0
230
1
0
LINE
5
17A
100
AcDbEntity
8
0
62
256
6
ByLayer
370
-2
48
1
60
0
100
AcDbLine
10
-89.313468
20
-25.6875
30
0
11
28.686532
21
-25.6875
31
0
39
0
210
0
220
0
230
1
0
SOLID
5
17B
100
AcDbEntity
8
0
62
256
6
ByLayer
370
-1
48
1
60
0
100
AcDbTrace
10
-89.313468
20
-25.104167
30
0
11
-89.313468
21
-26.270833
31
0
12
-92.813468
22
-25.6875
32
0
13
-92.813468
23
-25.6875
33
0
39
0
210
0
220
0
230
1
0
SOLID
5
17C
100
AcDbEntity
8
0
62
256
6
ByLayer
370
-1
48
1
60
0
100
AcDbTrace
10
28.686532
20
-26.270833
30
0
11
28.686532
21
-25.104167
31
0
12
32.186532
22
-25.6875
32
0
13
32.186532
23
-25.6875
33
0
39
0
210
0
220
0
230
1
0
MTEXT
5
17D
100
AcDbEntity
8
0
62
256
6
ByLayer
370
18
48
1
60
0
100
AcDbMText
10
-30.313468
20
-18.6875
30
0
210
0
220
0
230
1
1
\A1;125
40
3.5
41
0
44
1
50
0
71
5
72
5
7
iso_b_vert
0
POINT
5
17E
100
AcDbEntity
8
Defpoints
62
0
6
ByLayer
370
-1
48
1
60
0
100
AcDbPoint
10
-92.813468
20
-7.9375
30
0
39
0
210
0
220
0
230
1
50
360
0
POINT
5
17F
100
AcDbEntity
8
Defpoints
62
0
6
ByLayer
370
-1
48
1
60
0
100
AcDbPoint
10
32.186532
20
9.0625
30
0
39
0
210
0
220
0
230
1
50
360
0
POINT
5
180
100
AcDbEntity
8
Defpoints
62
0
6
ByLayer
370
-1
48
1
60
0
100
AcDbPoint
10
32.186532
20
-25.6875
30
0
39
0
210
0
220
0
230
1
50
360
0
ENDBLK
5
177
100
AcDbEntity
8
0
100
AcDbBlockEnd
0
BLOCK
5
188
100
AcDbEntity
8
0
100
AcDbBlockBegin
2
_U4
70
0
10
0
20
0
30
0
3
_U4
0
MTEXT
5
182
100
AcDbEntity
8
SK2
62
256
6
ByLayer
370
18
48
1
60
0
100
AcDbMText
10
-33.088734
20
-24.654866
30
0
210
0
220
0
230
1
1
\W0.6217;125
40
3.5
41
0
44
1.084337
50
0
71
7
72
5
7
iso_b_vert
0
LINE
5
183
100
AcDbEntity
8
SK2
62
256
6
ByLayer
370
13
48
1
60
0
100
AcDbLine
10
-92.813468
20
-9.525
30
0
11
-92.813468
21
-27.6875
31
0
39
0
210
0
220
0
230
1
0
LINE
5
184
100
AcDbEntity
8
SK2
62
256
6
ByLayer
370
13
48
1
60
0
100
AcDbLine
10
32.186532
20
7.475
30
0
11
32.186532
21
-27.6875
31
0
39
0
210
0
220
0
230
1
0
LINE
5
185
100
AcDbEntity
8
SK2
62
256
6
ByLayer
370
13
48
1
60
0
100
AcDbLine
10
-92.813468
20
-25.6875
30
0
11
32.186532
21
-25.6875
31
0
39
0
210
0
220
0
230
1
0
SOLID
5
186
100
AcDbEntity
8
SK2
62
256
6
ByLayer
370
18
48
1
60
0
100
AcDbTrace
10
-92.813468
20
-25.6875
30
0
11
-89.31347
21
-25.226716
31
0
12
-89.313467
22
-26.148284
32
0
13
-89.313467
23
-26.148284
33
0
39
0
210
0
220
0
230
1
0
SOLID
5
187
100
AcDbEntity
8
SK2
62
256
6
ByLayer
370
18
48
1
60
0
100
AcDbTrace
10
32.186532
20
-25.6875
30
0
11
28.686533
21
-26.148284
31
0
12
28.68653
22
-25.226716
32
0
13
28.68653
23
-25.226716
33
0
39
0
210
0
220
0
230
1
0
ENDBLK
5
189
100
AcDbEntity
8
0
100
AcDbBlockEnd
0
ENDSEC
0
SECTION
2
ENTITIES
0
ARC
5
C6
100
AcDbEntity
8
1
62
256
6
ByLayer
370
18
48
1
60
0
100
AcDbCircle
39
0
10
17.186532
20
6.2125
30
0
40
1.6
210
0
220
0
230
1
100
AcDbArc
50
90
51
180
0
ARC
5
C8
100
AcDbEntity
8
1
62
256
6
ByLayer
370
18
48
1
60
0
100
AcDbCircle
39
0
10
10.786532
20
3.0125
30
0
40
1.416
210
0
220
0
230
1
100
AcDbArc
50
150.190711
51
209.809289
0
ARC
5
C9
100
AcDbEntity
8
1
62
256
6
ByLayer
370
18
48
1
60
0
100
AcDbCircle
39
0
10
10.786532
20
3.0125
30
0
40
1.416
210
0
220
0
230
1
100
AcDbArc
50
209.809289
51
263.807562
0
ARC
5
CA
100
AcDbEntity
8
1
62
256
6
ByLayer
370
18
48
1
60
0
100
AcDbCircle
39
0
10
10.786532
20
3.0125
30
0
40
1.416
210
0
220
0
230
1
100
AcDbArc
50
276.192438
51
330.190711
0
ARC
5
CB
100
AcDbEntity
8
1
62
256
6
ByLayer
370
18
48
1
60
0
100
AcDbCircle
39
0
10
10.786532
20
3.0125
30
0
40
1.416
210
0
220
0
230
1
100
AcDbArc
50
29.809289
51
83.807562
0
ARC
5
CC
100
AcDbEntity
8
1
62
256
6
ByLayer
370
18
48
1
60
0
100
AcDbCircle
39
0
10
10.786532
20
3.0125
30
0
40
1.416
210
0
220
0
230
1
100
AcDbArc
50
96.192438
51
150.190711
0
ARC
5
CD
100
AcDbEntity
8
1
62
256
6
ByLayer
370
18
48
1
60
0
100
AcDbCircle
39
0
10
10.786532
20
3.0125
30
0
40
1.416
210
0
220
0
230
1
100
AcDbArc
50
330.190711
51
29.809289
0
ARC
5
CE
100
AcDbEntity
8
1
62
256
6
ByLayer
370
18
48
1
60
0
100
AcDbCircle
39
0
10
10.786532
20
3.0125
30
0
40
1.416
210
0
220
0
230
1
100
AcDbArc
50
263.807562
51
276.192438
0
ARC
5
CF
100
AcDbEntity
8
1
62
256
6
ByLayer
370
18
48
1
60
0
100
AcDbCircle
39
0
10
10.786532
20
3.0125
30
0
40
1.9685
210
0
220
0
230
1
100
AcDbArc
50
300.381422
51
0
0
ARC
5
D0
100
AcDbEntity
8
1
62
256
6
ByLayer
370
18
48
1
60
0
100
AcDbCircle
39
0
10
10.786532
20
3.0125
30
0
40
1.9685
210
0
220
0
230
1
100
AcDbArc
50
239.618578
51
300.381422
0
ARC
5
D1
100
AcDbEntity
8
1
62
256
6
ByLayer
370
18
48
1
60
0
100
AcDbCircle
39
0
10
10.786532
20
3.0125
30
0
40
1.9685
210
0
220
0
230
1
100
AcDbArc
50
120.381422
51
180
0
ARC
5
D2
100
AcDbEntity
8
1
62
256
6
ByLayer
370
18
48
1
60
0
100
AcDbCircle
39
0
10
10.786532
20
3.0125
30
0
40
1.9685
210
0
220
0
230
1
100
AcDbArc
50
0
51
59.618578
0
ARC
5
D3
100
AcDbEntity
8
1
62
256
6
ByLayer
370
18
48
1
60
0
100
AcDbCircle
39
0
10
10.786532
20
3.0125
30
0
40
1.416
210
0
220
0
230
1
100
AcDbArc
50
83.807562
51
96.192438
0
ARC
5
D4
100
AcDbEntity
8
1
62
256
6
ByLayer
370
18
48
1
60
0
100
AcDbCircle
39
0
10
10.786532
20
3.0125
30
0
40
1.9685
210
0
220
0
230
1
100
AcDbArc
50
59.618578
51
120.381422
0
ARC
5
D5
100
AcDbEntity
8
1
62
256
6
ByLayer
370
18
48
1
60
0
100
AcDbCircle
39
0
10
10.786532
20
3.0125
30
0
40
1.9685
210
0
220
0
230
1
100
AcDbArc
50
180
51
239.618578
0
CIRCLE
5
C7
100
AcDbEntity
8
1
62
256
6
ByLayer
370
18
48
1
60
0
100
AcDbCircle
10
10.786532
20
3.0125
30
0
40
3.8
39
0
210
0
220
0
230
1
0
CIRCLE
5
D6
100
AcDbEntity
8
1
62
256
6
ByLayer
370
18
48
1
60
0
100
AcDbCircle
10
10.786532
20
3.0125
30
0
40
3.5
39
0
210
0
220
0
230
1
0
CIRCLE
5
D7
100
AcDbEntity
8
1
62
256
6
ByLayer
370
18
48
1
60
0
100
AcDbCircle
10
10.786532
20
3.0125
30
0
40
3
39
0
210
0
220
0
230
1
0
ELLIPSE
5
D8
100
AcDbEntity
8
1
62
256
6
ByLayer
370
18
48
1
60
0
100
AcDbEllipse
10
-2.51768
20
-7.947099
30
0
11
2.9999999997171
21
3.51436609341617E-15
31
0
210
0
220
0
230
1
40
0.004363
41
0.261799387804827
42
0.574936769047974
0
ELLIPSE
5
D9
100
AcDbEntity
8
SK1
62
256
6
ByLayer
370
18
48
1
60
0
100
AcDbEllipse
10
-2.51768
20
-7.947099
30
0
11
3.00000000000002
21
3.51436609374759E-15
31
0
210
0
220
0
230
1
40
0.004363
41
0.574936769023173
42
2.31838067646379
0
ELLIPSE
5
DA
100
AcDbEntity
8
1
62
256
6
ByLayer
370
18
48
1
60
0
100
AcDbEllipse
10
26.403316
20
8.3125
30
0
11
3.47002255144888
21
4.06497653311712E-15
31
0
210
0
220
0
230
1
40
0.086455
41
-0.349065850558113
42
0.349065850558095
0
POINT
5
70
100
AcDbEntity
8
81
62
256
6
ByLayer
370
18
48
1
60
0
100
AcDbPoint
10
32.186532
20
9.0625
30
0
39
0
210
0
220
0
230
1
50
360
0
POINT
5
72
100
AcDbEntity
8
80
62
256
6
ByLayer
370
18
48
1
60
0
100
AcDbPoint
10
0
20
0
30
0
39
0
210
0
220
0
230
1
50
360
0
POINT
5
74
100
AcDbEntity
8
1
62
256
6
ByLayer
370
18
48
1
60
1
100
AcDbPoint
10
32.186532
20
9.0625
30
0
39
0
210
0
220
0
230
1
50
360
0
POINT
5
76
100
AcDbEntity
8
1
62
256
6
ByLayer
370
18
48
1
60
1
100
AcDbPoint
10
-92.813468
20
-7.9375
30
0
39
0
210
0
220
0
230
1
50
360
0
POINT
5
77
100
AcDbEntity
8
1
62
256
6
ByLayer
370
18
48
1
60
1
100
AcDbPoint
10
32.186532
20
7.5625
30
0
39
0
210
0
220
0
230
1
50
360
0
POINT
5
78
100
AcDbEntity
8
1
62
256
6
ByLayer
370
18
48
1
60
1
100
AcDbPoint
10
32.186532
20
9.0625
30
0
39
0
210
0
220
0
230
1
50
360
0
POINT
5
79
100
AcDbEntity
8
1
62
256
6
ByLayer
370
18
48
1
60
1
100
AcDbPoint
10
-92.813468
20
-7.9375
30
0
39
0
210
0
220
0
230
1
50
360
0
POINT
5
7A
100
AcDbEntity
8
1
62
256
6
ByLayer
370
18
48
1
60
1
100
AcDbPoint
10
-92.813468
20
8.0625
30
0
39
0
210
0
220
0
230
1
50
360
0
POINT
5
7B
100
AcDbEntity
8
1
62
256
6
ByLayer
370
18
48
1
60
1
100
AcDbPoint
10
17.186532
20
7.8125
30
0
39
0
210
0
220
0
230
1
50
360
0
POINT
5
7C
100
AcDbEntity
8
1
62
256
6
ByLayer
370
18
48
1
60
1
100
AcDbPoint
10
32.186532
20
9.0625
30
0
39
0
210
0
220
0
230
1
50
360
0
POINT
5
7D
100
AcDbEntity
8
1
62
256
6
ByLayer
370
18
48
1
60
1
100
AcDbPoint
10
-92.813468
20
-7.9375
30
0
39
0
210
0
220
0
230
1
50
360
0
POINT
5
7E
100
AcDbEntity
8
1
62
256
6
ByLayer
370
18
48
1
60
1
100
AcDbPoint
10
32.186532
20
9.0625
30
0
39
0
210
0
220
0
230
1
50
360
0
SPLINE
5
DB
100
AcDbEntity
8
1
62
256
6
ByLayer
370
18
48
1
60
0
100
AcDbSpline
70
4
71
3
72
10
73
6
40
0
40
0
40
0
40
0
40
0.5
40
0.5
40
1
40
1
40
1
40
1
41
1
10
0.198592001793202
20
8.81249999999983
30
0
41
1
10
0.170714442600115
20
8.75765560561399
30
0
41
1
10
0.140264187707885
20
8.70550929671657
30
0
41
1
10
0.0741301278657147
20
8.60541849419761
30
0
41
1
10
0.0384452859312603
20
8.55749398574173
30
0
41
1
10
0
20
8.51149035510917
30
0
0
SPLINE
5
DC
100
AcDbEntity
8
1
62
256
6
ByLayer
370
18
48
1
60
0
100
AcDbSpline
70
4
71
3
72
18
73
14
40
0
40
0
40
0
40
0
40
0.249999999999981
40
0.249999999999981
40
0.374999999999979
40
0.374999999999979
40
0.499999999999978
40
0.499999999999978
40
0.750000000000003
40
0.750000000000003
40
0.875000000000002
40
0.875000000000002
40
1
40
1
40
1
40
1
41
1
10
27.679543653874
20
8.48774860109774
30
0
41
1
10
27.6873894343358
20
8.45960926458375
30
0
41
1
10
27.6932598033762
20
8.43092505105514
30
0
41
1
10
27.6991902084456
20
8.38710567959859
30
0
41
1
10
27.7006850470388
20
8.37236628274059
30
0
41
1
10
27.7026918725537
20
8.34261638940521
30
0
41
1
10
27.7032023681413
20
8.32752650520558
30
0
41
1
10
27.7032041024339
20
8.28252440530008
30
0
41
1
10
27.7012047481182
20
8.2529095001664
30
0
41
1
10
27.6952950371073
20
8.20904948018378
30
0
41
1
10
27.6928371529833
20
8.19452375041297
30
0
41
1
10
27.6869262047281
20
8.16566455774475
30
0
41
1
10
27.6834669507403
20
8.15132252558044
30
0
41
1
10
27.679543653874
20
8.13725139890227
30
0
0
SPLINE
5
DD
100
AcDbEntity
8
1
62
256
6
ByLayer
370
18
48
1
60
0
100
AcDbSpline
70
4
71
3
72
8
73
4
40
0
40
0
40
0
40
0
40
1
40
1
40
1
40
1
41
1
10
27.5881349427282
20
8.81250000000003
30
0
41
1
10
27.6188872401352
20
8.70439964412122
30
0
41
1
10
27.6493243268521
20
8.59613193101976
30
0
41
1
10
27.679543653874
20
8.48774860109774
30
0
0
SPLINE
5
DE
100
AcDbEntity
8
1
62
256
6
ByLayer
370
18
48
1
60
0
100
AcDbSpline
70
4
71
3
72
8
73
4
40
0
40
0
40
0
40
0
40
1
40
1
40
1
40
1
41
1
10
27.6795436538739
20
8.13725139890229
30
0
41
1
10
27.6493243268521
20
8.02886806898027
30
0
41
1
10
27.6188872401352
20
7.9206003558788
30
0
41
1
10
27.5881349427282
20
7.8125
30
0
0
SPLINE
5
DF
100
AcDbEntity
8
SK1
62
256
6
ByLayer
370
18
48
1
60
0
100
AcDbSpline
70
4
71
3
72
26
73
22
40
0
40
0
40
0
40
0
40
0.125000000000017
40
0.125000000000017
40
0.250000000000034
40
0.250000000000034
40
0.312500000000033
40
0.312500000000033
40
0.375000000000031
40
0.375000000000031
40
0.50000000000003
40
0.50000000000003
40
0.62500000000003
40
0.62500000000003
40
0.687500000000019
40
0.687500000000019
40
0.750000000000008
40
0.750000000000008
40
0.875000000000004
40
0.875000000000004
40
1
40
1
40
1
40
1
41
1
10
0
20
8.51149035510917
30
0
41
1
10
-0.033419146811184
20
8.47150100274209
30
0
41
1
10
-0.0689249498423123
20
8.43297039320237
30
0
41
1
10
-0.144420983130828
20
8.35883323586211
30
0
41
1
10
-0.184409705308582
20
8.32322713553503
30
0
41
1
10
-0.248097821749155
20
8.27216425193453
30
0
41
1
10
-0.269973309262923
20
8.25551625599334
30
0
41
1
10
-0.314918084583695
20
8.22313551758074
30
0
41
1
10
-0.337892665314428
20
8.20746906590352
30
0
41
1
10
-0.408361669151248
20
8.16208397536784
30
0
41
1
10
-0.457397403009139
20
8.13397302541347
30
0
41
1
10
-0.559872364240334
20
8.08241750779047
30
0
41
1
10
-0.613309872405125
20
8.05897057844493
30
0
41
1
10
-0.697094862916913
20
8.02775769441598
30
0
41
1
10
-0.725629273741077
20
8.01801504588451
30
0
41
1
10
-0.783984163362049
20
7.99996024386741
30
0
41
1
10
-0.813874574938779
20
7.99163446618897
30
0
41
1
10
-0.904626901620446
20
7.96922309106989
30
0
41
1
10
-0.966791110002475
20
7.957607414916
30
0
41
1
10
-1.09459175787242
20
7.94174871919378
30
0
41
1
10
-1.16022710306319
20
7.9375
30
0
41
1
10
-1.2277231807663
20
7.9375
30
0
0
SPLINE
5
E0
100
AcDbEntity
8
1
62
256
6
ByLayer
370
18
48
1
60
0
100
AcDbSpline
70
4
71
3
72
24
73
20
40
0
40
0
40
0
40
0
40
0.125000000000002
40
0.125000000000002
40
0.18749999999996
40
0.18749999999996
40
0.249999999999918
40
0.249999999999918
40
0.374999999999925
40
0.374999999999925
40
0.499999999999933
40
0.499999999999933
40
0.62499999999994
40
0.62499999999994
40
0.687499999999988
40
0.687499999999988
40
0.750000000000036
40
0.750000000000036
40
1
40
1
40
1
40
1
41
1
10
9.79095475386799
20
1.31431894166025
30
0
41
1
10
9.80758080088924
20
1.3045717429747
30
0
41
1
10
9.82489339464351
20
1.29636426331015
30
0
41
1
10
9.85187908725044
20
1.28633423650234
30
0
41
1
10
9.86107901458166
20
1.28336405870428
30
0
41
1
10
9.87967617829054
20
1.27825145044486
30
0
41
1
10
9.88898256402641
20
1.27613041073394
30
0
41
1
10
9.91692267758137
20
1.27100365538698
30
0
41
1
10
9.93557730321942
20
1.26922592617311
30
0
41
1
10
9.97293158540509
20
1.26881849654165
30
0
41
1
10
9.99177056588954
20
1.27023952199565
30
0
41
1
10
10.0279467483837
20
1.27601270509692
30
0
41
1
10
10.0454621170162
20
1.28034137536861
30
0
41
1
10
10.0709205202816
20
1.2888479036088
30
0
41
1
10
10.0792701412763
20
1.29202086060127
30
0
41
1
10
10.0956955843143
20
1.29903701553005
30
0
41
1
10
10.1037983880544
20
1.30289714857272
30
0
41
1
10
10.1429475149837
20
1.32351535869293
30
0
41
1
10
10.1704566291403
20
1.34428584762648
30
0
41
1
10
10.194413939296
20
1.36891737191127
30
0
0
SPLINE
5
E1
100
AcDbEntity
8
1
62
256
6
ByLayer
370
18
48
1
60
0
100
AcDbSpline
70
4
71
3
72
24
73
20
40
0
40
0
40
0
40
0
40
0.249999999999768
40
0.249999999999768
40
0.312499999999766
40
0.312499999999766
40
0.374999999999765
40
0.374999999999765
40
0.499999999999832
40
0.499999999999832
40
0.624999999999898
40
0.624999999999898
40
0.749999999999964
40
0.749999999999964
40
0.812499999999952
40
0.812499999999952
40
0.874999999999939
40
0.874999999999939
40
1
40
1
40
1
40
1
41
1
10
11.3786493476304
20
1.36891737191127
30
0
41
1
10
11.4026066577861
20
1.34428584762648
30
0
41
1
10
11.4301157719426
20
1.32351535869293
30
0
41
1
10
11.4692648988719
20
1.30289714857272
30
0
41
1
10
11.477367702612
20
1.29903701553005
30
0
41
1
10
11.4937931456502
20
1.29202086060127
30
0
41
1
10
11.5021427666448
20
1.28884790360877
30
0
41
1
10
11.5276011699102
20
1.28034137536861
30
0
41
1
10
11.5451165385427
20
1.27601270509692
30
0
41
1
10
11.5812927210368
20
1.27023952199562
30
0
41
1
10
11.6001317015213
20
1.26881849654165
30
0
41
1
10
11.637485983707
20
1.26922592617311
30
0
41
1
10
11.656140609345
20
1.27100365538698
30
0
41
1
10
11.6840807229
20
1.27613041073394
30
0
41
1
10
11.6933871086359
20
1.27825145044486
30
0
41
1
10
11.7119842723448
20
1.28336405870428
30
0
41
1
10
11.7211841996759
20
1.28633423650234
30
0
41
1
10
11.7481698922828
20
1.29636426331015
30
0
41
1
10
11.7654824860371
20
1.3045717429747
30
0
41
1
10
11.7821085330584
20
1.31431894166025
30
0
0
SPLINE
5
E2
100
AcDbEntity
8
1
62
256
6
ByLayer
370
18
48
1
60
0
100
AcDbSpline
70
4
71
3
72
18
73
14
40
0
40
0
40
0
40
0
40
0.250000000000051
40
0.250000000000051
40
0.375000000000109
40
0.375000000000109
40
0.437500000000104
40
0.437500000000104
40
0.500000000000098
40
0.500000000000098
40
0.750000000000049
40
0.750000000000049
40
1
40
1
40
1
40
1
41
1
10
10.6337903500867
20
1.60476206370018
30
0
41
1
10
10.5893653606055
20
1.59640297656486
30
0
41
1
10
10.54700291578
20
1.58469407613697
30
0
41
1
10
10.4860440455233
20
1.56271470041534
30
0
41
1
10
10.4661588306101
20
1.55464601776921
30
0
41
1
10
10.4369464972198
20
1.54145909375316
30
0
41
1
10
10.427311800006
20
1.53688252555301
30
0
41
1
10
10.4082437678539
20
1.52736929099518
30
0
41
1
10
10.3987896136387
20
1.52242087585614
30
0
41
1
10
10.3523228515856
20
1.49695014685648
30
0
41
1
10
10.3176982996082
20
1.47428300253273
30
0
41
1
10
10.2528246681535
20
1.42474947054026
30
0
41
1
10
10.222582443939
20
1.39787860343805
30
0
41
1
10
10.194413939296
20
1.36891737191124
30
0
0
SPLINE
5
E3
100
AcDbEntity
8
1
62
256
6
ByLayer
370
18
48
1
60
0
100
AcDbSpline
70
4
71
3
72
17
73
13
40
0
40
0
40
0
40
0
40
0.250000000000031
40
0.250000000000031
40
0.500000000000062
40
0.500000000000062
40
0.562500000000085
40
0.562500000000085
40
0.625000000000108
40
0.750000000000095
40
0.750000000000095
40
1
40
1
40
1
40
1
41
1
10
11.3786493476304
20
1.36891737191127
30
0
41
1
10
11.3504839622726
20
1.39787539636893
30
0
41
1
10
11.3202574013277
20
1.42473094109639
30
0
41
1
10
11.255453320076
20
1.474219738367
30
0
41
1
10
11.2208823385967
20
1.49685729218694
30
0
41
1
10
11.1745201553194
20
1.52228947738766
30
0
41
1
10
11.1650663532741
20
1.52724244796315
30
0
41
1
10
11.1459569195764
20
1.5367836416446
30
0
41
1
10
11.1169936804109
20
1.55054988847266
30
0
41
1
10
11.0871179202061
20
1.56267696654851
30
0
41
1
10
11.0260810313846
20
1.58469092367318
30
0
41
1
10
10.98368984073
20
1.59640449796441
30
0
41
1
10
10.9392729368396
20
1.60476206370018
30
0
0
SPLINE
5
E4
100
AcDbEntity
8
1
62
256
6
ByLayer
370
18
48
1
60
0
100
AcDbSpline
70
4
71
3
72
26
73
22
40
0
40
0
40
0
40
0
40
0.250000000000247
40
0.250000000000247
40
0.312500000000286
40
0.312500000000286
40
0.375000000000326
40
0.375000000000326
40
0.500000000000333
40
0.500000000000333
40
0.562500000000312
40
0.562500000000312
40
0.625000000000291
40
0.625000000000291
40
0.750000000000211
40
0.750000000000211
40
0.81250000000016
40
0.81250000000016
40
0.87500000000011
40
0.87500000000011
40
1
40
1
40
1
40
1
41
1
10
9.06043620331886
20
3.33066196954684
30
0
41
1
10
9.02795461011414
20
3.32171923054693
30
0
41
1
10
8.99706795373123
20
3.30798763225906
30
0
41
1
10
8.96073312614138
20
3.28433533882904
30
0
41
1
10
8.95355418603901
20
3.27924950677314
30
0
41
1
10
8.93967224890267
20
3.26855300917634
30
0
41
1
10
8.93295004901626
20
3.26293339907116
30
0
41
1
10
8.91344491715415
20
3.2452595033493
30
0
41
1
10
8.90131883482672
20
3.23239578411685
30
0
41
1
10
8.88454223671397
20
3.21138105486796
30
0
41
1
10
8.87918652626993
20
3.20408831060908
30
0
41
1
10
8.86898007742678
20
3.18889161344384
30
0
41
1
10
8.86416953055891
20
3.18104117071127
30
0
41
1
10
8.85080715052464
20
3.15704377283811
30
0
41
1
10
8.84323473941845
20
3.14033349964961
30
0
41
1
10
8.83394766361187
20
3.11417051041337
30
0
41
1
10
8.83119891188051
20
3.10526567009646
30
0
41
1
10
8.82642994935929
20
3.08707076974326
30
0
41
1
10
8.82441711795863
20
3.07778459894993
30
0
41
1
10
8.81962805974979
20
3.04998127685258
30
0
41
1
10
8.8180316434632
20
3.03130895329002
30
0
41
1
10
8.8180316434632
20
3.01250000000002
30
0
0
SPLINE
5
E5
100
AcDbEntity
8
1
62
256
6
ByLayer
370
18
48
1
60
0
100
AcDbSpline
70
4
71
3
72
34
73
30
40
0
40
0
40
0
40
0
40
0.125000000000003
40
0.125000000000003
40
0.187499999999992
40
0.187499999999992
40
0.218749999999974
40
0.218749999999974
40
0.249999999999956
40
0.249999999999956
40
0.374999999999904
40
0.374999999999904
40
0.406249999999901
40
0.406249999999901
40
0.437499999999898
40
0.499999999999909
40
0.56249999999992
40
0.56249999999992
40
0.624999999999932
40
0.624999999999932
40
0.687499999999943
40
0.687499999999943
40
0.749999999999955
40
0.749999999999955
40
0.87499999999998
40
0.87499999999998
40
0.93749999999999
40
0.93749999999999
40
1
40
1
40
1
40
1
41
1
10
9.06043620331886
20
3.33066196954684
30
0
41
1
10
9.10933409087883
20
3.34412439558426
30
0
41
1
10
9.15692491676748
20
3.3620186520746
30
0
41
1
10
9.22647585697266
20
3.39594270749564
30
0
41
1
10
9.24935224256643
20
3.4084401462236
30
0
41
1
10
9.28320692089346
20
3.42913057817219
30
0
41
1
10
9.29444023222067
20
3.43636964646046
30
0
41
1
10
9.31663223973797
20
3.45145479578335
30
0
41
1
10
9.32755561381708
20
3.45927500395948
30
0
41
1
10
9.38131120863864
20
3.49978599049112
30
0
41
1
10
9.42159649860892
20
3.53664515702249
30
0
41
1
10
9.46824578794337
20
3.58919765776827
30
0
41
1
10
9.47739706953575
20
3.60005315220082
30
0
41
1
10
9.49502420205232
20
3.6220897675602
30
0
41
1
10
9.52056319469773
20
3.6557548145305
30
0
41
1
10
9.55867264631723
20
3.71488244383099
30
0
41
1
10
9.58437623454552
20
3.7654298677765
30
0
41
1
10
9.60759218076055
20
3.81766310638835
30
0
41
1
10
9.6176767946082
20
3.84399386630506
30
0
41
1
10
9.63500100514051
20
3.89701886991409
30
0
41
1
10
9.64224390357907
20
3.92372253564474
30
0
41
1
10
9.65400570804314
20
3.97752471010037
30
0
41
1
10
9.65851984762435
20
4.00471639707703
30
0
41
1
10
9.66786945799853
20
4.08499352089436
30
0
41
1
10
9.66873973031718
20
4.13742224670645
30
0
41
1
10
9.66290277551045
20
4.21490655888616
30
0
41
1
10
9.65973777406927
20
4.24061828053669
30
0
41
1
10
9.65110181783325
20
4.29124279472236
30
0
41
1
10
9.64564352439413
20
4.31613915096
30
0
41
1
10
9.63908060987831
20
4.34065233797858
30
0
0
SPLINE
5
E6
100
AcDbEntity
8
1
62
256
6
ByLayer
370
18
48
1
60
0
100
AcDbSpline
70
4
71
3
72
24
73
20
40
0
40
0
40
0
40
0
40
0.0624999999999425
40
0.0624999999999425
40
0.124999999999885
40
0.124999999999885
40
0.249999999999842
40
0.249999999999842
40
0.312499999999852
40
0.312499999999852
40
0.374999999999862
40
0.374999999999862
40
0.499999999999885
40
0.499999999999885
40
0.624999999999909
40
0.624999999999909
40
0.749999999999933
40
0.749999999999933
40
1
40
1
40
1
40
1
41
1
10
9.79095475386799
20
4.71068105833979
30
0
41
1
10
9.78285303365007
20
4.70593133782242
30
0
41
1
10
9.77488183423577
20
4.7007897889865
30
0
41
1
10
9.75943857776224
20
4.68985532158604
30
0
41
1
10
9.75201394832641
20
4.68410082777496
30
0
41
1
10
9.73059889183548
20
4.66600705640505
30
0
41
1
10
9.7174614039381
20
4.65284310533588
30
0
41
1
10
9.69945116548695
20
4.6314603728398
30
0
41
1
10
9.69372628900732
20
4.62404312092056
30
0
41
1
10
9.68306072996464
20
4.60895701884021
30
0
41
1
10
9.67808910894848
20
4.60125416851679
30
0
41
1
10
9.66421641310296
20
4.57768656155028
30
0
41
1
10
9.65635092573473
20
4.56136555606636
30
0
41
1
10
9.64334131590323
20
4.52753765004158
30
0
41
1
10
9.63836658256139
20
4.51047339489597
30
0
41
1
10
9.63120765097989
20
4.47610299775965
30
0
41
1
10
9.62902233654458
20
4.45873705874803
30
0
41
1
10
9.62659243341713
20
4.40666944413002
30
0
41
1
10
9.63039235169438
20
4.37310391070846
30
0
41
1
10
9.63908060987831
20
4.34065233797858
30
0
0
SPLINE
5
E7
100
AcDbEntity
8
1
62
256
6
ByLayer
370
18
48
1
60
0
100
AcDbSpline
70
4
71
3
72
26
73
22
40
0
40
0
40
0
40
0
40
0.124999999999961
40
0.124999999999961
40
0.249999999999923
40
0.249999999999923
40
0.312499999999902
40
0.312499999999902
40
0.37499999999988
40
0.37499999999988
40
0.499999999999887
40
0.499999999999887
40
0.562499999999883
40
0.562499999999883
40
0.624999999999879
40
0.624999999999879
40
0.749999999999919
40
0.749999999999919
40
0.87499999999996
40
0.87499999999996
40
1
40
1
40
1
40
1
41
1
10
12.7550316434632
20
3.01250000000002
30
0
41
1
10
12.7550316434632
20
3.03124208387968
30
0
41
1
10
12.7533944389678
20
3.05029002412101
30
0
41
1
10
12.7470169241461
20
3.08717054585435
30
0
41
1
10
12.7423044351287
20
3.10514683747934
30
0
41
1
10
12.7329970295664
20
3.13142723056083
30
0
41
1
10
12.7294991685586
20
3.14011361056296
30
0
41
1
10
12.7218657736992
20
3.156982547616
30
0
41
1
10
12.7177307427281
20
3.16517739551586
30
0
41
1
10
12.704413972879
20
3.18907325181951
30
0
41
1
10
12.6943262059565
20
3.20408993692456
30
0
41
1
10
12.6774363505494
20
3.22527553940842
30
0
41
1
10
12.6715242608476
20
3.23209191856907
30
0
41
1
10
12.6593290153061
20
3.24505958951073
30
0
41
1
10
12.6530229402486
20
3.25124038277119
30
0
41
1
10
12.633507996239
20
3.26890908220133
30
0
41
1
10
12.6197057711253
20
3.27952827097107
30
0
41
1
10
12.5905771767031
20
3.29850138094614
30
0
41
1
10
12.5755089376494
20
3.30668115880459
30
0
41
1
10
12.5446493911631
20
3.32052201982395
30
0
41
1
10
12.5288265329513
20
3.32620198365544
30
0
41
1
10
12.5126270836075
20
3.33066196954684
30
0
0
SPLINE
5
E8
100
AcDbEntity
8
1
62
256
6
ByLayer
370
18
48
1
60
0
100
AcDbSpline
70
4
71
3
72
34
73
30
40
0
40
0
40
0
40
0
40
0.124999999999996
40
0.124999999999996
40
0.187499999999991
40
0.187499999999991
40
0.21874999999999
40
0.21874999999999
40
0.24999999999999
40
0.24999999999999
40
0.374999999999994
40
0.374999999999994
40
0.406249999999995
40
0.406249999999995
40
0.437499999999996
40
0.499999999999996
40
0.562499999999995
40
0.562499999999995
40
0.624999999999994
40
0.624999999999994
40
0.687499999999994
40
0.687499999999994
40
0.749999999999993
40
0.749999999999993
40
0.874999999999994
40
0.874999999999994
40
0.937499999999997
40
0.937499999999997
40
1
40
1
40
1
40
1
41
1
10
11.933982677048
20
4.34065233797858
30
0
41
1
10
11.9208661052419
20
4.29166054066769
30
0
41
1
10
11.9122338275725
20
4.24155490158097
30
0
41
1
10
11.9063236830634
20
4.16439762753933
30
0
41
1
10
11.9055351198275
20
4.1383420498826
30
0
41
1
10
11.9062621528231
20
4.0986721053907
30
0
41
1
10
11.9068258426165
20
4.08532019146966
30
0
41
1
10
11.9086157665753
20
4.05854626410064
30
0
41
1
10
11.9098375449903
20
4.04516781005989
30
0
41
1
10
11.9175983594087
20
3.97830545809455
30
0
41
1
10
11.9290214917427
20
3.92491056350019
30
0
41
1
10
11.9507642931994
20
3.85808862454962
30
0
41
1
10
11.9555007885094
20
3.84470380677604
30
0
41
1
10
11.96559629191
20
3.81835216300661
30
0
41
1
10
11.9817219287937
20
3.77929400704014
30
0
41
1
10
12.0134560068215
20
3.71651379315975
30
0
41
1
10
12.0440624471058
20
3.66877531742273
30
0
41
1
10
12.0773813359123
20
3.62233026845166
30
0
41
1
10
12.0949959634122
20
3.60031360473565
30
0
41
1
10
12.1319776622379
20
3.55855078297549
30
0
41
1
10
12.1513511937926
20
3.53879700866821
30
0
41
1
10
12.1918165485653
20
3.50143969467126
30
0
41
1
10
12.2129911663546
20
3.48379314060148
30
0
41
1
10
12.2775158493332
20
3.43512695712485
30
0
41
1
10
12.3223047982941
20
3.4078601516259
30
0
41
1
10
12.3921008484917
20
3.37370755727807
30
0
41
1
10
12.4158824887258
20
3.36343412604774
30
0
41
1
10
12.4639227984664
20
3.34528061880329
30
0
41
1
10
12.4881608836904
20
3.33739793347567
30
0
41
1
10
12.5126270836075
20
3.33066196954684
30
0
0
SPLINE
5
E9
100
AcDbEntity
8
1
62
256
6
ByLayer
370
18
48
1
60
0
100
AcDbSpline
70
4
71
3
72
24
73
20
40
0
40
0
40
0
40
0
40
0.0625000000000086
40
0.0625000000000086
40
0.125000000000017
40
0.125000000000017
40
0.249999999999969
40
0.249999999999969
40
0.312499999999977
40
0.312499999999977
40
0.374999999999984
40
0.374999999999984
40
0.499999999999983
40
0.499999999999983
40
0.624999999999983
40
0.624999999999983
40
0.749999999999982
40
0.749999999999982
40
1
40
1
40
1
40
1
41
1
10
11.7821085330584
20
4.71068105833979
30
0
41
1
10
11.7902102532763
20
4.70593133782242
30
0
41
1
10
11.7981814526905
20
4.70078978898647
30
0
41
1
10
11.8136247091641
20
4.68985532158601
30
0
41
1
10
11.8210493386
20
4.68410082777496
30
0
41
1
10
11.8424643950909
20
4.66600705640505
30
0
41
1
10
11.8556018829883
20
4.65284310533588
30
0
41
1
10
11.8736121214394
20
4.6314603728398
30
0
41
1
10
11.879336997919
20
4.62404312092056
30
0
41
1
10
11.8900025569618
20
4.60895701884021
30
0
41
1
10
11.8949741779779
20
4.60125416851682
30
0
41
1
10
11.9088468738234
20
4.57768656155028
30
0
41
1
10
11.9167123611917
20
4.56136555606636
30
0
41
1
10
11.9297219710232
20
4.52753765004161
30
0
41
1
10
11.934696704365
20
4.51047339489597
30
0
41
1
10
11.9418556359465
20
4.47610299775965
30
0
41
1
10
11.9440409503818
20
4.45873705874803
30
0
41
1
10
11.9464708535093
20
4.40666944413002
30
0
41
1
10
11.942670935232
20
4.37310391070846
30
0
41
1
10
11.933982677048
20
4.34065233797858
30
0
0
SPLINE
5
EA
100
AcDbEntity
8
1
62
256
6
ByLayer
370
18
48
1
60
0
100
AcDbSpline
70
4
71
3
72
26
73
22
40
0
40
0
40
0
40
0
40
0.250000000000262
40
0.250000000000262
40
0.312500000000305
40
0.312500000000305
40
0.375000000000348
40
0.375000000000348
40
0.500000000000362
40
0.500000000000362
40
0.562500000000345
40
0.562500000000345
40
0.625000000000328
40
0.625000000000328
40
0.750000000000235
40
0.750000000000235
40
0.812500000000179
40
0.812500000000179
40
0.875000000000122
40
0.875000000000122
40
1
40
1
40
1
40
1
41
1
10
12.5126270836075
20
2.69433803045317
30
0
41
1
10
12.5451086768122
20
2.70328076945307
30
0
41
1
10
12.5759953331951
20
2.71701236774095
30
0
41
1
10
12.612330160785
20
2.74066466117097
30
0
41
1
10
12.6195091008873
20
2.74575049322686
30
0
41
1
10
12.6333910380237
20
2.75644699082369
30
0
41
1
10
12.6401132379102
20
2.76206660092888
30
0
41
1
10
12.6596183697722
20
2.7797404966507
30
0
41
1
10
12.6717444520997
20
2.79260421588319
30
0
41
1
10
12.6885210502123
20
2.81361894513208
30
0
41
1
10
12.6938767606564
20
2.82091168939093
30
0
41
1
10
12.7040832094995
20
2.83610838655616
30
0
41
1
10
12.7088937563674
20
2.84395882928874
30
0
41
1
10
12.7222561364017
20
2.8679562271619
30
0
41
1
10
12.7298285475079
20
2.88466650035042
30
0
41
1
10
12.7391156233146
20
2.91082948958663
30
0
41
1
10
12.7418643750459
20
2.91973432990355
30
0
41
1
10
12.7466333375671
20
2.93792923025674
30
0
41
1
10
12.7486461689677
20
2.94721540105007
30
0
41
1
10
12.7534352271766
20
2.97501872314746
30
0
41
1
10
12.7550316434632
20
2.99369104670998
30
0
41
1
10
12.7550316434632
20
3.01250000000002
30
0
0
SPLINE
5
EB
100
AcDbEntity
8
1
62
256
6
ByLayer
370
18
48
1
60
0
100
AcDbSpline
70
4
71
3
72
24
73
20
40
0
40
0
40
0
40
0
40
0.0625000000000086
40
0.0625000000000086
40
0.125000000000017
40
0.125000000000017
40
0.249999999999969
40
0.249999999999969
40
0.312499999999977
40
0.312499999999977
40
0.374999999999984
40
0.374999999999984
40
0.499999999999983
40
0.499999999999983
40
0.624999999999983
40
0.624999999999983
40
0.749999999999982
40
0.749999999999982
40
1
40
1
40
1
40
1
41
1
10
11.7821085330584
20
1.31431894166025
30
0
41
1
10
11.7902102532763
20
1.31906866217758
30
0
41
1
10
11.7981814526905
20
1.32421021101354
30
0
41
1
10
11.8136247091641
20
1.335144678414
30
0
41
1
10
11.8210493386
20
1.34089917222508
30
0
41
1
10
11.8424643950909
20
1.35899294359498
30
0
41
1
10
11.8556018829883
20
1.37215689466413
30
0
41
1
10
11.8736121214394
20
1.39353962716024
30
0
41
1
10
11.879336997919
20
1.40095687907947
30
0
41
1
10
11.8900025569618
20
1.41604298115979
30
0
41
1
10
11.8949741779779
20
1.42374583148322
30
0
41
1
10
11.9088468738234
20
1.44731343844973
30
0
41
1
10
11.9167123611917
20
1.46363444393364
30
0
41
1
10
11.9297219710232
20
1.49746234995842
30
0
41
1
10
11.934696704365
20
1.51452660510404
30
0
41
1
10
11.9418556359465
20
1.54889700224038
30
0
41
1
10
11.9440409503818
20
1.56626294125198
30
0
41
1
10
11.9464708535093
20
1.61833055586999
30
0
41
1
10
11.942670935232
20
1.65189608929154
30
0
41
1
10
11.933982677048
20
1.68434766202142
30
0
0
SPLINE
5
EC
100
AcDbEntity
8
1
62
256
6
ByLayer
370
18
48
1
60
0
100
AcDbSpline
70
4
71
3
72
34
73
30
40
0
40
0
40
0
40
0
40
0.125000000000003
40
0.125000000000003
40
0.187499999999992
40
0.187499999999992
40
0.218749999999974
40
0.218749999999974
40
0.249999999999956
40
0.249999999999956
40
0.374999999999904
40
0.374999999999904
40
0.406249999999901
40
0.406249999999901
40
0.437499999999898
40
0.499999999999909
40
0.56249999999992
40
0.56249999999992
40
0.624999999999932
40
0.624999999999932
40
0.687499999999943
40
0.687499999999943
40
0.749999999999955
40
0.749999999999955
40
0.87499999999998
40
0.87499999999998
40
0.93749999999999
40
0.93749999999999
40
1
40
1
40
1
40
1
41
1
10
12.5126270836075
20
2.69433803045317
30
0
41
1
10
12.4637291960476
20
2.68087560441578
30
0
41
1
10
12.4161383701589
20
2.66298134792544
30
0
41
1
10
12.3465874299538
20
2.6290572925044
30
0
41
1
10
12.3237110443599
20
2.61655985377644
30
0
41
1
10
12.2898563660329
20
2.59586942182781
30
0
41
1
10
12.2786230547057
20
2.58863035353957
30
0
41
1
10
12.2564310471884
20
2.57354520421669
30
0
41
1
10
12.2455076731092
20
2.56572499604053
30
0
41
1
10
12.1917520782877
20
2.52521400950892
30
0
41
1
10
12.1514667883175
20
2.48835484297752
30
0
41
1
10
12.104817498983
20
2.43580234223177
30
0
41
1
10
12.0956662173906
20
2.42494684779919
30
0
41
1
10
12.078039084874
20
2.40291023243984
30
0
41
1
10
12.0525000922287
20
2.36924518546954
30
0
41
1
10
12.0143906406091
20
2.31011755616902
30
0
41
1
10
11.9886870523808
20
2.25957013222353
30
0
41
1
10
11.9654711061658
20
2.20733689361165
30
0
41
1
10
11.9553864923182
20
2.18100613369498
30
0
41
1
10
11.9380622817859
20
2.12798113008591
30
0
41
1
10
11.9308193833473
20
2.10127746435526
30
0
41
1
10
11.9190575788833
20
2.04747528989967
30
0
41
1
10
11.914543439302
20
2.02028360292297
30
0
41
1
10
11.9051938289278
20
1.94000647910568
30
0
41
1
10
11.9043235566091
20
1.88757775329356
30
0
41
1
10
11.9101605114159
20
1.81009344111385
30
0
41
1
10
11.9133255128571
20
1.78438171946334
30
0
41
1
10
11.9219614690931
20
1.73375720527767
30
0
41
1
10
11.9274197625322
20
1.70886084904004
30
0
41
1
10
11.933982677048
20
1.68434766202142
30
0
0
SPLINE
5
ED
100
AcDbEntity
8
1
62
256
6
ByLayer
370
18
48
1
60
0
100
AcDbSpline
70
4
71
3
72
17
73
13
40
0
40
0
40
0
40
0
40
0.25000000000004
40
0.25000000000004
40
0.50000000000008
40
0.50000000000008
40
0.562500000000077
40
0.562500000000077
40
0.625000000000075
40
0.750000000000073
40
0.750000000000073
40
1
40
1
40
1
40
1
41
1
10
10.194413939296
20
4.65608262808877
30
0
41
1
10
10.2225793246537
20
4.62712460363116
30
0
41
1
10
10.2528058855985
20
4.60026905890371
30
0
41
1
10
10.3176099668502
20
4.55078026163318
30
0
41
1
10
10.3521809483294
20
4.52814270781326
30
0
41
1
10
10.3985431316066
20
4.50271052261257
30
0
41
1
10
10.4079969336519
20
4.49775755203706
30
0
41
1
10
10.4271063673496
20
4.4882163583556
30
0
41
1
10
10.456069606515
20
4.47445011152757
30
0
41
1
10
10.4859453667198
20
4.4623230334517
30
0
41
1
10
10.5469822555414
20
4.44030907632694
30
0
41
1
10
10.5893734461961
20
4.42859550203568
30
0
41
1
10
10.6337903500867
20
4.42023793629983
30
0
0
SPLINE
5
EE
100
AcDbEntity
8
1
62
256
6
ByLayer
370
18
48
1
60
0
100
AcDbSpline
70
4
71
3
72
18
73
14
40
0
40
0
40
0
40
0
40
0.250000000000039
40
0.250000000000039
40
0.375000000000058
40
0.375000000000058
40
0.437500000000068
40
0.437500000000068
40
0.500000000000077
40
0.500000000000077
40
0.750000000000039
40
0.750000000000039
40
1
40
1
40
1
40
1
41
1
10
10.9392729368396
20
4.42023793629983
30
0
41
1
10
10.9836979263205
20
4.42859702343512
30
0
41
1
10
11.026060371146
20
4.44030592386292
30
0
41
1
10
11.0870192414028
20
4.46228529958458
30
0
41
1
10
11.106904456316
20
4.47035398223071
30
0
41
1
10
11.1361167897066
20
4.48354090624687
30
0
41
1
10
11.1457514869204
20
4.48811747444705
30
0
41
1
10
11.1648195190727
20
4.49763070900494
30
0
41
1
10
11.174273673288
20
4.50257912414406
30
0
41
1
10
11.2207404353409
20
4.52804985314361
30
0
41
1
10
11.2553649873182
20
4.5507169974673
30
0
41
1
10
11.3202386187729
20
4.60025052945971
30
0
41
1
10
11.3504808429873
20
4.62712139656193
30
0
41
1
10
11.3786493476304
20
4.65608262808877
30
0
0
SPLINE
5
EF
100
AcDbEntity
8
1
62
256
6
ByLayer
370
18
48
1
60
0
100
AcDbSpline
70
4
71
3
72
24
73
20
40
0
40
0
40
0
40
0
40
0.125000000000053
40
0.125000000000053
40
0.187500000000037
40
0.187500000000037
40
0.25000000000002
40
0.25000000000002
40
0.375000000000079
40
0.375000000000079
40
0.500000000000137
40
0.500000000000137
40
0.625000000000196
40
0.625000000000196
40
0.687500000000189
40
0.687500000000189
40
0.750000000000182
40
0.750000000000182
40
1
40
1
40
1
40
1
41
1
10
11.7821085330584
20
4.71068105833979
30
0
41
1
10
11.7654824860371
20
4.72042825702533
30
0
41
1
10
11.7481698922829
20
4.72863573668988
30
0
41
1
10
11.7211841996759
20
4.73866576349769
30
0
41
1
10
11.7119842723448
20
4.74163594129573
30
0
41
1
10
11.6933871086358
20
4.74674854955515
30
0
41
1
10
11.6840807229
20
4.74886958926609
30
0
41
1
10
11.656140609345
20
4.75399634461306
30
0
41
1
10
11.637485983707
20
4.7557740738269
30
0
41
1
10
11.6001317015213
20
4.75618150345835
30
0
41
1
10
11.5812927210368
20
4.75476047800439
30
0
41
1
10
11.5451165385427
20
4.74898729490309
30
0
41
1
10
11.5276011699102
20
4.74465862463143
30
0
41
1
10
11.5021427666447
20
4.73615209639124
30
0
41
1
10
11.4937931456502
20
4.73297913939876
30
0
41
1
10
11.4773677026121
20
4.72596298446999
30
0
41
1
10
11.4692648988719
20
4.72210285142731
30
0
41
1
10
11.4301157719426
20
4.70148464130708
30
0
41
1
10
11.4026066577861
20
4.68071415237355
30
0
41
1
10
11.3786493476304
20
4.65608262808877
30
0
0
SPLINE
5
F0
100
AcDbEntity
8
1
62
256
6
ByLayer
370
18
48
1
60
0
100
AcDbSpline
70
4
71
3
72
24
73
20
40
0
40
0
40
0
40
0
40
0.249999999999808
40
0.249999999999808
40
0.312499999999799
40
0.312499999999799
40
0.374999999999789
40
0.374999999999789
40
0.499999999999851
40
0.499999999999851
40
0.624999999999912
40
0.624999999999912
40
0.749999999999974
40
0.749999999999974
40
0.812499999999959
40
0.812499999999959
40
0.874999999999944
40
0.874999999999944
40
1
40
1
40
1
40
1
41
1
10
10.194413939296
20
4.65608262808877
30
0
41
1
10
10.1704566291403
20
4.68071415237355
30
0
41
1
10
10.1429475149837
20
4.70148464130708
30
0
41
1
10
10.1037983880544
20
4.72210285142731
30
0
41
1
10
10.0956955843143
20
4.72596298446999
30
0
41
1
10
10.0792701412763
20
4.73297913939876
30
0
41
1
10
10.0709205202816
20
4.73615209639124
30
0
41
1
10
10.0454621170161
20
4.74465862463143
30
0
41
1
10
10.0279467483837
20
4.74898729490309
30
0
41
1
10
9.99177056588957
20
4.75476047800439
30
0
41
1
10
9.97293158540509
20
4.75618150345835
30
0
41
1
10
9.93557730321942
20
4.75577407382693
30
0
41
1
10
9.9169226775814
20
4.75399634461306
30
0
41
1
10
9.88898256402641
20
4.74886958926609
30
0
41
1
10
9.87967617829054
20
4.74674854955515
30
0
41
1
10
9.86107901458163
20
4.74163594129573
30
0
41
1
10
9.85187908725047
20
4.73866576349769
30
0
41
1
10
9.82489339464354
20
4.72863573668985
30
0
41
1
10
9.80758080088924
20
4.72042825702533
30
0
41
1
10
9.79095475386799
20
4.71068105833979
30
0
0
SPLINE
5
F1
100
AcDbEntity
8
1
62
256
6
ByLayer
370
18
48
1
60
0
100
AcDbSpline
70
4
71
3
72
34
73
30
40
0
40
0
40
0
40
0
40
0.124999999999995
40
0.124999999999995
40
0.18749999999999
40
0.18749999999999
40
0.218749999999989
40
0.218749999999989
40
0.249999999999988
40
0.249999999999988
40
0.374999999999991
40
0.374999999999991
40
0.406249999999993
40
0.406249999999993
40
0.437499999999994
40
0.499999999999994
40
0.562499999999993
40
0.562499999999993
40
0.624999999999993
40
0.624999999999993
40
0.687499999999993
40
0.687499999999993
40
0.749999999999992
40
0.749999999999992
40
0.874999999999994
40
0.874999999999994
40
0.937499999999997
40
0.937499999999997
40
1
40
1
40
1
40
1
41
1
10
9.63908060987831
20
1.68434766202142
30
0
41
1
10
9.65219718168441
20
1.73333945933231
30
0
41
1
10
9.66082945935381
20
1.78344509841904
30
0
41
1
10
9.66673960386291
20
1.86060237246068
30
0
41
1
10
9.66752816709885
20
1.88665795011744
30
0
41
1
10
9.66680113410331
20
1.92632789460933
30
0
41
1
10
9.6662374443099
20
1.93967980853037
30
0
41
1
10
9.66444752035108
20
1.96645373589936
30
0
41
1
10
9.66322574193606
20
1.97983218994011
30
0
41
1
10
9.65546492751764
20
2.04669454190548
30
0
41
1
10
9.64404179518363
20
2.10008943649984
30
0
41
1
10
9.62229899372699
20
2.16691137545041
30
0
41
1
10
9.6175624984169
20
2.18029619322397
30
0
41
1
10
9.60746699501635
20
2.20664783699343
30
0
41
1
10
9.59134135813267
20
2.24570599295987
30
0
41
1
10
9.5596070031321
20
2.3084860666201
30
0
41
1
10
9.52900083982058
20
2.35622468257731
30
0
41
1
10
9.49568195101403
20
2.40266973154834
30
0
41
1
10
9.47806732351424
20
2.42468639526439
30
0
41
1
10
9.4410856246885
20
2.46644921702455
30
0
41
1
10
9.42171209313381
20
2.48620299133179
30
0
41
1
10
9.38124673836103
20
2.52356030532874
30
0
41
1
10
9.36007212057172
20
2.54120685939856
30
0
41
1
10
9.29554743759317
20
2.58987304287518
30
0
41
1
10
9.25075848863224
20
2.61713984837411
30
0
41
1
10
9.18096243843473
20
2.65129244272197
30
0
41
1
10
9.15718079820059
20
2.66156587395227
30
0
41
1
10
9.1091404884599
20
2.67971938119675
30
0
41
1
10
9.08490240323596
20
2.68760206652434
30
0
41
1
10
9.06043620331886
20
2.69433803045317
30
0
0
SPLINE
5
F2
100
AcDbEntity
8
1
62
256
6
ByLayer
370
18
48
1
60
0
100
AcDbSpline
70
4
71
3
72
26
73
22
40
0
40
0
40
0
40
0
40
0.124999999999955
40
0.124999999999955
40
0.24999999999991
40
0.24999999999991
40
0.312499999999886
40
0.312499999999886
40
0.374999999999862
40
0.374999999999862
40
0.499999999999863
40
0.499999999999863
40
0.562499999999856
40
0.562499999999856
40
0.624999999999848
40
0.624999999999848
40
0.749999999999899
40
0.749999999999899
40
0.874999999999949
40
0.874999999999949
40
1
40
1
40
1
40
1
41
1
10
8.8180316434632
20
3.01250000000002
30
0
41
1
10
8.8180316434632
20
2.99375791612033
30
0
41
1
10
8.81966884795861
20
2.97470997587902
30
0
41
1
10
8.82604636278023
20
2.93782945414566
30
0
41
1
10
8.83075885179767
20
2.91985316252067
30
0
41
1
10
8.84006625736004
20
2.8935727694392
30
0
41
1
10
8.84356411836785
20
2.88488638943707
30
0
41
1
10
8.85119751322713
20
2.86801745238404
30
0
41
1
10
8.85533254419832
20
2.85982260448418
30
0
41
1
10
8.86864931404747
20
2.83592674818053
30
0
41
1
10
8.87873708096981
20
2.82091006307547
30
0
41
1
10
8.89562693637697
20
2.79972446059162
30
0
41
1
10
8.90153902607875
20
2.79290808143094
30
0
41
1
10
8.91373427162034
20
2.7799404104893
30
0
41
1
10
8.92004034667784
20
2.77375961722882
30
0
41
1
10
8.93955529068739
20
2.7560909177987
30
0
41
1
10
8.95335751580114
20
2.74547172902894
30
0
41
1
10
8.98248611022325
20
2.72649861905387
30
0
41
1
10
8.99755434927695
20
2.71831884119544
30
0
41
1
10
9.02841389576329
20
2.70447798017608
30
0
41
1
10
9.04423675397507
20
2.6987980163446
30
0
41
1
10
9.06043620331883
20
2.69433803045317
30
0
0
SPLINE
5
F3
100
AcDbEntity
8
1
62
256
6
ByLayer
370
18
48
1
60
0
100
AcDbSpline
70
4
71
3
72
24
73
20
40
0
40
0
40
0
40
0
40
0.0625000000000086
40
0.0625000000000086
40
0.125000000000017
40
0.125000000000017
40
0.249999999999969
40
0.249999999999969
40
0.312499999999977
40
0.312499999999977
40
0.374999999999984
40
0.374999999999984
40
0.499999999999983
40
0.499999999999983
40
0.624999999999983
40
0.624999999999983
40
0.749999999999982
40
0.749999999999982
40
1
40
1
40
1
40
1
41
1
10
9.79095475386799
20
1.31431894166025
30
0
41
1
10
9.78285303365004
20
1.31906866217758
30
0
41
1
10
9.77488183423583
20
1.32421021101354
30
0
41
1
10
9.75943857776227
20
1.335144678414
30
0
41
1
10
9.75201394832641
20
1.34089917222508
30
0
41
1
10
9.73059889183551
20
1.35899294359498
30
0
41
1
10
9.7174614039381
20
1.37215689466413
30
0
41
1
10
9.69945116548698
20
1.39353962716024
30
0
41
1
10
9.69372628900734
20
1.40095687907947
30
0
41
1
10
9.68306072996461
20
1.41604298115979
30
0
41
1
10
9.67808910894848
20
1.42374583148322
30
0
41
1
10
9.66421641310296
20
1.44731343844973
30
0
41
1
10
9.6563509257347
20
1.46363444393364
30
0
41
1
10
9.64334131590323
20
1.49746234995842
30
0
41
1
10
9.63836658256136
20
1.51452660510404
30
0
41
1
10
9.63120765097989
20
1.54889700224038
30
0
41
1
10
9.62902233654458
20
1.56626294125198
30
0
41
1
10
9.6265924334171
20
1.61833055586999
30
0
41
1
10
9.6303923516943
20
1.65189608929154
30
0
41
1
10
9.63908060987831
20
1.68434766202142
30
0
0
SPLINE
5
F4
100
AcDbEntity
8
1
62
256
6
ByLayer
370
18
48
1
60
0
100
AcDbSpline
70
4
71
2
72
9
73
6
40
0
40
0
40
0
40
0.25
40
0.5
40
0.75
40
1
40
1
40
1
41
1
10
32.1865316434632
20
8.89019703718
30
0
41
1
10
32.186422403971
20
8.93146357506956
30
0
41
1
10
32.1540287579039
20
9.00702562113921
30
0
41
1
10
32.094377883876
20
9.06353882269863
30
0
41
1
10
32.0171345856394
20
9.09219443568256
30
0
41
1
10
31.9749026778032
20
9.08985866884302
30
0
0
SPLINE
5
F5
100
AcDbEntity
8
1
62
256
6
ByLayer
370
18
48
1
60
0
100
AcDbSpline
70
4
71
11
72
24
73
12
40
0
40
0
40
0
40
0
40
0
40
0
40
0
40
0
40
0
40
0
40
0
40
0
40
1
40
1
40
1
40
1
40
1
40
1
40
1
40
1
40
1
40
1
40
1
40
1
41
1
10
32.1865316434593
20
7.73480296281875
30
0
41
1
10
32.1865316434593
20
7.70518525410674
30
0
41
1
10
32.1817069955293
20
7.67556754758175
30
0
41
1
10
32.1720577009093
20
7.64682308204775
30
0
41
1
10
32.1577615695193
20
7.61982511881476
30
0
41
1
10
32.1391742281193
20
7.59540551450974
30
0
41
1
10
32.1168178768293
20
7.57431338469576
30
0
41
1
10
32.0913588294393
20
7.55717736308975
30
0
41
1
10
32.0635752929493
20
7.54447521137874
30
0
41
1
10
32.0343184061693
20
7.53651358307076
30
0
41
1
10
32.0044702778293
20
7.53341921459074
30
0
41
1
10
31.9749026777993
20
7.53514133115576
30
0
0
SPLINE
5
F6
100
AcDbEntity
8
1
62
256
6
ByLayer
370
18
48
1
60
0
100
AcDbSpline
70
4
71
11
72
24
73
12
40
0
40
0
40
0
40
0
40
0
40
0
40
0
40
0
40
0
40
0
40
0
40
0
40
1
40
1
40
1
40
1
40
1
40
1
40
1
40
1
40
1
40
1
40
1
40
1
41
1
10
18.1865316434671
20
8.89019703718128
30
0
41
1
10
18.1865316434671
20
8.91981474589326
30
0
41
1
10
18.1913562913971
20
8.94943245241828
30
0
41
1
10
18.2010055860171
20
8.97817691795228
30
0
41
1
10
18.2153017174071
20
9.00517488118527
30
0
41
1
10
18.2338890588071
20
9.02959448549026
30
0
41
1
10
18.2562454100971
20
9.05068661530427
30
0
41
1
10
18.2817044574871
20
9.06782263691028
30
0
41
1
10
18.3094879939771
20
9.08052478862126
30
0
41
1
10
18.3387448807571
20
9.08848641692927
30
0
41
1
10
18.3685930090971
20
9.09158078540926
30
0
41
1
10
18.3981606091271
20
9.08985866884427
30
0
0
SPLINE
5
F7
100
AcDbEntity
8
1
62
256
6
ByLayer
370
18
48
1
60
0
100
AcDbSpline
70
4
71
2
72
9
73
6
40
0
40
0
40
0
40
0.25
40
0.5
40
0.75
40
1
40
1
40
1
41
1
10
18.1865316434632
20
7.73480296282
30
0
41
1
10
18.1866408829554
20
7.69353642493047
30
0
41
1
10
18.2190345290225
20
7.61797437886082
30
0
41
1
10
18.2786854030505
20
7.56146117730137
30
0
41
1
10
18.355928701287
20
7.53280556431747
30
0
41
1
10
18.3981606091232
20
7.53514133115701
30
0
0
SPLINE
5
F8
100
AcDbEntity
8
1
62
256
6
ByLayer
370
18
48
1
60
0
100
AcDbSpline
70
4
71
2
72
6
73
3
40
0
40
0
40
0
40
1
40
1
40
1
41
1
10
20.9245760097932
20
8.92750000000001
30
0
41
1
10
20.8974085789876
20
8.92758148075947
30
0
41
1
10
20.8712538980832
20
8.93431483481001
30
0
0
SPLINE
5
F9
100
AcDbEntity
8
1
62
256
6
ByLayer
370
18
48
1
60
0
100
AcDbSpline
70
4
71
3
72
8
73
4
40
0
40
0
40
0
40
0
40
1
40
1
40
1
40
1
41
1
10
20.5923931723333
20
9.00257405205528
30
0
41
1
10
20.6059620328921
20
9.00188507565389
30
0
41
1
10
20.6194498694308
20
8.999811652087
30
0
41
1
10
20.6325791467797
20
8.99639856670845
30
0
0
SPLINE
5
FA
100
AcDbEntity
8
1
62
256
6
ByLayer
370
18
48
1
60
0
100
AcDbSpline
70
4
71
2
72
6
73
3
40
0
40
0
40
0
40
1
40
1
40
1
41
1
10
20.5923931723332
20
7.622425947945
30
0
41
1
10
20.6128606290677
20
7.62352922009885
30
0
41
1
10
20.6325791467832
20
7.628601433292
30
0
0
SPLINE
5
FB
100
AcDbEntity
8
1
62
256
6
ByLayer
370
18
48
1
60
0
100
AcDbSpline
70
4
71
3
72
8
73
4
40
0
40
0
40
0
40
0
40
1
40
1
40
1
40
1
41
1
10
20.924576009791
20
7.69750000000002
30
0
41
1
10
20.906603282895
20
7.69750000000002
30
0
41
1
10
20.8886319184494
20
7.69520240969896
30
0
41
1
10
20.8712538980827
20
7.69068516519172
30
0
0
SPLINE
5
FC
100
AcDbEntity
8
1
62
256
6
ByLayer
370
18
48
1
60
0
100
AcDbSpline
70
4
71
2
72
6
73
3
40
0
40
0
40
0
40
1
40
1
40
1
41
1
10
29.4484872771333
20
7.69750000000002
30
0
41
1
10
29.4756547079389
20
7.69741851924056
30
0
41
1
10
29.5018093888432
20
7.69068516519002
30
0
0
SPLINE
5
FD
100
AcDbEntity
8
1
62
256
6
ByLayer
370
18
48
1
60
0
100
AcDbSpline
70
4
71
3
72
8
73
4
40
0
40
0
40
0
40
0
40
1
40
1
40
1
40
1
41
1
10
29.7806701145933
20
7.62242594794478
30
0
41
1
10
29.7671012540345
20
7.62311492434603
30
0
41
1
10
29.7536134174956
20
7.62518834791302
30
0
41
1
10
29.7404841401468
20
7.62860143329158
30
0
0
SPLINE
5
FE
100
AcDbEntity
8
1
62
256
6
ByLayer
370
18
48
1
60
0
100
AcDbSpline
70
4
71
2
72
6
73
3
40
0
40
0
40
0
40
1
40
1
40
1
41
1
10
29.7806701145932
20
9.00257405205502
30
0
41
1
10
29.7602026578587
20
9.00147077990115
30
0
41
1
10
29.7404841401432
20
8.996398566708
30
0
0
SPLINE
5
FF
100
AcDbEntity
8
1
62
256
6
ByLayer
370
18
48
1
60
0
100
AcDbSpline
70
4
71
3
72
8
73
4
40
0
40
0
40
0
40
0
40
1
40
1
40
1
40
1
41
1
10
29.4484872771354
20
8.92750000000001
30
0
41
1
10
29.4664600040314
20
8.92750000000001
30
0
41
1
10
29.4844313684771
20
8.92979759030126
30
0
41
1
10
29.5018093888437
20
8.93431483480825
30
0
0
SPLINE
5
100
100
AcDbEntity
8
1
62
256
6
ByLayer
370
18
48
1
60
0
100
AcDbSpline
70
4
71
8
72
18
73
9
40
0
40
0
40
0
40
0
40
0
40
0
40
0
40
0
40
0
40
1
40
1
40
1
40
1
40
1
40
1
40
1
40
1
40
1
41
1
10
28.1168362955932
20
7.69750000000002
30
0
41
1
10
28.1222263162932
20
7.69750000000002
30
0
41
1
10
28.1276163369732
20
7.69750000000002
30
0
41
1
10
28.1330054031532
20
7.69750000000002
30
0
41
1
10
28.1383925603932
20
7.69750000000002
30
0
41
1
10
28.1437768545732
20
7.69750000000002
30
0
41
1
10
28.1491573322832
20
7.69750000000002
30
0
41
1
10
28.1545330412032
20
7.69750000000002
30
0
41
1
10
28.1599030304132
20
7.69750000000002
30
0
0
SPLINE
5
101
100
AcDbEntity
8
1
62
256
6
ByLayer
370
18
48
1
60
0
100
AcDbSpline
70
4
71
8
72
18
73
9
40
0
40
0
40
0
40
0
40
0
40
0
40
0
40
0
40
0
40
1
40
1
40
1
40
1
40
1
40
1
40
1
40
1
40
1
41
1
10
22.2562269913332
20
8.92750000000001
30
0
41
1
10
22.2508369706332
20
8.92750000000001
30
0
41
1
10
22.2454469499532
20
8.92750000000001
30
0
41
1
10
22.2400578837732
20
8.92750000000001
30
0
41
1
10
22.2346707265332
20
8.92750000000001
30
0
41
1
10
22.2292864323532
20
8.92750000000001
30
0
41
1
10
22.2239059546432
20
8.92750000000001
30
0
41
1
10
22.2185302457232
20
8.92750000000001
30
0
41
1
10
22.2131602565132
20
8.92750000000001
30
0
0
SPLINE
5
102
100
AcDbEntity
8
1
62
256
6
ByLayer
370
18
48
1
60
0
100
AcDbSpline
70
4
71
8
72
18
73
9
40
0
40
0
40
0
40
0
40
0
40
0
40
0
40
0
40
0
40
1
40
1
40
1
40
1
40
1
40
1
40
1
40
1
40
1
41
1
10
22.2562269913332
20
7.69750000000002
30
0
41
1
10
22.2508369706332
20
7.69750000000002
30
0
41
1
10
22.2454469499532
20
7.69750000000002
30
0
41
1
10
22.2400578837732
20
7.69750000000002
30
0
41
1
10
22.2346707265332
20
7.69750000000002
30
0
41
1
10
22.2292864323532
20
7.69750000000002
30
0
41
1
10
22.2239059546432
20
7.69750000000002
30
0
41
1
10
22.2185302457232
20
7.69750000000002
30
0
41
1
10
22.2131602565132
20
7.69750000000002
30
0
0
SPLINE
5
103
100
AcDbEntity
8
1
62
256
6
ByLayer
370
18
48
1
60
0
100
AcDbSpline
70
4
71
5
72
12
73
6
40
0
40
0
40
0
40
0
40
0
40
0
40
1
40
1
40
1
40
1
40
1
40
1
41
1
10
28.1168362955932
20
8.7775
30
0
41
1
10
28.1255403602532
20
8.777500005788
30
0
41
1
10
28.1342437222332
20
8.77697962053102
30
0
41
1
10
28.1428996633632
20
8.775938991369
30
0
41
1
10
28.1514648366732
20
8.77439897382303
30
0
41
1
10
28.1599030304132
20
8.77239464695901
30
0
0
SPLINE
5
104
100
AcDbEntity
8
1
62
256
6
ByLayer
370
18
48
1
60
0
100
AcDbSpline
70
4
71
8
72
18
73
9
40
0
40
0
40
0
40
0
40
0
40
0
40
0
40
0
40
0
40
1
40
1
40
1
40
1
40
1
40
1
40
1
40
1
40
1
41
1
10
28.1168362955932
20
8.92750000000001
30
0
41
1
10
28.1222263162932
20
8.92750000000001
30
0
41
1
10
28.1276163369732
20
8.92750000000001
30
0
41
1
10
28.1330054031532
20
8.92750000000001
30
0
41
1
10
28.1383925603932
20
8.92750000000001
30
0
41
1
10
28.1437768545732
20
8.92750000000001
30
0
41
1
10
28.1491573322832
20
8.92750000000001
30
0
41
1
10
28.1545330412032
20
8.92750000000001
30
0
41
1
10
28.1599030304132
20
8.92750000000001
30
0
0
SPLINE
5
105
100
AcDbEntity
8
1
62
256
6
ByLayer
370
18
48
1
60
0
100
AcDbSpline
70
4
71
5
72
12
73
6
40
0
40
0
40
0
40
0
40
0
40
0
40
1
40
1
40
1
40
1
40
1
40
1
41
1
10
28.1168362955932
20
7.8475
30
0
41
1
10
28.1255403602532
20
7.847499994212
30
0
41
1
10
28.1342437222332
20
7.84802037946901
30
0
41
1
10
28.1428996633632
20
7.849061008631
30
0
41
1
10
28.1514648366732
20
7.850601026177
30
0
41
1
10
28.1599030304132
20
7.85260535304101
30
0
0
LINE
5
7F
100
AcDbEntity
8
81
62
256
6
ByLayer
370
18
48
1
60
0
100
AcDbLine
10
32.186532
20
9.0625
30
0
11
37.186532
21
9.0625
31
0
39
0
210
0
220
0
230
1
0
LINE
5
80
100
AcDbEntity
8
80
62
256
6
ByLayer
370
18
48
1
60
0
100
AcDbLine
10
0
20
0
30
0
11
-5
21
0
31
0
39
0
210
0
220
0
230
1
0
LINE
5
81
100
AcDbEntity
8
1
62
256
6
ByLayer
370
18
48
1
60
0
100
AcDbLine
10
0
20
8.51149
30
0
11
0
21
-7.939981
31
0
39
0
210
0
220
0
230
1
0
LINE
5
82
100
AcDbEntity
8
1
62
256
6
ByLayer
370
18
48
1
60
0
100
AcDbLine
10
0.380097
20
8.8125
30
0
11
0.198592
21
8.8125
31
0
39
0
210
0
220
0
230
1
0
LINE
5
83
100
AcDbEntity
8
1
62
256
6
ByLayer
370
18
48
1
60
0
100
AcDbLine
10
27.588135
20
7.8125
30
0
11
24.186532
21
7.8125
31
0
39
0
210
0
220
0
230
1
0
LINE
5
84
100
AcDbEntity
8
1
62
256
6
ByLayer
370
18
48
1
60
0
100
AcDbLine
10
24.186532
20
8.8125
30
0
11
27.588135
21
8.8125
31
0
39
0
210
0
220
0
230
1
0
LINE
5
85
100
AcDbEntity
8
1
62
256
6
ByLayer
370
18
48
1
60
0
100
AcDbLine
10
15.586532
20
0.245657
30
0
11
7.956037
21
-7.970334
31
0
39
0
210
0
220
0
230
1
0
LINE
5
86
100
AcDbEntity
8
1
62
256
6
ByLayer
370
18
48
1
60
0
100
AcDbLine
10
2.014978
20
-7.970334
30
0
11
7.956037
21
-7.970334
31
0
39
0
210
0
220
0
230
1
0
LINE
5
87
100
AcDbEntity
8
1
62
256
6
ByLayer
370
18
48
1
60
0
100
AcDbLine
10
15.586532
20
6.2125
30
0
11
15.586532
21
0.245657
31
0
39
0
210
0
220
0
230
1
0
LINE
5
88
100
AcDbEntity
8
1
62
256
6
ByLayer
370
18
48
1
60
0
100
AcDbLine
10
19.330828
20
7.8125
30
0
11
17.186532
21
7.8125
31
0
39
0
210
0
220
0
230
1
0
LINE
5
89
100
AcDbEntity
8
1
62
256
6
ByLayer
370
18
48
1
60
0
100
AcDbLine
10
19.330828
20
8.8125
30
0
11
2.014978
21
8.8125
31
0
39
0
210
0
220
0
230
1
0
LINE
5
8A
100
AcDbEntity
8
1
62
256
6
ByLayer
370
18
48
1
60
0
100
AcDbLine
10
0.380097
20
-7.943711
30
0
11
2.014978
21
-7.970334
31
0
39
0
210
0
220
0
230
1
0
LINE
5
8B
100
AcDbEntity
8
1
62
256
6
ByLayer
370
18
48
1
60
0
100
AcDbLine
10
2.014978
20
8.8125
30
0
11
0.380097
21
8.8125
31
0
39
0
210
0
220
0
230
1
0
LINE
5
8C
100
AcDbEntity
8
1
62
256
6
ByLayer
370
13
48
1
60
0
100
AcDbLine
10
0.380097
20
-7.943711
30
0
11
0.380097
21
8.8125
31
0
39
0
210
0
220
0
230
1
0
LINE
5
8D
100
AcDbEntity
8
1
62
256
6
ByLayer
370
18
48
1
60
0
100
AcDbLine
10
2.014978
20
8.8125
30
0
11
2.014978
21
-7.970334
31
0
39
0
210
0
220
0
230
1
0
LINE
5
8E
100
AcDbEntity
8
1
62
256
6
ByLayer
370
18
48
1
60
0
100
AcDbLine
10
24.186532
20
7.8125
30
0
11
19.330828
21
7.8125
31
0
39
0
210
0
220
0
230
1
0
LINE
5
8F
100
AcDbEntity
8
1
62
256
6
ByLayer
370
18
48
1
60
0
100
AcDbLine
10
24.186532
20
8.8125
30
0
11
24.186532
21
7.8125
31
0
39
0
210
0
220
0
230
1
0
LINE
5
90
100
AcDbEntity
8
1
62
256
6
ByLayer
370
18
48
1
60
0
100
AcDbLine
10
19.330828
20
8.8125
30
0
11
24.186532
21
8.8125
31
0
39
0
210
0
220
0
230
1
0
LINE
5
91
100
AcDbEntity
8
1
62
256
6
ByLayer
370
18
48
1
60
0
100
AcDbLine
10
19.330828
20
7.8125
30
0
11
19.330828
21
8.8125
31
0
39
0
210
0
220
0
230
1
0
LINE
5
92
100
AcDbEntity
8
SK1
62
256
6
ByLayer
370
18
48
1
60
0
100
AcDbLine
10
-92.813468
20
-7.9375
30
0
11
-4.557288
21
-7.9375
31
0
39
0
210
0
220
0
230
1
0
LINE
5
94
100
AcDbEntity
8
SK1
62
256
6
ByLayer
370
18
48
1
60
0
100
AcDbLine
10
-92.813468
20
7.9375
30
0
11
-4.557288
21
7.9375
31
0
39
0
210
0
220
0
230
1
0
LINE
5
95
100
AcDbEntity
8
SK1
62
256
6
ByLayer
370
18
48
1
60
0
100
AcDbLine
10
-92.813468
20
-7.9375
30
0
11
-92.813468
21
7.9375
31
0
39
0
210
0
220
0
230
1
0
LINE
5
96
100
AcDbEntity
8
SK1
62
256
6
ByLayer
370
18
48
1
60
0
100
AcDbLine
10
0
20
8.51149
30
0
11
0
21
-7.939981
31
0
39
0
210
0
220
0
230
1
0
LINE
5
97
100
AcDbEntity
8
SK1
62
256
6
ByLayer
370
18
48
1
60
0
100
AcDbLine
10
-4.557288
20
7.9375
30
0
11
-1.227723
21
7.9375
31
0
39
0
210
0
220
0
230
1
0
LINE
5
98
100
AcDbEntity
8
SK1
62
256
6
ByLayer
370
18
48
1
60
0
100
AcDbLine
10
-4.557288
20
7.9375
30
0
11
-4.557288
21
-7.9375
31
0
39
0
210
0
220
0
230
1
0
LINE
5
99
100
AcDbEntity
8
1
62
256
6
ByLayer
370
18
48
1
60
0
100
AcDbLine
10
31.974904
20
9.089859
30
0
11
30.771375
21
9.019761
31
0
39
0
210
0
220
0
230
1
0
LINE
5
9A
100
AcDbEntity
8
1
62
256
6
ByLayer
370
18
48
1
60
0
100
AcDbLine
10
31.974904
20
7.535141
30
0
11
30.771375
21
7.605239
31
0
39
0
210
0
220
0
230
1
0
LINE
5
9B
100
AcDbEntity
8
1
62
256
6
ByLayer
370
18
48
1
60
0
100
AcDbLine
10
32.186532
20
7.734802
30
0
11
32.186532
21
8.890198
31
0
39
0
210
0
220
0
230
1
0
LINE
5
9C
100
AcDbEntity
8
1
62
256
6
ByLayer
370
18
48
1
60
0
100
AcDbLine
10
18.39816
20
9.089859
30
0
11
19.601688
21
9.019761
31
0
39
0
210
0
220
0
230
1
0
LINE
5
9D
100
AcDbEntity
8
1
62
256
6
ByLayer
370
18
48
1
60
0
100
AcDbLine
10
18.39816
20
7.535141
30
0
11
19.601688
21
7.605239
31
0
39
0
210
0
220
0
230
1
0
LINE
5
9E
100
AcDbEntity
8
1
62
256
6
ByLayer
370
18
48
1
60
0
100
AcDbLine
10
18.186532
20
7.734802
30
0
11
18.186532
21
7.812502
31
0
39
0
210
0
220
0
230
1
0
LINE
5
9F
100
AcDbEntity
8
1
62
256
6
ByLayer
370
18
48
1
60
0
100
AcDbLine
10
18.186532
20
8.812498
30
0
11
18.186532
21
8.890198
31
0
39
0
210
0
220
0
230
1
0
LINE
5
A0
100
AcDbEntity
8
1
62
256
6
ByLayer
370
18
48
1
60
0
100
AcDbLine
10
19.601688
20
9.019761
30
0
11
20.014843
21
9.031844
31
0
39
0
210
0
220
0
230
1
0
LINE
5
A1
100
AcDbEntity
8
1
62
256
6
ByLayer
370
18
48
1
60
0
100
AcDbLine
10
19.601688
20
7.605239
30
0
11
20.014843
21
7.593156
31
0
39
0
210
0
220
0
230
1
0
LINE
5
A2
100
AcDbEntity
8
1
62
256
6
ByLayer
370
18
48
1
60
0
100
AcDbLine
10
19.601688
20
7.605239
30
0
11
19.601688
21
7.812511
31
0
39
0
210
0
220
0
230
1
0
LINE
5
A3
100
AcDbEntity
8
1
62
256
6
ByLayer
370
18
48
1
60
0
100
AcDbLine
10
19.601688
20
8.812489
30
0
11
19.601688
21
9.019761
31
0
39
0
210
0
220
0
230
1
0
LINE
5
A4
100
AcDbEntity
8
1
62
256
6
ByLayer
370
18
48
1
60
0
100
AcDbLine
10
30.771375
20
9.019761
30
0
11
30.35822
21
9.031844
31
0
39
0
210
0
220
0
230
1
0
LINE
5
A5
100
AcDbEntity
8
1
62
256
6
ByLayer
370
18
48
1
60
0
100
AcDbLine
10
30.771375
20
7.605239
30
0
11
30.35822
21
7.593156
31
0
39
0
210
0
220
0
230
1
0
LINE
5
A6
100
AcDbEntity
8
1
62
256
6
ByLayer
370
18
48
1
60
0
100
AcDbLine
10
30.771375
20
7.605239
30
0
11
30.771375
21
9.019761
31
0
39
0
210
0
220
0
230
1
0
LINE
5
A7
100
AcDbEntity
8
1
62
256
6
ByLayer
370
18
48
1
60
0
100
AcDbLine
10
20.924576
20
7.6975
30
0
11
22.21316
21
7.6975
31
0
39
0
210
0
220
0
230
1
0
LINE
5
A8
100
AcDbEntity
8
1
62
256
6
ByLayer
370
18
48
1
60
0
100
AcDbLine
10
20.924576
20
8.9275
30
0
11
22.21316
21
8.9275
31
0
39
0
210
0
220
0
230
1
0
LINE
5
A9
100
AcDbEntity
8
1
62
256
6
ByLayer
370
18
48
1
60
0
100
AcDbLine
10
20.871254
20
8.934315
30
0
11
20.632579
21
8.996399
31
0
39
0
210
0
220
0
230
1
0
LINE
5
AA
100
AcDbEntity
8
1
62
256
6
ByLayer
370
18
48
1
60
0
100
AcDbLine
10
20.592393
20
9.002574
30
0
11
20.014843
21
9.031844
31
0
39
0
210
0
220
0
230
1
0
LINE
5
AB
100
AcDbEntity
8
1
62
256
6
ByLayer
370
18
48
1
60
0
100
AcDbLine
10
20.014843
20
7.593156
30
0
11
20.014843
21
7.812511
31
0
39
0
210
0
220
0
230
1
0
LINE
5
AC
100
AcDbEntity
8
1
62
256
6
ByLayer
370
18
48
1
60
0
100
AcDbLine
10
20.014843
20
8.812489
30
0
11
20.014843
21
9.031844
31
0
39
0
210
0
220
0
230
1
0
LINE
5
AD
100
AcDbEntity
8
1
62
256
6
ByLayer
370
18
48
1
60
0
100
AcDbLine
10
20.592393
20
7.622426
30
0
11
20.014843
21
7.593156
31
0
39
0
210
0
220
0
230
1
0
LINE
5
AE
100
AcDbEntity
8
1
62
256
6
ByLayer
370
18
48
1
60
0
100
AcDbLine
10
20.871254
20
7.690685
30
0
11
20.632579
21
7.628601
31
0
39
0
210
0
220
0
230
1
0
LINE
5
AF
100
AcDbEntity
8
1
62
256
6
ByLayer
370
18
48
1
60
0
100
AcDbLine
10
29.448487
20
7.6975
30
0
11
28.159903
21
7.6975
31
0
39
0
210
0
220
0
230
1
0
LINE
5
B0
100
AcDbEntity
8
1
62
256
6
ByLayer
370
18
48
1
60
0
100
AcDbLine
10
29.448487
20
8.9275
30
0
11
28.159903
21
8.9275
31
0
39
0
210
0
220
0
230
1
0
LINE
5
B1
100
AcDbEntity
8
1
62
256
6
ByLayer
370
18
48
1
60
0
100
AcDbLine
10
29.501809
20
7.690685
30
0
11
29.740484
21
7.628601
31
0
39
0
210
0
220
0
230
1
0
LINE
5
B2
100
AcDbEntity
8
1
62
256
6
ByLayer
370
18
48
1
60
0
100
AcDbLine
10
29.78067
20
7.622426
30
0
11
30.35822
21
7.593156
31
0
39
0
210
0
220
0
230
1
0
LINE
5
B3
100
AcDbEntity
8
1
62
256
6
ByLayer
370
18
48
1
60
0
100
AcDbLine
10
30.35822
20
7.593156
30
0
11
30.35822
21
9.031844
31
0
39
0
210
0
220
0
230
1
0
LINE
5
B4
100
AcDbEntity
8
1
62
256
6
ByLayer
370
18
48
1
60
0
100
AcDbLine
10
29.78067
20
9.002574
30
0
11
30.35822
21
9.031844
31
0
39
0
210
0
220
0
230
1
0
LINE
5
B5
100
AcDbEntity
8
1
62
256
6
ByLayer
370
18
48
1
60
0
100
AcDbLine
10
29.501809
20
8.934315
30
0
11
29.740484
21
8.996399
31
0
39
0
210
0
220
0
230
1
0
LINE
5
B6
100
AcDbEntity
8
1
62
256
6
ByLayer
370
18
48
1
60
0
100
AcDbLine
10
28.116836
20
8.9275
30
0
11
22.256227
21
8.9275
31
0
39
0
210
0
220
0
230
1
0
LINE
5
B7
100
AcDbEntity
8
1
62
256
6
ByLayer
370
18
48
1
60
0
100
AcDbLine
10
28.116836
20
7.6975
30
0
11
22.256227
21
7.6975
31
0
39
0
210
0
220
0
230
1
0
LINE
5
B8
100
AcDbEntity
8
1
62
256
6
ByLayer
370
13
48
1
60
0
100
AcDbLine
10
28.116836
20
7.8475
30
0
11
28.116836
21
7.6975
31
0
39
0
210
0
220
0
230
1
0
LINE
5
B9
100
AcDbEntity
8
1
62
256
6
ByLayer
370
13
48
1
60
0
100
AcDbLine
10
28.159903
20
7.852605
30
0
11
28.159903
21
7.6975
31
0
39
0
210
0
220
0
230
1
0
LINE
5
BA
100
AcDbEntity
8
1
62
256
6
ByLayer
370
13
48
1
60
0
100
AcDbLine
10
22.256227
20
8.812502
30
0
11
22.256227
21
8.9275
31
0
39
0
210
0
220
0
230
1
0
LINE
5
BB
100
AcDbEntity
8
1
62
256
6
ByLayer
370
13
48
1
60
0
100
AcDbLine
10
22.21316
20
8.812501
30
0
11
22.21316
21
8.9275
31
0
39
0
210
0
220
0
230
1
0
LINE
5
BC
100
AcDbEntity
8
1
62
256
6
ByLayer
370
13
48
1
60
0
100
AcDbLine
10
22.21316
20
7.812499
30
0
11
22.21316
21
7.6975
31
0
39
0
210
0
220
0
230
1
0
LINE
5
BD
100
AcDbEntity
8
1
62
256
6
ByLayer
370
13
48
1
60
0
100
AcDbLine
10
22.256227
20
7.812498
30
0
11
22.256227
21
7.6975
31
0
39
0
210
0
220
0
230
1
0
LINE
5
BE
100
AcDbEntity
8
1
62
256
6
ByLayer
370
18
48
1
60
0
100
AcDbLine
10
28.116836
20
8.7775
30
0
11
27.597898
21
8.7775
31
0
39
0
210
0
220
0
230
1
0
LINE
5
BF
100
AcDbEntity
8
1
62
256
6
ByLayer
370
13
48
1
60
0
100
AcDbLine
10
27.690035
20
8.415106
30
0
11
29.66407
21
8.415106
31
0
39
0
210
0
220
0
230
1
0
LINE
5
C0
100
AcDbEntity
8
1
62
256
6
ByLayer
370
18
48
1
60
0
100
AcDbLine
10
28.159903
20
8.772395
30
0
11
29.66407
21
8.415106
31
0
39
0
210
0
220
0
230
1
0
LINE
5
C1
100
AcDbEntity
8
1
62
256
6
ByLayer
370
13
48
1
60
0
100
AcDbLine
10
28.159903
20
8.772395
30
0
11
28.159903
21
8.9275
31
0
39
0
210
0
220
0
230
1
0
LINE
5
C2
100
AcDbEntity
8
1
62
256
6
ByLayer
370
13
48
1
60
0
100
AcDbLine
10
28.116836
20
8.7775
30
0
11
28.116836
21
8.9275
31
0
39
0
210
0
220
0
230
1
0
LINE
5
C3
100
AcDbEntity
8
1
62
256
6
ByLayer
370
18
48
1
60
0
100
AcDbLine
10
28.159903
20
7.852605
30
0
11
29.66407
21
8.209894
31
0
39
0
210
0
220
0
230
1
0
LINE
5
C4
100
AcDbEntity
8
1
62
256
6
ByLayer
370
13
48
1
60
0
100
AcDbLine
10
27.691015
20
8.209894
30
0
11
29.66407
21
8.209894
31
0
39
0
210
0
220
0
230
1
0
LINE
5
C5
100
AcDbEntity
8
1
62
256
6
ByLayer
370
18
48
1
60
0
100
AcDbLine
10
28.116836
20
7.8475
30
0
11
27.597898
21
7.8475
31
0
39
0
210
0
220
0
230
1
0
MTEXT
5
106
100
AcDbEntity
8
SK6
62
256
6
ByLayer
370
18
48
1
60
0
100
AcDbMText
10
-62.627968
20
-53.654495
30
0
210
0
220
0
230
1
1
\W0.7404;C2R-RS16-RD15DB
40
3.5
41
0
44
1.084337
50
0
71
7
72
5
7
iso_b_vert
0
DIMENSION
5
10B
100
AcDbEntity
8
2
62
256
6
ByLayer
370
18
48
1
60
0
100
AcDbDimension
2
_U0
10
59.936532
20
-7.9375
30
0
11
59.936532
21
0.5625
31
0
70
32
71
1
72
1
41
1
210
0
220
0
230
1
3
Standard
100
AcDbAlignedDimension
13
32.186532
23
9.0625
33
0
14
-92.813468
24
-7.9375
34
0
50
90
100
AcDbRotatedDimension
1001
ACAD
1000
DSTYLE
1002
{
1070
   371
1070
    13
1070
   372
1070
    13
1070
   170
1070
     0
1070
   144
1040
1.0
1070
   277
1070
     2
1070
   284
1070
     8
1070
   278
1070
    46
1070
   146
1040
1.0
1070
   345
1005
16
1070
   347
1005
16
1070
   346
1005
16
1070
   344
1005
0
1070
   343
1005
0
1070
   172
1070
     1
1070
    76
1070
     0
1070
    75
1070
     0
1070
   282
1070
     0
1070
   281
1070
     0
1070
    71
1070
     0
1070
    74
1070
     0
1070
   279
1070
     0
1070
   173
1070
     1
1070
   340
1005
107
1070
   271
1070
     2
1070
   272
1070
     2
1070
    77
1070
     1
1070
    73
1070
     0
1070
   171
1070
     3
1070
   274
1070
     4
1070
   177
1070
     2
1070
   176
1070
     2
1070
   178
1070
     2
1070
    78
1070
     8
1070
    48
1040
-0.1
1070
    41
1040
3.5
1070
   147
1040
1.75
1070
    42
1040
1.5875
1070
    44
1040
2.0
1070
   140
1040
3.5
1002
}
1001
ACAD_DSTYLE_DIM_LINETYPE
1070
   380
1005
16
1001
ACAD_DSTYLE_DIM_EXT1_LINETYPE
1070
   381
1005
16
1001
ACAD_DSTYLE_DIM_EXT2_LINETYPE
1070
   382
1005
16
0
DIMENSION
5
126
100
AcDbEntity
8
2
62
256
6
ByLayer
370
18
48
1
60
0
100
AcDbDimension
2
_U1
10
52.286532
20
9.0625
30
0
11
52.286532
21
8.3125
31
0
70
32
71
1
72
1
41
1
210
0
220
0
230
1
3
Standard
100
AcDbAlignedDimension
13
32.186532
23
7.5625
33
0
14
32.186532
24
9.0625
34
0
50
90
100
AcDbRotatedDimension
1001
ACAD
1000
DSTYLE
1002
{
1070
   371
1070
    13
1070
   372
1070
    13
1070
   170
1070
     0
1070
   144
1040
1.0
1070
   277
1070
     2
1070
   284
1070
     8
1070
   278
1070
    46
1070
   146
1040
1.0
1070
   345
1005
16
1070
   347
1005
16
1070
   346
1005
16
1070
   344
1005
0
1070
   343
1005
0
1070
   172
1070
     1
1070
    76
1070
     0
1070
    75
1070
     0
1070
   282
1070
     0
1070
   281
1070
     0
1070
    71
1070
     0
1070
    74
1070
     0
1070
   279
1070
     0
1070
   173
1070
     1
1070
   340
1005
107
1070
   271
1070
     2
1070
   272
1070
     2
1070
    77
1070
     1
1070
    73
1070
     0
1070
   171
1070
     3
1070
   274
1070
     4
1070
   177
1070
     2
1070
   176
1070
     2
1070
   178
1070
     2
1070
    78
1070
     8
1070
    48
1040
-0.1
1070
    41
1040
3.5
1070
   147
1040
1.75
1070
    42
1040
1.5875
1070
    44
1040
2.0
1070
   140
1040
3.5
1002
}
1001
ACAD_DSTYLE_DIM_LINETYPE
1070
   380
1005
16
1001
ACAD_DSTYLE_DIM_EXT1_LINETYPE
1070
   381
1005
16
1001
ACAD_DSTYLE_DIM_EXT2_LINETYPE
1070
   382
1005
16
0
DIMENSION
5
13F
100
AcDbEntity
8
SK2
62
256
6
ByLayer
370
18
48
1
60
0
100
AcDbDimension
2
_U2
10
-104.413468
20
8.0625
30
0
11
-104.413468
21
0.0625
31
0
70
32
71
1
72
1
41
1
210
0
220
0
230
1
3
Standard
100
AcDbAlignedDimension
13
-92.813468
23
-7.9375
33
0
14
-92.813468
24
8.0625
34
0
50
90
100
AcDbRotatedDimension
1001
ACAD
1000
DSTYLE
1002
{
1070
   371
1070
    13
1070
   372
1070
    13
1070
   170
1070
     0
1070
   144
1040
1.0
1070
   277
1070
     2
1070
   284
1070
     8
1070
   278
1070
    46
1070
   146
1040
1.0
1070
   345
1005
16
1070
   347
1005
16
1070
   346
1005
16
1070
   344
1005
0
1070
   343
1005
0
1070
   172
1070
     1
1070
    76
1070
     0
1070
    75
1070
     0
1070
   282
1070
     0
1070
   281
1070
     0
1070
    71
1070
     0
1070
    74
1070
     0
1070
   279
1070
     0
1070
   173
1070
     1
1070
   340
1005
107
1070
   271
1070
     2
1070
   272
1070
     2
1070
    77
1070
     1
1070
    73
1070
     0
1070
   171
1070
     3
1070
   274
1070
     4
1070
   177
1070
     2
1070
   176
1070
     2
1070
   178
1070
     2
1070
    78
1070
     8
1070
    48
1040
-0.1
1070
    41
1040
3.5
1070
   147
1040
1.75
1070
    42
1040
1.5875
1070
    44
1040
2.0
1070
   140
1040
3.5
1002
}
1001
ACAD_DSTYLE_DIM_LINETYPE
1070
   380
1005
16
1001
ACAD_DSTYLE_DIM_EXT1_LINETYPE
1070
   381
1005
16
1001
ACAD_DSTYLE_DIM_EXT2_LINETYPE
1070
   382
1005
16
0
DIMENSION
5
159
100
AcDbEntity
8
2
62
256
6
ByLayer
370
18
48
1
60
0
100
AcDbDimension
2
_U3
10
32.186532
20
-19.6875
30
0
11
24.686532
21
-19.6875
31
0
70
32
71
1
72
1
41
1
210
0
220
0
230
1
3
Standard
100
AcDbAlignedDimension
13
17.186532
23
7.8125
33
0
14
32.186532
24
9.0625
34
0
50
0
100
AcDbRotatedDimension
1001
ACAD
1000
DSTYLE
1002
{
1070
   371
1070
    13
1070
   372
1070
    13
1070
   170
1070
     0
1070
   144
1040
1.0
1070
   277
1070
     2
1070
   284
1070
     8
1070
   278
1070
    46
1070
   146
1040
1.0
1070
   345
1005
16
1070
   347
1005
16
1070
   346
1005
16
1070
   344
1005
0
1070
   343
1005
0
1070
   172
1070
     1
1070
    76
1070
     0
1070
    75
1070
     0
1070
   282
1070
     0
1070
   281
1070
     0
1070
    71
1070
     0
1070
    74
1070
     0
1070
   279
1070
     0
1070
   173
1070
     1
1070
   340
1005
107
1070
   271
1070
     1
1070
   272
1070
     2
1070
    77
1070
     1
1070
    73
1070
     1
1070
   171
1070
     3
1070
   274
1070
     4
1070
   177
1070
     2
1070
   176
1070
     2
1070
   178
1070
     2
1070
    78
1070
     8
1070
    48
1040
-0.1
1070
    41
1040
3.5
1070
   147
1040
1.75
1070
    42
1040
1.5875
1070
    44
1040
2.0
1070
   140
1040
3.5
1002
}
1001
ACAD_DSTYLE_DIM_LINETYPE
1070
   380
1005
16
1001
ACAD_DSTYLE_DIM_EXT1_LINETYPE
1070
   381
1005
16
1001
ACAD_DSTYLE_DIM_EXT2_LINETYPE
1070
   382
1005
16
0
DIMENSION
5
172
100
AcDbEntity
8
SK2
62
256
6
ByLayer
370
18
48
1
60
0
100
AcDbDimension
2
_U4
10
32.186532
20
-25.6875
30
0
11
-30.313468
21
-25.6875
31
0
70
32
71
1
72
1
41
1
210
0
220
0
230
1
3
Standard
100
AcDbAlignedDimension
13
-92.813468
23
-7.9375
33
0
14
32.186532
24
9.0625
34
0
50
0
100
AcDbRotatedDimension
1001
ACAD
1000
DSTYLE
1002
{
1070
   371
1070
    13
1070
   372
1070
    13
1070
   170
1070
     0
1070
   144
1040
1.0
1070
   277
1070
     2
1070
   284
1070
     8
1070
   278
1070
    46
1070
   146
1040
1.0
1070
   345
1005
16
1070
   347
1005
16
1070
   346
1005
16
1070
   344
1005
0
1070
   343
1005
0
1070
   172
1070
     1
1070
    76
1070
     0
1070
    75
1070
     0
1070
   282
1070
     0
1070
   281
1070
     0
1070
    71
1070
     0
1070
    74
1070
     0
1070
   279
1070
     0
1070
   173
1070
     1
1070
   340
1005
107
1070
   271
1070
     1
1070
   272
1070
     2
1070
    77
1070
     1
1070
    73
1070
     1
1070
   171
1070
     3
1070
   274
1070
     4
1070
   177
1070
     2
1070
   176
1070
     2
1070
   178
1070
     2
1070
    78
1070
     8
1070
    48
1040
-0.1
1070
    41
1040
3.5
1070
   147
1040
1.75
1070
    42
1040
1.5875
1070
    44
1040
2.0
1070
   140
1040
3.5
1002
}
1001
ACAD_DSTYLE_DIM_LINETYPE
1070
   380
1005
16
1001
ACAD_DSTYLE_DIM_EXT1_LINETYPE
1070
   381
1005
16
1001
ACAD_DSTYLE_DIM_EXT2_LINETYPE
1070
   382
1005
16
0
ENDSEC
0
SECTION
2
OBJECTS
0
DICTIONARY
5
1f9
330
0
100
AcDbDictionary
280
0
281
1
3
ACAD_GROUP
350
1fa
3
ACAD_MLINESTYLE
350
1fb
0
DICTIONARY
5
1fa
330
0
100
AcDbDictionary
280
0
281
1
0
DICTIONARY
5
1fb
330
0
100
AcDbDictionary
280
0
281
1
3
Standard
350
18
0
MLINESTYLE
5
18
330
1fb
100
AcDbMlineStyle
2
Standard
70
0
3

62
256
51
90
52
90
71
2
49
-0.5
62
256
6
ByLayer
49
0.5
62
256
6
ByLayer
0
RASTERVARIABLES
5
1e8
330

100
AcDbRasterVariables
90
0
70
1
71
1
72
1
0
ENDSEC
0
EOF
