0
SECTION
2
HEADER
9
$ACADVER
1
AC1015
9
$DWGCODEPAGE
3
ANSI_1252
9
$HANDSEED
5
241
9
$ANGBASE
50
0
9
$ANGDIR
70
0
9
$ATTMODE
70
1
9
$AUNITS
70
0
9
$AUPREC
70
0
9
$CECOLOR
62
256
9
$CELTSCALE
40
1
9
$CELTYPE
6
ByLayer
9
$CELWEIGHT
370
18
9
$CLAYER
8
0
9
$CMLJUST
70
0
9
$CMLSCALE
40
1
9
$CMLSTYLE
2
Standard
9
$DIMSTYLE
2
Standard
9
$TEXTSIZE
40
0.2
9
$TEXTSTYLE
7
Standard
9
$LUNITS
70
2
9
$LUPREC
70
4
9
$EXTNAMES
290
1
9
$INSUNITS
70
4
9
$LTSCALE
40
1
9
$LWDISPLAY
290
1
9
$PDMODE
70
0
9
$PDSIZE
40
0
9
$PLINEGEN
70
0
0
ENDSEC
0
SECTION
2
CLASSES
0
CLASS
1
RASTERVARIABLES
2
AcDbRasterVariables
3
ISM
90
0
280
0
281
0
0
ENDSEC
0
SECTION
2
TABLES
0
TABLE
2
VPORT
5
237
100
AcDbSymbolTable
0
VPORT
5
1
100
AcDbSymbolTableRecord
100
AcDbViewportTableRecord
2
*Active
70
0
10
0
20
0
11
1
21
1
12
-1
22
1
13
0
23
0
14
0.5
24
0.5
15
10
25
10
16
0
26
0
36
1
17
0
27
0
37
0
0
ENDTAB
0
TABLE
2
LTYPE
5
238
100
AcDbSymbolTable
0
LTYPE
5
14
100
AcDbSymbolTableRecord
100
AcDbLinetypeTableRecord
70
0
2
ByBlock
3

72
65
73
0
40
0
0
LTYPE
5
15
100
AcDbSymbolTableRecord
100
AcDbLinetypeTableRecord
70
0
2
ByLayer
3

72
65
73
0
40
0
0
LTYPE
5
16
100
AcDbSymbolTableRecord
100
AcDbLinetypeTableRecord
70
0
2
Continuous
3
Solid line
72
65
73
0
40
0
0
LTYPE
5
6E
100
AcDbSymbolTableRecord
100
AcDbLinetypeTableRecord
70
0
2
CENTER
3
____ _ ____ _ ____ _ ____
72
65
73
4
40
47.5
49
22
74
0
49
-8.5
74
0
49
8.5
74
0
49
-8.5
74
0
0
LTYPE
5
6F
100
AcDbSymbolTableRecord
100
AcDbLinetypeTableRecord
70
0
2
DASHED
3
__ __ __ __ __ __ __ __ __
72
65
73
2
40
25.72
49
12.86
74
0
49
-12.86
74
0
0
ENDTAB
0
TABLE
2
LAYER
5
239
100
AcDbSymbolTable
0
LAYER
5
10
100
AcDbSymbolTableRecord
100
AcDbLayerTableRecord
2
0
70
0
62
7
6
Continuous
290
1
370
-3
390
0
0
LAYER
5
71
100
AcDbSymbolTableRecord
100
AcDbLayerTableRecord
2
81
70
0
62
-3
6
Continuous
290
1
370
-3
390
0
0
LAYER
5
73
100
AcDbSymbolTableRecord
100
AcDbLayerTableRecord
2
80
70
0
62
-6
6
Continuous
290
1
370
-3
390
0
0
LAYER
5
75
100
AcDbSymbolTableRecord
100
AcDbLayerTableRecord
2
1
70
0
62
4
6
Continuous
290
1
370
-3
390
0
0
LAYER
5
149
100
AcDbSymbolTableRecord
100
AcDbLayerTableRecord
2
Defpoints
70
0
62
7
6
Continuous
290
0
370
-3
390
0
0
LAYER
5
157
100
AcDbSymbolTableRecord
100
AcDbLayerTableRecord
2
2
70
0
62
7
6
Continuous
290
1
370
-3
390
0
0
LAYER
5
224
100
AcDbSymbolTableRecord
100
AcDbLayerTableRecord
2
SK1
70
0
62
4
6
Continuous
290
1
370
-3
390
0
0
LAYER
5
225
100
AcDbSymbolTableRecord
100
AcDbLayerTableRecord
2
SK6
70
0
62
5
6
Continuous
290
1
370
-3
390
0
0
LAYER
5
226
100
AcDbSymbolTableRecord
100
AcDbLayerTableRecord
2
SK2
70
0
62
7
6
Continuous
290
1
370
-3
390
0
0
ENDTAB
0
TABLE
2
STYLE
5
23a
100
AcDbSymbolTable
0
STYLE
5
11
100
AcDbSymbolTableRecord
100
AcDbTextStyleTableRecord
2
Standard
3
txt
70
0
71
0
40
0
41
1
42
0
50
0
0
STYLE
5
142
100
AcDbSymbolTableRecord
100
AcDbTextStyleTableRecord
2
iso_b_vert
3
simplex.shx
70
0
71
0
40
0
41
1
42
0
50
0
0
STYLE
5
143
100
AcDbSymbolTableRecord
100
AcDbTextStyleTableRecord
2
DWGDirectTextStyle
3
simplex
70
0
71
0
40
0
41
1
42
0
50
0
0
ENDTAB
0
TABLE
2
DIMSTYLE
5
23b
100
AcDbSymbolTable
100
AcDbDimStyleTable
0
DIMSTYLE
105
27
100
AcDbSymbolTableRecord
100
AcDbDimStyleTableRecord
2
Standard
70
0
3
<>
41
0.18
42
0.0625
44
0.18
140
0.18
147
0.09
73
0
74
0
77
1
271
2
275
0
278
52
280
0
340
11
0
ENDTAB
0
TABLE
2
VIEW
5
23c
100
AcDbSymbolTable
0
ENDTAB
0
TABLE
2
UCS
5
23d
100
AcDbSymbolTable
0
ENDTAB
0
TABLE
2
APPID
5
23e
100
AcDbSymbolTable
0
APPID
5
12
100
AcDbSymbolTableRecord
100
AcDbRegAppTableRecord
2
ACAD
70
0
0
APPID
5
145
100
AcDbSymbolTableRecord
100
AcDbRegAppTableRecord
2
ACAD_DSTYLE_DIMBREAK
70
0
0
APPID
5
1E3
100
AcDbSymbolTableRecord
100
AcDbRegAppTableRecord
2
ACAD_DSTYLE_DIM_LINETYPE
70
0
0
APPID
5
1E4
100
AcDbSymbolTableRecord
100
AcDbRegAppTableRecord
2
ACAD_DSTYLE_DIM_EXT1_LINETYPE
70
0
0
APPID
5
1E5
100
AcDbSymbolTableRecord
100
AcDbRegAppTableRecord
2
ACAD_DSTYLE_DIM_EXT2_LINETYPE
70
0
0
APPID
5
220
100
AcDbSymbolTableRecord
100
AcDbRegAppTableRecord
2
ACAD_MLEADERVER
70
0
0
ENDTAB
0
TABLE
2
BLOCK_RECORD
5
23f
100
AcDbSymbolTable
0
BLOCK_RECORD
5
1F
100
AcDbSymbolTableRecord
100
AcDbBlockTableRecord
2
*Model_Space
340
0
70
0
0
BLOCK_RECORD
5
1B
100
AcDbSymbolTableRecord
100
AcDbBlockTableRecord
2
*Paper_Space
340
0
70
0
0
BLOCK_RECORD
5
23
100
AcDbSymbolTableRecord
100
AcDbBlockTableRecord
2
*Paper_Space0
340
0
70
0
0
BLOCK_RECORD
5
14A
100
AcDbSymbolTableRecord
100
AcDbBlockTableRecord
2
*D1
340
0
70
0
0
BLOCK_RECORD
5
158
100
AcDbSymbolTableRecord
100
AcDbBlockTableRecord
2
_U0
340
0
70
0
0
BLOCK_RECORD
5
164
100
AcDbSymbolTableRecord
100
AcDbBlockTableRecord
2
*D3
340
0
70
0
0
BLOCK_RECORD
5
171
100
AcDbSymbolTableRecord
100
AcDbBlockTableRecord
2
_U1
340
0
70
0
0
BLOCK_RECORD
5
17D
100
AcDbSymbolTableRecord
100
AcDbBlockTableRecord
2
*D5
340
0
70
0
0
BLOCK_RECORD
5
18B
100
AcDbSymbolTableRecord
100
AcDbBlockTableRecord
2
_U2
340
0
70
0
0
BLOCK_RECORD
5
197
100
AcDbSymbolTableRecord
100
AcDbBlockTableRecord
2
*D7
340
0
70
0
0
BLOCK_RECORD
5
1A4
100
AcDbSymbolTableRecord
100
AcDbBlockTableRecord
2
_U3
340
0
70
0
0
BLOCK_RECORD
5
1B0
100
AcDbSymbolTableRecord
100
AcDbBlockTableRecord
2
*D9
340
0
70
0
0
BLOCK_RECORD
5
1BC
100
AcDbSymbolTableRecord
100
AcDbBlockTableRecord
2
_U4
340
0
70
0
0
ENDTAB
0
ENDSEC
0
SECTION
2
BLOCKS
0
BLOCK
5
20
100
AcDbEntity
8
0
100
AcDbBlockBegin
2
*Model_Space
70
0
10
0
20
0
30
0
3
*Model_Space
0
ENDBLK
5
21
100
AcDbEntity
8
0
100
AcDbBlockEnd
0
BLOCK
5
1C
100
AcDbEntity
8
0
100
AcDbBlockBegin
2
*Paper_Space
70
0
10
0
20
0
30
0
3
*Paper_Space
0
ENDBLK
5
1D
100
AcDbEntity
8
0
100
AcDbBlockEnd
0
BLOCK
5
24
100
AcDbEntity
8
0
100
AcDbBlockBegin
2
*Paper_Space0
70
0
10
0
20
0
30
0
3
*Paper_Space0
0
ENDBLK
5
25
100
AcDbEntity
8
0
100
AcDbBlockEnd
0
BLOCK
5
14B
100
AcDbEntity
8
0
100
AcDbBlockBegin
2
*D1
70
1
10
0
20
0
30
0
3
*D1
0
LINE
5
14D
100
AcDbEntity
8
0
62
256
6
ByLayer
370
-2
48
1
60
0
100
AcDbLine
10
23.1875
20
-5.05
30
0
11
56.693148
21
-5.05
31
0
39
0
210
0
220
0
230
1
0
LINE
5
14E
100
AcDbEntity
8
0
62
256
6
ByLayer
370
-2
48
1
60
0
100
AcDbLine
10
-101.8125
20
4.95
30
0
11
56.693148
21
4.95
31
0
39
0
210
0
220
0
230
1
0
LINE
5
14F
100
AcDbEntity
8
0
62
256
6
ByLayer
370
-2
48
1
60
0
100
AcDbLine
10
54.693148
20
-8.55
30
0
11
54.693148
21
-12.05
31
0
39
0
210
0
220
0
230
1
0
LINE
5
150
100
AcDbEntity
8
0
62
256
6
ByLayer
370
-2
48
1
60
0
100
AcDbLine
10
54.693148
20
8.45
30
0
11
54.693148
21
11.95
31
0
39
0
210
0
220
0
230
1
0
SOLID
5
151
100
AcDbEntity
8
0
62
256
6
ByLayer
370
-1
48
1
60
0
100
AcDbTrace
10
55.276481
20
-8.55
30
0
11
54.109814
21
-8.55
31
0
12
54.693148
22
-5.05
32
0
13
54.693148
23
-5.05
33
0
39
0
210
0
220
0
230
1
0
SOLID
5
152
100
AcDbEntity
8
0
62
256
6
ByLayer
370
-1
48
1
60
0
100
AcDbTrace
10
54.109814
20
8.45
30
0
11
55.276481
21
8.45
31
0
12
54.693148
22
4.95
32
0
13
54.693148
23
4.95
33
0
39
0
210
0
220
0
230
1
0
MTEXT
5
153
100
AcDbEntity
8
0
62
256
6
ByLayer
370
18
48
1
60
0
100
AcDbMText
10
47.693148
20
-0.05
30
0
210
0
220
0
230
1
1
\A1;10
40
3.5
41
0
44
1
50
90
71
5
72
5
7
iso_b_vert
0
POINT
5
154
100
AcDbEntity
8
Defpoints
62
0
6
ByLayer
370
-1
48
1
60
0
100
AcDbPoint
10
21.6
20
-5.05
30
0
39
0
210
0
220
0
230
1
50
360
0
POINT
5
155
100
AcDbEntity
8
Defpoints
62
0
6
ByLayer
370
-1
48
1
60
0
100
AcDbPoint
10
-103.4
20
4.95
30
0
39
0
210
0
220
0
230
1
50
360
0
POINT
5
156
100
AcDbEntity
8
Defpoints
62
0
6
ByLayer
370
-1
48
1
60
0
100
AcDbPoint
10
54.693148
20
4.95
30
0
39
0
210
0
220
0
230
1
50
360
0
ENDBLK
5
14C
100
AcDbEntity
8
0
100
AcDbBlockEnd
0
BLOCK
5
15F
100
AcDbEntity
8
0
100
AcDbBlockBegin
2
_U0
70
0
10
0
20
0
30
0
3
_U0
0
MTEXT
5
159
100
AcDbEntity
8
2
62
256
6
ByLayer
370
18
48
1
60
0
100
AcDbMText
10
54.003514
20
-1.545533
30
0
210
0
220
0
230
1
1
\W0.5321;10
40
3.5
41
0
44
1.084337
50
90
71
7
72
5
7
iso_b_vert
0
LINE
5
15A
100
AcDbEntity
8
2
62
256
6
ByLayer
370
13
48
1
60
0
100
AcDbLine
10
23.1875
20
-5.05
30
0
11
56.693148
21
-5.05
31
0
39
0
210
0
220
0
230
1
0
LINE
5
15B
100
AcDbEntity
8
2
62
256
6
ByLayer
370
13
48
1
60
0
100
AcDbLine
10
-101.8125
20
4.95
30
0
11
56.693148
21
4.95
31
0
39
0
210
0
220
0
230
1
0
LINE
5
15C
100
AcDbEntity
8
2
62
256
6
ByLayer
370
13
48
1
60
0
100
AcDbLine
10
54.693148
20
-5.05
30
0
11
54.693148
21
4.95
31
0
39
0
210
0
220
0
230
1
0
SOLID
5
15D
100
AcDbEntity
8
2
62
256
6
ByLayer
370
18
48
1
60
0
100
AcDbTrace
10
54.693148
20
-5.05
30
0
11
54.232364
21
-1.550002
31
0
12
55.153931
22
-1.549998
32
0
13
55.153931
23
-1.549998
33
0
39
0
210
0
220
0
230
1
0
SOLID
5
15E
100
AcDbEntity
8
2
62
256
6
ByLayer
370
18
48
1
60
0
100
AcDbTrace
10
54.693148
20
4.95
30
0
11
55.153931
21
1.450002
31
0
12
54.232364
22
1.449998
32
0
13
54.232364
23
1.449998
33
0
39
0
210
0
220
0
230
1
0
ENDBLK
5
160
100
AcDbEntity
8
0
100
AcDbBlockEnd
0
BLOCK
5
165
100
AcDbEntity
8
0
100
AcDbBlockBegin
2
*D3
70
1
10
0
20
0
30
0
3
*D3
0
LINE
5
167
100
AcDbEntity
8
0
62
256
6
ByLayer
370
-2
48
1
60
0
100
AcDbLine
10
23.1875
20
-3.55
30
0
11
44.693148
21
-3.55
31
0
39
0
210
0
220
0
230
1
0
LINE
5
168
100
AcDbEntity
8
0
62
256
6
ByLayer
370
-2
48
1
60
0
100
AcDbLine
10
23.1875
20
-5.05
30
0
11
44.693148
21
-5.05
31
0
39
0
210
0
220
0
230
1
0
LINE
5
169
100
AcDbEntity
8
0
62
256
6
ByLayer
370
-2
48
1
60
0
100
AcDbLine
10
42.693148
20
-0.05
30
0
11
42.693148
21
3.45
31
0
39
0
210
0
220
0
230
1
0
LINE
5
16A
100
AcDbEntity
8
0
62
256
6
ByLayer
370
-2
48
1
60
0
100
AcDbLine
10
42.693148
20
-8.55
30
0
11
42.693148
21
-12.05
31
0
39
0
210
0
220
0
230
1
0
SOLID
5
16B
100
AcDbEntity
8
0
62
256
6
ByLayer
370
-1
48
1
60
0
100
AcDbTrace
10
42.109814
20
-0.05
30
0
11
43.276481
21
-0.05
31
0
12
42.693148
22
-3.55
32
0
13
42.693148
23
-3.55
33
0
39
0
210
0
220
0
230
1
0
SOLID
5
16C
100
AcDbEntity
8
0
62
256
6
ByLayer
370
-1
48
1
60
0
100
AcDbTrace
10
43.276481
20
-8.55
30
0
11
42.109814
21
-8.55
31
0
12
42.693148
22
-5.05
32
0
13
42.693148
23
-5.05
33
0
39
0
210
0
220
0
230
1
0
MTEXT
5
16D
100
AcDbEntity
8
0
62
256
6
ByLayer
370
18
48
1
60
0
100
AcDbMText
10
35.693148
20
-4.3
30
0
210
0
220
0
230
1
1
\A1;1.5
40
3.5
41
0
44
1
50
90
71
5
72
5
7
iso_b_vert
0
POINT
5
16E
100
AcDbEntity
8
Defpoints
62
0
6
ByLayer
370
-1
48
1
60
0
100
AcDbPoint
10
21.6
20
-3.55
30
0
39
0
210
0
220
0
230
1
50
360
0
POINT
5
16F
100
AcDbEntity
8
Defpoints
62
0
6
ByLayer
370
-1
48
1
60
0
100
AcDbPoint
10
21.6
20
-5.05
30
0
39
0
210
0
220
0
230
1
50
360
0
POINT
5
170
100
AcDbEntity
8
Defpoints
62
0
6
ByLayer
370
-1
48
1
60
0
100
AcDbPoint
10
42.693148
20
-5.05
30
0
39
0
210
0
220
0
230
1
50
360
0
ENDBLK
5
166
100
AcDbEntity
8
0
100
AcDbBlockEnd
0
BLOCK
5
178
100
AcDbEntity
8
0
100
AcDbBlockBegin
2
_U1
70
0
10
0
20
0
30
0
3
_U1
0
MTEXT
5
172
100
AcDbEntity
8
2
62
256
6
ByLayer
370
18
48
1
60
0
100
AcDbMText
10
42.003514
20
-6.504533
30
0
210
0
220
0
230
1
1
\W0.6004;1.5
40
3.5
41
0
44
1.084337
50
90
71
7
72
5
7
iso_b_vert
0
LINE
5
173
100
AcDbEntity
8
2
62
256
6
ByLayer
370
13
48
1
60
0
100
AcDbLine
10
23.1875
20
-3.55
30
0
11
44.693148
21
-3.55
31
0
39
0
210
0
220
0
230
1
0
LINE
5
174
100
AcDbEntity
8
2
62
256
6
ByLayer
370
13
48
1
60
0
100
AcDbLine
10
23.1875
20
-5.05
30
0
11
44.693148
21
-5.05
31
0
39
0
210
0
220
0
230
1
0
LINE
5
175
100
AcDbEntity
8
2
62
256
6
ByLayer
370
13
48
1
60
0
100
AcDbLine
10
42.693148
20
5.2
30
0
11
42.693148
21
-13.8
31
0
39
0
210
0
220
0
230
1
0
SOLID
5
176
100
AcDbEntity
8
2
62
256
6
ByLayer
370
18
48
1
60
0
100
AcDbTrace
10
42.693148
20
-3.55
30
0
11
42.232364
21
-0.050002
31
0
12
43.153931
22
-0.049998
32
0
13
43.153931
23
-0.049998
33
0
39
0
210
0
220
0
230
1
0
SOLID
5
177
100
AcDbEntity
8
2
62
256
6
ByLayer
370
18
48
1
60
0
100
AcDbTrace
10
42.693148
20
-5.05
30
0
11
43.153931
21
-8.549998
31
0
12
42.232364
22
-8.550002
32
0
13
42.232364
23
-8.550002
33
0
39
0
210
0
220
0
230
1
0
ENDBLK
5
179
100
AcDbEntity
8
0
100
AcDbBlockEnd
0
BLOCK
5
17E
100
AcDbEntity
8
0
100
AcDbBlockBegin
2
*D5
70
1
10
0
20
0
30
0
3
*D5
0
LINE
5
180
100
AcDbEntity
8
0
62
256
6
ByLayer
370
-2
48
1
60
0
100
AcDbLine
10
-104.9875
20
4.95
30
0
11
-117
21
4.95
31
0
39
0
210
0
220
0
230
1
0
LINE
5
181
100
AcDbEntity
8
0
62
256
6
ByLayer
370
-2
48
1
60
0
100
AcDbLine
10
-104.9875
20
-5.05
30
0
11
-117
21
-5.05
31
0
39
0
210
0
220
0
230
1
0
LINE
5
182
100
AcDbEntity
8
0
62
256
6
ByLayer
370
-2
48
1
60
0
100
AcDbLine
10
-115
20
8.45
30
0
11
-115
21
11.95
31
0
39
0
210
0
220
0
230
1
0
LINE
5
183
100
AcDbEntity
8
0
62
256
6
ByLayer
370
-2
48
1
60
0
100
AcDbLine
10
-115
20
-8.55
30
0
11
-115
21
-12.05
31
0
39
0
210
0
220
0
230
1
0
SOLID
5
184
100
AcDbEntity
8
0
62
256
6
ByLayer
370
-1
48
1
60
0
100
AcDbTrace
10
-115.583333
20
8.45
30
0
11
-114.416667
21
8.45
31
0
12
-115
22
4.95
32
0
13
-115
23
4.95
33
0
39
0
210
0
220
0
230
1
0
SOLID
5
185
100
AcDbEntity
8
0
62
256
6
ByLayer
370
-1
48
1
60
0
100
AcDbTrace
10
-114.416667
20
-8.55
30
0
11
-115.583333
21
-8.55
31
0
12
-115
22
-5.05
32
0
13
-115
23
-5.05
33
0
39
0
210
0
220
0
230
1
0
MTEXT
5
186
100
AcDbEntity
8
0
62
256
6
ByLayer
370
18
48
1
60
0
100
AcDbMText
10
-122
20
-0.05
30
0
210
0
220
0
230
1
1
\A1;10
40
3.5
41
0
44
1
50
90
71
5
72
5
7
iso_b_vert
0
POINT
5
187
100
AcDbEntity
8
Defpoints
62
0
6
ByLayer
370
-1
48
1
60
0
100
AcDbPoint
10
-103.4
20
4.95
30
0
39
0
210
0
220
0
230
1
50
360
0
POINT
5
188
100
AcDbEntity
8
Defpoints
62
0
6
ByLayer
370
-1
48
1
60
0
100
AcDbPoint
10
-103.4
20
-5.05
30
0
39
0
210
0
220
0
230
1
50
360
0
POINT
5
189
100
AcDbEntity
8
Defpoints
62
0
6
ByLayer
370
-1
48
1
60
0
100
AcDbPoint
10
-115
20
-5.05
30
0
39
0
210
0
220
0
230
1
50
360
0
ENDBLK
5
17F
100
AcDbEntity
8
0
100
AcDbBlockEnd
0
BLOCK
5
192
100
AcDbEntity
8
0
100
AcDbBlockBegin
2
_U2
70
0
10
0
20
0
30
0
3
_U2
0
MTEXT
5
18C
100
AcDbEntity
8
SK2
62
256
6
ByLayer
370
18
48
1
60
0
100
AcDbMText
10
-115.689634
20
-1.545533
30
0
210
0
220
0
230
1
1
\W0.5321;10
40
3.5
41
0
44
1.084337
50
90
71
7
72
5
7
iso_b_vert
0
LINE
5
18D
100
AcDbEntity
8
SK2
62
256
6
ByLayer
370
13
48
1
60
0
100
AcDbLine
10
-104.9875
20
4.95
30
0
11
-117
21
4.95
31
0
39
0
210
0
220
0
230
1
0
LINE
5
18E
100
AcDbEntity
8
SK2
62
256
6
ByLayer
370
13
48
1
60
0
100
AcDbLine
10
-104.9875
20
-5.05
30
0
11
-117
21
-5.05
31
0
39
0
210
0
220
0
230
1
0
LINE
5
18F
100
AcDbEntity
8
SK2
62
256
6
ByLayer
370
13
48
1
60
0
100
AcDbLine
10
-115
20
4.95
30
0
11
-115
21
-5.05
31
0
39
0
210
0
220
0
230
1
0
SOLID
5
190
100
AcDbEntity
8
SK2
62
256
6
ByLayer
370
18
48
1
60
0
100
AcDbTrace
10
-115
20
4.95
30
0
11
-114.539216
21
1.450002
31
0
12
-115.460784
22
1.449998
32
0
13
-115.460784
23
1.449998
33
0
39
0
210
0
220
0
230
1
0
SOLID
5
191
100
AcDbEntity
8
SK2
62
256
6
ByLayer
370
18
48
1
60
0
100
AcDbTrace
10
-115
20
-5.05
30
0
11
-115.460784
21
-1.550002
31
0
12
-114.539216
22
-1.549998
32
0
13
-114.539216
23
-1.549998
33
0
39
0
210
0
220
0
230
1
0
ENDBLK
5
193
100
AcDbEntity
8
0
100
AcDbBlockEnd
0
BLOCK
5
198
100
AcDbEntity
8
0
100
AcDbBlockBegin
2
*D7
70
1
10
0
20
0
30
0
3
*D7
0
LINE
5
19A
100
AcDbEntity
8
0
62
256
6
ByLayer
370
-2
48
1
60
0
100
AcDbLine
10
11.6
20
-2.2125
30
0
11
11.6
21
13.2
31
0
39
0
210
0
220
0
230
1
0
LINE
5
19B
100
AcDbEntity
8
0
62
256
6
ByLayer
370
-2
48
1
60
0
100
AcDbLine
10
21.6
20
-3.4625
30
0
11
21.6
21
13.2
31
0
39
0
210
0
220
0
230
1
0
LINE
5
19C
100
AcDbEntity
8
0
62
256
6
ByLayer
370
-2
48
1
60
0
100
AcDbLine
10
8.1
20
11.2
30
0
11
4.6
21
11.2
31
0
39
0
210
0
220
0
230
1
0
LINE
5
19D
100
AcDbEntity
8
0
62
256
6
ByLayer
370
-2
48
1
60
0
100
AcDbLine
10
25.1
20
11.2
30
0
11
28.6
21
11.2
31
0
39
0
210
0
220
0
230
1
0
SOLID
5
19E
100
AcDbEntity
8
0
62
256
6
ByLayer
370
-1
48
1
60
0
100
AcDbTrace
10
8.1
20
10.616667
30
0
11
8.1
21
11.783333
31
0
12
11.6
22
11.2
32
0
13
11.6
23
11.2
33
0
39
0
210
0
220
0
230
1
0
SOLID
5
19F
100
AcDbEntity
8
0
62
256
6
ByLayer
370
-1
48
1
60
0
100
AcDbTrace
10
25.1
20
11.783333
30
0
11
25.1
21
10.616667
31
0
12
21.6
22
11.2
32
0
13
21.6
23
11.2
33
0
39
0
210
0
220
0
230
1
0
MTEXT
5
1A0
100
AcDbEntity
8
0
62
256
6
ByLayer
370
18
48
1
60
0
100
AcDbMText
10
16.6
20
18.2
30
0
210
0
220
0
230
1
1
\A1;10
40
3.5
41
0
44
1
50
0
71
5
72
5
7
iso_b_vert
0
POINT
5
1A1
100
AcDbEntity
8
Defpoints
62
0
6
ByLayer
370
-1
48
1
60
0
100
AcDbPoint
10
11.6
20
-3.8
30
0
39
0
210
0
220
0
230
1
50
360
0
POINT
5
1A2
100
AcDbEntity
8
Defpoints
62
0
6
ByLayer
370
-1
48
1
60
0
100
AcDbPoint
10
21.6
20
-5.05
30
0
39
0
210
0
220
0
230
1
50
360
0
POINT
5
1A3
100
AcDbEntity
8
Defpoints
62
0
6
ByLayer
370
-1
48
1
60
0
100
AcDbPoint
10
21.6
20
11.2
30
0
39
0
210
0
220
0
230
1
50
360
0
ENDBLK
5
199
100
AcDbEntity
8
0
100
AcDbBlockEnd
0
BLOCK
5
1AB
100
AcDbEntity
8
0
100
AcDbBlockBegin
2
_U3
70
0
10
0
20
0
30
0
3
_U3
0
MTEXT
5
1A5
100
AcDbEntity
8
2
62
256
6
ByLayer
370
18
48
1
60
0
100
AcDbMText
10
15.132467
20
12.232634
30
0
210
0
220
0
230
1
1
\W0.5321;10
40
3.5
41
0
44
1.084337
50
0
71
7
72
5
7
iso_b_vert
0
LINE
5
1A6
100
AcDbEntity
8
2
62
256
6
ByLayer
370
13
48
1
60
0
100
AcDbLine
10
11.6
20
-2.2125
30
0
11
11.6
21
13.2
31
0
39
0
210
0
220
0
230
1
0
LINE
5
1A7
100
AcDbEntity
8
2
62
256
6
ByLayer
370
13
48
1
60
0
100
AcDbLine
10
21.6
20
-3.4625
30
0
11
21.6
21
13.2
31
0
39
0
210
0
220
0
230
1
0
LINE
5
1A8
100
AcDbEntity
8
2
62
256
6
ByLayer
370
13
48
1
60
0
100
AcDbLine
10
11.6
20
11.2
30
0
11
21.6
21
11.2
31
0
39
0
210
0
220
0
230
1
0
SOLID
5
1A9
100
AcDbEntity
8
2
62
256
6
ByLayer
370
18
48
1
60
0
100
AcDbTrace
10
11.6
20
11.2
30
0
11
15.099998
21
11.660784
31
0
12
15.100002
22
10.739216
32
0
13
15.100002
23
10.739216
33
0
39
0
210
0
220
0
230
1
0
SOLID
5
1AA
100
AcDbEntity
8
2
62
256
6
ByLayer
370
18
48
1
60
0
100
AcDbTrace
10
21.6
20
11.2
30
0
11
18.100002
21
10.739216
31
0
12
18.099998
22
11.660784
32
0
13
18.099998
23
11.660784
33
0
39
0
210
0
220
0
230
1
0
ENDBLK
5
1AC
100
AcDbEntity
8
0
100
AcDbBlockEnd
0
BLOCK
5
1B1
100
AcDbEntity
8
0
100
AcDbBlockBegin
2
*D9
70
1
10
0
20
0
30
0
3
*D9
0
LINE
5
1B3
100
AcDbEntity
8
0
62
256
6
ByLayer
370
-2
48
1
60
0
100
AcDbLine
10
-103.4
20
6.5375
30
0
11
-103.4
21
29.2
31
0
39
0
210
0
220
0
230
1
0
LINE
5
1B4
100
AcDbEntity
8
0
62
256
6
ByLayer
370
-2
48
1
60
0
100
AcDbLine
10
21.6
20
-3.4625
30
0
11
21.6
21
29.2
31
0
39
0
210
0
220
0
230
1
0
LINE
5
1B5
100
AcDbEntity
8
0
62
256
6
ByLayer
370
-2
48
1
60
0
100
AcDbLine
10
-99.9
20
27.2
30
0
11
18.1
21
27.2
31
0
39
0
210
0
220
0
230
1
0
SOLID
5
1B6
100
AcDbEntity
8
0
62
256
6
ByLayer
370
-1
48
1
60
0
100
AcDbTrace
10
-99.9
20
27.783333
30
0
11
-99.9
21
26.616667
31
0
12
-103.4
22
27.2
32
0
13
-103.4
23
27.2
33
0
39
0
210
0
220
0
230
1
0
SOLID
5
1B7
100
AcDbEntity
8
0
62
256
6
ByLayer
370
-1
48
1
60
0
100
AcDbTrace
10
18.1
20
26.616667
30
0
11
18.1
21
27.783333
31
0
12
21.6
22
27.2
32
0
13
21.6
23
27.2
33
0
39
0
210
0
220
0
230
1
0
MTEXT
5
1B8
100
AcDbEntity
8
0
62
256
6
ByLayer
370
18
48
1
60
0
100
AcDbMText
10
-40.9
20
34.2
30
0
210
0
220
0
230
1
1
\A1;125
40
3.5
41
0
44
1
50
0
71
5
72
5
7
iso_b_vert
0
POINT
5
1B9
100
AcDbEntity
8
Defpoints
62
0
6
ByLayer
370
-1
48
1
60
0
100
AcDbPoint
10
-103.4
20
4.95
30
0
39
0
210
0
220
0
230
1
50
360
0
POINT
5
1BA
100
AcDbEntity
8
Defpoints
62
0
6
ByLayer
370
-1
48
1
60
0
100
AcDbPoint
10
21.6
20
-5.05
30
0
39
0
210
0
220
0
230
1
50
360
0
POINT
5
1BB
100
AcDbEntity
8
Defpoints
62
0
6
ByLayer
370
-1
48
1
60
0
100
AcDbPoint
10
21.6
20
27.2
30
0
39
0
210
0
220
0
230
1
50
360
0
ENDBLK
5
1B2
100
AcDbEntity
8
0
100
AcDbBlockEnd
0
BLOCK
5
1C3
100
AcDbEntity
8
0
100
AcDbBlockBegin
2
_U4
70
0
10
0
20
0
30
0
3
_U4
0
MTEXT
5
1BD
100
AcDbEntity
8
SK2
62
256
6
ByLayer
370
18
48
1
60
0
100
AcDbMText
10
-43.675266
20
28.232634
30
0
210
0
220
0
230
1
1
\W0.6217;125
40
3.5
41
0
44
1.084337
50
0
71
7
72
5
7
iso_b_vert
0
LINE
5
1BE
100
AcDbEntity
8
SK2
62
256
6
ByLayer
370
13
48
1
60
0
100
AcDbLine
10
-103.4
20
6.5375
30
0
11
-103.4
21
29.2
31
0
39
0
210
0
220
0
230
1
0
LINE
5
1BF
100
AcDbEntity
8
SK2
62
256
6
ByLayer
370
13
48
1
60
0
100
AcDbLine
10
21.6
20
-3.4625
30
0
11
21.6
21
29.2
31
0
39
0
210
0
220
0
230
1
0
LINE
5
1C0
100
AcDbEntity
8
SK2
62
256
6
ByLayer
370
13
48
1
60
0
100
AcDbLine
10
-103.4
20
27.2
30
0
11
21.6
21
27.2
31
0
39
0
210
0
220
0
230
1
0
SOLID
5
1C1
100
AcDbEntity
8
SK2
62
256
6
ByLayer
370
18
48
1
60
0
100
AcDbTrace
10
-103.4
20
27.2
30
0
11
-99.900002
21
27.660784
31
0
12
-99.899998
22
26.739216
32
0
13
-99.899998
23
26.739216
33
0
39
0
210
0
220
0
230
1
0
SOLID
5
1C2
100
AcDbEntity
8
SK2
62
256
6
ByLayer
370
18
48
1
60
0
100
AcDbTrace
10
21.6
20
27.2
30
0
11
18.100002
21
26.739216
31
0
12
18.099998
22
27.660784
32
0
13
18.099998
23
27.660784
33
0
39
0
210
0
220
0
230
1
0
ENDBLK
5
1C4
100
AcDbEntity
8
0
100
AcDbBlockEnd
0
ENDSEC
0
SECTION
2
ENTITIES
0
ARC
5
E4
100
AcDbEntity
8
1
62
256
6
ByLayer
370
18
48
1
60
0
100
AcDbCircle
39
0
10
11.6
20
-3
30
0
40
0.800000000000478
210
0
220
0
230
1
100
AcDbArc
50
180
51
270
0
ARC
5
E5
100
AcDbEntity
8
SK1
62
256
6
ByLayer
370
18
48
1
60
0
100
AcDbCircle
39
0
10
-1.6
20
-6.4
30
0
40
1.6
210
0
220
0
230
1
100
AcDbArc
50
90
51
115.007833
0
ELLIPSE
5
E6
100
AcDbEntity
8
1
62
256
6
ByLayer
370
18
48
1
60
0
100
AcDbEllipse
10
8.12698
20
0.575
30
0
11
1.94406258669302E-16
21
3.175
31
0
210
0
220
0
230
1
40
0.891007
41
-1.23723367524156
42
-0.0136493779038164
0
ELLIPSE
5
E7
100
AcDbEntity
8
1
62
256
6
ByLayer
370
18
48
1
60
0
100
AcDbEllipse
10
8.204159
20
0.575
30
0
11
-5.83218776007907E-16
21
-3.175
31
0
210
0
220
0
230
1
40
0.891007
41
-0.466679858344997
42
1.16200065020728
0
ELLIPSE
5
E8
100
AcDbEntity
8
1
62
256
6
ByLayer
370
18
48
1
60
0
100
AcDbEllipse
10
8.12698
20
0.575
30
0
11
1.94406258669302E-16
21
3.175
31
0
210
0
220
0
230
1
40
0.891007
41
-3.12794327568598
42
-1.90435897834823
0
ELLIPSE
5
E9
100
AcDbEntity
8
1
62
256
6
ByLayer
370
18
48
1
60
0
100
AcDbEllipse
10
8.204159
20
0.575
30
0
11
-5.83218776007907E-16
21
-3.175
31
0
210
0
220
0
230
1
40
0.891007
41
1.97959200338251
42
-2.6749127952448
0
ELLIPSE
5
EA
100
AcDbEntity
8
1
62
256
6
ByLayer
370
18
48
1
60
0
100
AcDbEllipse
10
8.693501
20
-3
30
0
11
1.76215141166822
21
0
31
0
210
0
220
0
230
1
40
0.45399
41
3.14159265358979
42
-1.57079632679489
0
ELLIPSE
5
EB
100
AcDbEntity
8
1
62
256
6
ByLayer
370
18
48
1
60
0
100
AcDbEllipse
10
8.534601
20
0.575
30
0
11
-3.5633858044891
21
4.36374489729782E-16
31
0
210
0
220
0
230
1
40
0.891007
41
0.982423360466027
42
1.1041164684499
0
ELLIPSE
5
EC
100
AcDbEntity
8
1
62
256
6
ByLayer
370
18
48
1
60
0
100
AcDbEllipse
10
9.86953
20
0.575
30
0
11
4.53787995752993
21
0
31
0
210
0
220
0
230
1
40
0.851581
41
2.38911365625786
42
2.64065334554963
0
ELLIPSE
5
ED
100
AcDbEntity
8
1
62
256
6
ByLayer
370
18
48
1
60
0
100
AcDbEllipse
10
9.86953
20
0.575
30
0
11
4.53787995752993
21
0
31
0
210
0
220
0
230
1
40
0.851581
41
-2.64065334554963
42
-2.38911365625786
0
ELLIPSE
5
EE
100
AcDbEntity
8
1
62
256
6
ByLayer
370
18
48
1
60
0
100
AcDbEllipse
10
8.534601
20
0.575
30
0
11
-3.5633858044891
21
4.36374489729782E-16
31
0
210
0
220
0
230
1
40
0.891007
41
-1.1041164684499
42
-0.982423360466028
0
ELLIPSE
5
EF
100
AcDbEntity
8
1
62
256
6
ByLayer
370
18
48
1
60
0
100
AcDbEllipse
10
21.597293
20
-15.705884
30
0
11
0.647170223947873
21
30.4923143495901
31
0
210
0
220
0
230
1
40
0.353462
41
1.14128132596859
42
1.14850838663761
0
ELLIPSE
5
F0
100
AcDbEntity
8
1
62
256
6
ByLayer
370
18
48
1
60
0
100
AcDbEllipse
10
15.785192
20
-4.3
30
0
11
3.48096779303155
21
4.0777983950858E-15
31
0
210
0
220
0
230
1
40
0.086183
41
-0.349065850557258
42
0.349065850557227
0
ELLIPSE
5
F1
100
AcDbEntity
8
1
62
256
6
ByLayer
370
18
48
1
60
0
100
AcDbEllipse
10
7.10409
20
0.575
30
0
11
7.90054789168507E-17
21
1.2903
31
0
210
0
220
0
230
1
40
0.891007
41
-2.67094252942103
42
-0.462991823846267
0
ELLIPSE
5
F2
100
AcDbEntity
8
1
62
256
6
ByLayer
370
18
48
1
60
0
100
AcDbEllipse
10
7.489982
20
0.575
30
0
11
-2.37016436750552E-16
21
-1.2903
31
0
210
0
220
0
230
1
40
0.891007
41
0.221711143787465
42
0.523598775598293
0
ELLIPSE
5
F3
100
AcDbEntity
8
1
62
256
6
ByLayer
370
18
48
1
60
0
100
AcDbEllipse
10
7.489982
20
0.575
30
0
11
-2.37016436750552E-16
21
-1.2903
31
0
210
0
220
0
230
1
40
0.891007
41
0.523598775598295
42
1.5707963267949
0
ELLIPSE
5
F4
100
AcDbEntity
8
1
62
256
6
ByLayer
370
18
48
1
60
0
100
AcDbEllipse
10
7.489982
20
0.575
30
0
11
7.90054789168507E-17
21
1.2903
31
0
210
0
220
0
230
1
40
0.891007
41
-1.5707963267949
42
-0.523598775598291
0
ELLIPSE
5
F5
100
AcDbEntity
8
1
62
256
6
ByLayer
370
18
48
1
60
0
100
AcDbEllipse
10
7.489982
20
0.575
30
0
11
7.90054789168507E-17
21
1.2903
31
0
210
0
220
0
230
1
40
0.891007
41
-0.523598775598291
42
-0.221711143787467
0
ELLIPSE
5
F6
100
AcDbEntity
8
1
62
256
6
ByLayer
370
18
48
1
60
0
100
AcDbEllipse
10
8.811612
20
0.575
30
0
11
2.41308682020993E-17
21
0.39410000000048
31
0
210
0
220
0
230
1
40
0.436347
41
0.288932900935326
42
1.5707963267949
0
ELLIPSE
5
F7
100
AcDbEntity
8
1
62
256
6
ByLayer
370
18
48
1
60
0
100
AcDbEllipse
10
8.811612
20
0.575
30
0
11
2.41308682021E-17
21
0.394100000000491
31
0
210
0
220
0
230
1
40
0.436347
41
1.5707963267949
42
2.85265975265443
0
ELLIPSE
5
F8
100
AcDbEntity
8
1
62
256
6
ByLayer
370
18
48
1
60
0
100
AcDbEllipse
10
8.634625
20
-0.1667
30
0
11
0.166590173381902
21
0.34634685443305
31
0
210
0
220
0
230
1
40
0.458817
41
-2.28436054737898
42
0.137551892608076
0
ELLIPSE
5
F9
100
AcDbEntity
8
1
62
256
6
ByLayer
370
18
48
1
60
0
100
AcDbEllipse
10
8.634625
20
1.3167
30
0
11
0.166590173381903
21
-0.346346854433056
31
0
210
0
220
0
230
1
40
0.458817
41
-0.137551892608101
42
2.28436054737898
0
ELLIPSE
5
FA
100
AcDbEntity
8
1
62
256
6
ByLayer
370
18
48
1
60
0
100
AcDbEllipse
10
8.150797
20
-0.709575
30
0
11
0.297314427410619
21
0.208297956711713
31
0
210
0
220
0
230
1
40
0.514259
41
0.622058059849908
42
1.50053422562554
0
ELLIPSE
5
FB
100
AcDbEntity
8
1
62
256
6
ByLayer
370
18
48
1
60
0
100
AcDbEllipse
10
8.150797
20
-0.709575
30
0
11
0.297314427410716
21
0.208297956712737
31
0
210
0
220
0
230
1
40
0.514259
41
1.50053422562129
42
2.7823976514834
0
ELLIPSE
5
FC
100
AcDbEntity
8
1
62
256
6
ByLayer
370
18
48
1
60
0
100
AcDbEllipse
10
8.150797
20
1.859575
30
0
11
0.297314427410165
21
-0.208297956712683
31
0
210
0
220
0
230
1
40
0.514259
41
-2.78239765148218
42
-1.50053422561924
0
ELLIPSE
5
FD
100
AcDbEntity
8
1
62
256
6
ByLayer
370
18
48
1
60
0
100
AcDbEllipse
10
8.150797
20
1.859575
30
0
11
0.297314427411756
21
-0.208297956713922
31
0
210
0
220
0
230
1
40
0.514259
41
-1.50053422561848
42
-0.579535660852528
0
ELLIPSE
5
FE
100
AcDbEntity
8
1
62
256
6
ByLayer
370
18
48
1
60
0
100
AcDbEllipse
10
7.989372
20
0.575
30
0
11
-5.5107285922007E-16
21
-3
31
0
210
0
220
0
230
1
40
0.891007
41
3.14159258717257
42
-1.57079652305067
0
ELLIPSE
5
FF
100
AcDbEntity
8
1
62
256
6
ByLayer
370
18
48
1
60
0
100
AcDbEllipse
10
7.989372
20
0.575
30
0
11
-5.5107285922007E-16
21
-3
31
0
210
0
220
0
230
1
40
0.891007
41
-1.57079618971732
42
-2.90740745111097E-16
0
ELLIPSE
5
100
100
AcDbEntity
8
1
62
256
6
ByLayer
370
18
48
1
60
0
100
AcDbEllipse
10
8.261766
20
0.575
30
0
11
-3.07939513732175E-16
21
-1.6764
31
0
210
0
220
0
230
1
40
0.891007
41
2.09439510239319
42
3.14159265358979
0
ELLIPSE
5
101
100
AcDbEntity
8
1
62
256
6
ByLayer
370
18
48
1
60
0
100
AcDbEllipse
10
8.261766
20
0.575
30
0
11
-3.07939513732175E-16
21
-1.6764
31
0
210
0
220
0
230
1
40
0.891007
41
1.04719755119661
42
2.09439510239319
0
ELLIPSE
5
102
100
AcDbEntity
8
1
62
256
6
ByLayer
370
18
48
1
60
0
100
AcDbEllipse
10
8.261766
20
0.575
30
0
11
-3.07939513732175E-16
21
-1.6764
31
0
210
0
220
0
230
1
40
0.891007
41
0
42
1.04719755119661
0
ELLIPSE
5
103
100
AcDbEntity
8
1
62
256
6
ByLayer
370
18
48
1
60
0
100
AcDbEllipse
10
8.261766
20
0.575
30
0
11
-3.07939513732175E-16
21
-1.6764
31
0
210
0
220
0
230
1
40
0.891007
41
-1.04719755119659
42
-2.97311325402492E-16
0
ELLIPSE
5
104
100
AcDbEntity
8
1
62
256
6
ByLayer
370
18
48
1
60
0
100
AcDbEllipse
10
8.261766
20
0.575
30
0
11
-3.07939513732175E-16
21
-1.6764
31
0
210
0
220
0
230
1
40
0.891007
41
-2.0943951023932
42
-1.04719755119659
0
ELLIPSE
5
105
100
AcDbEntity
8
1
62
256
6
ByLayer
370
18
48
1
60
0
100
AcDbEllipse
10
8.261766
20
0.575
30
0
11
-3.07939513732175E-16
21
-1.6764
31
0
210
0
220
0
230
1
40
0.891007
41
3.14159265358979
42
-2.0943951023932
0
ELLIPSE
5
106
100
AcDbEntity
8
1
62
256
6
ByLayer
370
13
48
1
60
0
100
AcDbEllipse
10
8.261766
20
0.575
30
0
11
1.71444889535133E-16
21
2.8
31
0
210
0
220
0
230
1
40
0.891007
41
0
42
6.28318530717959
0
ELLIPSE
5
107
100
AcDbEntity
8
1
62
256
6
ByLayer
370
13
48
1
60
0
100
AcDbEllipse
10
8.170968
20
0.575
30
0
11
-5.5107285922007E-16
21
-3
31
0
210
0
220
0
230
1
40
0.891007
41
-2.46212501161254
42
-1.57079618971733
0
ELLIPSE
5
108
100
AcDbEntity
8
1
62
256
6
ByLayer
370
18
48
1
60
0
100
AcDbEllipse
10
8.170968
20
0.575
30
0
11
-5.5107285922007E-16
21
-3
31
0
210
0
220
0
230
1
40
0.891007
41
2.46251788416328
42
-2.46212501161254
0
ELLIPSE
5
109
100
AcDbEntity
8
1
62
256
6
ByLayer
370
18
48
1
60
0
100
AcDbEllipse
10
8.170968
20
0.575
30
0
11
-5.5107285922007E-16
21
-3
31
0
210
0
220
0
230
1
40
0.891007
41
-0.677700316731242
42
-2.90740745111097E-16
0
ELLIPSE
5
10A
100
AcDbEntity
8
1
62
256
6
ByLayer
370
18
48
1
60
0
100
AcDbEllipse
10
8.170968
20
0.575
30
0
11
-5.5107285922007E-16
21
-3
31
0
210
0
220
0
230
1
40
0.891007
41
0
42
0.672300786296548
0
ELLIPSE
5
10B
100
AcDbEntity
8
1
62
256
6
ByLayer
370
13
48
1
60
0
100
AcDbEllipse
10
8.170968
20
0.575
30
0
11
-5.5107285922007E-16
21
-3
31
0
210
0
220
0
230
1
40
0.891007
41
-1.57079618971732
42
-0.677700316731253
0
POINT
5
70
100
AcDbEntity
8
81
62
256
6
ByLayer
370
18
48
1
60
0
100
AcDbPoint
10
21.6
20
-5.05
30
0
39
0
210
0
220
0
230
1
50
360
0
POINT
5
72
100
AcDbEntity
8
80
62
256
6
ByLayer
370
18
48
1
60
0
100
AcDbPoint
10
0
20
0
30
0
39
0
210
0
220
0
230
1
50
360
0
POINT
5
74
100
AcDbEntity
8
1
62
256
6
ByLayer
370
18
48
1
60
1
100
AcDbPoint
10
21.6
20
-5.05
30
0
39
0
210
0
220
0
230
1
50
360
0
POINT
5
76
100
AcDbEntity
8
1
62
256
6
ByLayer
370
18
48
1
60
1
100
AcDbPoint
10
-103.4
20
4.95
30
0
39
0
210
0
220
0
230
1
50
360
0
POINT
5
77
100
AcDbEntity
8
1
62
256
6
ByLayer
370
18
48
1
60
1
100
AcDbPoint
10
21.6
20
-3.55
30
0
39
0
210
0
220
0
230
1
50
360
0
POINT
5
78
100
AcDbEntity
8
1
62
256
6
ByLayer
370
18
48
1
60
1
100
AcDbPoint
10
21.6
20
-5.05
30
0
39
0
210
0
220
0
230
1
50
360
0
POINT
5
79
100
AcDbEntity
8
1
62
256
6
ByLayer
370
18
48
1
60
1
100
AcDbPoint
10
-103.4
20
4.95
30
0
39
0
210
0
220
0
230
1
50
360
0
POINT
5
7A
100
AcDbEntity
8
1
62
256
6
ByLayer
370
18
48
1
60
1
100
AcDbPoint
10
-103.4
20
-5.05
30
0
39
0
210
0
220
0
230
1
50
360
0
POINT
5
7B
100
AcDbEntity
8
1
62
256
6
ByLayer
370
18
48
1
60
1
100
AcDbPoint
10
11.6
20
-3.8
30
0
39
0
210
0
220
0
230
1
50
360
0
POINT
5
7C
100
AcDbEntity
8
1
62
256
6
ByLayer
370
18
48
1
60
1
100
AcDbPoint
10
21.6
20
-5.05
30
0
39
0
210
0
220
0
230
1
50
360
0
POINT
5
7D
100
AcDbEntity
8
1
62
256
6
ByLayer
370
18
48
1
60
1
100
AcDbPoint
10
-103.4
20
4.95
30
0
39
0
210
0
220
0
230
1
50
360
0
POINT
5
7E
100
AcDbEntity
8
1
62
256
6
ByLayer
370
18
48
1
60
1
100
AcDbPoint
10
21.6
20
-5.05
30
0
39
0
210
0
220
0
230
1
50
360
0
SPLINE
5
10C
100
AcDbEntity
8
1
62
256
6
ByLayer
370
18
48
1
60
0
100
AcDbSpline
70
4
71
3
72
21
73
17
40
0
40
0
40
0
40
0
40
0.0741587473048484
40
0.150074601373254
40
0.226096532075205
40
0.302206076684307
40
0.378384217576767
40
0.454614170207701
40
0.530882190191586
40
0.607176899466011
40
0.683484670408105
40
0.759792677217502
40
0.836084738053731
40
0.912339712986577
40
0.988531648192774
40
1
40
1
40
1
40
1
41
1
10
9.85788542359066
20
-1.7641625482012
30
0
41
1
10
9.95135600638321
20
-1.68088215957911
30
0
41
1
10
10.1285992489783
20
-1.50040258362264
30
0
41
1
10
10.361039502394
20
-1.18924180079046
30
0
41
1
10
10.5549017127102
20
-0.843933985487951
30
0
41
1
10
10.7052004335145
20
-0.47227363312237
30
0
41
1
10
10.8090444791674
20
-0.0812672966838477
30
0
41
1
10
10.8644970343622
20
0.321966135838295
30
0
41
1
10
10.8704855284966
20
0.730017185909702
30
0
41
1
10
10.8268246623193
20
1.13536387929958
30
0
41
1
10
10.7343152970296
20
1.53063512775185
30
0
41
1
10
10.5943482448669
20
1.9081822792171
30
0
41
1
10
10.4103376863101
20
2.26231431695416
30
0
41
1
10
10.1822638019451
20
2.58156866644413
30
0
41
1
10
9.99909659683107
20
2.79426133866826
30
0
41
1
10
9.88575255104905
20
2.88689296907481
30
0
41
1
10
9.87073487315132
20
2.89877899579963
30
0
0
SPLINE
5
10D
100
AcDbEntity
8
1
62
256
6
ByLayer
370
18
48
1
60
0
100
AcDbSpline
70
4
71
3
72
10
73
6
40
0
40
0
40
0
40
0
40
0.640513131676117
40
0.640513131676117
40
1
40
1
40
1
40
1
41
1
10
10.8
20
1.61453114431458
30
0
41
1
10
10.8
20
1.53138597549673
30
0
41
1
10
10.8
20
1.44681283748426
30
0
41
1
10
10.8
20
1.31227991978159
30
0
41
1
10
10.8
20
1.26378135152601
30
0
41
1
10
10.8
20
1.21517414431241
30
0
0
SPLINE
5
10E
100
AcDbEntity
8
1
62
256
6
ByLayer
370
18
48
1
60
0
100
AcDbSpline
70
4
71
3
72
8
73
4
40
0
40
0
40
0
40
0
40
1
40
1
40
1
40
1
41
1
10
10.8
20
-0.0884291443343557
30
0
41
1
10
10.8
20
-0.215660897081961
30
0
41
1
10
10.8
20
-0.340969380449081
30
0
41
1
10
10.8
20
-0.464531144314577
30
0
0
SPLINE
5
10F
100
AcDbEntity
8
1
62
256
6
ByLayer
370
18
48
1
60
0
100
AcDbSpline
70
4
71
3
72
8
73
4
40
0
40
0
40
0
40
0
40
1
40
1
40
1
40
1
41
1
10
17.0605205146145
20
-4.47524860109777
30
0
41
1
10
17.0225918408067
20
-4.58382308914614
30
0
41
1
10
16.9841083416911
20
-4.69212261272017
30
0
41
1
10
16.9447730529039
20
-4.8000000000001
30
0
0
SPLINE
5
110
100
AcDbEntity
8
1
62
256
6
ByLayer
370
18
48
1
60
0
100
AcDbSpline
70
4
71
3
72
18
73
14
40
0
40
0
40
0
40
0
40
0.125000000000007
40
0.125000000000007
40
0.250000000000014
40
0.250000000000014
40
0.500000000000008
40
0.500000000000008
40
0.625000000000005
40
0.625000000000005
40
0.750000000000001
40
0.750000000000001
40
1
40
1
40
1
40
1
41
1
10
17.0605205146148
20
-4.12475139890219
30
0
41
1
10
17.0654011884589
20
-4.1387227986572
30
0
41
1
10
17.0696994825267
20
-4.15293513011093
30
0
41
1
10
17.0771161922746
20
-4.18184791110878
30
0
41
1
10
17.0802073141043
20
-4.19645227659359
30
0
41
1
10
17.0876110764166
20
-4.24043074647258
30
0
41
1
10
17.0900989817371
20
-4.27008160798783
30
0
41
1
10
17.0900930913046
20
-4.31506464953696
30
0
41
1
10
17.0894537743188
20
-4.33021981532437
30
0
41
1
10
17.0869293462571
20
-4.36010259869997
30
0
41
1
10
17.0850507573535
20
-4.37487828228638
30
0
41
1
10
17.0776177268464
20
-4.41872215116305
30
0
41
1
10
17.0702800702554
20
-4.44731093149539
30
0
41
1
10
17.0605205146145
20
-4.47524860109777
30
0
0
SPLINE
5
111
100
AcDbEntity
8
1
62
256
6
ByLayer
370
18
48
1
60
0
100
AcDbSpline
70
4
71
3
72
8
73
4
40
0
40
0
40
0
40
0
40
1
40
1
40
1
40
1
41
1
10
16.944773052904
20
-3.80000000000015
30
0
41
1
10
16.9841083416912
20
-3.90787738728002
30
0
41
1
10
17.0225918408067
20
-4.016176910854
30
0
41
1
10
17.0605205146145
20
-4.12475139890233
30
0
0
SPLINE
5
112
100
AcDbEntity
8
1
62
256
6
ByLayer
370
18
48
1
60
0
100
AcDbSpline
70
4
71
3
72
26
73
22
40
0
40
0
40
0
40
0
40
0.0324841770385515
40
0.129235759334709
40
0.129235759334709
40
0.225987341630867
40
0.225987341630867
40
0.419490506223147
40
0.419490506223147
40
0.467866297371214
40
0.467866297371214
40
0.516242088519282
40
0.516242088519282
40
0.612993670815413
40
0.709745253111544
40
0.709745253111544
40
0.758121044259619
40
0.758121044259619
40
0.806496835407694
40
0.806496835407694
40
1
40
1
40
1
40
1
41
1
10
16.944036204413
20
-3.69443266697272
30
0
41
1
10
16.9367303739844
20
-3.69025381549443
30
0
41
1
10
16.9078669290144
20
-3.67313506902289
30
0
41
1
10
16.8798178840167
20
-3.65403212573318
30
0
41
1
10
16.8387937155663
20
-3.62307048733175
30
0
41
1
10
16.8187353058706
20
-3.60636366616384
30
0
41
1
10
16.7612076781542
20
-3.55343343340257
30
0
41
1
10
16.72598972808
20
-3.51418644525376
30
0
41
1
10
16.6863273680746
20
-3.45965493095298
30
0
41
1
10
16.6785956132577
20
-3.44844158044145
30
0
41
1
10
16.6636968011773
20
-3.42559711705491
30
0
41
1
10
16.6565387371309
20
-3.41398373394532
30
0
41
1
10
16.6359426344667
20
-3.37856812132597
30
0
41
1
10
16.6108177998161
20
-3.32981598526166
30
0
41
1
10
16.5905217396437
20
-3.27790580946922
30
0
41
1
10
16.5772334427693
20
-3.23771063426855
30
0
41
1
10
16.5731278242878
20
-3.22409184608145
30
0
41
1
10
16.5656844065925
20
-3.19679207395492
30
0
41
1
10
16.5623307650383
20
-3.18306634502835
30
0
41
1
10
16.5473922754651
20
-3.11406086441195
30
0
41
1
10
16.5412313427188
20
-3.05766419566939
30
0
41
1
10
16.5412313427188
20
-3.00000000000008
30
0
0
SPLINE
5
113
100
AcDbEntity
8
1
62
256
6
ByLayer
370
18
48
1
60
0
100
AcDbSpline
70
4
71
3
72
28
73
24
40
0
40
0
40
0
40
0
40
0.18961379409332
40
0.18961379409332
40
0.237017242616653
40
0.237017242616653
40
0.284420691139987
40
0.284420691139987
40
0.37922758818664
40
0.474034485233294
40
0.474034485233294
40
0.521437933756629
40
0.521437933756629
40
0.568841382279964
40
0.568841382279964
40
0.75845517637334
40
0.75845517637334
40
0.805858624896688
40
0.805858624896688
40
0.853262073420037
40
0.853262073420037
40
0.948068970466701
40
1
40
1
40
1
40
1
41
1
10
12.0314708819937
20
-2.99999999999997
30
0
41
1
10
12.0222806653594
20
-3.05087300750341
30
0
41
1
10
12.0183904847705
20
-3.10194641649417
30
0
41
1
10
12.0206573200599
20
-3.16605775601872
30
0
41
1
10
12.0214739085416
20
-3.17891340646062
30
0
41
1
10
12.023825795662
20
-3.20441161325763
30
0
41
1
10
12.0253608943235
20
-3.217080734349
30
0
41
1
10
12.03104475048
20
-3.25484790687929
30
0
41
1
10
12.0414943429919
20
-3.30456475128423
30
0
41
1
10
12.0578265880427
20
-3.35297155409307
30
0
41
1
10
12.0724099010542
20
-3.38875685559052
30
0
41
1
10
12.0776487829745
20
-3.40056189698069
30
0
41
1
10
12.0887774585948
20
-3.42370098656218
30
0
41
1
10
12.0946806069454
20
-3.43506864122455
30
0
41
1
10
12.1258734084704
20
-3.49090758962669
30
0
41
1
10
12.1561406431493
20
-3.53241284645478
30
0
41
1
10
12.2008773832966
20
-3.58018124456089
30
0
41
1
10
12.2101306327328
20
-3.58947825042287
30
0
41
1
10
12.2290723969201
20
-3.60741074581617
30
0
41
1
10
12.2387848503609
20
-3.61607206513639
30
0
41
1
10
12.2686266415277
20
-3.64116684084837
30
0
41
1
10
12.3008694983162
20
-3.6652290272834
30
0
41
1
10
12.3352848731282
20
-3.68654890838556
30
0
41
1
10
12.347736187299
20
-3.6937512496408
30
0
0
SPLINE
5
114
100
AcDbEntity
8
1
62
256
6
ByLayer
370
18
48
1
60
0
100
AcDbSpline
70
4
71
2
72
9
73
6
40
0
40
0
40
0
40
0.25
40
0.5
40
0.75
40
1
40
1
40
1
41
1
10
7.61918651343592
20
-4.87769703718004
30
0
41
1
10
7.6192956032192
20
-4.91896357506957
30
0
41
1
10
7.65164485492016
20
-4.99452562113922
30
0
41
1
10
7.71121397949844
20
-5.05103882269867
30
0
41
1
10
7.78835141847924
20
-5.0796944356826
30
0
41
1
10
7.83052544895355
20
-5.07735866884303
30
0
0
SPLINE
5
115
100
AcDbEntity
8
1
62
256
6
ByLayer
370
18
48
1
60
0
100
AcDbSpline
70
4
71
11
72
24
73
12
40
0
40
0
40
0
40
0
40
0
40
0
40
0
40
0
40
0
40
0
40
0
40
0
40
1
40
1
40
1
40
1
40
1
40
1
40
1
40
1
40
1
40
1
40
1
40
1
41
1
10
21.5999999999961
20
-4.87769703718129
30
0
41
1
10
21.5999999999961
20
-4.9073147458933
30
0
41
1
10
21.5951819640784
20
-4.93693245241829
30
0
41
1
10
21.5855458934813
20
-4.96567691795229
30
0
41
1
10
21.5712693544425
20
-4.99267488118531
30
0
41
1
10
21.5527074863479
20
-5.0170944854903
30
0
41
1
10
21.5303817736604
20
-5.03818661530431
30
0
41
1
10
21.50495761701
20
-5.05532263691029
30
0
41
1
10
21.4772121568911
20
-5.0680247886213
30
0
41
1
10
21.4479953656577
20
-5.07598641692931
30
0
41
1
10
21.4181881431402
20
-5.0790807854093
30
0
41
1
10
21.3886610644784
20
-5.07735866884431
30
0
0
SPLINE
5
116
100
AcDbEntity
8
1
62
256
6
ByLayer
370
18
48
1
60
0
100
AcDbSpline
70
4
71
2
72
9
73
6
40
0
40
0
40
0
40
0.25
40
0.5
40
0.75
40
1
40
1
40
1
41
1
10
21.6
20
-3.72230296282004
30
0
41
1
10
21.5998909102167
20
-3.68103642493051
30
0
41
1
10
21.5675416585157
20
-3.60547437886086
30
0
41
1
10
21.5079725339375
20
-3.54896117730141
30
0
41
1
10
21.4308350949566
20
-3.52030556431748
30
0
41
1
10
21.3886610644823
20
-3.52264133115705
30
0
0
SPLINE
5
117
100
AcDbEntity
8
1
62
256
6
ByLayer
370
18
48
1
60
0
100
AcDbSpline
70
4
71
2
72
6
73
3
40
0
40
0
40
0
40
1
40
1
40
1
41
1
10
9.99751478412912
20
-4.99007405205504
30
0
41
1
10
10.0178615819666
20
-4.98897077990119
30
0
41
1
10
10.037463855899
20
-4.98389856670804
30
0
0
SPLINE
5
118
100
AcDbEntity
8
1
62
256
6
ByLayer
370
18
48
1
60
0
100
AcDbSpline
70
4
71
3
72
8
73
4
40
0
40
0
40
0
40
0
40
1
40
1
40
1
40
1
41
1
10
10.3277393511818
20
-4.91500000000005
30
0
41
1
10
10.3098716773459
20
-4.91500000000005
30
0
41
1
10
10.2920053640926
20
-4.9172975903011
30
0
41
1
10
10.2747315817619
20
-4.92181483480832
30
0
0
SPLINE
5
119
100
AcDbEntity
8
1
62
256
6
ByLayer
370
18
48
1
60
0
100
AcDbSpline
70
4
71
8
72
18
73
9
40
0
40
0
40
0
40
0
40
0
40
0
40
0
40
0
40
0
40
1
40
1
40
1
40
1
40
1
40
1
40
1
40
1
40
1
41
1
10
11.6516376526745
20
-3.68500000000003
30
0
41
1
10
11.6462550188094
20
-3.68500000000003
30
0
41
1
10
11.64087586035
20
-3.68500000000003
30
0
41
1
10
11.6355011304682
20
-3.68500000000003
30
0
41
1
10
11.6301317814344
20
-3.68500000000003
30
0
41
1
10
11.6247687643377
20
-3.68500000000003
30
0
41
1
10
11.6194130286972
20
-3.68500000000003
30
0
41
1
10
11.6140655220835
20
-3.68500000000003
30
0
41
1
10
11.6087271898108
20
-3.68500000000003
30
0
0
SPLINE
5
11A
100
AcDbEntity
8
1
62
256
6
ByLayer
370
18
48
1
60
0
100
AcDbSpline
70
4
71
8
72
18
73
9
40
0
40
0
40
0
40
0
40
0
40
0
40
0
40
0
40
0
40
1
40
1
40
1
40
1
40
1
40
1
40
1
40
1
40
1
41
1
10
11.6516376526745
20
-4.91500000000005
30
0
41
1
10
11.6462550188094
20
-4.91500000000005
30
0
41
1
10
11.64087586035
20
-4.91500000000005
30
0
41
1
10
11.6355011304682
20
-4.91500000000005
30
0
41
1
10
11.6301317814344
20
-4.91500000000005
30
0
41
1
10
11.6247687643377
20
-4.91500000000005
30
0
41
1
10
11.6194130286972
20
-4.91500000000005
30
0
41
1
10
11.6140655220835
20
-4.91500000000005
30
0
41
1
10
11.6087271898108
20
-4.91500000000005
30
0
0
SPLINE
5
11B
100
AcDbEntity
8
1
62
256
6
ByLayer
370
18
48
1
60
0
100
AcDbSpline
70
4
71
2
72
6
73
3
40
0
40
0
40
0
40
1
40
1
40
1
41
1
10
18.8399688943771
20
-4.91500000000005
30
0
41
1
10
18.8672220174479
20
-4.91508148075951
30
0
41
1
10
18.8934591961736
20
-4.92181483481005
30
0
0
SPLINE
5
11C
100
AcDbEntity
8
1
62
256
6
ByLayer
370
18
48
1
60
0
100
AcDbSpline
70
4
71
3
72
8
73
4
40
0
40
0
40
0
40
0
40
1
40
1
40
1
40
1
41
1
10
19.1731995121745
20
-4.99007405205532
30
0
41
1
10
19.1595886375346
20
-4.98938507565393
30
0
41
1
10
19.146058675874
20
-4.98731165208702
30
0
41
1
10
19.1328867820106
20
-4.98389856670849
30
0
0
SPLINE
5
11D
100
AcDbEntity
8
1
62
256
6
ByLayer
370
18
48
1
60
0
100
AcDbSpline
70
4
71
2
72
6
73
3
40
0
40
0
40
0
40
1
40
1
40
1
41
1
10
19.1731995121745
20
-3.60992594794504
30
0
41
1
10
19.1526674964191
20
-3.61102922009889
30
0
41
1
10
19.1328867820071
20
-3.61610143329204
30
0
0
SPLINE
5
11E
100
AcDbEntity
8
1
62
256
6
ByLayer
370
18
48
1
60
0
100
AcDbSpline
70
4
71
3
72
8
73
4
40
0
40
0
40
0
40
0
40
1
40
1
40
1
40
1
41
1
10
18.8399688943792
20
-3.68500000000003
30
0
41
1
10
18.8579974123401
20
-3.68500000000003
30
0
41
1
10
18.8760245697179
20
-3.68270240969898
30
0
41
1
10
18.8934591961741
20
-3.67818516519176
30
0
0
SPLINE
5
11F
100
AcDbEntity
8
1
62
256
6
ByLayer
370
18
48
1
60
0
100
AcDbSpline
70
4
71
8
72
18
73
9
40
0
40
0
40
0
40
0
40
0
40
0
40
0
40
0
40
0
40
1
40
1
40
1
40
1
40
1
40
1
40
1
40
1
40
1
41
1
10
17.504215195566
20
-3.68500000000003
30
0
41
1
10
17.5095978294288
20
-3.68500000000003
30
0
41
1
10
17.5149839386573
20
-3.68500000000003
30
0
41
1
10
17.5203725700798
20
-3.68500000000003
30
0
41
1
10
17.5257627697025
20
-3.68500000000003
30
0
41
1
10
17.5311535829896
20
-3.68500000000003
30
0
41
1
10
17.5365440552537
20
-3.68500000000003
30
0
41
1
10
17.5419332320356
20
-3.68500000000003
30
0
41
1
10
17.5473201594157
20
-3.68500000000003
30
0
0
SPLINE
5
120
100
AcDbEntity
8
1
62
256
6
ByLayer
370
18
48
1
60
0
100
AcDbSpline
70
4
71
8
72
18
73
9
40
0
40
0
40
0
40
0
40
0
40
0
40
0
40
0
40
0
40
1
40
1
40
1
40
1
40
1
40
1
40
1
40
1
40
1
41
1
10
17.504215195566
20
-4.91500000000005
30
0
41
1
10
17.5095978294288
20
-4.91500000000005
30
0
41
1
10
17.5149839386573
20
-4.91500000000005
30
0
41
1
10
17.5203725700798
20
-4.91500000000005
30
0
41
1
10
17.5257627697025
20
-4.91500000000005
30
0
41
1
10
17.5311535829896
20
-4.91500000000005
30
0
41
1
10
17.5365440552537
20
-4.91500000000005
30
0
41
1
10
17.5419332320356
20
-4.91500000000005
30
0
41
1
10
17.5473201594157
20
-4.91500000000005
30
0
0
SPLINE
5
121
100
AcDbEntity
8
1
62
256
6
ByLayer
370
18
48
1
60
0
100
AcDbSpline
70
4
71
5
72
12
73
6
40
0
40
0
40
0
40
0
40
0
40
0
40
1
40
1
40
1
40
1
40
1
40
1
41
1
10
17.504215195566
20
-3.83500000000004
30
0
41
1
10
17.5129073314962
20
-3.83499999421204
30
0
41
1
10
17.5216086784979
20
-3.83552037946904
30
0
41
1
10
17.5302725796263
20
-3.83656100863104
30
0
41
1
10
17.5388553500442
20
-3.83810102617704
30
0
41
1
10
17.5473201594157
20
-3.84010535304103
30
0
0
SPLINE
5
122
100
AcDbEntity
8
1
62
256
6
ByLayer
370
18
48
1
60
0
100
AcDbSpline
70
4
71
5
72
12
73
6
40
0
40
0
40
0
40
0
40
0
40
0
40
1
40
1
40
1
40
1
40
1
40
1
41
1
10
17.504215195566
20
-4.76500000000004
30
0
41
1
10
17.5129073314962
20
-4.76500000578804
30
0
41
1
10
17.5216086784979
20
-4.76447962053103
30
0
41
1
10
17.5302725796263
20
-4.76343899136904
30
0
41
1
10
17.5388553500442
20
-4.76189897382304
30
0
41
1
10
17.5473201594157
20
-4.75989464695905
30
0
0
SPLINE
5
123
100
AcDbEntity
8
1
62
256
6
ByLayer
370
18
48
1
60
0
100
AcDbSpline
70
4
71
3
72
40
73
36
40
0
40
0
40
0
40
0
40
0.0624999999999957
40
0.0624999999999957
40
0.0937499999999934
40
0.0937499999999934
40
0.124999999999991
40
0.124999999999991
40
0.187499999999989
40
0.187499999999989
40
0.249999999999987
40
0.249999999999987
40
0.312499999999985
40
0.312499999999985
40
0.374999999999983
40
0.374999999999983
40
0.437499999999981
40
0.437499999999981
40
0.499999999999979
40
0.499999999999979
40
0.624999999999978
40
0.624999999999978
40
0.687499999999982
40
0.687499999999982
40
0.749999999999986
40
0.749999999999986
40
0.812499999999989
40
0.812499999999989
40
0.874999999999993
40
0.874999999999993
40
0.906249999999995
40
0.906249999999995
40
0.937499999999996
40
0.937499999999996
40
1
40
1
40
1
40
1
41
1
10
9.48224360780233
20
0.952763951723824
30
0
41
1
10
9.46606029984895
20
0.944475174349463
30
0
41
1
10
9.45157633089798
20
0.933910309876438
30
0
41
1
10
9.43156173009754
20
0.915757955352916
30
0
41
1
10
9.4251891660432
20
0.909309259267019
30
0
41
1
10
9.41313039127732
20
0.89591111947334
30
0
41
1
10
9.40741751652581
20
0.888937697017354
30
0
41
1
10
9.39110712057669
20
0.867295844987524
30
0
41
1
10
9.38144268578625
20
0.852065312864255
30
0
41
1
10
9.36408957654464
20
0.820400740236835
30
0
41
1
10
9.35643379770153
20
0.80400442766404
30
0
41
1
10
9.34298652319546
20
0.770514454915713
30
0
41
1
10
9.33716277998968
20
0.753326761648793
30
0
41
1
10
9.32727563834783
20
0.718540507040899
30
0
41
1
10
9.32320244643614
20
0.700928993648773
30
0
41
1
10
9.3166905827249
20
0.665291776014953
30
0
41
1
10
9.3142598778015
20
0.647275461041829
30
0
41
1
10
9.31103329876109
20
0.611200847917814
30
0
41
1
10
9.3102284412075
20
0.593096538245248
30
0
41
1
10
9.31023500427392
20
0.538586147036796
30
0
41
1
10
9.31342677590004
20
0.502573152092282
30
0
41
1
10
9.32320387856475
20
0.44906155828761
30
0
41
1
10
9.32728974424765
20
0.431405208735441
30
0
41
1
10
9.33716964546468
20
0.396653748191909
30
0
41
1
10
9.34298365779853
20
0.379489463646649
30
0
41
1
10
9.35646083076136
20
0.345931470819437
30
0
41
1
10
9.36412686574542
20
0.329523919282451
30
0
41
1
10
9.38148348708768
20
0.297867567197244
30
0
41
1
10
9.39119087518924
20
0.282583591140991
30
0
41
1
10
9.40747070619716
20
0.260996484384378
30
0
41
1
10
9.41317784265254
20
0.254032766002979
30
0
41
1
10
9.42523965252116
20
0.240638067133403
30
0
41
1
10
9.43161619168632
20
0.234189984910245
30
0
41
1
10
9.45158807150571
20
0.216084397130203
30
0
41
1
10
9.46605238076151
20
0.205528881654033
30
0
41
1
10
9.48224360780233
20
0.19723604827621
30
0
0
SPLINE
5
124
100
AcDbEntity
8
1
62
256
6
ByLayer
370
18
48
1
60
0
100
AcDbSpline
70
4
71
3
72
8
73
4
40
0
40
0
40
0
40
0
40
1
40
1
40
1
40
1
41
1
10
9.48224360780233
20
0.19723604827621
30
0
41
1
10
9.48899991689029
20
0.193775597417584
30
0
41
1
10
9.49575627765444
20
0.190315605698572
30
0
41
1
10
9.50251268699475
20
0.18685605589161
30
0
0
SPLINE
5
125
100
AcDbEntity
8
1
62
256
6
ByLayer
370
18
48
1
60
0
100
AcDbSpline
70
4
71
3
72
8
73
4
40
0
40
0
40
0
40
0
40
1
40
1
40
1
40
1
41
1
10
9.50251268699475
20
0.963143944108396
30
0
41
1
10
9.49575627765444
20
0.959684394301433
30
0
41
1
10
9.48899991689029
20
0.95622440258245
30
0
41
1
10
9.48224360780233
20
0.952763951723824
30
0
0
SPLINE
5
126
100
AcDbEntity
8
1
62
256
6
ByLayer
370
18
48
1
60
0
100
AcDbSpline
70
4
71
3
72
31
73
27
40
0
40
0
40
0
40
0
40
0.249999999999918
40
0.249999999999918
40
0.374999999999886
40
0.374999999999886
40
0.499999999999855
40
0.499999999999855
40
0.56249999999984
40
0.56249999999984
40
0.624999999999825
40
0.624999999999825
40
0.68749999999981
40
0.68749999999981
40
0.749999999999795
40
0.749999999999795
40
0.781249999999805
40
0.781249999999805
40
0.812499999999815
40
0.843749999999824
40
0.843749999999824
40
0.874999999999834
40
0.874999999999834
40
0.937499999999917
40
0.937499999999917
40
1
40
1
40
1
40
1
41
1
10
9.55533388601293
20
-0.263199999999983
30
0
41
1
10
9.57503610546223
20
-0.224900342049381
30
0
41
1
10
9.59157983927761
20
-0.184644117953411
30
0
41
1
10
9.61028233177075
20
-0.122330752071775
30
0
41
1
10
9.61549530828941
20
-0.101202063924688
30
0
41
1
10
9.62335756111767
20
-0.0584361608031543
30
0
41
1
10
9.62601926459942
20
-0.0367757503574353
30
0
41
1
10
9.62741960835848
20
-0.0041117884510697
30
0
41
1
10
9.62745009734388
20
0.0068261165911849
30
0
41
1
10
9.62645973944592
20
0.0286221106142079
30
0
41
1
10
9.62543363866274
20
0.0395489013758095
30
0
41
1
10
9.6221118281149
20
0.0610820452288863
30
0
41
1
10
9.61982713407406
20
0.0716634331415378
30
0
41
1
10
9.61372508838133
20
0.0923645562292279
30
0
41
1
10
9.60991294021784
20
0.102485922485329
30
0
41
1
10
9.60267965890881
20
0.11720569022404
30
0
41
1
10
9.59999278091539
20
0.122066114578416
30
0
41
1
10
9.59413159955449
20
0.131412940747452
30
0
41
1
10
9.58779457833847
20
0.140383903535763
30
0
41
1
10
9.5804262863187
20
0.148538223263728
30
0
41
1
10
9.57248841703557
20
0.156240526729874
30
0
41
1
10
9.56822567209412
20
0.159863054072701
30
0
41
1
10
9.55493746752916
20
0.169679145121478
30
0
41
1
10
9.54529666122039
20
0.174952610231202
30
0
41
1
10
9.52444479205923
20
0.182943533132828
30
0
41
1
10
9.51362185014349
20
0.185512668063609
30
0
41
1
10
9.50251268699475
20
0.18685605589161
30
0
0
SPLINE
5
127
100
AcDbEntity
8
1
62
256
6
ByLayer
370
18
48
1
60
0
100
AcDbSpline
70
4
71
3
72
32
73
28
40
0
40
0
40
0
40
0
40
0.125000000000018
40
0.125000000000018
40
0.250000000000036
40
0.250000000000036
40
0.375000000000055
40
0.375000000000055
40
0.500000000000073
40
0.500000000000073
40
0.562500000000082
40
0.562500000000082
40
0.625000000000091
40
0.625000000000091
40
0.6875000000001
40
0.6875000000001
40
0.750000000000109
40
0.750000000000109
40
0.812500000000118
40
0.812500000000118
40
0.843750000000099
40
0.843750000000099
40
0.875000000000079
40
0.875000000000079
40
0.937500000000039
40
0.937500000000039
40
1
40
1
40
1
40
1
41
1
10
9.5553338860129
20
1.41320000000002
30
0
41
1
10
9.56519181342225
20
1.39403691794976
30
0
41
1
10
9.57421490188824
20
1.37444603427079
30
0
41
1
10
9.59052354873396
20
1.33437832340331
30
0
41
1
10
9.59780065660757
20
1.31391517171696
30
0
41
1
10
9.61028438472545
20
1.27232620346453
30
0
41
1
10
9.61549666402885
20
1.25120222244115
30
0
41
1
10
9.62336838317117
20
1.20836975079337
30
0
41
1
10
9.62602629287662
20
1.18673026636719
30
0
41
1
10
9.627422147701
20
1.15399294388166
30
0
41
1
10
9.62744873442216
20
1.14308944188301
30
0
41
1
10
9.62645410222643
20
1.12130865588352
30
0
41
1
10
9.62542804643681
20
1.11039003295454
30
0
41
1
10
9.62208838659183
20
1.08879103036685
30
0
41
1
10
9.61978833231228
20
1.07816054405131
30
0
41
1
10
9.6136207053392
20
1.05732675805535
30
0
41
1
10
9.60974309833983
20
1.0470897037238
30
0
41
1
10
9.59995429124268
20
1.02733091984973
30
0
41
1
10
9.59415599458293
20
1.01803141886148
30
0
41
1
10
9.58378408810765
20
1.00516290724724
30
0
41
1
10
9.58003158997354
20
1.00104830727889
30
0
41
1
10
9.57211933172721
20
0.993434924879978
30
0
41
1
10
9.56793897943379
20
0.989907080217165
30
0
41
1
10
9.55470478143536
20
0.980186841343937
30
0
41
1
10
9.54479358472179
20
0.974821368816492
30
0
41
1
10
9.52426976375901
20
0.967023739457062
30
0
41
1
10
9.51358055408582
20
0.964482338165027
30
0
41
1
10
9.50251268699475
20
0.963143944108424
30
0
0
SPLINE
5
128
100
AcDbEntity
8
1
62
256
6
ByLayer
370
18
48
1
60
0
100
AcDbSpline
70
4
71
3
72
8
73
4
40
0
40
0
40
0
40
0
40
1
40
1
40
1
40
1
41
1
10
9.13742308290858
20
1.62306955824292
30
0
41
1
10
9.14430972691866
20
1.62627664764909
30
0
41
1
10
9.15119640531182
20
1.62948331153217
30
0
41
1
10
9.15808311563688
20
1.63268956585836
30
0
0
SPLINE
5
129
100
AcDbEntity
8
1
62
256
6
ByLayer
370
18
48
1
60
0
100
AcDbSpline
70
4
71
3
72
31
73
27
40
0
40
0
40
0
40
0
40
0.250000000000025
40
0.250000000000025
40
0.375000000000061
40
0.375000000000061
40
0.500000000000096
40
0.500000000000096
40
0.562500000000084
40
0.562500000000084
40
0.625000000000072
40
0.625000000000072
40
0.68750000000006
40
0.68750000000006
40
0.750000000000049
40
0.750000000000049
40
0.781250000000042
40
0.781250000000042
40
0.812500000000036
40
0.84375000000003
40
0.84375000000003
40
0.875000000000024
40
0.875000000000024
40
0.937500000000012
40
0.937500000000012
40
1
40
1
40
1
40
1
41
1
10
9.5553338860129
20
1.41320000000002
30
0
41
1
10
9.53563166656357
20
1.45149965795059
30
0
41
1
10
9.5126022466568
20
1.48817071889863
30
0
41
1
10
9.47305896094946
20
1.53908283951014
30
0
41
1
10
9.45901357751509
20
1.55539097926891
30
0
41
1
10
9.42904384251446
20
1.58616766342595
30
0
41
1
10
9.4131083212859
20
1.60065888285456
30
0
41
1
10
9.38755340906198
20
1.6203939456758
30
0
41
1
10
9.37874023798082
20
1.6266474619581
30
0
41
1
10
9.36055908552476
20
1.63826910157607
30
0
41
1
10
9.35113255961073
20
1.64367211619398
30
0
41
1
10
9.33178330828366
20
1.65329513224691
30
0
41
1
10
9.3218872875392
20
1.6575096007121
30
0
41
1
10
9.30154823280566
20
1.66448417060434
30
0
41
1
10
9.29110708511428
20
1.66724908932369
30
0
41
1
10
9.27490191962835
20
1.66997000109987
30
0
41
1
10
9.26937070432174
20
1.67063875818985
30
0
41
1
10
9.25831322532497
20
1.67139315044315
30
0
41
1
10
9.24726917824859
20
1.67157229791928
30
0
41
1
10
9.2362533586591
20
1.67050850211149
30
0
41
1
10
9.22525270701644
20
1.66876002110931
30
0
41
1
10
9.21975655635714
20
1.66753514329164
30
0
41
1
10
9.20380413343554
20
1.66289809575255
30
0
41
1
10
9.1937083088649
20
1.65850915250269
30
0
41
1
10
9.17459796641919
20
1.64713283042386
30
0
41
1
10
9.1659388106907
20
1.64035745512194
30
0
41
1
10
9.15808311563688
20
1.63268956585836
30
0
0
SPLINE
5
12A
100
AcDbEntity
8
1
62
256
6
ByLayer
370
18
48
1
60
0
100
AcDbSpline
70
4
71
3
72
8
73
4
40
0
40
0
40
0
40
0
40
1
40
1
40
1
40
1
41
1
10
8.55443184942129
20
2.00083350996675
30
0
41
1
10
8.55597808838399
20
2.00750105023153
30
0
41
1
10
8.55752507030556
20
2.01416770583359
30
0
41
1
10
8.55907276614801
20
2.02083350996674
30
0
0
SPLINE
5
12B
100
AcDbEntity
8
1
62
256
6
ByLayer
370
18
48
1
60
0
100
AcDbSpline
70
4
71
3
72
40
73
36
40
0
40
0
40
0
40
0
40
0.0312499999999829
40
0.0312499999999829
40
0.0624999999999658
40
0.0624999999999658
40
0.124999999999931
40
0.124999999999931
40
0.156249999999937
40
0.156249999999937
40
0.187499999999944
40
0.187499999999944
40
0.249999999999956
40
0.249999999999956
40
0.312499999999968
40
0.312499999999968
40
0.374999999999981
40
0.374999999999981
40
0.500000000000005
40
0.500000000000005
40
0.62500000000003
40
0.62500000000003
40
0.687500000000026
40
0.687500000000026
40
0.750000000000021
40
0.750000000000021
40
0.812500000000017
40
0.812500000000017
40
0.875000000000013
40
0.875000000000013
40
0.906250000000011
40
0.906250000000011
40
0.93750000000001
40
0.93750000000001
40
1
40
1
40
1
40
1
41
1
10
9.13742308290858
20
1.62306955824292
30
0
41
1
10
9.12913871058348
20
1.61921155096366
30
0
41
1
10
9.12061124981739
20
1.61598808051141
30
0
41
1
10
9.10315992364818
20
1.61057410081469
30
0
41
1
10
9.0942473033034
20
1.6083945883245
30
0
41
1
10
9.06751715586188
20
1.60325329894567
30
0
41
1
10
9.04952303931867
20
1.6016049265057
30
0
41
1
10
9.02234607732203
20
1.60108011744725
30
0
41
1
10
9.01324808950946
20
1.60123955606926
30
0
41
1
10
8.99525539904101
20
1.60213631705508
30
0
41
1
10
8.98632580333236
20
1.60287239919165
30
0
41
1
10
8.9597176532296
20
1.60584037322675
30
0
41
1
10
8.94221835469864
20
1.60882552576283
30
0
41
1
10
8.90764453092723
20
1.61649497576215
30
0
41
1
10
8.89049592970355
20
1.62121248554465
30
0
41
1
10
8.85724174417621
20
1.63199334074969
30
0
41
1
10
8.84107331860378
20
1.6380645056401
30
0
41
1
10
8.79384722120602
20
1.6581187358193
30
0
41
1
10
8.76405222226703
20
1.67391212278221
30
0
41
1
10
8.70785281730315
20
1.7102350177006
30
0
41
1
10
8.68192944817065
20
1.73048611561839
30
0
41
1
10
8.64699967580663
20
1.76375000357109
30
0
41
1
10
8.63604855733567
20
1.77529372467282
30
0
41
1
10
8.6156792452233
20
1.79928163658494
30
0
41
1
10
8.60622522359503
20
1.81176932794199
30
0
41
1
10
8.58909031373619
20
1.83766971744063
30
0
41
1
10
8.58140166751411
20
1.85108965734014
30
0
41
1
10
8.56818331454735
20
1.8788356011485
30
0
41
1
10
8.56263801215044
20
1.89318924578714
30
0
41
1
10
8.55640173418806
20
1.91536169119095
30
0
41
1
10
8.55467297550447
20
1.92285080097486
30
0
41
1
10
8.55201743764439
20
1.93806465478465
30
0
41
1
10
8.5510912055868
20
1.9458139611657
30
0
41
1
10
8.54976193011808
20
1.96912670698026
30
0
41
1
10
8.55072205438714
20
1.98483649504212
30
0
41
1
10
8.55443184942129
20
2.00083350996675
30
0
0
SPLINE
5
12C
100
AcDbEntity
8
1
62
256
6
ByLayer
370
18
48
1
60
0
100
AcDbSpline
70
4
71
3
72
40
73
36
40
0
40
0
40
0
40
0
40
0.062500000000005
40
0.062500000000005
40
0.093750000000031
40
0.093750000000031
40
0.125000000000057
40
0.125000000000057
40
0.187500000000061
40
0.187500000000061
40
0.250000000000066
40
0.250000000000066
40
0.31250000000007
40
0.31250000000007
40
0.375000000000075
40
0.375000000000075
40
0.437500000000079
40
0.437500000000079
40
0.500000000000083
40
0.500000000000083
40
0.625000000000058
40
0.625000000000058
40
0.687500000000047
40
0.687500000000047
40
0.750000000000037
40
0.750000000000037
40
0.812500000000026
40
0.812500000000026
40
0.875000000000015
40
0.875000000000015
40
0.90625000000001
40
0.90625000000001
40
0.937500000000005
40
0.937500000000005
40
1
40
1
40
1
40
1
41
1
10
9.13742308290858
20
-0.473069558242884
30
0
41
1
10
9.1209275852442
20
-0.465387654585385
30
0
41
1
10
9.10365608214369
20
-0.460241550406209
30
0
41
1
10
9.07697206722776
20
-0.455054043828483
30
0
41
1
10
9.06794544988492
20
-0.45376463111117
30
0
41
1
10
9.04991985422757
20
-0.451965549981168
30
0
41
1
10
9.04088548099355
20
-0.451448875004274
30
0
41
1
10
9.01372800416857
20
-0.450892946231761
30
0
41
1
10
8.9957413845645
20
-0.451840126095874
30
0
41
1
10
8.96007075546984
20
-0.455783457779887
30
0
41
1
10
8.94243680768807
20
-0.458783967900445
30
0
41
1
10
8.90781812682573
20
-0.46644964382719
30
0
41
1
10
8.89073963320843
20
-0.471140353254469
30
0
41
1
10
8.85740541148544
20
-0.481933488793658
30
0
41
1
10
8.84113327226393
20
-0.488035827057871
30
0
41
1
10
8.80934047614244
20
-0.501542872915451
30
0
41
1
10
8.79383227241226
20
-0.50894824875428
30
0
41
1
10
8.76386287447366
20
-0.524859698371358
30
0
41
1
10
8.74936023023707
20
-0.533382873281795
30
0
41
1
10
8.70730248578133
20
-0.560642385924439
30
0
41
1
10
8.68162906333495
20
-0.580741194144792
30
0
41
1
10
8.64678466947632
20
-0.61397049054699
30
0
41
1
10
8.63585124463776
20
-0.625510531336118
30
0
41
1
10
8.61552300370886
20
-0.649481465722971
30
0
41
1
10
8.6060879853307
20
-0.661960169463867
30
0
41
1
10
8.5889896347357
20
-0.687838733870052
30
0
41
1
10
8.58131759216337
20
-0.701247271101067
30
0
41
1
10
8.56812974986383
20
-0.728967098068722
30
0
41
1
10
8.56259783260401
20
-0.743307204936201
30
0
41
1
10
8.55637854157382
20
-0.765456727977039
30
0
41
1
10
8.55465482210155
20
-0.772938044127983
30
0
41
1
10
8.55200795270952
20
-0.788135930273342
30
0
41
1
10
8.55108540606798
20
-0.795876731209745
30
0
41
1
10
8.54976431930777
20
-0.819163096191488
30
0
41
1
10
8.55072634900984
20
-0.834855013893531
30
0
41
1
10
8.55443184942129
20
-0.850833509966719
30
0
0
SPLINE
5
12D
100
AcDbEntity
8
1
62
256
6
ByLayer
370
18
48
1
60
0
100
AcDbSpline
70
4
71
3
72
8
73
4
40
0
40
0
40
0
40
0
40
1
40
1
40
1
40
1
41
1
10
8.55443184942129
20
-0.850833509966719
30
0
41
1
10
8.55597808838399
20
-0.857501050231491
30
0
41
1
10
8.55752507030556
20
-0.864167705833552
30
0
41
1
10
8.55907276614801
20
-0.870833509966701
30
0
0
SPLINE
5
12E
100
AcDbEntity
8
1
62
256
6
ByLayer
370
18
48
1
60
0
100
AcDbSpline
70
4
71
3
72
32
73
28
40
0
40
0
40
0
40
0
40
0.124999999999952
40
0.124999999999952
40
0.249999999999905
40
0.249999999999905
40
0.374999999999857
40
0.374999999999857
40
0.49999999999981
40
0.49999999999981
40
0.562499999999815
40
0.562499999999815
40
0.62499999999982
40
0.62499999999982
40
0.687499999999825
40
0.687499999999825
40
0.74999999999983
40
0.74999999999983
40
0.812499999999835
40
0.812499999999835
40
0.843749999999838
40
0.843749999999838
40
0.87499999999984
40
0.87499999999984
40
0.93749999999992
40
0.93749999999992
40
1
40
1
40
1
40
1
41
1
10
9.55533388601293
20
-0.263199999999983
30
0
41
1
10
9.54547595860353
20
-0.28236308205021
30
0
41
1
10
9.53480911529516
20
-0.301047969990123
30
0
41
1
10
9.51179173716679
20
-0.337427144151889
30
0
41
1
10
9.49944752646456
20
-0.355106385099191
30
0
41
1
10
9.4730564632535
20
-0.389087137031083
30
0
41
1
10
9.45901448273628
20
-0.405392013559435
30
0
41
1
10
9.42899650796227
20
-0.436214305557883
30
0
41
1
10
9.41307570062168
20
-0.450690473474936
30
0
41
1
10
9.38745893837654
20
-0.470463681428555
30
0
41
1
10
9.37867125856488
20
-0.476694461898035
30
0
41
1
10
9.36049986642715
20
-0.488304027283505
30
0
41
1
10
9.35107996357073
20
-0.493702422463684
30
0
41
1
10
9.33166696031611
20
-0.503348811101802
30
0
41
1
10
9.32172219068653
20
-0.50757908622424
30
0
41
1
10
9.30123691419533
20
-0.514577752334048
30
0
41
1
10
9.29066326648024
20
-0.517357306090418
30
0
41
1
10
9.26886264119213
20
-0.520948608700763
30
0
41
1
10
9.25788249681943
20
-0.521722236553131
30
0
41
1
10
9.24126144812629
20
-0.521001595387929
30
0
41
1
10
9.23568195948002
20
-0.520438529898939
30
0
41
1
10
9.22476810411183
20
-0.518660030385462
30
0
41
1
10
9.21939792149186
20
-0.517445127908928
30
0
41
1
10
9.20355508256134
20
-0.512795894141107
30
0
41
1
10
9.19322072174162
20
-0.508253021349759
30
0
41
1
10
9.1744649752174
20
-0.497018386002225
30
0
41
1
10
9.16590960873984
20
-0.49032895130091
30
0
41
1
10
9.15808311563688
20
-0.482689565858323
30
0
0
SPLINE
5
12F
100
AcDbEntity
8
1
62
256
6
ByLayer
370
18
48
1
60
0
100
AcDbSpline
70
4
71
3
72
8
73
4
40
0
40
0
40
0
40
0
40
1
40
1
40
1
40
1
41
1
10
9.15808311563688
20
-0.482689565858323
30
0
41
1
10
9.15119640531182
20
-0.479483311532135
30
0
41
1
10
9.14430972691866
20
-0.476276647649058
30
0
41
1
10
9.13742308290858
20
-0.473069558242884
30
0
0
SPLINE
5
130
100
AcDbEntity
8
1
62
256
6
ByLayer
370
18
48
1
60
0
100
AcDbSpline
70
4
71
3
72
31
73
27
40
0
40
0
40
0
40
0
40
0.249999999999952
40
0.249999999999952
40
0.374999999999925
40
0.374999999999925
40
0.499999999999899
40
0.499999999999899
40
0.562499999999912
40
0.562499999999912
40
0.624999999999926
40
0.624999999999926
40
0.68749999999994
40
0.68749999999994
40
0.749999999999954
40
0.749999999999954
40
0.781249999999961
40
0.781249999999961
40
0.812499999999968
40
0.843749999999975
40
0.843749999999975
40
0.874999999999982
40
0.874999999999982
40
0.937499999999991
40
0.937499999999991
40
1
40
1
40
1
40
1
41
1
10
8.26176617083203
20
2.25140000000002
30
0
41
1
10
8.30117060973072
20
2.25140000000002
30
0
41
1
10
8.34026735520894
20
2.24781483685203
30
0
41
1
10
8.39689032854324
20
2.23641359158197
30
0
41
1
10
8.41545218544672
20
2.23159304319361
30
0
41
1
10
8.45148172459142
20
2.21960382422913
30
0
41
1
10
8.46897403401204
20
2.21243463321204
30
0
41
1
10
8.49382838756242
20
2.19950573412689
30
0
41
1
10
8.50189534155209
20
2.1948213453669
30
0
41
1
10
8.51735126161864
20
2.18464699096188
30
0
41
1
10
8.52478770845539
20
2.17912321481816
30
0
41
1
10
8.53866988124511
20
2.16721308701801
30
0
41
1
10
8.54510378389082
20
2.16084616757058
30
0
41
1
10
8.55671212177748
20
2.1471196143751
30
0
41
1
10
8.56189096051224
20
2.13976316683835
30
0
41
1
10
8.56840234993174
20
2.12776431087582
30
0
41
1
10
8.57037207476702
20
2.12357264361142
30
0
41
1
10
8.57373925882402
20
2.11498020969569
30
0
41
1
10
8.57654000415477
20
2.10618845724767
30
0
41
1
10
8.57810830241385
20
2.09697027884772
30
0
41
1
10
8.57899437362536
20
2.08751949437942
30
0
41
1
10
8.57908875555734
20
2.08267208921893
30
0
41
1
10
8.57828519742935
20
2.06821895063104
30
0
41
1
10
8.57632774581631
20
2.05855654227148
30
0
41
1
10
8.56954954352813
20
2.03918929729099
30
0
41
1
10
8.56485525298979
20
2.02984478705832
30
0
41
1
10
8.55907276614801
20
2.02083350996674
30
0
0
SPLINE
5
131
100
AcDbEntity
8
1
62
256
6
ByLayer
370
18
48
1
60
0
100
AcDbSpline
70
4
71
3
72
31
73
27
40
0
40
0
40
0
40
0
40
0.250000000000006
40
0.250000000000006
40
0.375000000000006
40
0.375000000000006
40
0.500000000000006
40
0.500000000000006
40
0.562500000000006
40
0.562500000000006
40
0.625000000000006
40
0.625000000000006
40
0.687500000000007
40
0.687500000000007
40
0.750000000000007
40
0.750000000000007
40
0.781250000000007
40
0.781250000000007
40
0.812500000000007
40
0.843750000000007
40
0.843750000000007
40
0.875000000000007
40
0.875000000000007
40
0.937500000000004
40
0.937500000000004
40
1
40
1
40
1
40
1
41
1
10
8.26176617083203
20
-1.10139999999998
30
0
41
1
10
8.30117060973075
20
-1.10139999999998
30
0
41
1
10
8.34026735520897
20
-1.09781483685202
30
0
41
1
10
8.39689032854318
20
-1.08641359158193
30
0
41
1
10
8.41545218544672
20
-1.08159304319358
30
0
41
1
10
8.45148172459142
20
-1.06960382422909
30
0
41
1
10
8.46897403401198
20
-1.06243463321201
30
0
41
1
10
8.49382838756242
20
-1.04950573412688
30
0
41
1
10
8.50189534155209
20
-1.0448213453669
30
0
41
1
10
8.51735126161861
20
-1.03464699096185
30
0
41
1
10
8.52478770845534
20
-1.02912321481816
30
0
41
1
10
8.5386698812452
20
-1.01721308701798
30
0
41
1
10
8.5451037838908
20
-1.01084616757058
30
0
41
1
10
8.55671212177748
20
-0.997119614375094
30
0
41
1
10
8.56189096051224
20
-0.989763166838316
30
0
41
1
10
8.56840234993172
20
-0.977764310875813
30
0
41
1
10
8.57037207476696
20
-0.973572643611419
30
0
41
1
10
8.57373925882399
20
-0.964980209695682
30
0
41
1
10
8.57654000415477
20
-0.956188457247663
30
0
41
1
10
8.57810830241385
20
-0.946970278847715
30
0
41
1
10
8.57899437362531
20
-0.937519494379416
30
0
41
1
10
8.57908875555734
20
-0.932672089218926
30
0
41
1
10
8.57828519742938
20
-0.918218950631058
30
0
41
1
10
8.57632774581631
20
-0.908556542271498
30
0
41
1
10
8.56954954352813
20
-0.889189297291011
30
0
41
1
10
8.56485525298979
20
-0.879844787058317
30
0
41
1
10
8.55907276614801
20
-0.870833509966701
30
0
0
SPLINE
5
132
100
AcDbEntity
8
1
62
256
6
ByLayer
370
18
48
1
60
0
100
AcDbSpline
70
4
71
3
72
42
73
38
40
0
40
0
40
0
40
0
40
0.0624999999999527
40
0.0624999999999527
40
0.093749999999939
40
0.093749999999939
40
0.124999999999925
40
0.124999999999925
40
0.187499999999926
40
0.187499999999926
40
0.249999999999926
40
0.249999999999926
40
0.312499999999926
40
0.312499999999926
40
0.374999999999926
40
0.374999999999926
40
0.437499999999927
40
0.437499999999927
40
0.499999999999927
40
0.499999999999927
40
0.562499999999927
40
0.562499999999927
40
0.624999999999928
40
0.624999999999928
40
0.749999999999892
40
0.749999999999892
40
0.781249999999902
40
0.781249999999902
40
0.812499999999911
40
0.812499999999911
40
0.874999999999926
40
0.874999999999926
40
0.906249999999951
40
0.906249999999951
40
0.937499999999977
40
0.937499999999977
40
1
40
1
40
1
40
1
41
1
10
7.86479079963374
20
2.00083350996675
30
0
41
1
10
7.86045831557834
20
1.98484653166744
30
0
41
1
10
7.8539073421384
20
1.96911978356511
30
0
41
1
10
7.84188154955848
20
1.94575658685508
30
0
41
1
10
7.83749283861874
20
1.93801119303438
30
0
41
1
10
7.82819767767157
20
1.92279980101608
30
0
41
1
10
7.82327533270092
20
1.91530277394955
30
0
41
1
10
7.80780131709986
20
1.89308458059116
30
0
41
1
10
7.79666067544153
20
1.87878975753446
30
0
41
1
10
7.77319048459392
20
1.85104530971182
30
0
41
1
10
7.76088878901459
20
1.83763979616029
30
0
41
1
10
7.73557915252252
20
1.81179651464547
30
0
41
1
10
7.72249988283835
20
1.7992907569076
30
0
41
1
10
7.69592444099754
20
1.77528317408905
30
0
41
1
10
7.68241767761538
20
1.76376743862562
30
0
41
1
10
7.65502825556558
20
1.74162564270131
30
0
41
1
10
7.64115407099845
20
1.73101083809402
30
0
41
1
10
7.613341560409
20
1.71084148687015
30
0
41
1
10
7.59936636259022
20
1.70125712436229
30
0
41
1
10
7.57129741472579
20
1.68308974058996
30
0
41
1
10
7.55730043409369
20
1.67456920227616
30
0
41
1
10
7.52937318726637
20
1.65866341868357
30
0
41
1
10
7.51539327546851
20
1.6512555136965
30
0
41
1
10
7.47403112632111
20
1.6310882593209
30
0
41
1
10
7.44715519307829
20
1.62026753279204
30
0
41
1
10
7.41430094283811
20
1.61072458160191
30
0
41
1
10
7.40776730201884
20
1.60902004560032
30
0
41
1
10
7.39477205720897
20
1.60606239684037
30
0
41
1
10
7.38829774804714
20
1.60480853403956
30
0
41
1
10
7.36922783096884
20
1.60184652308592
30
0
41
1
10
7.3569083360224
20
1.60090417376119
30
0
41
1
10
7.33907915645582
20
1.60143420474327
30
0
41
1
10
7.33324519541497
20
1.60193749257777
30
0
41
1
10
7.32182064008151
20
1.60371877639491
30
0
41
1
10
7.31620753040892
20
1.60500675723645
30
0
41
1
10
7.30013315664297
20
1.61018702842657
30
0
41
1
10
7.29031673359279
20
1.61533916442622
30
0
41
1
10
7.28179956614645
20
1.62306955824292
30
0
0
SPLINE
5
133
100
AcDbEntity
8
1
62
256
6
ByLayer
370
18
48
1
60
0
100
AcDbSpline
70
4
71
3
72
8
73
4
40
0
40
0
40
0
40
0
40
1
40
1
40
1
40
1
41
1
10
7.87021362343231
20
2.02083350996674
30
0
41
1
10
7.8684053256203
20
2.01416770583359
30
0
41
1
10
7.86659770844074
20
2.00750105023153
30
0
41
1
10
7.86479079963374
20
2.00083350996675
30
0
0
SPLINE
5
134
100
AcDbEntity
8
1
62
256
6
ByLayer
370
18
48
1
60
0
100
AcDbSpline
70
4
71
3
72
32
73
28
40
0
40
0
40
0
40
0
40
0.124999999999999
40
0.124999999999999
40
0.249999999999998
40
0.249999999999998
40
0.374999999999997
40
0.374999999999997
40
0.499999999999996
40
0.499999999999996
40
0.562499999999996
40
0.562499999999996
40
0.624999999999995
40
0.624999999999995
40
0.687499999999995
40
0.687499999999995
40
0.749999999999994
40
0.749999999999994
40
0.812499999999994
40
0.812499999999994
40
0.843749999999994
40
0.843749999999994
40
0.874999999999994
40
0.874999999999994
40
0.937499999999997
40
0.937499999999997
40
1
40
1
40
1
40
1
41
1
10
8.26176617083203
20
2.25140000000002
30
0
41
1
10
8.24205031601332
20
2.25140000000002
30
0
41
1
10
8.222237604192
20
2.25049400426096
30
0
41
1
10
8.18240341495968
20
2.24680546755525
30
0
41
1
10
8.16239670594189
20
2.24402155681619
30
0
41
1
10
8.12243900762616
20
2.23641334049563
30
0
41
1
10
8.10248848344941
20
2.2315942360006
30
0
41
1
10
8.06279312810221
20
2.21958405635127
30
0
41
1
10
8.04311042285056
20
2.21242073984215
30
0
41
1
10
8.01399090731672
20
2.19945662531023
30
0
41
1
10
8.0044017263742
20
2.19478390378103
30
0
41
1
10
7.98549041681036
20
2.18461268316705
30
0
41
1
10
7.97613318741185
20
2.17909245541824
30
0
41
1
10
7.95790655916991
20
2.16713984146867
30
0
41
1
10
7.94907805425242
20
2.16073963027557
30
0
41
1
10
7.93210960584184
20
2.14690451038939
30
0
41
1
10
7.92394240089229
20
2.13944700981421
30
0
41
1
10
7.90861124935205
20
2.12327952855051
30
0
41
1
10
7.90161903714303
20
2.11475365541463
30
0
41
1
10
7.89235927352814
20
2.10116450263516
30
0
41
1
10
7.8894757366659
20
2.09648683717782
30
0
41
1
10
7.88430818081997
20
2.08709495526546
30
0
41
1
10
7.88200274933394
20
2.08235220812611
30
0
41
1
10
7.87594356768292
20
2.06798273548503
30
0
41
1
10
7.8730432437647
20
2.05807439016627
30
0
41
1
10
7.8698574824266
20
2.0390421254593
30
0
41
1
10
7.86949186707744
20
2.02981128946595
30
0
41
1
10
7.87021362343233
20
2.02083350996674
30
0
0
SPLINE
5
135
100
AcDbEntity
8
1
62
256
6
ByLayer
370
18
48
1
60
0
100
AcDbSpline
70
4
71
3
72
8
73
4
40
0
40
0
40
0
40
0
40
1
40
1
40
1
40
1
41
1
10
7.2712032739434
20
1.63268956585836
30
0
41
1
10
7.27473399061404
20
1.62948331153217
30
0
41
1
10
7.27826606990607
20
1.62627664764909
30
0
41
1
10
7.28179956614645
20
1.62306955824292
30
0
0
SPLINE
5
136
100
AcDbEntity
8
1
62
256
6
ByLayer
370
18
48
1
60
0
100
AcDbSpline
70
4
71
3
72
40
73
36
40
0
40
0
40
0
40
0
40
0.0624999999999728
40
0.0624999999999728
40
0.0937499999999591
40
0.0937499999999591
40
0.124999999999946
40
0.124999999999946
40
0.187499999999948
40
0.187499999999948
40
0.24999999999995
40
0.24999999999995
40
0.312499999999952
40
0.312499999999952
40
0.374999999999955
40
0.374999999999955
40
0.437499999999957
40
0.437499999999957
40
0.499999999999959
40
0.499999999999959
40
0.624999999999965
40
0.624999999999965
40
0.687499999999968
40
0.687499999999968
40
0.74999999999997
40
0.74999999999997
40
0.812499999999973
40
0.812499999999973
40
0.874999999999975
40
0.874999999999975
40
0.906249999999974
40
0.906249999999974
40
0.937499999999973
40
0.937499999999973
40
1
40
1
40
1
40
1
41
1
10
7.86479079963374
20
-0.850833509966719
30
0
41
1
10
7.86046273215101
20
-0.834862828934831
30
0
41
1
10
7.85392058403647
20
-0.819151860282659
30
0
41
1
10
7.84191169909298
20
-0.79581199918141
30
0
41
1
10
7.83752904515865
20
-0.7880738903782
30
0
41
1
10
7.82824673575522
20
-0.77287666945449
30
0
41
1
10
7.8233312292563
20
-0.765386572021612
30
0
41
1
10
7.80787878070885
20
-0.743188791219296
30
0
41
1
10
7.79675259300421
20
-0.728905438960112
30
0
41
1
10
7.77331386391452
20
-0.701184198016705
30
0
41
1
10
7.76102749210907
20
-0.687788395564468
30
0
41
1
10
7.73575002087915
20
-0.661964098742885
30
0
41
1
10
7.72268725324443
20
-0.649467114903246
30
0
41
1
10
7.69614340475567
20
-0.62547399583454
30
0
41
1
10
7.68265266599875
20
-0.613964820706627
30
0
41
1
10
7.65529580294498
20
-0.591834648930387
30
0
41
1
10
7.64143661424219
20
-0.581223709796092
30
0
41
1
10
7.61365439510826
20
-0.561060546289184
30
0
41
1
10
7.59969598960072
20
-0.551479411527026
30
0
41
1
10
7.55763380357854
20
-0.524228532961217
30
0
41
1
10
7.52980771618837
20
-0.508314346237057
30
0
41
1
10
7.48830309011999
20
-0.488032048834583
30
0
41
1
10
7.47457957355925
20
-0.481915740071543
30
0
41
1
10
7.447465885149
20
-0.471135213914835
30
0
41
1
10
7.43402190620805
20
-0.466449633110472
30
0
41
1
10
7.407561504092
20
-0.4587702046895
30
0
41
1
10
7.3945345650009
20
-0.455771190383501
30
0
41
1
10
7.36911204862452
20
-0.45183466526592
30
0
41
1
10
7.35668880051043
20
-0.450890796077204
30
0
41
1
10
7.338785968774
20
-0.4514532123614
30
0
41
1
10
7.33294742515304
20
-0.451970810130973
30
0
41
1
10
7.32155481500666
20
-0.453773997406728
30
0
41
1
10
7.31598521938193
20
-0.455066716119973
30
0
41
1
10
7.30001998402065
20
-0.460247493321702
30
0
41
1
10
7.29026744988752
20
-0.465383895547546
30
0
41
1
10
7.28179956614645
20
-0.473069558242884
30
0
0
SPLINE
5
137
100
AcDbEntity
8
1
62
256
6
ByLayer
370
18
48
1
60
0
100
AcDbSpline
70
4
71
3
72
8
73
4
40
0
40
0
40
0
40
0
40
1
40
1
40
1
40
1
41
1
10
7.28179956614645
20
-0.473069558242884
30
0
41
1
10
7.27826606990607
20
-0.476276647649058
30
0
41
1
10
7.27473399061404
20
-0.479483311532135
30
0
41
1
10
7.2712032739434
20
-0.482689565858323
30
0
0
SPLINE
5
138
100
AcDbEntity
8
1
62
256
6
ByLayer
370
18
48
1
60
0
100
AcDbSpline
70
4
71
3
72
32
73
28
40
0
40
0
40
0
40
0
40
0.12499999999998
40
0.12499999999998
40
0.24999999999996
40
0.24999999999996
40
0.37499999999994
40
0.37499999999994
40
0.49999999999992
40
0.49999999999992
40
0.562499999999911
40
0.562499999999911
40
0.624999999999903
40
0.624999999999903
40
0.687499999999894
40
0.687499999999894
40
0.749999999999886
40
0.749999999999886
40
0.812499999999877
40
0.812499999999877
40
0.843749999999897
40
0.843749999999897
40
0.874999999999917
40
0.874999999999917
40
0.937499999999959
40
0.937499999999959
40
1
40
1
40
1
40
1
41
1
10
8.26176617083203
20
-1.10139999999998
30
0
41
1
10
8.24205031601332
20
-1.10139999999998
30
0
41
1
10
8.222237604192
20
-1.10049400426092
30
0
41
1
10
8.18240341495971
20
-1.09680546755521
30
0
41
1
10
8.16239670594194
20
-1.09402155681616
30
0
41
1
10
8.12243900762616
20
-1.0864133404956
30
0
41
1
10
8.10248848344941
20
-1.08159423600057
30
0
41
1
10
8.06279312810224
20
-1.06958405635123
30
0
41
1
10
8.04311042285059
20
-1.06242073984211
30
0
41
1
10
8.01399090731672
20
-1.0494566253102
30
0
41
1
10
8.00440172637428
20
-1.044783903781
30
0
41
1
10
7.98549041681031
20
-1.03461268316701
30
0
41
1
10
7.97613318741193
20
-1.02909245541821
30
0
41
1
10
7.95790655916994
20
-1.01713984146866
30
0
41
1
10
7.94907805425248
20
-1.01073963027554
30
0
41
1
10
7.93210960584184
20
-0.996904510389385
30
0
41
1
10
7.92394240089229
20
-0.989447009814199
30
0
41
1
10
7.90861124935205
20
-0.973279528550478
30
0
41
1
10
7.90161903714306
20
-0.964753655414626
30
0
41
1
10
7.89235927352809
20
-0.951164502635152
30
0
41
1
10
7.88947573666587
20
-0.946486837177787
30
0
41
1
10
7.88430818081997
20
-0.937094955265422
30
0
41
1
10
7.88200274933399
20
-0.932352208126076
30
0
41
1
10
7.87594356768295
20
-0.917982735484998
30
0
41
1
10
7.8730432437647
20
-0.908074390166234
30
0
41
1
10
7.8698574824266
20
-0.88904212545927
30
0
41
1
10
7.86949186707744
20
-0.87981128946592
30
0
41
1
10
7.87021362343233
20
-0.870833509966701
30
0
0
SPLINE
5
139
100
AcDbEntity
8
1
62
256
6
ByLayer
370
18
48
1
60
0
100
AcDbSpline
70
4
71
3
72
8
73
4
40
0
40
0
40
0
40
0
40
1
40
1
40
1
40
1
41
1
10
7.87021362343233
20
-0.870833509966701
30
0
41
1
10
7.86840532562033
20
-0.864167705833552
30
0
41
1
10
7.86659770844074
20
-0.857501050231491
30
0
41
1
10
7.86479079963374
20
-0.850833509966719
30
0
0
SPLINE
5
13A
100
AcDbEntity
8
1
62
256
6
ByLayer
370
18
48
1
60
0
100
AcDbSpline
70
4
71
3
72
31
73
27
40
0
40
0
40
0
40
0
40
0.249999999999961
40
0.249999999999961
40
0.374999999999942
40
0.374999999999942
40
0.499999999999922
40
0.499999999999922
40
0.562499999999909
40
0.562499999999909
40
0.624999999999895
40
0.624999999999895
40
0.687499999999882
40
0.687499999999882
40
0.749999999999868
40
0.749999999999868
40
0.781249999999885
40
0.781249999999885
40
0.812499999999901
40
0.843749999999918
40
0.843749999999918
40
0.874999999999934
40
0.874999999999934
40
0.937499999999967
40
0.937499999999967
40
1
40
1
40
1
40
1
41
1
10
6.96819845565113
20
-0.263199999999983
30
0
41
1
10
6.98790067510049
20
-0.301499657950586
30
0
41
1
10
7.00997727851956
20
-0.338170718898596
30
0
41
1
10
7.04627495449432
20
-0.38908283951011
30
0
41
1
10
7.05892733182975
20
-0.405390979268873
30
0
41
1
10
7.08529216946198
20
-0.43616766342592
30
0
41
1
10
7.09901786011108
20
-0.450658882854555
30
0
41
1
10
7.12037096746991
20
-0.470393945675767
30
0
41
1
10
7.12763072639723
20
-0.476647461958066
30
0
41
1
10
7.14234212987026
20
-0.488269101576037
30
0
41
1
10
7.14984069919609
20
-0.493672116193949
30
0
41
1
10
7.16489941454415
20
-0.503295132246876
30
0
41
1
10
7.17244058717273
20
-0.507509600712069
30
0
41
1
10
7.1875222995979
20
-0.514484170604305
30
0
41
1
10
7.19506312570314
20
-0.517249089323656
30
0
41
1
10
7.20634730167419
20
-0.519970001099836
30
0
41
1
10
7.21012929202487
20
-0.520638758189818
30
0
41
1
10
7.21752854386398
20
-0.521393150443117
30
0
41
1
10
7.22475971386859
20
-0.52157248488308
30
0
41
1
10
7.23161739084952
20
-0.520508502111454
30
0
41
1
10
7.23826462019593
20
-0.518760021109273
30
0
41
1
10
7.24148272328361
20
-0.51753514329161
30
0
41
1
10
7.25049959323587
20
-0.512898095752519
30
0
41
1
10
7.25577047805672
20
-0.508509152502683
30
0
41
1
10
7.26480746935695
20
-0.497132830423823
30
0
41
1
10
7.26840561638329
20
-0.490357455121909
30
0
41
1
10
7.27120327394343
20
-0.482689565858323
30
0
0
SPLINE
5
13B
100
AcDbEntity
8
1
62
256
6
ByLayer
370
18
48
1
60
0
100
AcDbSpline
70
4
71
3
72
32
73
28
40
0
40
0
40
0
40
0
40
0.125000000000003
40
0.125000000000003
40
0.250000000000006
40
0.250000000000006
40
0.375000000000009
40
0.375000000000009
40
0.500000000000012
40
0.500000000000012
40
0.562499999999989
40
0.562499999999989
40
0.624999999999966
40
0.624999999999966
40
0.687499999999943
40
0.687499999999943
40
0.74999999999992
40
0.74999999999992
40
0.812499999999897
40
0.812499999999897
40
0.843749999999914
40
0.843749999999914
40
0.874999999999931
40
0.874999999999931
40
0.937499999999966
40
0.937499999999966
40
1
40
1
40
1
40
1
41
1
10
6.96819845565113
20
1.41320000000002
30
0
41
1
10
6.97805638306053
20
1.43236308205027
30
0
41
1
10
6.988477666275
20
1.45104796999019
30
0
41
1
10
7.01047871588702
20
1.48742714415192
30
0
41
1
10
7.02205214570523
20
1.50510638509925
30
0
41
1
10
7.04627739494259
20
1.53908713703115
30
0
41
1
10
7.05892684674768
20
1.55539201355947
30
0
41
1
10
7.08533349866008
20
1.58621430555794
30
0
41
1
10
7.09904632958938
20
1.60069047347497
30
0
41
1
10
7.12044929490577
20
1.62046368142859
30
0
41
1
10
7.12768714589825
20
1.62669446189807
30
0
41
1
10
7.14238943879224
20
1.63830402728354
30
0
41
1
10
7.14988257698531
20
1.64370242246372
30
0
41
1
10
7.16498901057525
20
1.65334881110186
30
0
41
1
10
7.17256620106997
20
1.65757908622427
30
0
41
1
10
7.18774987977616
20
1.66457775233408
30
0
41
1
10
7.19538119902353
20
1.66735730609045
30
0
41
1
10
7.21054315761299
20
1.67094860870077
30
0
41
1
10
7.21790257299369
20
1.67172223655316
30
0
41
1
10
7.22850237889276
20
1.67100159538793
30
0
41
1
10
7.23196877483883
20
1.67043852989897
30
0
41
1
10
7.23855071275887
20
1.6686600303855
30
0
41
1
10
7.24168969305998
20
1.66744512790893
30
0
41
1
10
7.2506314505527
20
1.66279589414114
30
0
41
1
10
7.25601149174798
20
1.65825302134979
30
0
41
1
10
7.264859566719
20
1.64701838600226
30
0
41
1
10
7.26841601610704
20
1.64032895130094
30
0
41
1
10
7.2712032739434
20
1.63268956585836
30
0
0
SPLINE
5
13C
100
AcDbEntity
8
1
62
256
6
ByLayer
370
18
48
1
60
0
100
AcDbSpline
70
4
71
3
72
40
73
36
40
0
40
0
40
0
40
0
40
0.0624999999999742
40
0.0624999999999742
40
0.0937499999999687
40
0.0937499999999687
40
0.124999999999963
40
0.124999999999963
40
0.187499999999967
40
0.187499999999967
40
0.24999999999997
40
0.24999999999997
40
0.312499999999974
40
0.312499999999974
40
0.374999999999977
40
0.374999999999977
40
0.437499999999981
40
0.437499999999981
40
0.499999999999985
40
0.499999999999985
40
0.624999999999989
40
0.624999999999989
40
0.68749999999999
40
0.68749999999999
40
0.749999999999992
40
0.749999999999992
40
0.812499999999993
40
0.812499999999993
40
0.874999999999995
40
0.874999999999995
40
0.906249999999996
40
0.906249999999996
40
0.937499999999996
40
0.937499999999996
40
1
40
1
40
1
40
1
41
1
10
6.9369790412527
20
0.19723604827621
30
0
41
1
10
6.94513059366255
20
0.205524825650571
30
0
41
1
10
6.95210533468355
20
0.216089690123596
30
0
41
1
10
6.96144099382803
20
0.23424204464709
30
0
41
1
10
6.96435635659063
20
0.240690740732987
30
0
41
1
10
6.96978415433264
20
0.254088880526666
30
0
41
1
10
6.9723090130513
20
0.26106230298268
30
0
41
1
10
6.97940867365719
20
0.282704155012482
30
0
41
1
10
6.98346510266566
20
0.297934687135779
30
0
41
1
10
6.990575793434
20
0.329599259763199
30
0
41
1
10
6.99361516654358
20
0.345995572335966
30
0
41
1
10
6.99885031130242
20
0.379485545084321
30
0
41
1
10
7.00105802006169
20
0.396673238351241
30
0
41
1
10
7.00475162488823
20
0.431459492959135
30
0
41
1
10
7.0062412339056
20
0.449071006351261
30
0
41
1
10
7.00860123633004
20
0.484708223985081
30
0
41
1
10
7.00946856146146
20
0.502724538958205
30
0
41
1
10
7.01061634003025
20
0.53879915208222
30
0
41
1
10
7.01089995993479
20
0.556903461754786
30
0
41
1
10
7.01089763986832
20
0.611413852963238
30
0
41
1
10
7.00978408160682
20
0.647426847907752
30
0
41
1
10
7.00624071985209
20
0.700938441712424
30
0
41
1
10
7.00474640209058
20
0.718594791264593
30
0
41
1
10
7.00105540834488
20
0.753346251808125
30
0
41
1
10
6.99885149955316
20
0.770510536353385
30
0
41
1
10
6.99360456947403
20
0.804068529180569
30
0
41
1
10
6.99056081142044
20
0.820476080717583
30
0
41
1
10
6.98344808460897
20
0.85213243280279
30
0
41
1
10
6.97937281100207
20
0.867416408859043
30
0
41
1
10
6.97228556059736
20
0.889003515615656
30
0
41
1
10
6.96976304875559
20
0.895967233997027
30
0
41
1
10
6.96433337711542
20
0.909361932866602
30
0
41
1
10
6.96141581831424
20
0.915810015089789
30
0
41
1
10
6.95209940093159
20
0.933915602869831
30
0
41
1
10
6.94513458251683
20
0.944471118346002
30
0
41
1
10
6.9369790412527
20
0.952763951723824
30
0
0
SPLINE
5
13D
100
AcDbEntity
8
1
62
256
6
ByLayer
370
18
48
1
60
0
100
AcDbSpline
70
4
71
3
72
8
73
4
40
0
40
0
40
0
40
0
40
1
40
1
40
1
40
1
41
1
10
6.9369790412527
20
0.952763951723824
30
0
41
1
10
6.93357587993444
20
0.95622440258245
30
0
41
1
10
6.93017411827145
20
0.959684394301462
30
0
41
1
10
6.92677370258559
20
0.963143944108424
30
0
0
SPLINE
5
13E
100
AcDbEntity
8
1
62
256
6
ByLayer
370
18
48
1
60
0
100
AcDbSpline
70
4
71
3
72
31
73
27
40
0
40
0
40
0
40
0
40
0.250000000000012
40
0.250000000000012
40
0.375000000000018
40
0.375000000000018
40
0.500000000000024
40
0.500000000000024
40
0.562500000000019
40
0.562500000000019
40
0.625000000000014
40
0.625000000000014
40
0.687500000000009
40
0.687500000000009
40
0.750000000000005
40
0.750000000000005
40
0.781250000000002
40
0.781250000000002
40
0.8125
40
0.843749999999998
40
0.843749999999998
40
0.874999999999995
40
0.874999999999995
40
0.937499999999998
40
0.937499999999998
40
1
40
1
40
1
40
1
41
1
10
6.96819845565113
20
1.41320000000002
30
0
41
1
10
6.94849623620178
20
1.37490034204944
30
0
41
1
10
6.93099968589883
20
1.33464411795344
30
0
41
1
10
6.90905158367303
20
1.27233075207184
30
0
41
1
10
6.90244560105543
20
1.25120206392472
30
0
41
1
10
6.8909784508588
20
1.20843616080319
30
0
41
1
10
6.88610691679753
20
1.1867757503575
30
0
41
1
10
6.88050476817352
20
1.1541117884511
30
0
41
1
10
6.87892086703425
20
1.14317388340885
30
0
41
1
10
6.87644147594912
20
1.12137788938583
30
0
41
1
10
6.87553962014408
20
1.11045109862423
30
0
41
1
10
6.87457089471297
20
1.08891795477115
30
0
41
1
10
6.87450074063793
20
1.0783365668585
30
0
41
1
10
6.87534544402229
20
1.05763544377081
30
0
41
1
10
6.87625727059952
20
1.0475140775147
30
0
41
1
10
6.87856956239375
20
1.03279430977599
30
0
41
1
10
6.8795072154312
20
1.02793388542162
30
0
41
1
10
6.8817101696344
20
1.01858705925258
30
0
41
1
10
6.88423425480062
20
1.00961609646424
30
0
41
1
10
6.88744446318986
20
1.00146177673628
30
0
41
1
10
6.89102891017689
20
0.99375947327016
30
0
41
1
10
6.89301360754664
20
0.990136945927333
30
0
41
1
10
6.89936625914228
20
0.980320854878556
30
0
41
1
10
6.90418212570125
20
0.975047389768832
30
0
41
1
10
6.91496064371688
20
0.967056466867177
30
0
41
1
10
6.92072257693042
20
0.964487331936425
30
0
41
1
10
6.92677370258559
20
0.963143944108424
30
0
0
SPLINE
5
13F
100
AcDbEntity
8
1
62
256
6
ByLayer
370
18
48
1
60
0
100
AcDbSpline
70
4
71
3
72
32
73
28
40
0
40
0
40
0
40
0
40
0.124999999999991
40
0.124999999999991
40
0.249999999999983
40
0.249999999999983
40
0.374999999999974
40
0.374999999999974
40
0.499999999999965
40
0.499999999999965
40
0.562499999999967
40
0.562499999999967
40
0.62499999999997
40
0.62499999999997
40
0.687499999999972
40
0.687499999999972
40
0.749999999999974
40
0.749999999999974
40
0.812499999999976
40
0.812499999999976
40
0.84374999999998
40
0.84374999999998
40
0.874999999999984
40
0.874999999999984
40
0.937499999999992
40
0.937499999999992
40
1
40
1
40
1
40
1
41
1
10
6.96819845565113
20
-0.263199999999983
30
0
41
1
10
6.95834052824182
20
-0.244036917949728
30
0
41
1
10
6.94907187968187
20
-0.224446034270755
30
0
41
1
10
6.93174690431982
20
-0.184378323403308
30
0
41
1
10
6.92369901556225
20
-0.163915171716923
30
0
41
1
10
6.90904947347067
20
-0.122326203464496
30
0
41
1
10
6.90244466545511
20
-0.101202222441117
30
0
41
1
10
6.89096162345112
20
-0.0583697507933323
30
0
41
1
10
6.88609573733441
20
-0.036730266367158
30
0
41
1
10
6.88048608558128
20
-0.0039929438816273
30
0
41
1
10
6.87890967004086
20
0.0069105581170277
30
0
41
1
10
6.87643520299289
20
0.0286913441165098
30
0
41
1
10
6.87553449411922
20
0.039609967045493
30
0
41
1
10
6.87456758429951
20
0.061208969633185
30
0
41
1
10
6.87450005944413
20
0.0718394559487194
30
0
41
1
10
6.87536608863232
20
0.0926732419446807
30
0
41
1
10
6.87630136716393
20
0.102910296276235
30
0
41
1
10
6.87945150756241
20
0.122669080150274
30
0
41
1
10
6.88162907523017
20
0.131968581138523
30
0
41
1
10
6.88597973891137
20
0.144837092752795
30
0
41
1
10
6.88761914434528
20
0.148951692721141
30
0
41
1
10
6.89119948514349
20
0.156565075120056
30
0
41
1
10
6.893148635118
20
0.160092919782841
30
0
41
1
10
6.89948175167862
20
0.169813158656098
30
0
41
1
10
6.90443862876788
20
0.175178631183542
30
0
41
1
10
6.91505477817742
20
0.182976260542972
30
0
41
1
10
6.92074507076106
20
0.185517661835007
30
0
41
1
10
6.92677370258559
20
0.18685605589161
30
0
0
SPLINE
5
140
100
AcDbEntity
8
1
62
256
6
ByLayer
370
18
48
1
60
0
100
AcDbSpline
70
4
71
3
72
8
73
4
40
0
40
0
40
0
40
0
40
1
40
1
40
1
40
1
41
1
10
6.92677370258559
20
0.18685605589161
30
0
41
1
10
6.93017411827145
20
0.190315605698572
30
0
41
1
10
6.93357587993444
20
0.193775597417584
30
0
41
1
10
6.9369790412527
20
0.197236048276181
30
0
0
LINE
5
7F
100
AcDbEntity
8
80
62
256
6
ByLayer
370
18
48
1
60
0
100
AcDbLine
10
0
20
0
30
0
11
-5
21
0
31
0
39
0
210
0
220
0
230
1
0
LINE
5
80
100
AcDbEntity
8
81
62
256
6
ByLayer
370
18
48
1
60
0
100
AcDbLine
10
21.6
20
-5.05
30
0
11
26.593148
21
-5.05
31
0
39
0
210
0
220
0
230
1
0
LINE
5
81
100
AcDbEntity
8
1
62
256
6
ByLayer
370
18
48
1
60
0
100
AcDbLine
10
9.024233
20
-0.451185
30
0
11
8.327088
21
-0.451185
31
0
39
0
210
0
220
0
230
1
0
LINE
5
82
100
AcDbEntity
8
1
62
256
6
ByLayer
370
18
48
1
60
0
100
AcDbLine
10
8.327088
20
1.601185
30
0
11
9.024219
21
1.601185
31
0
39
0
210
0
220
0
230
1
0
LINE
5
83
100
AcDbEntity
8
1
62
256
6
ByLayer
370
18
48
1
60
0
100
AcDbLine
10
7.350019
20
-0.451185
30
0
11
7.101204
21
-0.451185
31
0
39
0
210
0
220
0
230
1
0
LINE
5
84
100
AcDbEntity
8
1
62
256
6
ByLayer
370
18
48
1
60
0
100
AcDbLine
10
7.101039
20
1.601185
30
0
11
7.350813
21
1.601185
31
0
39
0
210
0
220
0
230
1
0
LINE
5
85
100
AcDbEntity
8
1
62
256
6
ByLayer
370
18
48
1
60
0
100
AcDbLine
10
8.170968
20
3.575
30
0
11
7.989372
21
3.575
31
0
39
0
210
0
220
0
230
1
0
LINE
5
86
100
AcDbEntity
8
1
62
256
6
ByLayer
370
18
48
1
60
0
100
AcDbLine
10
7.989372
20
-2.425
30
0
11
8.170968
21
-2.425
31
0
39
0
210
0
220
0
230
1
0
LINE
5
87
100
AcDbEntity
8
1
62
256
6
ByLayer
370
18
48
1
60
0
100
AcDbLine
10
0
20
-4.8
30
0
11
0.468629
21
-4.8
31
0
39
0
210
0
220
0
230
1
0
LINE
5
88
100
AcDbEntity
8
1
62
256
6
ByLayer
370
18
48
1
60
0
100
AcDbLine
10
0
20
-4.8
30
0
11
0
21
4.95
31
0
39
0
210
0
220
0
230
1
0
LINE
5
89
100
AcDbEntity
8
1
62
256
6
ByLayer
370
18
48
1
60
0
100
AcDbLine
10
10.8
20
4.208475
30
0
11
11.017275
21
4.04736
31
0
39
0
210
0
220
0
230
1
0
LINE
5
8A
100
AcDbEntity
8
1
62
256
6
ByLayer
370
18
48
1
60
0
100
AcDbLine
10
10.8
20
-2.8
30
0
11
11.017275
21
-2.8
31
0
39
0
210
0
220
0
230
1
0
LINE
5
8B
100
AcDbEntity
8
1
62
256
6
ByLayer
370
18
48
1
60
0
100
AcDbLine
10
11.017275
20
-2.8
30
0
11
11.017275
21
4.04736
31
0
39
0
210
0
220
0
230
1
0
LINE
5
8C
100
AcDbEntity
8
1
62
256
6
ByLayer
370
18
48
1
60
0
100
AcDbLine
10
0.468629
20
4.95
30
0
11
0
21
4.95
31
0
39
0
210
0
220
0
230
1
0
LINE
5
8D
100
AcDbEntity
8
1
62
256
6
ByLayer
370
18
48
1
60
0
100
AcDbLine
10
10.8
20
-3
30
0
11
10.8
21
-0.687077
31
0
39
0
210
0
220
0
230
1
0
LINE
5
8E
100
AcDbEntity
8
1
62
256
6
ByLayer
370
18
48
1
60
0
100
AcDbLine
10
4
20
4.95
30
0
11
0.468629
21
4.95
31
0
39
0
210
0
220
0
230
1
0
LINE
5
8F
100
AcDbEntity
8
1
62
256
6
ByLayer
370
18
48
1
60
0
100
AcDbLine
10
4
20
-4.8
30
0
11
0.468629
21
-4.8
31
0
39
0
210
0
220
0
230
1
0
LINE
5
90
100
AcDbEntity
8
1
62
256
6
ByLayer
370
13
48
1
60
0
100
AcDbLine
10
0.468629
20
4.95
30
0
11
0.468629
21
-4.8
31
0
39
0
210
0
220
0
230
1
0
LINE
5
91
100
AcDbEntity
8
1
62
256
6
ByLayer
370
13
48
1
60
0
100
AcDbLine
10
6.931349
20
-3
30
0
11
10.8
21
-3
31
0
39
0
210
0
220
0
230
1
0
LINE
5
92
100
AcDbEntity
8
1
62
256
6
ByLayer
370
18
48
1
60
0
100
AcDbLine
10
10.8
20
1.837077
30
0
11
10.8
21
1.614531
31
0
39
0
210
0
220
0
230
1
0
LINE
5
93
100
AcDbEntity
8
1
62
256
6
ByLayer
370
18
48
1
60
0
100
AcDbLine
10
10.8
20
-0.464531
30
0
11
10.8
21
-0.687077
31
0
39
0
210
0
220
0
230
1
0
LINE
5
94
100
AcDbEntity
8
1
62
256
6
ByLayer
370
18
48
1
60
0
100
AcDbLine
10
6.931349
20
4.95
30
0
11
9.8
21
4.95
31
0
39
0
210
0
220
0
230
1
0
LINE
5
95
100
AcDbEntity
8
1
62
256
6
ByLayer
370
18
48
1
60
0
100
AcDbLine
10
10.8
20
1.837077
30
0
11
10.8
21
4.208475
31
0
39
0
210
0
220
0
230
1
0
LINE
5
96
100
AcDbEntity
8
1
62
256
6
ByLayer
370
18
48
1
60
0
100
AcDbLine
10
9.8
20
4.95
30
0
11
10.8
21
4.208475
31
0
39
0
210
0
220
0
230
1
0
LINE
5
97
100
AcDbEntity
8
1
62
256
6
ByLayer
370
18
48
1
60
0
100
AcDbLine
10
16.944773
20
-4.8
30
0
11
11.657791
21
-4.8
31
0
39
0
210
0
220
0
230
1
0
LINE
5
98
100
AcDbEntity
8
1
62
256
6
ByLayer
370
18
48
1
60
0
100
AcDbLine
10
16.944773
20
-3.8
30
0
11
11.657791
21
-3.8
31
0
39
0
210
0
220
0
230
1
0
LINE
5
99
100
AcDbEntity
8
1
62
256
6
ByLayer
370
18
48
1
60
0
100
AcDbLine
10
6.931349
20
4.95
30
0
11
6.931349
21
3.410488
31
0
39
0
210
0
220
0
230
1
0
LINE
5
9A
100
AcDbEntity
8
1
62
256
6
ByLayer
370
18
48
1
60
0
100
AcDbLine
10
6.931349
20
4.95
30
0
11
4
21
4.95
31
0
39
0
210
0
220
0
230
1
0
LINE
5
9B
100
AcDbEntity
8
1
62
256
6
ByLayer
370
18
48
1
60
0
100
AcDbLine
10
4
20
4.95
30
0
11
4
21
-4.8
31
0
39
0
210
0
220
0
230
1
0
LINE
5
9C
100
AcDbEntity
8
1
62
256
6
ByLayer
370
18
48
1
60
0
100
AcDbLine
10
11.657791
20
-4.8
30
0
11
4
21
-4.8
31
0
39
0
210
0
220
0
230
1
0
LINE
5
9D
100
AcDbEntity
8
1
62
256
6
ByLayer
370
18
48
1
60
0
100
AcDbLine
10
11.657791
20
-4.8
30
0
11
11.657791
21
-3.8
31
0
39
0
210
0
220
0
230
1
0
LINE
5
9E
100
AcDbEntity
8
1
62
256
6
ByLayer
370
18
48
1
60
0
100
AcDbLine
10
11.657791
20
-3.8
30
0
11
8.693501
21
-3.8
31
0
39
0
210
0
220
0
230
1
0
LINE
5
9F
100
AcDbEntity
8
1
62
256
6
ByLayer
370
18
48
1
60
0
100
AcDbLine
10
6.931349
20
-2.260488
30
0
11
6.931349
21
-3
31
0
39
0
210
0
220
0
230
1
0
LINE
5
A0
100
AcDbEntity
8
1
62
256
6
ByLayer
370
18
48
1
60
0
100
AcDbLine
10
11.017265
20
4.047367
30
0
11
11.267662
21
3.861691
31
0
39
0
210
0
220
0
230
1
0
LINE
5
A1
100
AcDbEntity
8
1
62
256
6
ByLayer
370
18
48
1
60
0
100
AcDbLine
10
11.017269
20
-2.8
30
0
11
11.267662
21
-2.8
31
0
39
0
210
0
220
0
230
1
0
LINE
5
A2
100
AcDbEntity
8
1
62
256
6
ByLayer
370
18
48
1
60
0
100
AcDbLine
10
11.267662
20
3.861691
30
0
11
16.541231
21
-0.048794
31
0
39
0
210
0
220
0
230
1
0
LINE
5
A3
100
AcDbEntity
8
1
62
256
6
ByLayer
370
18
48
1
60
0
100
AcDbLine
10
11.267662
20
3.861691
30
0
11
11.267662
21
-2.8
31
0
39
0
210
0
220
0
230
1
0
LINE
5
A4
100
AcDbEntity
8
1
62
256
6
ByLayer
370
18
48
1
60
0
100
AcDbLine
10
11.267662
20
-2.8
30
0
11
12.067911
21
-2.8
31
0
39
0
210
0
220
0
230
1
0
LINE
5
A5
100
AcDbEntity
8
1
62
256
6
ByLayer
370
13
48
1
60
0
100
AcDbLine
10
12.031471
20
-3
30
0
11
16.541231
21
-3
31
0
39
0
210
0
220
0
230
1
0
LINE
5
A6
100
AcDbEntity
8
1
62
256
6
ByLayer
370
18
48
1
60
0
100
AcDbLine
10
16.541231
20
-3
30
0
11
16.541231
21
-0.048794
31
0
39
0
210
0
220
0
230
1
0
LINE
5
A7
100
AcDbEntity
8
1
62
256
6
ByLayer
370
18
48
1
60
0
100
AcDbLine
10
7.830524
20
-5.077359
30
0
11
9.032403
21
-5.007261
31
0
39
0
210
0
220
0
230
1
0
LINE
5
A8
100
AcDbEntity
8
1
62
256
6
ByLayer
370
18
48
1
60
0
100
AcDbLine
10
7.619187
20
-4.877698
30
0
11
7.619187
21
-4.799998
31
0
39
0
210
0
220
0
230
1
0
LINE
5
A9
100
AcDbEntity
8
1
62
256
6
ByLayer
370
18
48
1
60
0
100
AcDbLine
10
9.032403
20
-5.007261
30
0
11
9.423369
21
-5.019344
31
0
39
0
210
0
220
0
230
1
0
LINE
5
AA
100
AcDbEntity
8
1
62
256
6
ByLayer
370
18
48
1
60
0
100
AcDbLine
10
9.032403
20
-5.007261
30
0
11
9.032403
21
-4.799989
31
0
39
0
210
0
220
0
230
1
0
LINE
5
AB
100
AcDbEntity
8
1
62
256
6
ByLayer
370
18
48
1
60
0
100
AcDbLine
10
21.388662
20
-5.077359
30
0
11
20.186783
21
-5.007261
31
0
39
0
210
0
220
0
230
1
0
LINE
5
AC
100
AcDbEntity
8
1
62
256
6
ByLayer
370
18
48
1
60
0
100
AcDbLine
10
21.388662
20
-3.522641
30
0
11
20.186783
21
-3.592739
31
0
39
0
210
0
220
0
230
1
0
LINE
5
AD
100
AcDbEntity
8
1
62
256
6
ByLayer
370
18
48
1
60
0
100
AcDbLine
10
21.6
20
-4.877698
30
0
11
21.6
21
-3.722302
31
0
39
0
210
0
220
0
230
1
0
LINE
5
AE
100
AcDbEntity
8
1
62
256
6
ByLayer
370
18
48
1
60
0
100
AcDbLine
10
10.327739
20
-4.915
30
0
11
11.608727
21
-4.915
31
0
39
0
210
0
220
0
230
1
0
LINE
5
AF
100
AcDbEntity
8
1
62
256
6
ByLayer
370
18
48
1
60
0
100
AcDbLine
10
11.186742
20
-3.685
30
0
11
11.608727
21
-3.685
31
0
39
0
210
0
220
0
230
1
0
LINE
5
B0
100
AcDbEntity
8
1
62
256
6
ByLayer
370
18
48
1
60
0
100
AcDbLine
10
9.423369
20
-5.019344
30
0
11
9.423369
21
-4.799989
31
0
39
0
210
0
220
0
230
1
0
LINE
5
B1
100
AcDbEntity
8
1
62
256
6
ByLayer
370
18
48
1
60
0
100
AcDbLine
10
9.997515
20
-4.990074
30
0
11
9.423369
21
-5.019344
31
0
39
0
210
0
220
0
230
1
0
LINE
5
B2
100
AcDbEntity
8
1
62
256
6
ByLayer
370
18
48
1
60
0
100
AcDbLine
10
10.274732
20
-4.921815
30
0
11
10.037464
21
-4.983899
31
0
39
0
210
0
220
0
230
1
0
LINE
5
B3
100
AcDbEntity
8
1
62
256
6
ByLayer
370
13
48
1
60
0
100
AcDbLine
10
11.608727
20
-3.799999
30
0
11
11.608727
21
-3.685
31
0
39
0
210
0
220
0
230
1
0
LINE
5
B4
100
AcDbEntity
8
1
62
256
6
ByLayer
370
13
48
1
60
0
100
AcDbLine
10
11.608727
20
-4.800001
30
0
11
11.608727
21
-4.915
31
0
39
0
210
0
220
0
230
1
0
LINE
5
B5
100
AcDbEntity
8
1
62
256
6
ByLayer
370
18
48
1
60
0
100
AcDbLine
10
20.186783
20
-5.007261
30
0
11
19.752571
21
-5.019344
31
0
39
0
210
0
220
0
230
1
0
LINE
5
B6
100
AcDbEntity
8
1
62
256
6
ByLayer
370
18
48
1
60
0
100
AcDbLine
10
20.186783
20
-3.592739
30
0
11
19.752571
21
-3.580656
31
0
39
0
210
0
220
0
230
1
0
LINE
5
B7
100
AcDbEntity
8
1
62
256
6
ByLayer
370
18
48
1
60
0
100
AcDbLine
10
20.186783
20
-5.007261
30
0
11
20.186783
21
-3.592739
31
0
39
0
210
0
220
0
230
1
0
LINE
5
B8
100
AcDbEntity
8
1
62
256
6
ByLayer
370
18
48
1
60
0
100
AcDbLine
10
17.504215
20
-4.915
30
0
11
11.651638
21
-4.915
31
0
39
0
210
0
220
0
230
1
0
LINE
5
B9
100
AcDbEntity
8
1
62
256
6
ByLayer
370
13
48
1
60
0
100
AcDbLine
10
11.651638
20
-4.800002
30
0
11
11.651638
21
-4.915
31
0
39
0
210
0
220
0
230
1
0
LINE
5
BA
100
AcDbEntity
8
1
62
256
6
ByLayer
370
18
48
1
60
0
100
AcDbLine
10
17.504215
20
-3.685
30
0
11
11.651638
21
-3.685
31
0
39
0
210
0
220
0
230
1
0
LINE
5
BB
100
AcDbEntity
8
1
62
256
6
ByLayer
370
13
48
1
60
0
100
AcDbLine
10
11.651638
20
-3.799998
30
0
11
11.651638
21
-3.685
31
0
39
0
210
0
220
0
230
1
0
LINE
5
BC
100
AcDbEntity
8
1
62
256
6
ByLayer
370
18
48
1
60
0
100
AcDbLine
10
18.839969
20
-4.915
30
0
11
17.54732
21
-4.915
31
0
39
0
210
0
220
0
230
1
0
LINE
5
BD
100
AcDbEntity
8
1
62
256
6
ByLayer
370
18
48
1
60
0
100
AcDbLine
10
18.839969
20
-3.685
30
0
11
17.54732
21
-3.685
31
0
39
0
210
0
220
0
230
1
0
LINE
5
BE
100
AcDbEntity
8
1
62
256
6
ByLayer
370
18
48
1
60
0
100
AcDbLine
10
18.893459
20
-4.921815
30
0
11
19.132887
21
-4.983899
31
0
39
0
210
0
220
0
230
1
0
LINE
5
BF
100
AcDbEntity
8
1
62
256
6
ByLayer
370
18
48
1
60
0
100
AcDbLine
10
19.173199
20
-4.990074
30
0
11
19.752571
21
-5.019344
31
0
39
0
210
0
220
0
230
1
0
LINE
5
C0
100
AcDbEntity
8
1
62
256
6
ByLayer
370
18
48
1
60
0
100
AcDbLine
10
19.752571
20
-5.019344
30
0
11
19.752571
21
-3.580656
31
0
39
0
210
0
220
0
230
1
0
LINE
5
C1
100
AcDbEntity
8
1
62
256
6
ByLayer
370
18
48
1
60
0
100
AcDbLine
10
19.173199
20
-3.609926
30
0
11
19.752571
21
-3.580656
31
0
39
0
210
0
220
0
230
1
0
LINE
5
C2
100
AcDbEntity
8
1
62
256
6
ByLayer
370
18
48
1
60
0
100
AcDbLine
10
18.893459
20
-3.678185
30
0
11
19.132887
21
-3.616101
31
0
39
0
210
0
220
0
230
1
0
LINE
5
C3
100
AcDbEntity
8
1
62
256
6
ByLayer
370
13
48
1
60
0
100
AcDbLine
10
17.54732
20
-3.840105
30
0
11
17.54732
21
-3.685
31
0
39
0
210
0
220
0
230
1
0
LINE
5
C4
100
AcDbEntity
8
1
62
256
6
ByLayer
370
13
48
1
60
0
100
AcDbLine
10
17.504215
20
-3.835
30
0
11
17.504215
21
-3.685
31
0
39
0
210
0
220
0
230
1
0
LINE
5
C5
100
AcDbEntity
8
1
62
256
6
ByLayer
370
13
48
1
60
0
100
AcDbLine
10
17.504215
20
-4.765
30
0
11
17.504215
21
-4.915
31
0
39
0
210
0
220
0
230
1
0
LINE
5
C6
100
AcDbEntity
8
1
62
256
6
ByLayer
370
13
48
1
60
0
100
AcDbLine
10
17.54732
20
-4.759895
30
0
11
17.54732
21
-4.915
31
0
39
0
210
0
220
0
230
1
0
LINE
5
C7
100
AcDbEntity
8
1
62
256
6
ByLayer
370
18
48
1
60
0
100
AcDbLine
10
17.504215
20
-3.835
30
0
11
16.957182
21
-3.835
31
0
39
0
210
0
220
0
230
1
0
LINE
5
C8
100
AcDbEntity
8
1
62
256
6
ByLayer
370
13
48
1
60
0
100
AcDbLine
10
17.076938
20
-4.197394
30
0
11
19.056232
21
-4.197394
31
0
39
0
210
0
220
0
230
1
0
LINE
5
C9
100
AcDbEntity
8
1
62
256
6
ByLayer
370
18
48
1
60
0
100
AcDbLine
10
17.54732
20
-3.840105
30
0
11
19.056232
21
-4.197394
31
0
39
0
210
0
220
0
230
1
0
LINE
5
CA
100
AcDbEntity
8
1
62
256
6
ByLayer
370
18
48
1
60
0
100
AcDbLine
10
17.54732
20
-4.759895
30
0
11
19.056232
21
-4.402606
31
0
39
0
210
0
220
0
230
1
0
LINE
5
CB
100
AcDbEntity
8
1
62
256
6
ByLayer
370
13
48
1
60
0
100
AcDbLine
10
17.074422
20
-4.402606
30
0
11
19.056232
21
-4.402606
31
0
39
0
210
0
220
0
230
1
0
LINE
5
CC
100
AcDbEntity
8
1
62
256
6
ByLayer
370
18
48
1
60
0
100
AcDbLine
10
17.504215
20
-4.765
30
0
11
16.957182
21
-4.765
31
0
39
0
210
0
220
0
230
1
0
LINE
5
CD
100
AcDbEntity
8
1
62
256
6
ByLayer
370
18
48
1
60
0
100
AcDbLine
10
8.762615
20
0.952764
30
0
11
8.777852
21
0.963144
31
0
39
0
210
0
220
0
230
1
0
LINE
5
CE
100
AcDbEntity
8
1
62
256
6
ByLayer
370
18
48
1
60
0
100
AcDbLine
10
8.777852
20
0.186856
30
0
11
8.762615
21
0.197236
31
0
39
0
210
0
220
0
230
1
0
LINE
5
CF
100
AcDbEntity
8
1
62
256
6
ByLayer
370
13
48
1
60
0
100
AcDbLine
10
9.482244
20
0.197236
30
0
11
8.762615
21
0.197236
31
0
39
0
210
0
220
0
230
1
0
LINE
5
D0
100
AcDbEntity
8
1
62
256
6
ByLayer
370
13
48
1
60
0
100
AcDbLine
10
9.482244
20
0.952764
30
0
11
8.762615
21
0.952764
31
0
39
0
210
0
220
0
230
1
0
LINE
5
D1
100
AcDbEntity
8
1
62
256
6
ByLayer
370
18
48
1
60
0
100
AcDbLine
10
9.502513
20
0.186856
30
0
11
8.777852
21
0.186856
31
0
39
0
210
0
220
0
230
1
0
LINE
5
D2
100
AcDbEntity
8
1
62
256
6
ByLayer
370
18
48
1
60
0
100
AcDbLine
10
9.502513
20
0.963144
30
0
11
8.777852
21
0.963144
31
0
39
0
210
0
220
0
230
1
0
LINE
5
D3
100
AcDbEntity
8
1
62
256
6
ByLayer
370
13
48
1
60
0
100
AcDbLine
10
8.554432
20
-0.850834
30
0
11
7.864791
21
-0.850834
31
0
39
0
210
0
220
0
230
1
0
LINE
5
D4
100
AcDbEntity
8
1
62
256
6
ByLayer
370
13
48
1
60
0
100
AcDbLine
10
8.554432
20
2.000834
30
0
11
7.864791
21
2.000834
31
0
39
0
210
0
220
0
230
1
0
LINE
5
D5
100
AcDbEntity
8
1
62
256
6
ByLayer
370
18
48
1
60
0
100
AcDbLine
10
8.559073
20
2.020834
30
0
11
7.870215
21
2.020834
31
0
39
0
210
0
220
0
230
1
0
LINE
5
D6
100
AcDbEntity
8
1
62
256
6
ByLayer
370
18
48
1
60
0
100
AcDbLine
10
8.559073
20
-0.870834
30
0
11
7.870215
21
-0.870834
31
0
39
0
210
0
220
0
230
1
0
LINE
5
D7
100
AcDbEntity
8
1
62
256
6
ByLayer
370
13
48
1
60
0
100
AcDbLine
10
7.2818
20
-0.47307
30
0
11
7.123841
21
-0.47307
31
0
39
0
210
0
220
0
230
1
0
LINE
5
D8
100
AcDbEntity
8
1
62
256
6
ByLayer
370
13
48
1
60
0
100
AcDbLine
10
7.2818
20
1.62307
30
0
11
7.124853
21
1.62307
31
0
39
0
210
0
220
0
230
1
0
LINE
5
D9
100
AcDbEntity
8
1
62
256
6
ByLayer
370
18
48
1
60
0
100
AcDbLine
10
7.271203
20
-0.48269
30
0
11
7.13619
21
-0.48269
31
0
39
0
210
0
220
0
230
1
0
LINE
5
DA
100
AcDbEntity
8
1
62
256
6
ByLayer
370
18
48
1
60
0
100
AcDbLine
10
7.271203
20
1.63269
30
0
11
7.136858
21
1.63269
31
0
39
0
210
0
220
0
230
1
0
LINE
5
DB
100
AcDbEntity
8
SK1
62
256
6
ByLayer
370
18
48
1
60
0
100
AcDbLine
10
-0.662742
20
4.95
30
0
11
-103.4
21
4.95
31
0
39
0
210
0
220
0
230
1
0
LINE
5
DD
100
AcDbEntity
8
SK1
62
256
6
ByLayer
370
18
48
1
60
0
100
AcDbLine
10
-1.6
20
-4.8
30
0
11
-0.662742
21
-4.8
31
0
39
0
210
0
220
0
230
1
0
LINE
5
DE
100
AcDbEntity
8
SK1
62
256
6
ByLayer
370
18
48
1
60
0
100
AcDbLine
10
-2.276387
20
-4.95
30
0
11
-103.4
21
-4.95
31
0
39
0
210
0
220
0
230
1
0
LINE
5
DF
100
AcDbEntity
8
SK1
62
256
6
ByLayer
370
18
48
1
60
0
100
AcDbLine
10
-103.4
20
-4.95
30
0
11
-103.4
21
4.95
31
0
39
0
210
0
220
0
230
1
0
LINE
5
E0
100
AcDbEntity
8
SK1
62
256
6
ByLayer
370
18
48
1
60
0
100
AcDbLine
10
0
20
-4.8
30
0
11
0
21
4.95
31
0
39
0
210
0
220
0
230
1
0
LINE
5
E1
100
AcDbEntity
8
SK1
62
256
6
ByLayer
370
18
48
1
60
0
100
AcDbLine
10
-0.662742
20
-4.8
30
0
11
0
21
-4.8
31
0
39
0
210
0
220
0
230
1
0
LINE
5
E2
100
AcDbEntity
8
SK1
62
256
6
ByLayer
370
18
48
1
60
0
100
AcDbLine
10
0
20
4.95
30
0
11
-0.662742
21
4.95
31
0
39
0
210
0
220
0
230
1
0
LINE
5
E3
100
AcDbEntity
8
SK1
62
256
6
ByLayer
370
13
48
1
60
0
100
AcDbLine
10
-0.662742
20
-4.8
30
0
11
-0.662742
21
4.95
31
0
39
0
210
0
220
0
230
1
0
MTEXT
5
141
100
AcDbEntity
8
SK6
62
256
6
ByLayer
370
18
48
1
60
0
100
AcDbMText
10
-73.217926
20
-54.284155
30
0
210
0
220
0
230
1
1
\W0.7449;C2R-RS10-LD10DS
40
3.5
41
0
44
1.084337
50
0
71
7
72
5
7
iso_b_vert
0
DIMENSION
5
146
100
AcDbEntity
8
2
62
256
6
ByLayer
370
18
48
1
60
0
100
AcDbDimension
2
_U0
10
54.693148
20
4.95
30
0
11
54.693148
21
-0.05
31
0
70
32
71
1
72
1
41
1
210
0
220
0
230
1
3
Standard
100
AcDbAlignedDimension
13
21.6
23
-5.05
33
0
14
-103.4
24
4.95
34
0
50
90
100
AcDbRotatedDimension
1001
ACAD
1000
DSTYLE
1002
{
1070
   371
1070
    13
1070
   372
1070
    13
1070
   170
1070
     0
1070
   144
1040
1.0
1070
   277
1070
     2
1070
   284
1070
     8
1070
   278
1070
    46
1070
   146
1040
1.0
1070
   345
1005
16
1070
   347
1005
16
1070
   346
1005
16
1070
   344
1005
0
1070
   343
1005
0
1070
   172
1070
     1
1070
    76
1070
     0
1070
    75
1070
     0
1070
   282
1070
     0
1070
   281
1070
     0
1070
    71
1070
     0
1070
    74
1070
     0
1070
   279
1070
     0
1070
   173
1070
     1
1070
   340
1005
142
1070
   271
1070
     2
1070
   272
1070
     2
1070
    77
1070
     1
1070
    73
1070
     0
1070
   171
1070
     3
1070
   274
1070
     4
1070
   177
1070
     2
1070
   176
1070
     2
1070
   178
1070
     2
1070
    78
1070
     8
1070
    48
1040
-0.1
1070
    41
1040
3.5
1070
   147
1040
1.75
1070
    42
1040
1.5875
1070
    44
1040
2.0
1070
   140
1040
3.5
1002
}
1001
ACAD_DSTYLE_DIM_LINETYPE
1070
   380
1005
16
1001
ACAD_DSTYLE_DIM_EXT1_LINETYPE
1070
   381
1005
16
1001
ACAD_DSTYLE_DIM_EXT2_LINETYPE
1070
   382
1005
16
0
DIMENSION
5
161
100
AcDbEntity
8
2
62
256
6
ByLayer
370
18
48
1
60
0
100
AcDbDimension
2
_U1
10
42.693148
20
-5.05
30
0
11
42.693148
21
-4.3
31
0
70
32
71
1
72
1
41
1
210
0
220
0
230
1
3
Standard
100
AcDbAlignedDimension
13
21.6
23
-3.55
33
0
14
21.6
24
-5.05
34
0
50
90
100
AcDbRotatedDimension
1001
ACAD
1000
DSTYLE
1002
{
1070
   371
1070
    13
1070
   372
1070
    13
1070
   170
1070
     0
1070
   144
1040
1.0
1070
   277
1070
     2
1070
   284
1070
     8
1070
   278
1070
    46
1070
   146
1040
1.0
1070
   345
1005
16
1070
   347
1005
16
1070
   346
1005
16
1070
   344
1005
0
1070
   343
1005
0
1070
   172
1070
     1
1070
    76
1070
     0
1070
    75
1070
     0
1070
   282
1070
     0
1070
   281
1070
     0
1070
    71
1070
     0
1070
    74
1070
     0
1070
   279
1070
     0
1070
   173
1070
     1
1070
   340
1005
142
1070
   271
1070
     2
1070
   272
1070
     2
1070
    77
1070
     1
1070
    73
1070
     0
1070
   171
1070
     3
1070
   274
1070
     4
1070
   177
1070
     2
1070
   176
1070
     2
1070
   178
1070
     2
1070
    78
1070
     8
1070
    48
1040
-0.1
1070
    41
1040
3.5
1070
   147
1040
1.75
1070
    42
1040
1.5875
1070
    44
1040
2.0
1070
   140
1040
3.5
1002
}
1001
ACAD_DSTYLE_DIM_LINETYPE
1070
   380
1005
16
1001
ACAD_DSTYLE_DIM_EXT1_LINETYPE
1070
   381
1005
16
1001
ACAD_DSTYLE_DIM_EXT2_LINETYPE
1070
   382
1005
16
0
DIMENSION
5
17A
100
AcDbEntity
8
SK2
62
256
6
ByLayer
370
18
48
1
60
0
100
AcDbDimension
2
_U2
10
-115
20
-5.05
30
0
11
-115
21
-0.05
31
0
70
32
71
1
72
1
41
1
210
0
220
0
230
1
3
Standard
100
AcDbAlignedDimension
13
-103.4
23
4.95
33
0
14
-103.4
24
-5.05
34
0
50
90
100
AcDbRotatedDimension
1001
ACAD
1000
DSTYLE
1002
{
1070
   371
1070
    13
1070
   372
1070
    13
1070
   170
1070
     0
1070
   144
1040
1.0
1070
   277
1070
     2
1070
   284
1070
     8
1070
   278
1070
    46
1070
   146
1040
1.0
1070
   345
1005
16
1070
   347
1005
16
1070
   346
1005
16
1070
   344
1005
0
1070
   343
1005
0
1070
   172
1070
     1
1070
    76
1070
     0
1070
    75
1070
     0
1070
   282
1070
     0
1070
   281
1070
     0
1070
    71
1070
     0
1070
    74
1070
     0
1070
   279
1070
     0
1070
   173
1070
     1
1070
   340
1005
142
1070
   271
1070
     2
1070
   272
1070
     2
1070
    77
1070
     1
1070
    73
1070
     0
1070
   171
1070
     3
1070
   274
1070
     4
1070
   177
1070
     2
1070
   176
1070
     2
1070
   178
1070
     2
1070
    78
1070
     8
1070
    48
1040
-0.1
1070
    41
1040
3.5
1070
   147
1040
1.75
1070
    42
1040
1.5875
1070
    44
1040
2.0
1070
   140
1040
3.5
1002
}
1001
ACAD_DSTYLE_DIM_LINETYPE
1070
   380
1005
16
1001
ACAD_DSTYLE_DIM_EXT1_LINETYPE
1070
   381
1005
16
1001
ACAD_DSTYLE_DIM_EXT2_LINETYPE
1070
   382
1005
16
0
DIMENSION
5
194
100
AcDbEntity
8
2
62
256
6
ByLayer
370
18
48
1
60
0
100
AcDbDimension
2
_U3
10
21.6
20
11.2
30
0
11
16.6
21
11.2
31
0
70
32
71
1
72
1
41
1
210
0
220
0
230
1
3
Standard
100
AcDbAlignedDimension
13
11.6
23
-3.8
33
0
14
21.6
24
-5.05
34
0
50
0
100
AcDbRotatedDimension
1001
ACAD
1000
DSTYLE
1002
{
1070
   371
1070
    13
1070
   372
1070
    13
1070
   170
1070
     0
1070
   144
1040
1.0
1070
   277
1070
     2
1070
   284
1070
     8
1070
   278
1070
    46
1070
   146
1040
1.0
1070
   345
1005
16
1070
   347
1005
16
1070
   346
1005
16
1070
   344
1005
0
1070
   343
1005
0
1070
   172
1070
     1
1070
    76
1070
     0
1070
    75
1070
     0
1070
   282
1070
     0
1070
   281
1070
     0
1070
    71
1070
     0
1070
    74
1070
     0
1070
   279
1070
     0
1070
   173
1070
     1
1070
   340
1005
142
1070
   271
1070
     1
1070
   272
1070
     2
1070
    77
1070
     1
1070
    73
1070
     1
1070
   171
1070
     3
1070
   274
1070
     4
1070
   177
1070
     2
1070
   176
1070
     2
1070
   178
1070
     2
1070
    78
1070
     8
1070
    48
1040
-0.1
1070
    41
1040
3.5
1070
   147
1040
1.75
1070
    42
1040
1.5875
1070
    44
1040
2.0
1070
   140
1040
3.5
1002
}
1001
ACAD_DSTYLE_DIM_LINETYPE
1070
   380
1005
16
1001
ACAD_DSTYLE_DIM_EXT1_LINETYPE
1070
   381
1005
16
1001
ACAD_DSTYLE_DIM_EXT2_LINETYPE
1070
   382
1005
16
0
DIMENSION
5
1AD
100
AcDbEntity
8
SK2
62
256
6
ByLayer
370
18
48
1
60
0
100
AcDbDimension
2
_U4
10
21.6
20
27.2
30
0
11
-40.9
21
27.2
31
0
70
32
71
1
72
1
41
1
210
0
220
0
230
1
3
Standard
100
AcDbAlignedDimension
13
-103.4
23
4.95
33
0
14
21.6
24
-5.05
34
0
50
0
100
AcDbRotatedDimension
1001
ACAD
1000
DSTYLE
1002
{
1070
   371
1070
    13
1070
   372
1070
    13
1070
   170
1070
     0
1070
   144
1040
1.0
1070
   277
1070
     2
1070
   284
1070
     8
1070
   278
1070
    46
1070
   146
1040
1.0
1070
   345
1005
16
1070
   347
1005
16
1070
   346
1005
16
1070
   344
1005
0
1070
   343
1005
0
1070
   172
1070
     1
1070
    76
1070
     0
1070
    75
1070
     0
1070
   282
1070
     0
1070
   281
1070
     0
1070
    71
1070
     0
1070
    74
1070
     0
1070
   279
1070
     0
1070
   173
1070
     1
1070
   340
1005
142
1070
   271
1070
     1
1070
   272
1070
     2
1070
    77
1070
     1
1070
    73
1070
     1
1070
   171
1070
     3
1070
   274
1070
     4
1070
   177
1070
     2
1070
   176
1070
     2
1070
   178
1070
     2
1070
    78
1070
     8
1070
    48
1040
-0.1
1070
    41
1040
3.5
1070
   147
1040
1.75
1070
    42
1040
1.5875
1070
    44
1040
2.0
1070
   140
1040
3.5
1002
}
1001
ACAD_DSTYLE_DIM_LINETYPE
1070
   380
1005
16
1001
ACAD_DSTYLE_DIM_EXT1_LINETYPE
1070
   381
1005
16
1001
ACAD_DSTYLE_DIM_EXT2_LINETYPE
1070
   382
1005
16
0
ENDSEC
0
SECTION
2
OBJECTS
0
DICTIONARY
5
234
330
0
100
AcDbDictionary
280
0
281
1
3
ACAD_GROUP
350
235
3
ACAD_MLINESTYLE
350
236
0
DICTIONARY
5
235
330
0
100
AcDbDictionary
280
0
281
1
0
DICTIONARY
5
236
330
0
100
AcDbDictionary
280
0
281
1
3
Standard
350
18
0
MLINESTYLE
5
18
330
236
100
AcDbMlineStyle
2
Standard
70
0
3

62
256
51
90
52
90
71
2
49
-0.5
62
256
6
ByLayer
49
0.5
62
256
6
ByLayer
0
RASTERVARIABLES
5
223
330

100
AcDbRasterVariables
90
0
70
1
71
1
72
1
0
ENDSEC
0
EOF
