0
SECTION
2
HEADER
9
$ACADVER
1
AC1015
9
$DWGCODEPAGE
3
ANSI_1252
9
$HANDSEED
5
246
9
$ANGBASE
50
0
9
$ANGDIR
70
0
9
$ATTMODE
70
1
9
$AUNITS
70
0
9
$AUPREC
70
0
9
$CECOLOR
62
256
9
$CELTSCALE
40
1
9
$CELTYPE
6
ByLayer
9
$CELWEIGHT
370
18
9
$CLAYER
8
0
9
$CMLJUST
70
0
9
$CMLSCALE
40
1
9
$CMLSTYLE
2
Standard
9
$DIMSTYLE
2
Standard
9
$TEXTSIZE
40
0.2
9
$TEXTSTYLE
7
Standard
9
$LUNITS
70
2
9
$LUPREC
70
4
9
$EXTNAMES
290
1
9
$INSUNITS
70
4
9
$LTSCALE
40
1
9
$LWDISPLAY
290
1
9
$PDMODE
70
0
9
$PDSIZE
40
0
9
$PLINEGEN
70
0
0
ENDSEC
0
SECTION
2
CLASSES
0
CLASS
1
RASTERVARIABLES
2
AcDbRasterVariables
3
ISM
90
0
280
0
281
0
0
ENDSEC
0
SECTION
2
TABLES
0
TABLE
2
VPORT
5
23c
100
AcDbSymbolTable
0
VPORT
5
1
100
AcDbSymbolTableRecord
100
AcDbViewportTableRecord
2
*Active
70
0
10
0
20
0
11
1
21
1
12
-1
22
1
13
0
23
0
14
0.5
24
0.5
15
10
25
10
16
0
26
0
36
1
17
0
27
0
37
0
0
ENDTAB
0
TABLE
2
LTYPE
5
23d
100
AcDbSymbolTable
0
LTYPE
5
14
100
AcDbSymbolTableRecord
100
AcDbLinetypeTableRecord
70
0
2
ByBlock
3

72
65
73
0
40
0
0
LTYPE
5
15
100
AcDbSymbolTableRecord
100
AcDbLinetypeTableRecord
70
0
2
ByLayer
3

72
65
73
0
40
0
0
LTYPE
5
16
100
AcDbSymbolTableRecord
100
AcDbLinetypeTableRecord
70
0
2
Continuous
3
Solid line
72
65
73
0
40
0
0
LTYPE
5
6E
100
AcDbSymbolTableRecord
100
AcDbLinetypeTableRecord
70
0
2
CENTER
3
____ _ ____ _ ____ _ ____
72
65
73
4
40
47.5
49
22
74
0
49
-8.5
74
0
49
8.5
74
0
49
-8.5
74
0
0
LTYPE
5
6F
100
AcDbSymbolTableRecord
100
AcDbLinetypeTableRecord
70
0
2
DASHED
3
__ __ __ __ __ __ __ __ __
72
65
73
2
40
25.72
49
12.86
74
0
49
-12.86
74
0
0
ENDTAB
0
TABLE
2
LAYER
5
23e
100
AcDbSymbolTable
0
LAYER
5
10
100
AcDbSymbolTableRecord
100
AcDbLayerTableRecord
2
0
70
0
62
7
6
Continuous
290
1
370
-3
390
0
0
LAYER
5
71
100
AcDbSymbolTableRecord
100
AcDbLayerTableRecord
2
81
70
0
62
-3
6
Continuous
290
1
370
-3
390
0
0
LAYER
5
73
100
AcDbSymbolTableRecord
100
AcDbLayerTableRecord
2
80
70
0
62
-6
6
Continuous
290
1
370
-3
390
0
0
LAYER
5
75
100
AcDbSymbolTableRecord
100
AcDbLayerTableRecord
2
1
70
0
62
4
6
Continuous
290
1
370
-3
390
0
0
LAYER
5
14E
100
AcDbSymbolTableRecord
100
AcDbLayerTableRecord
2
Defpoints
70
0
62
7
6
Continuous
290
0
370
-3
390
0
0
LAYER
5
15C
100
AcDbSymbolTableRecord
100
AcDbLayerTableRecord
2
2
70
0
62
7
6
Continuous
290
1
370
-3
390
0
0
LAYER
5
229
100
AcDbSymbolTableRecord
100
AcDbLayerTableRecord
2
SK1
70
0
62
4
6
Continuous
290
1
370
-3
390
0
0
LAYER
5
22a
100
AcDbSymbolTableRecord
100
AcDbLayerTableRecord
2
SK6
70
0
62
5
6
Continuous
290
1
370
-3
390
0
0
LAYER
5
22b
100
AcDbSymbolTableRecord
100
AcDbLayerTableRecord
2
SK2
70
0
62
7
6
Continuous
290
1
370
-3
390
0
0
ENDTAB
0
TABLE
2
STYLE
5
23f
100
AcDbSymbolTable
0
STYLE
5
11
100
AcDbSymbolTableRecord
100
AcDbTextStyleTableRecord
2
Standard
3
txt
70
0
71
0
40
0
41
1
42
0
50
0
0
STYLE
5
147
100
AcDbSymbolTableRecord
100
AcDbTextStyleTableRecord
2
iso_b_vert
3
simplex.shx
70
0
71
0
40
0
41
1
42
0
50
0
0
STYLE
5
148
100
AcDbSymbolTableRecord
100
AcDbTextStyleTableRecord
2
DWGDirectTextStyle
3
simplex
70
0
71
0
40
0
41
1
42
0
50
0
0
ENDTAB
0
TABLE
2
DIMSTYLE
5
240
100
AcDbSymbolTable
100
AcDbDimStyleTable
0
DIMSTYLE
105
27
100
AcDbSymbolTableRecord
100
AcDbDimStyleTableRecord
2
Standard
70
0
3
<>
41
0.18
42
0.0625
44
0.18
140
0.18
147
0.09
73
0
74
0
77
1
271
2
275
0
278
52
280
0
340
11
0
ENDTAB
0
TABLE
2
VIEW
5
241
100
AcDbSymbolTable
0
ENDTAB
0
TABLE
2
UCS
5
242
100
AcDbSymbolTable
0
ENDTAB
0
TABLE
2
APPID
5
243
100
AcDbSymbolTable
0
APPID
5
12
100
AcDbSymbolTableRecord
100
AcDbRegAppTableRecord
2
ACAD
70
0
0
APPID
5
14A
100
AcDbSymbolTableRecord
100
AcDbRegAppTableRecord
2
ACAD_DSTYLE_DIMBREAK
70
0
0
APPID
5
1E8
100
AcDbSymbolTableRecord
100
AcDbRegAppTableRecord
2
ACAD_DSTYLE_DIM_LINETYPE
70
0
0
APPID
5
1E9
100
AcDbSymbolTableRecord
100
AcDbRegAppTableRecord
2
ACAD_DSTYLE_DIM_EXT1_LINETYPE
70
0
0
APPID
5
1EA
100
AcDbSymbolTableRecord
100
AcDbRegAppTableRecord
2
ACAD_DSTYLE_DIM_EXT2_LINETYPE
70
0
0
APPID
5
225
100
AcDbSymbolTableRecord
100
AcDbRegAppTableRecord
2
ACAD_MLEADERVER
70
0
0
ENDTAB
0
TABLE
2
BLOCK_RECORD
5
244
100
AcDbSymbolTable
0
BLOCK_RECORD
5
1F
100
AcDbSymbolTableRecord
100
AcDbBlockTableRecord
2
*Model_Space
340
0
70
0
0
BLOCK_RECORD
5
1B
100
AcDbSymbolTableRecord
100
AcDbBlockTableRecord
2
*Paper_Space
340
0
70
0
0
BLOCK_RECORD
5
23
100
AcDbSymbolTableRecord
100
AcDbBlockTableRecord
2
*Paper_Space0
340
0
70
0
0
BLOCK_RECORD
5
14F
100
AcDbSymbolTableRecord
100
AcDbBlockTableRecord
2
*D1
340
0
70
0
0
BLOCK_RECORD
5
15D
100
AcDbSymbolTableRecord
100
AcDbBlockTableRecord
2
_U0
340
0
70
0
0
BLOCK_RECORD
5
169
100
AcDbSymbolTableRecord
100
AcDbBlockTableRecord
2
*D3
340
0
70
0
0
BLOCK_RECORD
5
176
100
AcDbSymbolTableRecord
100
AcDbBlockTableRecord
2
_U1
340
0
70
0
0
BLOCK_RECORD
5
182
100
AcDbSymbolTableRecord
100
AcDbBlockTableRecord
2
*D5
340
0
70
0
0
BLOCK_RECORD
5
190
100
AcDbSymbolTableRecord
100
AcDbBlockTableRecord
2
_U2
340
0
70
0
0
BLOCK_RECORD
5
19C
100
AcDbSymbolTableRecord
100
AcDbBlockTableRecord
2
*D7
340
0
70
0
0
BLOCK_RECORD
5
1A9
100
AcDbSymbolTableRecord
100
AcDbBlockTableRecord
2
_U3
340
0
70
0
0
BLOCK_RECORD
5
1B5
100
AcDbSymbolTableRecord
100
AcDbBlockTableRecord
2
*D9
340
0
70
0
0
BLOCK_RECORD
5
1C1
100
AcDbSymbolTableRecord
100
AcDbBlockTableRecord
2
_U4
340
0
70
0
0
ENDTAB
0
ENDSEC
0
SECTION
2
BLOCKS
0
BLOCK
5
20
100
AcDbEntity
8
0
100
AcDbBlockBegin
2
*Model_Space
70
0
10
0
20
0
30
0
3
*Model_Space
0
ENDBLK
5
21
100
AcDbEntity
8
0
100
AcDbBlockEnd
0
BLOCK
5
1C
100
AcDbEntity
8
0
100
AcDbBlockBegin
2
*Paper_Space
70
0
10
0
20
0
30
0
3
*Paper_Space
0
ENDBLK
5
1D
100
AcDbEntity
8
0
100
AcDbBlockEnd
0
BLOCK
5
24
100
AcDbEntity
8
0
100
AcDbBlockBegin
2
*Paper_Space0
70
0
10
0
20
0
30
0
3
*Paper_Space0
0
ENDBLK
5
25
100
AcDbEntity
8
0
100
AcDbBlockEnd
0
BLOCK
5
150
100
AcDbEntity
8
0
100
AcDbBlockBegin
2
*D1
70
1
10
0
20
0
30
0
3
*D1
0
LINE
5
152
100
AcDbEntity
8
0
62
256
6
ByLayer
370
-2
48
1
60
0
100
AcDbLine
10
24.1875
20
6.05
30
0
11
52.35
21
6.05
31
0
39
0
210
0
220
0
230
1
0
LINE
5
153
100
AcDbEntity
8
0
62
256
6
ByLayer
370
-2
48
1
60
0
100
AcDbLine
10
-100.8125
20
-5.95
30
0
11
52.35
21
-5.95
31
0
39
0
210
0
220
0
230
1
0
LINE
5
154
100
AcDbEntity
8
0
62
256
6
ByLayer
370
-2
48
1
60
0
100
AcDbLine
10
50.35
20
9.55
30
0
11
50.35
21
13.05
31
0
39
0
210
0
220
0
230
1
0
LINE
5
155
100
AcDbEntity
8
0
62
256
6
ByLayer
370
-2
48
1
60
0
100
AcDbLine
10
50.35
20
-9.45
30
0
11
50.35
21
-12.95
31
0
39
0
210
0
220
0
230
1
0
SOLID
5
156
100
AcDbEntity
8
0
62
256
6
ByLayer
370
-1
48
1
60
0
100
AcDbTrace
10
49.766667
20
9.55
30
0
11
50.933333
21
9.55
31
0
12
50.35
22
6.05
32
0
13
50.35
23
6.05
33
0
39
0
210
0
220
0
230
1
0
SOLID
5
157
100
AcDbEntity
8
0
62
256
6
ByLayer
370
-1
48
1
60
0
100
AcDbTrace
10
50.933333
20
-9.45
30
0
11
49.766667
21
-9.45
31
0
12
50.35
22
-5.95
32
0
13
50.35
23
-5.95
33
0
39
0
210
0
220
0
230
1
0
MTEXT
5
158
100
AcDbEntity
8
0
62
256
6
ByLayer
370
18
48
1
60
0
100
AcDbMText
10
43.35
20
0.05
30
0
210
0
220
0
230
1
1
\A1;12
40
3.5
41
0
44
1
50
90
71
5
72
5
7
iso_b_vert
0
POINT
5
159
100
AcDbEntity
8
Defpoints
62
0
6
ByLayer
370
-1
48
1
60
0
100
AcDbPoint
10
22.6
20
6.05
30
0
39
0
210
0
220
0
230
1
50
360
0
POINT
5
15A
100
AcDbEntity
8
Defpoints
62
0
6
ByLayer
370
-1
48
1
60
0
100
AcDbPoint
10
-102.4
20
-5.95
30
0
39
0
210
0
220
0
230
1
50
360
0
POINT
5
15B
100
AcDbEntity
8
Defpoints
62
0
6
ByLayer
370
-1
48
1
60
0
100
AcDbPoint
10
50.35
20
-5.95
30
0
39
0
210
0
220
0
230
1
50
360
0
ENDBLK
5
151
100
AcDbEntity
8
0
100
AcDbBlockEnd
0
BLOCK
5
164
100
AcDbEntity
8
0
100
AcDbBlockBegin
2
_U0
70
0
10
0
20
0
30
0
3
_U0
0
MTEXT
5
15E
100
AcDbEntity
8
2
62
256
6
ByLayer
370
18
48
1
60
0
100
AcDbMText
10
49.660366
20
-1.445533
30
0
210
0
220
0
230
1
1
\W0.5321;12
40
3.5
41
0
44
1.084337
50
90
71
7
72
5
7
iso_b_vert
0
LINE
5
15F
100
AcDbEntity
8
2
62
256
6
ByLayer
370
13
48
1
60
0
100
AcDbLine
10
24.1875
20
6.05
30
0
11
52.35
21
6.05
31
0
39
0
210
0
220
0
230
1
0
LINE
5
160
100
AcDbEntity
8
2
62
256
6
ByLayer
370
13
48
1
60
0
100
AcDbLine
10
-100.8125
20
-5.95
30
0
11
52.35
21
-5.95
31
0
39
0
210
0
220
0
230
1
0
LINE
5
161
100
AcDbEntity
8
2
62
256
6
ByLayer
370
13
48
1
60
0
100
AcDbLine
10
50.35
20
6.05
30
0
11
50.35
21
-5.95
31
0
39
0
210
0
220
0
230
1
0
SOLID
5
162
100
AcDbEntity
8
2
62
256
6
ByLayer
370
18
48
1
60
0
100
AcDbTrace
10
50.35
20
6.05
30
0
11
50.810784
21
2.550002
31
0
12
49.889216
22
2.549998
32
0
13
49.889216
23
2.549998
33
0
39
0
210
0
220
0
230
1
0
SOLID
5
163
100
AcDbEntity
8
2
62
256
6
ByLayer
370
18
48
1
60
0
100
AcDbTrace
10
50.35
20
-5.95
30
0
11
49.889216
21
-2.450002
31
0
12
50.810784
22
-2.449998
32
0
13
50.810784
23
-2.449998
33
0
39
0
210
0
220
0
230
1
0
ENDBLK
5
165
100
AcDbEntity
8
0
100
AcDbBlockEnd
0
BLOCK
5
16A
100
AcDbEntity
8
0
100
AcDbBlockBegin
2
*D3
70
1
10
0
20
0
30
0
3
*D3
0
LINE
5
16C
100
AcDbEntity
8
0
62
256
6
ByLayer
370
-2
48
1
60
0
100
AcDbLine
10
24.1875
20
4.55
30
0
11
44.693148
21
4.55
31
0
39
0
210
0
220
0
230
1
0
LINE
5
16D
100
AcDbEntity
8
0
62
256
6
ByLayer
370
-2
48
1
60
0
100
AcDbLine
10
24.1875
20
6.05
30
0
11
44.693148
21
6.05
31
0
39
0
210
0
220
0
230
1
0
LINE
5
16E
100
AcDbEntity
8
0
62
256
6
ByLayer
370
-2
48
1
60
0
100
AcDbLine
10
42.693148
20
1.05
30
0
11
42.693148
21
-2.45
31
0
39
0
210
0
220
0
230
1
0
LINE
5
16F
100
AcDbEntity
8
0
62
256
6
ByLayer
370
-2
48
1
60
0
100
AcDbLine
10
42.693148
20
9.55
30
0
11
42.693148
21
13.05
31
0
39
0
210
0
220
0
230
1
0
SOLID
5
170
100
AcDbEntity
8
0
62
256
6
ByLayer
370
-1
48
1
60
0
100
AcDbTrace
10
43.276481
20
1.05
30
0
11
42.109814
21
1.05
31
0
12
42.693148
22
4.55
32
0
13
42.693148
23
4.55
33
0
39
0
210
0
220
0
230
1
0
SOLID
5
171
100
AcDbEntity
8
0
62
256
6
ByLayer
370
-1
48
1
60
0
100
AcDbTrace
10
42.109814
20
9.55
30
0
11
43.276481
21
9.55
31
0
12
42.693148
22
6.05
32
0
13
42.693148
23
6.05
33
0
39
0
210
0
220
0
230
1
0
MTEXT
5
172
100
AcDbEntity
8
0
62
256
6
ByLayer
370
18
48
1
60
0
100
AcDbMText
10
35.693148
20
5.3
30
0
210
0
220
0
230
1
1
\A1;1.5
40
3.5
41
0
44
1
50
90
71
5
72
5
7
iso_b_vert
0
POINT
5
173
100
AcDbEntity
8
Defpoints
62
0
6
ByLayer
370
-1
48
1
60
0
100
AcDbPoint
10
22.6
20
4.55
30
0
39
0
210
0
220
0
230
1
50
360
0
POINT
5
174
100
AcDbEntity
8
Defpoints
62
0
6
ByLayer
370
-1
48
1
60
0
100
AcDbPoint
10
22.6
20
6.05
30
0
39
0
210
0
220
0
230
1
50
360
0
POINT
5
175
100
AcDbEntity
8
Defpoints
62
0
6
ByLayer
370
-1
48
1
60
0
100
AcDbPoint
10
42.693148
20
6.05
30
0
39
0
210
0
220
0
230
1
50
360
0
ENDBLK
5
16B
100
AcDbEntity
8
0
100
AcDbBlockEnd
0
BLOCK
5
17D
100
AcDbEntity
8
0
100
AcDbBlockBegin
2
_U1
70
0
10
0
20
0
30
0
3
_U1
0
MTEXT
5
177
100
AcDbEntity
8
2
62
256
6
ByLayer
370
18
48
1
60
0
100
AcDbMText
10
42.003514
20
3.095467
30
0
210
0
220
0
230
1
1
\W0.6004;1.5
40
3.5
41
0
44
1.084337
50
90
71
7
72
5
7
iso_b_vert
0
LINE
5
178
100
AcDbEntity
8
2
62
256
6
ByLayer
370
13
48
1
60
0
100
AcDbLine
10
24.1875
20
4.55
30
0
11
44.693148
21
4.55
31
0
39
0
210
0
220
0
230
1
0
LINE
5
179
100
AcDbEntity
8
2
62
256
6
ByLayer
370
13
48
1
60
0
100
AcDbLine
10
24.1875
20
6.05
30
0
11
44.693148
21
6.05
31
0
39
0
210
0
220
0
230
1
0
LINE
5
17A
100
AcDbEntity
8
2
62
256
6
ByLayer
370
13
48
1
60
0
100
AcDbLine
10
42.693148
20
-4.2
30
0
11
42.693148
21
14.8
31
0
39
0
210
0
220
0
230
1
0
SOLID
5
17B
100
AcDbEntity
8
2
62
256
6
ByLayer
370
18
48
1
60
0
100
AcDbTrace
10
42.693148
20
4.55
30
0
11
43.153931
21
1.050002
31
0
12
42.232364
22
1.049998
32
0
13
42.232364
23
1.049998
33
0
39
0
210
0
220
0
230
1
0
SOLID
5
17C
100
AcDbEntity
8
2
62
256
6
ByLayer
370
18
48
1
60
0
100
AcDbTrace
10
42.693148
20
6.05
30
0
11
42.232364
21
9.549998
31
0
12
43.153931
22
9.550002
32
0
13
43.153931
23
9.550002
33
0
39
0
210
0
220
0
230
1
0
ENDBLK
5
17E
100
AcDbEntity
8
0
100
AcDbBlockEnd
0
BLOCK
5
183
100
AcDbEntity
8
0
100
AcDbBlockBegin
2
*D5
70
1
10
0
20
0
30
0
3
*D5
0
LINE
5
185
100
AcDbEntity
8
0
62
256
6
ByLayer
370
-2
48
1
60
0
100
AcDbLine
10
-103.9875
20
-5.95
30
0
11
-116
21
-5.95
31
0
39
0
210
0
220
0
230
1
0
LINE
5
186
100
AcDbEntity
8
0
62
256
6
ByLayer
370
-2
48
1
60
0
100
AcDbLine
10
-103.9875
20
6.05
30
0
11
-116
21
6.05
31
0
39
0
210
0
220
0
230
1
0
LINE
5
187
100
AcDbEntity
8
0
62
256
6
ByLayer
370
-2
48
1
60
0
100
AcDbLine
10
-114
20
-9.45
30
0
11
-114
21
-12.95
31
0
39
0
210
0
220
0
230
1
0
LINE
5
188
100
AcDbEntity
8
0
62
256
6
ByLayer
370
-2
48
1
60
0
100
AcDbLine
10
-114
20
9.55
30
0
11
-114
21
13.05
31
0
39
0
210
0
220
0
230
1
0
SOLID
5
189
100
AcDbEntity
8
0
62
256
6
ByLayer
370
-1
48
1
60
0
100
AcDbTrace
10
-113.416667
20
-9.45
30
0
11
-114.583333
21
-9.45
31
0
12
-114
22
-5.95
32
0
13
-114
23
-5.95
33
0
39
0
210
0
220
0
230
1
0
SOLID
5
18A
100
AcDbEntity
8
0
62
256
6
ByLayer
370
-1
48
1
60
0
100
AcDbTrace
10
-114.583333
20
9.55
30
0
11
-113.416667
21
9.55
31
0
12
-114
22
6.05
32
0
13
-114
23
6.05
33
0
39
0
210
0
220
0
230
1
0
MTEXT
5
18B
100
AcDbEntity
8
0
62
256
6
ByLayer
370
18
48
1
60
0
100
AcDbMText
10
-121
20
0.05
30
0
210
0
220
0
230
1
1
\A1;12
40
3.5
41
0
44
1
50
90
71
5
72
5
7
iso_b_vert
0
POINT
5
18C
100
AcDbEntity
8
Defpoints
62
0
6
ByLayer
370
-1
48
1
60
0
100
AcDbPoint
10
-102.4
20
-5.95
30
0
39
0
210
0
220
0
230
1
50
360
0
POINT
5
18D
100
AcDbEntity
8
Defpoints
62
0
6
ByLayer
370
-1
48
1
60
0
100
AcDbPoint
10
-102.4
20
6.05
30
0
39
0
210
0
220
0
230
1
50
360
0
POINT
5
18E
100
AcDbEntity
8
Defpoints
62
0
6
ByLayer
370
-1
48
1
60
0
100
AcDbPoint
10
-114
20
6.05
30
0
39
0
210
0
220
0
230
1
50
360
0
ENDBLK
5
184
100
AcDbEntity
8
0
100
AcDbBlockEnd
0
BLOCK
5
197
100
AcDbEntity
8
0
100
AcDbBlockBegin
2
_U2
70
0
10
0
20
0
30
0
3
_U2
0
MTEXT
5
191
100
AcDbEntity
8
SK2
62
256
6
ByLayer
370
18
48
1
60
0
100
AcDbMText
10
-114.689634
20
-1.445533
30
0
210
0
220
0
230
1
1
\W0.5321;12
40
3.5
41
0
44
1.084337
50
90
71
7
72
5
7
iso_b_vert
0
LINE
5
192
100
AcDbEntity
8
SK2
62
256
6
ByLayer
370
13
48
1
60
0
100
AcDbLine
10
-103.9875
20
-5.95
30
0
11
-116
21
-5.95
31
0
39
0
210
0
220
0
230
1
0
LINE
5
193
100
AcDbEntity
8
SK2
62
256
6
ByLayer
370
13
48
1
60
0
100
AcDbLine
10
-103.9875
20
6.05
30
0
11
-116
21
6.05
31
0
39
0
210
0
220
0
230
1
0
LINE
5
194
100
AcDbEntity
8
SK2
62
256
6
ByLayer
370
13
48
1
60
0
100
AcDbLine
10
-114
20
-5.95
30
0
11
-114
21
6.05
31
0
39
0
210
0
220
0
230
1
0
SOLID
5
195
100
AcDbEntity
8
SK2
62
256
6
ByLayer
370
18
48
1
60
0
100
AcDbTrace
10
-114
20
-5.95
30
0
11
-114.460784
21
-2.450002
31
0
12
-113.539216
22
-2.449998
32
0
13
-113.539216
23
-2.449998
33
0
39
0
210
0
220
0
230
1
0
SOLID
5
196
100
AcDbEntity
8
SK2
62
256
6
ByLayer
370
18
48
1
60
0
100
AcDbTrace
10
-114
20
6.05
30
0
11
-113.539216
21
2.550002
31
0
12
-114.460784
22
2.549998
32
0
13
-114.460784
23
2.549998
33
0
39
0
210
0
220
0
230
1
0
ENDBLK
5
198
100
AcDbEntity
8
0
100
AcDbBlockEnd
0
BLOCK
5
19D
100
AcDbEntity
8
0
100
AcDbBlockBegin
2
*D7
70
1
10
0
20
0
30
0
3
*D7
0
LINE
5
19F
100
AcDbEntity
8
0
62
256
6
ByLayer
370
-2
48
1
60
0
100
AcDbLine
10
11.6
20
3.2125
30
0
11
11.6
21
-19.7
31
0
39
0
210
0
220
0
230
1
0
LINE
5
1A0
100
AcDbEntity
8
0
62
256
6
ByLayer
370
-2
48
1
60
0
100
AcDbLine
10
22.6
20
4.4625
30
0
11
22.6
21
-19.7
31
0
39
0
210
0
220
0
230
1
0
LINE
5
1A1
100
AcDbEntity
8
0
62
256
6
ByLayer
370
-2
48
1
60
0
100
AcDbLine
10
8.1
20
-17.7
30
0
11
4.6
21
-17.7
31
0
39
0
210
0
220
0
230
1
0
LINE
5
1A2
100
AcDbEntity
8
0
62
256
6
ByLayer
370
-2
48
1
60
0
100
AcDbLine
10
26.1
20
-17.7
30
0
11
29.6
21
-17.7
31
0
39
0
210
0
220
0
230
1
0
SOLID
5
1A3
100
AcDbEntity
8
0
62
256
6
ByLayer
370
-1
48
1
60
0
100
AcDbTrace
10
8.1
20
-18.283333
30
0
11
8.1
21
-17.116667
31
0
12
11.6
22
-17.7
32
0
13
11.6
23
-17.7
33
0
39
0
210
0
220
0
230
1
0
SOLID
5
1A4
100
AcDbEntity
8
0
62
256
6
ByLayer
370
-1
48
1
60
0
100
AcDbTrace
10
26.1
20
-17.116667
30
0
11
26.1
21
-18.283333
31
0
12
22.6
22
-17.7
32
0
13
22.6
23
-17.7
33
0
39
0
210
0
220
0
230
1
0
MTEXT
5
1A5
100
AcDbEntity
8
0
62
256
6
ByLayer
370
18
48
1
60
0
100
AcDbMText
10
17.1
20
-10.7
30
0
210
0
220
0
230
1
1
\A1;11
40
3.5
41
0
44
1
50
0
71
5
72
5
7
iso_b_vert
0
POINT
5
1A6
100
AcDbEntity
8
Defpoints
62
0
6
ByLayer
370
-1
48
1
60
0
100
AcDbPoint
10
11.6
20
4.8
30
0
39
0
210
0
220
0
230
1
50
360
0
POINT
5
1A7
100
AcDbEntity
8
Defpoints
62
0
6
ByLayer
370
-1
48
1
60
0
100
AcDbPoint
10
22.6
20
6.05
30
0
39
0
210
0
220
0
230
1
50
360
0
POINT
5
1A8
100
AcDbEntity
8
Defpoints
62
0
6
ByLayer
370
-1
48
1
60
0
100
AcDbPoint
10
22.6
20
-17.7
30
0
39
0
210
0
220
0
230
1
50
360
0
ENDBLK
5
19E
100
AcDbEntity
8
0
100
AcDbBlockEnd
0
BLOCK
5
1B0
100
AcDbEntity
8
0
100
AcDbBlockBegin
2
_U3
70
0
10
0
20
0
30
0
3
_U3
0
MTEXT
5
1AA
100
AcDbEntity
8
2
62
256
6
ByLayer
370
18
48
1
60
0
100
AcDbMText
10
16.0699
20
-16.667366
30
0
210
0
220
0
230
1
1
\W0.4657;11
40
3.5
41
0
44
1.084337
50
0
71
7
72
5
7
iso_b_vert
0
LINE
5
1AB
100
AcDbEntity
8
2
62
256
6
ByLayer
370
13
48
1
60
0
100
AcDbLine
10
11.6
20
3.2125
30
0
11
11.6
21
-19.7
31
0
39
0
210
0
220
0
230
1
0
LINE
5
1AC
100
AcDbEntity
8
2
62
256
6
ByLayer
370
13
48
1
60
0
100
AcDbLine
10
22.6
20
4.4625
30
0
11
22.6
21
-19.7
31
0
39
0
210
0
220
0
230
1
0
LINE
5
1AD
100
AcDbEntity
8
2
62
256
6
ByLayer
370
13
48
1
60
0
100
AcDbLine
10
11.6
20
-17.7
30
0
11
22.6
21
-17.7
31
0
39
0
210
0
220
0
230
1
0
SOLID
5
1AE
100
AcDbEntity
8
2
62
256
6
ByLayer
370
18
48
1
60
0
100
AcDbTrace
10
11.6
20
-17.7
30
0
11
15.099998
21
-17.239216
31
0
12
15.100002
22
-18.160784
32
0
13
15.100002
23
-18.160784
33
0
39
0
210
0
220
0
230
1
0
SOLID
5
1AF
100
AcDbEntity
8
2
62
256
6
ByLayer
370
18
48
1
60
0
100
AcDbTrace
10
22.6
20
-17.7
30
0
11
19.100002
21
-18.160784
31
0
12
19.099998
22
-17.239216
32
0
13
19.099998
23
-17.239216
33
0
39
0
210
0
220
0
230
1
0
ENDBLK
5
1B1
100
AcDbEntity
8
0
100
AcDbBlockEnd
0
BLOCK
5
1B6
100
AcDbEntity
8
0
100
AcDbBlockBegin
2
*D9
70
1
10
0
20
0
30
0
3
*D9
0
LINE
5
1B8
100
AcDbEntity
8
0
62
256
6
ByLayer
370
-2
48
1
60
0
100
AcDbLine
10
-102.4
20
-7.5375
30
0
11
-102.4
21
-25.7
31
0
39
0
210
0
220
0
230
1
0
LINE
5
1B9
100
AcDbEntity
8
0
62
256
6
ByLayer
370
-2
48
1
60
0
100
AcDbLine
10
22.6
20
4.4625
30
0
11
22.6
21
-25.7
31
0
39
0
210
0
220
0
230
1
0
LINE
5
1BA
100
AcDbEntity
8
0
62
256
6
ByLayer
370
-2
48
1
60
0
100
AcDbLine
10
-98.9
20
-23.7
30
0
11
19.1
21
-23.7
31
0
39
0
210
0
220
0
230
1
0
SOLID
5
1BB
100
AcDbEntity
8
0
62
256
6
ByLayer
370
-1
48
1
60
0
100
AcDbTrace
10
-98.9
20
-23.116667
30
0
11
-98.9
21
-24.283333
31
0
12
-102.4
22
-23.7
32
0
13
-102.4
23
-23.7
33
0
39
0
210
0
220
0
230
1
0
SOLID
5
1BC
100
AcDbEntity
8
0
62
256
6
ByLayer
370
-1
48
1
60
0
100
AcDbTrace
10
19.1
20
-24.283333
30
0
11
19.1
21
-23.116667
31
0
12
22.6
22
-23.7
32
0
13
22.6
23
-23.7
33
0
39
0
210
0
220
0
230
1
0
MTEXT
5
1BD
100
AcDbEntity
8
0
62
256
6
ByLayer
370
18
48
1
60
0
100
AcDbMText
10
-39.9
20
-16.7
30
0
210
0
220
0
230
1
1
\A1;125
40
3.5
41
0
44
1
50
0
71
5
72
5
7
iso_b_vert
0
POINT
5
1BE
100
AcDbEntity
8
Defpoints
62
0
6
ByLayer
370
-1
48
1
60
0
100
AcDbPoint
10
-102.4
20
-5.95
30
0
39
0
210
0
220
0
230
1
50
360
0
POINT
5
1BF
100
AcDbEntity
8
Defpoints
62
0
6
ByLayer
370
-1
48
1
60
0
100
AcDbPoint
10
22.6
20
6.05
30
0
39
0
210
0
220
0
230
1
50
360
0
POINT
5
1C0
100
AcDbEntity
8
Defpoints
62
0
6
ByLayer
370
-1
48
1
60
0
100
AcDbPoint
10
22.6
20
-23.7
30
0
39
0
210
0
220
0
230
1
50
360
0
ENDBLK
5
1B7
100
AcDbEntity
8
0
100
AcDbBlockEnd
0
BLOCK
5
1C8
100
AcDbEntity
8
0
100
AcDbBlockBegin
2
_U4
70
0
10
0
20
0
30
0
3
_U4
0
MTEXT
5
1C2
100
AcDbEntity
8
SK2
62
256
6
ByLayer
370
18
48
1
60
0
100
AcDbMText
10
-42.675266
20
-22.667366
30
0
210
0
220
0
230
1
1
\W0.6217;125
40
3.5
41
0
44
1.084337
50
0
71
7
72
5
7
iso_b_vert
0
LINE
5
1C3
100
AcDbEntity
8
SK2
62
256
6
ByLayer
370
13
48
1
60
0
100
AcDbLine
10
-102.4
20
-7.5375
30
0
11
-102.4
21
-25.7
31
0
39
0
210
0
220
0
230
1
0
LINE
5
1C4
100
AcDbEntity
8
SK2
62
256
6
ByLayer
370
13
48
1
60
0
100
AcDbLine
10
22.6
20
4.4625
30
0
11
22.6
21
-25.7
31
0
39
0
210
0
220
0
230
1
0
LINE
5
1C5
100
AcDbEntity
8
SK2
62
256
6
ByLayer
370
13
48
1
60
0
100
AcDbLine
10
-102.4
20
-23.7
30
0
11
22.6
21
-23.7
31
0
39
0
210
0
220
0
230
1
0
SOLID
5
1C6
100
AcDbEntity
8
SK2
62
256
6
ByLayer
370
18
48
1
60
0
100
AcDbTrace
10
-102.4
20
-23.7
30
0
11
-98.900002
21
-23.239216
31
0
12
-98.899998
22
-24.160784
32
0
13
-98.899998
23
-24.160784
33
0
39
0
210
0
220
0
230
1
0
SOLID
5
1C7
100
AcDbEntity
8
SK2
62
256
6
ByLayer
370
18
48
1
60
0
100
AcDbTrace
10
22.6
20
-23.7
30
0
11
19.100002
21
-24.160784
31
0
12
19.099998
22
-23.239216
32
0
13
19.099998
23
-23.239216
33
0
39
0
210
0
220
0
230
1
0
ENDBLK
5
1C9
100
AcDbEntity
8
0
100
AcDbBlockEnd
0
ENDSEC
0
SECTION
2
ENTITIES
0
ARC
5
E7
100
AcDbEntity
8
1
62
256
6
ByLayer
370
18
48
1
60
0
100
AcDbCircle
39
0
10
11.6
20
4
30
0
40
0.799999999999992
210
0
220
0
230
1
100
AcDbArc
50
90
51
180
0
ARC
5
E8
100
AcDbEntity
8
SK1
62
256
6
ByLayer
370
18
48
1
60
0
100
AcDbCircle
39
0
10
-1.6
20
7.4
30
0
40
1.6
210
0
220
0
230
1
100
AcDbArc
50
244.992167
51
270
0
ELLIPSE
5
E9
100
AcDbEntity
8
1
62
256
6
ByLayer
370
18
48
1
60
0
100
AcDbEllipse
10
22.601517
20
16.711348
30
0
11
0.70515938379421
21
-33.3239678000297
31
0
210
0
220
0
230
1
40
0.353512
41
-1.18692651174795
42
-1.18042537076442
0
ELLIPSE
5
EA
100
AcDbEntity
8
1
62
256
6
ByLayer
370
18
48
1
60
0
100
AcDbEllipse
10
8.534601
20
-0.575
30
0
11
-3.5633858044891
21
4.36374489729782E-16
31
0
210
0
220
0
230
1
40
0.891007
41
-1.10411646844989
42
-0.982423360466023
0
ELLIPSE
5
EB
100
AcDbEntity
8
1
62
256
6
ByLayer
370
18
48
1
60
0
100
AcDbEllipse
10
8.204159
20
-0.575
30
0
11
-5.83218776007907E-16
21
-3.175
31
0
210
0
220
0
230
1
40
0.891007
41
1.97959200338252
42
-2.67491279524479
0
ELLIPSE
5
EC
100
AcDbEntity
8
1
62
256
6
ByLayer
370
18
48
1
60
0
100
AcDbEllipse
10
8.693501
20
4
30
0
11
1.76215141166822
21
0
31
0
210
0
220
0
230
1
40
0.45399
41
1.5707963267949
42
3.14159265358979
0
ELLIPSE
5
ED
100
AcDbEntity
8
1
62
256
6
ByLayer
370
18
48
1
60
0
100
AcDbEllipse
10
8.534601
20
-0.575
30
0
11
-3.5633858044891
21
4.36374489729782E-16
31
0
210
0
220
0
230
1
40
0.891007
41
0.982423360466023
42
1.10411646844989
0
ELLIPSE
5
EE
100
AcDbEntity
8
1
62
256
6
ByLayer
370
18
48
1
60
0
100
AcDbEllipse
10
8.12698
20
-0.575
30
0
11
1.94406258669302E-16
21
3.175
31
0
210
0
220
0
230
1
40
0.891007
41
-1.23723367524155
42
-0.0136493779038004
0
ELLIPSE
5
EF
100
AcDbEntity
8
1
62
256
6
ByLayer
370
18
48
1
60
0
100
AcDbEllipse
10
9.86953
20
-0.575
30
0
11
4.53787995752993
21
0
31
0
210
0
220
0
230
1
40
0.851581
41
2.38911365625786
42
2.64065334554963
0
ELLIPSE
5
F0
100
AcDbEntity
8
1
62
256
6
ByLayer
370
18
48
1
60
0
100
AcDbEllipse
10
9.86953
20
-0.575
30
0
11
4.53787995752993
21
0
31
0
210
0
220
0
230
1
40
0.851581
41
-2.64065334554964
42
-2.38911365625786
0
ELLIPSE
5
F1
100
AcDbEntity
8
1
62
256
6
ByLayer
370
18
48
1
60
0
100
AcDbEllipse
10
8.12698
20
-0.575
30
0
11
1.94406258669302E-16
21
3.175
31
0
210
0
220
0
230
1
40
0.891007
41
-3.127943275686
42
-1.90435897834824
0
ELLIPSE
5
F2
100
AcDbEntity
8
1
62
256
6
ByLayer
370
18
48
1
60
0
100
AcDbEllipse
10
8.204159
20
-0.575
30
0
11
-5.83218776007907E-16
21
-3.175
31
0
210
0
220
0
230
1
40
0.891007
41
-0.466679858345003
42
1.16200065020727
0
ELLIPSE
5
F3
100
AcDbEntity
8
1
62
256
6
ByLayer
370
18
48
1
60
0
100
AcDbEllipse
10
7.10409
20
-0.575
30
0
11
7.90054789168507E-17
21
1.2903
31
0
210
0
220
0
230
1
40
0.891007
41
-1.57079671052643
42
-0.465741949083513
0
ELLIPSE
5
F4
100
AcDbEntity
8
1
62
256
6
ByLayer
370
18
48
1
60
0
100
AcDbEllipse
10
7.10409
20
-0.575
30
0
11
7.90054789168507E-17
21
1.2903
31
0
210
0
220
0
230
1
40
0.891007
41
-2.67035354084124
42
-1.57079593551288
0
ELLIPSE
5
F5
100
AcDbEntity
8
1
62
256
6
ByLayer
370
18
48
1
60
0
100
AcDbEllipse
10
7.489982
20
-0.575
30
0
11
-2.37016436750552E-16
21
-1.2903
31
0
210
0
220
0
230
1
40
0.891007
41
0.523598775598292
42
1.5707963267949
0
ELLIPSE
5
F6
100
AcDbEntity
8
1
62
256
6
ByLayer
370
18
48
1
60
0
100
AcDbEllipse
10
7.489982
20
-0.575
30
0
11
-2.37016436750552E-16
21
-1.2903
31
0
210
0
220
0
230
1
40
0.891007
41
1.57079632679489
42
2.6179938779915
0
ELLIPSE
5
F7
100
AcDbEntity
8
1
62
256
6
ByLayer
370
18
48
1
60
0
100
AcDbEllipse
10
7.489982
20
-0.575
30
0
11
-2.37016436750552E-16
21
-1.2903
31
0
210
0
220
0
230
1
40
0.891007
41
2.61799387799149
42
2.91718129697015
0
ELLIPSE
5
F8
100
AcDbEntity
8
1
62
256
6
ByLayer
370
18
48
1
60
0
100
AcDbEllipse
10
7.489982
20
-0.575
30
0
11
7.90054789168507E-17
21
1.2903
31
0
210
0
220
0
230
1
40
0.891007
41
-2.91718129697016
42
-2.6179938779915
0
ELLIPSE
5
F9
100
AcDbEntity
8
1
62
256
6
ByLayer
370
18
48
1
60
0
100
AcDbEllipse
10
8.811612
20
-0.575
30
0
11
2.41308682020921E-17
21
0.394100000000362
31
0
210
0
220
0
230
1
40
0.436347
41
0.288932900934885
42
1.5707963267949
0
ELLIPSE
5
FA
100
AcDbEntity
8
1
62
256
6
ByLayer
370
18
48
1
60
0
100
AcDbEllipse
10
8.811612
20
-0.575
30
0
11
2.41308682020565E-17
21
0.39409999999978
31
0
210
0
220
0
230
1
40
0.436347
41
1.5707963267949
42
2.85265975265575
0
ELLIPSE
5
FB
100
AcDbEntity
8
1
62
256
6
ByLayer
370
18
48
1
60
0
100
AcDbEllipse
10
8.634625
20
-1.3167
30
0
11
0.166590173381897
21
0.346346854433045
31
0
210
0
220
0
230
1
40
0.458817
41
-2.28436054737902
42
0.137551892607958
0
ELLIPSE
5
FC
100
AcDbEntity
8
1
62
256
6
ByLayer
370
18
48
1
60
0
100
AcDbEllipse
10
8.634625
20
0.1667
30
0
11
0.166590173381909
21
-0.346346854433055
31
0
210
0
220
0
230
1
40
0.458817
41
-0.137551892608195
42
2.28436054737896
0
ELLIPSE
5
FD
100
AcDbEntity
8
1
62
256
6
ByLayer
370
18
48
1
60
0
100
AcDbEllipse
10
8.150797
20
0.709575
30
0
11
0.297314427410565
21
-0.208297956712734
31
0
210
0
220
0
230
1
40
0.514259
41
-2.78239765148248
42
-1.50053422562054
0
ELLIPSE
5
FE
100
AcDbEntity
8
1
62
256
6
ByLayer
370
18
48
1
60
0
100
AcDbEllipse
10
8.150797
20
0.709575
30
0
11
0.297314427411155
21
-0.208297956712773
31
0
210
0
220
0
230
1
40
0.514259
41
-1.50053422562222
42
-0.579535660854222
0
ELLIPSE
5
FF
100
AcDbEntity
8
1
62
256
6
ByLayer
370
18
48
1
60
0
100
AcDbEllipse
10
8.150797
20
-1.859575
30
0
11
0.297314427410836
21
0.208297956712092
31
0
210
0
220
0
230
1
40
0.514259
41
0.622058059849376
42
1.50053422562432
0
ELLIPSE
5
100
100
AcDbEntity
8
1
62
256
6
ByLayer
370
18
48
1
60
0
100
AcDbEllipse
10
8.150797
20
-1.859575
30
0
11
0.297314427408935
21
0.208297956712558
31
0
210
0
220
0
230
1
40
0.514259
41
1.50053422561558
42
2.78239765148176
0
ELLIPSE
5
101
100
AcDbEntity
8
1
62
256
6
ByLayer
370
18
48
1
60
0
100
AcDbEllipse
10
7.989372
20
-0.575
30
0
11
-5.5107285922007E-16
21
-3
31
0
210
0
220
0
230
1
40
0.891007
41
3.14159258717257
42
-2.90740745111097E-16
0
ELLIPSE
5
102
100
AcDbEntity
8
1
62
256
6
ByLayer
370
18
48
1
60
0
100
AcDbEllipse
10
8.261766
20
-0.575
30
0
11
-3.07939513732175E-16
21
-1.6764
31
0
210
0
220
0
230
1
40
0.891007
41
-1.0471975511966
42
9.51396241287975E-15
0
ELLIPSE
5
103
100
AcDbEntity
8
1
62
256
6
ByLayer
370
18
48
1
60
0
100
AcDbEllipse
10
8.261766
20
-0.575
30
0
11
-3.07939513732175E-16
21
-1.6764
31
0
210
0
220
0
230
1
40
0.891007
41
-2.0943951023932
42
-1.0471975511966
0
ELLIPSE
5
104
100
AcDbEntity
8
1
62
256
6
ByLayer
370
18
48
1
60
0
100
AcDbEllipse
10
8.261766
20
-0.575
30
0
11
-3.07939513732175E-16
21
-1.6764
31
0
210
0
220
0
230
1
40
0.891007
41
3.14159265358978
42
-2.0943951023932
0
ELLIPSE
5
105
100
AcDbEntity
8
1
62
256
6
ByLayer
370
18
48
1
60
0
100
AcDbEllipse
10
8.261766
20
-0.575
30
0
11
-3.07939513732175E-16
21
-1.6764
31
0
210
0
220
0
230
1
40
0.891007
41
2.0943951023932
42
3.14159265358978
0
ELLIPSE
5
106
100
AcDbEntity
8
1
62
256
6
ByLayer
370
18
48
1
60
0
100
AcDbEllipse
10
8.261766
20
-0.575
30
0
11
-3.07939513732175E-16
21
-1.6764
31
0
210
0
220
0
230
1
40
0.891007
41
1.0471975511966
42
2.0943951023932
0
ELLIPSE
5
107
100
AcDbEntity
8
1
62
256
6
ByLayer
370
18
48
1
60
0
100
AcDbEllipse
10
8.261766
20
-0.575
30
0
11
-3.07939513732175E-16
21
-1.6764
31
0
210
0
220
0
230
1
40
0.891007
41
0
42
1.0471975511966
0
ELLIPSE
5
108
100
AcDbEntity
8
1
62
256
6
ByLayer
370
13
48
1
60
0
100
AcDbEllipse
10
8.261766
20
-0.575
30
0
11
1.71444889535133E-16
21
2.8
31
0
210
0
220
0
230
1
40
0.891007
41
0
42
6.28318530717959
0
ELLIPSE
5
109
100
AcDbEntity
8
1
62
256
6
ByLayer
370
18
48
1
60
0
100
AcDbEllipse
10
8.170968
20
-0.575
30
0
11
-5.5107285922007E-16
21
-3
31
0
210
0
220
0
230
1
40
0.891007
41
-0.679075062477698
42
-2.90740745111097E-16
0
ELLIPSE
5
10A
100
AcDbEntity
8
1
62
256
6
ByLayer
370
18
48
1
60
0
100
AcDbEllipse
10
8.170968
20
-0.575
30
0
11
-5.5107285922007E-16
21
-3
31
0
210
0
220
0
230
1
40
0.891007
41
0
42
0.679467705231409
0
ELLIPSE
5
10B
100
AcDbEntity
8
1
62
256
6
ByLayer
370
13
48
1
60
0
100
AcDbEllipse
10
8.170968
20
-0.575
30
0
11
-5.5107285922007E-16
21
-3
31
0
210
0
220
0
230
1
40
0.891007
41
-2.46929193059956
42
-0.679075062477718
0
ELLIPSE
5
10C
100
AcDbEntity
8
1
62
256
6
ByLayer
370
18
48
1
60
0
100
AcDbEllipse
10
8.170968
20
-0.575
30
0
11
-5.5107285922007E-16
21
-3
31
0
210
0
220
0
230
1
40
0.891007
41
2.46389227359153
42
-2.46929193059957
0
ELLIPSE
5
10D
100
AcDbEntity
8
1
62
256
6
ByLayer
370
18
48
1
60
0
100
AcDbEllipse
10
16.785192
20
5.3
30
0
11
3.48096779303155
21
4.0777983950858E-15
31
0
210
0
220
0
230
1
40
0.086183
41
-0.349065850557258
42
0.349065850557227
0
POINT
5
70
100
AcDbEntity
8
81
62
256
6
ByLayer
370
18
48
1
60
0
100
AcDbPoint
10
22.6
20
6.05
30
0
39
0
210
0
220
0
230
1
50
360
0
POINT
5
72
100
AcDbEntity
8
80
62
256
6
ByLayer
370
18
48
1
60
0
100
AcDbPoint
10
0
20
0
30
0
39
0
210
0
220
0
230
1
50
360
0
POINT
5
74
100
AcDbEntity
8
1
62
256
6
ByLayer
370
18
48
1
60
1
100
AcDbPoint
10
22.6
20
6.05
30
0
39
0
210
0
220
0
230
1
50
360
0
POINT
5
76
100
AcDbEntity
8
1
62
256
6
ByLayer
370
18
48
1
60
1
100
AcDbPoint
10
-102.4
20
-5.95
30
0
39
0
210
0
220
0
230
1
50
360
0
POINT
5
77
100
AcDbEntity
8
1
62
256
6
ByLayer
370
18
48
1
60
1
100
AcDbPoint
10
22.6
20
4.55
30
0
39
0
210
0
220
0
230
1
50
360
0
POINT
5
78
100
AcDbEntity
8
1
62
256
6
ByLayer
370
18
48
1
60
1
100
AcDbPoint
10
22.6
20
6.05
30
0
39
0
210
0
220
0
230
1
50
360
0
POINT
5
79
100
AcDbEntity
8
1
62
256
6
ByLayer
370
18
48
1
60
1
100
AcDbPoint
10
-102.4
20
-5.95
30
0
39
0
210
0
220
0
230
1
50
360
0
POINT
5
7A
100
AcDbEntity
8
1
62
256
6
ByLayer
370
18
48
1
60
1
100
AcDbPoint
10
-102.4
20
6.05
30
0
39
0
210
0
220
0
230
1
50
360
0
POINT
5
7B
100
AcDbEntity
8
1
62
256
6
ByLayer
370
18
48
1
60
1
100
AcDbPoint
10
11.6
20
4.8
30
0
39
0
210
0
220
0
230
1
50
360
0
POINT
5
7C
100
AcDbEntity
8
1
62
256
6
ByLayer
370
18
48
1
60
1
100
AcDbPoint
10
22.6
20
6.05
30
0
39
0
210
0
220
0
230
1
50
360
0
POINT
5
7D
100
AcDbEntity
8
1
62
256
6
ByLayer
370
18
48
1
60
1
100
AcDbPoint
10
-102.4
20
-5.95
30
0
39
0
210
0
220
0
230
1
50
360
0
POINT
5
7E
100
AcDbEntity
8
1
62
256
6
ByLayer
370
18
48
1
60
1
100
AcDbPoint
10
22.6
20
6.05
30
0
39
0
210
0
220
0
230
1
50
360
0
SPLINE
5
10E
100
AcDbEntity
8
1
62
256
6
ByLayer
370
18
48
1
60
0
100
AcDbSpline
70
4
71
3
72
15
73
11
40
0
40
0
40
0
40
0
40
0.0822719365811681
40
0.235143984591448
40
0.388120924304167
40
0.541093945571455
40
0.694029011183456
40
0.846882111429845
40
0.999599974798287
40
1
40
1
40
1
40
1
41
1
10
10.8657863386115
20
-0.575000000000017
30
0
41
1
10
10.865777740525
20
-0.50183433082961
30
0
41
1
10
10.8589657039422
20
-0.293553307448917
30
0
41
1
10
10.8154262513588
20
0.0486661599198612
30
0
41
1
10
10.7153725240918
20
0.441527373026787
30
0
41
1
10
10.5681005511531
20
0.815607767136271
30
0
41
1
10
10.3775431182059
20
1.16561286825336
30
0
41
1
10
10.1424702112327
20
1.47812075897889
30
0
41
1
10
9.97032764703732
20
1.6751712495026
30
0
41
1
10
9.87017246105023
20
1.75380247377146
30
0
41
1
10
9.86991074161574
20
1.75400782217375
30
0
0
SPLINE
5
10F
100
AcDbEntity
8
1
62
256
6
ByLayer
370
18
48
1
60
0
100
AcDbSpline
70
4
71
3
72
14
73
10
40
0
40
0
40
0
40
0
40
0.116564173618241
40
0.269039829206527
40
0.421733744224086
40
0.574609796665142
40
0.727629473804501
40
0.880758149030239
40
1
40
1
40
1
40
1
41
1
10
9.87097123804543
20
-2.89678695695477
30
0
41
1
10
9.94480282567531
20
-2.83277093890013
30
0
41
1
10
10.1062843190539
20
-2.67568242320579
30
0
41
1
10
10.326449214295
20
-2.39057066769695
30
0
41
1
10
10.5272195039318
20
-2.05038261470543
30
0
41
1
10
10.6845135081844
20
-1.68227520938547
30
0
41
1
10
10.7958475781666
20
-1.29399656306117
30
0
41
1
10
10.8543694560362
20
-0.921520199865768
30
0
41
1
10
10.8657560610755
20
-0.681028177025297
30
0
41
1
10
10.8657863386115
20
-0.575000000000017
30
0
0
SPLINE
5
110
100
AcDbEntity
8
1
62
256
6
ByLayer
370
18
48
1
60
0
100
AcDbSpline
70
4
71
3
72
8
73
4
40
0
40
0
40
0
40
0
40
1
40
1
40
1
40
1
41
1
10
11.5428074832146
20
4.44385213791702
30
0
41
1
10
11.5467891910501
20
4.22900947771882
30
0
41
1
10
11.5432915199868
20
4.01441491310328
30
0
41
1
10
11.5319627105746
20
3.80000000000001
30
0
0
SPLINE
5
111
100
AcDbEntity
8
1
62
256
6
ByLayer
370
18
48
1
60
0
100
AcDbSpline
70
4
71
3
72
25
73
21
40
0
40
0
40
0
40
0
40
0.194879648580412
40
0.194879648580412
40
0.243599560725504
40
0.243599560725504
40
0.292319472870597
40
0.292319472870597
40
0.389759297160762
40
0.487199121450928
40
0.487199121450928
40
0.584638945741093
40
0.584638945741093
40
0.779518594321429
40
0.779518594321429
40
0.828238506466506
40
0.828238506466506
40
0.876958418611582
40
0.974398242901736
40
1
40
1
40
1
40
1
41
1
10
17.9800175166737
20
4.00000000000006
30
0
41
1
10
17.9800175166736
20
4.05859811676942
30
0
41
1
10
17.9863769129311
20
4.11584202273389
30
0
41
1
10
18.0017634523278
20
4.18581149106822
30
0
41
1
10
18.0052169693361
20
4.19972517613505
30
0
41
1
10
18.0128804454006
20
4.22739117840271
30
0
41
1
10
18.0171017510342
20
4.24116955792803
30
0
41
1
10
18.0307167117992
20
4.28171117894766
30
0
41
1
10
18.0514837225628
20
4.3340070696089
30
0
41
1
10
18.0771252679666
20
4.38301501995335
30
0
41
1
10
18.1051201870585
20
4.43043189157004
30
0
41
1
10
18.1203515457827
20
4.45339795052686
30
0
41
1
10
18.1684538655242
20
4.51856096976792
30
0
41
1
10
18.2039709653475
20
4.55757213845612
30
0
41
1
10
18.2522280699578
20
4.60133856509063
30
0
41
1
10
18.2620971726135
20
4.60985712101726
30
0
41
1
10
18.2820765338971
20
4.62627627171909
30
0
41
1
10
18.3124190761811
20
4.64999418020705
30
0
41
1
10
18.3493341662012
20
4.67479036594378
30
0
41
1
10
18.3764898789292
20
4.69080267762772
30
0
41
1
10
18.3821707991079
20
4.69405923302605
30
0
0
SPLINE
5
112
100
AcDbEntity
8
1
62
256
6
ByLayer
370
18
48
1
60
0
100
AcDbSpline
70
4
71
3
72
26
73
22
40
0
40
0
40
0
40
0
40
0.0551111268243063
40
0.0551111268243063
40
0.102355570483091
40
0.102355570483091
40
0.149600014141875
40
0.244088901459443
40
0.338577788777011
40
0.338577788777011
40
0.433066676094579
40
0.433066676094579
40
0.62204445072972
40
0.62204445072972
40
0.669288894388507
40
0.669288894388507
40
0.716533338047294
40
0.811022225364863
40
0.905511112682431
40
0.905511112682431
40
1
40
1
40
1
40
1
41
1
10
12.2622596475813
20
4.6934589027029
30
0
41
1
10
12.2490963258873
20
4.68575962957479
30
0
41
1
10
12.2361664454084
20
4.67763098609214
30
0
41
1
10
12.2125962299712
20
4.66171751954198
30
0
41
1
10
12.2018570587142
20
4.65401667829303
30
0
41
1
10
12.1809686100501
20
4.63810770747313
30
0
41
1
10
12.1505212360857
20
4.61349522649576
30
0
41
1
10
12.1041193722757
20
4.56879930129872
30
0
41
1
10
12.0715895299843
20
4.52915770593643
30
0
41
1
10
12.0414062958865
20
4.487530716321
30
0
41
1
10
12.0274527776275
20
4.46562393656546
30
0
41
1
10
11.9901900085822
20
4.39857995197511
30
0
41
1
10
11.9710359232673
20
4.35167047732963
30
0
41
1
10
11.9539429236291
20
4.29036799765666
30
0
41
1
10
11.9508633906812
20
4.27794024761192
30
0
41
1
10
11.9454370530432
20
4.25297656799921
30
0
41
1
10
11.9384093555995
20
4.21545334151693
30
0
41
1
10
11.9320505861157
20
4.15254042233559
30
0
41
1
10
11.932418586058
20
4.1018288225543
30
0
41
1
10
11.9354704128455
20
4.0509296435217
30
0
41
1
10
11.9383509010558
20
4.02536159258679
30
0
41
1
10
11.9425214553735
20
4.00000000000014
30
0
0
SPLINE
5
113
100
AcDbEntity
8
1
62
256
6
ByLayer
370
18
48
1
60
0
100
AcDbSpline
70
4
71
3
72
8
73
4
40
0
40
0
40
0
40
0
40
1
40
1
40
1
40
1
41
1
10
10.7999999999999
20
0.464531144314634
30
0
41
1
10
10.7999999999999
20
0.338527331696326
30
0
41
1
10
10.7999999999999
20
0.210707073700007
30
0
41
1
10
10.7999999999999
20
0.0808831443146403
30
0
0
SPLINE
5
114
100
AcDbEntity
8
1
62
256
6
ByLayer
370
18
48
1
60
0
100
AcDbSpline
70
4
71
3
72
10
73
6
40
0
40
0
40
0
40
0
40
0.358203697195979
40
0.358203697195979
40
1
40
1
40
1
40
1
41
1
10
10.7999999999999
20
-1.2159851443235
30
0
41
1
10
10.7999999999999
20
-1.26432081229936
30
0
41
1
10
10.7999999999999
20
-1.31254889726716
30
0
41
1
10
10.7999999999999
20
-1.44681283748432
30
0
41
1
10
10.7999999999999
20
-1.53138597549679
30
0
41
1
10
10.7999999999999
20
-1.61453114431464
30
0
0
SPLINE
5
115
100
AcDbEntity
8
1
62
256
6
ByLayer
370
18
48
1
60
0
100
AcDbSpline
70
4
71
3
72
8
73
4
40
0
40
0
40
0
40
0
40
1
40
1
40
1
40
1
41
1
10
18.0605205146147
20
5.1247513989023
30
0
41
1
10
18.0225918408069
20
5.016176910854
30
0
41
1
10
17.9841083416914
20
4.90787738728
30
0
41
1
10
17.9447730529042
20
4.80000000000015
30
0
0
SPLINE
5
116
100
AcDbEntity
8
1
62
256
6
ByLayer
370
18
48
1
60
0
100
AcDbSpline
70
4
71
3
72
18
73
14
40
0
40
0
40
0
40
0
40
0.24999999999999
40
0.24999999999999
40
0.374999999999996
40
0.374999999999996
40
0.500000000000002
40
0.500000000000002
40
0.749999999999998
40
0.749999999999998
40
0.874999999999999
40
0.874999999999999
40
1
40
1
40
1
40
1
41
1
10
18.0605205146147
20
5.47524860109777
30
0
41
1
10
18.0702800702556
20
5.44731093149539
30
0
41
1
10
18.0776177268466
20
5.41872215116305
30
0
41
1
10
18.0850507573537
20
5.37487828228638
30
0
41
1
10
18.0869293462573
20
5.36010259869997
30
0
41
1
10
18.0894537743189
20
5.33021981532437
30
0
41
1
10
18.0900930913048
20
5.31506464953696
30
0
41
1
10
18.0900989817372
20
5.27008160798781
30
0
41
1
10
18.0876110764168
20
5.24043074647258
30
0
41
1
10
18.0802073141044
20
5.19645227659356
30
0
41
1
10
18.0771161922748
20
5.18184791110878
30
0
41
1
10
18.0696994825269
20
5.15293513011093
30
0
41
1
10
18.065401188459
20
5.13872279865717
30
0
41
1
10
18.060520514615
20
5.12475139890216
30
0
0
SPLINE
5
117
100
AcDbEntity
8
1
62
256
6
ByLayer
370
18
48
1
60
0
100
AcDbSpline
70
4
71
3
72
8
73
4
40
0
40
0
40
0
40
0
40
1
40
1
40
1
40
1
41
1
10
17.9447730529041
20
5.8000000000001
30
0
41
1
10
17.9841083416913
20
5.69212261272017
30
0
41
1
10
18.0225918408069
20
5.58382308914614
30
0
41
1
10
18.0605205146147
20
5.47524860109777
30
0
0
SPLINE
5
118
100
AcDbEntity
8
1
62
256
6
ByLayer
370
18
48
1
60
0
100
AcDbSpline
70
4
71
3
72
40
73
36
40
0
40
0
40
0
40
0
40
0.0624999999999986
40
0.0624999999999986
40
0.0937499999999978
40
0.0937499999999978
40
0.124999999999997
40
0.124999999999997
40
0.187499999999996
40
0.187499999999996
40
0.249999999999994
40
0.249999999999994
40
0.312499999999993
40
0.312499999999993
40
0.374999999999992
40
0.374999999999992
40
0.43749999999999
40
0.43749999999999
40
0.499999999999989
40
0.499999999999989
40
0.624999999999986
40
0.624999999999986
40
0.687499999999988
40
0.687499999999988
40
0.749999999999991
40
0.749999999999991
40
0.812499999999994
40
0.812499999999994
40
0.874999999999997
40
0.874999999999997
40
0.906249999999998
40
0.906249999999998
40
0.937499999999998
40
0.937499999999998
40
1
40
1
40
1
40
1
41
1
10
9.4822436078023
20
-0.19723604827621
30
0
41
1
10
9.46606029984889
20
-0.205524825650571
30
0
41
1
10
9.45157633089792
20
-0.216089690123596
30
0
41
1
10
9.43156173009751
20
-0.23424204464709
30
0
41
1
10
9.42518916604314
20
-0.240690740733015
30
0
41
1
10
9.41313039127726
20
-0.254088880526694
30
0
41
1
10
9.40741751652575
20
-0.26106230298268
30
0
41
1
10
9.39110712057663
20
-0.28270415501251
30
0
41
1
10
9.38144268578623
20
-0.297934687135779
30
0
41
1
10
9.36408957654459
20
-0.329599259763199
30
0
41
1
10
9.35643379770147
20
-0.345995572335994
30
0
41
1
10
9.34298652319541
20
-0.379485545084321
30
0
41
1
10
9.33716277998963
20
-0.396673238351241
30
0
41
1
10
9.32727563834777
20
-0.431459492959135
30
0
41
1
10
9.32320244643608
20
-0.449071006351261
30
0
41
1
10
9.31669058272485
20
-0.484708223985081
30
0
41
1
10
9.31425987780145
20
-0.502724538958205
30
0
41
1
10
9.31103329876103
20
-0.53879915208222
30
0
41
1
10
9.31022844120747
20
-0.556903461754786
30
0
41
1
10
9.31023500427392
20
-0.611413852963238
30
0
41
1
10
9.31342677590004
20
-0.647426847907752
30
0
41
1
10
9.32320387856475
20
-0.700938441712424
30
0
41
1
10
9.32728974424765
20
-0.718594791264593
30
0
41
1
10
9.3371696454646
20
-0.753346251808125
30
0
41
1
10
9.34298365779844
20
-0.770510536353385
30
0
41
1
10
9.35646083076134
20
-0.804068529180569
30
0
41
1
10
9.36412686574539
20
-0.820476080717583
30
0
41
1
10
9.38148348708762
20
-0.85213243280279
30
0
41
1
10
9.39119087518924
20
-0.867416408859015
30
0
41
1
10
9.40747070619705
20
-0.889003515615656
30
0
41
1
10
9.41317784265249
20
-0.895967233997055
30
0
41
1
10
9.4252396525211
20
-0.909361932866631
30
0
41
1
10
9.43161619168632
20
-0.915810015089789
30
0
41
1
10
9.45158807150563
20
-0.933915602869803
30
0
41
1
10
9.46605238076145
20
-0.944471118346002
30
0
41
1
10
9.4822436078023
20
-0.952763951723824
30
0
0
SPLINE
5
119
100
AcDbEntity
8
1
62
256
6
ByLayer
370
18
48
1
60
0
100
AcDbSpline
70
4
71
3
72
8
73
4
40
0
40
0
40
0
40
0
40
1
40
1
40
1
40
1
41
1
10
9.4822436078023
20
-0.952763951723824
30
0
41
1
10
9.48899991689026
20
-0.95622440258245
30
0
41
1
10
9.49575627765438
20
-0.959684394301462
30
0
41
1
10
9.50251268699469
20
-0.963143944108424
30
0
0
SPLINE
5
11A
100
AcDbEntity
8
1
62
256
6
ByLayer
370
18
48
1
60
0
100
AcDbSpline
70
4
71
3
72
8
73
4
40
0
40
0
40
0
40
0
40
1
40
1
40
1
40
1
41
1
10
9.50251268699469
20
-0.186856055891639
30
0
41
1
10
9.49575627765438
20
-0.190315605698572
30
0
41
1
10
9.48899991689026
20
-0.193775597417584
30
0
41
1
10
9.4822436078023
20
-0.19723604827621
30
0
0
SPLINE
5
11B
100
AcDbEntity
8
1
62
256
6
ByLayer
370
18
48
1
60
0
100
AcDbSpline
70
4
71
3
72
31
73
27
40
0
40
0
40
0
40
0
40
0.249999999999991
40
0.249999999999991
40
0.374999999999986
40
0.374999999999986
40
0.499999999999981
40
0.499999999999981
40
0.562499999999982
40
0.562499999999982
40
0.624999999999984
40
0.624999999999984
40
0.687499999999985
40
0.687499999999985
40
0.749999999999986
40
0.749999999999986
40
0.781250000000004
40
0.781250000000004
40
0.812500000000022
40
0.84375000000004
40
0.84375000000004
40
0.875000000000058
40
0.875000000000058
40
0.937500000000029
40
0.937500000000029
40
1
40
1
40
1
40
1
41
1
10
9.55533388601287
20
-1.41320000000002
30
0
41
1
10
9.57503610546223
20
-1.37490034204944
30
0
41
1
10
9.59157983927753
20
-1.33464411795344
30
0
41
1
10
9.61028233177069
20
-1.27233075207184
30
0
41
1
10
9.61549530828935
20
-1.25120206392472
30
0
41
1
10
9.62335756111759
20
-1.20843616080319
30
0
41
1
10
9.62601926459939
20
-1.1867757503575
30
0
41
1
10
9.62741960835837
20
-1.1541117884511
30
0
41
1
10
9.62745009734388
20
-1.14317388340885
30
0
41
1
10
9.62645973944586
20
-1.12137788938583
30
0
41
1
10
9.62543363866268
20
-1.11045109862423
30
0
41
1
10
9.6221118281149
20
-1.08891795477115
30
0
41
1
10
9.619827134074
20
-1.0783365668585
30
0
41
1
10
9.6137250883813
20
-1.05763544377081
30
0
41
1
10
9.60991294021781
20
-1.0475140775147
30
0
41
1
10
9.60267965890878
20
-1.03279430977599
30
0
41
1
10
9.59999278091539
20
-1.02793388542162
30
0
41
1
10
9.59413159955449
20
-1.01858705925258
30
0
41
1
10
9.58779457833845
20
-1.00961609646427
30
0
41
1
10
9.58042628631864
20
-1.00146177673631
30
0
41
1
10
9.57248841703557
20
-0.99375947327016
30
0
41
1
10
9.56822567209409
20
-0.990136945927333
30
0
41
1
10
9.55493746752916
20
-0.980320854878556
30
0
41
1
10
9.54529666122039
20
-0.975047389768832
30
0
41
1
10
9.5244447920592
20
-0.967056466867206
30
0
41
1
10
9.51362185014347
20
-0.964487331936425
30
0
41
1
10
9.50251268699469
20
-0.963143944108424
30
0
0
SPLINE
5
11C
100
AcDbEntity
8
1
62
256
6
ByLayer
370
18
48
1
60
0
100
AcDbSpline
70
4
71
3
72
32
73
28
40
0
40
0
40
0
40
0
40
0.125000000000018
40
0.125000000000018
40
0.250000000000036
40
0.250000000000036
40
0.375000000000055
40
0.375000000000055
40
0.500000000000073
40
0.500000000000073
40
0.562500000000082
40
0.562500000000082
40
0.625000000000091
40
0.625000000000091
40
0.6875000000001
40
0.6875000000001
40
0.750000000000109
40
0.750000000000109
40
0.812500000000118
40
0.812500000000118
40
0.843750000000099
40
0.843750000000099
40
0.875000000000079
40
0.875000000000079
40
0.937500000000039
40
0.937500000000039
40
1
40
1
40
1
40
1
41
1
10
9.55533388601287
20
0.263199999999983
30
0
41
1
10
9.56519181342219
20
0.244036917949728
30
0
41
1
10
9.57421490188821
20
0.224446034270755
30
0
41
1
10
9.59052354873393
20
0.184378323403308
30
0
41
1
10
9.59780065660752
20
0.163915171716951
30
0
41
1
10
9.61028438472539
20
0.122326203464496
30
0
41
1
10
9.6154966640288
20
0.101202222441117
30
0
41
1
10
9.62336838317111
20
0.0583697507933323
30
0
41
1
10
9.62602629287653
20
0.036730266367158
30
0
41
1
10
9.62742214770094
20
0.0039929438816273
30
0
41
1
10
9.62744873442219
20
-0.0069105581170277
30
0
41
1
10
9.62645410222643
20
-0.0286913441165098
30
0
41
1
10
9.62542804643678
20
-0.039609967045493
30
0
41
1
10
9.6220883865918
20
-0.061208969633185
30
0
41
1
10
9.61978833231223
20
-0.0718394559487194
30
0
41
1
10
9.6136207053392
20
-0.0926732419446807
30
0
41
1
10
9.60974309833978
20
-0.102910296276235
30
0
41
1
10
9.59995429124265
20
-0.122669080150274
30
0
41
1
10
9.59415599458293
20
-0.131968581138551
30
0
41
1
10
9.58378408810762
20
-0.144837092752795
30
0
41
1
10
9.58003158997349
20
-0.148951692721141
30
0
41
1
10
9.57211933172715
20
-0.156565075120056
30
0
41
1
10
9.56793897943373
20
-0.160092919782869
30
0
41
1
10
9.55470478143531
20
-0.169813158656098
30
0
41
1
10
9.54479358472173
20
-0.175178631183542
30
0
41
1
10
9.52426976375895
20
-0.182976260542972
30
0
41
1
10
9.51358055408576
20
-0.185517661835007
30
0
41
1
10
9.50251268699469
20
-0.18685605589161
30
0
0
SPLINE
5
11D
100
AcDbEntity
8
1
62
256
6
ByLayer
370
18
48
1
60
0
100
AcDbSpline
70
4
71
3
72
42
73
38
40
0
40
0
40
0
40
0
40
0.0625000000000306
40
0.0625000000000306
40
0.0937500000000434
40
0.0937500000000434
40
0.125000000000056
40
0.125000000000056
40
0.187500000000069
40
0.187500000000069
40
0.250000000000081
40
0.250000000000081
40
0.312500000000093
40
0.312500000000093
40
0.375000000000106
40
0.375000000000106
40
0.437500000000118
40
0.437500000000118
40
0.500000000000131
40
0.500000000000131
40
0.562500000000143
40
0.562500000000143
40
0.625000000000155
40
0.625000000000155
40
0.750000000000179
40
0.750000000000179
40
0.781250000000162
40
0.781250000000162
40
0.812500000000144
40
0.812500000000144
40
0.875000000000064
40
0.875000000000064
40
0.906250000000048
40
0.906250000000048
40
0.937500000000032
40
0.937500000000032
40
1
40
1
40
1
40
1
41
1
10
8.55443184942123
20
-2.00083350996675
30
0
41
1
10
8.55072438193525
20
-1.98484653166744
30
0
41
1
10
8.54975897048149
20
-1.96911978356508
30
0
41
1
10
8.55109616078937
20
-1.94575658685508
30
0
41
1
10
8.55202483669774
20
-1.93801119303438
30
0
41
1
10
8.55468382328309
20
-1.92279980101608
30
0
41
1
10
8.55641577295711
20
-1.91530277394955
30
0
41
1
10
8.5626725536668
20
-1.89308458059116
30
0
41
1
10
8.56820233840801
20
-1.87878975753446
30
0
41
1
10
8.58142562053393
20
-1.85104530971182
30
0
41
1
10
8.58911002480014
20
-1.83763979616029
30
0
41
1
10
8.60620732165273
20
-1.81179651464544
30
0
41
1
10
8.61567145487081
20
-1.7992907569076
30
0
41
1
10
8.63605756219567
20
-1.77528317408905
30
0
41
1
10
8.64698380303264
20
-1.76376743862562
30
0
41
1
10
8.67022961602706
20
-1.74162564270131
30
0
41
1
10
8.68254580756721
20
-1.73101083809402
30
0
41
1
10
8.70829225056445
20
-1.71084148687015
30
0
41
1
10
8.72175361623016
20
-1.70125712436229
30
0
41
1
10
8.74984251610863
20
-1.68308974058996
30
0
41
1
10
8.76437306965119
20
-1.67456920227616
30
0
41
1
10
8.79440707079354
20
-1.65866341868357
30
0
41
1
10
8.80996925040728
20
-1.65125551369653
30
0
41
1
10
8.8575844031426
20
-1.6310882593209
30
0
41
1
10
8.89059957384725
20
-1.62026753279207
30
0
41
1
10
8.9336670845351
20
-1.61072458160191
30
0
41
1
10
8.94237242643126
20
-1.60902004560032
30
0
41
1
10
8.95998205327572
20
-1.60606239684037
30
0
41
1
10
8.96890498666693
20
-1.60480853403956
30
0
41
1
10
8.99565322316087
20
-1.60184652308592
30
0
41
1
10
9.01355394690358
20
-1.60090417376119
30
0
41
1
10
9.04052109599732
20
-1.60143420474327
30
0
41
1
10
9.04952962954297
20
-1.60193749257777
30
0
41
1
10
9.0675907131091
20
-1.60371877639491
30
0
41
1
10
9.07668221770592
20
-1.60500675723645
30
0
41
1
10
9.10346687109887
20
-1.61018702842657
30
0
41
1
10
9.12082346140409
20
-1.61533916442622
30
0
41
1
10
9.13742308290855
20
-1.62306955824292
30
0
0
SPLINE
5
11E
100
AcDbEntity
8
1
62
256
6
ByLayer
370
18
48
1
60
0
100
AcDbSpline
70
4
71
3
72
8
73
4
40
0
40
0
40
0
40
0
40
1
40
1
40
1
40
1
41
1
10
8.55907276614795
20
-2.02083350996674
30
0
41
1
10
8.55752507030553
20
-2.01416770583359
30
0
41
1
10
8.55597808838397
20
-2.00750105023153
30
0
41
1
10
8.55443184942123
20
-2.00083350996675
30
0
0
SPLINE
5
11F
100
AcDbEntity
8
1
62
256
6
ByLayer
370
18
48
1
60
0
100
AcDbSpline
70
4
71
3
72
32
73
28
40
0
40
0
40
0
40
0
40
0.125000000000051
40
0.125000000000051
40
0.250000000000101
40
0.250000000000101
40
0.375000000000152
40
0.375000000000152
40
0.500000000000203
40
0.500000000000203
40
0.562500000000197
40
0.562500000000197
40
0.62500000000019
40
0.62500000000019
40
0.687500000000184
40
0.687500000000184
40
0.750000000000178
40
0.750000000000178
40
0.812500000000172
40
0.812500000000172
40
0.843750000000168
40
0.843750000000168
40
0.875000000000165
40
0.875000000000165
40
0.937500000000082
40
0.937500000000082
40
1
40
1
40
1
40
1
41
1
10
9.55533388601287
20
-1.41320000000002
30
0
41
1
10
9.5454759586035
20
-1.43236308205027
30
0
41
1
10
9.53480911529516
20
-1.45104796999019
30
0
41
1
10
9.5117917371667
20
-1.48742714415192
30
0
41
1
10
9.49944752646454
20
-1.50510638509925
30
0
41
1
10
9.47305646325347
20
-1.53908713703115
30
0
41
1
10
9.45901448273622
20
-1.55539201355947
30
0
41
1
10
9.42899650796221
20
-1.58621430555794
30
0
41
1
10
9.41307570062165
20
-1.60069047347497
30
0
41
1
10
9.38745893837651
20
-1.62046368142859
30
0
41
1
10
9.37867125856482
20
-1.62669446189807
30
0
41
1
10
9.36049986642706
20
-1.63830402728354
30
0
41
1
10
9.35107996357067
20
-1.64370242246372
30
0
41
1
10
9.33166696031606
20
-1.65334881110186
30
0
41
1
10
9.3217221906865
20
-1.65757908622427
30
0
41
1
10
9.30123691419533
20
-1.66457775233408
30
0
41
1
10
9.29066326648018
20
-1.66735730609045
30
0
41
1
10
9.26886264119207
20
-1.6709486087008
30
0
41
1
10
9.25788249681941
20
-1.67172223655316
30
0
41
1
10
9.24126144812624
20
-1.67100159538796
30
0
41
1
10
9.23568195947996
20
-1.67043852989897
30
0
41
1
10
9.22476810411177
20
-1.6686600303855
30
0
41
1
10
9.21939792149183
20
-1.66744512790893
30
0
41
1
10
9.20355508256128
20
-1.66279589414111
30
0
41
1
10
9.19322072174162
20
-1.65825302134979
30
0
41
1
10
9.1744649752174
20
-1.64701838600226
30
0
41
1
10
9.16590960873975
20
-1.64032895130094
30
0
41
1
10
9.15808311563683
20
-1.63268956585836
30
0
0
SPLINE
5
120
100
AcDbEntity
8
1
62
256
6
ByLayer
370
18
48
1
60
0
100
AcDbSpline
70
4
71
3
72
8
73
4
40
0
40
0
40
0
40
0
40
1
40
1
40
1
40
1
41
1
10
9.15808311563683
20
-1.63268956585836
30
0
41
1
10
9.15119640531177
20
-1.62948331153214
30
0
41
1
10
9.14430972691861
20
-1.62627664764909
30
0
41
1
10
9.13742308290855
20
-1.62306955824292
30
0
0
SPLINE
5
121
100
AcDbEntity
8
1
62
256
6
ByLayer
370
18
48
1
60
0
100
AcDbSpline
70
4
71
3
72
40
73
36
40
0
40
0
40
0
40
0
40
0.0625000000000047
40
0.0625000000000047
40
0.0937500000000072
40
0.0937500000000072
40
0.12500000000001
40
0.12500000000001
40
0.187500000000015
40
0.187500000000015
40
0.250000000000021
40
0.250000000000021
40
0.312500000000027
40
0.312500000000027
40
0.375000000000033
40
0.375000000000033
40
0.437500000000039
40
0.437500000000039
40
0.500000000000045
40
0.500000000000045
40
0.625000000000055
40
0.625000000000055
40
0.687500000000038
40
0.687500000000038
40
0.750000000000021
40
0.750000000000021
40
0.812500000000004
40
0.812500000000004
40
0.874999999999987
40
0.874999999999987
40
0.906249999999978
40
0.906249999999978
40
0.93749999999997
40
0.93749999999997
40
1
40
1
40
1
40
1
41
1
10
8.55443184942123
20
0.850833509966719
30
0
41
1
10
8.55072816136052
20
0.834862828934831
30
0
41
1
10
8.54976108154506
20
0.819151860282659
30
0
41
1
10
8.55109102483254
20
0.79581199918141
30
0
41
1
10
8.55201647747515
20
0.7880738903782
30
0
41
1
10
8.55466780985472
20
0.77287666945449
30
0
41
1
10
8.55639530032079
20
0.765386572021612
30
0
41
1
10
8.56263701352503
20
0.743188791219296
30
0
41
1
10
8.5681551954477
20
0.728905438960112
30
0
41
1
10
8.5813515060641
20
0.701184198016705
30
0
41
1
10
8.58902147213601
20
0.687788395564468
30
0
41
1
10
8.60608681361867
20
0.661964098742885
30
0
41
1
10
8.61553354680703
20
0.649467114903246
30
0
41
1
10
8.63588385848044
20
0.62547399583454
30
0
41
1
10
8.64679101434308
20
0.613964820706599
30
0
41
1
10
8.66999601610991
20
0.591834648930387
30
0
41
1
10
8.6822918250208
20
0.581223709796092
30
0
41
1
10
8.70799524368312
20
0.561060546289156
30
0
41
1
10
8.72143241154157
20
0.551479411527026
30
0
41
1
10
8.7634988405637
20
0.524228532961217
30
0
41
1
10
8.79340314131841
20
0.508314346237057
30
0
41
1
10
8.8411415082968
20
0.488032048834583
30
0
41
1
10
8.85745657277903
20
0.481915740071543
30
0
41
1
10
8.89075916866051
20
0.471135213914835
30
0
41
1
10
8.90781325114364
20
0.466449633110472
30
0
41
1
10
8.94250389614336
20
0.4587702046895
30
0
41
1
10
8.96015311216496
20
0.455771190383501
30
0
41
1
10
8.9958195230721
20
0.45183466526592
30
0
41
1
10
9.01387488568093
20
0.450890796077204
30
0
41
1
10
9.04097029802057
20
0.4514532123614
30
0
41
1
10
9.04999346625493
20
0.451970810130973
30
0
41
1
10
9.06801821462989
20
0.453773997406728
30
0
41
1
10
9.07704679061868
20
0.455066716119973
30
0
41
1
10
9.10366748841659
20
0.460247493321702
30
0
41
1
10
9.12091951339079
20
0.465383895547546
30
0
41
1
10
9.13742308290855
20
0.473069558242884
30
0
0
SPLINE
5
122
100
AcDbEntity
8
1
62
256
6
ByLayer
370
18
48
1
60
0
100
AcDbSpline
70
4
71
3
72
8
73
4
40
0
40
0
40
0
40
0
40
1
40
1
40
1
40
1
41
1
10
9.13742308290855
20
0.473069558242884
30
0
41
1
10
9.14430972691864
20
0.476276647649058
30
0
41
1
10
9.15119640531179
20
0.479483311532135
30
0
41
1
10
9.15808311563686
20
0.482689565858323
30
0
0
SPLINE
5
123
100
AcDbEntity
8
1
62
256
6
ByLayer
370
18
48
1
60
0
100
AcDbSpline
70
4
71
3
72
31
73
27
40
0
40
0
40
0
40
0
40
0.250000000000099
40
0.250000000000099
40
0.375000000000127
40
0.375000000000127
40
0.500000000000155
40
0.500000000000155
40
0.562500000000136
40
0.562500000000136
40
0.625000000000117
40
0.625000000000117
40
0.687500000000099
40
0.687500000000099
40
0.75000000000008
40
0.75000000000008
40
0.78125000000007
40
0.78125000000007
40
0.812500000000061
40
0.843750000000051
40
0.843750000000051
40
0.875000000000041
40
0.875000000000041
40
0.937500000000021
40
0.937500000000021
40
1
40
1
40
1
40
1
41
1
10
9.55533388601287
20
0.263199999999983
30
0
41
1
10
9.53563166656352
20
0.301499657950586
30
0
41
1
10
9.51260224665674
20
0.338170718898596
30
0
41
1
10
9.47305896094937
20
0.38908283951011
30
0
41
1
10
9.45901357751501
20
0.405390979268873
30
0
41
1
10
9.42904384251443
20
0.43616766342592
30
0
41
1
10
9.4131083212859
20
0.450658882854555
30
0
41
1
10
9.38755340906195
20
0.470393945675795
30
0
41
1
10
9.37874023798082
20
0.476647461958066
30
0
41
1
10
9.36055908552478
20
0.488269101576037
30
0
41
1
10
9.35113255961065
20
0.493672116193949
30
0
41
1
10
9.33178330828363
20
0.503295132246876
30
0
41
1
10
9.3218872875392
20
0.507509600712069
30
0
41
1
10
9.30154823280566
20
0.514484170604305
30
0
41
1
10
9.29110708511422
20
0.517249089323656
30
0
41
1
10
9.27490191962829
20
0.519970001099836
30
0
41
1
10
9.26937070432172
20
0.520638758189818
30
0
41
1
10
9.25831322532497
20
0.521393150443117
30
0
41
1
10
9.24726917824859
20
0.521572297919249
30
0
41
1
10
9.23625335865904
20
0.520508502111454
30
0
41
1
10
9.22525270701641
20
0.518760021109273
30
0
41
1
10
9.21975655635708
20
0.51753514329161
30
0
41
1
10
9.20380413343548
20
0.512898095752519
30
0
41
1
10
9.19370830886484
20
0.508509152502683
30
0
41
1
10
9.1745979664191
20
0.497132830423823
30
0
41
1
10
9.16593881069068
20
0.490357455121909
30
0
41
1
10
9.15808311563686
20
0.482689565858323
30
0
0
SPLINE
5
124
100
AcDbEntity
8
1
62
256
6
ByLayer
370
18
48
1
60
0
100
AcDbSpline
70
4
71
3
72
8
73
4
40
0
40
0
40
0
40
0
40
1
40
1
40
1
40
1
41
1
10
8.55907276614795
20
0.870833509966701
30
0
41
1
10
8.55752507030553
20
0.864167705833552
30
0
41
1
10
8.55597808838397
20
0.857501050231491
30
0
41
1
10
8.55443184942123
20
0.850833509966719
30
0
0
SPLINE
5
125
100
AcDbEntity
8
1
62
256
6
ByLayer
370
18
48
1
60
0
100
AcDbSpline
70
4
71
3
72
32
73
28
40
0
40
0
40
0
40
0
40
0.125000000000019
40
0.125000000000019
40
0.250000000000038
40
0.250000000000038
40
0.375000000000058
40
0.375000000000058
40
0.500000000000077
40
0.500000000000077
40
0.56250000000006
40
0.56250000000006
40
0.625000000000044
40
0.625000000000044
40
0.687500000000027
40
0.687500000000027
40
0.750000000000011
40
0.750000000000011
40
0.812499999999994
40
0.812499999999994
40
0.843749999999994
40
0.843749999999994
40
0.874999999999993
40
0.874999999999993
40
0.937499999999996
40
0.937499999999996
40
1
40
1
40
1
40
1
41
1
10
8.26176617083198
20
-2.25140000000002
30
0
41
1
10
8.28148202565069
20
-2.25140000000002
30
0
41
1
10
8.30104917737816
20
-2.25049400426093
30
0
41
1
10
8.3398670380941
20
-2.24680546755525
30
0
41
1
10
8.35910296622791
20
-2.24402155681619
30
0
41
1
10
8.39689485056996
20
-2.23641334049563
30
0
41
1
10
8.4154528460345
20
-2.2315942360006
30
0
41
1
10
8.45153687852007
20
-2.21958405635127
30
0
41
1
10
8.46901160736039
20
-2.21242073984215
30
0
41
1
10
8.49391732596558
20
-2.19945662531023
30
0
41
1
10
8.5019566780889
20
-2.19478390378103
30
0
41
1
10
8.51739888840899
20
-2.18461268316705
30
0
41
1
10
8.52482935314404
20
-2.17909245541824
30
0
41
1
10
8.53874941172137
20
-2.16713984146867
30
0
41
1
10
8.54521033750393
20
-2.16073963027557
30
0
41
1
10
8.55687718812962
20
-2.14690451038939
30
0
41
1
10
8.56210206461139
20
-2.13944700981421
30
0
41
1
10
8.57079454945301
20
-2.12327952855051
30
0
41
1
10
8.57416603267001
20
-2.11475365541463
30
0
41
1
10
8.57740455349091
20
-2.10116450263516
30
0
41
1
10
8.57817499765292
20
-2.09648683717782
30
0
41
1
10
8.57901063605061
20
-2.08709495526546
30
0
41
1
10
8.57908486521774
20
-2.08235220812611
30
0
41
1
10
8.57824296543097
20
-2.06798273548503
30
0
41
1
10
8.57618896972485
20
-2.05807439016627
30
0
41
1
10
8.56946705950975
20
-2.0390421254593
30
0
41
1
10
8.56483375776929
20
-2.02981128946595
30
0
41
1
10
8.55907276614795
20
-2.02083350996674
30
0
0
SPLINE
5
126
100
AcDbEntity
8
1
62
256
6
ByLayer
370
18
48
1
60
0
100
AcDbSpline
70
4
71
3
72
32
73
28
40
0
40
0
40
0
40
0
40
0.12499999999997
40
0.12499999999997
40
0.249999999999939
40
0.249999999999939
40
0.374999999999909
40
0.374999999999909
40
0.499999999999879
40
0.499999999999879
40
0.562499999999891
40
0.562499999999891
40
0.624999999999902
40
0.624999999999902
40
0.687499999999914
40
0.687499999999914
40
0.749999999999925
40
0.749999999999925
40
0.812499999999937
40
0.812499999999937
40
0.84374999999995
40
0.84374999999995
40
0.874999999999963
40
0.874999999999963
40
0.937499999999982
40
0.937499999999982
40
1
40
1
40
1
40
1
41
1
10
8.261766170832
20
1.10139999999998
30
0
41
1
10
8.28148202565075
20
1.10139999999998
30
0
41
1
10
8.30104917737816
20
1.10049400426092
30
0
41
1
10
8.33986703809407
20
1.09680546755521
30
0
41
1
10
8.35910296622785
20
1.09402155681616
30
0
41
1
10
8.39689485056994
20
1.0864133404956
30
0
41
1
10
8.41545284603447
20
1.08159423600057
30
0
41
1
10
8.45153687852005
20
1.06958405635123
30
0
41
1
10
8.46901160736041
20
1.06242073984211
30
0
41
1
10
8.49391732596564
20
1.0494566253102
30
0
41
1
10
8.50195667808885
20
1.04478390378102
30
0
41
1
10
8.51739888840896
20
1.03461268316701
30
0
41
1
10
8.52482935314404
20
1.02909245541821
30
0
41
1
10
8.53874941172137
20
1.01713984146866
30
0
41
1
10
8.54521033750393
20
1.01073963027554
30
0
41
1
10
8.55687718812965
20
0.996904510389385
30
0
41
1
10
8.56210206461145
20
0.989447009814171
30
0
41
1
10
8.57079454945301
20
0.973279528550478
30
0
41
1
10
8.57416603267006
20
0.964753655414626
30
0
41
1
10
8.57740455349088
20
0.951164502635123
30
0
41
1
10
8.57817499765289
20
0.946486837177787
30
0
41
1
10
8.57901063605061
20
0.937094955265422
30
0
41
1
10
8.57908486521779
20
0.932352208126076
30
0
41
1
10
8.578242965431
20
0.917982735485026
30
0
41
1
10
8.57618896972491
20
0.908074390166234
30
0
41
1
10
8.56946705950975
20
0.88904212545927
30
0
41
1
10
8.56483375776935
20
0.87981128946592
30
0
41
1
10
8.55907276614795
20
0.870833509966701
30
0
0
SPLINE
5
127
100
AcDbEntity
8
1
62
256
6
ByLayer
370
18
48
1
60
0
100
AcDbSpline
70
4
71
3
72
40
73
36
40
0
40
0
40
0
40
0
40
0.0624999999999843
40
0.0624999999999843
40
0.0937499999999907
40
0.0937499999999907
40
0.124999999999997
40
0.124999999999997
40
0.187499999999987
40
0.187499999999987
40
0.249999999999977
40
0.249999999999977
40
0.312499999999968
40
0.312499999999968
40
0.374999999999958
40
0.374999999999958
40
0.437499999999948
40
0.437499999999948
40
0.499999999999938
40
0.499999999999938
40
0.624999999999956
40
0.624999999999956
40
0.687499999999964
40
0.687499999999964
40
0.749999999999973
40
0.749999999999973
40
0.812499999999981
40
0.812499999999981
40
0.87499999999999
40
0.87499999999999
40
0.906249999999993
40
0.906249999999993
40
0.937499999999996
40
0.937499999999996
40
1
40
1
40
1
40
1
41
1
10
7.28179956614639
20
0.473069558242884
30
0
41
1
10
7.2902633082673
20
0.465387654585385
30
0
41
1
10
7.30002558343784
20
0.460241550406209
30
0
41
1
10
7.31603065669782
20
0.455054043828483
30
0
41
1
10
7.32160007274888
20
0.45376463111117
30
0
41
1
10
7.33299469138242
20
0.451965549981168
30
0
41
1
10
7.33884104858353
20
0.451448875004274
30
0
41
1
10
7.35678779006531
20
0.450892946231761
30
0
41
1
10
7.36916640388745
20
0.451840126095874
30
0
41
1
10
7.39459461450878
20
0.455783457779887
30
0
41
1
10
7.40761215655704
20
0.458783967900445
30
0
41
1
10
7.43401870767212
20
0.46644964382719
30
0
41
1
10
7.44748116684298
20
0.471140353254469
30
0
41
1
10
7.47462185175067
20
0.481933488793658
30
0
41
1
10
7.48831040807789
20
0.488035827057843
30
0
41
1
10
7.51595134291239
20
0.501542872915422
30
0
41
1
10
7.52989616685076
20
0.50894824875428
30
0
41
1
10
7.55778676431765
20
0.524859698371358
30
0
41
1
10
7.57176817090522
20
0.533382873281823
30
0
41
1
10
7.61383015836083
20
0.560642385924439
30
0
41
1
10
7.64158179417183
20
0.580741194144792
30
0
41
1
10
7.68265992894047
20
0.61397049054699
30
0
41
1
10
7.69618490170046
20
0.625510531336118
30
0
41
1
10
7.72270205010062
20
0.649481465722971
30
0
41
1
10
7.73574717202095
20
0.661960169463867
30
0
41
1
10
7.7610757654997
20
0.68783873387008
30
0
41
1
10
7.77337008500245
20
0.701247271101067
30
0
41
1
10
7.79680182183279
20
0.728967098068722
30
0
41
1
10
7.80796585358735
20
0.743307204936201
30
0
41
1
10
7.82337772522061
20
0.765456727977039
30
0
41
1
10
7.82828606930647
20
0.772938044127983
30
0
41
1
10
7.83756507692704
20
0.788135930273342
30
0
41
1
10
7.84194660393257
20
0.795876731209745
30
0
41
1
10
7.85392315312953
20
0.819163096191488
30
0
41
1
10
7.86046061426845
20
0.834855013893531
30
0
41
1
10
7.86479079963371
20
0.850833509966719
30
0
0
SPLINE
5
128
100
AcDbEntity
8
1
62
256
6
ByLayer
370
18
48
1
60
0
100
AcDbSpline
70
4
71
3
72
8
73
4
40
0
40
0
40
0
40
0
40
1
40
1
40
1
40
1
41
1
10
7.86479079963371
20
0.850833509966719
30
0
41
1
10
7.86659770844068
20
0.857501050231491
30
0
41
1
10
7.86840532562027
20
0.864167705833552
30
0
41
1
10
7.87021362343228
20
0.870833509966701
30
0
0
SPLINE
5
129
100
AcDbEntity
8
1
62
256
6
ByLayer
370
18
48
1
60
0
100
AcDbSpline
70
4
71
3
72
31
73
27
40
0
40
0
40
0
40
0
40
0.249999999999932
40
0.249999999999932
40
0.374999999999896
40
0.374999999999896
40
0.49999999999986
40
0.49999999999986
40
0.562499999999841
40
0.562499999999841
40
0.624999999999823
40
0.624999999999823
40
0.687499999999804
40
0.687499999999804
40
0.749999999999785
40
0.749999999999785
40
0.781249999999805
40
0.781249999999805
40
0.812499999999824
40
0.843749999999843
40
0.843749999999843
40
0.874999999999863
40
0.874999999999863
40
0.937499999999931
40
0.937499999999931
40
1
40
1
40
1
40
1
41
1
10
8.261766170832
20
1.10139999999998
30
0
41
1
10
8.22236173193329
20
1.10139999999998
30
0
41
1
10
8.18231216996745
20
1.09781483685202
30
0
41
1
10
8.12244358690046
20
1.08641359158193
30
0
41
1
10
8.10248872389803
20
1.08159304319358
30
0
41
1
10
8.06285428738499
20
1.06960382422909
30
0
41
1
10
8.04315214738494
20
1.06243463321201
30
0
41
1
10
8.0140959889695
20
1.04950573412688
30
0
41
1
10
8.00447562282596
20
1.04482134536687
30
0
41
1
10
7.98554995377634
20
1.03464699096185
30
0
41
1
10
7.97618555035132
20
1.02912321481816
30
0
41
1
10
7.95801284158267
20
1.01721308701798
30
0
41
1
10
7.94922409082119
20
1.01084616757058
30
0
41
1
10
7.93235841062614
20
0.997119614375094
30
0
41
1
10
7.92427925030512
20
0.989763166838344
30
0
41
1
10
7.91284687137079
20
0.977764310875813
30
0
41
1
10
7.9091279215796
20
0.973572643611419
30
0
41
1
10
7.90210251036493
20
0.964980209695682
30
0
41
1
10
7.89548901647964
20
0.956188394383503
30
0
41
1
10
7.88976244709465
20
0.946970278847715
30
0
41
1
10
7.88452295358707
20
0.937519494379416
30
0
41
1
10
7.88215052408333
20
0.932672089218954
30
0
41
1
10
7.87601852924206
20
0.918218950631058
30
0
41
1
10
7.8731510411053
20
0.908556542271498
30
0
41
1
10
7.86985589224798
20
0.889189297291011
30
0
41
1
10
7.86948917408409
20
0.879844787058317
30
0
41
1
10
7.87021362343228
20
0.870833509966701
30
0
0
SPLINE
5
12A
100
AcDbEntity
8
1
62
256
6
ByLayer
370
18
48
1
60
0
100
AcDbSpline
70
4
71
3
72
8
73
4
40
0
40
0
40
0
40
0
40
1
40
1
40
1
40
1
41
1
10
7.2712032739434
20
0.482689565858323
30
0
41
1
10
7.27473399061404
20
0.479483311532135
30
0
41
1
10
7.27826606990604
20
0.476276647649058
30
0
41
1
10
7.28179956614639
20
0.473069558242884
30
0
0
SPLINE
5
12B
100
AcDbEntity
8
1
62
256
6
ByLayer
370
18
48
1
60
0
100
AcDbSpline
70
4
71
3
72
8
73
4
40
0
40
0
40
0
40
0
40
1
40
1
40
1
40
1
41
1
10
7.28179956614639
20
-1.62306955824292
30
0
41
1
10
7.27826606990604
20
-1.62627664764909
30
0
41
1
10
7.27473399061401
20
-1.62948331153217
30
0
41
1
10
7.27120327394337
20
-1.63268956585836
30
0
0
SPLINE
5
12C
100
AcDbEntity
8
1
62
256
6
ByLayer
370
18
48
1
60
0
100
AcDbSpline
70
4
71
3
72
31
73
27
40
0
40
0
40
0
40
0
40
0.24999999999988
40
0.24999999999988
40
0.374999999999854
40
0.374999999999854
40
0.499999999999827
40
0.499999999999827
40
0.562499999999814
40
0.562499999999814
40
0.624999999999801
40
0.624999999999801
40
0.687499999999788
40
0.687499999999788
40
0.749999999999774
40
0.749999999999774
40
0.781249999999796
40
0.781249999999796
40
0.812499999999817
40
0.843749999999838
40
0.843749999999838
40
0.874999999999859
40
0.874999999999859
40
0.937499999999929
40
0.937499999999929
40
1
40
1
40
1
40
1
41
1
10
8.26176617083198
20
-2.25140000000002
30
0
41
1
10
8.22236173193329
20
-2.25140000000002
30
0
41
1
10
8.18231216996742
20
-2.24781483685203
30
0
41
1
10
8.12244358690049
20
-2.23641359158197
30
0
41
1
10
8.10248872389801
20
-2.23159304319361
30
0
41
1
10
8.06285428738494
20
-2.21960382422913
30
0
41
1
10
8.04315214738492
20
-2.21243463321204
30
0
41
1
10
8.01409598896947
20
-2.19950573412689
30
0
41
1
10
8.00447562282596
20
-2.1948213453669
30
0
41
1
10
7.98554995377634
20
-2.18464699096188
30
0
41
1
10
7.97618555035132
20
-2.17912321481816
30
0
41
1
10
7.95801284158267
20
-2.16721308701801
30
0
41
1
10
7.94922409082113
20
-2.16084616757058
30
0
41
1
10
7.93235841062608
20
-2.1471196143751
30
0
41
1
10
7.92427925030509
20
-2.13976316683835
30
0
41
1
10
7.91284687137076
20
-2.12776431087582
30
0
41
1
10
7.90912792157957
20
-2.12357264361142
30
0
41
1
10
7.9021025103649
20
-2.11498020969569
30
0
41
1
10
7.89548901647959
20
-2.10618839438348
30
0
41
1
10
7.8897624470946
20
-2.09697027884772
30
0
41
1
10
7.88452295358701
20
-2.08751949437942
30
0
41
1
10
7.88215052408333
20
-2.08267208921893
30
0
41
1
10
7.87601852924203
20
-2.06821895063104
30
0
41
1
10
7.87315104110525
20
-2.0585565422715
30
0
41
1
10
7.86985589224795
20
-2.03918929729102
30
0
41
1
10
7.86948917408407
20
-2.02984478705832
30
0
41
1
10
7.87021362343228
20
-2.02083350996674
30
0
0
SPLINE
5
12D
100
AcDbEntity
8
1
62
256
6
ByLayer
370
18
48
1
60
0
100
AcDbSpline
70
4
71
3
72
8
73
4
40
0
40
0
40
0
40
0
40
1
40
1
40
1
40
1
41
1
10
7.86479079963371
20
-2.00083350996675
30
0
41
1
10
7.86659770844068
20
-2.00750105023153
30
0
41
1
10
7.8684053256203
20
-2.01416770583359
30
0
41
1
10
7.87021362343228
20
-2.02083350996674
30
0
0
SPLINE
5
12E
100
AcDbEntity
8
1
62
256
6
ByLayer
370
18
48
1
60
0
100
AcDbSpline
70
4
71
3
72
40
73
36
40
0
40
0
40
0
40
0
40
0.0312500000000037
40
0.0312500000000037
40
0.0625000000000075
40
0.0625000000000075
40
0.125000000000006
40
0.125000000000006
40
0.156250000000005
40
0.156250000000005
40
0.187500000000004
40
0.187500000000004
40
0.250000000000003
40
0.250000000000003
40
0.312500000000002
40
0.312500000000002
40
0.375
40
0.375
40
0.499999999999995
40
0.499999999999995
40
0.624999999999989
40
0.624999999999989
40
0.687499999999985
40
0.687499999999985
40
0.749999999999981
40
0.749999999999981
40
0.812499999999978
40
0.812499999999978
40
0.874999999999974
40
0.874999999999974
40
0.906249999999986
40
0.906249999999986
40
0.937499999999999
40
0.937499999999999
40
1
40
1
40
1
40
1
41
1
10
7.28179956614639
20
-1.62306955824292
30
0
41
1
10
7.28605022850408
20
-1.61921155096366
30
0
41
1
10
7.29065810880851
20
-1.61598808051141
30
0
41
1
10
7.30046642117048
20
-1.61057410081469
30
0
41
1
10
7.30566301569067
20
-1.6083945883245
30
0
41
1
10
7.32171416760946
20
-1.60325329894567
30
0
41
1
10
7.33312525294048
20
-1.6016049265057
30
0
41
1
10
7.35109664003573
20
-1.60108011744725
30
0
41
1
10
7.35723821407851
20
-1.60123955606926
30
0
41
1
10
7.36961586260654
20
-1.60213631705508
30
0
41
1
10
7.37587475800308
20
-1.60287239919165
30
0
41
1
10
7.39485391066734
20
-1.60584037322675
30
0
41
1
10
7.40777553465847
20
-1.60882552576283
30
0
41
1
10
7.43415441501901
20
-1.61649497576215
30
0
41
1
10
7.44767602405426
20
-1.62121248554465
30
0
41
1
10
7.47475871933545
20
-1.63199334074969
30
0
41
1
10
7.48836434150528
20
-1.6380645056401
30
0
41
1
10
7.52941771201915
20
-1.6581187358193
30
0
41
1
10
7.55710551280572
20
-1.67391212278221
30
0
41
1
10
7.61324961898666
20
-1.7102350177006
30
0
41
1
10
7.6412455528536
20
-1.73048611561839
30
0
41
1
10
7.68239765552619
20
-1.76375000357109
30
0
41
1
10
7.6959361504243
20
-1.77529372467282
30
0
41
1
10
7.72248975665201
20
-1.79928163658494
30
0
41
1
10
7.73555258607041
20
-1.81176932794199
30
0
41
1
10
7.76091803357028
20
-1.83766971744066
30
0
41
1
10
7.77323009410998
20
-1.85108965734014
30
0
41
1
10
7.7966973556583
20
-1.8788356011485
30
0
41
1
10
7.80787820861377
20
-1.89318924578714
30
0
41
1
10
7.82331435259255
20
-1.91536169119095
30
0
41
1
10
7.8282304071044
20
-1.92285080097486
30
0
41
1
10
7.83752393137723
20
-1.93806465478465
30
0
41
1
10
7.84191246627213
20
-1.9458139611657
30
0
41
1
10
7.85390812637596
20
-1.96912670698026
30
0
41
1
10
7.86045559564474
20
-1.98483649504215
30
0
41
1
10
7.86479079963371
20
-2.00083350996675
30
0
0
SPLINE
5
12F
100
AcDbEntity
8
1
62
256
6
ByLayer
370
18
48
1
60
0
100
AcDbSpline
70
4
71
3
72
31
73
27
40
0
40
0
40
0
40
0
40
0.249999999999935
40
0.249999999999935
40
0.3749999999999
40
0.3749999999999
40
0.499999999999864
40
0.499999999999864
40
0.562499999999847
40
0.562499999999847
40
0.624999999999831
40
0.624999999999831
40
0.687499999999815
40
0.687499999999815
40
0.749999999999798
40
0.749999999999798
40
0.781249999999824
40
0.781249999999824
40
0.812499999999849
40
0.843749999999875
40
0.843749999999875
40
0.8749999999999
40
0.8749999999999
40
0.93749999999995
40
0.93749999999995
40
1
40
1
40
1
40
1
41
1
10
6.96819845565111
20
-1.41320000000002
30
0
41
1
10
6.98790067510043
20
-1.45149965795059
30
0
41
1
10
7.00997727851953
20
-1.48817071889863
30
0
41
1
10
7.04627495449427
20
-1.53908283951014
30
0
41
1
10
7.05892733182969
20
-1.55539097926891
30
0
41
1
10
7.08529216946192
20
-1.58616766342595
30
0
41
1
10
7.09901786011102
20
-1.60065888285459
30
0
41
1
10
7.12037096746985
20
-1.62039394567583
30
0
41
1
10
7.12763072639717
20
-1.6266474619581
30
0
41
1
10
7.1423421298702
20
-1.63826910157607
30
0
41
1
10
7.14984069919598
20
-1.64367211619398
30
0
41
1
10
7.16489941454412
20
-1.65329513224688
30
0
41
1
10
7.1724405871727
20
-1.6575096007121
30
0
41
1
10
7.1875222995979
20
-1.66448417060434
30
0
41
1
10
7.195063125703
20
-1.66724908932369
30
0
41
1
10
7.20634730167416
20
-1.66997000109987
30
0
41
1
10
7.21012929202487
20
-1.67063875818985
30
0
41
1
10
7.21752854386389
20
-1.67139315044315
30
0
41
1
10
7.22475971386854
20
-1.67157248488311
30
0
41
1
10
7.23161739084944
20
-1.67050850211149
30
0
41
1
10
7.23826462019593
20
-1.66876002110928
30
0
41
1
10
7.24148272328361
20
-1.66753514329164
30
0
41
1
10
7.25049959323584
20
-1.66289809575255
30
0
41
1
10
7.25577047805666
20
-1.65850915250272
30
0
41
1
10
7.26480746935695
20
-1.64713283042386
30
0
41
1
10
7.26840561638323
20
-1.64035745512194
30
0
41
1
10
7.27120327394337
20
-1.63268956585836
30
0
0
SPLINE
5
130
100
AcDbEntity
8
1
62
256
6
ByLayer
370
18
48
1
60
0
100
AcDbSpline
70
4
71
3
72
32
73
28
40
0
40
0
40
0
40
0
40
0.12500000000001
40
0.12500000000001
40
0.250000000000019
40
0.250000000000019
40
0.375000000000029
40
0.375000000000029
40
0.500000000000039
40
0.500000000000039
40
0.562500000000016
40
0.562500000000016
40
0.624999999999992
40
0.624999999999992
40
0.687499999999968
40
0.687499999999968
40
0.749999999999945
40
0.749999999999945
40
0.812499999999922
40
0.812499999999922
40
0.843749999999935
40
0.843749999999935
40
0.874999999999948
40
0.874999999999948
40
0.937499999999974
40
0.937499999999974
40
1
40
1
40
1
40
1
41
1
10
6.96819845565108
20
0.263199999999983
30
0
41
1
10
6.97805638306042
20
0.282363082050239
30
0
41
1
10
6.98847766627497
20
0.301047969990151
30
0
41
1
10
7.01047871588696
20
0.337427144151889
30
0
41
1
10
7.02205214570518
20
0.355106385099191
30
0
41
1
10
7.04627739494256
20
0.389087137031083
30
0
41
1
10
7.05892684674762
20
0.405392013559435
30
0
41
1
10
7.08533349866002
20
0.436214305557883
30
0
41
1
10
7.09904632958927
20
0.450690473474936
30
0
41
1
10
7.12044929490577
20
0.470463681428555
30
0
41
1
10
7.12768714589822
20
0.476694461898035
30
0
41
1
10
7.14238943879218
20
0.488304027283505
30
0
41
1
10
7.14988257698528
20
0.493702422463684
30
0
41
1
10
7.1649890105752
20
0.50334881110183
30
0
41
1
10
7.17256620106991
20
0.50757908622424
30
0
41
1
10
7.18774987977616
20
0.514577752334048
30
0
41
1
10
7.19538119902347
20
0.517357306090418
30
0
41
1
10
7.21054315761285
20
0.520948608700763
30
0
41
1
10
7.21790257299369
20
0.521722236553131
30
0
41
1
10
7.22850237889276
20
0.521001595387929
30
0
41
1
10
7.23196877483886
20
0.520438529898939
30
0
41
1
10
7.23855071275881
20
0.518660030385462
30
0
41
1
10
7.24168969305987
20
0.517445127908928
30
0
41
1
10
7.25063145055259
20
0.512795894141107
30
0
41
1
10
7.2560114917479
20
0.508253021349759
30
0
41
1
10
7.26485956671894
20
0.497018386002225
30
0
41
1
10
7.26841601610698
20
0.49032895130091
30
0
41
1
10
7.27120327394337
20
0.482689565858323
30
0
0
SPLINE
5
131
100
AcDbEntity
8
1
62
256
6
ByLayer
370
18
48
1
60
0
100
AcDbSpline
70
4
71
3
72
40
73
36
40
0
40
0
40
0
40
0
40
0.0624999999999776
40
0.0624999999999776
40
0.0937499999999746
40
0.0937499999999746
40
0.124999999999972
40
0.124999999999972
40
0.187499999999976
40
0.187499999999976
40
0.24999999999998
40
0.24999999999998
40
0.312499999999984
40
0.312499999999984
40
0.374999999999989
40
0.374999999999989
40
0.437499999999993
40
0.437499999999993
40
0.499999999999997
40
0.499999999999997
40
0.625000000000005
40
0.625000000000005
40
0.687500000000009
40
0.687500000000009
40
0.750000000000013
40
0.750000000000013
40
0.812500000000017
40
0.812500000000017
40
0.875000000000021
40
0.875000000000021
40
0.906250000000016
40
0.906250000000016
40
0.937500000000011
40
0.937500000000011
40
1
40
1
40
1
40
1
41
1
10
6.93697904125264
20
-0.952763951723824
30
0
41
1
10
6.94513059366253
20
-0.944475174349463
30
0
41
1
10
6.95210533468349
20
-0.933910309876438
30
0
41
1
10
6.96144099382803
20
-0.915757955352944
30
0
41
1
10
6.9643563565906
20
-0.909309259267047
30
0
41
1
10
6.96978415433261
20
-0.895911119473368
30
0
41
1
10
6.97230901305124
20
-0.888937697017354
30
0
41
1
10
6.97940867365716
20
-0.867295844987552
30
0
41
1
10
6.98346510266566
20
-0.852065312864255
30
0
41
1
10
6.99057579343395
20
-0.820400740236835
30
0
41
1
10
6.99361516654352
20
-0.80400442766404
30
0
41
1
10
6.99885031130239
20
-0.770514454915713
30
0
41
1
10
7.00105802006169
20
-0.753326761648793
30
0
41
1
10
7.00475162488817
20
-0.718540507040899
30
0
41
1
10
7.0062412339056
20
-0.700928993648773
30
0
41
1
10
7.00860123632998
20
-0.665291776014953
30
0
41
1
10
7.00946856146146
20
-0.647275461041829
30
0
41
1
10
7.01061634003023
20
-0.611200847917814
30
0
41
1
10
7.01089995993479
20
-0.593096538245248
30
0
41
1
10
7.01089763986826
20
-0.538586147036796
30
0
41
1
10
7.00978408160677
20
-0.502573152092282
30
0
41
1
10
7.00624071985209
20
-0.44906155828761
30
0
41
1
10
7.00474640209058
20
-0.431405208735441
30
0
41
1
10
7.00105540834485
20
-0.396653748191909
30
0
41
1
10
6.99885149955313
20
-0.379489463646621
30
0
41
1
10
6.993604569474
20
-0.345931470819437
30
0
41
1
10
6.99056081142038
20
-0.329523919282451
30
0
41
1
10
6.98344808460894
20
-0.297867567197244
30
0
41
1
10
6.97937281100207
20
-0.28258359114102
30
0
41
1
10
6.97228556059736
20
-0.260996484384378
30
0
41
1
10
6.96976304875551
20
-0.254032766002979
30
0
41
1
10
6.96433337711534
20
-0.240638067133403
30
0
41
1
10
6.96141581831415
20
-0.234189984910245
30
0
41
1
10
6.95209940093153
20
-0.216084397130203
30
0
41
1
10
6.94513458251672
20
-0.205528881654033
30
0
41
1
10
6.93697904125264
20
-0.19723604827621
30
0
0
SPLINE
5
132
100
AcDbEntity
8
1
62
256
6
ByLayer
370
18
48
1
60
0
100
AcDbSpline
70
4
71
3
72
8
73
4
40
0
40
0
40
0
40
0
40
1
40
1
40
1
40
1
41
1
10
6.93697904125264
20
-0.197236048276181
30
0
41
1
10
6.93357587993441
20
-0.193775597417584
30
0
41
1
10
6.9301741182714
20
-0.190315605698572
30
0
41
1
10
6.92677370258554
20
-0.18685605589161
30
0
0
SPLINE
5
133
100
AcDbEntity
8
1
62
256
6
ByLayer
370
18
48
1
60
0
100
AcDbSpline
70
4
71
3
72
31
73
27
40
0
40
0
40
0
40
0
40
0.250000000000009
40
0.250000000000009
40
0.375000000000011
40
0.375000000000011
40
0.500000000000013
40
0.500000000000013
40
0.56250000000001
40
0.56250000000001
40
0.625000000000006
40
0.625000000000006
40
0.687500000000002
40
0.687500000000002
40
0.749999999999998
40
0.749999999999998
40
0.781249999999999
40
0.781249999999999
40
0.812499999999999
40
0.843749999999999
40
0.843749999999999
40
0.874999999999999
40
0.874999999999999
40
0.9375
40
0.9375
40
1
40
1
40
1
40
1
41
1
10
6.96819845565108
20
0.263199999999983
30
0
41
1
10
6.94849623620175
20
0.224900342049381
30
0
41
1
10
6.9309996858988
20
0.184644117953411
30
0
41
1
10
6.90905158367298
20
0.122330752071775
30
0
41
1
10
6.90244560105538
20
0.101202063924688
30
0
41
1
10
6.89097845085877
20
0.0584361608031543
30
0
41
1
10
6.88610691679753
20
0.0367757503574353
30
0
41
1
10
6.88050476817347
20
0.0041117884510697
30
0
41
1
10
6.87892086703414
20
-0.0068261165911849
30
0
41
1
10
6.87644147594906
20
-0.0286221106142079
30
0
41
1
10
6.87553962014397
20
-0.0395489013758095
30
0
41
1
10
6.87457089471292
20
-0.0610820452288863
30
0
41
1
10
6.87450074063787
20
-0.0716634331415378
30
0
41
1
10
6.87534544402217
20
-0.0923645562292279
30
0
41
1
10
6.87625727059947
20
-0.102485922485329
30
0
41
1
10
6.87856956239369
20
-0.11720569022404
30
0
41
1
10
6.87950721543115
20
-0.122066114578416
30
0
41
1
10
6.88171016963435
20
-0.131412940747452
30
0
41
1
10
6.88423415376053
20
-0.140384027635434
30
0
41
1
10
6.88744446318981
20
-0.148538223263728
30
0
41
1
10
6.89102891017677
20
-0.156240526729846
30
0
41
1
10
6.89301360754661
20
-0.159863054072701
30
0
41
1
10
6.89936625914228
20
-0.169679145121478
30
0
41
1
10
6.90418212570117
20
-0.174952610231173
30
0
41
1
10
6.91496064371685
20
-0.182943533132828
30
0
41
1
10
6.92072257693039
20
-0.185512668063609
30
0
41
1
10
6.92677370258554
20
-0.18685605589161
30
0
0
SPLINE
5
134
100
AcDbEntity
8
1
62
256
6
ByLayer
370
18
48
1
60
0
100
AcDbSpline
70
4
71
3
72
32
73
28
40
0
40
0
40
0
40
0
40
0.124999999999996
40
0.124999999999996
40
0.249999999999993
40
0.249999999999993
40
0.374999999999989
40
0.374999999999989
40
0.499999999999985
40
0.499999999999985
40
0.56249999999999
40
0.56249999999999
40
0.624999999999994
40
0.624999999999994
40
0.687499999999999
40
0.687499999999999
40
0.750000000000004
40
0.750000000000004
40
0.812500000000008
40
0.812500000000008
40
0.843750000000007
40
0.843750000000007
40
0.875000000000006
40
0.875000000000006
40
0.937500000000003
40
0.937500000000003
40
1
40
1
40
1
40
1
41
1
10
6.96819845565111
20
-1.41320000000002
30
0
41
1
10
6.95834052824176
20
-1.39403691794976
30
0
41
1
10
6.9490718796819
20
-1.37444603427079
30
0
41
1
10
6.93174690431979
20
-1.33437832340331
30
0
41
1
10
6.92369901556219
20
-1.31391517171696
30
0
41
1
10
6.90904947347065
20
-1.27232620346453
30
0
41
1
10
6.90244466545508
20
-1.25120222244115
30
0
41
1
10
6.89096162345112
20
-1.20836975079337
30
0
41
1
10
6.88609573733441
20
-1.18673026636719
30
0
41
1
10
6.88048608558125
20
-1.15399294388166
30
0
41
1
10
6.87890967004086
20
-1.14308944188301
30
0
41
1
10
6.87643520299281
20
-1.12130865588352
30
0
41
1
10
6.87553449411919
20
-1.11039003295454
30
0
41
1
10
6.87456758429946
20
-1.08879103036685
30
0
41
1
10
6.8745000594441
20
-1.07816054405131
30
0
41
1
10
6.87536608863223
20
-1.05732675805535
30
0
41
1
10
6.87630136716388
20
-1.0470897037238
30
0
41
1
10
6.87945150756241
20
-1.02733091984976
30
0
41
1
10
6.88162907523014
20
-1.01803141886151
30
0
41
1
10
6.88597973891132
20
-1.00516290724724
30
0
41
1
10
6.88761914434528
20
-1.00104830727889
30
0
41
1
10
6.89119948514343
20
-0.993434924879978
30
0
41
1
10
6.89314863511797
20
-0.989907080217193
30
0
41
1
10
6.89948175167859
20
-0.980186841343937
30
0
41
1
10
6.90443862876782
20
-0.974821368816492
30
0
41
1
10
6.91505477817736
20
-0.967023739457062
30
0
41
1
10
6.92074507076097
20
-0.964482338165027
30
0
41
1
10
6.92677370258554
20
-0.963143944108424
30
0
0
SPLINE
5
135
100
AcDbEntity
8
1
62
256
6
ByLayer
370
18
48
1
60
0
100
AcDbSpline
70
4
71
3
72
8
73
4
40
0
40
0
40
0
40
0
40
1
40
1
40
1
40
1
41
1
10
6.92677370258554
20
-0.963143944108424
30
0
41
1
10
6.9301741182714
20
-0.959684394301462
30
0
41
1
10
6.93357587993441
20
-0.95622440258245
30
0
41
1
10
6.93697904125264
20
-0.952763951723824
30
0
0
SPLINE
5
136
100
AcDbEntity
8
1
62
256
6
ByLayer
370
18
48
1
60
0
100
AcDbSpline
70
4
71
11
72
24
73
12
40
0
40
0
40
0
40
0
40
0
40
0
40
0
40
0
40
0
40
0
40
0
40
0
40
1
40
1
40
1
40
1
40
1
40
1
40
1
40
1
40
1
40
1
40
1
40
1
41
1
10
8.61918651343973
20
5.87769703718129
30
0
41
1
10
8.61918651343973
20
5.9073147458933
30
0
41
1
10
8.62400454935744
20
5.93693245241829
30
0
41
1
10
8.63364061995452
20
5.96567691795229
30
0
41
1
10
8.64791715899332
20
5.99267488118531
30
0
41
1
10
8.66647902708792
20
6.0170944854903
30
0
41
1
10
8.68880473977546
20
6.03818661530431
30
0
41
1
10
8.71422889642582
20
6.05532263691029
30
0
41
1
10
8.74197435654469
20
6.0680247886213
30
0
41
1
10
8.77119114777815
20
6.07598641692931
30
0
41
1
10
8.80099837029562
20
6.0790807854093
30
0
41
1
10
8.83052544895739
20
6.07735866884428
30
0
0
SPLINE
5
137
100
AcDbEntity
8
1
62
256
6
ByLayer
370
18
48
1
60
0
100
AcDbSpline
70
4
71
11
72
24
73
12
40
0
40
0
40
0
40
0
40
0
40
0
40
0
40
0
40
0
40
0
40
0
40
0
40
1
40
1
40
1
40
1
40
1
40
1
40
1
40
1
40
1
40
1
40
1
40
1
41
1
10
22.599999999996
20
4.72230296281879
30
0
41
1
10
22.599999999996
20
4.69268525410678
30
0
41
1
10
22.5951819640784
20
4.66306754758179
30
0
41
1
10
22.5855458934813
20
4.63432308204779
30
0
41
1
10
22.5712693544425
20
4.60732511881477
30
0
41
1
10
22.5527074863479
20
4.58290551450977
30
0
41
1
10
22.5303817736603
20
4.56181338469577
30
0
41
1
10
22.50495761701
20
4.54467736308979
30
0
41
1
10
22.4772121568911
20
4.53197521137878
30
0
41
1
10
22.4479953656577
20
4.52401358307077
30
0
41
1
10
22.4181881431402
20
4.52091921459078
30
0
41
1
10
22.3886610644784
20
4.52264133115577
30
0
0
SPLINE
5
138
100
AcDbEntity
8
1
62
256
6
ByLayer
370
18
48
1
60
0
100
AcDbSpline
70
4
71
2
72
9
73
6
40
0
40
0
40
0
40
0.25
40
0.5
40
0.75
40
1
40
1
40
1
41
1
10
22.5999999999999
20
5.87769703718004
30
0
41
1
10
22.5998909102166
20
5.91896357506957
30
0
41
1
10
22.5675416585157
20
5.99452562113922
30
0
41
1
10
22.5079725339374
20
6.05103882269867
30
0
41
1
10
22.4308350949566
20
6.0796944356826
30
0
41
1
10
22.3886610644823
20
6.07735866884303
30
0
0
SPLINE
5
139
100
AcDbEntity
8
1
62
256
6
ByLayer
370
18
48
1
60
0
100
AcDbSpline
70
4
71
2
72
6
73
3
40
0
40
0
40
0
40
1
40
1
40
1
41
1
10
11.3277393511839
20
5.91500000000005
30
0
41
1
10
11.300732076683
20
5.91508148075951
30
0
41
1
10
11.2747315817623
20
5.92181483481005
30
0
0
SPLINE
5
13A
100
AcDbEntity
8
1
62
256
6
ByLayer
370
18
48
1
60
0
100
AcDbSpline
70
4
71
3
72
8
73
4
40
0
40
0
40
0
40
0
40
1
40
1
40
1
40
1
41
1
10
10.9975147841292
20
5.99007405205532
30
0
41
1
10
11.0110044393033
20
5.98938507565393
30
0
41
1
10
11.024413181498
20
5.98731165208702
30
0
41
1
10
11.0374638558955
20
5.98389856670849
30
0
0
SPLINE
5
13B
100
AcDbEntity
8
1
62
256
6
ByLayer
370
18
48
1
60
0
100
AcDbSpline
70
4
71
3
72
8
73
4
40
0
40
0
40
0
40
0
40
1
40
1
40
1
40
1
41
1
10
11.3277393511818
20
4.68500000000003
30
0
41
1
10
11.3098716773458
20
4.68500000000003
30
0
41
1
10
11.2920053640926
20
4.68270240969895
30
0
41
1
10
11.2747315817619
20
4.67818516519176
30
0
0
SPLINE
5
13C
100
AcDbEntity
8
1
62
256
6
ByLayer
370
18
48
1
60
0
100
AcDbSpline
70
4
71
8
72
18
73
9
40
0
40
0
40
0
40
0
40
0
40
0
40
0
40
0
40
0
40
1
40
1
40
1
40
1
40
1
40
1
40
1
40
1
40
1
41
1
10
12.6516376526745
20
4.68500000000003
30
0
41
1
10
12.6462550188093
20
4.68500000000003
30
0
41
1
10
12.64087586035
20
4.68500000000003
30
0
41
1
10
12.6355011304682
20
4.68500000000003
30
0
41
1
10
12.6301317814344
20
4.68500000000003
30
0
41
1
10
12.6247687643377
20
4.68500000000003
30
0
41
1
10
12.6194130286972
20
4.68500000000003
30
0
41
1
10
12.6140655220835
20
4.68500000000003
30
0
41
1
10
12.6087271898107
20
4.68500000000003
30
0
0
SPLINE
5
13D
100
AcDbEntity
8
1
62
256
6
ByLayer
370
18
48
1
60
0
100
AcDbSpline
70
4
71
8
72
18
73
9
40
0
40
0
40
0
40
0
40
0
40
0
40
0
40
0
40
0
40
1
40
1
40
1
40
1
40
1
40
1
40
1
40
1
40
1
41
1
10
12.6516376526745
20
5.91500000000005
30
0
41
1
10
12.6462550188093
20
5.91500000000005
30
0
41
1
10
12.64087586035
20
5.91500000000005
30
0
41
1
10
12.6355011304682
20
5.91500000000005
30
0
41
1
10
12.6301317814344
20
5.91500000000005
30
0
41
1
10
12.6247687643377
20
5.91500000000005
30
0
41
1
10
12.6194130286972
20
5.91500000000005
30
0
41
1
10
12.6140655220835
20
5.91500000000005
30
0
41
1
10
12.6087271898107
20
5.91500000000005
30
0
0
SPLINE
5
13E
100
AcDbEntity
8
1
62
256
6
ByLayer
370
18
48
1
60
0
100
AcDbSpline
70
4
71
2
72
6
73
3
40
0
40
0
40
0
40
1
40
1
40
1
41
1
10
19.839968894377
20
4.68500000000003
30
0
41
1
10
19.8672220174479
20
4.68491851924057
30
0
41
1
10
19.8934591961736
20
4.67818516519003
30
0
0
SPLINE
5
13F
100
AcDbEntity
8
1
62
256
6
ByLayer
370
18
48
1
60
0
100
AcDbSpline
70
4
71
3
72
8
73
4
40
0
40
0
40
0
40
0
40
1
40
1
40
1
40
1
41
1
10
20.1731995121745
20
4.60992594794479
30
0
41
1
10
20.1595886375346
20
4.61061492434612
30
0
41
1
10
20.146058675874
20
4.61268834791306
30
0
41
1
10
20.1328867820106
20
4.61610143329159
30
0
0
SPLINE
5
140
100
AcDbEntity
8
1
62
256
6
ByLayer
370
18
48
1
60
0
100
AcDbSpline
70
4
71
2
72
6
73
3
40
0
40
0
40
0
40
1
40
1
40
1
41
1
10
20.1731995121744
20
5.99007405205504
30
0
41
1
10
20.1526674964191
20
5.98897077990119
30
0
41
1
10
20.1328867820071
20
5.98389856670804
30
0
0
SPLINE
5
141
100
AcDbEntity
8
1
62
256
6
ByLayer
370
18
48
1
60
0
100
AcDbSpline
70
4
71
3
72
8
73
4
40
0
40
0
40
0
40
0
40
1
40
1
40
1
40
1
41
1
10
19.8399688943792
20
5.91500000000005
30
0
41
1
10
19.8579974123401
20
5.91500000000005
30
0
41
1
10
19.8760245697179
20
5.9172975903011
30
0
41
1
10
19.8934591961741
20
5.92181483480829
30
0
0
SPLINE
5
142
100
AcDbEntity
8
1
62
256
6
ByLayer
370
18
48
1
60
0
100
AcDbSpline
70
4
71
8
72
18
73
9
40
0
40
0
40
0
40
0
40
0
40
0
40
0
40
0
40
0
40
1
40
1
40
1
40
1
40
1
40
1
40
1
40
1
40
1
41
1
10
18.504215195566
20
5.91500000000005
30
0
41
1
10
18.5095978294287
20
5.91500000000005
30
0
41
1
10
18.5149839386573
20
5.91500000000005
30
0
41
1
10
18.5203725700798
20
5.91500000000005
30
0
41
1
10
18.5257627697024
20
5.91500000000005
30
0
41
1
10
18.5311535829896
20
5.91500000000005
30
0
41
1
10
18.5365440552537
20
5.91500000000005
30
0
41
1
10
18.5419332320356
20
5.91500000000005
30
0
41
1
10
18.5473201594156
20
5.91500000000005
30
0
0
SPLINE
5
143
100
AcDbEntity
8
1
62
256
6
ByLayer
370
18
48
1
60
0
100
AcDbSpline
70
4
71
5
72
12
73
6
40
0
40
0
40
0
40
0
40
0
40
0
40
1
40
1
40
1
40
1
40
1
40
1
41
1
10
18.504215195566
20
5.76500000000004
30
0
41
1
10
18.5129073314961
20
5.76500000578804
30
0
41
1
10
18.5216086784978
20
5.76447962053103
30
0
41
1
10
18.5302725796262
20
5.76343899136904
30
0
41
1
10
18.5388553500441
20
5.76189897382304
30
0
41
1
10
18.5473201594156
20
5.75989464695903
30
0
0
SPLINE
5
144
100
AcDbEntity
8
1
62
256
6
ByLayer
370
18
48
1
60
0
100
AcDbSpline
70
4
71
8
72
18
73
9
40
0
40
0
40
0
40
0
40
0
40
0
40
0
40
0
40
0
40
1
40
1
40
1
40
1
40
1
40
1
40
1
40
1
40
1
41
1
10
18.504215195566
20
4.68500000000003
30
0
41
1
10
18.5095978294287
20
4.68500000000003
30
0
41
1
10
18.5149839386573
20
4.68500000000003
30
0
41
1
10
18.5203725700798
20
4.68500000000003
30
0
41
1
10
18.5257627697024
20
4.68500000000003
30
0
41
1
10
18.5311535829896
20
4.68500000000003
30
0
41
1
10
18.5365440552537
20
4.68500000000003
30
0
41
1
10
18.5419332320356
20
4.68500000000003
30
0
41
1
10
18.5473201594156
20
4.68500000000003
30
0
0
SPLINE
5
145
100
AcDbEntity
8
1
62
256
6
ByLayer
370
18
48
1
60
0
100
AcDbSpline
70
4
71
5
72
12
73
6
40
0
40
0
40
0
40
0
40
0
40
0
40
1
40
1
40
1
40
1
40
1
40
1
41
1
10
18.504215195566
20
4.83500000000004
30
0
41
1
10
18.5129073314961
20
4.83499999421204
30
0
41
1
10
18.5216086784978
20
4.83552037946905
30
0
41
1
10
18.5302725796262
20
4.83656100863104
30
0
41
1
10
18.5388553500441
20
4.83810102617704
30
0
41
1
10
18.5473201594156
20
4.84010535304103
30
0
0
LINE
5
7F
100
AcDbEntity
8
81
62
256
6
ByLayer
370
18
48
1
60
0
100
AcDbLine
10
22.6
20
6.05
30
0
11
27.593148
21
6.05
31
0
39
0
210
0
220
0
230
1
0
LINE
5
80
100
AcDbEntity
8
80
62
256
6
ByLayer
370
18
48
1
60
0
100
AcDbLine
10
0
20
0
30
0
11
-5
21
0
31
0
39
0
210
0
220
0
230
1
0
LINE
5
81
100
AcDbEntity
8
1
62
256
6
ByLayer
370
18
48
1
60
0
100
AcDbLine
10
8.327088
20
0.451185
30
0
11
9.024231
21
0.451185
31
0
39
0
210
0
220
0
230
1
0
LINE
5
82
100
AcDbEntity
8
1
62
256
6
ByLayer
370
18
48
1
60
0
100
AcDbLine
10
9.025024
20
-1.601185
30
0
11
8.327088
21
-1.601185
31
0
39
0
210
0
220
0
230
1
0
LINE
5
83
100
AcDbEntity
8
1
62
256
6
ByLayer
370
18
48
1
60
0
100
AcDbLine
10
7.101032
20
0.451185
30
0
11
7.350021
21
0.451185
31
0
39
0
210
0
220
0
230
1
0
LINE
5
84
100
AcDbEntity
8
1
62
256
6
ByLayer
370
18
48
1
60
0
100
AcDbLine
10
7.350007
20
-1.601185
30
0
11
7.101208
21
-1.601185
31
0
39
0
210
0
220
0
230
1
0
LINE
5
85
100
AcDbEntity
8
1
62
256
6
ByLayer
370
18
48
1
60
0
100
AcDbLine
10
8.170968
20
2.425
30
0
11
7.989372
21
2.425
31
0
39
0
210
0
220
0
230
1
0
LINE
5
86
100
AcDbEntity
8
1
62
256
6
ByLayer
370
18
48
1
60
0
100
AcDbLine
10
7.989372
20
-3.575
30
0
11
8.170968
21
-3.575
31
0
39
0
210
0
220
0
230
1
0
LINE
5
87
100
AcDbEntity
8
1
62
256
6
ByLayer
370
18
48
1
60
0
100
AcDbLine
10
11.542807
20
4.443852
30
0
11
11.538338
21
4.685008
31
0
39
0
210
0
220
0
230
1
0
LINE
5
88
100
AcDbEntity
8
1
62
256
6
ByLayer
370
13
48
1
60
0
100
AcDbLine
10
11.55474
20
3.8
30
0
11
11.542807
21
4.443852
31
0
39
0
210
0
220
0
230
1
0
LINE
5
89
100
AcDbEntity
8
1
62
256
6
ByLayer
370
18
48
1
60
0
100
AcDbLine
10
11.241471
20
-4.73939
30
0
11
11.008471
21
-4.935073
31
0
39
0
210
0
220
0
230
1
0
LINE
5
8A
100
AcDbEntity
8
1
62
256
6
ByLayer
370
18
48
1
60
0
100
AcDbLine
10
11.241471
20
3.8
30
0
11
11.008475
21
3.8
31
0
39
0
210
0
220
0
230
1
0
LINE
5
8B
100
AcDbEntity
8
1
62
256
6
ByLayer
370
18
48
1
60
0
100
AcDbLine
10
17.980018
20
0.919937
30
0
11
11.241471
21
-4.73939
31
0
39
0
210
0
220
0
230
1
0
LINE
5
8C
100
AcDbEntity
8
1
62
256
6
ByLayer
370
18
48
1
60
0
100
AcDbLine
10
11.97568
20
3.8
30
0
11
11.241471
21
3.8
31
0
39
0
210
0
220
0
230
1
0
LINE
5
8D
100
AcDbEntity
8
1
62
256
6
ByLayer
370
18
48
1
60
0
100
AcDbLine
10
17.980018
20
0.919937
30
0
11
17.980018
21
4
31
0
39
0
210
0
220
0
230
1
0
LINE
5
8E
100
AcDbEntity
8
1
62
256
6
ByLayer
370
13
48
1
60
0
100
AcDbLine
10
17.980018
20
4
30
0
11
11.942521
21
4
31
0
39
0
210
0
220
0
230
1
0
LINE
5
8F
100
AcDbEntity
8
1
62
256
6
ByLayer
370
18
48
1
60
0
100
AcDbLine
10
11.241471
20
3.8
30
0
11
11.241471
21
-4.73939
31
0
39
0
210
0
220
0
230
1
0
LINE
5
90
100
AcDbEntity
8
1
62
256
6
ByLayer
370
18
48
1
60
0
100
AcDbLine
10
0
20
-5.95
30
0
11
0.468629
21
-5.95
31
0
39
0
210
0
220
0
230
1
0
LINE
5
91
100
AcDbEntity
8
1
62
256
6
ByLayer
370
18
48
1
60
0
100
AcDbLine
10
0
20
-5.95
30
0
11
0
21
5.8
31
0
39
0
210
0
220
0
230
1
0
LINE
5
92
100
AcDbEntity
8
1
62
256
6
ByLayer
370
18
48
1
60
0
100
AcDbLine
10
11.008479
20
-4.935067
30
0
11
10.8
21
-5.110156
31
0
39
0
210
0
220
0
230
1
0
LINE
5
93
100
AcDbEntity
8
1
62
256
6
ByLayer
370
18
48
1
60
0
100
AcDbLine
10
11.008479
20
3.8
30
0
11
10.8
21
3.8
31
0
39
0
210
0
220
0
230
1
0
LINE
5
94
100
AcDbEntity
8
1
62
256
6
ByLayer
370
18
48
1
60
0
100
AcDbLine
10
11.008479
20
-4.935067
30
0
11
11.008479
21
3.8
31
0
39
0
210
0
220
0
230
1
0
LINE
5
95
100
AcDbEntity
8
1
62
256
6
ByLayer
370
18
48
1
60
0
100
AcDbLine
10
0.468629
20
5.8
30
0
11
0
21
5.8
31
0
39
0
210
0
220
0
230
1
0
LINE
5
96
100
AcDbEntity
8
1
62
256
6
ByLayer
370
18
48
1
60
0
100
AcDbLine
10
4
20
5.8
30
0
11
12.657791
21
5.8
31
0
39
0
210
0
220
0
230
1
0
LINE
5
97
100
AcDbEntity
8
1
62
256
6
ByLayer
370
18
48
1
60
0
100
AcDbLine
10
4
20
-5.95
30
0
11
6.931349
21
-5.95
31
0
39
0
210
0
220
0
230
1
0
LINE
5
98
100
AcDbEntity
8
1
62
256
6
ByLayer
370
18
48
1
60
0
100
AcDbLine
10
8.693501
20
4.8
30
0
11
12.657791
21
4.8
31
0
39
0
210
0
220
0
230
1
0
LINE
5
99
100
AcDbEntity
8
1
62
256
6
ByLayer
370
18
48
1
60
0
100
AcDbLine
10
10.8
20
0.687077
30
0
11
10.8
21
0.464531
31
0
39
0
210
0
220
0
230
1
0
LINE
5
9A
100
AcDbEntity
8
1
62
256
6
ByLayer
370
18
48
1
60
0
100
AcDbLine
10
6.931349
20
4
30
0
11
6.931349
21
2.260488
31
0
39
0
210
0
220
0
230
1
0
LINE
5
9B
100
AcDbEntity
8
1
62
256
6
ByLayer
370
18
48
1
60
0
100
AcDbLine
10
10.8
20
0.687077
30
0
11
10.8
21
4
31
0
39
0
210
0
220
0
230
1
0
LINE
5
9C
100
AcDbEntity
8
1
62
256
6
ByLayer
370
13
48
1
60
0
100
AcDbLine
10
10.8
20
4
30
0
11
6.931349
21
4
31
0
39
0
210
0
220
0
230
1
0
LINE
5
9D
100
AcDbEntity
8
1
62
256
6
ByLayer
370
18
48
1
60
0
100
AcDbLine
10
10.8
20
-1.614531
30
0
11
10.8
21
-1.837077
31
0
39
0
210
0
220
0
230
1
0
LINE
5
9E
100
AcDbEntity
8
1
62
256
6
ByLayer
370
18
48
1
60
0
100
AcDbLine
10
12.657791
20
5.8
30
0
11
17.944773
21
5.8
31
0
39
0
210
0
220
0
230
1
0
LINE
5
9F
100
AcDbEntity
8
1
62
256
6
ByLayer
370
18
48
1
60
0
100
AcDbLine
10
12.657791
20
4.8
30
0
11
17.944773
21
4.8
31
0
39
0
210
0
220
0
230
1
0
LINE
5
A0
100
AcDbEntity
8
1
62
256
6
ByLayer
370
18
48
1
60
0
100
AcDbLine
10
12.657791
20
4.8
30
0
11
12.657791
21
5.8
31
0
39
0
210
0
220
0
230
1
0
LINE
5
A1
100
AcDbEntity
8
1
62
256
6
ByLayer
370
18
48
1
60
0
100
AcDbLine
10
4
20
5.8
30
0
11
4
21
-5.95
31
0
39
0
210
0
220
0
230
1
0
LINE
5
A2
100
AcDbEntity
8
1
62
256
6
ByLayer
370
18
48
1
60
0
100
AcDbLine
10
0.468629
20
5.8
30
0
11
4
21
5.8
31
0
39
0
210
0
220
0
230
1
0
LINE
5
A3
100
AcDbEntity
8
1
62
256
6
ByLayer
370
13
48
1
60
0
100
AcDbLine
10
0.468629
20
5.8
30
0
11
0.468629
21
-5.95
31
0
39
0
210
0
220
0
230
1
0
LINE
5
A4
100
AcDbEntity
8
1
62
256
6
ByLayer
370
18
48
1
60
0
100
AcDbLine
10
0.468629
20
-5.95
30
0
11
4
21
-5.95
31
0
39
0
210
0
220
0
230
1
0
LINE
5
A5
100
AcDbEntity
8
1
62
256
6
ByLayer
370
18
48
1
60
0
100
AcDbLine
10
6.931349
20
-3.410488
30
0
11
6.931349
21
-5.95
31
0
39
0
210
0
220
0
230
1
0
LINE
5
A6
100
AcDbEntity
8
1
62
256
6
ByLayer
370
18
48
1
60
0
100
AcDbLine
10
9.8
20
-5.95
30
0
11
6.931349
21
-5.95
31
0
39
0
210
0
220
0
230
1
0
LINE
5
A7
100
AcDbEntity
8
1
62
256
6
ByLayer
370
18
48
1
60
0
100
AcDbLine
10
10.8
20
-5.110156
30
0
11
9.8
21
-5.95
31
0
39
0
210
0
220
0
230
1
0
LINE
5
A8
100
AcDbEntity
8
1
62
256
6
ByLayer
370
18
48
1
60
0
100
AcDbLine
10
10.8
20
-5.110156
30
0
11
10.8
21
-1.837077
31
0
39
0
210
0
220
0
230
1
0
LINE
5
A9
100
AcDbEntity
8
1
62
256
6
ByLayer
370
18
48
1
60
0
100
AcDbLine
10
8.777852
20
-0.963144
30
0
11
8.762615
21
-0.952764
31
0
39
0
210
0
220
0
230
1
0
LINE
5
AA
100
AcDbEntity
8
1
62
256
6
ByLayer
370
18
48
1
60
0
100
AcDbLine
10
8.762615
20
-0.197236
30
0
11
8.777852
21
-0.186856
31
0
39
0
210
0
220
0
230
1
0
LINE
5
AB
100
AcDbEntity
8
1
62
256
6
ByLayer
370
13
48
1
60
0
100
AcDbLine
10
9.482244
20
-0.952764
30
0
11
8.762615
21
-0.952764
31
0
39
0
210
0
220
0
230
1
0
LINE
5
AC
100
AcDbEntity
8
1
62
256
6
ByLayer
370
13
48
1
60
0
100
AcDbLine
10
9.482244
20
-0.197236
30
0
11
8.762615
21
-0.197236
31
0
39
0
210
0
220
0
230
1
0
LINE
5
AD
100
AcDbEntity
8
1
62
256
6
ByLayer
370
18
48
1
60
0
100
AcDbLine
10
9.502513
20
-0.963144
30
0
11
8.777852
21
-0.963144
31
0
39
0
210
0
220
0
230
1
0
LINE
5
AE
100
AcDbEntity
8
1
62
256
6
ByLayer
370
18
48
1
60
0
100
AcDbLine
10
9.502513
20
-0.186856
30
0
11
8.777852
21
-0.186856
31
0
39
0
210
0
220
0
230
1
0
LINE
5
AF
100
AcDbEntity
8
1
62
256
6
ByLayer
370
13
48
1
60
0
100
AcDbLine
10
8.554432
20
0.850834
30
0
11
7.864791
21
0.850834
31
0
39
0
210
0
220
0
230
1
0
LINE
5
B0
100
AcDbEntity
8
1
62
256
6
ByLayer
370
13
48
1
60
0
100
AcDbLine
10
8.554432
20
-2.000834
30
0
11
7.864791
21
-2.000834
31
0
39
0
210
0
220
0
230
1
0
LINE
5
B1
100
AcDbEntity
8
1
62
256
6
ByLayer
370
18
48
1
60
0
100
AcDbLine
10
8.559073
20
-2.020834
30
0
11
7.870215
21
-2.020834
31
0
39
0
210
0
220
0
230
1
0
LINE
5
B2
100
AcDbEntity
8
1
62
256
6
ByLayer
370
18
48
1
60
0
100
AcDbLine
10
8.559073
20
0.870834
30
0
11
7.870215
21
0.870834
31
0
39
0
210
0
220
0
230
1
0
LINE
5
B3
100
AcDbEntity
8
1
62
256
6
ByLayer
370
13
48
1
60
0
100
AcDbLine
10
7.2818
20
0.47307
30
0
11
7.124853
21
0.47307
31
0
39
0
210
0
220
0
230
1
0
LINE
5
B4
100
AcDbEntity
8
1
62
256
6
ByLayer
370
13
48
1
60
0
100
AcDbLine
10
7.2818
20
-1.62307
30
0
11
7.123841
21
-1.62307
31
0
39
0
210
0
220
0
230
1
0
LINE
5
B5
100
AcDbEntity
8
1
62
256
6
ByLayer
370
18
48
1
60
0
100
AcDbLine
10
7.271203
20
-1.63269
30
0
11
7.13619
21
-1.63269
31
0
39
0
210
0
220
0
230
1
0
LINE
5
B6
100
AcDbEntity
8
1
62
256
6
ByLayer
370
18
48
1
60
0
100
AcDbLine
10
7.271203
20
0.48269
30
0
11
7.136858
21
0.48269
31
0
39
0
210
0
220
0
230
1
0
LINE
5
B7
100
AcDbEntity
8
SK1
62
256
6
ByLayer
370
18
48
1
60
0
100
AcDbLine
10
-0.662742
20
5.8
30
0
11
-1.6
21
5.8
31
0
39
0
210
0
220
0
230
1
0
LINE
5
B9
100
AcDbEntity
8
SK1
62
256
6
ByLayer
370
18
48
1
60
0
100
AcDbLine
10
-102.4
20
-5.95
30
0
11
-0.662742
21
-5.95
31
0
39
0
210
0
220
0
230
1
0
LINE
5
BA
100
AcDbEntity
8
SK1
62
256
6
ByLayer
370
18
48
1
60
0
100
AcDbLine
10
-102.4
20
5.95
30
0
11
-2.276387
21
5.95
31
0
39
0
210
0
220
0
230
1
0
LINE
5
BB
100
AcDbEntity
8
SK1
62
256
6
ByLayer
370
18
48
1
60
0
100
AcDbLine
10
-102.4
20
-5.95
30
0
11
-102.4
21
5.95
31
0
39
0
210
0
220
0
230
1
0
LINE
5
BC
100
AcDbEntity
8
SK1
62
256
6
ByLayer
370
18
48
1
60
0
100
AcDbLine
10
0
20
-5.95
30
0
11
0
21
5.8
31
0
39
0
210
0
220
0
230
1
0
LINE
5
BD
100
AcDbEntity
8
SK1
62
256
6
ByLayer
370
18
48
1
60
0
100
AcDbLine
10
-0.662742
20
-5.95
30
0
11
0
21
-5.95
31
0
39
0
210
0
220
0
230
1
0
LINE
5
BE
100
AcDbEntity
8
SK1
62
256
6
ByLayer
370
18
48
1
60
0
100
AcDbLine
10
0
20
5.8
30
0
11
-0.662742
21
5.8
31
0
39
0
210
0
220
0
230
1
0
LINE
5
BF
100
AcDbEntity
8
SK1
62
256
6
ByLayer
370
13
48
1
60
0
100
AcDbLine
10
-0.662742
20
-5.95
30
0
11
-0.662742
21
5.8
31
0
39
0
210
0
220
0
230
1
0
LINE
5
C0
100
AcDbEntity
8
1
62
256
6
ByLayer
370
18
48
1
60
0
100
AcDbLine
10
8.830524
20
6.077359
30
0
11
10.032403
21
6.007261
31
0
39
0
210
0
220
0
230
1
0
LINE
5
C1
100
AcDbEntity
8
1
62
256
6
ByLayer
370
18
48
1
60
0
100
AcDbLine
10
8.619187
20
5.799998
30
0
11
8.619187
21
5.877698
31
0
39
0
210
0
220
0
230
1
0
LINE
5
C2
100
AcDbEntity
8
1
62
256
6
ByLayer
370
18
48
1
60
0
100
AcDbLine
10
10.032403
20
6.007261
30
0
11
10.423369
21
6.019344
31
0
39
0
210
0
220
0
230
1
0
LINE
5
C3
100
AcDbEntity
8
1
62
256
6
ByLayer
370
18
48
1
60
0
100
AcDbLine
10
10.032403
20
5.799989
30
0
11
10.032403
21
6.007261
31
0
39
0
210
0
220
0
230
1
0
LINE
5
C4
100
AcDbEntity
8
1
62
256
6
ByLayer
370
18
48
1
60
0
100
AcDbLine
10
22.388662
20
6.077359
30
0
11
21.186783
21
6.007261
31
0
39
0
210
0
220
0
230
1
0
LINE
5
C5
100
AcDbEntity
8
1
62
256
6
ByLayer
370
18
48
1
60
0
100
AcDbLine
10
22.388662
20
4.522641
30
0
11
21.186783
21
4.592739
31
0
39
0
210
0
220
0
230
1
0
LINE
5
C6
100
AcDbEntity
8
1
62
256
6
ByLayer
370
18
48
1
60
0
100
AcDbLine
10
22.6
20
4.722302
30
0
11
22.6
21
5.877698
31
0
39
0
210
0
220
0
230
1
0
LINE
5
C7
100
AcDbEntity
8
1
62
256
6
ByLayer
370
18
48
1
60
0
100
AcDbLine
10
11.327739
20
4.685
30
0
11
12.608727
21
4.685
31
0
39
0
210
0
220
0
230
1
0
LINE
5
C8
100
AcDbEntity
8
1
62
256
6
ByLayer
370
18
48
1
60
0
100
AcDbLine
10
11.327739
20
5.915
30
0
11
12.608727
21
5.915
31
0
39
0
210
0
220
0
230
1
0
LINE
5
C9
100
AcDbEntity
8
1
62
256
6
ByLayer
370
18
48
1
60
0
100
AcDbLine
10
11.274732
20
5.921815
30
0
11
11.037464
21
5.983899
31
0
39
0
210
0
220
0
230
1
0
LINE
5
CA
100
AcDbEntity
8
1
62
256
6
ByLayer
370
18
48
1
60
0
100
AcDbLine
10
10.997515
20
5.990074
30
0
11
10.423369
21
6.019344
31
0
39
0
210
0
220
0
230
1
0
LINE
5
CB
100
AcDbEntity
8
1
62
256
6
ByLayer
370
18
48
1
60
0
100
AcDbLine
10
10.423369
20
5.799989
30
0
11
10.423369
21
6.019344
31
0
39
0
210
0
220
0
230
1
0
LINE
5
CC
100
AcDbEntity
8
1
62
256
6
ByLayer
370
18
48
1
60
0
100
AcDbLine
10
11.274732
20
4.678185
30
0
11
11.115343
21
4.636479
31
0
39
0
210
0
220
0
230
1
0
LINE
5
CD
100
AcDbEntity
8
1
62
256
6
ByLayer
370
13
48
1
60
0
100
AcDbLine
10
12.608727
20
4.799999
30
0
11
12.608727
21
4.685
31
0
39
0
210
0
220
0
230
1
0
LINE
5
CE
100
AcDbEntity
8
1
62
256
6
ByLayer
370
13
48
1
60
0
100
AcDbLine
10
12.608727
20
5.800001
30
0
11
12.608727
21
5.915
31
0
39
0
210
0
220
0
230
1
0
LINE
5
CF
100
AcDbEntity
8
1
62
256
6
ByLayer
370
18
48
1
60
0
100
AcDbLine
10
21.186783
20
6.007261
30
0
11
20.752571
21
6.019344
31
0
39
0
210
0
220
0
230
1
0
LINE
5
D0
100
AcDbEntity
8
1
62
256
6
ByLayer
370
18
48
1
60
0
100
AcDbLine
10
21.186783
20
4.592739
30
0
11
20.752571
21
4.580656
31
0
39
0
210
0
220
0
230
1
0
LINE
5
D1
100
AcDbEntity
8
1
62
256
6
ByLayer
370
18
48
1
60
0
100
AcDbLine
10
21.186783
20
4.592739
30
0
11
21.186783
21
6.007261
31
0
39
0
210
0
220
0
230
1
0
LINE
5
D2
100
AcDbEntity
8
1
62
256
6
ByLayer
370
18
48
1
60
0
100
AcDbLine
10
18.504215
20
5.915
30
0
11
12.651638
21
5.915
31
0
39
0
210
0
220
0
230
1
0
LINE
5
D3
100
AcDbEntity
8
1
62
256
6
ByLayer
370
13
48
1
60
0
100
AcDbLine
10
12.651638
20
5.800002
30
0
11
12.651638
21
5.915
31
0
39
0
210
0
220
0
230
1
0
LINE
5
D4
100
AcDbEntity
8
1
62
256
6
ByLayer
370
18
48
1
60
0
100
AcDbLine
10
18.504215
20
4.685
30
0
11
12.651638
21
4.685
31
0
39
0
210
0
220
0
230
1
0
LINE
5
D5
100
AcDbEntity
8
1
62
256
6
ByLayer
370
13
48
1
60
0
100
AcDbLine
10
12.651638
20
4.799998
30
0
11
12.651638
21
4.685
31
0
39
0
210
0
220
0
230
1
0
LINE
5
D6
100
AcDbEntity
8
1
62
256
6
ByLayer
370
18
48
1
60
0
100
AcDbLine
10
19.839969
20
4.685
30
0
11
18.54732
21
4.685
31
0
39
0
210
0
220
0
230
1
0
LINE
5
D7
100
AcDbEntity
8
1
62
256
6
ByLayer
370
18
48
1
60
0
100
AcDbLine
10
19.839969
20
5.915
30
0
11
18.54732
21
5.915
31
0
39
0
210
0
220
0
230
1
0
LINE
5
D8
100
AcDbEntity
8
1
62
256
6
ByLayer
370
18
48
1
60
0
100
AcDbLine
10
19.893459
20
4.678185
30
0
11
20.132887
21
4.616101
31
0
39
0
210
0
220
0
230
1
0
LINE
5
D9
100
AcDbEntity
8
1
62
256
6
ByLayer
370
18
48
1
60
0
100
AcDbLine
10
20.173199
20
4.609926
30
0
11
20.752571
21
4.580656
31
0
39
0
210
0
220
0
230
1
0
LINE
5
DA
100
AcDbEntity
8
1
62
256
6
ByLayer
370
18
48
1
60
0
100
AcDbLine
10
20.752571
20
4.580656
30
0
11
20.752571
21
6.019344
31
0
39
0
210
0
220
0
230
1
0
LINE
5
DB
100
AcDbEntity
8
1
62
256
6
ByLayer
370
18
48
1
60
0
100
AcDbLine
10
20.173199
20
5.990074
30
0
11
20.752571
21
6.019344
31
0
39
0
210
0
220
0
230
1
0
LINE
5
DC
100
AcDbEntity
8
1
62
256
6
ByLayer
370
18
48
1
60
0
100
AcDbLine
10
19.893459
20
5.921815
30
0
11
20.132887
21
5.983899
31
0
39
0
210
0
220
0
230
1
0
LINE
5
DD
100
AcDbEntity
8
1
62
256
6
ByLayer
370
13
48
1
60
0
100
AcDbLine
10
18.54732
20
5.759895
30
0
11
18.54732
21
5.915
31
0
39
0
210
0
220
0
230
1
0
LINE
5
DE
100
AcDbEntity
8
1
62
256
6
ByLayer
370
13
48
1
60
0
100
AcDbLine
10
18.504215
20
5.765
30
0
11
18.504215
21
5.915
31
0
39
0
210
0
220
0
230
1
0
LINE
5
DF
100
AcDbEntity
8
1
62
256
6
ByLayer
370
18
48
1
60
0
100
AcDbLine
10
18.504215
20
5.765
30
0
11
17.957182
21
5.765
31
0
39
0
210
0
220
0
230
1
0
LINE
5
E0
100
AcDbEntity
8
1
62
256
6
ByLayer
370
13
48
1
60
0
100
AcDbLine
10
18.074422
20
5.402606
30
0
11
20.056232
21
5.402606
31
0
39
0
210
0
220
0
230
1
0
LINE
5
E1
100
AcDbEntity
8
1
62
256
6
ByLayer
370
18
48
1
60
0
100
AcDbLine
10
18.54732
20
5.759895
30
0
11
20.056232
21
5.402606
31
0
39
0
210
0
220
0
230
1
0
LINE
5
E2
100
AcDbEntity
8
1
62
256
6
ByLayer
370
18
48
1
60
0
100
AcDbLine
10
18.54732
20
4.840105
30
0
11
20.056232
21
5.197394
31
0
39
0
210
0
220
0
230
1
0
LINE
5
E3
100
AcDbEntity
8
1
62
256
6
ByLayer
370
13
48
1
60
0
100
AcDbLine
10
18.076938
20
5.197394
30
0
11
20.056232
21
5.197394
31
0
39
0
210
0
220
0
230
1
0
LINE
5
E4
100
AcDbEntity
8
1
62
256
6
ByLayer
370
18
48
1
60
0
100
AcDbLine
10
18.504215
20
4.835
30
0
11
17.957182
21
4.835
31
0
39
0
210
0
220
0
230
1
0
LINE
5
E5
100
AcDbEntity
8
1
62
256
6
ByLayer
370
13
48
1
60
0
100
AcDbLine
10
18.504215
20
4.835
30
0
11
18.504215
21
4.685
31
0
39
0
210
0
220
0
230
1
0
LINE
5
E6
100
AcDbEntity
8
1
62
256
6
ByLayer
370
13
48
1
60
0
100
AcDbLine
10
18.54732
20
4.840105
30
0
11
18.54732
21
4.685
31
0
39
0
210
0
220
0
230
1
0
MTEXT
5
146
100
AcDbEntity
8
SK6
62
256
6
ByLayer
370
18
48
1
60
0
100
AcDbMText
10
-72.217926
20
-54.150578
30
0
210
0
220
0
230
1
1
\W0.7260;C2R-RS12-RD11DS
40
3.5
41
0
44
1.084337
50
0
71
7
72
5
7
iso_b_vert
0
DIMENSION
5
14B
100
AcDbEntity
8
2
62
256
6
ByLayer
370
18
48
1
60
0
100
AcDbDimension
2
_U0
10
50.35
20
-5.95
30
0
11
50.35
21
0.05
31
0
70
32
71
1
72
1
41
1
210
0
220
0
230
1
3
Standard
100
AcDbAlignedDimension
13
22.6
23
6.05
33
0
14
-102.4
24
-5.95
34
0
50
90
100
AcDbRotatedDimension
1001
ACAD
1000
DSTYLE
1002
{
1070
   371
1070
    13
1070
   372
1070
    13
1070
   170
1070
     0
1070
   144
1040
1.0
1070
   277
1070
     2
1070
   284
1070
     8
1070
   278
1070
    46
1070
   146
1040
1.0
1070
   345
1005
16
1070
   347
1005
16
1070
   346
1005
16
1070
   344
1005
0
1070
   343
1005
0
1070
   172
1070
     1
1070
    76
1070
     0
1070
    75
1070
     0
1070
   282
1070
     0
1070
   281
1070
     0
1070
    71
1070
     0
1070
    74
1070
     0
1070
   279
1070
     0
1070
   173
1070
     1
1070
   340
1005
147
1070
   271
1070
     2
1070
   272
1070
     2
1070
    77
1070
     1
1070
    73
1070
     0
1070
   171
1070
     3
1070
   274
1070
     4
1070
   177
1070
     2
1070
   176
1070
     2
1070
   178
1070
     2
1070
    78
1070
     8
1070
    48
1040
-0.1
1070
    41
1040
3.5
1070
   147
1040
1.75
1070
    42
1040
1.5875
1070
    44
1040
2.0
1070
   140
1040
3.5
1002
}
1001
ACAD_DSTYLE_DIM_LINETYPE
1070
   380
1005
16
1001
ACAD_DSTYLE_DIM_EXT1_LINETYPE
1070
   381
1005
16
1001
ACAD_DSTYLE_DIM_EXT2_LINETYPE
1070
   382
1005
16
0
DIMENSION
5
166
100
AcDbEntity
8
2
62
256
6
ByLayer
370
18
48
1
60
0
100
AcDbDimension
2
_U1
10
42.693148
20
6.05
30
0
11
42.693148
21
5.3
31
0
70
32
71
1
72
1
41
1
210
0
220
0
230
1
3
Standard
100
AcDbAlignedDimension
13
22.6
23
4.55
33
0
14
22.6
24
6.05
34
0
50
90
100
AcDbRotatedDimension
1001
ACAD
1000
DSTYLE
1002
{
1070
   371
1070
    13
1070
   372
1070
    13
1070
   170
1070
     0
1070
   144
1040
1.0
1070
   277
1070
     2
1070
   284
1070
     8
1070
   278
1070
    46
1070
   146
1040
1.0
1070
   345
1005
16
1070
   347
1005
16
1070
   346
1005
16
1070
   344
1005
0
1070
   343
1005
0
1070
   172
1070
     1
1070
    76
1070
     0
1070
    75
1070
     0
1070
   282
1070
     0
1070
   281
1070
     0
1070
    71
1070
     0
1070
    74
1070
     0
1070
   279
1070
     0
1070
   173
1070
     1
1070
   340
1005
147
1070
   271
1070
     2
1070
   272
1070
     2
1070
    77
1070
     1
1070
    73
1070
     0
1070
   171
1070
     3
1070
   274
1070
     4
1070
   177
1070
     2
1070
   176
1070
     2
1070
   178
1070
     2
1070
    78
1070
     8
1070
    48
1040
-0.1
1070
    41
1040
3.5
1070
   147
1040
1.75
1070
    42
1040
1.5875
1070
    44
1040
2.0
1070
   140
1040
3.5
1002
}
1001
ACAD_DSTYLE_DIM_LINETYPE
1070
   380
1005
16
1001
ACAD_DSTYLE_DIM_EXT1_LINETYPE
1070
   381
1005
16
1001
ACAD_DSTYLE_DIM_EXT2_LINETYPE
1070
   382
1005
16
0
DIMENSION
5
17F
100
AcDbEntity
8
SK2
62
256
6
ByLayer
370
18
48
1
60
0
100
AcDbDimension
2
_U2
10
-114
20
6.05
30
0
11
-114
21
0.05
31
0
70
32
71
1
72
1
41
1
210
0
220
0
230
1
3
Standard
100
AcDbAlignedDimension
13
-102.4
23
-5.95
33
0
14
-102.4
24
6.05
34
0
50
90
100
AcDbRotatedDimension
1001
ACAD
1000
DSTYLE
1002
{
1070
   371
1070
    13
1070
   372
1070
    13
1070
   170
1070
     0
1070
   144
1040
1.0
1070
   277
1070
     2
1070
   284
1070
     8
1070
   278
1070
    46
1070
   146
1040
1.0
1070
   345
1005
16
1070
   347
1005
16
1070
   346
1005
16
1070
   344
1005
0
1070
   343
1005
0
1070
   172
1070
     1
1070
    76
1070
     0
1070
    75
1070
     0
1070
   282
1070
     0
1070
   281
1070
     0
1070
    71
1070
     0
1070
    74
1070
     0
1070
   279
1070
     0
1070
   173
1070
     1
1070
   340
1005
147
1070
   271
1070
     2
1070
   272
1070
     2
1070
    77
1070
     1
1070
    73
1070
     0
1070
   171
1070
     3
1070
   274
1070
     4
1070
   177
1070
     2
1070
   176
1070
     2
1070
   178
1070
     2
1070
    78
1070
     8
1070
    48
1040
-0.1
1070
    41
1040
3.5
1070
   147
1040
1.75
1070
    42
1040
1.5875
1070
    44
1040
2.0
1070
   140
1040
3.5
1002
}
1001
ACAD_DSTYLE_DIM_LINETYPE
1070
   380
1005
16
1001
ACAD_DSTYLE_DIM_EXT1_LINETYPE
1070
   381
1005
16
1001
ACAD_DSTYLE_DIM_EXT2_LINETYPE
1070
   382
1005
16
0
DIMENSION
5
199
100
AcDbEntity
8
2
62
256
6
ByLayer
370
18
48
1
60
0
100
AcDbDimension
2
_U3
10
22.6
20
-17.7
30
0
11
17.1
21
-17.7
31
0
70
32
71
1
72
1
41
1
210
0
220
0
230
1
3
Standard
100
AcDbAlignedDimension
13
11.6
23
4.8
33
0
14
22.6
24
6.05
34
0
50
0
100
AcDbRotatedDimension
1001
ACAD
1000
DSTYLE
1002
{
1070
   371
1070
    13
1070
   372
1070
    13
1070
   170
1070
     0
1070
   144
1040
1.0
1070
   277
1070
     2
1070
   284
1070
     8
1070
   278
1070
    46
1070
   146
1040
1.0
1070
   345
1005
16
1070
   347
1005
16
1070
   346
1005
16
1070
   344
1005
0
1070
   343
1005
0
1070
   172
1070
     1
1070
    76
1070
     0
1070
    75
1070
     0
1070
   282
1070
     0
1070
   281
1070
     0
1070
    71
1070
     0
1070
    74
1070
     0
1070
   279
1070
     0
1070
   173
1070
     1
1070
   340
1005
147
1070
   271
1070
     1
1070
   272
1070
     2
1070
    77
1070
     1
1070
    73
1070
     1
1070
   171
1070
     3
1070
   274
1070
     4
1070
   177
1070
     2
1070
   176
1070
     2
1070
   178
1070
     2
1070
    78
1070
     8
1070
    48
1040
-0.1
1070
    41
1040
3.5
1070
   147
1040
1.75
1070
    42
1040
1.5875
1070
    44
1040
2.0
1070
   140
1040
3.5
1002
}
1001
ACAD_DSTYLE_DIM_LINETYPE
1070
   380
1005
16
1001
ACAD_DSTYLE_DIM_EXT1_LINETYPE
1070
   381
1005
16
1001
ACAD_DSTYLE_DIM_EXT2_LINETYPE
1070
   382
1005
16
0
DIMENSION
5
1B2
100
AcDbEntity
8
SK2
62
256
6
ByLayer
370
18
48
1
60
0
100
AcDbDimension
2
_U4
10
22.6
20
-23.7
30
0
11
-39.9
21
-23.7
31
0
70
32
71
1
72
1
41
1
210
0
220
0
230
1
3
Standard
100
AcDbAlignedDimension
13
-102.4
23
-5.95
33
0
14
22.6
24
6.05
34
0
50
0
100
AcDbRotatedDimension
1001
ACAD
1000
DSTYLE
1002
{
1070
   371
1070
    13
1070
   372
1070
    13
1070
   170
1070
     0
1070
   144
1040
1.0
1070
   277
1070
     2
1070
   284
1070
     8
1070
   278
1070
    46
1070
   146
1040
1.0
1070
   345
1005
16
1070
   347
1005
16
1070
   346
1005
16
1070
   344
1005
0
1070
   343
1005
0
1070
   172
1070
     1
1070
    76
1070
     0
1070
    75
1070
     0
1070
   282
1070
     0
1070
   281
1070
     0
1070
    71
1070
     0
1070
    74
1070
     0
1070
   279
1070
     0
1070
   173
1070
     1
1070
   340
1005
147
1070
   271
1070
     1
1070
   272
1070
     2
1070
    77
1070
     1
1070
    73
1070
     1
1070
   171
1070
     3
1070
   274
1070
     4
1070
   177
1070
     2
1070
   176
1070
     2
1070
   178
1070
     2
1070
    78
1070
     8
1070
    48
1040
-0.1
1070
    41
1040
3.5
1070
   147
1040
1.75
1070
    42
1040
1.5875
1070
    44
1040
2.0
1070
   140
1040
3.5
1002
}
1001
ACAD_DSTYLE_DIM_LINETYPE
1070
   380
1005
16
1001
ACAD_DSTYLE_DIM_EXT1_LINETYPE
1070
   381
1005
16
1001
ACAD_DSTYLE_DIM_EXT2_LINETYPE
1070
   382
1005
16
0
ENDSEC
0
SECTION
2
OBJECTS
0
DICTIONARY
5
239
330
0
100
AcDbDictionary
280
0
281
1
3
ACAD_GROUP
350
23a
3
ACAD_MLINESTYLE
350
23b
0
DICTIONARY
5
23a
330
0
100
AcDbDictionary
280
0
281
1
0
DICTIONARY
5
23b
330
0
100
AcDbDictionary
280
0
281
1
3
Standard
350
18
0
MLINESTYLE
5
18
330
23b
100
AcDbMlineStyle
2
Standard
70
0
3

62
256
51
90
52
90
71
2
49
-0.5
62
256
6
ByLayer
49
0.5
62
256
6
ByLayer
0
RASTERVARIABLES
5
228
330

100
AcDbRasterVariables
90
0
70
1
71
1
72
1
0
ENDSEC
0
EOF
