0
SECTION
2
HEADER
9
$ACADVER
1
AC1015
9
$DWGCODEPAGE
3
ANSI_1252
9
$HANDSEED
5
26c
9
$ANGBASE
50
0
9
$ANGDIR
70
0
9
$ATTMODE
70
1
9
$AUNITS
70
0
9
$AUPREC
70
0
9
$CECOLOR
62
256
9
$CELTSCALE
40
1
9
$CELTYPE
6
ByLayer
9
$CELWEIGHT
370
18
9
$CLAYER
8
0
9
$CMLJUST
70
0
9
$CMLSCALE
40
1
9
$CMLSTYLE
2
Standard
9
$DIMSTYLE
2
Standard
9
$TEXTSIZE
40
0.2
9
$TEXTSTYLE
7
Standard
9
$LUNITS
70
2
9
$LUPREC
70
4
9
$EXTNAMES
290
1
9
$INSUNITS
70
4
9
$LTSCALE
40
1
9
$LWDISPLAY
290
1
9
$PDMODE
70
0
9
$PDSIZE
40
0
9
$PLINEGEN
70
0
0
ENDSEC
0
SECTION
2
CLASSES
0
CLASS
1
RASTERVARIABLES
2
AcDbRasterVariables
3
ISM
90
0
280
0
281
0
0
ENDSEC
0
SECTION
2
TABLES
0
TABLE
2
VPORT
5
262
100
AcDbSymbolTable
0
VPORT
5
1
100
AcDbSymbolTableRecord
100
AcDbViewportTableRecord
2
*Active
70
0
10
0
20
0
11
1
21
1
12
-1
22
1
13
0
23
0
14
0.5
24
0.5
15
10
25
10
16
0
26
0
36
1
17
0
27
0
37
0
0
ENDTAB
0
TABLE
2
LTYPE
5
263
100
AcDbSymbolTable
0
LTYPE
5
14
100
AcDbSymbolTableRecord
100
AcDbLinetypeTableRecord
70
0
2
ByBlock
3

72
65
73
0
40
0
0
LTYPE
5
15
100
AcDbSymbolTableRecord
100
AcDbLinetypeTableRecord
70
0
2
ByLayer
3

72
65
73
0
40
0
0
LTYPE
5
16
100
AcDbSymbolTableRecord
100
AcDbLinetypeTableRecord
70
0
2
Continuous
3
Solid line
72
65
73
0
40
0
0
LTYPE
5
6E
100
AcDbSymbolTableRecord
100
AcDbLinetypeTableRecord
70
0
2
CENTER
3
____ _ ____ _ ____ _ ____
72
65
73
4
40
47.5
49
22
74
0
49
-8.5
74
0
49
8.5
74
0
49
-8.5
74
0
0
LTYPE
5
6F
100
AcDbSymbolTableRecord
100
AcDbLinetypeTableRecord
70
0
2
DASHED
3
__ __ __ __ __ __ __ __ __
72
65
73
2
40
25.72
49
12.86
74
0
49
-12.86
74
0
0
ENDTAB
0
TABLE
2
LAYER
5
264
100
AcDbSymbolTable
0
LAYER
5
10
100
AcDbSymbolTableRecord
100
AcDbLayerTableRecord
2
0
70
0
62
7
6
Continuous
290
1
370
-3
390
0
0
LAYER
5
71
100
AcDbSymbolTableRecord
100
AcDbLayerTableRecord
2
81
70
0
62
-3
6
Continuous
290
1
370
-3
390
0
0
LAYER
5
73
100
AcDbSymbolTableRecord
100
AcDbLayerTableRecord
2
80
70
0
62
-6
6
Continuous
290
1
370
-3
390
0
0
LAYER
5
75
100
AcDbSymbolTableRecord
100
AcDbLayerTableRecord
2
1
70
0
62
4
6
Continuous
290
1
370
-3
390
0
0
LAYER
5
192
100
AcDbSymbolTableRecord
100
AcDbLayerTableRecord
2
Defpoints
70
0
62
7
6
Continuous
290
0
370
-3
390
0
0
LAYER
5
19F
100
AcDbSymbolTableRecord
100
AcDbLayerTableRecord
2
2
70
0
62
7
6
Continuous
290
1
370
-3
390
0
0
LAYER
5
251
100
AcDbSymbolTableRecord
100
AcDbLayerTableRecord
2
SK6
70
0
62
5
6
Continuous
290
1
370
-3
390
0
0
ENDTAB
0
TABLE
2
STYLE
5
265
100
AcDbSymbolTable
0
STYLE
5
11
100
AcDbSymbolTableRecord
100
AcDbTextStyleTableRecord
2
Standard
3
txt
70
0
71
0
40
0
41
1
42
0
50
0
0
STYLE
5
18B
100
AcDbSymbolTableRecord
100
AcDbTextStyleTableRecord
2
iso_b_vert
3
simplex.shx
70
0
71
0
40
0
41
1
42
0
50
0
0
STYLE
5
18C
100
AcDbSymbolTableRecord
100
AcDbTextStyleTableRecord
2
DWGDirectTextStyle
3
simplex
70
0
71
0
40
0
41
1
42
0
50
0
0
ENDTAB
0
TABLE
2
DIMSTYLE
5
266
100
AcDbSymbolTable
100
AcDbDimStyleTable
0
DIMSTYLE
105
27
100
AcDbSymbolTableRecord
100
AcDbDimStyleTableRecord
2
Standard
70
0
3
<>
41
0.18
42
0.0625
44
0.18
140
0.18
147
0.09
73
0
74
0
77
1
271
2
275
0
278
52
280
0
340
11
0
ENDTAB
0
TABLE
2
VIEW
5
267
100
AcDbSymbolTable
0
ENDTAB
0
TABLE
2
UCS
5
268
100
AcDbSymbolTable
0
ENDTAB
0
TABLE
2
APPID
5
269
100
AcDbSymbolTable
0
APPID
5
12
100
AcDbSymbolTableRecord
100
AcDbRegAppTableRecord
2
ACAD
70
0
0
APPID
5
18E
100
AcDbSymbolTableRecord
100
AcDbRegAppTableRecord
2
ACAD_DSTYLE_DIMBREAK
70
0
0
APPID
5
210
100
AcDbSymbolTableRecord
100
AcDbRegAppTableRecord
2
ACAD_DSTYLE_DIM_LINETYPE
70
0
0
APPID
5
211
100
AcDbSymbolTableRecord
100
AcDbRegAppTableRecord
2
ACAD_DSTYLE_DIM_EXT1_LINETYPE
70
0
0
APPID
5
212
100
AcDbSymbolTableRecord
100
AcDbRegAppTableRecord
2
ACAD_DSTYLE_DIM_EXT2_LINETYPE
70
0
0
APPID
5
24D
100
AcDbSymbolTableRecord
100
AcDbRegAppTableRecord
2
ACAD_MLEADERVER
70
0
0
ENDTAB
0
TABLE
2
BLOCK_RECORD
5
26a
100
AcDbSymbolTable
0
BLOCK_RECORD
5
1F
100
AcDbSymbolTableRecord
100
AcDbBlockTableRecord
2
*Model_Space
340
0
70
0
0
BLOCK_RECORD
5
1B
100
AcDbSymbolTableRecord
100
AcDbBlockTableRecord
2
*Paper_Space
340
0
70
0
0
BLOCK_RECORD
5
23
100
AcDbSymbolTableRecord
100
AcDbBlockTableRecord
2
*Paper_Space0
340
0
70
0
0
BLOCK_RECORD
5
193
100
AcDbSymbolTableRecord
100
AcDbBlockTableRecord
2
*D1
340
0
70
0
0
BLOCK_RECORD
5
1A0
100
AcDbSymbolTableRecord
100
AcDbBlockTableRecord
2
_U0
340
0
70
0
0
BLOCK_RECORD
5
1AC
100
AcDbSymbolTableRecord
100
AcDbBlockTableRecord
2
*D3
340
0
70
0
0
BLOCK_RECORD
5
1B8
100
AcDbSymbolTableRecord
100
AcDbBlockTableRecord
2
_U1
340
0
70
0
0
BLOCK_RECORD
5
1C4
100
AcDbSymbolTableRecord
100
AcDbBlockTableRecord
2
*D5
340
0
70
0
0
BLOCK_RECORD
5
1D0
100
AcDbSymbolTableRecord
100
AcDbBlockTableRecord
2
_U2
340
0
70
0
0
BLOCK_RECORD
5
1DC
100
AcDbSymbolTableRecord
100
AcDbBlockTableRecord
2
*D7
340
0
70
0
0
BLOCK_RECORD
5
1E9
100
AcDbSymbolTableRecord
100
AcDbBlockTableRecord
2
_U3
340
0
70
0
0
ENDTAB
0
ENDSEC
0
SECTION
2
BLOCKS
0
BLOCK
5
20
100
AcDbEntity
8
0
100
AcDbBlockBegin
2
*Model_Space
70
0
10
0
20
0
30
0
3
*Model_Space
0
ENDBLK
5
21
100
AcDbEntity
8
0
100
AcDbBlockEnd
0
BLOCK
5
1C
100
AcDbEntity
8
0
100
AcDbBlockBegin
2
*Paper_Space
70
0
10
0
20
0
30
0
3
*Paper_Space
0
ENDBLK
5
1D
100
AcDbEntity
8
0
100
AcDbBlockEnd
0
BLOCK
5
24
100
AcDbEntity
8
0
100
AcDbBlockBegin
2
*Paper_Space0
70
0
10
0
20
0
30
0
3
*Paper_Space0
0
ENDBLK
5
25
100
AcDbEntity
8
0
100
AcDbBlockEnd
0
BLOCK
5
194
100
AcDbEntity
8
0
100
AcDbBlockBegin
2
*D1
70
1
10
0
20
0
30
0
3
*D1
0
LINE
5
196
100
AcDbEntity
8
0
62
256
6
ByLayer
370
-2
48
1
60
0
100
AcDbLine
10
0
20
1.5875
30
0
11
0
21
18.25
31
0
39
0
210
0
220
0
230
1
0
LINE
5
197
100
AcDbEntity
8
0
62
256
6
ByLayer
370
-2
48
1
60
0
100
AcDbLine
10
41.1
20
-16.4125
30
0
11
41.1
21
18.25
31
0
39
0
210
0
220
0
230
1
0
LINE
5
198
100
AcDbEntity
8
0
62
256
6
ByLayer
370
-2
48
1
60
0
100
AcDbLine
10
3.5
20
16.25
30
0
11
37.6
21
16.25
31
0
39
0
210
0
220
0
230
1
0
SOLID
5
199
100
AcDbEntity
8
0
62
256
6
ByLayer
370
-1
48
1
60
0
100
AcDbTrace
10
3.5
20
16.833333
30
0
11
3.5
21
15.666667
31
0
12
0
22
16.25
32
0
13
0
23
16.25
33
0
39
0
210
0
220
0
230
1
0
SOLID
5
19A
100
AcDbEntity
8
0
62
256
6
ByLayer
370
-1
48
1
60
0
100
AcDbTrace
10
37.6
20
15.666667
30
0
11
37.6
21
16.833333
31
0
12
41.1
22
16.25
32
0
13
41.1
23
16.25
33
0
39
0
210
0
220
0
230
1
0
MTEXT
5
19B
100
AcDbEntity
8
0
62
256
6
ByLayer
370
18
48
1
60
0
100
AcDbMText
10
20.55
20
23.25
30
0
210
0
220
0
230
1
1
\A1;41.1
40
3.5
41
0
44
1
50
0
71
5
72
5
7
iso_b_vert
0
POINT
5
19C
100
AcDbEntity
8
Defpoints
62
0
6
ByLayer
370
-1
48
1
60
0
100
AcDbPoint
10
0
20
0
30
0
39
0
210
0
220
0
230
1
50
360
0
POINT
5
19D
100
AcDbEntity
8
Defpoints
62
0
6
ByLayer
370
-1
48
1
60
0
100
AcDbPoint
10
41.1
20
-18
30
0
39
0
210
0
220
0
230
1
50
360
0
POINT
5
19E
100
AcDbEntity
8
Defpoints
62
0
6
ByLayer
370
-1
48
1
60
0
100
AcDbPoint
10
41.1
20
16.25
30
0
39
0
210
0
220
0
230
1
50
360
0
ENDBLK
5
195
100
AcDbEntity
8
0
100
AcDbBlockEnd
0
BLOCK
5
1A7
100
AcDbEntity
8
0
100
AcDbBlockBegin
2
_U0
70
0
10
0
20
0
30
0
3
_U0
0
MTEXT
5
1A1
100
AcDbEntity
8
2
62
256
6
ByLayer
370
18
48
1
60
0
100
AcDbMText
10
17.318901
20
17.282634
30
0
210
0
220
0
230
1
1
\W0.6670;41.1
40
3.5
41
0
44
1.084337
50
0
71
7
72
5
7
iso_b_vert
0
LINE
5
1A2
100
AcDbEntity
8
2
62
256
6
ByLayer
370
13
48
1
60
0
100
AcDbLine
10
0
20
1.5875
30
0
11
0
21
18.25
31
0
39
0
210
0
220
0
230
1
0
LINE
5
1A3
100
AcDbEntity
8
2
62
256
6
ByLayer
370
13
48
1
60
0
100
AcDbLine
10
41.1
20
-16.4125
30
0
11
41.1
21
18.25
31
0
39
0
210
0
220
0
230
1
0
LINE
5
1A4
100
AcDbEntity
8
2
62
256
6
ByLayer
370
13
48
1
60
0
100
AcDbLine
10
0
20
16.25
30
0
11
41.1
21
16.25
31
0
39
0
210
0
220
0
230
1
0
SOLID
5
1A5
100
AcDbEntity
8
2
62
256
6
ByLayer
370
18
48
1
60
0
100
AcDbTrace
10
0
20
16.25
30
0
11
3.499998
21
16.710784
31
0
12
3.500002
22
15.789216
32
0
13
3.500002
23
15.789216
33
0
39
0
210
0
220
0
230
1
0
SOLID
5
1A6
100
AcDbEntity
8
2
62
256
6
ByLayer
370
18
48
1
60
0
100
AcDbTrace
10
41.1
20
16.25
30
0
11
37.600002
21
15.789216
31
0
12
37.599998
22
16.710784
32
0
13
37.599998
23
16.710784
33
0
39
0
210
0
220
0
230
1
0
ENDBLK
5
1A8
100
AcDbEntity
8
0
100
AcDbBlockEnd
0
BLOCK
5
1AD
100
AcDbEntity
8
0
100
AcDbBlockBegin
2
*D3
70
1
10
0
20
0
30
0
3
*D3
0
LINE
5
1AF
100
AcDbEntity
8
0
62
256
6
ByLayer
370
-2
48
1
60
0
100
AcDbLine
10
23.1
20
-10.737541
30
0
11
23.1
21
10.25
31
0
39
0
210
0
220
0
230
1
0
LINE
5
1B0
100
AcDbEntity
8
0
62
256
6
ByLayer
370
-2
48
1
60
0
100
AcDbLine
10
41.1
20
-16.4125
30
0
11
41.1
21
10.25
31
0
39
0
210
0
220
0
230
1
0
LINE
5
1B1
100
AcDbEntity
8
0
62
256
6
ByLayer
370
-2
48
1
60
0
100
AcDbLine
10
26.6
20
8.25
30
0
11
37.6
21
8.25
31
0
39
0
210
0
220
0
230
1
0
SOLID
5
1B2
100
AcDbEntity
8
0
62
256
6
ByLayer
370
-1
48
1
60
0
100
AcDbTrace
10
26.6
20
8.833333
30
0
11
26.6
21
7.666667
31
0
12
23.1
22
8.25
32
0
13
23.1
23
8.25
33
0
39
0
210
0
220
0
230
1
0
SOLID
5
1B3
100
AcDbEntity
8
0
62
256
6
ByLayer
370
-1
48
1
60
0
100
AcDbTrace
10
37.6
20
7.666667
30
0
11
37.6
21
8.833333
31
0
12
41.1
22
8.25
32
0
13
41.1
23
8.25
33
0
39
0
210
0
220
0
230
1
0
MTEXT
5
1B4
100
AcDbEntity
8
0
62
256
6
ByLayer
370
18
48
1
60
0
100
AcDbMText
10
32.1
20
15.25
30
0
210
0
220
0
230
1
1
\A1;18
40
3.5
41
0
44
1
50
0
71
5
72
5
7
iso_b_vert
0
POINT
5
1B5
100
AcDbEntity
8
Defpoints
62
0
6
ByLayer
370
-1
48
1
60
0
100
AcDbPoint
10
23.1
20
-12.325041
30
0
39
0
210
0
220
0
230
1
50
360
0
POINT
5
1B6
100
AcDbEntity
8
Defpoints
62
0
6
ByLayer
370
-1
48
1
60
0
100
AcDbPoint
10
41.1
20
-18
30
0
39
0
210
0
220
0
230
1
50
360
0
POINT
5
1B7
100
AcDbEntity
8
Defpoints
62
0
6
ByLayer
370
-1
48
1
60
0
100
AcDbPoint
10
41.1
20
8.25
30
0
39
0
210
0
220
0
230
1
50
360
0
ENDBLK
5
1AE
100
AcDbEntity
8
0
100
AcDbBlockEnd
0
BLOCK
5
1BF
100
AcDbEntity
8
0
100
AcDbBlockBegin
2
_U1
70
0
10
0
20
0
30
0
3
_U1
0
MTEXT
5
1B9
100
AcDbEntity
8
2
62
256
6
ByLayer
370
18
48
1
60
0
100
AcDbMText
10
30.632467
20
9.282634
30
0
210
0
220
0
230
1
1
\W0.5321;18
40
3.5
41
0
44
1.084337
50
0
71
7
72
5
7
iso_b_vert
0
LINE
5
1BA
100
AcDbEntity
8
2
62
256
6
ByLayer
370
13
48
1
60
0
100
AcDbLine
10
23.1
20
-10.737541
30
0
11
23.1
21
10.25
31
0
39
0
210
0
220
0
230
1
0
LINE
5
1BB
100
AcDbEntity
8
2
62
256
6
ByLayer
370
13
48
1
60
0
100
AcDbLine
10
41.1
20
-16.4125
30
0
11
41.1
21
10.25
31
0
39
0
210
0
220
0
230
1
0
LINE
5
1BC
100
AcDbEntity
8
2
62
256
6
ByLayer
370
13
48
1
60
0
100
AcDbLine
10
23.1
20
8.25
30
0
11
41.1
21
8.25
31
0
39
0
210
0
220
0
230
1
0
SOLID
5
1BD
100
AcDbEntity
8
2
62
256
6
ByLayer
370
18
48
1
60
0
100
AcDbTrace
10
23.1
20
8.25
30
0
11
26.599998
21
8.710784
31
0
12
26.600002
22
7.789216
32
0
13
26.600002
23
7.789216
33
0
39
0
210
0
220
0
230
1
0
SOLID
5
1BE
100
AcDbEntity
8
2
62
256
6
ByLayer
370
18
48
1
60
0
100
AcDbTrace
10
41.1
20
8.25
30
0
11
37.600002
21
7.789216
31
0
12
37.599998
22
8.710784
32
0
13
37.599998
23
8.710784
33
0
39
0
210
0
220
0
230
1
0
ENDBLK
5
1C0
100
AcDbEntity
8
0
100
AcDbBlockEnd
0
BLOCK
5
1C5
100
AcDbEntity
8
0
100
AcDbBlockBegin
2
*D5
70
1
10
0
20
0
30
0
3
*D5
0
LINE
5
1C7
100
AcDbEntity
8
0
62
256
6
ByLayer
370
-2
48
1
60
0
100
AcDbLine
10
42.6875
20
-18
30
0
11
67.85
21
-18
31
0
39
0
210
0
220
0
230
1
0
LINE
5
1C8
100
AcDbEntity
8
0
62
256
6
ByLayer
370
-2
48
1
60
0
100
AcDbLine
10
1.5875
20
0
30
0
11
67.85
21
0
31
0
39
0
210
0
220
0
230
1
0
LINE
5
1C9
100
AcDbEntity
8
0
62
256
6
ByLayer
370
-2
48
1
60
0
100
AcDbLine
10
65.85
20
-14.5
30
0
11
65.85
21
-3.5
31
0
39
0
210
0
220
0
230
1
0
SOLID
5
1CA
100
AcDbEntity
8
0
62
256
6
ByLayer
370
-1
48
1
60
0
100
AcDbTrace
10
65.266667
20
-14.5
30
0
11
66.433333
21
-14.5
31
0
12
65.85
22
-18
32
0
13
65.85
23
-18
33
0
39
0
210
0
220
0
230
1
0
SOLID
5
1CB
100
AcDbEntity
8
0
62
256
6
ByLayer
370
-1
48
1
60
0
100
AcDbTrace
10
66.433333
20
-3.5
30
0
11
65.266667
21
-3.5
31
0
12
65.85
22
0
32
0
13
65.85
23
0
33
0
39
0
210
0
220
0
230
1
0
MTEXT
5
1CC
100
AcDbEntity
8
0
62
256
6
ByLayer
370
18
48
1
60
0
100
AcDbMText
10
58.85
20
-9
30
0
210
0
220
0
230
1
1
\A1;18
40
3.5
41
0
44
1
50
90
71
5
72
5
7
iso_b_vert
0
POINT
5
1CD
100
AcDbEntity
8
Defpoints
62
0
6
ByLayer
370
-1
48
1
60
0
100
AcDbPoint
10
41.1
20
-18
30
0
39
0
210
0
220
0
230
1
50
360
0
POINT
5
1CE
100
AcDbEntity
8
Defpoints
62
0
6
ByLayer
370
-1
48
1
60
0
100
AcDbPoint
10
0
20
0
30
0
39
0
210
0
220
0
230
1
50
360
0
POINT
5
1CF
100
AcDbEntity
8
Defpoints
62
0
6
ByLayer
370
-1
48
1
60
0
100
AcDbPoint
10
65.85
20
0
30
0
39
0
210
0
220
0
230
1
50
360
0
ENDBLK
5
1C6
100
AcDbEntity
8
0
100
AcDbBlockEnd
0
BLOCK
5
1D7
100
AcDbEntity
8
0
100
AcDbBlockBegin
2
_U2
70
0
10
0
20
0
30
0
3
_U2
0
MTEXT
5
1D1
100
AcDbEntity
8
2
62
256
6
ByLayer
370
18
48
1
60
0
100
AcDbMText
10
65.160366
20
-10.495533
30
0
210
0
220
0
230
1
1
\W0.5321;18
40
3.5
41
0
44
1.084337
50
90
71
7
72
5
7
iso_b_vert
0
LINE
5
1D2
100
AcDbEntity
8
2
62
256
6
ByLayer
370
13
48
1
60
0
100
AcDbLine
10
42.6875
20
-18
30
0
11
67.85
21
-18
31
0
39
0
210
0
220
0
230
1
0
LINE
5
1D3
100
AcDbEntity
8
2
62
256
6
ByLayer
370
13
48
1
60
0
100
AcDbLine
10
1.5875
20
0
30
0
11
67.85
21
0
31
0
39
0
210
0
220
0
230
1
0
LINE
5
1D4
100
AcDbEntity
8
2
62
256
6
ByLayer
370
13
48
1
60
0
100
AcDbLine
10
65.85
20
-18
30
0
11
65.85
21
0
31
0
39
0
210
0
220
0
230
1
0
SOLID
5
1D5
100
AcDbEntity
8
2
62
256
6
ByLayer
370
18
48
1
60
0
100
AcDbTrace
10
65.85
20
-18
30
0
11
65.389216
21
-14.500002
31
0
12
66.310784
22
-14.499998
32
0
13
66.310784
23
-14.499998
33
0
39
0
210
0
220
0
230
1
0
SOLID
5
1D6
100
AcDbEntity
8
2
62
256
6
ByLayer
370
18
48
1
60
0
100
AcDbTrace
10
65.85
20
0
30
0
11
66.310784
21
-3.499998
31
0
12
65.389216
22
-3.500002
32
0
13
65.389216
23
-3.500002
33
0
39
0
210
0
220
0
230
1
0
ENDBLK
5
1D8
100
AcDbEntity
8
0
100
AcDbBlockEnd
0
BLOCK
5
1DD
100
AcDbEntity
8
0
100
AcDbBlockBegin
2
*D7
70
1
10
0
20
0
30
0
3
*D7
0
LINE
5
1DF
100
AcDbEntity
8
0
62
256
6
ByLayer
370
-2
48
1
60
0
100
AcDbLine
10
42.6875
20
-18
30
0
11
54.85
21
-18
31
0
39
0
210
0
220
0
230
1
0
LINE
5
1E0
100
AcDbEntity
8
0
62
256
6
ByLayer
370
-2
48
1
60
0
100
AcDbLine
10
42.6875
20
-12
30
0
11
54.85
21
-12
31
0
39
0
210
0
220
0
230
1
0
LINE
5
1E1
100
AcDbEntity
8
0
62
256
6
ByLayer
370
-2
48
1
60
0
100
AcDbLine
10
52.85
20
-21.5
30
0
11
52.85
21
-25
31
0
39
0
210
0
220
0
230
1
0
LINE
5
1E2
100
AcDbEntity
8
0
62
256
6
ByLayer
370
-2
48
1
60
0
100
AcDbLine
10
52.85
20
-8.5
30
0
11
52.85
21
-5
31
0
39
0
210
0
220
0
230
1
0
SOLID
5
1E3
100
AcDbEntity
8
0
62
256
6
ByLayer
370
-1
48
1
60
0
100
AcDbTrace
10
53.433333
20
-21.5
30
0
11
52.266667
21
-21.5
31
0
12
52.85
22
-18
32
0
13
52.85
23
-18
33
0
39
0
210
0
220
0
230
1
0
SOLID
5
1E4
100
AcDbEntity
8
0
62
256
6
ByLayer
370
-1
48
1
60
0
100
AcDbTrace
10
52.266667
20
-8.5
30
0
11
53.433333
21
-8.5
31
0
12
52.85
22
-12
32
0
13
52.85
23
-12
33
0
39
0
210
0
220
0
230
1
0
MTEXT
5
1E5
100
AcDbEntity
8
0
62
256
6
ByLayer
370
18
48
1
60
0
100
AcDbMText
10
45.85
20
-15
30
0
210
0
220
0
230
1
1
\A1;6
40
3.5
41
0
44
1
50
90
71
5
72
5
7
iso_b_vert
0
POINT
5
1E6
100
AcDbEntity
8
Defpoints
62
0
6
ByLayer
370
-1
48
1
60
0
100
AcDbPoint
10
41.1
20
-18
30
0
39
0
210
0
220
0
230
1
50
360
0
POINT
5
1E7
100
AcDbEntity
8
Defpoints
62
0
6
ByLayer
370
-1
48
1
60
0
100
AcDbPoint
10
41.1
20
-12
30
0
39
0
210
0
220
0
230
1
50
360
0
POINT
5
1E8
100
AcDbEntity
8
Defpoints
62
0
6
ByLayer
370
-1
48
1
60
0
100
AcDbPoint
10
52.85
20
-12
30
0
39
0
210
0
220
0
230
1
50
360
0
ENDBLK
5
1DE
100
AcDbEntity
8
0
100
AcDbBlockEnd
0
BLOCK
5
1F0
100
AcDbEntity
8
0
100
AcDbBlockBegin
2
_U3
70
0
10
0
20
0
30
0
3
_U3
0
MTEXT
5
1EA
100
AcDbEntity
8
2
62
256
6
ByLayer
370
18
48
1
60
0
100
AcDbMText
10
52.160366
20
-15.625233
30
0
210
0
220
0
230
1
1
\W0.5404;6
40
3.5
41
0
44
1.084337
50
90
71
7
72
5
7
iso_b_vert
0
LINE
5
1EB
100
AcDbEntity
8
2
62
256
6
ByLayer
370
13
48
1
60
0
100
AcDbLine
10
42.6875
20
-18
30
0
11
54.85
21
-18
31
0
39
0
210
0
220
0
230
1
0
LINE
5
1EC
100
AcDbEntity
8
2
62
256
6
ByLayer
370
13
48
1
60
0
100
AcDbLine
10
42.6875
20
-12
30
0
11
54.85
21
-12
31
0
39
0
210
0
220
0
230
1
0
LINE
5
1ED
100
AcDbEntity
8
2
62
256
6
ByLayer
370
13
48
1
60
0
100
AcDbLine
10
52.85
20
-26.75
30
0
11
52.85
21
-3.25
31
0
39
0
210
0
220
0
230
1
0
SOLID
5
1EE
100
AcDbEntity
8
2
62
256
6
ByLayer
370
18
48
1
60
0
100
AcDbTrace
10
52.85
20
-18
30
0
11
53.310784
21
-21.499998
31
0
12
52.389216
22
-21.500002
32
0
13
52.389216
23
-21.500002
33
0
39
0
210
0
220
0
230
1
0
SOLID
5
1EF
100
AcDbEntity
8
2
62
256
6
ByLayer
370
18
48
1
60
0
100
AcDbTrace
10
52.85
20
-12
30
0
11
52.389216
21
-8.500002
31
0
12
53.310784
22
-8.499998
32
0
13
53.310784
23
-8.499998
33
0
39
0
210
0
220
0
230
1
0
ENDBLK
5
1F1
100
AcDbEntity
8
0
100
AcDbBlockEnd
0
ENDSEC
0
SECTION
2
ENTITIES
0
ARC
5
101
100
AcDbEntity
8
1
62
256
6
ByLayer
370
18
48
1
60
0
100
AcDbCircle
39
0
10
16.5
20
-0.875
30
0
40
0.5
210
0
220
0
230
1
100
AcDbArc
50
180
51
270
0
ARC
5
102
100
AcDbEntity
8
1
62
256
6
ByLayer
370
18
48
1
60
0
100
AcDbCircle
39
0
10
16
20
-6.650016
30
0
40
4.55000000000086
210
0
220
0
230
1
100
AcDbArc
50
331.21761
51
28.78239
0
ARC
5
103
100
AcDbEntity
8
1
62
256
6
ByLayer
370
18
48
1
60
0
100
AcDbCircle
39
0
10
10.51676
20
-18.975041
30
0
40
1.6
210
0
220
0
230
1
100
AcDbArc
50
22.024313
51
90
0
ARC
5
104
100
AcDbEntity
8
1
62
256
6
ByLayer
370
18
48
1
60
0
100
AcDbCircle
39
0
10
16
20
-6.650016
30
0
40
4.55000000000001
210
0
220
0
230
1
100
AcDbArc
50
28.78239
51
331.21761
0
ARC
5
105
100
AcDbEntity
8
1
62
256
6
ByLayer
370
18
48
1
60
0
100
AcDbCircle
39
0
10
16
20
-6.650016
30
0
40
1.416
210
0
220
0
230
1
100
AcDbArc
50
60.190711
51
119.809289
0
ARC
5
106
100
AcDbEntity
8
1
62
256
6
ByLayer
370
18
48
1
60
0
100
AcDbCircle
39
0
10
16
20
-6.650016
30
0
40
1.416
210
0
220
0
230
1
100
AcDbArc
50
119.809289
51
173.807562
0
ARC
5
107
100
AcDbEntity
8
1
62
256
6
ByLayer
370
18
48
1
60
0
100
AcDbCircle
39
0
10
16
20
-6.650016
30
0
40
1.416
210
0
220
0
230
1
100
AcDbArc
50
240.190711
51
299.809289
0
ARC
5
108
100
AcDbEntity
8
1
62
256
6
ByLayer
370
18
48
1
60
0
100
AcDbCircle
39
0
10
16
20
-6.650016
30
0
40
1.416
210
0
220
0
230
1
100
AcDbArc
50
6.192438
51
60.190711
0
ARC
5
109
100
AcDbEntity
8
1
62
256
6
ByLayer
370
18
48
1
60
0
100
AcDbCircle
39
0
10
16
20
-6.650016
30
0
40
1.416
210
0
220
0
230
1
100
AcDbArc
50
299.809289
51
353.807562
0
ARC
5
10A
100
AcDbEntity
8
1
62
256
6
ByLayer
370
18
48
1
60
0
100
AcDbCircle
39
0
10
16
20
-6.650016
30
0
40
1.416
210
0
220
0
230
1
100
AcDbArc
50
186.192438
51
240.190711
0
ARC
5
10B
100
AcDbEntity
8
1
62
256
6
ByLayer
370
18
48
1
60
0
100
AcDbCircle
39
0
10
16
20
-6.650016
30
0
40
1.416
210
0
220
0
230
1
100
AcDbArc
50
173.807562
51
186.192438
0
ARC
5
10C
100
AcDbEntity
8
1
62
256
6
ByLayer
370
18
48
1
60
0
100
AcDbCircle
39
0
10
16
20
-6.650016
30
0
40
1.9685
210
0
220
0
230
1
100
AcDbArc
50
149.618578
51
210.381422
0
ARC
5
10D
100
AcDbEntity
8
1
62
256
6
ByLayer
370
18
48
1
60
0
100
AcDbCircle
39
0
10
16
20
-6.650016
30
0
40
1.9685
210
0
220
0
230
1
100
AcDbArc
50
30.381422
51
90
0
ARC
5
10E
100
AcDbEntity
8
1
62
256
6
ByLayer
370
18
48
1
60
0
100
AcDbCircle
39
0
10
16
20
-6.650016
30
0
40
1.9685
210
0
220
0
230
1
100
AcDbArc
50
210.381422
51
270
0
ARC
5
10F
100
AcDbEntity
8
1
62
256
6
ByLayer
370
18
48
1
60
0
100
AcDbCircle
39
0
10
16
20
-6.650016
30
0
40
1.416
210
0
220
0
230
1
100
AcDbArc
50
353.807562
51
6.192438
0
ARC
5
110
100
AcDbEntity
8
1
62
256
6
ByLayer
370
18
48
1
60
0
100
AcDbCircle
39
0
10
16
20
-6.650016
30
0
40
1.9685
210
0
220
0
230
1
100
AcDbArc
50
329.618578
51
30.381422
0
ARC
5
111
100
AcDbEntity
8
1
62
256
6
ByLayer
370
18
48
1
60
0
100
AcDbCircle
39
0
10
16
20
-6.650016
30
0
40
1.9685
210
0
220
0
230
1
100
AcDbArc
50
90
51
149.618578
0
ARC
5
114
100
AcDbEntity
8
1
62
256
6
ByLayer
370
18
48
1
60
0
100
AcDbCircle
39
0
10
16
20
-6.650016
30
0
40
1.9685
210
0
220
0
230
1
100
AcDbArc
50
270
51
329.618578
0
CIRCLE
5
112
100
AcDbEntity
8
1
62
256
6
ByLayer
370
18
48
1
60
0
100
AcDbCircle
10
16
20
-6.650016
30
0
40
4.25
39
0
210
0
220
0
230
1
0
CIRCLE
5
113
100
AcDbEntity
8
1
62
256
6
ByLayer
370
18
48
1
60
0
100
AcDbCircle
10
16
20
-6.650016
30
0
40
3.75
39
0
210
0
220
0
230
1
0
ELLIPSE
5
115
100
AcDbEntity
8
1
62
256
6
ByLayer
370
18
48
1
60
0
100
AcDbEllipse
10
-99.505076
20
-62.200041
30
0
11
265.145227041919
21
0
31
0
210
0
220
0
230
1
40
0.167927
41
1.0770920310238
42
1.12121273517052
0
ELLIPSE
5
116
100
AcDbEntity
8
1
62
256
6
ByLayer
370
18
48
1
60
0
100
AcDbEllipse
10
45.314369
20
-62.200041
30
0
11
3.136730445168E-14
21
-44.5250000001748
31
0
210
0
220
0
230
1
40
0.57735
41
-2.93733297200393
42
-2.64788835921288
0
ELLIPSE
5
117
100
AcDbEntity
8
1
62
256
6
ByLayer
370
18
48
1
60
0
100
AcDbEllipse
10
643.615923
20
-62.178555
30
0
11
2232.56632622022
21
-7.49883023996053
31
0
210
0
220
0
230
1
40
0.019649
41
1.84747379397255
42
1.84862387570634
0
ELLIPSE
5
118
100
AcDbEntity
8
1
62
256
6
ByLayer
370
18
48
1
60
0
100
AcDbEllipse
10
34.148637
20
-47.000041
30
0
11
35.1720698112465
21
0
31
0
210
0
220
0
230
1
40
0.985867
41
1.61683461325931
42
1.70048483372878
0
ELLIPSE
5
119
100
AcDbEntity
8
1
62
256
6
ByLayer
370
18
48
1
60
0
100
AcDbEllipse
10
-298.133361
20
-46.993127
30
0
11
-2689.42048047224
21
-5.8424030325912
31
0
210
0
220
0
230
1
40
0.012706
41
-1.69408546985742
42
-1.69055311722943
0
ELLIPSE
5
11A
100
AcDbEntity
8
1
62
256
6
ByLayer
370
18
48
1
60
0
100
AcDbEllipse
10
34.944171
20
-47.000041
30
0
11
41.3234893629347
21
0
31
0
210
0
220
0
230
1
40
0.839111
41
1.70048483369181
42
1.86149410565297
0
ELLIPSE
5
11B
100
AcDbEntity
8
1
62
256
6
ByLayer
370
18
48
1
60
0
100
AcDbEllipse
10
34.148637
20
-62.200041
30
0
11
45.1632705756807
21
0
31
0
210
0
220
0
230
1
40
0.985867
41
1.60761959788256
42
1.67168279190721
0
ELLIPSE
5
11C
100
AcDbEntity
8
1
62
256
6
ByLayer
370
18
48
1
60
0
100
AcDbEllipse
10
34.944171
20
-62.200041
30
0
11
53.0621013392331
21
0
31
0
210
0
220
0
230
1
40
0.839111
41
1.6716827918031
42
1.85653278040448
0
ELLIPSE
5
11D
100
AcDbEntity
8
1
62
256
6
ByLayer
370
18
48
1
60
0
100
AcDbEllipse
10
40.7
20
-17.616879
30
0
11
-0.4
21
4.89842541528951E-17
31
0
210
0
220
0
230
1
40
0.999986
41
1.51262452735381
42
3.14159265358979
0
ELLIPSE
5
11E
100
AcDbEntity
8
1
62
256
6
ByLayer
370
18
48
1
60
0
100
AcDbEllipse
10
40.7
20
-12.383203
30
0
11
0.4
21
0
31
0
210
0
220
0
230
1
40
0.999986
41
0
42
1.62896812623598
0
ELLIPSE
5
11F
100
AcDbEntity
8
1
62
256
6
ByLayer
370
18
48
1
60
0
100
AcDbEllipse
10
34.144631
20
-12.634142
30
0
11
0.433147567672418
21
-0.000553074465557047
31
0
210
0
220
0
230
1
40
0.230865
41
-3.14129786871828
42
-2.96674529222854
0
ELLIPSE
5
120
100
AcDbEntity
8
1
62
256
6
ByLayer
370
18
48
1
60
0
100
AcDbEllipse
10
35.436487
20
-14.32713
30
0
11
0.433147568636687
21
-0.000553074439118587
31
0
210
0
220
0
230
1
40
0.230865
41
-2.96676494354533
42
-2.47721439763613
0
ELLIPSE
5
121
100
AcDbEntity
8
1
62
256
6
ByLayer
370
18
48
1
60
0
100
AcDbEllipse
10
35.436487
20
-15.66171
30
0
11
0.433147568572026
21
-0.00055307443804808
31
0
210
0
220
0
230
1
40
0.230865
41
2.47780396729938
42
2.96735451324843
0
ELLIPSE
5
122
100
AcDbEntity
8
1
62
256
6
ByLayer
370
18
48
1
60
0
100
AcDbEllipse
10
34.144631
20
-17.351575
30
0
11
0.433147567774329
21
-0.000553074421232439
31
0
210
0
220
0
230
1
40
0.230865
41
2.96733486197013
42
-3.14129786874038
0
POINT
5
70
100
AcDbEntity
8
81
62
256
6
ByLayer
370
18
48
1
60
0
100
AcDbPoint
10
41.1
20
-18
30
0
39
0
210
0
220
0
230
1
50
360
0
POINT
5
72
100
AcDbEntity
8
80
62
256
6
ByLayer
370
18
48
1
60
0
100
AcDbPoint
10
0
20
0
30
0
39
0
210
0
220
0
230
1
50
360
0
POINT
5
74
100
AcDbEntity
8
1
62
256
6
ByLayer
370
18
48
1
60
1
100
AcDbPoint
10
0
20
0
30
0
39
0
210
0
220
0
230
1
50
360
0
POINT
5
76
100
AcDbEntity
8
1
62
256
6
ByLayer
370
18
48
1
60
1
100
AcDbPoint
10
41.1
20
-18
30
0
39
0
210
0
220
0
230
1
50
360
0
POINT
5
77
100
AcDbEntity
8
1
62
256
6
ByLayer
370
18
48
1
60
1
100
AcDbPoint
10
23.1
20
-12.325041
30
0
39
0
210
0
220
0
230
1
50
360
0
POINT
5
78
100
AcDbEntity
8
1
62
256
6
ByLayer
370
18
48
1
60
1
100
AcDbPoint
10
41.1
20
-18
30
0
39
0
210
0
220
0
230
1
50
360
0
POINT
5
79
100
AcDbEntity
8
1
62
256
6
ByLayer
370
18
48
1
60
1
100
AcDbPoint
10
41.1
20
-18
30
0
39
0
210
0
220
0
230
1
50
360
0
POINT
5
7A
100
AcDbEntity
8
1
62
256
6
ByLayer
370
18
48
1
60
1
100
AcDbPoint
10
0
20
0
30
0
39
0
210
0
220
0
230
1
50
360
0
POINT
5
7B
100
AcDbEntity
8
1
62
256
6
ByLayer
370
18
48
1
60
1
100
AcDbPoint
10
41.1
20
-18
30
0
39
0
210
0
220
0
230
1
50
360
0
POINT
5
7C
100
AcDbEntity
8
1
62
256
6
ByLayer
370
18
48
1
60
1
100
AcDbPoint
10
41.1
20
-12
30
0
39
0
210
0
220
0
230
1
50
360
0
SPLINE
5
123
100
AcDbEntity
8
1
62
256
6
ByLayer
370
18
48
1
60
0
100
AcDbSpline
70
4
71
3
72
12
73
8
40
0
40
0
40
0
40
0
40
0.282123293574533
40
0.282123293574533
40
0.641061646787267
40
0.641061646787267
40
1
40
1
40
1
40
1
41
1
10
9.22962551724967
20
0.312730672053647
30
0
41
1
10
9.22018631298096
20
0.314781589375542
30
0
41
1
10
9.21076689725155
20
0.316635418411295
30
0
41
1
10
9.18954659679824
20
0.320303380455783
30
0
41
1
10
9.17785494090333
20
0.321962244275824
30
0
41
1
10
9.15494813398627
20
0.324297936900479
30
0
41
1
10
9.14372986087079
20
0.324980947161691
30
0
41
1
10
9.13284665391035
20
0.324980947161691
30
0
0
SPLINE
5
124
100
AcDbEntity
8
1
62
256
6
ByLayer
370
18
48
1
60
0
100
AcDbSpline
70
4
71
3
72
8
73
4
40
0
40
0
40
0
40
0
40
1
40
1
40
1
40
1
41
1
10
8.97509300114021
20
0.269594177820636
30
0
41
1
10
8.97048024229872
20
0.263188796058728
30
0
41
1
10
8.96535566342396
20
0.256648768658465
30
0
41
1
10
8.95982040671319
20
0.249999999999829
30
0
0
SPLINE
5
125
100
AcDbEntity
8
1
62
256
6
ByLayer
370
18
48
1
60
0
100
AcDbSpline
70
4
71
3
72
8
73
4
40
0
40
0
40
0
40
0
40
1
40
1
40
1
40
1
41
1
10
8.94788459874798
20
0.25
30
0
41
1
10
8.95695689263579
20
0.256520867363747
30
0
41
1
10
8.96602634583104
20
0.263052313104737
30
0
41
1
10
8.97509300113904
20
0.269594177821347
30
0
0
SPLINE
5
126
100
AcDbEntity
8
1
62
256
6
ByLayer
370
18
48
1
60
0
100
AcDbSpline
70
4
71
3
72
18
73
14
40
0
40
0
40
0
40
0
40
0.124999999999997
40
0.124999999999997
40
0.249999999999994
40
0.249999999999994
40
0.374999999999991
40
0.374999999999991
40
0.499999999999988
40
0.499999999999988
40
0.749999999999994
40
0.749999999999994
40
1
40
1
40
1
40
1
41
1
10
9.40454881002665
20
0.324980947161663
30
0
41
1
10
9.38759768040057
20
0.324980947161663
30
0
41
1
10
9.37037734087883
20
0.324333802126603
30
0
41
1
10
9.33556537132938
20
0.322240606437305
30
0
41
1
10
9.31797101305719
20
0.320786465321106
30
0
41
1
10
9.28248929533834
20
0.317312073862979
30
0
41
1
10
9.26457702835458
20
0.315286220540855
30
0
41
1
10
9.2286184412612
20
0.310825062109671
30
0
41
1
10
9.21061352336176
20
0.308394804813759
30
0
41
1
10
9.15652522117634
20
0.300657493979827
30
0
41
1
10
9.12036847898457
20
0.294911325240093
30
0
41
1
10
9.04786915185497
20
0.282718617451991
30
0
41
1
10
9.01152644313692
20
0.276266358807106
30
0
41
1
10
8.97509300113904
20
0.269594177821347
30
0
0
SPLINE
5
127
100
AcDbEntity
8
1
62
256
6
ByLayer
370
18
48
1
60
0
100
AcDbSpline
70
4
71
3
72
20
73
16
40
0
40
0
40
0
40
0
40
0.25
40
0.25
40
0.375
40
0.375
40
0.5
40
0.5
40
0.625
40
0.625
40
0.75
40
0.75
40
0.875
40
0.875
40
1
40
1
40
1
40
1
41
1
10
9.3844789550599
20
0.25
30
0
41
1
10
9.39682270649575
20
0.259824535101188
30
0
41
1
10
9.40890440191322
20
0.269050270820657
30
0
41
1
10
9.42658457612515
20
0.281897606492294
30
0
41
1
10
9.43240356571505
20
0.286013315481341
30
0
41
1
10
9.44387251607549
20
0.293868908437645
30
0
41
1
10
9.44955246765531
20
0.297627228915957
30
0
41
1
10
9.46048600059484
20
0.304557321014272
30
0
41
1
10
9.46575547887247
20
0.307741778715808
30
0
41
1
10
9.47584069438224
20
0.313466776029827
30
0
41
1
10
9.48067606109115
20
0.316017460644701
30
0
41
1
10
9.48970604367264
20
0.320287538788818
30
0
41
1
10
9.49383752136632
20
0.321978904858042
30
0
41
1
10
9.50120547788177
20
0.324325438354236
30
0
41
1
10
9.50446684643606
20
0.324980947161691
30
0
41
1
10
9.5070945452878
20
0.324980947161691
30
0
0
SPLINE
5
128
100
AcDbEntity
8
1
62
256
6
ByLayer
370
18
48
1
60
0
100
AcDbSpline
70
4
71
2
72
6
73
3
40
0
40
0
40
0
40
1
40
1
40
1
41
1
10
9.50723215695228
20
0.324980947161691
30
0
41
1
10
9.53999786148736
20
0.324980947161691
30
0
41
1
10
9.57062122153147
20
0.324980947161691
30
0
0
SPLINE
5
129
100
AcDbEntity
8
1
62
256
6
ByLayer
370
18
48
1
60
0
100
AcDbSpline
70
4
71
3
72
18
73
14
40
0
40
0
40
0
40
0
40
0.249999999999998
40
0.249999999999998
40
0.374999999999997
40
0.374999999999997
40
0.499999999999996
40
0.499999999999996
40
0.749999999999998
40
0.749999999999998
40
0.874999999999999
40
0.874999999999999
40
1
40
1
40
1
40
1
41
1
10
14.8184692127086
20
0.249980947161674
30
0
41
1
10
14.8074408879534
20
0.25978207251589
30
0
41
1
10
14.7967015141747
20
0.269079983040143
30
0
41
1
10
14.7810985572145
20
0.282134384874752
30
0
41
1
10
14.7760027492335
20
0.286317935978389
30
0
41
1
10
14.7661922846909
20
0.294192871663853
30
0
41
1
10
14.7614560038651
20
0.29790260373386
30
0
41
1
10
14.7478183865456
20
0.308259492032192
30
0
41
1
10
14.7393963271011
20
0.314194627055087
30
0
41
1
10
14.729075461519
20
0.320451985953838
30
0
41
1
10
14.7259716490943
20
0.322125675212874
30
0
41
1
10
14.7207746365131
20
0.324388699392443
30
0
41
1
10
14.7186893510728
20
0.32498094716172
30
0
41
1
10
14.7171680292953
20
0.32498094716172
30
0
0
SPLINE
5
12A
100
AcDbEntity
8
1
62
256
6
ByLayer
370
18
48
1
60
0
100
AcDbSpline
70
4
71
3
72
22
73
18
40
0
40
0
40
0
40
0
40
0.125
40
0.125
40
0.25
40
0.25
40
0.375
40
0.375
40
0.5
40
0.5
40
0.625
40
0.625
40
0.75
40
0.75
40
0.875
40
0.875
40
1
40
1
40
1
40
1
41
1
10
9.57048139756094
20
0.324980947060027
30
0
41
1
10
9.57251449079982
20
0.324980699935452
30
0
41
1
10
9.57410536556662
20
0.324533102723962
30
0
41
1
10
9.57628182451117
20
0.322618634072569
30
0
41
1
10
9.57683167984811
20
0.321175545408039
30
0
41
1
10
9.57685514810564
20
0.317350053736362
30
0
41
1
10
9.57631860575586
20
0.314932710155119
30
0
41
1
10
9.5741997112676
20
0.309275100347463
30
0
41
1
10
9.57263907119452
20
0.306067076874996
30
0
41
1
10
9.56861585716385
20
0.298965833156615
30
0
41
1
10
9.56613810398775
20
0.295057128232287
30
0
41
1
10
9.56055905507199
20
0.28690587896952
30
0
41
1
10
9.55744018536603
20
0.282630010692884
30
0
41
1
10
9.55063275024946
20
0.273730195609943
30
0
41
1
10
9.5469222663894
20
0.26908108225922
30
0
41
1
10
9.53914014588514
20
0.259653435704053
30
0
41
1
10
9.53505931314226
20
0.254861141173507
30
0
41
1
10
9.53081289439862
20
0.249999999999943
30
0
0
SPLINE
5
12B
100
AcDbEntity
8
1
62
256
6
ByLayer
370
18
48
1
60
0
100
AcDbSpline
70
4
71
3
72
8
73
4
40
0
40
0
40
0
40
0
40
1
40
1
40
1
40
1
41
1
10
15.2430820962789
20
-0.129903810567669
30
0
41
1
10
15.4272614047765
20
-0.311558795566384
30
0
41
1
10
15.6113958293757
20
-0.493259035261673
30
0
41
1
10
15.7954898626159
20
-0.675000000000011
30
0
0
SPLINE
5
12C
100
AcDbEntity
8
1
62
256
6
ByLayer
370
18
48
1
60
0
100
AcDbSpline
70
4
71
3
72
8
73
4
40
0
40
0
40
0
40
0
40
1
40
1
40
1
40
1
41
1
10
15.2430820962789
20
-0.129903810567669
30
0
41
1
10
15.1020216400389
20
-0.0028773178347024
30
0
41
1
10
14.9604945734528
20
0.123759749017154
30
0
41
1
10
14.8184692127086
20
0.249980947161674
30
0
0
SPLINE
5
12D
100
AcDbEntity
8
1
62
256
6
ByLayer
370
18
48
1
60
0
100
AcDbSpline
70
4
71
3
72
16
73
12
40
0
40
0
40
0
40
0
40
0.250000000000002
40
0.250000000000002
40
0.500000000000003
40
0.500000000000003
40
0.750000000000005
40
0.750000000000005
40
0.875000000000002
40
0.875000000000002
40
1
40
1
40
1
40
1
41
1
10
32.8496108439358
20
-15.4932601062441
30
0
41
1
10
32.8311912494052
20
-15.6237139850499
30
0
41
1
10
32.8125764428775
20
-15.7541108628877
30
0
41
1
10
32.7747510477666
20
-16.014730653057
30
0
41
1
10
32.7555456291583
20
-16.1449550749965
30
0
41
1
10
32.7161582026626
20
-16.4051187594841
30
0
41
1
10
32.6959914417994
20
-16.5350748847435
30
0
41
1
10
32.6643822477099
20
-16.7295645445137
30
0
41
1
10
32.6536155659349
20
-16.7943167259862
30
0
41
1
10
32.6313892401788
20
-16.9235872612695
30
0
41
1
10
32.6199360808493
20
-16.9881078032095
30
0
41
1
10
32.6079170918402
20
-17.0524374160775
30
0
0
SPLINE
5
12E
100
AcDbEntity
8
1
62
256
6
ByLayer
370
18
48
1
60
0
100
AcDbSpline
70
4
71
3
72
8
73
4
40
0
40
0
40
0
40
0
40
1
40
1
40
1
40
1
41
1
10
33.0253468963166
20
-15.4100888721523
30
0
41
1
10
32.9668780844079
20
-15.4382703415899
30
0
41
1
10
32.9083393993271
20
-15.4661607212494
30
0
41
1
10
32.8496108439351
20
-15.4932601062409
30
0
0
SPLINE
5
12F
100
AcDbEntity
8
1
62
256
6
ByLayer
370
18
48
1
60
0
100
AcDbSpline
70
4
71
3
72
18
73
14
40
0
40
0
40
0
40
0
40
0.250000000000012
40
0.250000000000012
40
0.500000000000024
40
0.500000000000024
40
0.625000000000018
40
0.625000000000018
40
0.750000000000012
40
0.750000000000012
40
0.875000000000006
40
0.875000000000006
40
1
40
1
40
1
40
1
41
1
10
33.0990784662062
20
-15.2695136519572
30
0
41
1
10
33.0990260294746
20
-15.2851524815471
30
0
41
1
10
33.0972112078954
20
-15.3003784987185
30
0
41
1
10
33.0900925489359
20
-15.3300132830416
30
0
41
1
10
33.084946396725
20
-15.3437166962762
30
0
41
1
10
33.0749954875511
20
-15.3624750167067
30
0
41
1
10
33.0713272113918
20
-15.3683630508153
30
0
41
1
10
33.0634723241753
20
-15.3791926122587
30
0
41
1
10
33.059264051542
20
-15.3841756790272
30
0
41
1
10
33.0502863808678
20
-15.3932792034811
30
0
41
1
10
33.0455168326336
20
-15.3973863337294
30
0
41
1
10
33.0356937549505
20
-15.4045055066616
30
0
41
1
10
33.0306076487132
20
-15.407553234296
30
0
41
1
10
33.0253468963166
20
-15.4100888721523
30
0
0
SPLINE
5
130
100
AcDbEntity
8
1
62
256
6
ByLayer
370
18
48
1
60
0
100
AcDbSpline
70
4
71
2
72
6
73
3
40
0
40
0
40
0
40
1
40
1
40
1
41
0.500001864947001
10
33.1009206765842
20
-14.7195778844663
30
0
41
0.499998135052999
10
33.1000001514954
20
-14.9946284954361
30
0
41
0.500001864947001
10
33.0990784662062
20
-15.2695136519573
30
0
0
SPLINE
5
131
100
AcDbEntity
8
1
62
256
6
ByLayer
370
18
48
1
60
0
100
AcDbSpline
70
4
71
3
72
20
73
16
40
0
40
0
40
0
40
0
40
0.250000000000046
40
0.250000000000046
40
0.375000000000039
40
0.375000000000039
40
0.500000000000031
40
0.500000000000031
40
0.625000000000023
40
0.625000000000023
40
0.750000000000015
40
0.750000000000015
40
0.875000000000008
40
0.875000000000008
40
1
40
1
40
1
40
1
41
1
10
33.0282082864699
20
-14.578246715093
30
0
41
1
10
33.0386708552663
20
-14.5834206213146
30
0
41
1
10
33.0483988543407
20
-14.5905790606182
30
0
41
1
10
33.0618403534006
20
-14.6044249397368
30
0
41
1
10
33.0660489289681
20
-14.6094941352415
30
0
41
1
10
33.0738189848187
20
-14.6203887011491
30
0
41
1
10
33.0773999841252
20
-14.626233766234
30
0
41
1
10
33.083931956615
20
-14.6387482041114
30
0
41
1
10
33.0868804265838
20
-14.6454390469822
30
0
41
1
10
33.0919170603169
20
-14.6591826276164
30
0
41
1
10
33.094038081589
20
-14.6662908675257
30
0
41
1
10
33.097475458117
20
-14.6809862425402
30
0
41
1
10
33.0987948632601
20
-14.6886319502192
30
0
41
1
10
33.1005238547599
20
-14.7040038963206
30
0
41
1
10
33.1009468516868
20
-14.7117568288028
30
0
41
1
10
33.1009206765841
20
-14.7195778844649
30
0
0
SPLINE
5
132
100
AcDbEntity
8
1
62
256
6
ByLayer
370
18
48
1
60
0
100
AcDbSpline
70
4
71
3
72
8
73
4
40
0
40
0
40
0
40
0
40
1
40
1
40
1
40
1
41
1
10
32.8533932028271
20
-14.4932659229798
30
0
41
1
10
32.9118115592001
20
-14.5209978137154
30
0
41
1
10
32.9700440994849
20
-14.5494836020591
30
0
41
1
10
33.0282082864699
20
-14.578246715093
30
0
0
SPLINE
5
133
100
AcDbEntity
8
1
62
256
6
ByLayer
370
18
48
1
60
0
100
AcDbSpline
70
4
71
3
72
16
73
12
40
0
40
0
40
0
40
0
40
0.125
40
0.125
40
0.25
40
0.25
40
0.5
40
0.5
40
0.75
40
0.75
40
1
40
1
40
1
40
1
41
1
10
32.6082043701074
20
-12.8071055831358
30
0
41
1
10
32.6204417374051
20
-12.8767428852564
30
0
41
1
10
32.632054582832
20
-12.9465769953007
30
0
41
1
10
32.6545710149814
20
-13.0864687267498
30
0
41
1
10
32.6654656888643
20
-13.1565291568912
30
0
41
1
10
32.6974515461157
20
-13.3669304624855
30
0
41
1
10
32.7178615965565
20
-13.507481853809
30
0
41
1
10
32.7577775165723
20
-13.788807999087
30
0
41
1
10
32.7772651239218
20
-13.9295998191654
30
0
41
1
10
32.8156958445843
20
-14.2113325011352
30
0
41
1
10
32.834633269271
20
-14.3522749201479
30
0
41
1
10
32.8533932028271
20
-14.4932659229798
30
0
0
SPLINE
5
134
100
AcDbEntity
8
1
62
256
6
ByLayer
370
18
48
1
60
0
100
AcDbSpline
70
4
71
3
72
20
73
16
40
0
40
0
40
0
40
0
40
0.124999999999992
40
0.124999999999992
40
0.249999999999984
40
0.249999999999984
40
0.499999999999967
40
0.499999999999967
40
0.624999999999975
40
0.624999999999975
40
0.749999999999984
40
0.749999999999984
40
0.874999999999992
40
0.874999999999992
40
1
40
1
40
1
40
1
41
1
10
-11.1539311130558
20
0.249980947163749
30
0
41
1
10
-11.1604321264514
20
0.254843125490652
30
0
41
1
10
-11.1669160865667
20
0.259584653592839
30
0
41
1
10
-11.1798450150413
20
0.268812423928665
30
0
41
1
10
-11.1863183862468
20
0.273317667880235
30
0
41
1
10
-11.2054148194759
20
0.286238759708993
30
0
41
1
10
-11.2177208346944
20
0.29407886125324
30
0
41
1
10
-11.2353751890956
20
0.304408475138501
30
0
41
1
10
-11.2411564914624
20
0.307626792034853
30
0
41
1
10
-11.2522175048208
20
0.313387918152557
30
0
41
1
10
-11.2574809997012
20
0.315925042907395
30
0
41
1
10
-11.2673785357809
20
0.320189385940665
30
0
41
1
10
-11.2720438166112
20
0.32192703352834
30
0
41
1
10
-11.2804336330612
20
0.324326717375243
30
0
41
1
10
-11.2841126650964
20
0.32498094716189
30
0
41
1
10
-11.2871772280887
20
0.324980947161919
30
0
0
SPLINE
5
135
100
AcDbEntity
8
1
62
256
6
ByLayer
370
18
48
1
60
0
100
AcDbSpline
70
4
71
3
72
8
73
4
40
0
40
0
40
0
40
0
40
1
40
1
40
1
40
1
41
1
10
-11.1032350631269
20
0.212243119289184
30
0
41
1
10
-11.1201660472026
20
0.224786456048634
30
0
41
1
10
-11.1370643731012
20
0.237366129676758
30
0
41
1
10
-11.1539311130555
20
0.249980947161646
30
0
0
SPLINE
5
136
100
AcDbEntity
8
1
62
256
6
ByLayer
370
18
48
1
60
0
100
AcDbSpline
70
4
71
3
72
16
73
12
40
0
40
0
40
0
40
0
40
0.249999999999998
40
0.249999999999998
40
0.499999999999996
40
0.499999999999996
40
0.749999999999994
40
0.749999999999994
40
0.874999999999997
40
0.874999999999997
40
1
40
1
40
1
40
1
41
1
10
-9.96637832280616
20
0.249980947161674
30
0
41
1
10
-9.99078675577488
20
0.259909297798572
30
0
41
1
10
-10.0150264157267
20
0.269095229194733
30
0
41
1
10
-10.0631479963767
20
0.285965246733184
30
0
41
1
10
-10.0870307140286
20
0.293653557543223
30
0
41
1
10
-10.1343736234426
20
0.307193150124277
30
0
41
1
10
-10.1578378552941
20
0.313070425791182
30
0
41
1
10
-10.1925916480194
20
0.319751268507446
30
0
41
1
10
-10.2040252939894
20
0.321595212906118
30
0
41
1
10
-10.2261105645492
20
0.324200732781947
30
0
41
1
10
-10.2368176996361
20
0.324980947160697
30
0
41
1
10
-10.2470436468637
20
0.324980947161663
30
0
0
SPLINE
5
137
100
AcDbEntity
8
1
62
256
6
ByLayer
370
18
48
1
60
0
100
AcDbSpline
70
4
71
3
72
8
73
4
40
0
40
0
40
0
40
0
40
1
40
1
40
1
40
1
41
1
10
-9.66021760625796
20
0.133311925896834
30
0
41
1
10
-9.7633349926776
20
0.169915420024523
30
0
41
1
10
-9.86535047231179
20
0.208886956200018
30
0
41
1
10
-9.96637832280624
20
0.249980947161504
30
0
0
SPLINE
5
138
100
AcDbEntity
8
1
62
256
6
ByLayer
370
18
48
1
60
0
100
AcDbSpline
70
4
71
3
72
14
73
10
40
0
40
0
40
0
40
0
40
0.303513390287028
40
0.303513390287028
40
0.607026780574055
40
0.607026780574055
40
0.910540170861083
40
0.910540170861083
40
1
40
1
40
1
40
1
41
1
10
-9.40454881002677
20
0.324980947161663
30
0
41
1
10
-9.38759768042247
20
0.324980947161663
30
0
41
1
10
-9.37037734089567
20
0.324333802127739
30
0
41
1
10
-9.33556537129775
20
0.322240606435287
30
0
41
1
10
-9.31797101298197
20
0.320786465315109
30
0
41
1
10
-9.28248929514558
20
0.317312073842714
30
0
41
1
10
-9.26457702802512
20
0.315286220502173
30
0
41
1
10
-9.24129838173931
20
0.31239818352293
30
0
41
1
10
-9.23599680282365
20
0.311723378500687
30
0
41
1
10
-9.23069302614027
20
0.311032527846407
30
0
0
SPLINE
5
139
100
AcDbEntity
8
1
62
256
6
ByLayer
370
18
48
1
60
0
100
AcDbSpline
70
4
71
3
72
16
73
12
40
0
40
0
40
0
40
0
40
0.225218974003015
40
0.225218974003015
40
0.45043794800603
40
0.45043794800603
40
0.675656922009045
40
0.675656922009045
40
0.900875896012061
40
0.900875896012061
40
1
40
1
40
1
40
1
41
1
10
-11.0234674519049
20
0.324980947168172
30
0
41
1
10
-11.0186481431831
20
0.324980947167972
30
0
41
1
10
-11.0131968590635
20
0.324294057072905
30
0
41
1
10
-11.0013242982397
20
0.321823931556111
30
0
41
1
10
-10.9950506921146
20
0.320074036858045
30
0
41
1
10
-10.9819859246727
20
0.315793026802652
30
0
41
1
10
-10.9751929157508
20
0.313258941423413
30
0
41
1
10
-10.9611695861205
20
0.3075343818509
30
0
41
1
10
-10.9539161602598
20
0.304330463663064
30
0
41
1
10
-10.9433966326858
20
0.299396040292777
30
0
41
1
10
-10.9401655207042
20
0.297843114270336
30
0
41
1
10
-10.9369189903124
20
0.296247252501502
30
0
0
SPLINE
5
13A
100
AcDbEntity
8
1
62
256
6
ByLayer
370
18
48
1
60
0
100
AcDbSpline
70
4
71
3
72
20
73
16
40
0
40
0
40
0
40
0
40
0.249999999999998
40
0.249999999999998
40
0.374999999999998
40
0.374999999999998
40
0.499999999999998
40
0.499999999999998
40
0.624999999999999
40
0.624999999999999
40
0.749999999999999
40
0.749999999999999
40
0.875
40
0.875
40
1
40
1
40
1
40
1
41
1
10
-11.1114500273988
20
0.249980947154313
30
0
41
1
10
-11.1195900715259
20
0.259735651200032
30
0
41
1
10
-11.1270564922387
20
0.269508992532707
30
0
41
1
10
-11.1360204266698
20
0.283150106968293
30
0
41
1
10
-11.1386768192221
20
0.287590116805859
30
0
41
1
10
-11.1430395672149
20
0.295963435139413
30
0
41
1
10
-11.1447268949469
20
0.29985100455238
30
0
41
1
10
-11.1470034342433
20
0.306969162786601
30
0
41
1
10
-11.1475787917377
20
0.310212274884549
30
0
41
1
10
-11.1474895806123
20
0.31567755487319
30
0
41
1
10
-11.1468471997408
20
0.317947268097782
30
0
41
1
10
-11.1443698180766
20
0.321572915063968
30
0
41
1
10
-11.1425602599156
20
0.322880500925265
30
0
41
1
10
-11.1379995581218
20
0.324581483697585
30
0
41
1
10
-11.1352153779729
20
0.32498094716172
30
0
41
1
10
-11.1320782392769
20
0.32498094716172
30
0
0
SPLINE
5
13B
100
AcDbEntity
8
1
62
256
6
ByLayer
370
18
48
1
60
0
100
AcDbSpline
70
4
71
3
72
32
73
28
40
0
40
0
40
0
40
0
40
0.124999999999995
40
0.124999999999995
40
0.187499999999992
40
0.187499999999992
40
0.218749999999993
40
0.218749999999993
40
0.249999999999993
40
0.249999999999993
40
0.374999999999994
40
0.374999999999994
40
0.437499999999995
40
0.437499999999995
40
0.499999999999997
40
0.499999999999997
40
0.624999999999997
40
0.624999999999997
40
0.687499999999999
40
0.687499999999999
40
0.75
40
0.75
40
0.875000000000001
40
0.875000000000001
40
0.937500000000001
40
0.937500000000001
40
1
40
1
40
1
40
1
41
1
10
23.1000000000002
20
-12.3676343360679
30
0
41
1
10
22.9964539529165
20
-12.3677009571641
30
0
41
1
10
22.8946335348417
20
-12.3578815198751
30
0
41
1
10
22.744380323241
20
-12.3289593512686
30
0
41
1
10
22.6947117867946
20
-12.3169361408669
30
0
41
1
10
22.6208451921361
20
-12.2952565039949
30
0
41
1
10
22.5963239424188
20
-12.2874196203796
30
0
41
1
10
22.5475195597441
20
-12.2705110275681
30
0
41
1
10
22.5234276737656
20
-12.2615058683645
30
0
41
1
10
22.4044862257874
20
-12.2137853081711
30
0
41
1
10
22.3141492013605
20
-12.1670591236031
30
0
41
1
10
22.1857445641398
20
-12.0843641304457
30
0
41
1
10
22.1441177368287
20
-12.0546707030572
30
0
41
1
10
22.0633948695444
20
-11.9909649742973
30
0
41
1
10
22.0249229390258
20
-11.9574479417538
30
0
41
1
10
21.9149735371212
20
-11.8520823553231
30
0
41
1
10
21.8489141384409
20
-11.7754618674859
30
0
41
1
10
21.7608005738371
20
-11.6508645027082
30
0
41
1
10
21.7331866257796
20
-11.607521895281
30
0
41
1
10
21.682787534334
20
-11.5192963756162
30
0
41
1
10
21.6598631343826
20
-11.4742495282772
30
0
41
1
10
21.5977685261521
20
-11.3363670129431
30
0
41
1
10
21.5652147917387
20
-11.2408148747977
30
0
41
1
10
21.5301735838993
20
-11.0918252718941
30
0
41
1
10
21.5209419336105
20
-11.0417683946324
30
0
41
1
10
21.5073550181007
20
-10.9410811231141
30
0
41
1
10
21.5029918039413
20
-10.890417107624
30
0
41
1
10
21.5010920229831
20
-10.8394283370072
30
0
0
SPLINE
5
13C
100
AcDbEntity
8
1
62
256
6
ByLayer
370
18
48
1
60
0
100
AcDbSpline
70
4
71
3
72
9
73
5
40
0
40
0
40
0
40
0
40
0.5
40
1
40
1
40
1
40
1
41
1
10
21.5048272063353
20
-10.8493741199435
30
0
41
1
10
21.5046294164846
20
-10.8477164865493
30
0
41
1
10
21.5035659360468
20
-10.8444012243362
30
0
41
1
10
21.50179956423
20
-10.8410859669381
30
0
41
1
10
21.5010920229865
20
-10.8394283370358
30
0
0
SPLINE
5
13D
100
AcDbEntity
8
1
62
256
6
ByLayer
370
18
48
1
60
0
100
AcDbSpline
70
4
71
3
72
42
73
38
40
0
40
0
40
0
40
0
40
0.124999999999997
40
0.124999999999997
40
0.187499999999997
40
0.187499999999997
40
0.21875
40
0.21875
40
0.250000000000002
40
0.250000000000002
40
0.375000000000001
40
0.375000000000001
40
0.437500000000001
40
0.437500000000001
40
0.46875
40
0.46875
40
0.499999999999998
40
0.499999999999998
40
0.5625
40
0.5625
40
0.625000000000002
40
0.625000000000002
40
0.687500000000003
40
0.687500000000003
40
0.750000000000005
40
0.750000000000005
40
0.781250000000005
40
0.781250000000005
40
0.812500000000005
40
0.812500000000005
40
0.875000000000004
40
0.875000000000004
40
0.937500000000003
40
0.937500000000003
40
0.968750000000001
40
0.968750000000001
40
1
40
1
40
1
40
1
41
1
10
23.1000000000004
20
-13.7798615802195
30
0
41
1
10
23.0121581002054
20
-13.8019133473783
30
0
41
1
10
22.9238126984933
20
-13.8168671880524
30
0
41
1
10
22.7904724264573
20
-13.8277077281648
30
0
41
1
10
22.7458879049726
20
-13.8293791640553
30
0
41
1
10
22.6787876293326
20
-13.8287357046367
30
0
41
1
10
22.6563835528786
20
-13.8279951431789
30
0
41
1
10
22.6114969795473
20
-13.8254085182199
30
0
41
1
10
22.5889698006817
20
-13.8235567695771
30
0
41
1
10
22.4768467202023
20
-13.8114593722825
30
0
41
1
10
22.3886426604738
20
-13.7928299580338
30
0
41
1
10
22.2589471004078
20
-13.7492487429082
30
0
41
1
10
22.2161532894712
20
-13.732097793439
30
0
41
1
10
22.1527054360681
20
-13.7019216136263
30
0
41
1
10
22.1316301204002
20
-13.6910880846542
30
0
41
1
10
22.0901799857248
20
-13.668069677366
30
0
41
1
10
22.0697670187005
20
-13.6558706438527
30
0
41
1
10
22.0094950098446
20
-13.6171364383403
30
0
41
1
10
21.9705992637859
20
-13.5884721105268
30
0
41
1
10
21.8956171986794
20
-13.5249338274675
30
0
41
1
10
21.8594970727698
20
-13.4900286879354
30
0
41
1
10
21.7905689253349
20
-13.4133275198899
30
0
41
1
10
21.7585631627348
20
-13.3724236367695
30
0
41
1
10
21.6995301677904
20
-13.2854449722155
30
0
41
1
10
21.6725020241443
20
-13.2393711372961
30
0
41
1
10
21.6358692520167
20
-13.1661998825313
30
0
41
1
10
21.6243113287134
20
-13.1411312318972
30
0
41
1
10
21.6025506039725
20
-13.0895864474942
30
0
41
1
10
21.5923273898552
20
-13.0630284965083
30
0
41
1
10
21.5642781759954
20
-12.9826886577532
30
0
41
1
10
21.5488620889817
20
-12.9278195190191
30
0
41
1
10
21.5242702315516
20
-12.8155929249822
30
0
41
1
10
21.5150955627554
20
-12.7582350304101
30
0
41
1
10
21.5059490485925
20
-12.6703577694562
30
0
41
1
10
21.5036963314415
20
-12.6409734269602
30
0
41
1
10
21.5007245786105
20
-12.5823546593619
30
0
41
1
10
21.5000000000002
20
-12.5530670531669
30
0
41
1
10
21.5000000000002
20
-12.5238001741906
30
0
0
SPLINE
5
13E
100
AcDbEntity
8
1
62
256
6
ByLayer
370
18
48
1
60
0
100
AcDbSpline
70
4
71
3
72
30
73
26
40
0
40
0
40
0
40
0
40
0.125000000000006
40
0.125000000000006
40
0.187500000000007
40
0.187500000000007
40
0.250000000000007
40
0.250000000000007
40
0.375000000000007
40
0.375000000000007
40
0.437500000000006
40
0.437500000000006
40
0.500000000000004
40
0.500000000000004
40
0.625000000000003
40
0.625000000000003
40
0.687500000000004
40
0.687500000000004
40
0.750000000000005
40
0.750000000000005
40
0.875000000000004
40
0.875000000000004
40
0.937500000000002
40
0.937500000000002
40
1
40
1
40
1
40
1
41
1
10
10.3885656683964
20
-1.35753920737764
30
0
41
1
10
10.3725769510696
20
-1.35043649184084
30
0
41
1
10
10.357015053935
20
-1.34125326378341
30
0
41
1
10
10.3343194973801
20
-1.32432324488346
30
0
41
1
10
10.3268338465612
20
-1.31812437066799
30
0
41
1
10
10.3122282395107
20
-1.3047631898915
30
0
41
1
10
10.3051385487061
20
-1.2976343959817
30
0
41
1
10
10.2844916116685
20
-1.27493958336487
30
0
41
1
10
10.271552489291
20
-1.25807357051431
30
0
41
1
10
10.2533890169327
20
-1.23015571156293
30
0
41
1
10
10.247533603572
20
-1.22039396153275
30
0
41
1
10
10.2362938056153
20
-1.20003653587062
30
0
41
1
10
10.230967334754
20
-1.18954867316907
30
0
41
1
10
10.2158421101629
20
-1.15718513004288
30
0
41
1
10
10.2068920716584
20
-1.1344152605929
30
0
41
1
10
10.1951674906064
20
-1.09846886889596
30
0
41
1
10
10.1915440776096
20
-1.08618669921535
30
0
41
1
10
10.1848843247541
20
-1.0610038315873
30
0
41
1
10
10.1818836815991
20
-1.04823306186867
30
0
41
1
10
10.1738903460556
20
-1.00959859854387
30
0
41
1
10
10.1698767621816
20
-0.98332836763592
30
0
41
1
10
10.1658189687723
20
-0.943156192910692
30
0
41
1
10
10.1647950576134
20
-0.929637042188801
30
0
41
1
10
10.1634229106752
20
-0.90233473804895
30
0
41
1
10
10.1630807948134
20
-0.888611598389531
30
0
41
1
10
10.1630807948134
20
-0.875
30
0
0
SPLINE
5
13F
100
AcDbEntity
8
1
62
256
6
ByLayer
370
18
48
1
60
0
100
AcDbSpline
70
4
71
3
72
9
73
5
40
0
40
0
40
0
40
0
40
0.5
40
1
40
1
40
1
40
1
41
1
10
10.3885656683964
20
-1.35753920737764
30
0
41
1
10
10.4223280233233
20
-1.363355415949
30
0
41
1
10
10.4902926869094
20
-1.37204681272578
30
0
41
1
10
10.5591157419288
20
-1.375
30
0
41
1
10
10.593748156342
20
-1.375
30
0
0
SPLINE
5
140
100
AcDbEntity
8
1
62
256
6
ByLayer
370
18
48
1
60
0
100
AcDbSpline
70
4
71
3
72
81
73
77
40
0
40
0
40
0
40
0
40
0.0078125000000014
40
0.0078125000000014
40
0.0117187500000022
40
0.0117187500000022
40
0.0156250000000029
40
0.0156250000000029
40
0.0175781250000036
40
0.0175781250000036
40
0.0185546875000047
40
0.0185546875000047
40
0.0195312500000057
40
0.0195312500000057
40
0.021484375000006
40
0.021484375000006
40
0.0234375000000063
40
0.0234375000000063
40
0.027343750000006
40
0.027343750000006
40
0.0312500000000056
40
0.0312500000000056
40
0.0390625000000057
40
0.0390625000000057
40
0.0468750000000058
40
0.0468750000000058
40
0.0625000000000061
40
0.0625000000000061
40
0.0937500000000061
40
0.0937500000000061
40
0.125000000000006
40
0.125000000000006
40
0.187500000000006
40
0.187500000000006
40
0.250000000000007
40
0.250000000000007
40
0.375000000000007
40
0.375000000000007
40
0.500000000000007
40
0.625000000000008
40
0.625000000000008
40
0.687500000000008
40
0.687500000000008
40
0.750000000000008
40
0.750000000000008
40
0.812500000000008
40
0.812500000000008
40
0.875000000000008
40
0.875000000000008
40
0.906250000000008
40
0.906250000000008
40
0.937500000000008
40
0.937500000000008
40
0.953125000000009
40
0.953125000000009
40
0.960937500000009
40
0.960937500000009
40
0.968750000000009
40
0.968750000000009
40
0.972656250000008
40
0.972656250000008
40
0.976562500000008
40
0.976562500000008
40
0.978515625000007
40
0.978515625000007
40
0.980468750000007
40
0.980468750000007
40
0.982421875000007
40
0.982421875000007
40
0.984375000000006
40
0.984375000000006
40
0.988281250000005
40
0.988281250000005
40
0.992187500000003
40
0.992187500000003
40
1
40
1
40
1
40
1
41
1
10
-1.91224221525877
20
-0.394519052838348
30
0
41
1
10
-1.92282156572341
20
-0.397533435195697
30
0
41
1
10
-1.93328703299298
20
-0.400792642800013
30
0
41
1
10
-1.94859288445008
20
-0.406516669262459
30
0
41
1
10
-1.95359149055579
20
-0.408552813285269
30
0
41
1
10
-1.96318270865214
20
-0.413077560163515
30
0
41
1
10
-1.96785173654942
20
-0.415569664711199
30
0
41
1
10
-1.97395171242519
20
-0.420048670860751
30
0
41
1
10
-1.97580369573171
20
-0.421646658949015
30
0
41
1
10
-1.97804087537853
20
-0.424340153169822
30
0
41
1
10
-1.97867307625054
20
-0.425265399838054
30
0
41
1
10
-1.97964165466874
20
-0.427187280234904
30
0
41
1
10
-1.97997556416402
20
-0.428196550109391
30
0
41
1
10
-1.98037246688429
20
-0.43117668739427
30
0
41
1
10
-1.97980883341094
20
-0.433156040210008
30
0
41
1
10
-1.97748212350464
20
-0.436651382667122
30
0
41
1
10
-1.97581374795769
20
-0.438152979130422
30
0
41
1
10
-1.97009904328226
20
-0.442195860936522
30
0
41
1
10
-1.9655580550596
20
-0.444199414509057
30
0
41
1
10
-1.95606843466254
20
-0.44772119324756
30
0
41
1
10
-1.95106731633356
20
-0.449203062644983
30
0
41
1
10
-1.93595107519369
20
-0.45314305633795
30
0
41
1
10
-1.92557687187247
20
-0.455151548859874
30
0
41
1
10
-1.9045789202523
20
-0.458657307765151
30
0
41
1
10
-1.89394318274023
20
-0.460129304204259
30
0
41
1
10
-1.86179262627238
20
-0.464054865240968
30
0
41
1
10
-1.84020397899076
20
-0.466007269746626
30
0
41
1
10
-1.77556093947166
20
-0.470916772337659
30
0
41
1
10
-1.73240444053894
20
-0.472937703046796
30
0
41
1
10
-1.64603636785407
20
-0.476023509055125
30
0
41
1
10
-1.60282241164063
20
-0.477033463499424
30
0
41
1
10
-1.47312342215651
20
-0.479215768728096
30
0
41
1
10
-1.38658196181325
20
-0.479556475236905
30
0
41
1
10
-1.21341185681212
20
-0.479476207823097
30
0
41
1
10
-1.12678156308039
20
-0.479017268009557
30
0
41
1
10
-0.866793441191248
20
-0.477269893009009
30
0
41
1
10
-0.693339956070815
20
-0.475647183276322
30
0
41
1
10
-0.346258593410312
20
-0.473375275194542
30
0
41
1
10
0.0010003507703402
20
-0.47200367055919
30
0
41
1
10
0.34857405178758
20
-0.473386319949782
30
0
41
1
10
0.609388405753833
20
-0.475099760634464
30
0
41
1
10
0.696349175854408
20
-0.475776693033907
30
0
41
1
10
0.870323792927167
20
-0.477166899227512
30
0
41
1
10
0.957329148831519
20
-0.477882761325304
30
0
41
1
10
1.13113690460131
20
-0.479041949024122
30
0
41
1
10
1.21796857575396
20
-0.479493958295478
30
0
41
1
10
1.39143454900756
20
-0.479542216888063
30
0
41
1
10
1.47807229819915
20
-0.479177404442254
30
0
41
1
10
1.60778691374301
20
-0.476925497381728
30
0
41
1
10
1.65098443404136
20
-0.475886802092418
30
0
41
1
10
1.73725264988951
20
-0.472719601202726
30
0
41
1
10
1.78025703058955
20
-0.47064578145492
30
0
41
1
10
1.84417449210775
20
-0.465656248769307
30
0
41
1
10
1.86538741092383
20
-0.463682824017269
30
0
41
1
10
1.896922807263
20
-0.459723906732535
30
0
41
1
10
1.90740435871612
20
-0.458233151164734
30
0
41
1
10
1.92812264321614
20
-0.454664943117905
30
0
41
1
10
1.93832423326464
20
-0.452621312482364
30
0
41
1
10
1.9530654260048
20
-0.448616583755751
30
0
41
1
10
1.957886259075
20
-0.447126197110265
30
0
41
1
10
1.96714261473934
20
-0.443496857369752
30
0
41
1
10
1.97155211298312
20
-0.441419320218785
30
0
41
1
10
1.97684146809385
20
-0.437229800282637
30
0
41
1
10
1.9783365049384
20
-0.435660915574715
30
0
41
1
10
1.98016767343336
20
-0.432084882313745
30
0
41
1
10
1.9804197424285
20
-0.430094718808903
30
0
41
1
10
1.97937553127724
20
-0.426188446354047
30
0
41
1
10
1.97814356823218
20
-0.424317649885836
30
0
41
1
10
1.97498510374817
20
-0.420901794091293
30
0
41
1
10
1.97308244679581
20
-0.419356299912835
30
0
41
1
10
1.96692460319255
20
-0.415043395047604
30
0
41
1
10
1.96229755695148
20
-0.412623793809502
30
0
41
1
10
1.95271325741356
20
-0.408182097958019
30
0
41
1
10
1.94779456186376
20
-0.406204007763876
30
0
41
1
10
1.93283786110663
20
-0.400656000617459
30
0
41
1
10
1.92260027365086
20
-0.397470382277845
30
0
41
1
10
1.91224221527577
20
-0.39451905284318
30
0
0
SPLINE
5
141
100
AcDbEntity
8
1
62
256
6
ByLayer
370
18
48
1
60
0
100
AcDbSpline
70
4
71
3
72
17
73
13
40
0
40
0
40
0
40
0
40
0.25
40
0.25
40
0.375
40
0.4375
40
0.4375
40
0.5
40
0.5
40
0.75
40
0.75
40
1
40
1
40
1
40
1
41
1
10
1.91224221527679
20
-0.394519052843464
30
0
41
1
10
1.60159777754356
20
-0.306006897427324
30
0
41
1
10
1.28701472260693
20
-0.236782441218367
30
0
41
1
10
0.808326323249872
20
-0.166313521538967
30
0
41
1
10
0.567279119098828
20
-0.139418800322744
30
0
41
1
10
0.323519502227214
20
-0.12580696443888
30
0
41
1
10
0.160394283177027
20
-0.119762754673957
30
0
41
1
10
0.078362911948318
20
-0.118261377257454
30
0
41
1
10
-0.329727668873488
20
-0.118464900509594
30
0
41
1
10
-0.651754427740201
20
-0.143175179431694
30
0
41
1
10
-1.28776911723094
20
-0.236983023929383
30
0
41
1
10
-1.60176192357355
20
-0.306053667681027
30
0
41
1
10
-1.91224221525877
20
-0.394519052838348
30
0
0
SPLINE
5
142
100
AcDbEntity
8
1
62
256
6
ByLayer
370
18
48
1
60
0
100
AcDbSpline
70
4
71
3
72
8
73
4
40
0
40
0
40
0
40
0
40
1
40
1
40
1
40
1
41
1
10
-14.5615187733781
20
-0.236518773378123
30
0
41
1
10
-14.3513710386801
20
-0.0731431542574228
30
0
41
1
10
-14.1400184018759
20
0.0890594833153955
30
0
41
1
10
-13.9273497265336
20
0.249980947161674
30
0
0
SPLINE
5
143
100
AcDbEntity
8
1
62
256
6
ByLayer
370
18
48
1
60
0
100
AcDbSpline
70
4
71
3
72
8
73
4
40
0
40
0
40
0
40
0
40
1
40
1
40
1
40
1
41
1
10
-14.5615187733781
20
-0.236518773378123
30
0
41
1
10
-14.7076620247758
20
-0.382662024775755
30
0
41
1
10
-14.8538226741322
20
-0.528822674132243
30
0
41
1
10
-15
20
-0.675000000000011
30
0
0
SPLINE
5
144
100
AcDbEntity
8
1
62
256
6
ByLayer
370
18
48
1
60
0
100
AcDbSpline
70
4
71
3
72
8
73
4
40
0
40
0
40
0
40
0
40
1
40
1
40
1
40
1
41
1
10
7.81377042360441
20
-0.474999999999994
30
0
41
1
10
7.85488481363851
20
-0.541662508489168
30
0
41
1
10
7.89599665707945
20
-0.608329227881853
30
0
41
1
10
7.93710604868409
20
-0.675000000000011
30
0
0
SPLINE
5
145
100
AcDbEntity
8
1
62
256
6
ByLayer
370
18
48
1
60
0
100
AcDbSpline
70
4
71
3
72
8
73
4
40
0
40
0
40
0
40
0
40
1
40
1
40
1
40
1
41
1
10
6.60065048818453
20
0.324980947161663
30
0
41
1
10
7.00588166662257
20
0.0618153720882901
30
0
41
1
10
7.41022395361139
20
-0.204971331217308
30
0
41
1
10
7.81377042360441
20
-0.474999999999994
30
0
0
SPLINE
5
146
100
AcDbEntity
8
1
62
256
6
ByLayer
370
18
48
1
60
0
100
AcDbSpline
70
4
71
3
72
30
73
26
40
0
40
0
40
0
40
0
40
0.0624999999999762
40
0.0624999999999762
40
0.124999999999952
40
0.124999999999952
40
0.187499999999929
40
0.187499999999929
40
0.218749999999923
40
0.218749999999923
40
0.249999999999918
40
0.249999999999918
40
0.312499999999925
40
0.312499999999925
40
0.374999999999931
40
0.374999999999931
40
0.437499999999938
40
0.437499999999938
40
0.499999999999945
40
0.499999999999945
40
0.624999999999959
40
0.624999999999959
40
0.749999999999973
40
0.749999999999973
40
1
40
1
40
1
40
1
41
1
10
6.22292588125003
20
0.249980947131121
30
0
41
1
10
6.21955595240865
20
0.252914908876164
30
0
41
1
10
6.21636758997769
20
0.255939059647659
30
0
41
1
10
6.21051007557585
20
0.262245767396166
30
0
41
1
10
6.20785466491733
20
0.265522644781726
30
0
41
1
10
6.20351609927599
20
0.272168749535751
30
0
41
1
10
6.20179147637555
20
0.275624633340158
30
0
41
1
10
6.20027976527979
20
0.280687054084183
30
0
41
1
10
6.19995012421148
20
0.282353947498052
30
0
41
1
10
6.19966320953691
20
0.285643710974028
30
0
41
1
10
6.19971056995726
20
0.287281667244514
30
0
41
1
10
6.2004140800575
20
0.291948296582604
30
0
41
1
10
6.20160828920962
20
0.294772273174488
30
0
41
1
10
6.20518386142257
20
0.299949113688854
30
0
41
1
10
6.20751976611061
20
0.302231168235778
30
0
41
1
10
6.2128703529244
20
0.306274866820559
30
0
41
1
10
6.21591426295655
20
0.308054038889253
30
0
41
1
10
6.22230861856278
20
0.311160963692032
30
0
41
1
10
6.2256865724155
20
0.312508448027302
30
0
41
1
10
6.23620682309922
20
0.316109021782751
30
0
41
1
10
6.24372854904979
20
0.31792809148601
30
0
41
1
10
6.2593944540761
20
0.320848040210763
30
0
41
1
10
6.26750018480021
20
0.321930725538721
30
0
41
1
10
6.29208157702354
20
0.324377259675799
30
0
41
1
10
6.30895523289033
20
0.324980947161663
30
0
41
1
10
6.32610759209331
20
0.324980947161663
30
0
0
SPLINE
5
147
100
AcDbEntity
8
1
62
256
6
ByLayer
370
18
48
1
60
0
100
AcDbSpline
70
4
71
3
72
8
73
4
40
0
40
0
40
0
40
0
40
1
40
1
40
1
40
1
41
1
10
6.94370199057298
20
-0.394519052838319
30
0
41
1
10
6.70648353684354
20
-0.177135671773783
30
0
41
1
10
6.46649386217231
20
0.0379233125618441
30
0
41
1
10
6.2229258812701
20
0.249980947141125
30
0
0
SPLINE
5
148
100
AcDbEntity
8
1
62
256
6
ByLayer
370
18
48
1
60
0
100
AcDbSpline
70
4
71
3
72
40
73
36
40
0
40
0
40
0
40
0
40
0.249999999999991
40
0.249999999999991
40
0.374999999999986
40
0.374999999999986
40
0.499999999999981
40
0.499999999999981
40
0.562499999999977
40
0.562499999999977
40
0.624999999999974
40
0.624999999999974
40
0.687499999999971
40
0.687499999999971
40
0.749999999999968
40
0.749999999999968
40
0.781249999999968
40
0.781249999999968
40
0.812499999999968
40
0.812499999999968
40
0.843749999999967
40
0.843749999999967
40
0.874999999999967
40
0.874999999999967
40
0.89062499999997
40
0.89062499999997
40
0.906249999999974
40
0.906249999999974
40
0.921874999999977
40
0.921874999999977
40
0.93749999999998
40
0.93749999999998
40
0.96874999999999
40
0.96874999999999
40
1
40
1
40
1
40
1
41
1
10
6.31056345909113
20
-0.394519052838518
30
0
41
1
10
6.37477160274292
20
-0.411379638935813
30
0
41
1
10
6.43873436581833
20
-0.426175341576084
30
0
41
1
10
6.53429778488416
20
-0.445232963789806
30
0
41
1
10
6.56608797546158
20
-0.451051827023463
30
0
41
1
10
6.62952417807892
20
-0.461442125692656
30
0
41
1
10
6.66117064223556
20
-0.466019194826799
30
0
41
1
10
6.70850783880189
20
-0.471655016990979
30
0
41
1
10
6.72426466292015
20
-0.473326678573358
30
0
41
1
10
6.7557261014864
20
-0.476161098836997
30
0
41
1
10
6.77145110599577
20
-0.477324643893013
30
0
41
1
10
6.80250792684535
20
-0.478976540973378
30
0
41
1
10
6.81787500488093
20
-0.479471186456607
30
0
41
1
10
6.84817943934439
20
-0.479560419705763
30
0
41
1
10
6.86312052932414
20
-0.479163283900618
30
0
41
1
10
6.88505053830161
20
-0.477539240813599
30
0
41
1
10
6.8922792992789
20
-0.476824350812876
30
0
41
1
10
6.90651936764425
20
-0.47492561812976
30
0
41
1
10
6.91354439935401
20
-0.473737864933412
30
0
41
1
10
6.92700114264716
20
-0.470750396595264
30
0
41
1
10
6.93346671813322
20
-0.468952428293051
30
0
41
1
10
6.94560309325294
20
-0.464430091165326
30
0
41
1
10
6.9513232003797
20
-0.461676155240184
30
0
41
1
10
6.95851683438016
20
-0.456587871636742
30
0
41
1
10
6.96069380192048
20
-0.454727700184236
30
0
41
1
10
6.96446307291583
20
-0.450572101252163
30
0
41
1
10
6.9660284372105
20
-0.448294122549783
30
0
41
1
10
6.96829725749961
20
-0.443380727673969
30
0
41
1
10
6.96901235433305
20
-0.440690505253485
30
0
41
1
10
6.96943324881519
20
-0.435114089853443
30
0
41
1
10
6.96915785814377
20
-0.432219602519865
30
0
41
1
10
6.96690761888635
20
-0.423224118274902
30
0
41
1
10
6.96353664392529
20
-0.417072710650359
30
0
41
1
10
6.9547696385205
20
-0.405342643436654
30
0
41
1
10
6.94949560394613
20
-0.39982823196766
30
0
41
1
10
6.94370199057298
20
-0.394519052838319
30
0
0
SPLINE
5
149
100
AcDbEntity
8
1
62
256
6
ByLayer
370
18
48
1
60
0
100
AcDbSpline
70
4
71
3
72
8
73
4
40
0
40
0
40
0
40
0
40
1
40
1
40
1
40
1
41
1
10
3.02046224885069
20
0.249980947161674
30
0
41
1
10
4.1359861011274
20
0.107222523982614
30
0
41
1
10
5.23174171602679
20
-0.111228400779481
30
0
41
1
10
6.31056345909118
20
-0.394519052838035
30
0
0
SPLINE
5
14A
100
AcDbEntity
8
1
62
256
6
ByLayer
370
18
48
1
60
0
100
AcDbSpline
70
4
71
3
72
14
73
10
40
0
40
0
40
0
40
0
40
0.25
40
0.25
40
0.5
40
0.5
40
0.75
40
0.75
40
1
40
1
40
1
40
1
41
1
10
1.73594520006452
20
0.324980947161691
30
0
41
1
10
1.84309474173762
20
0.324980947161691
30
0
41
1
10
1.95022075456774
20
0.323452236129214
30
0
41
1
10
2.16441448633978
20
0.317526654577222
30
0
41
1
10
2.27148283436821
20
0.313119988055348
30
0
41
1
10
2.48557990191409
20
0.301179376033105
30
0
41
1
10
2.59260836335665
20
0.293649067375753
30
0
41
1
10
2.80666688413962
20
0.274872902970941
30
0
41
1
10
2.91367618098349
20
0.263646823185127
30
0
41
1
10
3.02046224885069
20
0.249980947161873
30
0
0
SPLINE
5
14B
100
AcDbEntity
8
1
62
256
6
ByLayer
370
18
48
1
60
0
100
AcDbSpline
70
4
71
3
72
14
73
10
40
0
40
0
40
0
40
0
40
0.25
40
0.25
40
0.5
40
0.5
40
0.75
40
0.75
40
1
40
1
40
1
40
1
41
1
10
-3.02046224885069
20
0.249980947161674
30
0
41
1
10
-2.91364525025705
20
0.263650781524092
30
0
41
1
10
-2.80678930238935
20
0.274859400504965
30
0
41
1
10
-2.5929587792904
20
0.293621089038169
30
0
41
1
10
-2.48598486060513
20
0.301152741664794
30
0
41
1
10
-2.27190023278158
20
0.31310074243703
30
0
41
1
10
-2.16478964220232
20
0.317513647984981
30
0
41
1
10
-1.95042328219981
20
0.323449254272589
30
0
41
1
10
-1.84314979610454
20
0.324980947161777
30
0
41
1
10
-1.73594520006452
20
0.324980947161805
30
0
0
SPLINE
5
14C
100
AcDbEntity
8
1
62
256
6
ByLayer
370
18
48
1
60
0
100
AcDbSpline
70
4
71
3
72
8
73
4
40
0
40
0
40
0
40
0
40
1
40
1
40
1
40
1
41
1
10
-6.31056345909118
20
-0.394519052838035
30
0
41
1
10
-5.23174171602679
20
-0.111228400779481
30
0
41
1
10
-4.1359861011274
20
0.107222523982614
30
0
41
1
10
-3.02046224885069
20
0.249980947161674
30
0
0
SPLINE
5
14D
100
AcDbEntity
8
1
62
256
6
ByLayer
370
18
48
1
60
0
100
AcDbSpline
70
4
71
3
72
38
73
34
40
0
40
0
40
0
40
0
40
0.0312500000000112
40
0.0312500000000112
40
0.0468750000000151
40
0.0468750000000151
40
0.0625000000000189
40
0.0625000000000189
40
0.0781250000000228
40
0.0781250000000228
40
0.0937500000000266
40
0.0937500000000266
40
0.125000000000034
40
0.125000000000034
40
0.140625000000036
40
0.140625000000036
40
0.156250000000038
40
0.156250000000038
40
0.187500000000038
40
0.187500000000038
40
0.250000000000035
40
0.250000000000035
40
0.312500000000032
40
0.312500000000032
40
0.375000000000029
40
0.375000000000029
40
0.500000000000024
40
0.500000000000024
40
0.625000000000018
40
0.625000000000018
40
0.750000000000013
40
0.750000000000013
40
1
40
1
40
1
40
1
41
1
10
-6.9437019905853
20
-0.394519052844345
30
0
41
1
10
-6.94950896079736
20
-0.399840471978024
30
0
41
1
10
-6.95487075366258
20
-0.405468539491409
30
0
41
1
10
-6.96135311381423
20
-0.41415595474092
30
0
41
1
10
-6.9632594025644
20
-0.417097475848209
30
0
41
1
10
-6.96640667044279
20
-0.423099880063631
30
0
41
1
10
-6.96761586971716
20
-0.426116302508717
30
0
41
1
10
-6.96912327074104
20
-0.432023475756551
30
0
41
1
10
-6.96942508964194
20
-0.434972492094005
30
0
41
1
10
-6.96904305703399
20
-0.440519738407147
30
0
41
1
10
-6.96837681670823
20
-0.443136098555243
30
0
41
1
10
-6.96505057587058
20
-0.450546752278541
30
0
41
1
10
-6.96127333728383
20
-0.454550304275358
30
0
41
1
10
-6.95423460303806
20
-0.459654605417683
30
0
41
1
10
-6.95163771381635
20
-0.461207412587328
30
0
41
1
10
-6.94617531050902
20
-0.464004555023422
30
0
41
1
10
-6.9432963611988
20
-0.465259768495429
30
0
41
1
10
-6.93431043459861
20
-0.468687677725654
30
0
41
1
10
-6.92784789138967
20
-0.470525557036069
30
0
41
1
10
-6.90791400682033
20
-0.4750543513058
30
0
41
1
10
-6.89376528285264
20
-0.476844350448005
30
0
41
1
10
-6.86452894473786
20
-0.479103966091572
30
0
41
1
10
-6.84957718699219
20
-0.479534942910078
30
0
41
1
10
-6.81927766290109
20
-0.479502300680395
30
0
41
1
10
-6.80391672915488
20
-0.479030439617617
30
0
41
1
10
-6.75736948054711
20
-0.476614959194904
30
0
41
1
10
-6.72600609435827
20
-0.473707937007589
30
0
41
1
10
-6.66283482363753
20
-0.466246113725987
30
0
41
1
10
-6.63100511187719
20
-0.461668317288456
30
0
41
1
10
-6.56705479948486
20
-0.45122594227513
30
0
41
1
10
-6.53505244750029
20
-0.445376954980162
30
0
41
1
10
-6.4389694704841
20
-0.426235064493312
30
0
41
1
10
-6.37481328661519
20
-0.411390584813802
30
0
41
1
10
-6.31056345909113
20
-0.394519052838348
30
0
0
SPLINE
5
14E
100
AcDbEntity
8
1
62
256
6
ByLayer
370
18
48
1
60
0
100
AcDbSpline
70
4
71
3
72
8
73
4
40
0
40
0
40
0
40
0
40
1
40
1
40
1
40
1
41
1
10
-6.2229258812701
20
0.249980947141125
30
0
41
1
10
-6.46649386217525
20
0.0379233125592862
30
0
41
1
10
-6.70648353684932
20
-0.177135671778956
30
0
41
1
10
-6.94370199058156
20
-0.394519052846192
30
0
0
SPLINE
5
14F
100
AcDbEntity
8
1
62
256
6
ByLayer
370
18
48
1
60
0
100
AcDbSpline
70
4
71
3
72
28
73
24
40
0
40
0
40
0
40
0
40
0.250000000000007
40
0.250000000000007
40
0.375000000000006
40
0.375000000000006
40
0.500000000000005
40
0.500000000000005
40
0.562500000000004
40
0.562500000000004
40
0.625000000000004
40
0.625000000000004
40
0.687500000000003
40
0.687500000000003
40
0.750000000000002
40
0.750000000000002
40
0.812500000000002
40
0.812500000000002
40
0.875000000000001
40
0.875000000000001
40
0.937500000000001
40
0.937500000000001
40
1
40
1
40
1
40
1
41
1
10
-6.32610759209331
20
0.324980947161663
30
0
41
1
10
-6.30894164051676
20
0.324980947161663
30
0
41
1
10
-6.2920635134449
20
0.324375867069932
30
0
41
1
10
-6.26749588936985
20
0.321930095246671
30
0
41
1
10
-6.25943326740045
20
0.320855188810611
30
0
41
1
10
-6.24369435696329
20
0.317921804204587
30
0
41
1
10
-6.23609002146529
20
0.316080959786547
30
0
41
1
10
-6.22550351037793
20
0.312439632077798
30
0
41
1
10
-6.22210698144585
20
0.311076075105149
30
0
41
1
10
-6.21568609914917
20
0.307929189855884
30
0
41
1
10
-6.21267351534166
20
0.306146729630399
30
0
41
1
10
-6.20738715966203
20
0.302109007415226
30
0
41
1
10
-6.20507139005912
20
0.299823372219635
30
0
41
1
10
-6.20153703134238
20
0.294630037775505
30
0
41
1
10
-6.20034973300679
20
0.291754064168089
30
0
41
1
10
-6.1994771564062
20
0.285483953660503
30
0
41
1
10
-6.19979992398484
20
0.282212586931081
30
0
41
1
10
-6.20188043678124
20
0.275412687019298
30
0
41
1
10
-6.20359999834165
20
0.272014335422199
30
0
41
1
10
-6.20799059239903
20
0.265341649736172
30
0
41
1
10
-6.21065250989122
20
0.262082766471423
30
0
41
1
10
-6.21643658084923
20
0.2558747816623
30
0
41
1
10
-6.21958846278596
20
0.252886604389005
30
0
41
1
10
-6.22292588127033
20
0.249980947140926
30
0
0
SPLINE
5
150
100
AcDbEntity
8
1
62
256
6
ByLayer
370
18
48
1
60
0
100
AcDbSpline
70
4
71
3
72
17
73
13
40
0
40
0
40
0
40
0
40
0.250000000000002
40
0.500000000000003
40
0.500000000000003
40
0.625000000000002
40
0.625000000000002
40
0.750000000000002
40
0.750000000000002
40
0.875000000000001
40
0.875000000000001
40
1
40
1
40
1
40
1
41
1
10
-7.15410175340969
20
0.249980947161816
30
0
41
1
10
-7.11949273474029
20
0.260870976065661
30
0
41
1
10
-7.05026156071183
20
0.280409342926959
30
0
41
1
10
-6.98098651916527
20
0.295834974764006
30
0
41
1
10
-6.9290120046367
20
0.305730156657205
30
0
41
1
10
-6.91168423969094
20
0.308745403149373
30
0
41
1
10
-6.87726105822415
20
0.314112278634411
30
0
41
1
10
-6.86013732462261
20
0.31647039455359
30
0
41
1
10
-6.82609666353447
20
0.320433354681313
30
0
41
1
10
-6.80917906795581
20
0.322040380930361
30
0
41
1
10
-6.77560867949246
20
0.324310745266985
30
0
41
1
10
-6.75895378391422
20
0.324980947161606
30
0
41
1
10
-6.74249188881707
20
0.324980947161663
30
0
0
SPLINE
5
151
100
AcDbEntity
8
1
62
256
6
ByLayer
370
18
48
1
60
0
100
AcDbSpline
70
4
71
3
72
8
73
4
40
0
40
0
40
0
40
0
40
1
40
1
40
1
40
1
41
1
10
-8.98692851463423
20
-0.394519052838319
30
0
41
1
10
-8.384783437259
20
-0.160922546217108
30
0
41
1
10
-7.77427580892314
20
0.0548377836275904
30
0
41
1
10
-7.15410175340971
20
0.249980947161674
30
0
0
SPLINE
5
152
100
AcDbEntity
8
1
62
256
6
ByLayer
370
18
48
1
60
0
100
AcDbSpline
70
4
71
3
72
38
73
34
40
0
40
0
40
0
40
0
40
0.0312499999999891
40
0.0312499999999891
40
0.0624999999999782
40
0.0624999999999782
40
0.0937499999999674
40
0.0937499999999674
40
0.124999999999956
40
0.124999999999956
40
0.140624999999954
40
0.140624999999954
40
0.156249999999952
40
0.156249999999952
40
0.187499999999954
40
0.187499999999954
40
0.218749999999956
40
0.218749999999956
40
0.249999999999958
40
0.249999999999958
40
0.312499999999962
40
0.312499999999962
40
0.374999999999967
40
0.374999999999967
40
0.437499999999971
40
0.437499999999971
40
0.499999999999975
40
0.499999999999975
40
0.62499999999998
40
0.62499999999998
40
0.749999999999985
40
0.749999999999985
40
1
40
1
40
1
40
1
41
1
10
-9.39538846339337
20
-0.394519052837154
30
0
41
1
10
-9.39931252043964
20
-0.398885595145714
30
0
41
1
10
-9.40294265258267
20
-0.403307302163142
30
0
41
1
10
-9.40943685546671
20
-0.41229412988929
30
0
41
1
10
-9.41232312472627
20
-0.416909228814092
30
0
41
1
10
-9.41685123823549
20
-0.425966268108198
30
0
41
1
10
-9.41852742540985
20
-0.430476184279087
30
0
41
1
10
-9.42034760074219
20
-0.439106172816139
30
0
41
1
10
-9.42048798744298
20
-0.44314609700092
30
0
41
1
10
-9.41953665683756
20
-0.448791861472614
30
0
41
1
10
-9.41901882100981
20
-0.450615689000983
30
0
41
1
10
-9.41763416504909
20
-0.454029340103233
30
0
41
1
10
-9.41676860092079
20
-0.455629436905042
30
0
41
1
10
-9.41370522919763
20
-0.460142637892375
30
0
41
1
10
-9.41101084625686
20
-0.462790271628421
30
0
41
1
10
-9.40475722197043
20
-0.467329854200074
30
0
41
1
10
-9.40121470148263
20
-0.469229096419326
30
0
41
1
10
-9.39349606281391
20
-0.472464916766313
30
0
41
1
10
-9.38930097964762
20
-0.473801534714227
30
0
41
1
10
-9.37622144042925
20
-0.477070148566497
30
0
41
1
10
-9.36677891891844
20
-0.478317730661246
30
0
41
1
10
-9.34696068021994
20
-0.479621526876542
30
0
41
1
10
-9.33658051127524
20
-0.479660016760334
30
0
41
1
10
-9.31547973767194
20
-0.478868132934792
30
0
41
1
10
-9.30470496885984
20
-0.478037327116795
30
0
41
1
10
-9.28280754864188
20
-0.475708447562795
30
0
41
1
10
-9.27164840317904
20
-0.474201921571563
30
0
41
1
10
-9.23811409009988
20
-0.468915971092088
30
0
41
1
10
-9.21561276810894
20
-0.464384190703157
30
0
41
1
10
-9.17039514074557
20
-0.453877630445248
30
0
41
1
10
-9.14767753970108
20
-0.447892731526878
30
0
41
1
10
-9.07924677772213
20
-0.428095750861701
30
0
41
1
10
-9.0332619564788
20
-0.412493674837833
30
0
41
1
10
-8.98692851463424
20
-0.394519052838433
30
0
0
SPLINE
5
153
100
AcDbEntity
8
1
62
256
6
ByLayer
370
18
48
1
60
0
100
AcDbSpline
70
4
71
3
72
8
73
4
40
0
40
0
40
0
40
0
40
1
40
1
40
1
40
1
41
1
10
-8.81287846405296
20
0.249980947156075
30
0
41
1
10
-9.0077785167926
20
0.0356424895420275
30
0
41
1
10
-9.20190632438599
20
-0.179219444300429
30
0
41
1
10
-9.3953884633876
20
-0.394519052838319
30
0
0
SPLINE
5
154
100
AcDbEntity
8
1
62
256
6
ByLayer
370
18
48
1
60
0
100
AcDbSpline
70
4
71
3
72
28
73
24
40
0
40
0
40
0
40
0
40
0.250000000000001
40
0.250000000000001
40
0.375000000000001
40
0.375000000000001
40
0.500000000000001
40
0.500000000000001
40
0.562500000000001
40
0.562500000000001
40
0.625000000000001
40
0.625000000000001
40
0.6875
40
0.6875
40
0.75
40
0.75
40
0.8125
40
0.8125
40
0.875
40
0.875
40
0.9375
40
0.9375
40
1
40
1
40
1
40
1
41
1
10
-8.86408179867618
20
0.324980947162231
30
0
41
1
10
-8.85129538935948
20
0.32498094716226
30
0
41
1
10
-8.83894481110525
20
0.324132477893784
30
0
41
1
10
-8.82221699514493
20
0.32075719148483
30
0
41
1
10
-8.81692618508805
20
0.319278475547179
30
0
41
1
10
-8.80719346932879
20
0.315274284744561
30
0
41
1
10
-8.80288537420074
20
0.312803317823807
30
0
41
1
10
-8.79764866346821
20
0.308104402530773
30
0
41
1
10
-8.79609940480202
20
0.306352422583785
30
0
41
1
10
-8.79358803963606
20
0.302536520574051
30
0
41
1
10
-8.79261865796583
20
0.30047339121117
30
0
41
1
10
-8.79132427301086
20
0.295998566424203
30
0
41
1
10
-8.79100712746298
20
0.293571945582585
30
0
41
1
10
-8.79108275102195
20
0.288549776175699
30
0
41
1
10
-8.79146539182062
20
0.285933125165428
30
0
41
1
10
-8.79290203059389
20
0.280494627087478
30
0
41
1
10
-8.79395351452456
20
0.277701759323776
30
0
41
1
10
-8.79656638697138
20
0.272147870695989
30
0
41
1
10
-8.79813432448751
20
0.269361345622173
30
0
41
1
10
-8.80171509926663
20
0.263772010194657
30
0
41
1
10
-8.80374131425189
20
0.260953956620313
30
0
41
1
10
-8.80809426650329
20
0.255412160239644
30
0
41
1
10
-8.8104237270162
20
0.25268050799562
30
0
41
1
10
-8.81287846405201
20
0.249980947155791
30
0
0
SPLINE
5
155
100
AcDbEntity
8
1
62
256
6
ByLayer
370
18
48
1
60
0
100
AcDbSpline
70
4
71
3
72
18
73
14
40
0
40
0
40
0
40
0
40
0.25
40
0.25
40
0.5
40
0.5
40
0.625
40
0.625
40
0.75
40
0.75
40
0.875
40
0.875
40
1
40
1
40
1
40
1
41
1
10
-9.42014604979882
20
0.249980947161674
30
0
41
1
10
-9.39555423460408
20
0.260573449959651
30
0
41
1
10
-9.3709080164588
20
0.270230194328264
30
0
41
1
10
-9.32201317218862
20
0.287558568041931
30
0
41
1
10
-9.29769042100246
20
0.295264739422492
30
0
41
1
10
-9.2614134877624
20
0.305221378626044
30
0
41
1
10
-9.24935609579742
20
0.308270592014935
30
0
41
1
10
-9.22532162877248
20
0.313754324838584
30
0
41
1
10
-9.21330961472533
20
0.316195905728222
30
0
41
1
10
-9.18954659680884
20
0.320303380454163
30
0
41
1
10
-9.17785494091434
20
0.321962244274374
30
0
41
1
10
-9.15494813399803
20
0.324297936899598
30
0
41
1
10
-9.1437298608829
20
0.324980947161151
30
0
41
1
10
-9.13284665392273
20
0.324980947161691
30
0
0
SPLINE
5
156
100
AcDbEntity
8
1
62
256
6
ByLayer
370
18
48
1
60
0
100
AcDbSpline
70
4
71
3
72
8
73
4
40
0
40
0
40
0
40
0
40
1
40
1
40
1
40
1
41
1
10
-10.8261977204866
20
-0.394519052838319
30
0
41
1
10
-10.3635024894917
20
-0.169886976943701
30
0
41
1
10
-9.89509800998097
20
0.045403532794694
30
0
41
1
10
-9.42014604979882
20
0.249980947161674
30
0
0
SPLINE
5
157
100
AcDbEntity
8
1
62
256
6
ByLayer
370
18
48
1
60
0
100
AcDbSpline
70
4
71
3
72
39
73
35
40
0
40
0
40
0
40
0
40
0.0624999999999838
40
0.0624999999999838
40
0.0937499999999786
40
0.0937499999999786
40
0.124999999999973
40
0.124999999999973
40
0.156249999999968
40
0.156249999999968
40
0.187499999999963
40
0.187499999999963
40
0.218749999999958
40
0.218749999999958
40
0.249999999999952
40
0.281249999999947
40
0.281249999999947
40
0.312499999999942
40
0.312499999999942
40
0.374999999999945
40
0.374999999999945
40
0.437499999999948
40
0.437499999999948
40
0.499999999999951
40
0.499999999999951
40
0.562499999999954
40
0.562499999999954
40
0.624999999999957
40
0.624999999999957
40
0.749999999999971
40
0.749999999999971
40
0.874999999999986
40
0.874999999999986
40
1
40
1
40
1
40
1
41
1
10
-11.1279670839746
20
-0.394519052838319
30
0
41
1
10
-11.1344994067131
20
-0.402327507790147
30
0
41
1
10
-11.1403381258876
20
-0.410305290730918
30
0
41
1
10
-11.147148000852
20
-0.421949799605244
30
0
41
1
10
-11.1491042633321
20
-0.425789142768139
30
0
41
1
10
-11.1522661294609
20
-0.433367252098947
30
0
41
1
10
-11.1534486470362
20
-0.43707126200934
30
0
41
1
10
-11.1548792054188
20
-0.444063384204014
30
0
41
1
10
-11.1551425423024
20
-0.447385299333632
30
0
41
1
10
-11.1547000127545
20
-0.453656662833254
30
0
41
1
10
-11.1540017219895
20
-0.456500109917954
30
0
41
1
10
-11.1517438299298
20
-0.461655824862362
30
0
41
1
10
-11.1501654640366
20
-0.463986118035706
30
0
41
1
10
-11.1462927930953
20
-0.468066856897167
30
0
41
1
10
-11.1417564108312
20
-0.471545769909596
30
0
41
1
10
-11.1361417146117
20
-0.474049581821959
30
0
41
1
10
-11.1300670569308
20
-0.476138633700827
30
0
41
1
10
-11.1267820133678
20
-0.476978430843047
30
0
41
1
10
-11.1164767895555
20
-0.478927144527404
30
0
41
1
10
-11.1090219945275
20
-0.479486703751746
30
0
41
1
10
-11.0932713386151
20
-0.479548725267819
30
0
41
1
10
-11.0849977650711
20
-0.479041057890981
30
0
41
1
10
-11.0681342039558
20
-0.477241484467243
30
0
41
1
10
-11.0594969792525
20
-0.475947166332247
30
0
41
1
10
-11.0418937770116
20
-0.472731225930374
30
0
41
1
10
-11.0329270751786
20
-0.47080817215442
30
0
41
1
10
-11.0147120130597
20
-0.466427265972556
30
0
41
1
10
-11.0054357249662
20
-0.463959959019945
30
0
41
1
10
-10.9775778122249
20
-0.455947419880573
30
0
41
1
10
-10.958882884293
20
-0.449784789803459
30
0
41
1
10
-10.9212952504409
20
-0.436148777585913
30
0
41
1
10
-10.9024018906364
20
-0.428670682946205
30
0
41
1
10
-10.8644350163225
20
-0.412508030361977
30
0
41
1
10
-10.8453613808028
20
-0.403822742416708
30
0
41
1
10
-10.8261977204866
20
-0.394519052838319
30
0
0
SPLINE
5
158
100
AcDbEntity
8
1
62
256
6
ByLayer
370
18
48
1
60
0
100
AcDbSpline
70
4
71
3
72
8
73
4
40
0
40
0
40
0
40
0
40
1
40
1
40
1
40
1
41
1
10
-10.5881465384974
20
0.249980947159912
30
0
41
1
10
-10.7682360652239
20
0.0352414300963915
30
0
41
1
10
-10.9481691234914
20
-0.179596378150762
30
0
41
1
10
-11.1279670839745
20
-0.394519052838319
30
0
0
SPLINE
5
159
100
AcDbEntity
8
1
62
256
6
ByLayer
370
18
48
1
60
0
100
AcDbSpline
70
4
71
3
72
22
73
18
40
0
40
0
40
0
40
0
40
0.125
40
0.125
40
0.25
40
0.25
40
0.375
40
0.375
40
0.5
40
0.5
40
0.625
40
0.625
40
0.75
40
0.75
40
0.875
40
0.875
40
1
40
1
40
1
40
1
41
1
10
-10.6124575382183
20
0.324980947163198
30
0
41
1
10
-10.6072496942067
20
0.324980947163254
30
0
41
1
10
-10.6022321565404
20
0.32471243842005
30
0
41
1
10
-10.5926877142222
20
0.323486343691656
30
0
41
1
10
-10.5882140101569
20
0.322533301974119
30
0
41
1
10
-10.5801191826616
20
0.319788199103215
30
0
41
1
10
-10.5764671398953
20
0.317988035234293
30
0
41
1
10
-10.5703512144502
20
0.313281206584975
30
0
41
1
10
-10.5679631001511
20
0.310436416643597
30
0
41
1
10
-10.5648541823852
20
0.303528393936119
30
0
41
1
10
-10.5642045954565
20
0.299573635406631
30
0
41
1
10
-10.5647901952416
20
0.290809930744786
30
0
41
1
10
-10.5660666715437
20
0.285914845664848
30
0
41
1
10
-10.5701679829123
20
0.275969703602755
30
0
41
1
10
-10.572985089628
20
0.27083784852482
30
0
41
1
10
-10.5798645746344
20
0.260343891665031
30
0
41
1
10
-10.5838159736942
20
0.255144731035841
30
0
41
1
10
-10.588146538497
20
0.249980947159827
30
0
0
SPLINE
5
15A
100
AcDbEntity
8
1
62
256
6
ByLayer
370
18
48
1
60
0
100
AcDbSpline
70
4
71
3
72
18
73
14
40
0
40
0
40
0
40
0
40
0.250000000000021
40
0.250000000000021
40
0.37500000000002
40
0.37500000000002
40
0.500000000000019
40
0.500000000000019
40
0.750000000000017
40
0.750000000000017
40
0.875000000000008
40
0.875000000000008
40
1
40
1
40
1
40
1
41
1
10
-11.0361737618139
20
0.249980947161674
30
0
41
1
10
-11.0164600587408
20
0.260339148990965
30
0
41
1
10
-10.9967579988524
20
0.269872232720218
30
0
41
1
10
-10.9672176050399
20
0.282909900397783
30
0
41
1
10
-10.9573700935551
20
0.28704319003694
30
0
41
1
10
-10.9378759446479
20
0.294780090670855
30
0
41
1
10
-10.9282051094205
20
0.298394950509135
30
0
41
1
10
-10.8994387758157
20
0.308419743129093
30
0
41
1
10
-10.8805796347571
20
0.314041022539698
30
0
41
1
10
-10.8529592725556
20
0.320261231068514
30
0
41
1
10
-10.8438730220196
20
0.321952441620653
30
0
41
1
10
-10.8264247732998
20
0.324303802427465
30
0
41
1
10
-10.8180111708273
20
0.324980947160952
30
0
41
1
10
-10.8100221617362
20
0.324980947161663
30
0
0
SPLINE
5
15B
100
AcDbEntity
8
1
62
256
6
ByLayer
370
18
48
1
60
0
100
AcDbSpline
70
4
71
3
72
8
73
4
40
0
40
0
40
0
40
0
40
1
40
1
40
1
40
1
41
1
10
-12.21262584537
20
-0.394519052838319
30
0
41
1
10
-11.8249154221808
20
-0.173606852417663
30
0
41
1
10
-11.4329616463351
20
0.0414960685943413
30
0
41
1
10
-11.0361737618139
20
0.249980947161674
30
0
0
SPLINE
5
15C
100
AcDbEntity
8
1
62
256
6
ByLayer
370
18
48
1
60
0
100
AcDbSpline
70
4
71
3
72
34
73
30
40
0
40
0
40
0
40
0
40
0.0624999999999826
40
0.0624999999999826
40
0.0937499999999739
40
0.0937499999999739
40
0.124999999999965
40
0.124999999999965
40
0.187499999999955
40
0.187499999999955
40
0.249999999999945
40
0.249999999999945
40
0.281249999999942
40
0.281249999999942
40
0.312499999999938
40
0.312499999999938
40
0.374999999999945
40
0.374999999999945
40
0.499999999999965
40
0.499999999999965
40
0.562499999999975
40
0.562499999999975
40
0.624999999999985
40
0.624999999999985
40
0.74999999999999
40
0.74999999999999
40
0.874999999999995
40
0.874999999999995
40
1
40
1
40
1
40
1
41
1
10
-12.4454802424852
20
-0.394519052838319
30
0
41
1
10
-12.4513585152093
20
-0.401708771010675
30
0
41
1
10
-12.4567374379799
20
-0.408956814071246
30
0
41
1
10
-12.4635248995896
20
-0.419510621874565
30
0
41
1
10
-12.4655825007594
20
-0.422985527209846
30
0
41
1
10
-12.4692288824021
20
-0.429837099363681
30
0
41
1
10
-12.470827460083
20
-0.433240182207101
30
0
41
1
10
-12.4747089449443
20
-0.443053990405275
30
0
41
1
10
-12.4760958204851
20
-0.449081203462839
30
0
41
1
10
-12.4761223246412
20
-0.459769092372454
30
0
41
1
10
-12.4747761141799
20
-0.464180222176765
30
0
41
1
10
-12.4709433497243
20
-0.469557994706776
30
0
41
1
10
-12.4693513853986
20
-0.471142526978696
30
0
41
1
10
-12.4657065335108
20
-0.473834537101368
30
0
41
1
10
-12.4636450953421
20
-0.47495820558143
30
0
41
1
10
-12.4568329303758
20
-0.477746501187454
30
0
41
1
10
-12.4514152534257
20
-0.478821439948945
30
0
41
1
10
-12.4339597259438
20
-0.480156666608053
30
0
41
1
10
-12.4205497597282
20
-0.478701530894455
30
0
41
1
10
-12.3987563531804
20
-0.474318017873884
30
0
41
1
10
-12.3912507161594
20
-0.47248177544077
30
0
41
1
10
-12.3760079072084
20
-0.46823433620375
30
0
41
1
10
-12.3682424193965
20
-0.465816634568256
30
0
41
1
10
-12.3445735365322
20
-0.457805604881315
30
0
41
1
10
-12.3282608368064
20
-0.451436957631131
30
0
41
1
10
-12.2956045495882
20
-0.437386982382037
30
0
41
1
10
-12.2791555920721
20
-0.42966862177019
30
0
41
1
10
-12.2460474242468
20
-0.413010889696807
30
0
41
1
10
-12.2293879167132
20
-0.404069856331262
30
0
41
1
10
-12.21262584537
20
-0.394519052838319
30
0
0
SPLINE
5
15D
100
AcDbEntity
8
1
62
256
6
ByLayer
370
18
48
1
60
0
100
AcDbSpline
70
4
71
3
72
8
73
4
40
0
40
0
40
0
40
0
40
1
40
1
40
1
40
1
41
1
10
-11.9185094462047
20
0.249980947160964
30
0
41
1
10
-12.0941736247425
20
0.0351520577178803
30
0
41
1
10
-12.2698302504261
20
-0.179681463779445
30
0
41
1
10
-12.4454802424852
20
-0.394519052838319
30
0
0
SPLINE
5
15E
100
AcDbEntity
8
1
62
256
6
ByLayer
370
18
48
1
60
0
100
AcDbSpline
70
4
71
3
72
24
73
20
40
0
40
0
40
0
40
0
40
0.124999999999996
40
0.124999999999996
40
0.249999999999991
40
0.249999999999991
40
0.374999999999987
40
0.374999999999987
40
0.499999999999982
40
0.499999999999982
40
0.624999999999978
40
0.624999999999978
40
0.687499999999978
40
0.687499999999978
40
0.749999999999978
40
0.749999999999978
40
0.874999999999989
40
0.874999999999989
40
1
40
1
40
1
40
1
41
1
10
-11.9237814416149
20
0.324980947161691
30
0
41
1
10
-11.9194457489922
20
0.324980947161691
30
0
41
1
10
-11.9153564824701
20
0.32465661851694
30
0
41
1
10
-11.9079485979119
20
0.323240679223716
30
0
41
1
10
-11.9046064730613
20
0.32215189995452
30
0
41
1
10
-11.8988364705386
20
0.3190154121788
30
0
41
1
10
-11.8964381114455
20
0.31696313099431
30
0
41
1
10
-11.8929836812652
20
0.311879900363635
30
0
41
1
10
-11.8919008982491
20
0.30877759856898
30
0
41
1
10
-11.891274090198
20
0.301756712238841
30
0
41
1
10
-11.8916984067637
20
0.297837448784492
30
0
41
1
10
-11.8934309418025
20
0.291353045960363
30
0
41
1
10
-11.8941940114109
20
0.289092391428142
30
0
41
1
10
-11.8960240148196
20
0.284507876358191
30
0
41
1
10
-11.8970946969525
20
0.282167946486851
30
0
41
1
10
-11.9007316163329
20
0.275018276597791
30
0
41
1
10
-11.9037537286027
20
0.270033424617793
30
0
41
1
10
-11.9105940690077
20
0.260025649179823
30
0
41
1
10
-11.9143984087425
20
0.255008549371979
30
0
41
1
10
-11.9185094462045
20
0.249980947160964
30
0
0
SPLINE
5
15F
100
AcDbEntity
8
1
62
256
6
ByLayer
370
18
48
1
60
0
100
AcDbSpline
70
4
71
3
72
18
73
14
40
0
40
0
40
0
40
0
40
0.250000000000018
40
0.250000000000018
40
0.375000000000018
40
0.375000000000018
40
0.500000000000018
40
0.500000000000018
40
0.750000000000001
40
0.750000000000001
40
0.875000000000001
40
0.875000000000001
40
1
40
1
40
1
40
1
41
1
10
-12.2619374897427
20
0.249980947161674
30
0
41
1
10
-12.245175409905
20
0.260187306071543
30
0
41
1
10
-12.2284787618341
20
0.26964953894975
30
0
41
1
10
-12.2035319977382
20
0.282666955587615
30
0
41
1
10
-12.1952158399689
20
0.286815352002606
30
0
41
1
10
-12.1788139447434
20
0.294590398040555
30
0
41
1
10
-12.1707074902565
20
0.298228829183756
30
0
41
1
10
-12.1466956039985
20
0.308331973172614
30
0
41
1
10
-12.1310821815718
20
0.314018794774057
30
0
41
1
10
-12.1085189695399
20
0.320307354028273
30
0
41
1
10
-12.1012908516913
20
0.321980394436167
30
0
41
1
10
-12.0875370462495
20
0.324314999120048
30
0
41
1
10
-12.081008255091
20
0.324980947161094
30
0
41
1
10
-12.0749439034001
20
0.324980947161691
30
0
0
SPLINE
5
160
100
AcDbEntity
8
1
62
256
6
ByLayer
370
18
48
1
60
0
100
AcDbSpline
70
4
71
3
72
8
73
4
40
0
40
0
40
0
40
0
40
1
40
1
40
1
40
1
41
1
10
-13.2887133686798
20
-0.394519052838319
30
0
41
1
10
-12.9498764087536
20
-0.175597332640279
30
0
41
1
10
-12.6077628641245
20
0.0394093519147987
30
0
41
1
10
-12.2619374897427
20
0.249980947161674
30
0
0
SPLINE
5
161
100
AcDbEntity
8
1
62
256
6
ByLayer
370
18
48
1
60
0
100
AcDbSpline
70
4
71
3
72
38
73
34
40
0
40
0
40
0
40
0
40
0.0625000000000038
40
0.0625000000000038
40
0.125000000000008
40
0.125000000000008
40
0.156250000000012
40
0.156250000000012
40
0.187500000000016
40
0.187500000000016
40
0.250000000000023
40
0.250000000000023
40
0.281250000000032
40
0.281250000000032
40
0.312500000000042
40
0.312500000000042
40
0.375000000000046
40
0.375000000000046
40
0.406250000000051
40
0.406250000000051
40
0.437500000000056
40
0.437500000000056
40
0.50000000000005
40
0.50000000000005
40
0.562500000000044
40
0.562500000000044
40
0.625000000000037
40
0.625000000000037
40
0.750000000000025
40
0.750000000000025
40
0.875000000000012
40
0.875000000000012
40
1
40
1
40
1
40
1
41
1
10
-13.4702748862137
20
-0.394519052838319
30
0
41
1
10
-13.4757943146983
20
-0.401252651663839
30
0
41
1
10
-13.4809501781441
20
-0.407998820378509
30
0
41
1
10
-13.4900398258229
20
-0.421090866571319
30
0
41
1
10
-13.4939949832354
20
-0.427453269472068
30
0
41
1
10
-13.4988176392413
20
-0.436652706244104
30
0
41
1
10
-13.5002379631945
20
-0.439666430659713
30
0
41
1
10
-13.5025893474109
20
-0.445402644548608
30
0
41
1
10
-13.503532127041
20
-0.448145570507194
30
0
41
1
10
-13.5056210814371
20
-0.455977741753941
30
0
41
1
10
-13.5059946892605
20
-0.460690215559282
30
0
41
1
10
-13.5049704660338
20
-0.466476927786175
30
0
41
1
10
-13.5043739139206
20
-0.468214962997223
30
0
41
1
10
-13.5026851457819
20
-0.471320945690934
30
0
41
1
10
-13.5015835740844
20
-0.472696292951213
30
0
41
1
10
-13.4976100463298
20
-0.476217282345146
30
0
41
1
10
-13.4941255566638
20
-0.477748652573382
30
0
41
1
10
-13.4878873439799
20
-0.479061483870908
30
0
41
1
10
-13.4856250849188
20
-0.47933332242323
30
0
41
1
10
-13.4808583852177
20
-0.479567589455002
30
0
41
1
10
-13.4783549901368
20
-0.479532351315839
30
0
41
1
10
-13.470530542591
20
-0.479028435196653
30
0
41
1
10
-13.4648977094209
20
-0.478164746212002
30
0
41
1
10
-13.4529523427325
20
-0.475578705664162
30
0
41
1
10
-13.4466202325066
20
-0.473845750572934
30
0
41
1
10
-13.433645567981
20
-0.469730324423097
30
0
41
1
10
-13.4269699921963
20
-0.467341554080946
30
0
41
1
10
-13.4064644692924
20
-0.459334429025461
30
0
41
1
10
-13.3920697914073
20
-0.452832519259857
30
0
41
1
10
-13.3631049887933
20
-0.438446193463477
30
0
41
1
10
-13.3484408250735
20
-0.430527273477111
30
0
41
1
10
-13.3188052716474
20
-0.413449436874572
30
0
41
1
10
-13.3038332306426
20
-0.4042879581867
30
0
41
1
10
-13.2887133686798
20
-0.394519052838348
30
0
0
SPLINE
5
162
100
AcDbEntity
8
1
62
256
6
ByLayer
370
18
48
1
60
0
100
AcDbSpline
70
4
71
3
72
8
73
4
40
0
40
0
40
0
40
0
40
1
40
1
40
1
40
1
41
1
10
-12.941904331197
20
0.249980947161362
30
0
41
1
10
-13.1180471579123
20
0.0351594867746314
30
0
41
1
10
-13.2941699218972
20
-0.179674312264069
30
0
41
1
10
-13.4702748862137
20
-0.394519052838319
30
0
0
SPLINE
5
163
100
AcDbEntity
8
1
62
256
6
ByLayer
370
18
48
1
60
0
100
AcDbSpline
70
4
71
3
72
23
73
19
40
0
40
0
40
0
40
0
40
0.125000000000003
40
0.125000000000003
40
0.250000000000006
40
0.250000000000006
40
0.375000000000008
40
0.375000000000008
40
0.500000000000012
40
0.562500000000014
40
0.562500000000014
40
0.625000000000017
40
0.625000000000017
40
0.750000000000012
40
0.750000000000012
40
0.875000000000006
40
0.875000000000006
40
1
40
1
40
1
40
1
41
1
10
-12.9317003032968
20
0.324980947161777
30
0
41
1
10
-12.9281546626962
20
0.324980947161777
30
0
41
1
10
-12.9249370215665
20
0.324620114170159
30
0
41
1
10
-12.9192871440886
20
0.32303667882033
30
0
41
1
10
-12.9168431622451
20
0.321793174571241
30
0
41
1
10
-12.9130939065335
20
0.318369971001488
30
0
41
1
10
-12.9117605960215
20
0.316192959110282
30
0
41
1
10
-12.9103315847485
20
0.310777985080392
30
0
41
1
10
-12.9102338827602
20
0.306085646339625
30
0
41
1
10
-12.9115299156306
20
0.300494947426273
30
0
41
1
10
-12.9127048890145
20
0.296567433923769
30
0
41
1
10
-12.9134525305583
20
0.294494826399216
30
0
41
1
10
-12.9160876840443
20
0.288143993684287
30
0
41
1
10
-12.9183740783399
20
0.283688995222491
30
0
41
1
10
-12.9238503710631
20
0.274403028467305
30
0
41
1
10
-12.9270609615909
20
0.26955094003489
30
0
41
1
10
-12.9340500009027
20
0.259832030827397
30
0
41
1
10
-12.9378497028419
20
0.254925918244197
30
0
41
1
10
-12.9419043311969
20
0.249980947161362
30
0
0
SPLINE
5
164
100
AcDbEntity
8
1
62
256
6
ByLayer
370
18
48
1
60
0
100
AcDbSpline
70
4
71
3
72
18
73
14
40
0
40
0
40
0
40
0
40
0.250000000000006
40
0.250000000000006
40
0.375000000000006
40
0.375000000000006
40
0.500000000000007
40
0.500000000000007
40
0.750000000000007
40
0.750000000000007
40
0.875000000000004
40
0.875000000000004
40
1
40
1
40
1
40
1
41
1
10
-13.2065548385552
20
0.249980947161674
30
0
41
1
10
-13.1918683483694
20
0.260045199607333
30
0
41
1
10
-13.1773484039918
20
0.269403809868607
30
0
41
1
10
-13.1558285169502
20
0.282316542817881
30
0
41
1
10
-13.1486989674189
20
0.286431559643603
30
0
41
1
10
-13.1345354389663
20
0.29424506725934
30
0
41
1
10
-13.1274676194249
20
0.297960016390789
30
0
41
1
10
-13.1067398789887
20
0.308231131630805
30
0
41
1
10
-13.0935302985871
20
0.313958174179788
30
0
41
1
10
-13.0749605537727
20
0.320259096726829
30
0
41
1
10
-13.0689460777358
20
0.321974818101211
30
0
41
1
10
-13.0578276924747
20
0.324325815519529
30
0
41
1
10
-13.0526835673824
20
0.324980947168598
30
0
41
1
10
-13.0480635116142
20
0.324980947169223
30
0
0
SPLINE
5
165
100
AcDbEntity
8
1
62
256
6
ByLayer
370
18
48
1
60
0
100
AcDbSpline
70
4
71
3
72
8
73
4
40
0
40
0
40
0
40
0
40
1
40
1
40
1
40
1
41
1
10
-14.1255646241437
20
-0.394519052838319
30
0
41
1
10
-13.8219161595784
20
-0.176810910131763
30
0
41
1
10
-13.5156891436444
20
0.0381396122572539
30
0
41
1
10
-13.2065548385552
20
0.249980947161674
30
0
0
SPLINE
5
166
100
AcDbEntity
8
1
62
256
6
ByLayer
370
18
48
1
60
0
100
AcDbSpline
70
4
71
3
72
36
73
32
40
0
40
0
40
0
40
0
40
0.0624999999999994
40
0.0624999999999994
40
0.124999999999999
40
0.124999999999999
40
0.187499999999999
40
0.187499999999999
40
0.218749999999998
40
0.218749999999998
40
0.249999999999998
40
0.249999999999998
40
0.312499999999998
40
0.312499999999998
40
0.374999999999997
40
0.374999999999997
40
0.437499999999997
40
0.437499999999997
40
0.499999999999997
40
0.499999999999997
40
0.562499999999996
40
0.562499999999996
40
0.624999999999996
40
0.624999999999996
40
0.687499999999995
40
0.687499999999995
40
0.749999999999995
40
0.749999999999995
40
0.874999999999997
40
0.874999999999997
40
1
40
1
40
1
40
1
41
1
10
-14.2655750866984
20
-0.394519052838319
30
0
41
1
10
-14.2709152318049
20
-0.400916772801736
30
0
41
1
10
-14.275978382755
20
-0.407293077501066
30
0
41
1
10
-14.2851987194409
20
-0.41968620333094
30
0
41
1
10
-14.2893548863108
20
-0.4256951480927
30
0
41
1
10
-14.2965819676909
20
-0.437266289211095
30
0
41
1
10
-14.2996681948549
20
-0.442875980593413
30
0
41
1
10
-14.303108097956
20
-0.450518030421819
30
0
41
1
10
-14.3040654324165
20
-0.452948725894231
30
0
41
1
10
-14.3055769996615
20
-0.457562174581426
30
0
41
1
10
-14.3061330482862
20
-0.459758935437492
30
0
41
1
10
-14.3071284482325
20
-0.465834428936034
30
0
41
1
10
-14.3069086232189
20
-0.469181053338957
30
0
41
1
10
-14.3047638284419
20
-0.474520523657986
30
0
41
1
10
-14.3028010571971
20
-0.476498487128254
30
0
41
1
10
-14.2974997750462
20
-0.478992735534973
30
0
41
1
10
-14.2941373580524
20
-0.4795548484297
30
0
41
1
10
-14.2862625152793
20
-0.479479731271681
30
0
41
1
10
-14.2818410972795
20
-0.478850703577962
30
0
41
1
10
-14.2722259261514
20
-0.476650936816839
30
0
41
1
10
-14.2670211051816
20
-0.475074458444681
30
0
41
1
10
-14.2559794178474
20
-0.471119640285877
30
0
41
1
10
-14.2502293710657
20
-0.468773718754022
30
0
41
1
10
-14.2383514182247
20
-0.463474796430233
30
0
41
1
10
-14.2322228540822
20
-0.460520725310033
30
0
41
1
10
-14.2196336197054
20
-0.454078795623701
30
0
41
1
10
-14.2131449243124
20
-0.450573991117722
30
0
41
1
10
-14.1935390957799
20
-0.439506751248615
30
0
41
1
10
-14.1802225014732
20
-0.431373754650593
30
0
41
1
10
-14.1531891256639
20
-0.413867112124933
30
0
41
1
10
-14.1394710770359
20
-0.404489622046128
30
0
41
1
10
-14.1255646241437
20
-0.394519052838348
30
0
0
SPLINE
5
167
100
AcDbEntity
8
1
62
256
6
ByLayer
370
18
48
1
60
0
100
AcDbSpline
70
4
71
3
72
8
73
4
40
0
40
0
40
0
40
0
40
1
40
1
40
1
40
1
41
1
10
-13.7271595028412
20
0.249980947161504
30
0
41
1
10
-13.9067347108406
20
0.035212365746446
30
0
41
1
10
-14.0862027304346
20
-0.179623374600055
30
0
41
1
10
-14.2655750866984
20
-0.394519052838319
30
0
0
SPLINE
5
168
100
AcDbEntity
8
1
62
256
6
ByLayer
370
18
48
1
60
0
100
AcDbSpline
70
4
71
3
72
22
73
18
40
0
40
0
40
0
40
0
40
0.125
40
0.125
40
0.25
40
0.25
40
0.375
40
0.375
40
0.5
40
0.5
40
0.625
40
0.625
40
0.75
40
0.75
40
0.875
40
0.875
40
1
40
1
40
1
40
1
41
1
10
-13.7033273915928
20
0.32498094716172
30
0
41
1
10
-13.7004864228397
20
0.32498094716172
30
0
41
1
10
-13.6980030233289
20
0.32457223002757
30
0
41
1
10
-13.6939679064125
20
0.322810804878514
30
0
41
1
10
-13.6924447562857
20
0.321476351282854
30
0
41
1
10
-13.690469285274
20
0.317827037319773
30
0
41
1
10
-13.6900300661806
20
0.31547687530076
30
0
41
1
10
-13.6903199496591
20
0.309978932734424
30
0
41
1
10
-13.6910284293275
20
0.306819145366916
30
0
41
1
10
-13.6935353207013
20
0.299707252978664
30
0
41
1
10
-13.6953495169543
20
0.295745119604987
30
0
41
1
10
-13.699812285762
20
0.287456554264992
30
0
41
1
10
-13.7024739620712
20
0.283086608544551
30
0
41
1
10
-13.7085556247414
20
0.273950228042338
30
0
41
1
10
-13.711950430119
20
0.269226009096116
30
0
41
1
10
-13.719197862038
20
0.259701365260099
30
0
41
1
10
-13.7230711169545
20
0.254870580017553
30
0
41
1
10
-13.7271595028412
20
0.249980947161504
30
0
0
SPLINE
5
169
100
AcDbEntity
8
1
62
256
6
ByLayer
370
18
48
1
60
0
100
AcDbSpline
70
4
71
3
72
16
73
12
40
0
40
0
40
0
40
0
40
0.250000000000002
40
0.250000000000002
40
0.500000000000005
40
0.500000000000005
40
0.750000000000007
40
0.750000000000007
40
0.875000000000004
40
0.875000000000004
40
1
40
1
40
1
40
1
41
1
10
-13.9273497265336
20
0.249980947161674
30
0
41
1
10
-13.9141383585476
20
0.259977683504246
30
0
41
1
10
-13.9010856072335
20
0.269365680292765
30
0
41
1
10
-13.8756867854771
20
0.286560850671492
30
0
41
1
10
-13.8632846302391
20
0.294416067556767
30
0
41
1
10
-13.8392323105369
20
0.308231113448897
30
0
41
1
10
-13.8279050504171
20
0.314006523917868
30
0
41
1
10
-13.8124983254929
20
0.320301845067462
30
0
41
1
10
-13.8075818891419
20
0.322012470654755
30
0
41
1
10
-13.7987038822678
20
0.3243439697697
30
0
41
1
10
-13.7947211231748
20
0.324980947163425
30
0
41
1
10
-13.7912890092361
20
0.324980947163624
30
0
0
SPLINE
5
16A
100
AcDbEntity
8
1
62
256
6
ByLayer
370
18
48
1
60
0
100
AcDbSpline
70
4
71
3
72
22
73
18
40
0
40
0
40
0
40
0
40
0.249999999999998
40
0.249999999999998
40
0.374999999999998
40
0.374999999999998
40
0.499999999999998
40
0.499999999999998
40
0.624999999999998
40
0.624999999999998
40
0.749999999999999
40
0.749999999999999
40
0.875
40
0.875
40
0.9375
40
0.9375
40
1
40
1
40
1
40
1
41
1
10
-15
20
-1.09294494718759
30
0
41
1
10
-15
20
-1.07967512164055
30
0
41
1
10
-15
20
-1.06551265539923
30
0
41
1
10
-15
20
-1.04235433752584
30
0
41
1
10
-15
20
-1.03427897453579
30
0
41
1
10
-15
20
-1.0175308391909
30
0
41
1
10
-15
20
-1.00885793975522
30
0
41
1
10
-15
20
-0.99078891893015
30
0
41
1
10
-15
20
-0.981393856273371
30
0
41
1
10
-15
20
-0.961697793674887
30
0
41
1
10
-15
20
-0.951449148566496
30
0
41
1
10
-15
20
-0.930486799286513
30
0
41
1
10
-15
20
-0.919714084930661
30
0
41
1
10
-15
20
-0.903041140446447
30
0
41
1
10
-15
20
-0.897396313717934
30
0
41
1
10
-15
20
-0.88618611265801
30
0
41
1
10
-15
20
-0.880589068055571
30
0
41
1
10
-15
20
-0.875000000001506
30
0
0
SPLINE
5
16B
100
AcDbEntity
8
1
62
256
6
ByLayer
370
18
48
1
60
0
100
AcDbSpline
70
4
71
3
72
18
73
14
40
0
40
0
40
0
40
0
40
0.25
40
0.25
40
0.375000000000001
40
0.375000000000001
40
0.500000000000001
40
0.500000000000001
40
0.750000000000004
40
0.750000000000004
40
0.875000000000002
40
0.875000000000002
40
1
40
1
40
1
40
1
41
1
10
9.37125442462704
20
-0.874999999999858
30
0
41
1
10
9.37125442462704
20
-0.904694818135255
30
0
41
1
10
9.37285807557888
20
-0.934194699485374
30
0
41
1
10
9.37768818945227
20
-0.978149787155445
30
0
41
1
10
9.37971768419931
20
-0.992823834800447
30
0
41
1
10
9.38455354037092
20
-1.02167884394623
30
0
41
1
10
9.38735060736542
20
-1.0358354654708
30
0
41
1
10
9.39684924666659
20
-1.07751409954722
30
0
41
1
10
9.40464959280715
20
-1.1042510721079
30
0
41
1
10
9.41859288853726
20
-1.14275413634826
30
0
41
1
10
9.42363987862925
20
-1.1553638866084
30
0
41
1
10
9.43430393517252
20
-1.17956393427195
30
0
41
1
10
9.4399364632923
20
-1.1912067784227
30
0
41
1
10
9.44586314547931
20
-1.20240209734686
30
0
0
SPLINE
5
16C
100
AcDbEntity
8
1
62
256
6
ByLayer
370
18
48
1
60
0
100
AcDbSpline
70
4
71
3
72
16
73
12
40
0
40
0
40
0
40
0
40
0.125000000000002
40
0.125000000000002
40
0.250000000000003
40
0.250000000000003
40
0.500000000000002
40
0.500000000000002
40
0.750000000000001
40
0.750000000000001
40
1
40
1
40
1
40
1
41
1
10
8.18325005084313
20
-1.375
30
0
41
1
10
8.2364744652283
20
-1.37500000000023
30
0
41
1
10
8.28967629332499
20
-1.37382406147052
30
0
41
1
10
8.39581505821269
20
-1.36943560360865
30
0
41
1
10
8.44879059323316
20
-1.36622218099544
30
0
41
1
10
8.60746747125023
20
-1.35386984907743
30
0
41
1
10
8.71292130173927
20
-1.34204292581458
30
0
41
1
10
8.92327148440836
20
-1.31233480150524
30
0
41
1
10
9.02816810069348
20
-1.29445646866972
30
0
41
1
10
9.23743204999263
20
-1.25295172653054
30
0
41
1
10
9.34180310420979
20
-1.2293657299156
30
0
41
1
10
9.44586314547919
20
-1.20240209734681
30
0
0
SPLINE
5
16D
100
AcDbEntity
8
1
62
256
6
ByLayer
370
18
48
1
60
0
100
AcDbSpline
70
4
71
3
72
26
73
22
40
0
40
0
40
0
40
0
40
0.0625
40
0.0625
40
0.125
40
0.125
40
0.25
40
0.25
40
0.375
40
0.375
40
0.5
40
0.5
40
0.75
40
0.75
40
0.8125
40
0.8125
40
0.84375
40
0.84375
40
0.875
40
0.875
40
1
40
1
40
1
40
1
41
1
10
0
20
-1.09294494717704
30
0
41
1
10
0.0798615061981423
20
-1.09294494717704
30
0
41
1
10
0.159774363699597
20
-1.09418805527122
30
0
41
1
10
0.31969693270085
20
-1.09901890502678
30
0
41
1
10
0.399749988067498
20
-1.10260550904388
30
0
41
1
10
0.639631382539051
20
-1.11627509243578
30
0
41
1
10
0.799204148954971
20
-1.12923453082303
30
0
41
1
10
1.11800182548021
20
-1.15899639959054
30
0
41
1
10
1.27722899968975
20
-1.17577381700173
30
0
41
1
10
1.59560357042369
20
-1.21021000714069
30
0
41
1
10
1.75474950260408
20
-1.22788495741705
30
0
41
1
10
2.23233478291988
20
-1.27928046028188
30
0
41
1
10
2.55092030470416
20
-1.31138613870661
30
0
41
1
10
2.95008484346241
20
-1.34121480212659
30
0
41
1
10
3.02996429579406
20
-1.34666632694675
30
0
41
1
10
3.1498673134349
20
-1.35391738932401
30
0
41
1
10
3.18992183086647
20
-1.35618341463495
30
0
41
1
10
3.26956516787257
20
-1.36035344049768
30
0
41
1
10
3.3093884139609
20
-1.36227063710794
30
0
41
1
10
3.50851321889621
20
-1.37094450465955
30
0
41
1
10
3.66784017059436
20
-1.375
30
0
41
1
10
3.82720524665191
20
-1.375
30
0
0
SPLINE
5
16E
100
AcDbEntity
8
1
62
256
6
ByLayer
370
18
48
1
60
0
100
AcDbSpline
70
4
71
3
72
26
73
22
40
0
40
0
40
0
40
0
40
0.250000000000008
40
0.250000000000008
40
0.312500000000012
40
0.312500000000012
40
0.375000000000016
40
0.375000000000016
40
0.500000000000028
40
0.500000000000028
40
0.562500000000025
40
0.562500000000025
40
0.625000000000023
40
0.625000000000023
40
0.750000000000037
40
0.750000000000037
40
0.812500000000033
40
0.812500000000033
40
0.875000000000029
40
0.875000000000029
40
1
40
1
40
1
40
1
41
1
10
16.3181619695471
20
-4.92392032398746
30
0
41
1
10
16.3092192305472
20
-4.89143873078277
30
0
41
1
10
16.2954876322593
20
-4.86055207439989
30
0
41
1
10
16.2718353388293
20
-4.82421724680998
30
0
41
1
10
16.2667495067734
20
-4.81703830670762
30
0
41
1
10
16.2560530091766
20
-4.80315636957127
30
0
41
1
10
16.2504333990714
20
-4.79643416968486
30
0
41
1
10
16.2327595033496
20
-4.77692903782275
30
0
41
1
10
16.2198957841171
20
-4.76480295549533
30
0
41
1
10
16.1988810548682
20
-4.7480263573826
30
0
41
1
10
16.1915883106094
20
-4.74267064693856
30
0
41
1
10
16.1763916134441
20
-4.73246419809539
30
0
41
1
10
16.1685411707115
20
-4.72765365122748
30
0
41
1
10
16.1445437728384
20
-4.71429127119328
30
0
41
1
10
16.1278334996498
20
-4.70671886008705
30
0
41
1
10
16.1016705104136
20
-4.69743178428044
30
0
41
1
10
16.0927656700967
20
-4.69468303254908
30
0
41
1
10
16.0745707697435
20
-4.6899140700279
30
0
41
1
10
16.0652845989502
20
-4.68790123862726
30
0
41
1
10
16.0374812768528
20
-4.68311218041839
30
0
41
1
10
16.0188089532903
20
-4.68151576413177
30
0
41
1
10
16.0000000000003
20
-4.68151576413177
30
0
0
SPLINE
5
16F
100
AcDbEntity
8
1
62
256
6
ByLayer
370
18
48
1
60
0
100
AcDbSpline
70
4
71
3
72
34
73
30
40
0
40
0
40
0
40
0
40
0.124999999999989
40
0.124999999999989
40
0.187499999999982
40
0.187499999999982
40
0.21874999999998
40
0.21874999999998
40
0.249999999999977
40
0.249999999999977
40
0.374999999999966
40
0.374999999999966
40
0.406249999999965
40
0.406249999999965
40
0.437499999999963
40
0.499999999999967
40
0.562499999999971
40
0.562499999999971
40
0.624999999999975
40
0.624999999999975
40
0.687499999999979
40
0.687499999999979
40
0.749999999999983
40
0.749999999999983
40
0.874999999999992
40
0.874999999999992
40
0.937499999999996
40
0.937499999999996
40
1
40
1
40
1
40
1
41
1
10
16.3181619695471
20
-4.92392032398746
30
0
41
1
10
16.3316243955845
20
-4.97281821154741
30
0
41
1
10
16.3495186520748
20
-5.02040903743602
30
0
41
1
10
16.3834427074959
20
-5.0899599776412
30
0
41
1
10
16.3959401462238
20
-5.11283636323503
30
0
41
1
10
16.4166305781725
20
-5.14669104156206
30
0
41
1
10
16.4238696464607
20
-5.15792435288927
30
0
41
1
10
16.4389547957836
20
-5.18011636040657
30
0
41
1
10
16.4467750039597
20
-5.19103973448571
30
0
41
1
10
16.4872859904914
20
-5.24479532930721
30
0
41
1
10
16.5241451570227
20
-5.28508061927747
30
0
41
1
10
16.5766976577685
20
-5.33172990861198
30
0
41
1
10
16.5875531522011
20
-5.34088119020441
30
0
41
1
10
16.6095897675604
20
-5.35850832272092
30
0
41
1
10
16.6432548145308
20
-5.3840473153663
30
0
41
1
10
16.7023824438312
20
-5.42215676698581
30
0
41
1
10
16.7529298677767
20
-5.44786035521412
30
0
41
1
10
16.8051631063886
20
-5.47107630142915
30
0
41
1
10
16.8314938663053
20
-5.48116091527677
30
0
41
1
10
16.8845188699143
20
-5.49848512580908
30
0
41
1
10
16.911222535645
20
-5.50572802424765
30
0
41
1
10
16.9650247101006
20
-5.51748982871169
30
0
41
1
10
16.9922163970773
20
-5.52200396829292
30
0
41
1
10
17.0724935208946
20
-5.53135357866714
30
0
41
1
10
17.1249222467067
20
-5.53222385098582
30
0
41
1
10
17.2024065588864
20
-5.52638689617905
30
0
41
1
10
17.2281182805369
20
-5.52322189473784
30
0
41
1
10
17.2787427947226
20
-5.51458593850185
30
0
41
1
10
17.3036391509602
20
-5.5091276450627
30
0
41
1
10
17.3281523379788
20
-5.50256473054691
30
0
0
SPLINE
5
170
100
AcDbEntity
8
1
62
256
6
ByLayer
370
18
48
1
60
0
100
AcDbSpline
70
4
71
3
72
24
73
20
40
0
40
0
40
0
40
0
40
0.0624999999999974
40
0.0624999999999974
40
0.124999999999995
40
0.124999999999995
40
0.249999999999999
40
0.249999999999999
40
0.3125
40
0.3125
40
0.375
40
0.375
40
0.500000000000001
40
0.500000000000001
40
0.625000000000002
40
0.625000000000002
40
0.750000000000003
40
0.750000000000003
40
1
40
1
40
1
40
1
41
1
10
17.69818105834
20
-5.6544388745366
30
0
41
1
10
17.6934313378227
20
-5.64633715431864
30
0
41
1
10
17.6882897889867
20
-5.63836595490443
30
0
41
1
10
17.6773553215863
20
-5.62292269843087
30
0
41
1
10
17.6716008277752
20
-5.61549806899501
30
0
41
1
10
17.6535070564053
20
-5.59408301250412
30
0
41
1
10
17.6403431053361
20
-5.58094552460668
30
0
41
1
10
17.61896037284
20
-5.56293528615555
30
0
41
1
10
17.6115431209208
20
-5.55721040967592
30
0
41
1
10
17.5964570188405
20
-5.54654485063324
30
0
41
1
10
17.5887541685171
20
-5.54157322961709
30
0
41
1
10
17.5651865615506
20
-5.52770053377157
30
0
41
1
10
17.5488655560666
20
-5.5198350464033
30
0
41
1
10
17.5150376500419
20
-5.50682543657183
30
0
41
1
10
17.4979733948962
20
-5.50185070322996
30
0
41
1
10
17.4636029977599
20
-5.49469177164846
30
0
41
1
10
17.4462370587483
20
-5.49250645721318
30
0
41
1
10
17.3941694441303
20
-5.49007655408573
30
0
41
1
10
17.3606039107087
20
-5.49387647236296
30
0
41
1
10
17.3281523379788
20
-5.50256473054691
30
0
0
SPLINE
5
171
100
AcDbEntity
8
1
62
256
6
ByLayer
370
18
48
1
60
0
100
AcDbSpline
70
4
71
3
72
24
73
20
40
0
40
0
40
0
40
0
40
0.124999999999999
40
0.124999999999999
40
0.187499999999999
40
0.187499999999999
40
0.249999999999999
40
0.249999999999999
40
0.375000000000002
40
0.375000000000002
40
0.500000000000004
40
0.500000000000004
40
0.625000000000006
40
0.625000000000006
40
0.687500000000004
40
0.687500000000004
40
0.750000000000002
40
0.750000000000002
40
1
40
1
40
1
40
1
41
1
10
14.3018189416605
20
-5.6544388745366
30
0
41
1
10
14.2920717429749
20
-5.67106492155784
30
0
41
1
10
14.2838642633104
20
-5.68837751531214
30
0
41
1
10
14.2738342365026
20
-5.71536320791907
30
0
41
1
10
14.2708640587045
20
-5.72456313525024
30
0
41
1
10
14.2657514504451
20
-5.74316029895914
30
0
41
1
10
14.2636304107342
20
-5.75246668469501
30
0
41
1
10
14.2585036553872
20
-5.78040679825
30
0
41
1
10
14.2567259261734
20
-5.79906142388799
30
0
41
1
10
14.2563184965419
20
-5.83641570607369
30
0
41
1
10
14.2577395219959
20
-5.85525468655817
30
0
41
1
10
14.2635127050972
20
-5.8914308690523
30
0
41
1
10
14.2678413753688
20
-5.90894623768475
30
0
41
1
10
14.276347903609
20
-5.93440464095022
30
0
41
1
10
14.2795208606015
20
-5.94275426194483
30
0
41
1
10
14.2865370155303
20
-5.95917970498292
30
0
41
1
10
14.290397148573
20
-5.96728250872303
30
0
41
1
10
14.3110153586932
20
-6.00643163565235
30
0
41
1
10
14.3317858476267
20
-6.03394074980883
30
0
41
1
10
14.3564173719115
20
-6.0578980599646
30
0
0
SPLINE
5
172
100
AcDbEntity
8
1
62
256
6
ByLayer
370
18
48
1
60
0
100
AcDbSpline
70
4
71
3
72
18
73
14
40
0
40
0
40
0
40
0
40
0.25000000000001
40
0.25000000000001
40
0.375000000000017
40
0.375000000000017
40
0.437500000000021
40
0.437500000000021
40
0.500000000000025
40
0.500000000000025
40
0.750000000000013
40
0.750000000000013
40
1
40
1
40
1
40
1
41
1
10
14.5922620637004
20
-6.49727447075531
30
0
41
1
10
14.5839029765651
20
-6.45284948127411
30
0
41
1
10
14.5721940761372
20
-6.41048703644856
30
0
41
1
10
14.5502147004156
20
-6.3495281661919
30
0
41
1
10
14.5421460177695
20
-6.32964295127877
30
0
41
1
10
14.5289590937534
20
-6.30043061788834
30
0
41
1
10
14.5243825255532
20
-6.29079592067464
30
0
41
1
10
14.5148692909954
20
-6.27172788852255
30
0
41
1
10
14.5099208758564
20
-6.26227373430731
30
0
41
1
10
14.4844501468567
20
-6.2158069722542
30
0
41
1
10
14.461783002533
20
-6.1811824202768
30
0
41
1
10
14.4122494705405
20
-6.11630878882204
30
0
41
1
10
14.3853786034383
20
-6.08606656460756
30
0
41
1
10
14.3564173719115
20
-6.0578980599646
30
0
0
SPLINE
5
173
100
AcDbEntity
8
1
62
256
6
ByLayer
370
18
48
1
60
0
100
AcDbSpline
70
4
71
3
72
24
73
20
40
0
40
0
40
0
40
0
40
0.250000000000017
40
0.250000000000017
40
0.312500000000016
40
0.312500000000016
40
0.375000000000015
40
0.375000000000015
40
0.500000000000014
40
0.500000000000014
40
0.625000000000014
40
0.625000000000014
40
0.750000000000014
40
0.750000000000014
40
0.812500000000013
40
0.812500000000013
40
0.875000000000011
40
0.875000000000011
40
1
40
1
40
1
40
1
41
1
10
14.3564173719115
20
-7.24213346829896
30
0
41
1
10
14.3317858476267
20
-7.26609077845472
30
0
41
1
10
14.3110153586932
20
-7.29359989261121
30
0
41
1
10
14.290397148573
20
-7.33274901954053
30
0
41
1
10
14.2865370155303
20
-7.34085182328064
30
0
41
1
10
14.2795208606015
20
-7.35727726631873
30
0
41
1
10
14.276347903609
20
-7.36562688731334
30
0
41
1
10
14.2678413753688
20
-7.39108529057881
30
0
41
1
10
14.2635127050972
20
-7.40860065921129
30
0
41
1
10
14.2577395219959
20
-7.44477684170539
30
0
41
1
10
14.2563184965419
20
-7.46361582218987
30
0
41
1
10
14.2567259261734
20
-7.50097010437557
30
0
41
1
10
14.2585036553872
20
-7.51962473001356
30
0
41
1
10
14.2636304107342
20
-7.54756484356855
30
0
41
1
10
14.2657514504451
20
-7.55687122930442
30
0
41
1
10
14.2708640587045
20
-7.57546839301332
30
0
41
1
10
14.2738342365026
20
-7.58466832034449
30
0
41
1
10
14.2838642633104
20
-7.61165401295142
30
0
41
1
10
14.2920717429749
20
-7.62896660670572
30
0
41
1
10
14.3018189416605
20
-7.64559265372696
30
0
0
SPLINE
5
174
100
AcDbEntity
8
1
62
256
6
ByLayer
370
18
48
1
60
0
100
AcDbSpline
70
4
71
3
72
17
73
13
40
0
40
0
40
0
40
0
40
0.249999999999996
40
0.249999999999996
40
0.499999999999993
40
0.499999999999993
40
0.562499999999994
40
0.562499999999994
40
0.624999999999995
40
0.749999999999997
40
0.749999999999997
40
1
40
1
40
1
40
1
41
1
10
14.3564173719115
20
-7.24213346829896
30
0
41
1
10
14.3853753963692
20
-7.21396808294122
30
0
41
1
10
14.4122309410967
20
-7.18374152199632
30
0
41
1
10
14.4617197383672
20
-7.11893744074459
30
0
41
1
10
14.4843572921872
20
-7.08436645926528
30
0
41
1
10
14.5097894773879
20
-7.03800427598804
30
0
41
1
10
14.5147424479634
20
-7.02855047394274
30
0
41
1
10
14.5242836416449
20
-7.00944104024501
30
0
41
1
10
14.5380498884729
20
-6.98047780107953
30
0
41
1
10
14.5501769665488
20
-6.95060204087474
30
0
41
1
10
14.5721909236734
20
-6.88956515205325
30
0
41
1
10
14.5839044979646
20
-6.84717396139857
30
0
41
1
10
14.5922620637004
20
-6.80275705750825
30
0
0
SPLINE
5
175
100
AcDbEntity
8
1
62
256
6
ByLayer
370
18
48
1
60
0
100
AcDbSpline
70
4
71
3
72
26
73
22
40
0
40
0
40
0
40
0
40
0.250000000000014
40
0.250000000000014
40
0.312500000000019
40
0.312500000000019
40
0.375000000000024
40
0.375000000000024
40
0.500000000000035
40
0.500000000000035
40
0.562500000000028
40
0.562500000000028
40
0.625000000000021
40
0.625000000000021
40
0.750000000000033
40
0.750000000000033
40
0.81250000000003
40
0.81250000000003
40
0.875000000000028
40
0.875000000000028
40
1
40
1
40
1
40
1
41
1
10
15.6818380304534
20
-8.3761112042761
30
0
41
1
10
15.6907807694533
20
-8.40859279748079
30
0
41
1
10
15.7045123677412
20
-8.43947945386367
30
0
41
1
10
15.7281646611712
20
-8.47581428145358
30
0
41
1
10
15.7332504932271
20
-8.48299322155594
30
0
41
1
10
15.7439469908239
20
-8.49687515869229
30
0
41
1
10
15.7495666009291
20
-8.5035973585787
30
0
41
1
10
15.7672404966509
20
-8.52310249044081
30
0
41
1
10
15.7801042158834
20
-8.53522857276823
30
0
41
1
10
15.8011189451323
20
-8.55200517088096
30
0
41
1
10
15.8084116893912
20
-8.557360881325
30
0
41
1
10
15.8236083865564
20
-8.56756733016817
30
0
41
1
10
15.831458829289
20
-8.57237787703608
30
0
41
1
10
15.8554562271622
20
-8.58574025707028
30
0
41
1
10
15.8721665003507
20
-8.59331266817651
30
0
41
1
10
15.8983294895869
20
-8.60259974398312
30
0
41
1
10
15.9072343299038
20
-8.60534849571448
30
0
41
1
10
15.925429230257
20
-8.61011745823566
30
0
41
1
10
15.9347154010503
20
-8.6121302896363
30
0
41
1
10
15.9625187231477
20
-8.61691934784517
30
0
41
1
10
15.9811910467103
20
-8.61851576413179
30
0
41
1
10
16.0000000000003
20
-8.61851576413179
30
0
0
SPLINE
5
176
100
AcDbEntity
8
1
62
256
6
ByLayer
370
18
48
1
60
0
100
AcDbSpline
70
4
71
3
72
34
73
30
40
0
40
0
40
0
40
0
40
0.125000000000014
40
0.125000000000014
40
0.187500000000022
40
0.187500000000022
40
0.218750000000025
40
0.218750000000025
40
0.250000000000027
40
0.250000000000027
40
0.37500000000003
40
0.37500000000003
40
0.406250000000028
40
0.406250000000028
40
0.437500000000027
40
0.500000000000024
40
0.56250000000002
40
0.56250000000002
40
0.625000000000017
40
0.625000000000017
40
0.687500000000014
40
0.687500000000014
40
0.750000000000012
40
0.750000000000012
40
0.875000000000005
40
0.875000000000005
40
0.937500000000003
40
0.937500000000003
40
1
40
1
40
1
40
1
41
1
10
15.6818380304534
20
-8.3761112042761
30
0
41
1
10
15.668375604416
20
-8.32721331671615
30
0
41
1
10
15.6504813479257
20
-8.27962249082753
30
0
41
1
10
15.6165572925046
20
-8.21007155062233
30
0
41
1
10
15.6040598537767
20
-8.18719516502853
30
0
41
1
10
15.583369421828
20
-8.1533404867015
30
0
41
1
10
15.5761303535398
20
-8.14210717537429
30
0
41
1
10
15.5610452042169
20
-8.11991516785699
30
0
41
1
10
15.5532249960408
20
-8.10899179377785
30
0
41
1
10
15.5127140095091
20
-8.05523619895635
30
0
41
1
10
15.4758548429778
20
-8.01495090898609
30
0
41
1
10
15.423302342232
20
-7.96830161965158
30
0
41
1
10
15.4124468477995
20
-7.95915033805915
30
0
41
1
10
15.3904102324401
20
-7.94152320554264
30
0
41
1
10
15.3567451854698
20
-7.91598421289726
30
0
41
1
10
15.2976173881467
20
-7.87787502232447
30
0
41
1
10
15.2470701322238
20
-7.85217117304944
30
0
41
1
10
15.1948368936119
20
-7.82895522683441
30
0
41
1
10
15.1685061336952
20
-7.81887061298679
30
0
41
1
10
15.1154811300862
20
-7.80154640245448
30
0
41
1
10
15.0887774643555
20
-7.79430350401592
30
0
41
1
10
15.0349752898999
20
-7.78254169955187
30
0
41
1
10
15.0077836029232
20
-7.77802755997064
30
0
41
1
10
14.9275064791059
20
-7.76867794959642
30
0
41
1
10
14.8750777532938
20
-7.76780767727774
30
0
41
1
10
14.7975934411141
20
-7.77364463208451
30
0
41
1
10
14.7718817194636
20
-7.77680963352572
30
0
41
1
10
14.7212572052779
20
-7.78544558976174
30
0
41
1
10
14.6963608490403
20
-7.79090388320085
30
0
41
1
10
14.6718476620217
20
-7.79746679771665
30
0
0
SPLINE
5
177
100
AcDbEntity
8
1
62
256
6
ByLayer
370
18
48
1
60
0
100
AcDbSpline
70
4
71
3
72
24
73
20
40
0
40
0
40
0
40
0
40
0.0624999999999922
40
0.0624999999999922
40
0.124999999999984
40
0.124999999999984
40
0.249999999999982
40
0.249999999999982
40
0.312499999999978
40
0.312499999999978
40
0.374999999999975
40
0.374999999999975
40
0.499999999999981
40
0.499999999999981
40
0.624999999999987
40
0.624999999999987
40
0.749999999999993
40
0.749999999999993
40
1
40
1
40
1
40
1
41
1
10
14.3018189416605
20
-7.64559265372696
30
0
41
1
10
14.3065686621779
20
-7.65369437394492
30
0
41
1
10
14.3117102110138
20
-7.66166557335913
30
0
41
1
10
14.3226446784142
20
-7.67710882983269
30
0
41
1
10
14.3283991722253
20
-7.68453345926855
30
0
41
1
10
14.3464929435952
20
-7.70594851575945
30
0
41
1
10
14.3596568946644
20
-7.71908600365688
30
0
41
1
10
14.3810396271605
20
-7.73709624210801
30
0
41
1
10
14.3884568790797
20
-7.74282111858764
30
0
41
1
10
14.40354298116
20
-7.75348667763032
30
0
41
1
10
14.4112458314835
20
-7.75845829864647
30
0
41
1
10
14.43481343845
20
-7.77233099449202
30
0
41
1
10
14.4511344439339
20
-7.78019648186026
30
0
41
1
10
14.4849623499587
20
-7.79320609169173
30
0
41
1
10
14.5020266051043
20
-7.7981808250336
30
0
41
1
10
14.5363970022406
20
-7.8053397566151
30
0
41
1
10
14.5537629412522
20
-7.80752507105038
30
0
41
1
10
14.6058305558703
20
-7.80995497417786
30
0
41
1
10
14.6393960892918
20
-7.8061550559006
30
0
41
1
10
14.6718476620217
20
-7.79746679771665
30
0
0
SPLINE
5
178
100
AcDbEntity
8
1
62
256
6
ByLayer
370
18
48
1
60
0
100
AcDbSpline
70
4
71
3
72
17
73
13
40
0
40
0
40
0
40
0
40
0.249999999999995
40
0.249999999999995
40
0.49999999999999
40
0.49999999999999
40
0.562499999999988
40
0.562499999999988
40
0.624999999999985
40
0.749999999999988
40
0.749999999999988
40
1
40
1
40
1
40
1
41
1
10
17.643582628089
20
-6.0578980599646
30
0
41
1
10
17.6146246036314
20
-6.08606344532231
30
0
41
1
10
17.5877690589039
20
-6.11629000626715
30
0
41
1
10
17.5382802616334
20
-6.18109408751877
30
0
41
1
10
17.5156427078135
20
-6.21566506899799
30
0
41
1
10
17.4902105226128
20
-6.26202725227515
30
0
41
1
10
17.4852575520373
20
-6.27148105432045
30
0
41
1
10
17.4757163583559
20
-6.29059048801813
30
0
41
1
10
17.4619501115278
20
-6.31955372718357
30
0
41
1
10
17.4498230334519
20
-6.34942948738839
30
0
41
1
10
17.4278090763272
20
-6.41046637620994
30
0
41
1
10
17.4160955020359
20
-6.45285756686474
30
0
41
1
10
17.4077379363001
20
-6.49727447075531
30
0
0
SPLINE
5
179
100
AcDbEntity
8
1
62
256
6
ByLayer
370
18
48
1
60
0
100
AcDbSpline
70
4
71
3
72
18
73
14
40
0
40
0
40
0
40
0
40
0.249999999999995
40
0.249999999999995
40
0.374999999999989
40
0.374999999999989
40
0.43749999999999
40
0.43749999999999
40
0.49999999999999
40
0.49999999999999
40
0.749999999999995
40
0.749999999999995
40
1
40
1
40
1
40
1
41
1
10
17.4077379363001
20
-6.80275705750825
30
0
41
1
10
17.4160970234354
20
-6.84718204698913
30
0
41
1
10
17.4278059238632
20
-6.8895444918146
30
0
41
1
10
17.4497852995848
20
-6.9505033620714
30
0
41
1
10
17.457853982231
20
-6.97038857698462
30
0
41
1
10
17.4710409062471
20
-6.99960091037522
30
0
41
1
10
17.4756174744473
20
-7.00923560758901
30
0
41
1
10
17.4851307090052
20
-7.02830363974124
30
0
41
1
10
17.4900791241443
20
-7.03775779395659
30
0
41
1
10
17.5155498531439
20
-7.08422455600947
30
0
41
1
10
17.5382169974676
20
-7.11884910798682
30
0
41
1
10
17.58775052946
20
-7.18372273944149
30
0
41
1
10
17.6146213965622
20
-7.21396496365597
30
0
41
1
10
17.643582628089
20
-7.24213346829896
30
0
0
SPLINE
5
17A
100
AcDbEntity
8
1
62
256
6
ByLayer
370
18
48
1
60
0
100
AcDbSpline
70
4
71
3
72
24
73
20
40
0
40
0
40
0
40
0
40
0.124999999999997
40
0.124999999999997
40
0.187499999999996
40
0.187499999999996
40
0.249999999999996
40
0.249999999999996
40
0.374999999999997
40
0.374999999999997
40
0.499999999999999
40
0.499999999999999
40
0.625
40
0.625
40
0.687499999999999
40
0.687499999999999
40
0.749999999999999
40
0.749999999999999
40
1
40
1
40
1
40
1
41
1
10
17.69818105834
20
-7.64559265372696
30
0
41
1
10
17.7079282570256
20
-7.62896660670572
30
0
41
1
10
17.7161357366901
20
-7.61165401295142
30
0
41
1
10
17.7261657634979
20
-7.58466832034449
30
0
41
1
10
17.729135941296
20
-7.57546839301332
30
0
41
1
10
17.7342485495554
20
-7.55687122930442
30
0
41
1
10
17.7363695892663
20
-7.54756484356855
30
0
41
1
10
17.7414963446133
20
-7.51962473001356
30
0
41
1
10
17.7432740738272
20
-7.50097010437557
30
0
41
1
10
17.7436815034586
20
-7.46361582218987
30
0
41
1
10
17.7422604780046
20
-7.44477684170539
30
0
41
1
10
17.7364872949034
20
-7.40860065921129
30
0
41
1
10
17.7321586246317
20
-7.39108529057879
30
0
41
1
10
17.7236520963915
20
-7.36562688731334
30
0
41
1
10
17.720479139399
20
-7.35727726631873
30
0
41
1
10
17.7134629844702
20
-7.34085182328064
30
0
41
1
10
17.7096028514276
20
-7.33274901954053
30
0
41
1
10
17.6889846413073
20
-7.29359989261121
30
0
41
1
10
17.6682141523738
20
-7.26609077845472
30
0
41
1
10
17.643582628089
20
-7.24213346829896
30
0
0
SPLINE
5
17B
100
AcDbEntity
8
1
62
256
6
ByLayer
370
18
48
1
60
0
100
AcDbSpline
70
4
71
3
72
24
73
20
40
0
40
0
40
0
40
0
40
0.250000000000026
40
0.250000000000026
40
0.312500000000022
40
0.312500000000022
40
0.375000000000018
40
0.375000000000018
40
0.500000000000013
40
0.500000000000013
40
0.625000000000007
40
0.625000000000007
40
0.750000000000002
40
0.750000000000002
40
0.812499999999998
40
0.812499999999998
40
0.874999999999994
40
0.874999999999994
40
1
40
1
40
1
40
1
41
1
10
17.643582628089
20
-6.0578980599646
30
0
41
1
10
17.6682141523738
20
-6.03394074980883
30
0
41
1
10
17.6889846413073
20
-6.00643163565235
30
0
41
1
10
17.7096028514276
20
-5.96728250872303
30
0
41
1
10
17.7134629844702
20
-5.95917970498292
30
0
41
1
10
17.720479139399
20
-5.94275426194483
30
0
41
1
10
17.7236520963915
20
-5.93440464095022
30
0
41
1
10
17.7321586246317
20
-5.90894623768475
30
0
41
1
10
17.7364872949034
20
-5.8914308690523
30
0
41
1
10
17.7422604780046
20
-5.85525468655817
30
0
41
1
10
17.7436815034586
20
-5.83641570607369
30
0
41
1
10
17.7432740738272
20
-5.79906142388799
30
0
41
1
10
17.7414963446133
20
-5.78040679825
30
0
41
1
10
17.7363695892663
20
-5.75246668469501
30
0
41
1
10
17.7342485495554
20
-5.74316029895914
30
0
41
1
10
17.729135941296
20
-5.72456313525024
30
0
41
1
10
17.7261657634979
20
-5.71536320791907
30
0
41
1
10
17.7161357366901
20
-5.68837751531214
30
0
41
1
10
17.7079282570256
20
-5.67106492155784
30
0
41
1
10
17.69818105834
20
-5.6544388745366
30
0
0
SPLINE
5
17C
100
AcDbEntity
8
1
62
256
6
ByLayer
370
18
48
1
60
0
100
AcDbSpline
70
4
71
3
72
24
73
20
40
0
40
0
40
0
40
0
40
0.0624999999999983
40
0.0624999999999983
40
0.124999999999997
40
0.124999999999997
40
0.250000000000006
40
0.250000000000006
40
0.312500000000009
40
0.312500000000009
40
0.375000000000011
40
0.375000000000011
40
0.50000000000001
40
0.50000000000001
40
0.625000000000009
40
0.625000000000009
40
0.750000000000008
40
0.750000000000008
40
1
40
1
40
1
40
1
41
1
10
14.3018189416605
20
-5.6544388745366
30
0
41
1
10
14.3065686621778
20
-5.64633715431864
30
0
41
1
10
14.3117102110138
20
-5.63836595490443
30
0
41
1
10
14.3226446784142
20
-5.62292269843087
30
0
41
1
10
14.3283991722253
20
-5.61549806899501
30
0
41
1
10
14.3464929435952
20
-5.59408301250412
30
0
41
1
10
14.3596568946644
20
-5.58094552460668
30
0
41
1
10
14.3810396271605
20
-5.56293528615555
30
0
41
1
10
14.3884568790797
20
-5.55721040967592
30
0
41
1
10
14.40354298116
20
-5.54654485063324
30
0
41
1
10
14.4112458314835
20
-5.54157322961709
30
0
41
1
10
14.43481343845
20
-5.52770053377154
30
0
41
1
10
14.4511344439339
20
-5.5198350464033
30
0
41
1
10
14.4849623499587
20
-5.50682543657183
30
0
41
1
10
14.5020266051043
20
-5.50185070322996
30
0
41
1
10
14.5363970022406
20
-5.49469177164846
30
0
41
1
10
14.5537629412522
20
-5.49250645721318
30
0
41
1
10
14.6058305558703
20
-5.49007655408573
30
0
41
1
10
14.6393960892918
20
-5.49387647236296
30
0
41
1
10
14.6718476620217
20
-5.50256473054691
30
0
0
SPLINE
5
17D
100
AcDbEntity
8
1
62
256
6
ByLayer
370
18
48
1
60
0
100
AcDbSpline
70
4
71
3
72
34
73
30
40
0
40
0
40
0
40
0
40
0.124999999999998
40
0.124999999999998
40
0.187499999999995
40
0.187499999999995
40
0.218749999999993
40
0.218749999999993
40
0.249999999999992
40
0.249999999999992
40
0.375
40
0.375
40
0.406250000000001
40
0.406250000000001
40
0.437500000000003
40
0.500000000000002
40
0.562500000000001
40
0.562500000000001
40
0.625
40
0.625
40
0.687499999999999
40
0.687499999999999
40
0.749999999999998
40
0.749999999999998
40
0.874999999999998
40
0.874999999999998
40
0.937499999999999
40
0.937499999999999
40
1
40
1
40
1
40
1
41
1
10
14.6718476620217
20
-5.50256473054691
30
0
41
1
10
14.7208394593326
20
-5.51568130235304
30
0
41
1
10
14.7709450984193
20
-5.52431358002244
30
0
41
1
10
14.8481023724609
20
-5.53022372453154
30
0
41
1
10
14.8741579501177
20
-5.53101228776745
30
0
41
1
10
14.9138278946096
20
-5.53028525477188
30
0
41
1
10
14.9271798085306
20
-5.5297215649785
30
0
41
1
10
14.9539537358996
20
-5.52793164101965
30
0
41
1
10
14.9673321899404
20
-5.52670986260466
30
0
41
1
10
15.0341945419057
20
-5.51894904818627
30
0
41
1
10
15.0875894365001
20
-5.5075259158522
30
0
41
1
10
15.1544113754506
20
-5.48578311439556
30
0
41
1
10
15.1677961932242
20
-5.4810466190855
30
0
41
1
10
15.1941478369937
20
-5.47095111568495
30
0
41
1
10
15.2332059929601
20
-5.45482547880121
30
0
41
1
10
15.2959860666203
20
-5.4230911238007
30
0
41
1
10
15.3437246825775
20
-5.39248496048916
30
0
41
1
10
15.3901697315486
20
-5.35916607168264
30
0
41
1
10
15.4121863952646
20
-5.34155144418284
30
0
41
1
10
15.4539492170248
20
-5.3045697453571
30
0
41
1
10
15.4737029913321
20
-5.28519621380238
30
0
41
1
10
15.511060305329
20
-5.24473085902966
30
0
41
1
10
15.5287068593988
20
-5.22355624124032
30
0
41
1
10
15.5773730428754
20
-5.15903155826175
30
0
41
1
10
15.6046398483743
20
-5.11424260930079
30
0
41
1
10
15.6387924427222
20
-5.04444655910331
30
0
41
1
10
15.6490658739525
20
-5.02066491886916
30
0
41
1
10
15.667219381197
20
-4.97262460912853
30
0
41
1
10
15.6751020665246
20
-4.94838652390453
30
0
41
1
10
15.6818380304534
20
-4.92392032398746
30
0
0
SPLINE
5
17E
100
AcDbEntity
8
1
62
256
6
ByLayer
370
18
48
1
60
0
100
AcDbSpline
70
4
71
3
72
26
73
22
40
0
40
0
40
0
40
0
40
0.124999999999997
40
0.124999999999997
40
0.249999999999993
40
0.249999999999993
40
0.31249999999998
40
0.31249999999998
40
0.374999999999967
40
0.374999999999967
40
0.49999999999996
40
0.49999999999996
40
0.562499999999965
40
0.562499999999965
40
0.62499999999997
40
0.62499999999997
40
0.74999999999998
40
0.74999999999998
40
0.87499999999999
40
0.87499999999999
40
1
40
1
40
1
40
1
41
1
10
16.0000000000003
20
-4.68151576413177
30
0
41
1
10
15.9812579161206
20
-4.68151576413177
30
0
41
1
10
15.9622099758793
20
-4.68315296862718
30
0
41
1
10
15.9253294541459
20
-4.68953048344883
30
0
41
1
10
15.9073531625209
20
-4.6942429724663
30
0
41
1
10
15.8810727694394
20
-4.70355037802861
30
0
41
1
10
15.8723863894373
20
-4.70704823903642
30
0
41
1
10
15.8555174523843
20
-4.71468163389574
30
0
41
1
10
15.8473226044844
20
-4.71881666486689
30
0
41
1
10
15.8234267481808
20
-4.73213343471605
30
0
41
1
10
15.8084100630757
20
-4.74222120163844
30
0
41
1
10
15.7872244605919
20
-4.75911105704557
30
0
41
1
10
15.7804080814312
20
-4.76502314674735
30
0
41
1
10
15.7674404104895
20
-4.77721839228889
30
0
41
1
10
15.7612596172291
20
-4.78352446734641
30
0
41
1
10
15.7435909177989
20
-4.80303941135597
30
0
41
1
10
15.7329717290292
20
-4.81684163646972
30
0
41
1
10
15.7139986190541
20
-4.84597023089185
30
0
41
1
10
15.7058188411957
20
-4.86103846994553
30
0
41
1
10
15.6919779801763
20
-4.89189801643187
30
0
41
1
10
15.6862980163448
20
-4.90772087464367
30
0
41
1
10
15.6818380304534
20
-4.92392032398746
30
0
0
SPLINE
5
17F
100
AcDbEntity
8
1
62
256
6
ByLayer
370
18
48
1
60
0
100
AcDbSpline
70
4
71
3
72
34
73
30
40
0
40
0
40
0
40
0
40
0.125000000000016
40
0.125000000000016
40
0.187500000000024
40
0.187500000000024
40
0.218750000000028
40
0.218750000000028
40
0.250000000000032
40
0.250000000000032
40
0.375000000000052
40
0.375000000000052
40
0.406250000000053
40
0.406250000000053
40
0.437500000000054
40
0.500000000000048
40
0.562500000000042
40
0.562500000000042
40
0.625000000000035
40
0.625000000000035
40
0.687500000000029
40
0.687500000000029
40
0.750000000000023
40
0.750000000000023
40
0.875000000000011
40
0.875000000000011
40
0.937500000000006
40
0.937500000000006
40
1
40
1
40
1
40
1
41
1
10
17.3281523379788
20
-7.79746679771665
30
0
41
1
10
17.2791605406679
20
-7.78435022591052
30
0
41
1
10
17.2290549015812
20
-7.77571794824112
30
0
41
1
10
17.1518976275396
20
-7.76980780373202
30
0
41
1
10
17.1258420498828
20
-7.76901924049611
30
0
41
1
10
17.0861721053909
20
-7.76974627349168
30
0
41
1
10
17.0728201914699
20
-7.77030996328506
30
0
41
1
10
17.0460462641009
20
-7.77209988724391
30
0
41
1
10
17.0326678100602
20
-7.7733216656589
30
0
41
1
10
16.9658054580948
20
-7.78108248007729
30
0
41
1
10
16.9124105635005
20
-7.79250561241136
30
0
41
1
10
16.8455886245499
20
-7.814248413868
30
0
41
1
10
16.8322038067763
20
-7.81898490917806
30
0
41
1
10
16.8058521630069
20
-7.82908041257861
30
0
41
1
10
16.7667940070404
20
-7.84520604946232
30
0
41
1
10
16.7040139333802
20
-7.87694040446286
30
0
41
1
10
16.656275317423
20
-7.9075465677744
30
0
41
1
10
16.6098302684519
20
-7.94086545658095
30
0
41
1
10
16.5878136047359
20
-7.95848008408072
30
0
41
1
10
16.5460507829757
20
-7.99546178290646
30
0
41
1
10
16.5262970086685
20
-8.01483531446118
30
0
41
1
10
16.4889396946715
20
-8.0553006692339
30
0
41
1
10
16.4712931406017
20
-8.07647528702324
30
0
41
1
10
16.4226269571251
20
-8.14099997000181
30
0
41
1
10
16.3953601516262
20
-8.18578891896277
30
0
41
1
10
16.3612075572783
20
-8.25558496916025
30
0
41
1
10
16.350934126048
20
-8.2793666093944
30
0
41
1
10
16.3327806188035
20
-8.32740691913503
30
0
41
1
10
16.3248979334759
20
-8.35164500435903
30
0
41
1
10
16.3181619695471
20
-8.3761112042761
30
0
0
SPLINE
5
180
100
AcDbEntity
8
1
62
256
6
ByLayer
370
18
48
1
60
0
100
AcDbSpline
70
4
71
3
72
26
73
22
40
0
40
0
40
0
40
0
40
0.124999999999998
40
0.124999999999998
40
0.249999999999997
40
0.249999999999997
40
0.312499999999984
40
0.312499999999984
40
0.374999999999972
40
0.374999999999972
40
0.499999999999964
40
0.499999999999964
40
0.562499999999968
40
0.562499999999968
40
0.624999999999973
40
0.624999999999973
40
0.749999999999982
40
0.749999999999982
40
0.874999999999991
40
0.874999999999991
40
1
40
1
40
1
40
1
41
1
10
16.0000000000003
20
-8.61851576413179
30
0
41
1
10
16.0187420838799
20
-8.61851576413179
30
0
41
1
10
16.0377900241213
20
-8.61687855963638
30
0
41
1
10
16.0746705458546
20
-8.61050104481473
30
0
41
1
10
16.0926468374796
20
-8.60578855579729
30
0
41
1
10
16.1189272305611
20
-8.59648115023495
30
0
41
1
10
16.1276136105632
20
-8.59298328922713
30
0
41
1
10
16.1444825476162
20
-8.58534989436782
30
0
41
1
10
16.1526773955161
20
-8.58121486339667
30
0
41
1
10
16.1765732518198
20
-8.56789809354751
30
0
41
1
10
16.1915899369248
20
-8.55781032662512
30
0
41
1
10
16.2127755394087
20
-8.54092047121799
30
0
41
1
10
16.2195919185693
20
-8.53500838151621
30
0
41
1
10
16.232559589511
20
-8.52281313597467
30
0
41
1
10
16.2387403827715
20
-8.51650706091715
30
0
41
1
10
16.2564090822016
20
-8.49699211690759
30
0
41
1
10
16.2670282709713
20
-8.48318989179384
30
0
41
1
10
16.2860013809464
20
-8.45406129737171
30
0
41
1
10
16.2941811588048
20
-8.43899305831803
30
0
41
1
10
16.3080220198242
20
-8.40813351183169
30
0
41
1
10
16.3137019836557
20
-8.39231065361989
30
0
41
1
10
16.3181619695471
20
-8.3761112042761
30
0
0
SPLINE
5
181
100
AcDbEntity
8
1
62
256
6
ByLayer
370
18
48
1
60
0
100
AcDbSpline
70
4
71
3
72
24
73
20
40
0
40
0
40
0
40
0
40
0.0625000000000012
40
0.0625000000000012
40
0.125000000000002
40
0.125000000000002
40
0.250000000000004
40
0.250000000000004
40
0.312500000000003
40
0.312500000000003
40
0.375000000000002
40
0.375000000000002
40
0.500000000000003
40
0.500000000000003
40
0.625000000000003
40
0.625000000000003
40
0.750000000000004
40
0.750000000000004
40
1
40
1
40
1
40
1
41
1
10
17.69818105834
20
-7.64559265372696
30
0
41
1
10
17.6934313378227
20
-7.65369437394492
30
0
41
1
10
17.6882897889867
20
-7.66166557335913
30
0
41
1
10
17.6773553215863
20
-7.67710882983269
30
0
41
1
10
17.6716008277752
20
-7.68453345926855
30
0
41
1
10
17.6535070564053
20
-7.70594851575945
30
0
41
1
10
17.6403431053361
20
-7.71908600365688
30
0
41
1
10
17.61896037284
20
-7.73709624210801
30
0
41
1
10
17.6115431209208
20
-7.74282111858764
30
0
41
1
10
17.5964570188405
20
-7.75348667763032
30
0
41
1
10
17.5887541685171
20
-7.75845829864647
30
0
41
1
10
17.5651865615506
20
-7.77233099449199
30
0
41
1
10
17.5488655560666
20
-7.78019648186026
30
0
41
1
10
17.5150376500419
20
-7.79320609169173
30
0
41
1
10
17.4979733948962
20
-7.7981808250336
30
0
41
1
10
17.4636029977599
20
-7.8053397566151
30
0
41
1
10
17.4462370587483
20
-7.80752507105038
30
0
41
1
10
17.3941694441303
20
-7.80995497417783
30
0
41
1
10
17.3606039107087
20
-7.8061550559006
30
0
41
1
10
17.3281523379788
20
-7.79746679771665
30
0
0
SPLINE
5
182
100
AcDbEntity
8
1
62
256
6
ByLayer
370
18
48
1
60
0
100
AcDbSpline
70
4
71
3
72
19
73
15
40
0
40
0
40
0
40
0
40
0.105598795309641
40
0.207133056768079
40
0.304606247524388
40
0.398022283830804
40
0.487385615464969
40
0.572701326119435
40
0.653975258965619
40
0.731214174678416
40
0.804425952125477
40
0.873619846082934
40
0.938806822394164
40
1
40
1
40
1
40
1
41
1
10
35.5823668306202
20
-14.5115176122523
30
0
41
1
10
35.576108618171
20
-14.5108904529046
30
0
41
1
10
35.5638330740162
20
-14.5096602737877
30
0
41
1
10
35.5458128004538
20
-14.5075505437654
30
0
41
1
10
35.5285391192212
20
-14.5053071297987
30
0
41
1
10
35.512014018984
20
-14.5029243343372
30
0
41
1
10
35.4962369707867
20
-14.5004213867192
30
0
41
1
10
35.4812080910705
20
-14.4978107389907
30
0
41
1
10
35.4669272661603
20
-14.4951062583062
30
0
41
1
10
35.4533946416576
20
-14.4923201789327
30
0
41
1
10
35.440609557326
20
-14.4894671009241
30
0
41
1
10
35.4285740432233
20
-14.4865516944022
30
0
41
1
10
35.417280860311
20
-14.4836103489755
30
0
41
1
10
35.4100347419722
20
-14.4815169035999
30
0
41
1
10
35.4065261768002
20
-14.4805032588882
30
0
0
SPLINE
5
183
100
AcDbEntity
8
1
62
256
6
ByLayer
370
18
48
1
60
0
100
AcDbSpline
70
4
71
3
72
16
73
12
40
0
40
0
40
0
40
0
40
0.118227901208893
40
0.234676362797895
40
0.349345481218905
40
0.462235357483961
40
0.573346097457497
40
0.68267781217225
40
0.790230618171219
40
0.896004637878217
40
1
40
1
40
1
40
1
41
1
10
36.2702887043919
20
-14.5676991034846
30
0
41
1
10
36.243152126827
20
-14.5658443147006
30
0
41
1
10
36.1892874023703
20
-14.5621626534249
30
0
41
1
10
36.1091247133963
20
-14.5563512432761
30
0
41
1
10
36.0302034041847
20
-14.5503910704372
30
0
41
1
10
35.9525249527704
20
-14.5442680054652
30
0
41
1
10
35.8760890095596
20
-14.5379966706387
30
0
41
1
10
35.8008955277784
20
-14.5315859184644
30
0
41
1
10
35.7269450208381
20
-14.5250389627247
30
0
41
1
10
35.654235527414
20
-14.5183857559189
30
0
41
1
10
35.6061872606911
20
-14.5137940155123
30
0
41
1
10
35.5823668305903
20
-14.5115176122442
30
0
0
SPLINE
5
184
100
AcDbEntity
8
1
62
256
6
ByLayer
370
18
48
1
60
0
100
AcDbSpline
70
4
71
2
72
10
73
7
40
0
40
0
40
0
40
0.5
40
0.5
40
0.75
40
0.75
40
1
40
1
40
1
41
1
10
36.2703211835007
20
-14.5677012928333
30
0
41
1
10
36.5005090492971
20
-14.5832462360981
30
0
41
1
10
36.6813994958526
20
-14.6196716728964
30
0
41
1
10
36.7977168199746
20
-14.6430941886733
30
0
41
1
10
36.8815407125729
20
-14.6731522855375
30
0
41
1
10
37.0246417322626
20
-14.7244663462171
30
0
41
1
10
37.0499902265209
20
-14.7856377326413
30
0
0
SPLINE
5
185
100
AcDbEntity
8
1
62
256
6
ByLayer
370
18
48
1
60
0
100
AcDbSpline
70
4
71
2
72
6
73
3
40
0
40
0
40
0
40
1
40
1
40
1
41
1
10
37.049990226671
20
-14.7856377325555
30
0
41
1
10
37.0884919085575
20
-14.880827291814
30
0
41
1
10
37.0886043049809
20
-14.9764173817332
30
0
0
SPLINE
5
186
100
AcDbEntity
8
1
62
256
6
ByLayer
370
18
48
1
60
0
100
AcDbSpline
70
4
71
3
72
24
73
20
40
0
40
0
40
0
40
0
40
0.0615883759049064
40
0.122688254024714
40
0.183326299851684
40
0.243529792548011
40
0.303326606004197
40
0.362745186445323
40
0.421814526539199
40
0.480564136000296
40
0.539024008730862
40
0.597224586585096
40
0.655196719894222
40
0.71297162494074
40
0.770580838619311
40
0.828056170570647
40
0.885429653119936
40
0.942733489390619
40
1
40
1
40
1
40
1
41
1
10
37.0499902266703
20
-15.2071031292489
30
0
41
1
10
37.0514760409689
20
-15.2033792099968
30
0
41
1
10
37.0544358845991
20
-15.1959609083374
30
0
41
1
10
37.0585659721739
20
-15.1847565676489
30
0
41
1
10
37.0624450214137
20
-15.1735545488649
30
0
41
1
10
37.0660526456093
20
-15.1623464577508
30
0
41
1
10
37.0693942359554
20
-15.1511349517262
30
0
41
1
10
37.0724683525931
20
-15.1399197605343
30
0
41
1
10
37.0752753669343
20
-15.1287013912509
30
0
41
1
10
37.0778151708745
20
-15.1174801457247
30
0
41
1
10
37.0800877810844
20
-15.1062563812913
30
0
41
1
10
37.0820931925114
20
-15.0950304415213
30
0
41
1
10
37.0838313661186
20
-15.0838026744971
30
0
41
1
10
37.0853024227053
20
-15.0725734281265
30
0
41
1
10
37.0865058842011
20
-15.0613430503627
30
0
41
1
10
37.0874435045146
20
-15.0501118924944
30
0
41
1
10
37.088108736834
20
-15.0388802952565
30
0
41
1
10
37.0885259471524
20
-15.0276486403491
30
0
41
1
10
37.0885781913778
20
-15.0201599567538
30
0
41
1
10
37.0886043049802
20
-15.0164168348183
30
0
0
SPLINE
5
187
100
AcDbEntity
8
1
62
256
6
ByLayer
370
18
48
1
60
0
100
AcDbSpline
70
4
71
3
72
43
73
39
40
0
40
0
40
0
40
0
40
0.0409973406366466
40
0.0809092982715805
40
0.119736159842838
40
0.157478237047538
40
0.194135869264788
40
0.229709426921879
40
0.264199315386284
40
0.297605979485286
40
0.32992990877783
40
0.361171643733666
40
0.391331783012886
40
0.420410992088526
40
0.448410013519416
40
0.475329679265272
40
0.501170925548113
40
0.572592867093689
40
0.638080914696126
40
0.697670982799365
40
0.751410812475231
40
0.772779913618549
40
0.793234602755292
40
0.812782181749363
40
0.831431018019196
40
0.849190749344522
40
0.8660725363385
40
0.882089374987177
40
0.897256484840495
40
0.911591792130992
40
0.925116531009032
40
0.937855989439945
40
0.949840427402951
40
0.961106190504019
40
0.97169702597651
40
0.98166557083429
40
0.991074911407362
40
1
40
1
40
1
40
1
41
1
10
36.2703211835002
20
-15.4231546138061
30
0
41
1
10
36.2815955433724
20
-15.4223952017596
30
0
41
1
10
36.303845780377
20
-15.4208964827004
30
0
41
1
10
36.3367474852619
20
-15.418333600457
30
0
41
1
10
36.3687343870513
20
-15.415593274132
30
0
41
1
10
36.3998047803205
20
-15.4126660180727
30
0
41
1
10
36.429959107815
20
-15.4095720612164
30
0
41
1
10
36.4591972610572
20
-15.4063236670178
30
0
41
1
10
36.48751927373
20
-15.4029347803673
30
0
41
1
10
36.514925144199
20
-15.3994185258179
30
0
41
1
10
36.5414148802488
20
-15.3957878230354
30
0
41
1
10
36.5669884910951
20
-15.3920552143583
30
0
41
1
10
36.5916459782108
20
-15.388232871447
30
0
41
1
10
36.615387378659
20
-15.3843326498785
30
0
41
1
10
36.6382126108912
20
-15.3803658139653
30
0
41
1
10
36.6601220206576
20
-15.3763439781741
30
0
41
1
10
36.6937486984554
20
-15.3698273249673
30
0
41
1
10
36.7376602656583
20
-15.3604503845275
30
0
41
1
10
36.7903147855792
20
-15.3474615997154
30
0
41
1
10
36.8378060332945
20
-15.3339497329881
30
0
41
1
10
36.8731644417991
20
-15.3223301846047
30
0
41
1
10
36.8979490400557
20
-15.313210244847
30
0
41
1
10
36.9137384431467
20
-15.3070022551378
30
0
41
1
10
36.9286893772279
20
-15.300711773566
30
0
41
1
10
36.9428019685627
20
-15.2943448254898
30
0
41
1
10
36.9560763753174
20
-15.2879076086045
30
0
41
1
10
36.9685127830694
20
-15.2814062076804
30
0
41
1
10
36.9801114087744
20
-15.2748466436231
30
0
41
1
10
36.9908725094799
20
-15.2682348371405
30
0
41
1
10
37.0007963582661
20
-15.2615765740389
30
0
41
1
10
37.0098833178301
20
-15.2548775026051
30
0
41
1
10
37.0181335453685
20
-15.248142968347
30
0
41
1
10
37.0255478947301
20
-15.2413783691536
30
0
41
1
10
37.0321246317884
20
-15.234587705651
30
0
41
1
10
37.0378702438272
20
-15.2277782867884
30
0
41
1
10
37.042762001342
20
-15.2209445672112
30
0
41
1
10
37.0468749657511
20
-15.2141235105447
30
0
41
1
10
37.0489702532911
20
-15.2094016850779
30
0
41
1
10
37.0499902265202
20
-15.2071031291627
30
0
0
SPLINE
5
188
100
AcDbEntity
8
1
62
256
6
ByLayer
370
18
48
1
60
0
100
AcDbSpline
70
4
71
2
72
6
73
3
40
0
40
0
40
0
40
1
40
1
40
1
41
1
10
36.2702887043924
20
-15.4231567246348
30
0
41
1
10
35.9195527839452
20
-15.4459602872252
30
0
41
1
10
35.582366830591
20
-15.4776750718752
30
0
0
SPLINE
5
189
100
AcDbEntity
8
1
62
256
6
ByLayer
370
18
48
1
60
0
100
AcDbSpline
70
4
71
2
72
6
73
3
40
0
40
0
40
0
40
1
40
1
40
1
41
1
10
35.5823668306206
20
-15.4776750718672
30
0
41
1
10
35.4769907517285
20
-15.4876388332591
30
0
41
1
10
35.4065261768008
20
-15.5082643067128
30
0
0
LINE
5
7D
100
AcDbEntity
8
81
62
256
6
ByLayer
370
18
48
1
60
0
100
AcDbLine
10
41.1
20
-18
30
0
11
46.1
21
-18
31
0
39
0
210
0
220
0
230
1
0
LINE
5
7E
100
AcDbEntity
8
80
62
256
6
ByLayer
370
18
48
1
60
0
100
AcDbLine
10
0
20
0
30
0
11
0
21
5
31
0
39
0
210
0
220
0
230
1
0
LINE
5
7F
100
AcDbEntity
8
1
62
256
6
ByLayer
370
18
48
1
60
0
100
AcDbLine
10
16
20
-0.875
30
0
11
16
21
-0.675
31
0
39
0
210
0
220
0
230
1
0
LINE
5
80
100
AcDbEntity
8
1
62
256
6
ByLayer
370
18
48
1
60
0
100
AcDbLine
10
9.132847
20
0.324981
30
0
11
6.60048
21
0.324981
31
0
39
0
210
0
220
0
230
1
0
LINE
5
81
100
AcDbEntity
8
1
62
256
6
ByLayer
370
18
48
1
60
0
100
AcDbLine
10
9.476736
20
0.324981
30
0
11
9.404549
21
0.324981
31
0
39
0
210
0
220
0
230
1
0
LINE
5
82
100
AcDbEntity
8
1
62
256
6
ByLayer
370
18
48
1
60
0
100
AcDbLine
10
33.907632
20
-17.931321
30
0
11
33.907085
21
-17.624458
31
0
39
0
210
0
220
0
230
1
0
LINE
5
83
100
AcDbEntity
8
1
62
256
6
ByLayer
370
18
48
1
60
0
100
AcDbLine
10
31.438007
20
-17.936835
30
0
11
31.437683
21
-17.755311
31
0
39
0
210
0
220
0
230
1
0
LINE
5
84
100
AcDbEntity
8
1
62
256
6
ByLayer
370
18
48
1
60
0
100
AcDbLine
10
9.530813
20
0.25
30
0
11
6.714371
21
0.25
31
0
39
0
210
0
220
0
230
1
0
LINE
5
85
100
AcDbEntity
8
1
62
256
6
ByLayer
370
18
48
1
60
0
100
AcDbLine
10
14.717168
20
0.324981
30
0
11
9.57055
21
0.324981
31
0
39
0
210
0
220
0
230
1
0
LINE
5
86
100
AcDbEntity
8
1
62
256
6
ByLayer
370
18
48
1
60
0
100
AcDbLine
10
7.290539
20
-0.129904
30
0
11
15.243082
21
-0.129904
31
0
39
0
210
0
220
0
230
1
0
LINE
5
87
100
AcDbEntity
8
1
62
256
6
ByLayer
370
13
48
1
60
0
100
AcDbLine
10
14.818469
20
0.249981
30
0
11
6.71446
21
0.249981
31
0
39
0
210
0
220
0
230
1
0
LINE
5
88
100
AcDbEntity
8
1
62
256
6
ByLayer
370
18
48
1
60
0
100
AcDbLine
10
15.724532
20
-22.099573
30
0
11
13.105321
21
-19.480362
31
0
39
0
210
0
220
0
230
1
0
LINE
5
89
100
AcDbEntity
8
1
62
256
6
ByLayer
370
18
48
1
60
0
100
AcDbLine
10
26.14488
20
-22.992062
30
0
11
33.132279
21
-22.992062
31
0
39
0
210
0
220
0
230
1
0
LINE
5
8A
100
AcDbEntity
8
1
62
256
6
ByLayer
370
18
48
1
60
0
100
AcDbLine
10
40.1
20
-17.982614
30
0
11
40.1
21
-18.600653
31
0
39
0
210
0
220
0
230
1
0
LINE
5
8B
100
AcDbEntity
8
1
62
256
6
ByLayer
370
18
48
1
60
0
100
AcDbLine
10
39.219232
20
-17.931321
30
0
11
33.907632
21
-17.931321
31
0
39
0
210
0
220
0
230
1
0
LINE
5
8C
100
AcDbEntity
8
1
62
256
6
ByLayer
370
18
48
1
60
0
100
AcDbLine
10
31.438007
20
-17.936835
30
0
11
29.198572
21
-17.936835
31
0
39
0
210
0
220
0
230
1
0
LINE
5
8D
100
AcDbEntity
8
1
62
256
6
ByLayer
370
18
48
1
60
0
100
AcDbLine
10
21.504827
20
-10.849374
30
0
11
21.499987
21
-10.849373
31
0
39
0
210
0
220
0
230
1
0
LINE
5
8E
100
AcDbEntity
8
1
62
256
6
ByLayer
370
18
48
1
60
0
100
AcDbLine
10
32.607917
20
-17.052437
30
0
11
32.485954
21
-17.705225
31
0
39
0
210
0
220
0
230
1
0
LINE
5
8F
100
AcDbEntity
8
1
62
256
6
ByLayer
370
18
48
1
60
0
100
AcDbLine
10
32.529948
20
-12.361782
30
0
11
32.608204
21
-12.807106
31
0
39
0
210
0
220
0
230
1
0
LINE
5
90
100
AcDbEntity
8
1
62
256
6
ByLayer
370
18
48
1
60
0
100
AcDbLine
10
-14.000019
20
0.324981
30
0
11
-14.075019
21
0.249981
31
0
39
0
210
0
220
0
230
1
0
LINE
5
91
100
AcDbEntity
8
1
62
256
6
ByLayer
370
18
48
1
60
0
100
AcDbLine
10
-9.769771
20
0.324981
30
0
11
-10.247062
21
0.324981
31
0
39
0
210
0
220
0
230
1
0
LINE
5
92
100
AcDbEntity
8
1
62
256
6
ByLayer
370
18
48
1
60
0
100
AcDbLine
10
-10.810081
20
0.324981
30
0
11
-11.023511
21
0.324981
31
0
39
0
210
0
220
0
230
1
0
LINE
5
93
100
AcDbEntity
8
1
62
256
6
ByLayer
370
18
48
1
60
0
100
AcDbLine
10
-13.791283
20
0.324981
30
0
11
-14.000019
21
0.324981
31
0
39
0
210
0
220
0
230
1
0
LINE
5
94
100
AcDbEntity
8
1
62
256
6
ByLayer
370
18
48
1
60
0
100
AcDbLine
10
-14.075019
20
0.249981
30
0
11
-14.559331
21
-0.234331
31
0
39
0
210
0
220
0
230
1
0
LINE
5
95
100
AcDbEntity
8
1
62
256
6
ByLayer
370
13
48
1
60
0
100
AcDbLine
10
-13.927309
20
0.249981
30
0
11
-14.075019
21
0.249981
31
0
39
0
210
0
220
0
230
1
0
LINE
5
96
100
AcDbEntity
8
1
62
256
6
ByLayer
370
18
48
1
60
0
100
AcDbLine
10
-11.132078
20
0.324981
30
0
11
-11.287197
21
0.324981
31
0
39
0
210
0
220
0
230
1
0
LINE
5
97
100
AcDbEntity
8
1
62
256
6
ByLayer
370
18
48
1
60
0
100
AcDbLine
10
-13.048061
20
0.324981
30
0
11
-13.703327
21
0.324981
31
0
39
0
210
0
220
0
230
1
0
LINE
5
98
100
AcDbEntity
8
1
62
256
6
ByLayer
370
13
48
1
60
0
100
AcDbLine
10
-13.206552
20
0.249981
30
0
11
-13.72716
21
0.249981
31
0
39
0
210
0
220
0
230
1
0
LINE
5
99
100
AcDbEntity
8
1
62
256
6
ByLayer
370
13
48
1
60
0
100
AcDbLine
10
-14.125544
20
-0.394519
30
0
11
-14.265575
21
-0.394519
31
0
39
0
210
0
220
0
230
1
0
LINE
5
9A
100
AcDbEntity
8
1
62
256
6
ByLayer
370
18
48
1
60
0
100
AcDbLine
10
-12.074956
20
0.324981
30
0
11
-12.9317
21
0.324981
31
0
39
0
210
0
220
0
230
1
0
LINE
5
9B
100
AcDbEntity
8
1
62
256
6
ByLayer
370
13
48
1
60
0
100
AcDbLine
10
-12.261918
20
0.249981
30
0
11
-12.941904
21
0.249981
31
0
39
0
210
0
220
0
230
1
0
LINE
5
9C
100
AcDbEntity
8
1
62
256
6
ByLayer
370
13
48
1
60
0
100
AcDbLine
10
-13.288685
20
-0.394519
30
0
11
-13.470275
21
-0.394519
31
0
39
0
210
0
220
0
230
1
0
LINE
5
9D
100
AcDbEntity
8
1
62
256
6
ByLayer
370
18
48
1
60
0
100
AcDbLine
10
-11.287177
20
0.324981
30
0
11
-11.923781
21
0.324981
31
0
39
0
210
0
220
0
230
1
0
LINE
5
9E
100
AcDbEntity
8
1
62
256
6
ByLayer
370
13
48
1
60
0
100
AcDbLine
10
-11.153931
20
0.249981
30
0
11
-11.918509
21
0.249981
31
0
39
0
210
0
220
0
230
1
0
LINE
5
9F
100
AcDbEntity
8
1
62
256
6
ByLayer
370
13
48
1
60
0
100
AcDbLine
10
-12.212601
20
-0.394519
30
0
11
-12.44548
21
-0.394519
31
0
39
0
210
0
220
0
230
1
0
LINE
5
A0
100
AcDbEntity
8
1
62
256
6
ByLayer
370
18
48
1
60
0
100
AcDbLine
10
-10.247044
20
0.324981
30
0
11
-10.612458
21
0.324981
31
0
39
0
210
0
220
0
230
1
0
LINE
5
A1
100
AcDbEntity
8
1
62
256
6
ByLayer
370
13
48
1
60
0
100
AcDbLine
10
-9.966378
20
0.249981
30
0
11
-10.588147
21
0.249981
31
0
39
0
210
0
220
0
230
1
0
LINE
5
A2
100
AcDbEntity
8
1
62
256
6
ByLayer
370
18
48
1
60
0
100
AcDbLine
10
-9.769771
20
0.324981
30
0
11
-9.404549
21
0.324981
31
0
39
0
210
0
220
0
230
1
0
LINE
5
A3
100
AcDbEntity
8
1
62
256
6
ByLayer
370
18
48
1
60
0
100
AcDbLine
10
-11.132078
20
0.324981
30
0
11
-11.023467
21
0.324981
31
0
39
0
210
0
220
0
230
1
0
LINE
5
A4
100
AcDbEntity
8
1
62
256
6
ByLayer
370
13
48
1
60
0
100
AcDbLine
10
-10.826145
20
-0.394519
30
0
11
-11.127967
21
-0.394519
31
0
39
0
210
0
220
0
230
1
0
LINE
5
A5
100
AcDbEntity
8
1
62
256
6
ByLayer
370
13
48
1
60
0
100
AcDbLine
10
23.1
20
-12.367634
30
0
11
23.1
21
-13.779862
31
0
39
0
210
0
220
0
230
1
0
LINE
5
A6
100
AcDbEntity
8
1
62
256
6
ByLayer
370
18
48
1
60
0
100
AcDbLine
10
-6.742374
20
0.324981
30
0
11
-8.864082
21
0.324981
31
0
39
0
210
0
220
0
230
1
0
LINE
5
A7
100
AcDbEntity
8
1
62
256
6
ByLayer
370
18
48
1
60
0
100
AcDbLine
10
16
20
-0.675
30
0
11
10.163081
21
-0.675
31
0
39
0
210
0
220
0
230
1
0
LINE
5
A8
100
AcDbEntity
8
1
62
256
6
ByLayer
370
13
48
1
60
0
100
AcDbLine
10
-7.153883
20
0.249981
30
0
11
-8.812878
21
0.249981
31
0
39
0
210
0
220
0
230
1
0
LINE
5
A9
100
AcDbEntity
8
1
62
256
6
ByLayer
370
18
48
1
60
0
100
AcDbLine
10
19.987869
20
-1.563304
30
0
11
21.5
21
-2.832133
31
0
39
0
210
0
220
0
230
1
0
LINE
5
AA
100
AcDbEntity
8
1
62
256
6
ByLayer
370
18
48
1
60
0
100
AcDbLine
10
29.6
20
-12.616234
30
0
11
29.6
21
-17.901438
31
0
39
0
210
0
220
0
230
1
0
LINE
5
AB
100
AcDbEntity
8
1
62
256
6
ByLayer
370
18
48
1
60
0
100
AcDbLine
10
21.5
20
-12.5238
30
0
11
21.5
21
-2.832133
31
0
39
0
210
0
220
0
230
1
0
LINE
5
AC
100
AcDbEntity
8
1
62
256
6
ByLayer
370
18
48
1
60
0
100
AcDbLine
10
10.388566
20
-17.375041
30
0
11
10.51676
21
-17.375041
31
0
39
0
210
0
220
0
230
1
0
LINE
5
AD
100
AcDbEntity
8
1
62
256
6
ByLayer
370
18
48
1
60
0
100
AcDbLine
10
10.593748
20
-1.375
30
0
11
19.763457
21
-1.375
31
0
39
0
210
0
220
0
230
1
0
LINE
5
AE
100
AcDbEntity
8
1
62
256
6
ByLayer
370
18
48
1
60
0
100
AcDbLine
10
12
20
-18.375041
30
0
11
13.105296
21
-19.480337
31
0
39
0
210
0
220
0
230
1
0
LINE
5
AF
100
AcDbEntity
8
1
62
256
6
ByLayer
370
18
48
1
60
0
100
AcDbLine
10
19.987869
20
-19.480337
30
0
11
19.987869
21
-8.840769
31
0
39
0
210
0
220
0
230
1
0
LINE
5
B0
100
AcDbEntity
8
1
62
256
6
ByLayer
370
18
48
1
60
0
100
AcDbLine
10
19.987869
20
-4.459262
30
0
11
19.987869
21
-1.563304
31
0
39
0
210
0
220
0
230
1
0
LINE
5
B1
100
AcDbEntity
8
1
62
256
6
ByLayer
370
18
48
1
60
0
100
AcDbLine
10
19.763457
20
-1.375
30
0
11
19.987869
21
-1.563304
31
0
39
0
210
0
220
0
230
1
0
LINE
5
B2
100
AcDbEntity
8
1
62
256
6
ByLayer
370
18
48
1
60
0
100
AcDbLine
10
19.987869
20
-19.480337
30
0
11
13.105296
21
-19.480337
31
0
39
0
210
0
220
0
230
1
0
LINE
5
B3
100
AcDbEntity
8
1
62
256
6
ByLayer
370
18
48
1
60
0
100
AcDbLine
10
9.445832
20
-17.375041
30
0
11
10.388566
21
-17.375041
31
0
39
0
210
0
220
0
230
1
0
LINE
5
B4
100
AcDbEntity
8
1
62
256
6
ByLayer
370
18
48
1
60
0
100
AcDbLine
10
9.371207
20
-0.675
30
0
11
10.163081
21
-0.675
31
0
39
0
210
0
220
0
230
1
0
LINE
5
B5
100
AcDbEntity
8
1
62
256
6
ByLayer
370
18
48
1
60
0
100
AcDbLine
10
10.388566
20
-1.357539
30
0
11
10.388566
21
-17.375041
31
0
39
0
210
0
220
0
230
1
0
LINE
5
B6
100
AcDbEntity
8
1
62
256
6
ByLayer
370
18
48
1
60
0
100
AcDbLine
10
10.163081
20
-0.875
30
0
11
10.163081
21
-0.675
31
0
39
0
210
0
220
0
230
1
0
LINE
5
B7
100
AcDbEntity
8
1
62
256
6
ByLayer
370
13
48
1
60
0
100
AcDbLine
10
16
20
-0.875
30
0
11
10.163081
21
-0.875
31
0
39
0
210
0
220
0
230
1
0
LINE
5
B8
100
AcDbEntity
8
1
62
256
6
ByLayer
370
13
48
1
60
0
100
AcDbLine
10
-8.986697
20
-0.394519
30
0
11
-9.395388
21
-0.394519
31
0
39
0
210
0
220
0
230
1
0
LINE
5
B9
100
AcDbEntity
8
1
62
256
6
ByLayer
370
18
48
1
60
0
100
AcDbLine
10
6.326108
20
0.324981
30
0
11
1.735923
21
0.324981
31
0
39
0
210
0
220
0
230
1
0
LINE
5
BA
100
AcDbEntity
8
1
62
256
6
ByLayer
370
18
48
1
60
0
100
AcDbLine
10
-1.735923
20
0.324981
30
0
11
-6.326108
21
0.324981
31
0
39
0
210
0
220
0
230
1
0
LINE
5
BB
100
AcDbEntity
8
1
62
256
6
ByLayer
370
13
48
1
60
0
100
AcDbLine
10
6.222926
20
0.249981
30
0
11
3.020453
21
0.249981
31
0
39
0
210
0
220
0
230
1
0
LINE
5
BC
100
AcDbEntity
8
1
62
256
6
ByLayer
370
13
48
1
60
0
100
AcDbLine
10
-3.020453
20
0.249981
30
0
11
-6.222926
21
0.249981
31
0
39
0
210
0
220
0
230
1
0
LINE
5
BD
100
AcDbEntity
8
1
62
256
6
ByLayer
370
13
48
1
60
0
100
AcDbLine
10
6.943702
20
-0.394519
30
0
11
6.310523
21
-0.394519
31
0
39
0
210
0
220
0
230
1
0
LINE
5
BE
100
AcDbEntity
8
1
62
256
6
ByLayer
370
13
48
1
60
0
100
AcDbLine
10
-6.310523
20
-0.394519
30
0
11
-6.943702
21
-0.394519
31
0
39
0
210
0
220
0
230
1
0
LINE
5
BF
100
AcDbEntity
8
1
62
256
6
ByLayer
370
13
48
1
60
0
100
AcDbLine
10
1.912242
20
-0.394519
30
0
11
-1.912242
21
-0.394519
31
0
39
0
210
0
220
0
230
1
0
LINE
5
C0
100
AcDbEntity
8
1
62
256
6
ByLayer
370
18
48
1
60
0
100
AcDbLine
10
-15
20
-0.875
30
0
11
-15
21
-0.675
31
0
39
0
210
0
220
0
230
1
0
LINE
5
C1
100
AcDbEntity
8
1
62
256
6
ByLayer
370
18
48
1
60
0
100
AcDbLine
10
9.371254
20
-0.675
30
0
11
9.371254
21
-0.875
31
0
39
0
210
0
220
0
230
1
0
LINE
5
C2
100
AcDbEntity
8
1
62
256
6
ByLayer
370
18
48
1
60
0
100
AcDbLine
10
9.371254
20
-0.675
30
0
11
7.937106
21
-0.675
31
0
39
0
210
0
220
0
230
1
0
LINE
5
C3
100
AcDbEntity
8
1
62
256
6
ByLayer
370
18
48
1
60
0
100
AcDbLine
10
7.937106
20
-0.675
30
0
11
-15
21
-0.675
31
0
39
0
210
0
220
0
230
1
0
LINE
5
C4
100
AcDbEntity
8
1
62
256
6
ByLayer
370
18
48
1
60
0
100
AcDbLine
10
6.326108
20
0.324981
30
0
11
6.60065
21
0.324981
31
0
39
0
210
0
220
0
230
1
0
LINE
5
C5
100
AcDbEntity
8
1
62
256
6
ByLayer
370
18
48
1
60
0
100
AcDbLine
10
-1.735945
20
0.324981
30
0
11
1.735945
21
0.324981
31
0
39
0
210
0
220
0
230
1
0
LINE
5
C6
100
AcDbEntity
8
1
62
256
6
ByLayer
370
18
48
1
60
0
100
AcDbLine
10
-6.742492
20
0.324981
30
0
11
-6.326108
21
0.324981
31
0
39
0
210
0
220
0
230
1
0
LINE
5
C7
100
AcDbEntity
8
1
62
256
6
ByLayer
370
18
48
1
60
0
100
AcDbLine
10
-9.132847
20
0.324981
30
0
11
-8.864082
21
0.324981
31
0
39
0
210
0
220
0
230
1
0
LINE
5
C8
100
AcDbEntity
8
1
62
256
6
ByLayer
370
18
48
1
60
0
100
AcDbLine
10
-10.810022
20
0.324981
30
0
11
-10.612458
21
0.324981
31
0
39
0
210
0
220
0
230
1
0
LINE
5
C9
100
AcDbEntity
8
1
62
256
6
ByLayer
370
18
48
1
60
0
100
AcDbLine
10
-12.074944
20
0.324981
30
0
11
-11.923781
21
0.324981
31
0
39
0
210
0
220
0
230
1
0
LINE
5
CA
100
AcDbEntity
8
1
62
256
6
ByLayer
370
18
48
1
60
0
100
AcDbLine
10
-13.048064
20
0.324981
30
0
11
-12.9317
21
0.324981
31
0
39
0
210
0
220
0
230
1
0
LINE
5
CB
100
AcDbEntity
8
1
62
256
6
ByLayer
370
18
48
1
60
0
100
AcDbLine
10
-13.791289
20
0.324981
30
0
11
-13.703327
21
0.324981
31
0
39
0
210
0
220
0
230
1
0
LINE
5
CC
100
AcDbEntity
8
1
62
256
6
ByLayer
370
13
48
1
60
0
100
AcDbLine
10
-15
20
-0.875
30
0
11
9.371254
21
-0.875
31
0
39
0
210
0
220
0
230
1
0
LINE
5
CD
100
AcDbEntity
8
1
62
256
6
ByLayer
370
18
48
1
60
0
100
AcDbLine
10
-3.724959
20
-17.375041
30
0
11
0
21
-17.375041
31
0
39
0
210
0
220
0
230
1
0
LINE
5
CE
100
AcDbEntity
8
1
62
256
6
ByLayer
370
18
48
1
60
0
100
AcDbLine
10
-15
20
-6.1
30
0
11
-3.724959
21
-17.375041
31
0
39
0
210
0
220
0
230
1
0
LINE
5
CF
100
AcDbEntity
8
1
62
256
6
ByLayer
370
18
48
1
60
0
100
AcDbLine
10
-15
20
-1.092945
30
0
11
0
21
-1.092945
31
0
39
0
210
0
220
0
230
1
0
LINE
5
D0
100
AcDbEntity
8
1
62
256
6
ByLayer
370
18
48
1
60
0
100
AcDbLine
10
-15
20
-1.092945
30
0
11
-15
21
-6.1
31
0
39
0
210
0
220
0
230
1
0
LINE
5
D1
100
AcDbEntity
8
1
62
256
6
ByLayer
370
18
48
1
60
0
100
AcDbLine
10
6.461
20
-17.375041
30
0
11
9.445863
21
-17.375041
31
0
39
0
210
0
220
0
230
1
0
LINE
5
D2
100
AcDbEntity
8
1
62
256
6
ByLayer
370
18
48
1
60
0
100
AcDbLine
10
9.445863
20
-17.375041
30
0
11
9.445863
21
-1.202402
31
0
39
0
210
0
220
0
230
1
0
LINE
5
D3
100
AcDbEntity
8
1
62
256
6
ByLayer
370
18
48
1
60
0
100
AcDbLine
10
6.461
20
-1.375
30
0
11
8.18325
21
-1.375
31
0
39
0
210
0
220
0
230
1
0
LINE
5
D4
100
AcDbEntity
8
1
62
256
6
ByLayer
370
13
48
1
60
0
100
AcDbLine
10
0
20
-1.092945
30
0
11
0
21
-17.375041
31
0
39
0
210
0
220
0
230
1
0
LINE
5
D5
100
AcDbEntity
8
1
62
256
6
ByLayer
370
18
48
1
60
0
100
AcDbLine
10
0
20
-17.375041
30
0
11
6.461
21
-17.375041
31
0
39
0
210
0
220
0
230
1
0
LINE
5
D6
100
AcDbEntity
8
1
62
256
6
ByLayer
370
18
48
1
60
0
100
AcDbLine
10
6.461
20
-1.375
30
0
11
6.461
21
-17.375041
31
0
39
0
210
0
220
0
230
1
0
LINE
5
D7
100
AcDbEntity
8
1
62
256
6
ByLayer
370
18
48
1
60
0
100
AcDbLine
10
3.827205
20
-1.375
30
0
11
6.461
21
-1.375
31
0
39
0
210
0
220
0
230
1
0
LINE
5
D8
100
AcDbEntity
8
1
62
256
6
ByLayer
370
18
48
1
60
0
100
AcDbLine
10
40.676744
20
-18.016197
30
0
11
38.668682
21
-17.899254
31
0
39
0
210
0
220
0
230
1
0
LINE
5
D9
100
AcDbEntity
8
1
62
256
6
ByLayer
370
18
48
1
60
0
100
AcDbLine
10
40.676744
20
-11.983885
30
0
11
38.668682
21
-12.100828
31
0
39
0
210
0
220
0
230
1
0
LINE
5
DA
100
AcDbEntity
8
1
62
256
6
ByLayer
370
18
48
1
60
0
100
AcDbLine
10
41.1
20
-12.383203
30
0
11
41.1
21
-17.616879
31
0
39
0
210
0
220
0
230
1
0
LINE
5
DB
100
AcDbEntity
8
1
62
256
6
ByLayer
370
18
48
1
60
0
100
AcDbLine
10
38.668682
20
-17.899254
30
0
11
38.243073
21
-17.918851
31
0
39
0
210
0
220
0
230
1
0
LINE
5
DC
100
AcDbEntity
8
1
62
256
6
ByLayer
370
18
48
1
60
0
100
AcDbLine
10
38.668682
20
-12.100828
30
0
11
38.243073
21
-12.076775
31
0
39
0
210
0
220
0
230
1
0
LINE
5
DD
100
AcDbEntity
8
1
62
256
6
ByLayer
370
18
48
1
60
0
100
AcDbLine
10
38.668682
20
-12.100828
30
0
11
38.668682
21
-17.899254
31
0
39
0
210
0
220
0
230
1
0
LINE
5
DE
100
AcDbEntity
8
1
62
256
6
ByLayer
370
13
48
1
60
0
100
AcDbLine
10
33.100021
20
-14.976417
30
0
11
37.088604
21
-14.976417
31
0
39
0
210
0
220
0
230
1
0
LINE
5
DF
100
AcDbEntity
8
1
62
256
6
ByLayer
370
13
48
1
60
0
100
AcDbLine
10
33.099889
20
-15.016417
30
0
11
37.088604
21
-15.016417
31
0
39
0
210
0
220
0
230
1
0
LINE
5
E0
100
AcDbEntity
8
1
62
256
6
ByLayer
370
13
48
1
60
0
100
AcDbLine
10
33.100676
20
-14.785638
30
0
11
37.04999
21
-14.785638
31
0
39
0
210
0
220
0
230
1
0
LINE
5
E1
100
AcDbEntity
8
1
62
256
6
ByLayer
370
13
48
1
60
0
100
AcDbLine
10
33.099224
20
-15.207103
30
0
11
37.04999
21
-15.207103
31
0
39
0
210
0
220
0
230
1
0
LINE
5
E2
100
AcDbEntity
8
1
62
256
6
ByLayer
370
13
48
1
60
0
100
AcDbLine
10
36.270287
20
-14.567701
30
0
11
33.00646
21
-14.567701
31
0
39
0
210
0
220
0
230
1
0
LINE
5
E3
100
AcDbEntity
8
1
62
256
6
ByLayer
370
13
48
1
60
0
100
AcDbLine
10
36.270287
20
-15.423155
30
0
11
32.997711
21
-15.423155
31
0
39
0
210
0
220
0
230
1
0
LINE
5
E4
100
AcDbEntity
8
1
62
256
6
ByLayer
370
13
48
1
60
0
100
AcDbLine
10
35.582367
20
-14.511518
30
0
11
32.890883
21
-14.511518
31
0
39
0
210
0
220
0
230
1
0
LINE
5
E5
100
AcDbEntity
8
1
62
256
6
ByLayer
370
13
48
1
60
0
100
AcDbLine
10
35.582367
20
-15.477675
30
0
11
32.882482
21
-15.477675
31
0
39
0
210
0
220
0
230
1
0
LINE
5
E6
100
AcDbEntity
8
1
62
256
6
ByLayer
370
13
48
1
60
0
100
AcDbLine
10
32.851526
20
-14.480503
30
0
11
35.406526
21
-14.480503
31
0
39
0
210
0
220
0
230
1
0
LINE
5
E7
100
AcDbEntity
8
1
62
256
6
ByLayer
370
13
48
1
60
0
100
AcDbLine
10
32.847379
20
-15.508264
30
0
11
35.406526
21
-15.508264
31
0
39
0
210
0
220
0
230
1
0
LINE
5
E8
100
AcDbEntity
8
1
62
256
6
ByLayer
370
13
48
1
60
0
100
AcDbLine
10
35.095391
20
-14.388351
30
0
11
32.838648
21
-14.388351
31
0
39
0
210
0
220
0
230
1
0
LINE
5
E9
100
AcDbEntity
8
1
62
256
6
ByLayer
370
13
48
1
60
0
100
AcDbLine
10
35.095391
20
-15.599664
30
0
11
32.833777
21
-15.599664
31
0
39
0
210
0
220
0
230
1
0
LINE
5
EA
100
AcDbEntity
8
1
62
256
6
ByLayer
370
13
48
1
60
0
100
AcDbLine
10
35.00992
20
-14.343979
30
0
11
32.83255
21
-14.343979
31
0
39
0
210
0
220
0
230
1
0
LINE
5
EB
100
AcDbEntity
8
1
62
256
6
ByLayer
370
18
48
1
60
0
100
AcDbLine
10
33.711484
20
-12.39237
30
0
11
32.535204
21
-12.39237
31
0
39
0
210
0
220
0
230
1
0
LINE
5
EC
100
AcDbEntity
8
1
62
256
6
ByLayer
370
13
48
1
60
0
100
AcDbLine
10
33.718068
20
-12.650991
30
0
11
32.580738
21
-12.650991
31
0
39
0
210
0
220
0
230
1
0
LINE
5
ED
100
AcDbEntity
8
1
62
256
6
ByLayer
370
13
48
1
60
0
100
AcDbLine
10
33.711484
20
-12.633618
30
0
11
32.577693
21
-12.633618
31
0
39
0
210
0
220
0
230
1
0
LINE
5
EE
100
AcDbEntity
8
1
62
256
6
ByLayer
370
13
48
1
60
0
100
AcDbLine
10
35.00992
20
-15.643829
30
0
11
32.827142
21
-15.643829
31
0
39
0
210
0
220
0
230
1
0
LINE
5
EF
100
AcDbEntity
8
1
62
256
6
ByLayer
370
13
48
1
60
0
100
AcDbLine
10
33.718068
20
-17.333695
30
0
11
32.555307
21
-17.333695
31
0
39
0
210
0
220
0
230
1
0
LINE
5
F0
100
AcDbEntity
8
1
62
256
6
ByLayer
370
18
48
1
60
0
100
AcDbLine
10
35.195422
20
-17.624467
30
0
11
32.501
21
-17.624467
31
0
39
0
210
0
220
0
230
1
0
LINE
5
F1
100
AcDbEntity
8
1
62
256
6
ByLayer
370
18
48
1
60
0
100
AcDbLine
10
33.711484
20
-17.592299
30
0
11
32.506931
21
-17.592299
31
0
39
0
210
0
220
0
230
1
0
LINE
5
F2
100
AcDbEntity
8
1
62
256
6
ByLayer
370
13
48
1
60
0
100
AcDbLine
10
33.711484
20
-17.351051
30
0
11
32.551976
21
-17.351051
31
0
39
0
210
0
220
0
230
1
0
LINE
5
F3
100
AcDbEntity
8
1
62
256
6
ByLayer
370
18
48
1
60
0
100
AcDbLine
10
35.00992
20
-14.343979
30
0
11
33.718066
21
-12.650993
31
0
39
0
210
0
220
0
230
1
0
LINE
5
F4
100
AcDbEntity
8
1
62
256
6
ByLayer
370
18
48
1
60
0
100
AcDbLine
10
35.406526
20
-14.480503
30
0
11
35.095391
21
-14.388351
31
0
39
0
210
0
220
0
230
1
0
LINE
5
F5
100
AcDbEntity
8
1
62
256
6
ByLayer
370
18
48
1
60
0
100
AcDbLine
10
37.088604
20
-14.976417
30
0
11
37.088604
21
-15.016417
31
0
39
0
210
0
220
0
230
1
0
LINE
5
F6
100
AcDbEntity
8
1
62
256
6
ByLayer
370
18
48
1
60
0
100
AcDbLine
10
35.406526
20
-15.508264
30
0
11
35.095391
21
-15.599664
31
0
39
0
210
0
220
0
230
1
0
LINE
5
F7
100
AcDbEntity
8
1
62
256
6
ByLayer
370
18
48
1
60
0
100
AcDbLine
10
35.00992
20
-15.643829
30
0
11
33.718066
21
-17.333693
31
0
39
0
210
0
220
0
230
1
0
LINE
5
F8
100
AcDbEntity
8
1
62
256
6
ByLayer
370
18
48
1
60
0
100
AcDbLine
10
33.711484
20
-17.351051
30
0
11
33.711484
21
-17.592299
31
0
39
0
210
0
220
0
230
1
0
LINE
5
F9
100
AcDbEntity
8
1
62
256
6
ByLayer
370
18
48
1
60
0
100
AcDbLine
10
35.139855
20
-17.594026
30
0
11
33.711484
21
-17.592299
31
0
39
0
210
0
220
0
230
1
0
LINE
5
FA
100
AcDbEntity
8
1
62
256
6
ByLayer
370
18
48
1
60
0
100
AcDbLine
10
35.567511
20
-17.827449
30
0
11
35.139855
21
-17.594026
31
0
39
0
210
0
220
0
230
1
0
LINE
5
FB
100
AcDbEntity
8
1
62
256
6
ByLayer
370
18
48
1
60
0
100
AcDbLine
10
35.567511
20
-17.827449
30
0
11
38.243073
21
-17.918851
31
0
39
0
210
0
220
0
230
1
0
LINE
5
FC
100
AcDbEntity
8
1
62
256
6
ByLayer
370
18
48
1
60
0
100
AcDbLine
10
38.243073
20
-17.918851
30
0
11
38.243073
21
-12.076775
31
0
39
0
210
0
220
0
230
1
0
LINE
5
FD
100
AcDbEntity
8
1
62
256
6
ByLayer
370
18
48
1
60
0
100
AcDbLine
10
35.567511
20
-12.161708
30
0
11
38.243073
21
-12.076775
31
0
39
0
210
0
220
0
230
1
0
LINE
5
FE
100
AcDbEntity
8
1
62
256
6
ByLayer
370
18
48
1
60
0
100
AcDbLine
10
35.567511
20
-12.161708
30
0
11
35.139855
21
-12.394097
31
0
39
0
210
0
220
0
230
1
0
LINE
5
FF
100
AcDbEntity
8
1
62
256
6
ByLayer
370
18
48
1
60
0
100
AcDbLine
10
35.139855
20
-12.394097
30
0
11
33.711484
21
-12.39237
31
0
39
0
210
0
220
0
230
1
0
LINE
5
100
100
AcDbEntity
8
1
62
256
6
ByLayer
370
18
48
1
60
0
100
AcDbLine
10
33.711484
20
-12.633618
30
0
11
33.711484
21
-12.39237
31
0
39
0
210
0
220
0
230
1
0
MTEXT
5
18A
100
AcDbEntity
8
SK6
62
256
6
ByLayer
370
18
48
1
60
0
100
AcDbMText
10
-19.2645
20
-63.213397
30
0
210
0
220
0
230
1
1
\W0.7734;C2A-SL32-RGK18B-058GB
40
3.5
41
0
44
1.084337
50
0
71
7
72
5
7
iso_b_vert
0
DIMENSION
5
18F
100
AcDbEntity
8
2
62
256
6
ByLayer
370
18
48
1
60
0
100
AcDbDimension
2
_U0
10
41.1
20
16.25
30
0
11
20.55
21
16.25
31
0
70
32
71
1
72
1
41
1
210
0
220
0
230
1
3
Standard
100
AcDbAlignedDimension
13
0
23
0
33
0
14
41.1
24
-18
34
0
50
0
100
AcDbRotatedDimension
1001
ACAD
1000
DSTYLE
1002
{
1070
   371
1070
    13
1070
   372
1070
    13
1070
   170
1070
     0
1070
   144
1040
1.0
1070
   277
1070
     2
1070
   284
1070
     8
1070
   278
1070
    46
1070
   146
1040
1.0
1070
   345
1005
16
1070
   347
1005
16
1070
   346
1005
16
1070
   344
1005
0
1070
   343
1005
0
1070
   172
1070
     1
1070
    76
1070
     0
1070
    75
1070
     0
1070
   282
1070
     0
1070
   281
1070
     0
1070
    71
1070
     0
1070
    74
1070
     0
1070
   279
1070
     0
1070
   173
1070
     1
1070
   340
1005
18B
1070
   271
1070
     2
1070
   272
1070
     2
1070
    77
1070
     1
1070
    73
1070
     1
1070
   171
1070
     3
1070
   274
1070
     4
1070
   177
1070
     2
1070
   176
1070
     2
1070
   178
1070
     2
1070
    78
1070
     8
1070
    48
1040
-0.1
1070
    41
1040
3.5
1070
   147
1040
1.75
1070
    42
1040
1.5875
1070
    44
1040
2.0
1070
   140
1040
3.5
1002
}
1001
ACAD_DSTYLE_DIM_LINETYPE
1070
   380
1005
16
1001
ACAD_DSTYLE_DIM_EXT1_LINETYPE
1070
   381
1005
16
1001
ACAD_DSTYLE_DIM_EXT2_LINETYPE
1070
   382
1005
16
0
DIMENSION
5
1A9
100
AcDbEntity
8
2
62
256
6
ByLayer
370
18
48
1
60
0
100
AcDbDimension
2
_U1
10
41.1
20
8.25
30
0
11
32.1
21
8.25
31
0
70
32
71
1
72
1
41
1
210
0
220
0
230
1
3
Standard
100
AcDbAlignedDimension
13
23.1
23
-12.325041
33
0
14
41.1
24
-18
34
0
50
0
100
AcDbRotatedDimension
1001
ACAD
1000
DSTYLE
1002
{
1070
   371
1070
    13
1070
   372
1070
    13
1070
   170
1070
     0
1070
   144
1040
1.0
1070
   277
1070
     2
1070
   284
1070
     8
1070
   278
1070
    46
1070
   146
1040
1.0
1070
   345
1005
16
1070
   347
1005
16
1070
   346
1005
16
1070
   344
1005
0
1070
   343
1005
0
1070
   172
1070
     1
1070
    76
1070
     0
1070
    75
1070
     0
1070
   282
1070
     0
1070
   281
1070
     0
1070
    71
1070
     0
1070
    74
1070
     0
1070
   279
1070
     0
1070
   173
1070
     1
1070
   340
1005
18B
1070
   271
1070
     2
1070
   272
1070
     2
1070
    77
1070
     1
1070
    73
1070
     1
1070
   171
1070
     3
1070
   274
1070
     4
1070
   177
1070
     2
1070
   176
1070
     2
1070
   178
1070
     2
1070
    78
1070
     8
1070
    48
1040
-0.1
1070
    41
1040
3.5
1070
   147
1040
1.75
1070
    42
1040
1.5875
1070
    44
1040
2.0
1070
   140
1040
3.5
1002
}
1001
ACAD_DSTYLE_DIM_LINETYPE
1070
   380
1005
16
1001
ACAD_DSTYLE_DIM_EXT1_LINETYPE
1070
   381
1005
16
1001
ACAD_DSTYLE_DIM_EXT2_LINETYPE
1070
   382
1005
16
0
DIMENSION
5
1C1
100
AcDbEntity
8
2
62
256
6
ByLayer
370
18
48
1
60
0
100
AcDbDimension
2
_U2
10
65.85
20
0
30
0
11
65.85
21
-9
31
0
70
32
71
1
72
1
41
1
210
0
220
0
230
1
3
Standard
100
AcDbAlignedDimension
13
41.1
23
-18
33
0
14
0
24
0
34
0
50
90
100
AcDbRotatedDimension
1001
ACAD
1000
DSTYLE
1002
{
1070
   371
1070
    13
1070
   372
1070
    13
1070
   170
1070
     0
1070
   144
1040
1.0
1070
   277
1070
     2
1070
   284
1070
     8
1070
   278
1070
    46
1070
   146
1040
1.0
1070
   345
1005
16
1070
   347
1005
16
1070
   346
1005
16
1070
   344
1005
0
1070
   343
1005
0
1070
   172
1070
     1
1070
    76
1070
     0
1070
    75
1070
     0
1070
   282
1070
     0
1070
   281
1070
     0
1070
    71
1070
     0
1070
    74
1070
     0
1070
   279
1070
     0
1070
   173
1070
     1
1070
   340
1005
18B
1070
   271
1070
     2
1070
   272
1070
     2
1070
    77
1070
     1
1070
    73
1070
     0
1070
   171
1070
     3
1070
   274
1070
     4
1070
   177
1070
     2
1070
   176
1070
     2
1070
   178
1070
     2
1070
    78
1070
     8
1070
    48
1040
-0.1
1070
    41
1040
3.5
1070
   147
1040
1.75
1070
    42
1040
1.5875
1070
    44
1040
2.0
1070
   140
1040
3.5
1002
}
1001
ACAD_DSTYLE_DIM_LINETYPE
1070
   380
1005
16
1001
ACAD_DSTYLE_DIM_EXT1_LINETYPE
1070
   381
1005
16
1001
ACAD_DSTYLE_DIM_EXT2_LINETYPE
1070
   382
1005
16
0
DIMENSION
5
1D9
100
AcDbEntity
8
2
62
256
6
ByLayer
370
18
48
1
60
0
100
AcDbDimension
2
_U3
10
52.85
20
-12
30
0
11
52.85
21
-15
31
0
70
32
71
1
72
1
41
1
210
0
220
0
230
1
3
Standard
100
AcDbAlignedDimension
13
41.1
23
-18
33
0
14
41.1
24
-12
34
0
50
90
100
AcDbRotatedDimension
1001
ACAD
1000
DSTYLE
1002
{
1070
   371
1070
    13
1070
   372
1070
    13
1070
   170
1070
     0
1070
   144
1040
1.0
1070
   277
1070
     2
1070
   284
1070
     8
1070
   278
1070
    46
1070
   146
1040
1.0
1070
   345
1005
16
1070
   347
1005
16
1070
   346
1005
16
1070
   344
1005
0
1070
   343
1005
0
1070
   172
1070
     1
1070
    76
1070
     0
1070
    75
1070
     0
1070
   282
1070
     0
1070
   281
1070
     0
1070
    71
1070
     0
1070
    74
1070
     0
1070
   279
1070
     0
1070
   173
1070
     1
1070
   340
1005
18B
1070
   271
1070
     2
1070
   272
1070
     2
1070
    77
1070
     1
1070
    73
1070
     0
1070
   171
1070
     3
1070
   274
1070
     4
1070
   177
1070
     2
1070
   176
1070
     2
1070
   178
1070
     2
1070
    78
1070
     8
1070
    48
1040
-0.1
1070
    41
1040
3.5
1070
   147
1040
1.75
1070
    42
1040
1.5875
1070
    44
1040
2.0
1070
   140
1040
3.5
1002
}
1001
ACAD_DSTYLE_DIM_LINETYPE
1070
   380
1005
16
1001
ACAD_DSTYLE_DIM_EXT1_LINETYPE
1070
   381
1005
16
1001
ACAD_DSTYLE_DIM_EXT2_LINETYPE
1070
   382
1005
16
0
ENDSEC
0
SECTION
2
OBJECTS
0
DICTIONARY
5
25f
330
0
100
AcDbDictionary
280
0
281
1
3
ACAD_GROUP
350
260
3
ACAD_MLINESTYLE
350
261
0
DICTIONARY
5
260
330
0
100
AcDbDictionary
280
0
281
1
0
DICTIONARY
5
261
330
0
100
AcDbDictionary
280
0
281
1
3
Standard
350
18
0
MLINESTYLE
5
18
330
261
100
AcDbMlineStyle
2
Standard
70
0
3

62
256
51
90
52
90
71
2
49
-0.5
62
256
6
ByLayer
49
0.5
62
256
6
ByLayer
0
RASTERVARIABLES
5
250
330

100
AcDbRasterVariables
90
0
70
1
71
1
72
1
0
ENDSEC
0
EOF
