0
SECTION
2
HEADER
9
$ACADVER
1
AC1015
9
$DWGCODEPAGE
3
ANSI_1252
9
$HANDSEED
5
27b
9
$ANGBASE
50
0
9
$ANGDIR
70
0
9
$ATTMODE
70
1
9
$AUNITS
70
0
9
$AUPREC
70
0
9
$CECOLOR
62
256
9
$CELTSCALE
40
1
9
$CELTYPE
6
ByLayer
9
$CELWEIGHT
370
18
9
$CLAYER
8
0
9
$CMLJUST
70
0
9
$CMLSCALE
40
1
9
$CMLSTYLE
2
Standard
9
$DIMSTYLE
2
Standard
9
$TEXTSIZE
40
0.2
9
$TEXTSTYLE
7
Standard
9
$LUNITS
70
2
9
$LUPREC
70
4
9
$EXTNAMES
290
1
9
$INSUNITS
70
4
9
$LTSCALE
40
1
9
$LWDISPLAY
290
1
9
$PDMODE
70
0
9
$PDSIZE
40
0
9
$PLINEGEN
70
0
0
ENDSEC
0
SECTION
2
CLASSES
0
CLASS
1
RASTERVARIABLES
2
AcDbRasterVariables
3
ISM
90
0
280
0
281
0
0
ENDSEC
0
SECTION
2
TABLES
0
TABLE
2
VPORT
5
271
100
AcDbSymbolTable
0
VPORT
5
1
100
AcDbSymbolTableRecord
100
AcDbViewportTableRecord
2
*Active
70
0
10
0
20
0
11
1
21
1
12
-1
22
1
13
0
23
0
14
0.5
24
0.5
15
10
25
10
16
0
26
0
36
1
17
0
27
0
37
0
0
ENDTAB
0
TABLE
2
LTYPE
5
272
100
AcDbSymbolTable
0
LTYPE
5
14
100
AcDbSymbolTableRecord
100
AcDbLinetypeTableRecord
70
0
2
ByBlock
3

72
65
73
0
40
0
0
LTYPE
5
15
100
AcDbSymbolTableRecord
100
AcDbLinetypeTableRecord
70
0
2
ByLayer
3

72
65
73
0
40
0
0
LTYPE
5
16
100
AcDbSymbolTableRecord
100
AcDbLinetypeTableRecord
70
0
2
Continuous
3
Solid line
72
65
73
0
40
0
0
LTYPE
5
6E
100
AcDbSymbolTableRecord
100
AcDbLinetypeTableRecord
70
0
2
CENTER
3
____ _ ____ _ ____ _ ____
72
65
73
4
40
47.5
49
22
74
0
49
-8.5
74
0
49
8.5
74
0
49
-8.5
74
0
0
LTYPE
5
6F
100
AcDbSymbolTableRecord
100
AcDbLinetypeTableRecord
70
0
2
DASHED
3
__ __ __ __ __ __ __ __ __
72
65
73
2
40
25.72
49
12.86
74
0
49
-12.86
74
0
0
ENDTAB
0
TABLE
2
LAYER
5
273
100
AcDbSymbolTable
0
LAYER
5
10
100
AcDbSymbolTableRecord
100
AcDbLayerTableRecord
2
0
70
0
62
7
6
Continuous
290
1
370
-3
390
0
0
LAYER
5
71
100
AcDbSymbolTableRecord
100
AcDbLayerTableRecord
2
81
70
0
62
-3
6
Continuous
290
1
370
-3
390
0
0
LAYER
5
73
100
AcDbSymbolTableRecord
100
AcDbLayerTableRecord
2
80
70
0
62
-6
6
Continuous
290
1
370
-3
390
0
0
LAYER
5
75
100
AcDbSymbolTableRecord
100
AcDbLayerTableRecord
2
1
70
0
62
4
6
Continuous
290
1
370
-3
390
0
0
LAYER
5
1A1
100
AcDbSymbolTableRecord
100
AcDbLayerTableRecord
2
Defpoints
70
0
62
7
6
Continuous
290
0
370
-3
390
0
0
LAYER
5
1AE
100
AcDbSymbolTableRecord
100
AcDbLayerTableRecord
2
2
70
0
62
7
6
Continuous
290
1
370
-3
390
0
0
LAYER
5
260
100
AcDbSymbolTableRecord
100
AcDbLayerTableRecord
2
SK6
70
0
62
5
6
Continuous
290
1
370
-3
390
0
0
ENDTAB
0
TABLE
2
STYLE
5
274
100
AcDbSymbolTable
0
STYLE
5
11
100
AcDbSymbolTableRecord
100
AcDbTextStyleTableRecord
2
Standard
3
txt
70
0
71
0
40
0
41
1
42
0
50
0
0
STYLE
5
19A
100
AcDbSymbolTableRecord
100
AcDbTextStyleTableRecord
2
iso_b_vert
3
simplex.shx
70
0
71
0
40
0
41
1
42
0
50
0
0
STYLE
5
19B
100
AcDbSymbolTableRecord
100
AcDbTextStyleTableRecord
2
DWGDirectTextStyle
3
simplex
70
0
71
0
40
0
41
1
42
0
50
0
0
ENDTAB
0
TABLE
2
DIMSTYLE
5
275
100
AcDbSymbolTable
100
AcDbDimStyleTable
0
DIMSTYLE
105
27
100
AcDbSymbolTableRecord
100
AcDbDimStyleTableRecord
2
Standard
70
0
3
<>
41
0.18
42
0.0625
44
0.18
140
0.18
147
0.09
73
0
74
0
77
1
271
2
275
0
278
52
280
0
340
11
0
ENDTAB
0
TABLE
2
VIEW
5
276
100
AcDbSymbolTable
0
ENDTAB
0
TABLE
2
UCS
5
277
100
AcDbSymbolTable
0
ENDTAB
0
TABLE
2
APPID
5
278
100
AcDbSymbolTable
0
APPID
5
12
100
AcDbSymbolTableRecord
100
AcDbRegAppTableRecord
2
ACAD
70
0
0
APPID
5
19D
100
AcDbSymbolTableRecord
100
AcDbRegAppTableRecord
2
ACAD_DSTYLE_DIMBREAK
70
0
0
APPID
5
21F
100
AcDbSymbolTableRecord
100
AcDbRegAppTableRecord
2
ACAD_DSTYLE_DIM_LINETYPE
70
0
0
APPID
5
220
100
AcDbSymbolTableRecord
100
AcDbRegAppTableRecord
2
ACAD_DSTYLE_DIM_EXT1_LINETYPE
70
0
0
APPID
5
221
100
AcDbSymbolTableRecord
100
AcDbRegAppTableRecord
2
ACAD_DSTYLE_DIM_EXT2_LINETYPE
70
0
0
APPID
5
25C
100
AcDbSymbolTableRecord
100
AcDbRegAppTableRecord
2
ACAD_MLEADERVER
70
0
0
ENDTAB
0
TABLE
2
BLOCK_RECORD
5
279
100
AcDbSymbolTable
0
BLOCK_RECORD
5
1F
100
AcDbSymbolTableRecord
100
AcDbBlockTableRecord
2
*Model_Space
340
0
70
0
0
BLOCK_RECORD
5
1B
100
AcDbSymbolTableRecord
100
AcDbBlockTableRecord
2
*Paper_Space
340
0
70
0
0
BLOCK_RECORD
5
23
100
AcDbSymbolTableRecord
100
AcDbBlockTableRecord
2
*Paper_Space0
340
0
70
0
0
BLOCK_RECORD
5
1A2
100
AcDbSymbolTableRecord
100
AcDbBlockTableRecord
2
*D1
340
0
70
0
0
BLOCK_RECORD
5
1AF
100
AcDbSymbolTableRecord
100
AcDbBlockTableRecord
2
_U0
340
0
70
0
0
BLOCK_RECORD
5
1BB
100
AcDbSymbolTableRecord
100
AcDbBlockTableRecord
2
*D3
340
0
70
0
0
BLOCK_RECORD
5
1C7
100
AcDbSymbolTableRecord
100
AcDbBlockTableRecord
2
_U1
340
0
70
0
0
BLOCK_RECORD
5
1D3
100
AcDbSymbolTableRecord
100
AcDbBlockTableRecord
2
*D5
340
0
70
0
0
BLOCK_RECORD
5
1DF
100
AcDbSymbolTableRecord
100
AcDbBlockTableRecord
2
_U2
340
0
70
0
0
BLOCK_RECORD
5
1EB
100
AcDbSymbolTableRecord
100
AcDbBlockTableRecord
2
*D7
340
0
70
0
0
BLOCK_RECORD
5
1F8
100
AcDbSymbolTableRecord
100
AcDbBlockTableRecord
2
_U3
340
0
70
0
0
ENDTAB
0
ENDSEC
0
SECTION
2
BLOCKS
0
BLOCK
5
20
100
AcDbEntity
8
0
100
AcDbBlockBegin
2
*Model_Space
70
0
10
0
20
0
30
0
3
*Model_Space
0
ENDBLK
5
21
100
AcDbEntity
8
0
100
AcDbBlockEnd
0
BLOCK
5
1C
100
AcDbEntity
8
0
100
AcDbBlockBegin
2
*Paper_Space
70
0
10
0
20
0
30
0
3
*Paper_Space
0
ENDBLK
5
1D
100
AcDbEntity
8
0
100
AcDbBlockEnd
0
BLOCK
5
24
100
AcDbEntity
8
0
100
AcDbBlockBegin
2
*Paper_Space0
70
0
10
0
20
0
30
0
3
*Paper_Space0
0
ENDBLK
5
25
100
AcDbEntity
8
0
100
AcDbBlockEnd
0
BLOCK
5
1A3
100
AcDbEntity
8
0
100
AcDbBlockBegin
2
*D1
70
1
10
0
20
0
30
0
3
*D1
0
LINE
5
1A5
100
AcDbEntity
8
0
62
256
6
ByLayer
370
-2
48
1
60
0
100
AcDbLine
10
0
20
-1.5875
30
0
11
0
21
-21.75
31
0
39
0
210
0
220
0
230
1
0
LINE
5
1A6
100
AcDbEntity
8
0
62
256
6
ByLayer
370
-2
48
1
60
0
100
AcDbLine
10
45.1
20
16.4125
30
0
11
45.1
21
-21.75
31
0
39
0
210
0
220
0
230
1
0
LINE
5
1A7
100
AcDbEntity
8
0
62
256
6
ByLayer
370
-2
48
1
60
0
100
AcDbLine
10
3.5
20
-19.75
30
0
11
41.6
21
-19.75
31
0
39
0
210
0
220
0
230
1
0
SOLID
5
1A8
100
AcDbEntity
8
0
62
256
6
ByLayer
370
-1
48
1
60
0
100
AcDbTrace
10
3.5
20
-19.166667
30
0
11
3.5
21
-20.333333
31
0
12
0
22
-19.75
32
0
13
0
23
-19.75
33
0
39
0
210
0
220
0
230
1
0
SOLID
5
1A9
100
AcDbEntity
8
0
62
256
6
ByLayer
370
-1
48
1
60
0
100
AcDbTrace
10
41.6
20
-20.333333
30
0
11
41.6
21
-19.166667
31
0
12
45.1
22
-19.75
32
0
13
45.1
23
-19.75
33
0
39
0
210
0
220
0
230
1
0
MTEXT
5
1AA
100
AcDbEntity
8
0
62
256
6
ByLayer
370
18
48
1
60
0
100
AcDbMText
10
22.55
20
-12.75
30
0
210
0
220
0
230
1
1
\A1;45.1
40
3.5
41
0
44
1
50
0
71
5
72
5
7
iso_b_vert
0
POINT
5
1AB
100
AcDbEntity
8
Defpoints
62
0
6
ByLayer
370
-1
48
1
60
0
100
AcDbPoint
10
0
20
0
30
0
39
0
210
0
220
0
230
1
50
360
0
POINT
5
1AC
100
AcDbEntity
8
Defpoints
62
0
6
ByLayer
370
-1
48
1
60
0
100
AcDbPoint
10
45.1
20
18
30
0
39
0
210
0
220
0
230
1
50
360
0
POINT
5
1AD
100
AcDbEntity
8
Defpoints
62
0
6
ByLayer
370
-1
48
1
60
0
100
AcDbPoint
10
45.1
20
-19.75
30
0
39
0
210
0
220
0
230
1
50
360
0
ENDBLK
5
1A4
100
AcDbEntity
8
0
100
AcDbBlockEnd
0
BLOCK
5
1B6
100
AcDbEntity
8
0
100
AcDbBlockBegin
2
_U0
70
0
10
0
20
0
30
0
3
_U0
0
MTEXT
5
1B0
100
AcDbEntity
8
2
62
256
6
ByLayer
370
18
48
1
60
0
100
AcDbMText
10
18.881467
20
-18.717366
30
0
210
0
220
0
230
1
1
\W0.7531;45.1
40
3.5
41
0
44
1.084337
50
0
71
7
72
5
7
iso_b_vert
0
LINE
5
1B1
100
AcDbEntity
8
2
62
256
6
ByLayer
370
13
48
1
60
0
100
AcDbLine
10
0
20
-1.5875
30
0
11
0
21
-21.75
31
0
39
0
210
0
220
0
230
1
0
LINE
5
1B2
100
AcDbEntity
8
2
62
256
6
ByLayer
370
13
48
1
60
0
100
AcDbLine
10
45.1
20
16.4125
30
0
11
45.1
21
-21.75
31
0
39
0
210
0
220
0
230
1
0
LINE
5
1B3
100
AcDbEntity
8
2
62
256
6
ByLayer
370
13
48
1
60
0
100
AcDbLine
10
0
20
-19.75
30
0
11
45.1
21
-19.75
31
0
39
0
210
0
220
0
230
1
0
SOLID
5
1B4
100
AcDbEntity
8
2
62
256
6
ByLayer
370
18
48
1
60
0
100
AcDbTrace
10
0
20
-19.75
30
0
11
3.499998
21
-19.289216
31
0
12
3.500002
22
-20.210784
32
0
13
3.500002
23
-20.210784
33
0
39
0
210
0
220
0
230
1
0
SOLID
5
1B5
100
AcDbEntity
8
2
62
256
6
ByLayer
370
18
48
1
60
0
100
AcDbTrace
10
45.1
20
-19.75
30
0
11
41.600002
21
-20.210784
31
0
12
41.599998
22
-19.289216
32
0
13
41.599998
23
-19.289216
33
0
39
0
210
0
220
0
230
1
0
ENDBLK
5
1B7
100
AcDbEntity
8
0
100
AcDbBlockEnd
0
BLOCK
5
1BC
100
AcDbEntity
8
0
100
AcDbBlockBegin
2
*D3
70
1
10
0
20
0
30
0
3
*D3
0
LINE
5
1BE
100
AcDbEntity
8
0
62
256
6
ByLayer
370
-2
48
1
60
0
100
AcDbLine
10
27.1
20
11.7375
30
0
11
27.1
21
-13.75
31
0
39
0
210
0
220
0
230
1
0
LINE
5
1BF
100
AcDbEntity
8
0
62
256
6
ByLayer
370
-2
48
1
60
0
100
AcDbLine
10
45.1
20
16.4125
30
0
11
45.1
21
-13.75
31
0
39
0
210
0
220
0
230
1
0
LINE
5
1C0
100
AcDbEntity
8
0
62
256
6
ByLayer
370
-2
48
1
60
0
100
AcDbLine
10
30.6
20
-11.75
30
0
11
41.6
21
-11.75
31
0
39
0
210
0
220
0
230
1
0
SOLID
5
1C1
100
AcDbEntity
8
0
62
256
6
ByLayer
370
-1
48
1
60
0
100
AcDbTrace
10
30.6
20
-11.166667
30
0
11
30.6
21
-12.333333
31
0
12
27.1
22
-11.75
32
0
13
27.1
23
-11.75
33
0
39
0
210
0
220
0
230
1
0
SOLID
5
1C2
100
AcDbEntity
8
0
62
256
6
ByLayer
370
-1
48
1
60
0
100
AcDbTrace
10
41.6
20
-12.333333
30
0
11
41.6
21
-11.166667
31
0
12
45.1
22
-11.75
32
0
13
45.1
23
-11.75
33
0
39
0
210
0
220
0
230
1
0
MTEXT
5
1C3
100
AcDbEntity
8
0
62
256
6
ByLayer
370
18
48
1
60
0
100
AcDbMText
10
36.1
20
-4.75
30
0
210
0
220
0
230
1
1
\A1;18
40
3.5
41
0
44
1
50
0
71
5
72
5
7
iso_b_vert
0
POINT
5
1C4
100
AcDbEntity
8
Defpoints
62
0
6
ByLayer
370
-1
48
1
60
0
100
AcDbPoint
10
27.1
20
13.325
30
0
39
0
210
0
220
0
230
1
50
360
0
POINT
5
1C5
100
AcDbEntity
8
Defpoints
62
0
6
ByLayer
370
-1
48
1
60
0
100
AcDbPoint
10
45.1
20
18
30
0
39
0
210
0
220
0
230
1
50
360
0
POINT
5
1C6
100
AcDbEntity
8
Defpoints
62
0
6
ByLayer
370
-1
48
1
60
0
100
AcDbPoint
10
45.1
20
-11.75
30
0
39
0
210
0
220
0
230
1
50
360
0
ENDBLK
5
1BD
100
AcDbEntity
8
0
100
AcDbBlockEnd
0
BLOCK
5
1CE
100
AcDbEntity
8
0
100
AcDbBlockBegin
2
_U1
70
0
10
0
20
0
30
0
3
_U1
0
MTEXT
5
1C8
100
AcDbEntity
8
2
62
256
6
ByLayer
370
18
48
1
60
0
100
AcDbMText
10
34.632467
20
-10.717366
30
0
210
0
220
0
230
1
1
\W0.5321;18
40
3.5
41
0
44
1.084337
50
0
71
7
72
5
7
iso_b_vert
0
LINE
5
1C9
100
AcDbEntity
8
2
62
256
6
ByLayer
370
13
48
1
60
0
100
AcDbLine
10
27.1
20
11.7375
30
0
11
27.1
21
-13.75
31
0
39
0
210
0
220
0
230
1
0
LINE
5
1CA
100
AcDbEntity
8
2
62
256
6
ByLayer
370
13
48
1
60
0
100
AcDbLine
10
45.1
20
16.4125
30
0
11
45.1
21
-13.75
31
0
39
0
210
0
220
0
230
1
0
LINE
5
1CB
100
AcDbEntity
8
2
62
256
6
ByLayer
370
13
48
1
60
0
100
AcDbLine
10
27.1
20
-11.75
30
0
11
45.1
21
-11.75
31
0
39
0
210
0
220
0
230
1
0
SOLID
5
1CC
100
AcDbEntity
8
2
62
256
6
ByLayer
370
18
48
1
60
0
100
AcDbTrace
10
27.1
20
-11.75
30
0
11
30.599998
21
-11.289216
31
0
12
30.600002
22
-12.210784
32
0
13
30.600002
23
-12.210784
33
0
39
0
210
0
220
0
230
1
0
SOLID
5
1CD
100
AcDbEntity
8
2
62
256
6
ByLayer
370
18
48
1
60
0
100
AcDbTrace
10
45.1
20
-11.75
30
0
11
41.600002
21
-12.210784
31
0
12
41.599998
22
-11.289216
32
0
13
41.599998
23
-11.289216
33
0
39
0
210
0
220
0
230
1
0
ENDBLK
5
1CF
100
AcDbEntity
8
0
100
AcDbBlockEnd
0
BLOCK
5
1D4
100
AcDbEntity
8
0
100
AcDbBlockBegin
2
*D5
70
1
10
0
20
0
30
0
3
*D5
0
LINE
5
1D6
100
AcDbEntity
8
0
62
256
6
ByLayer
370
-2
48
1
60
0
100
AcDbLine
10
46.6875
20
18
30
0
11
71.85
21
18
31
0
39
0
210
0
220
0
230
1
0
LINE
5
1D7
100
AcDbEntity
8
0
62
256
6
ByLayer
370
-2
48
1
60
0
100
AcDbLine
10
1.5875
20
0
30
0
11
71.85
21
0
31
0
39
0
210
0
220
0
230
1
0
LINE
5
1D8
100
AcDbEntity
8
0
62
256
6
ByLayer
370
-2
48
1
60
0
100
AcDbLine
10
69.85
20
14.5
30
0
11
69.85
21
3.5
31
0
39
0
210
0
220
0
230
1
0
SOLID
5
1D9
100
AcDbEntity
8
0
62
256
6
ByLayer
370
-1
48
1
60
0
100
AcDbTrace
10
70.433333
20
14.5
30
0
11
69.266667
21
14.5
31
0
12
69.85
22
18
32
0
13
69.85
23
18
33
0
39
0
210
0
220
0
230
1
0
SOLID
5
1DA
100
AcDbEntity
8
0
62
256
6
ByLayer
370
-1
48
1
60
0
100
AcDbTrace
10
69.266667
20
3.5
30
0
11
70.433333
21
3.5
31
0
12
69.85
22
0
32
0
13
69.85
23
0
33
0
39
0
210
0
220
0
230
1
0
MTEXT
5
1DB
100
AcDbEntity
8
0
62
256
6
ByLayer
370
18
48
1
60
0
100
AcDbMText
10
62.85
20
9
30
0
210
0
220
0
230
1
1
\A1;18
40
3.5
41
0
44
1
50
90
71
5
72
5
7
iso_b_vert
0
POINT
5
1DC
100
AcDbEntity
8
Defpoints
62
0
6
ByLayer
370
-1
48
1
60
0
100
AcDbPoint
10
45.1
20
18
30
0
39
0
210
0
220
0
230
1
50
360
0
POINT
5
1DD
100
AcDbEntity
8
Defpoints
62
0
6
ByLayer
370
-1
48
1
60
0
100
AcDbPoint
10
0
20
0
30
0
39
0
210
0
220
0
230
1
50
360
0
POINT
5
1DE
100
AcDbEntity
8
Defpoints
62
0
6
ByLayer
370
-1
48
1
60
0
100
AcDbPoint
10
69.85
20
0
30
0
39
0
210
0
220
0
230
1
50
360
0
ENDBLK
5
1D5
100
AcDbEntity
8
0
100
AcDbBlockEnd
0
BLOCK
5
1E6
100
AcDbEntity
8
0
100
AcDbBlockBegin
2
_U2
70
0
10
0
20
0
30
0
3
_U2
0
MTEXT
5
1E0
100
AcDbEntity
8
2
62
256
6
ByLayer
370
18
48
1
60
0
100
AcDbMText
10
69.160366
20
7.504467
30
0
210
0
220
0
230
1
1
\W0.5321;18
40
3.5
41
0
44
1.084337
50
90
71
7
72
5
7
iso_b_vert
0
LINE
5
1E1
100
AcDbEntity
8
2
62
256
6
ByLayer
370
13
48
1
60
0
100
AcDbLine
10
46.6875
20
18
30
0
11
71.85
21
18
31
0
39
0
210
0
220
0
230
1
0
LINE
5
1E2
100
AcDbEntity
8
2
62
256
6
ByLayer
370
13
48
1
60
0
100
AcDbLine
10
1.5875
20
0
30
0
11
71.85
21
0
31
0
39
0
210
0
220
0
230
1
0
LINE
5
1E3
100
AcDbEntity
8
2
62
256
6
ByLayer
370
13
48
1
60
0
100
AcDbLine
10
69.85
20
18
30
0
11
69.85
21
0
31
0
39
0
210
0
220
0
230
1
0
SOLID
5
1E4
100
AcDbEntity
8
2
62
256
6
ByLayer
370
18
48
1
60
0
100
AcDbTrace
10
69.85
20
18
30
0
11
70.310784
21
14.500002
31
0
12
69.389216
22
14.499998
32
0
13
69.389216
23
14.499998
33
0
39
0
210
0
220
0
230
1
0
SOLID
5
1E5
100
AcDbEntity
8
2
62
256
6
ByLayer
370
18
48
1
60
0
100
AcDbTrace
10
69.85
20
0
30
0
11
69.389216
21
3.499998
31
0
12
70.310784
22
3.500002
32
0
13
70.310784
23
3.500002
33
0
39
0
210
0
220
0
230
1
0
ENDBLK
5
1E7
100
AcDbEntity
8
0
100
AcDbBlockEnd
0
BLOCK
5
1EC
100
AcDbEntity
8
0
100
AcDbBlockBegin
2
*D7
70
1
10
0
20
0
30
0
3
*D7
0
LINE
5
1EE
100
AcDbEntity
8
0
62
256
6
ByLayer
370
-2
48
1
60
0
100
AcDbLine
10
46.6875
20
18
30
0
11
58.85
21
18
31
0
39
0
210
0
220
0
230
1
0
LINE
5
1EF
100
AcDbEntity
8
0
62
256
6
ByLayer
370
-2
48
1
60
0
100
AcDbLine
10
46.6875
20
13
30
0
11
58.85
21
13
31
0
39
0
210
0
220
0
230
1
0
LINE
5
1F0
100
AcDbEntity
8
0
62
256
6
ByLayer
370
-2
48
1
60
0
100
AcDbLine
10
56.85
20
21.5
30
0
11
56.85
21
25
31
0
39
0
210
0
220
0
230
1
0
LINE
5
1F1
100
AcDbEntity
8
0
62
256
6
ByLayer
370
-2
48
1
60
0
100
AcDbLine
10
56.85
20
9.5
30
0
11
56.85
21
6
31
0
39
0
210
0
220
0
230
1
0
SOLID
5
1F2
100
AcDbEntity
8
0
62
256
6
ByLayer
370
-1
48
1
60
0
100
AcDbTrace
10
56.266667
20
21.5
30
0
11
57.433333
21
21.5
31
0
12
56.85
22
18
32
0
13
56.85
23
18
33
0
39
0
210
0
220
0
230
1
0
SOLID
5
1F3
100
AcDbEntity
8
0
62
256
6
ByLayer
370
-1
48
1
60
0
100
AcDbTrace
10
57.433333
20
9.5
30
0
11
56.266667
21
9.5
31
0
12
56.85
22
13
32
0
13
56.85
23
13
33
0
39
0
210
0
220
0
230
1
0
MTEXT
5
1F4
100
AcDbEntity
8
0
62
256
6
ByLayer
370
18
48
1
60
0
100
AcDbMText
10
49.85
20
15.5
30
0
210
0
220
0
230
1
1
\A1;5
40
3.5
41
0
44
1
50
90
71
5
72
5
7
iso_b_vert
0
POINT
5
1F5
100
AcDbEntity
8
Defpoints
62
0
6
ByLayer
370
-1
48
1
60
0
100
AcDbPoint
10
45.1
20
18
30
0
39
0
210
0
220
0
230
1
50
360
0
POINT
5
1F6
100
AcDbEntity
8
Defpoints
62
0
6
ByLayer
370
-1
48
1
60
0
100
AcDbPoint
10
45.1
20
13
30
0
39
0
210
0
220
0
230
1
50
360
0
POINT
5
1F7
100
AcDbEntity
8
Defpoints
62
0
6
ByLayer
370
-1
48
1
60
0
100
AcDbPoint
10
56.85
20
13
30
0
39
0
210
0
220
0
230
1
50
360
0
ENDBLK
5
1ED
100
AcDbEntity
8
0
100
AcDbBlockEnd
0
BLOCK
5
1FF
100
AcDbEntity
8
0
100
AcDbBlockBegin
2
_U3
70
0
10
0
20
0
30
0
3
_U3
0
MTEXT
5
1F9
100
AcDbEntity
8
2
62
256
6
ByLayer
370
18
48
1
60
0
100
AcDbMText
10
56.160366
20
14.874767
30
0
210
0
220
0
230
1
1
\W0.5404;5
40
3.5
41
0
44
1.084337
50
90
71
7
72
5
7
iso_b_vert
0
LINE
5
1FA
100
AcDbEntity
8
2
62
256
6
ByLayer
370
13
48
1
60
0
100
AcDbLine
10
46.6875
20
18
30
0
11
58.85
21
18
31
0
39
0
210
0
220
0
230
1
0
LINE
5
1FB
100
AcDbEntity
8
2
62
256
6
ByLayer
370
13
48
1
60
0
100
AcDbLine
10
46.6875
20
13
30
0
11
58.85
21
13
31
0
39
0
210
0
220
0
230
1
0
LINE
5
1FC
100
AcDbEntity
8
2
62
256
6
ByLayer
370
13
48
1
60
0
100
AcDbLine
10
56.85
20
26.75
30
0
11
56.85
21
4.25
31
0
39
0
210
0
220
0
230
1
0
SOLID
5
1FD
100
AcDbEntity
8
2
62
256
6
ByLayer
370
18
48
1
60
0
100
AcDbTrace
10
56.85
20
18
30
0
11
56.389216
21
21.499998
31
0
12
57.310784
22
21.500002
32
0
13
57.310784
23
21.500002
33
0
39
0
210
0
220
0
230
1
0
SOLID
5
1FE
100
AcDbEntity
8
2
62
256
6
ByLayer
370
18
48
1
60
0
100
AcDbTrace
10
56.85
20
13
30
0
11
57.310784
21
9.500002
31
0
12
56.389216
22
9.499998
32
0
13
56.389216
23
9.499998
33
0
39
0
210
0
220
0
230
1
0
ENDBLK
5
200
100
AcDbEntity
8
0
100
AcDbBlockEnd
0
ENDSEC
0
SECTION
2
ENTITIES
0
ARC
5
104
100
AcDbEntity
8
1
62
256
6
ByLayer
370
18
48
1
60
0
100
AcDbCircle
39
0
10
27.1
20
11.725
30
0
40
1.6
210
0
220
0
230
1
100
AcDbArc
50
166.440002
51
180
0
ARC
5
105
100
AcDbEntity
8
1
62
256
6
ByLayer
370
18
48
1
60
0
100
AcDbCircle
39
0
10
20.5
20
0.875
30
0
40
0.5
210
0
220
0
230
1
100
AcDbArc
50
90
51
180
0
ARC
5
106
100
AcDbEntity
8
1
62
256
6
ByLayer
370
18
48
1
60
0
100
AcDbCircle
39
0
10
37.65644
20
16.167299
30
0
40
0.0999999999928972
210
0
220
0
230
1
100
AcDbArc
50
190.000001
51
218.049181
0
ARC
5
107
100
AcDbEntity
8
1
62
256
6
ByLayer
370
18
48
1
60
0
100
AcDbCircle
39
0
10
37.65644
20
14.832701
30
0
40
0.10000000000448
210
0
220
0
230
1
100
AcDbArc
50
141.950819
51
169.999999
0
ARC
5
108
100
AcDbEntity
8
1
62
256
6
ByLayer
370
18
48
1
60
0
100
AcDbCircle
39
0
10
44.8
20
17.7
30
0
40
0.3
210
0
220
0
230
1
100
AcDbArc
50
0
51
92.5
0
ARC
5
109
100
AcDbEntity
8
1
62
256
6
ByLayer
370
18
48
1
60
0
100
AcDbCircle
39
0
10
44.8
20
13.3
30
0
40
0.3
210
0
220
0
230
1
100
AcDbArc
50
267.5
51
0
0
ARC
5
10A
100
AcDbEntity
8
1
62
256
6
ByLayer
370
18
48
1
60
0
100
AcDbCircle
39
0
10
13.51676
20
18.975
30
0
40
1.60000000000231
210
0
220
0
230
1
100
AcDbArc
50
270
51
303.342147
0
ARC
5
10B
100
AcDbEntity
8
1
62
256
6
ByLayer
370
18
48
1
60
0
100
AcDbCircle
39
0
10
20
20
6.6
30
0
40
4.55000000000001
210
0
220
0
230
1
100
AcDbArc
50
287.715535
51
72.284465
0
ARC
5
10C
100
AcDbEntity
8
1
62
256
6
ByLayer
370
18
48
1
60
0
100
AcDbCircle
39
0
10
20
20
6.6
30
0
40
4.55
210
0
220
0
230
1
100
AcDbArc
50
72.284465
51
287.715535
0
ARC
5
10D
100
AcDbEntity
8
1
62
256
6
ByLayer
370
18
48
1
60
0
100
AcDbCircle
39
0
10
13.51676
20
18.975
30
0
40
1.6
210
0
220
0
230
1
100
AcDbArc
50
303.342147
51
337.975687
0
ARC
5
10E
100
AcDbEntity
8
1
62
256
6
ByLayer
370
18
48
1
60
0
100
AcDbCircle
39
0
10
20
20
6.6
30
0
40
1.416
210
0
220
0
230
1
100
AcDbArc
50
240.190711
51
299.809289
0
ARC
5
10F
100
AcDbEntity
8
1
62
256
6
ByLayer
370
18
48
1
60
0
100
AcDbCircle
39
0
10
20
20
6.6
30
0
40
1.416
210
0
220
0
230
1
100
AcDbArc
50
6.192438
51
60.190711
0
ARC
5
110
100
AcDbEntity
8
1
62
256
6
ByLayer
370
18
48
1
60
0
100
AcDbCircle
39
0
10
20
20
6.6
30
0
40
1.416
210
0
220
0
230
1
100
AcDbArc
50
119.809289
51
173.807562
0
ARC
5
111
100
AcDbEntity
8
1
62
256
6
ByLayer
370
18
48
1
60
0
100
AcDbCircle
39
0
10
20
20
6.6
30
0
40
1.416
210
0
220
0
230
1
100
AcDbArc
50
299.809289
51
353.807562
0
ARC
5
112
100
AcDbEntity
8
1
62
256
6
ByLayer
370
18
48
1
60
0
100
AcDbCircle
39
0
10
20
20
6.6
30
0
40
1.416
210
0
220
0
230
1
100
AcDbArc
50
186.192438
51
240.190711
0
ARC
5
113
100
AcDbEntity
8
1
62
256
6
ByLayer
370
18
48
1
60
0
100
AcDbCircle
39
0
10
20
20
6.6
30
0
40
1.416
210
0
220
0
230
1
100
AcDbArc
50
60.190711
51
119.809289
0
ARC
5
114
100
AcDbEntity
8
1
62
256
6
ByLayer
370
18
48
1
60
0
100
AcDbCircle
39
0
10
20
20
6.6
30
0
40
1.416
210
0
220
0
230
1
100
AcDbArc
50
173.807562
51
186.192438
0
ARC
5
115
100
AcDbEntity
8
1
62
256
6
ByLayer
370
18
48
1
60
0
100
AcDbCircle
39
0
10
20
20
6.6
30
0
40
1.416
210
0
220
0
230
1
100
AcDbArc
50
353.807562
51
6.192438
0
ARC
5
118
100
AcDbEntity
8
1
62
256
6
ByLayer
370
18
48
1
60
0
100
AcDbCircle
39
0
10
20
20
6.6
30
0
40
1.9685
210
0
220
0
230
1
100
AcDbArc
50
30.381422
51
90
0
ARC
5
119
100
AcDbEntity
8
1
62
256
6
ByLayer
370
18
48
1
60
0
100
AcDbCircle
39
0
10
20
20
6.6
30
0
40
1.9685
210
0
220
0
230
1
100
AcDbArc
50
329.618578
51
30.381422
0
ARC
5
11A
100
AcDbEntity
8
1
62
256
6
ByLayer
370
18
48
1
60
0
100
AcDbCircle
39
0
10
20
20
6.6
30
0
40
1.9685
210
0
220
0
230
1
100
AcDbArc
50
149.618578
51
210.381422
0
ARC
5
11B
100
AcDbEntity
8
1
62
256
6
ByLayer
370
18
48
1
60
0
100
AcDbCircle
39
0
10
20
20
6.6
30
0
40
1.9685
210
0
220
0
230
1
100
AcDbArc
50
90
51
149.618578
0
ARC
5
11C
100
AcDbEntity
8
1
62
256
6
ByLayer
370
18
48
1
60
0
100
AcDbCircle
39
0
10
20
20
6.6
30
0
40
1.9685
210
0
220
0
230
1
100
AcDbArc
50
270
51
329.618578
0
ARC
5
11D
100
AcDbEntity
8
1
62
256
6
ByLayer
370
18
48
1
60
0
100
AcDbCircle
39
0
10
20
20
6.6
30
0
40
1.9685
210
0
220
0
230
1
100
AcDbArc
50
210.381422
51
270
0
CIRCLE
5
116
100
AcDbEntity
8
1
62
256
6
ByLayer
370
18
48
1
60
0
100
AcDbCircle
10
20
20
6.6
30
0
40
4.25
39
0
210
0
220
0
230
1
0
CIRCLE
5
117
100
AcDbEntity
8
1
62
256
6
ByLayer
370
18
48
1
60
0
100
AcDbCircle
10
20
20
6.6
30
0
40
3.75
39
0
210
0
220
0
230
1
0
ELLIPSE
5
11E
100
AcDbEntity
8
1
62
256
6
ByLayer
370
18
48
1
60
0
100
AcDbEllipse
10
37.446355
20
17.358749
30
0
11
0.0996112703535751
21
0.0088088503483249
31
0
210
0
220
0
230
1
40
1
41
3.05338983556858
42
-3.05526255095267
0
ELLIPSE
5
11F
100
AcDbEntity
8
1
62
256
6
ByLayer
370
18
48
1
60
0
100
AcDbEllipse
10
37.446355
20
13.641251
30
0
11
-0.0995789393353383
21
0.00916710022777609
31
0
210
0
220
0
230
1
40
1
41
-0.0827330431376229
42
0.0917998781335979
0
ELLIPSE
5
120
100
AcDbEntity
8
1
62
256
6
ByLayer
370
18
48
1
60
0
100
AcDbEllipse
10
38.164609
20
78.000001
30
0
11
-65.6035696960817
21
8.03385482832508E-15
31
0
210
0
220
0
230
1
40
0.985846
41
1.50116140136428
42
1.54696816214782
0
ELLIPSE
5
121
100
AcDbEntity
8
1
62
256
6
ByLayer
370
18
48
1
60
0
100
AcDbEllipse
10
38.962891
20
78
30
0
11
-77.0766636448586
21
9.43885720309241E-15
31
0
210
0
220
0
230
1
40
0.8391
41
1.41627182547092
42
1.50116140104071
0
ELLIPSE
5
122
100
AcDbEntity
8
1
62
256
6
ByLayer
370
18
48
1
60
0
100
AcDbEllipse
10
38.962891
20
103.2
30
0
11
-101.924725992146
21
1.24817667061587E-14
31
0
210
0
220
0
230
1
40
0.8391
41
1.39746552525666
42
1.51815582472514
0
ELLIPSE
5
123
100
AcDbEntity
8
1
62
256
6
ByLayer
370
18
48
1
60
0
100
AcDbEllipse
10
38.164609
20
103.200002
30
0
11
-86.7529237097474
21
1.06238181587625E-14
31
0
210
0
220
0
230
1
40
0.985846
41
1.51815582540561
42
1.55271031730143
0
ELLIPSE
5
124
100
AcDbEntity
8
1
62
256
6
ByLayer
370
18
48
1
60
0
100
AcDbEllipse
10
10.067574
20
-0.174981
30
0
11
0.244102752793814
21
0.135103450139025
31
0
210
0
220
0
230
1
40
0.266975
41
-2.69215064132305
42
-1.64495309012518
0
ELLIPSE
5
125
100
AcDbEntity
8
1
62
256
6
ByLayer
370
18
48
1
60
0
100
AcDbEllipse
10
-718.539886
20
78.162354
30
0
11
-5023.18742007975
21
11.2714741390275
31
0
210
0
220
0
230
1
40
0.012711
41
1.71981504453048
42
1.72172804734594
0
ELLIPSE
5
126
100
AcDbEntity
8
1
62
256
6
ByLayer
370
18
48
1
60
0
100
AcDbEllipse
10
49.305332
20
103.2
30
0
11
-1.08705466098242E-13
21
85.5250000011766
31
0
210
0
220
0
230
1
40
0.57735
41
2.84372603544375
42
3.0359781193386
0
ELLIPSE
5
127
100
AcDbEntity
8
1
62
256
6
ByLayer
370
18
48
1
60
0
100
AcDbEllipse
10
-114.168488
20
103.199941
30
0
11
471.767420924445
21
1.7430364410756E-05
31
0
210
0
220
0
230
1
40
0.181286
41
-1.28748098145514
42
-1.27292981098972
0
POINT
5
70
100
AcDbEntity
8
81
62
256
6
ByLayer
370
18
48
1
60
0
100
AcDbPoint
10
45.1
20
18
30
0
39
0
210
0
220
0
230
1
50
360
0
POINT
5
72
100
AcDbEntity
8
80
62
256
6
ByLayer
370
18
48
1
60
0
100
AcDbPoint
10
0
20
0
30
0
39
0
210
0
220
0
230
1
50
360
0
POINT
5
74
100
AcDbEntity
8
1
62
256
6
ByLayer
370
18
48
1
60
1
100
AcDbPoint
10
0
20
0
30
0
39
0
210
0
220
0
230
1
50
360
0
POINT
5
76
100
AcDbEntity
8
1
62
256
6
ByLayer
370
18
48
1
60
1
100
AcDbPoint
10
45.1
20
18
30
0
39
0
210
0
220
0
230
1
50
360
0
POINT
5
77
100
AcDbEntity
8
1
62
256
6
ByLayer
370
18
48
1
60
1
100
AcDbPoint
10
27.1
20
13.325
30
0
39
0
210
0
220
0
230
1
50
360
0
POINT
5
78
100
AcDbEntity
8
1
62
256
6
ByLayer
370
18
48
1
60
1
100
AcDbPoint
10
45.1
20
18
30
0
39
0
210
0
220
0
230
1
50
360
0
POINT
5
79
100
AcDbEntity
8
1
62
256
6
ByLayer
370
18
48
1
60
1
100
AcDbPoint
10
45.1
20
18
30
0
39
0
210
0
220
0
230
1
50
360
0
POINT
5
7A
100
AcDbEntity
8
1
62
256
6
ByLayer
370
18
48
1
60
1
100
AcDbPoint
10
0
20
0
30
0
39
0
210
0
220
0
230
1
50
360
0
POINT
5
7B
100
AcDbEntity
8
1
62
256
6
ByLayer
370
18
48
1
60
1
100
AcDbPoint
10
45.1
20
18
30
0
39
0
210
0
220
0
230
1
50
360
0
POINT
5
7C
100
AcDbEntity
8
1
62
256
6
ByLayer
370
18
48
1
60
1
100
AcDbPoint
10
45.1
20
13
30
0
39
0
210
0
220
0
230
1
50
360
0
SPLINE
5
128
100
AcDbEntity
8
1
62
256
6
ByLayer
370
18
48
1
60
0
100
AcDbSpline
70
4
71
3
72
18
73
14
40
0
40
0
40
0
40
0
40
0.106502320877159
40
0.20981972088752
40
0.309970050663338
40
0.406972922398891
40
0.500849920824663
40
0.591624858695391
40
0.679324076625653
40
0.763976789998091
40
0.845615488386659
40
0.924276395493076
40
1
40
1
40
1
40
1
41
1
10
37.69011863841
20
15.983085351823
30
0
41
1
10
37.6885415273358
20
15.9837643036506
30
0
41
1
10
37.6854344682343
20
15.9851019034492
30
0
41
1
10
37.6809243323185
20
15.9874049623887
30
0
41
1
10
37.6766153234624
20
15.9898663474788
30
0
41
1
10
37.6725126225172
20
15.9924901579404
30
0
41
1
10
37.6686149102104
20
15.9952524658373
30
0
41
1
10
37.6649224452296
20
15.9981370391757
30
0
41
1
10
37.661435372045
20
16.0011268528405
30
0
41
1
10
37.658152836714
20
16.0042043544701
30
0
41
1
10
37.6550778698625
20
16.0073584152507
30
0
41
1
10
37.6521996835922
20
16.0105579925821
30
0
41
1
10
37.6504035869187
20
16.0127918768383
30
0
41
1
10
37.64952262475
20
16.0138875681493
30
0
0
SPLINE
5
129
100
AcDbEntity
8
1
62
256
6
ByLayer
370
18
48
1
60
0
100
AcDbSpline
70
4
71
3
72
16
73
12
40
0
40
0
40
0
40
0
40
0.117319552095947
40
0.233085853241675
40
0.347299362202342
40
0.459960556706237
40
0.571069934503128
40
0.680628014495727
40
0.788635337949897
40
0.895092469791811
40
1
40
1
40
1
40
1
41
1
10
37.84894541545
20
15.927732523702
30
0
41
1
10
37.8426777667176
20
15.9295553268686
30
0
41
1
10
37.830225449721
20
15.9331768002187
30
0
41
1
10
37.8117192560502
20
15.938891408756
30
0
41
1
10
37.7934972967516
20
15.9447568898025
30
0
41
1
10
37.7755628434144
20
15.9507866733747
30
0
41
1
10
37.7579151154146
20
15.956966269055
30
0
41
1
10
37.7405540289178
20
15.963286920165
30
0
41
1
10
37.7234806581604
20
15.9697449449395
30
0
41
1
10
37.7066908752728
20
15.9763120560499
30
0
41
1
10
37.6956156516848
20
15.9808386486767
30
0
41
1
10
37.69011863841
20
15.98308535183
30
0
0
SPLINE
5
12A
100
AcDbEntity
8
1
62
256
6
ByLayer
370
18
48
1
60
0
100
AcDbSpline
70
4
71
2
72
10
73
7
40
0
40
0
40
0
40
0.5
40
0.5
40
0.75
40
0.75
40
1
40
1
40
1
41
1
10
37.8489454154405
20
15.927732523738
30
0
41
1
10
37.916539241663
20
15.9082378364851
30
0
41
1
10
37.9642354827661
20
15.8565142889902
30
0
41
1
10
37.9902224727179
20
15.8283330470739
30
0
41
1
10
38.0068593747274
20
15.7924776461037
30
0
41
1
10
38.0248252361493
20
15.7537581077733
30
0
41
1
10
38.02894619708
20
15.710735586972
30
0
0
SPLINE
5
12B
100
AcDbEntity
8
1
62
256
6
ByLayer
370
18
48
1
60
0
100
AcDbSpline
70
4
71
2
72
6
73
3
40
0
40
0
40
0
40
1
40
1
40
1
41
1
10
38.028946197118
20
15.710735587058
30
0
41
1
10
38.03783748929
20
15.6155165540331
30
0
41
1
10
38.0378609595285
20
15.5200000006976
30
0
0
SPLINE
5
12C
100
AcDbEntity
8
1
62
256
6
ByLayer
370
18
48
1
60
0
100
AcDbSpline
70
4
71
3
72
17
73
13
40
0
40
0
40
0
40
0
40
0.100317411816965
40
0.200541310293327
40
0.30068027827333
40
0.400742920447445
40
0.500737861201715
40
0.60067374244268
40
0.700559221399129
40
0.800402968404821
40
0.900213664663538
40
1
40
1
40
1
40
1
41
1
10
38.02894619712
20
15.289264412942
30
0
41
1
10
38.0295231228817
20
15.2956087701754
30
0
41
1
10
38.0306764366097
20
15.3082915705938
30
0
41
1
10
38.0321818251213
20
15.3273460527878
30
0
41
1
10
38.0335216262512
20
15.3464085209795
30
0
41
1
10
38.0346798037513
20
15.3654803042831
30
0
41
1
10
38.0356607269913
20
15.3845589293337
30
0
41
1
10
38.0364629358429
20
15.4036429412488
30
0
41
1
10
38.0370879043616
20
15.4227306135195
30
0
41
1
10
38.037531197509
20
15.441820293669
30
0
41
1
10
38.0378090731845
20
15.4609103103435
30
0
41
1
10
38.0378436654888
20
15.4736372874275
30
0
41
1
10
38.03786095953
20
15.4799999993024
30
0
0
SPLINE
5
12D
100
AcDbEntity
8
1
62
256
6
ByLayer
370
18
48
1
60
0
100
AcDbSpline
70
4
71
3
72
38
73
34
40
0
40
0
40
0
40
0
40
0.0320161803190494
40
0.063413755649424
40
0.0941938978100879
40
0.124357850627714
40
0.153906935790693
40
0.182842559292635
40
0.211166218534115
40
0.238879510162445
40
0.265984138740214
40
0.29248192634399
40
0.318374823211784
40
0.343664919571541
40
0.368354458804059
40
0.392445852114293
40
0.415941694911097
40
0.438844785123604
40
0.46115814371673
40
0.482885037704952
40
0.504029006008786
40
0.551366811163278
40
0.597409666800362
40
0.642207857910834
40
0.685815975457092
40
0.728293199079301
40
0.769703557231253
40
0.810116149643023
40
0.849605314210596
40
0.888250718110499
40
0.926137351649332
40
0.963355403684625
40
1
40
1
40
1
40
1
41
1
10
37.84894541544
20
15.072267476262
30
0
41
1
10
37.8515736233647
20
15.0730485607147
30
0
41
1
10
37.8567792579366
20
15.0745956377905
30
0
41
1
10
37.8644507904016
20
15.0772317158617
30
0
41
1
10
37.8719249095612
20
15.0800558999423
30
0
41
1
10
37.8791975153447
20
15.0830789101444
30
0
41
1
10
37.886269676434
20
15.086281634091
30
0
41
1
10
37.8931411178627
20
15.0896529401724
30
0
41
1
10
37.8998119140345
20
15.0931798787024
30
0
41
1
10
37.9062820488617
20
15.0968502562536
30
0
41
1
10
37.9125515300007
20
15.1006519927337
30
0
41
1
10
37.9186203592441
20
15.1045733110581
30
0
41
1
10
37.9244885401619
20
15.1086027081713
30
0
41
1
10
37.9301560763662
20
15.1127289801831
30
0
41
1
10
37.9356229711866
20
15.1169412313214
30
0
41
1
10
37.9408892306567
20
15.121228883891
30
0
41
1
10
37.9459548524153
20
15.1255816889964
30
0
41
1
10
37.9508198658018
20
15.1299897234812
30
0
41
1
10
37.9554841879102
20
15.1344434298666
30
0
41
1
10
37.9599481402178
20
15.1389334948107
30
0
41
1
10
37.9660095567998
20
15.1453580304927
30
0
41
1
10
37.9734588192032
20
15.1539468168094
30
0
41
1
10
37.9820027422796
20
15.1650200836318
30
0
41
1
10
37.9898489226435
20
15.176469441307
30
0
41
1
10
37.9969976055378
20
15.1882493808279
30
0
41
1
10
38.0034486190906
20
15.2003153813823
30
0
41
1
10
38.0092017357357
20
15.2126233474433
30
0
41
1
10
38.0142571546107
20
15.2251298346286
30
0
41
1
10
38.018613296107
20
15.2377925471701
30
0
41
1
10
38.0222748801839
20
15.2505689765113
30
0
41
1
10
38.0252236999947
20
15.2634219116354
30
0
41
1
10
38.0275246334318
20
15.2762999416634
30
0
41
1
10
38.028474801506
20
15.2849653481021
30
0
41
1
10
38.02894619708
20
15.289264413028
30
0
0
SPLINE
5
12E
100
AcDbEntity
8
1
62
256
6
ByLayer
370
18
48
1
60
0
100
AcDbSpline
70
4
71
2
72
6
73
3
40
0
40
0
40
0
40
1
40
1
40
1
41
1
10
37.848945415449
20
15.072267476298
30
0
41
1
10
37.7679467190096
20
15.0490152433268
30
0
41
1
10
37.6901186384095
20
15.01691464817
30
0
0
SPLINE
5
12F
100
AcDbEntity
8
1
62
256
6
ByLayer
370
18
48
1
60
0
100
AcDbSpline
70
4
71
2
72
6
73
3
40
0
40
0
40
0
40
1
40
1
40
1
41
1
10
37.6901186384085
20
15.016914648177
30
0
41
1
10
37.6658197594152
20
15.0067453291365
30
0
41
1
10
37.649522624748
20
14.986112431851
30
0
0
SPLINE
5
130
100
AcDbEntity
8
1
62
256
6
ByLayer
370
18
48
1
60
0
100
AcDbSpline
70
4
71
3
72
10
73
6
40
0
40
0
40
0
40
0
40
0.5
40
0.5
40
1
40
1
40
1
40
1
41
1
10
11.0276281961116
20
-0.28227754060643
30
0
41
1
10
11.024604110705
20
-0.277167459287682
30
0
41
1
10
11.0210220935147
20
-0.271804402679407
30
0
41
1
10
11.013193480974
20
-0.261019280122355
30
0
41
1
10
11.0089152580003
20
-0.255544143276097
30
0
41
1
10
11.0043341013017
20
-0.249999999999773
30
0
0
SPLINE
5
131
100
AcDbEntity
8
1
62
256
6
ByLayer
370
18
48
1
60
0
100
AcDbSpline
70
4
71
3
72
16
73
12
40
0
40
0
40
0
40
0
40
0.249999999999997
40
0.249999999999997
40
0.499999999999995
40
0.499999999999995
40
0.749999999999992
40
0.749999999999992
40
0.874999999999996
40
0.874999999999996
40
1
40
1
40
1
40
1
41
1
10
11.0276281961116
20
-0.282277540606458
30
0
41
1
10
11.0655609699117
20
-0.287336251186247
30
0
41
1
10
11.1034318228734
20
-0.292282100096372
30
0
41
1
10
11.1790487078829
20
-0.301684454692804
30
0
41
1
10
11.2167947747196
20
-0.306145453798109
30
0
41
1
10
11.2921593820356
20
-0.314163386023608
30
0
41
1
10
11.3297360724389
20
-0.317725065648716
30
0
41
1
10
11.3854005138776
20
-0.321753904772237
30
0
41
1
10
11.403855529943
20
-0.322876673905029
30
0
41
1
10
11.4405128455448
20
-0.324487662952038
30
0
41
1
10
11.4587165340475
20
-0.324980947161691
30
0
41
1
10
11.4767455840037
20
-0.324980947161691
30
0
0
SPLINE
5
132
100
AcDbEntity
8
1
62
256
6
ByLayer
370
18
48
1
60
0
100
AcDbSpline
70
4
71
3
72
8
73
4
40
0
40
0
40
0
40
0
40
1
40
1
40
1
40
1
41
1
10
11.0276281961116
20
-0.282277540606458
30
0
41
1
10
11.0118395197766
20
-0.271487560575792
30
0
41
1
10
10.9960440478665
20
-0.260728153479562
30
0
41
1
10
10.9802416290831
20
-0.25
30
0
0
SPLINE
5
133
100
AcDbEntity
8
1
62
256
6
ByLayer
370
18
48
1
60
0
100
AcDbSpline
70
4
71
3
72
18
73
14
40
0
40
0
40
0
40
0
40
0.12500000000001
40
0.12500000000001
40
0.250000000000021
40
0.250000000000021
40
0.500000000000027
40
0.500000000000027
40
0.625000000000026
40
0.625000000000026
40
0.750000000000026
40
0.750000000000026
40
1
40
1
40
1
40
1
41
1
10
11.6224972601399
20
-0.324980947161663
30
0
41
1
10
11.6192703907151
20
-0.324980947161663
30
0
41
1
10
11.6154439919953
20
-0.324317343478441
30
0
41
1
10
11.6069612897688
20
-0.321956226105357
30
0
41
1
10
11.602269896615
20
-0.320249995981385
30
0
41
1
10
11.5871602352551
20
-0.313833832995215
30
0
41
1
10
11.576065685278
20
-0.308011887553732
30
0
41
1
10
11.5583323750177
20
-0.297626089548913
30
0
41
1
10
11.5522495768641
20
-0.293887591674519
30
0
41
1
10
11.5399996913608
20
-0.286061631183884
30
0
41
1
10
11.5338007062621
20
-0.281955461569027
30
0
41
1
10
11.5150061950698
20
-0.269118079601725
30
0
41
1
10
11.5022154752707
20
-0.259874306686129
30
0
41
1
10
11.4891887427026
20
-0.25
30
0
0
SPLINE
5
134
100
AcDbEntity
8
1
62
256
6
ByLayer
370
18
48
1
60
0
100
AcDbSpline
70
4
71
2
72
6
73
3
40
0
40
0
40
0
40
1
40
1
40
1
41
1
10
11.7003488338351
20
-0.324980947161691
30
0
41
1
10
11.6623357600101
20
-0.324980947161691
30
0
41
1
10
11.6225385935649
20
-0.324980947161691
30
0
0
SPLINE
5
135
100
AcDbEntity
8
1
62
256
6
ByLayer
370
18
48
1
60
0
100
AcDbSpline
70
4
71
3
72
20
73
16
40
0
40
0
40
0
40
0
40
0.24999999999999
40
0.24999999999999
40
0.374999999999992
40
0.374999999999992
40
0.499999999999993
40
0.499999999999993
40
0.624999999999995
40
0.624999999999995
40
0.749999999999997
40
0.749999999999997
40
0.874999999999998
40
0.874999999999998
40
1
40
1
40
1
40
1
41
1
10
11.6684781235838
20
-0.249999999999915
30
0
41
1
10
11.6767867414206
20
-0.259734549354079
30
0
41
1
10
11.6843676251665
20
-0.269228281522629
30
0
41
1
10
11.6941070170369
20
-0.282819409469283
30
0
41
1
10
11.6970181369881
20
-0.287157299177181
30
0
41
1
10
11.7020757146846
20
-0.295395783281549
30
0
41
1
10
11.70423462607
20
-0.299327912698914
30
0
41
1
10
11.7075283622337
20
-0.306433565607506
30
0
41
1
10
11.7086811012233
20
-0.309627561895638
30
0
41
1
10
11.709905560238
20
-0.315233151109652
30
0
41
1
10
11.7099565341409
20
-0.317602526875618
30
0
41
1
10
11.7089593394717
20
-0.321329216849307
30
0
41
1
10
11.7079143112223
20
-0.322720644458258
30
0
41
1
10
11.7047744349767
20
-0.324556906143442
30
0
41
1
10
11.7027276586107
20
-0.32498065502682
30
0
41
1
10
11.7002715671113
20
-0.324980947011881
30
0
0
SPLINE
5
136
100
AcDbEntity
8
1
62
256
6
ByLayer
370
18
48
1
60
0
100
AcDbSpline
70
4
71
3
72
20
73
16
40
0
40
0
40
0
40
0
40
0.125000000000002
40
0.125000000000002
40
0.250000000000004
40
0.250000000000004
40
0.375000000000006
40
0.375000000000006
40
0.500000000000007
40
0.500000000000007
40
0.625000000000009
40
0.625000000000009
40
0.750000000000011
40
0.750000000000011
40
1
40
1
40
1
40
1
41
1
10
12.1092848975574
20
-0.324980947087255
30
0
41
1
10
12.107254044376
20
-0.324981196953928
30
0
41
1
10
12.1045810907115
20
-0.324340880433709
30
0
41
1
10
12.0983483013897
20
-0.322018168166267
30
0
41
1
10
12.0947757469597
20
-0.320340999940072
30
0
41
1
10
12.0868485278645
20
-0.316102421478263
30
0
41
1
10
12.0824979881206
20
-0.31353891412266
30
0
41
1
10
12.0733790323531
20
-0.307803069518741
30
0
41
1
10
12.0685783551001
20
-0.304613503251545
30
0
41
1
10
12.0585602905132
20
-0.29767751332821
30
0
41
1
10
12.0533120633888
20
-0.293907347526101
30
0
41
1
10
12.0426436032128
20
-0.286012629843469
30
0
41
1
10
12.0372126933245
20
-0.281882103214599
30
0
41
1
10
12.020666805848
20
-0.269007950892956
30
0
41
1
10
12.009301763559
20
-0.259787645928668
30
0
41
1
10
11.9976433210011
20
-0.25
30
0
0
SPLINE
5
137
100
AcDbEntity
8
1
62
256
6
ByLayer
370
18
48
1
60
0
100
AcDbSpline
70
4
71
2
72
6
73
3
40
0
40
0
40
0
40
1
40
1
40
1
41
1
10
12.1591777306887
20
-0.324980947161691
30
0
41
1
10
12.1351086225604
20
-0.324980947161691
30
0
41
1
10
12.1093895093787
20
-0.324980947161691
30
0
0
SPLINE
5
138
100
AcDbEntity
8
1
62
256
6
ByLayer
370
18
48
1
60
0
100
AcDbSpline
70
4
71
3
72
22
73
18
40
0
40
0
40
0
40
0
40
0.125
40
0.125
40
0.25
40
0.25
40
0.375
40
0.375
40
0.5
40
0.5
40
0.625
40
0.625
40
0.75
40
0.75
40
0.875
40
0.875
40
1
40
1
40
1
40
1
41
1
10
12.112447912294
20
-0.249999999999943
30
0
41
1
10
12.1167868703034
20
-0.254854742203293
30
0
41
1
10
12.1209776473745
20
-0.259636419717196
30
0
41
1
10
12.1290217080621
20
-0.269034144111373
30
0
41
1
10
12.1328661856318
20
-0.273641363100268
30
0
41
1
10
12.1400065186708
20
-0.282471564406677
30
0
41
1
10
12.1433230755429
20
-0.286718169404963
30
0
41
1
10
12.1493691551654
20
-0.294822935140644
30
0
41
1
10
12.1521174610557
20
-0.298711369994777
30
0
41
1
10
12.1567559307757
20
-0.305797443053109
30
0
41
1
10
12.1586618746924
20
-0.309011980465471
30
0
41
1
10
12.1615434185313
20
-0.314703920460204
30
0
41
1
10
12.1624968318173
20
-0.317151650447101
30
0
41
1
10
12.1633272609604
20
-0.321050353590891
30
0
41
1
10
12.1632184611248
20
-0.322535308026602
30
0
41
1
10
12.1619178742491
20
-0.32451233325267
30
0
41
1
10
12.160748914312
20
-0.324980744910022
30
0
41
1
10
12.1591123242011
20
-0.324980947096634
30
0
0
SPLINE
5
139
100
AcDbEntity
8
1
62
256
6
ByLayer
370
18
48
1
60
0
100
AcDbSpline
70
4
71
3
72
12
73
8
40
0
40
0
40
0
40
0
40
0.202855785616143
40
0.202855785616143
40
0.601427892803325
40
0.601427892803325
40
1
40
1
40
1
40
1
41
1
10
37.9065537372302
20
17.802233548751
30
0
41
1
10
37.7395608725169
20
17.802419968714
30
0
41
1
10
37.5725680080349
20
17.8026065959852
30
0
41
1
10
37.0774666918274
20
17.8031605241737
30
0
41
1
10
36.7493582407642
20
17.8035284181376
30
0
41
1
10
36.0931413404312
20
17.8042658070738
30
0
41
1
10
35.7650328911593
20
17.8046353020461
30
0
41
1
10
35.4369244427919
20
17.805005597655
30
0
0
SPLINE
5
13A
100
AcDbEntity
8
1
62
256
6
ByLayer
370
18
48
1
60
0
100
AcDbSpline
70
4
71
3
72
16
73
12
40
0
40
0
40
0
40
0
40
0.125000000000002
40
0.125000000000002
40
0.250000000000004
40
0.250000000000004
40
0.500000000000003
40
0.500000000000003
40
0.750000000000001
40
0.750000000000001
40
1
40
1
40
1
40
1
41
1
10
36.6080562954905
20
13.3792841885276
30
0
41
1
10
36.6201790849129
20
13.4461570747865
30
0
41
1
10
36.6317151901882
20
13.5132609732957
30
0
41
1
10
36.6540989799219
20
13.6477398423088
30
0
41
1
10
36.6649344016097
20
13.7150880868698
30
0
41
1
10
36.6967383241883
20
13.9173150155912
30
0
41
1
10
36.7170246442953
20
14.0523883141785
30
0
41
1
10
36.7566737347866
20
14.3227922791655
30
0
41
1
10
36.7760179183227
20
14.4581281252067
30
0
41
1
10
36.8141400045551
20
14.7289576241266
30
0
41
1
10
36.8329124775076
20
14.8644527901249
30
0
41
1
10
36.8514981939757
20
14.9999999999999
30
0
0
SPLINE
5
13B
100
AcDbEntity
8
1
62
256
6
ByLayer
370
18
48
1
60
0
100
AcDbSpline
70
4
71
3
72
8
73
4
40
0
40
0
40
0
40
0
40
1
40
1
40
1
40
1
41
1
10
37.026777017215
20
15.0840772376137
30
0
41
1
10
36.9684611811007
20
15.0556053920781
30
0
41
1
10
36.9100751308115
20
15.0274171666291
30
0
41
1
10
36.8514981939755
20
15
30
0
0
SPLINE
5
13C
100
AcDbEntity
8
1
62
256
6
ByLayer
370
18
48
1
60
0
100
AcDbSpline
70
4
71
3
72
20
73
16
40
0
40
0
40
0
40
0
40
0.124999999999998
40
0.124999999999998
40
0.249999999999996
40
0.249999999999996
40
0.374999999999994
40
0.374999999999994
40
0.499999999999992
40
0.499999999999992
40
0.62499999999999
40
0.62499999999999
40
0.749999999999988
40
0.749999999999988
40
1
40
1
40
1
40
1
41
1
10
37.1000000000118
20
15.2250311307297
30
0
41
1
10
37.1000000000117
20
15.2172027725805
30
0
41
1
10
37.0995500855061
20
15.2094401787341
30
0
41
1
10
37.0977624626886
20
15.1940447604527
30
0
41
1
10
37.096418551245
20
15.1864304464582
30
0
41
1
10
37.0929349500252
20
15.1717765786221
30
0
41
1
10
37.090789802468
20
15.1646782892514
30
0
41
1
10
37.0856948951848
20
15.1509378195402
30
0
41
1
10
37.0827177390073
20
15.1442580087266
30
0
41
1
10
37.0761569548167
20
15.1318114046973
30
0
41
1
10
37.0725589576124
20
15.1259895274068
30
0
41
1
10
37.06474386683
20
15.1151282558027
30
0
41
1
10
37.0604898085692
20
15.110053240317
30
0
41
1
10
37.0470416737058
20
15.0963285347892
30
0
41
1
10
37.0372920567318
20
15.0892110503286
30
0
41
1
10
37.026777017215
20
15.0840772376137
30
0
0
SPLINE
5
13D
100
AcDbEntity
8
1
62
256
6
ByLayer
370
18
48
1
60
0
100
AcDbSpline
70
4
71
3
72
20
73
16
40
0
40
0
40
0
40
0
40
0.125
40
0.125
40
0.25
40
0.25
40
0.375
40
0.375
40
0.5
40
0.5
40
0.625
40
0.625
40
0.75
40
0.75
40
1
40
1
40
1
40
1
41
1
10
37.0267770172148
20
15.9159227623864
30
0
41
1
10
37.0320335073588
20
15.913356358723
30
0
41
1
10
37.037112704795
20
15.9102776284609
30
0
41
1
10
37.0469169098255
20
15.9030966578375
30
0
41
1
10
37.0516728607017
20
15.8989590351324
30
0
41
1
10
37.0606058521869
20
15.8898139083348
30
0
41
1
10
37.0647934677856
20
15.8848097611125
30
0
41
1
10
37.0726085184946
20
15.873934553615
30
0
41
1
10
37.07626083358
20
15.8680143889908
30
0
41
1
10
37.0828391293578
20
15.8554880391188
30
0
41
1
10
37.085748860343
20
15.8489305808315
30
0
41
1
10
37.0908173665986
20
15.8352332079605
30
0
41
1
10
37.0929847603154
20
15.8280567882605
30
0
41
1
10
37.0982350113453
20
15.8058406057954
30
0
41
1
10
37.1
20
15.7906154703116
30
0
41
1
10
37.1
20
15.7749688692685
30
0
0
SPLINE
5
13E
100
AcDbEntity
8
1
62
256
6
ByLayer
370
18
48
1
60
0
100
AcDbSpline
70
4
71
3
72
8
73
4
40
0
40
0
40
0
40
0
40
1
40
1
40
1
40
1
41
1
10
36.8514981939755
20
16
30
0
41
1
10
36.9100586915477
20
15.9725905278333
30
0
41
1
10
36.9684491786964
20
15.9444004679185
30
0
41
1
10
37.0267770172148
20
15.9159227623864
30
0
0
SPLINE
5
13F
100
AcDbEntity
8
1
62
256
6
ByLayer
370
18
48
1
60
0
100
AcDbSpline
70
4
71
3
72
16
73
12
40
0
40
0
40
0
40
0
40
0.250000000000001
40
0.250000000000001
40
0.500000000000002
40
0.500000000000002
40
0.750000000000003
40
0.750000000000003
40
0.875000000000002
40
0.875000000000002
40
1
40
1
40
1
40
1
41
1
10
36.8514981939755
20
16
30
0
41
1
10
36.8329098475545
20
16.1355663903454
30
0
41
1
10
36.814133924587
20
16.2710862467805
30
0
41
1
10
36.7760061598696
20
16.5419547324863
30
0
41
1
10
36.756660031748
20
16.6773028167401
30
0
41
1
10
36.7170104633892
20
16.9477067552777
30
0
41
1
10
36.6967254690867
20
17.0827682403844
30
0
41
1
10
36.6649294394473
20
17.2849427068291
30
0
41
1
10
36.6540983715382
20
17.3522632556445
30
0
41
1
10
36.6317239556314
20
17.4866869220057
30
0
41
1
10
36.6201882492013
20
17.5537923722233
30
0
41
1
10
36.6080562954818
20
17.6207158114492
30
0
0
SPLINE
5
140
100
AcDbEntity
8
1
62
256
6
ByLayer
370
18
48
1
60
0
100
AcDbSpline
70
4
71
3
72
9
73
5
40
0
40
0
40
0
40
0
40
0.5
40
1
40
1
40
1
40
1
41
1
10
25.5442881792303
20
12.1
30
0
41
1
10
25.5448321413108
20
12.1
30
0
41
1
10
25.5443072620391
20
12.1
30
0
41
1
10
25.5406448145315
20
12.1
30
0
41
1
10
25.5381856353659
20
12.1
30
0
0
SPLINE
5
141
100
AcDbEntity
8
1
62
256
6
ByLayer
370
18
48
1
60
0
100
AcDbSpline
70
4
71
3
72
12
73
8
40
0
40
0
40
0
40
0
40
0.279915818468183
40
0.279915818468183
40
0.559831636936366
40
0.559831636936366
40
1
40
1
40
1
40
1
41
1
10
-12.0881936018054
20
-0.324980947161663
30
0
41
1
10
-12.0724293033973
20
-0.324980947161293
30
0
41
1
10
-12.0563145906413
20
-0.324140031765523
30
0
41
1
10
-12.0236224935398
20
-0.321432392161768
30
0
41
1
10
-12.0070405445916
20
-0.319553049457142
30
0
41
1
10
-11.9639178530068
20
-0.313755279179219
30
0
41
1
10
-11.9370513372839
20
-0.309281617071292
30
0
41
1
10
-11.9100841610085
20
-0.304203938282711
30
0
0
SPLINE
5
142
100
AcDbEntity
8
1
62
256
6
ByLayer
370
18
48
1
60
0
100
AcDbSpline
70
4
71
3
72
30
73
26
40
0
40
0
40
0
40
0
40
0.125000000000002
40
0.125000000000002
40
0.187500000000004
40
0.187500000000004
40
0.250000000000005
40
0.312500000000006
40
0.312500000000006
40
0.375000000000007
40
0.375000000000007
40
0.500000000000005
40
0.500000000000005
40
0.562500000000003
40
0.562500000000003
40
0.625000000000001
40
0.625000000000001
40
0.750000000000001
40
0.750000000000001
40
0.812500000000001
40
0.812500000000001
40
0.875000000000001
40
0.9375
40
0.9375
40
1
40
1
40
1
40
1
41
1
10
14.272209428644
20
1.375
30
0
41
1
10
14.2500924484084
20
1.375
30
0
41
1
10
14.2280536991369
20
1.37184524071961
30
0
41
1
10
14.1951172651323
20
1.3622058076956
30
0
41
1
10
14.1842805696398
20
1.35819977622589
30
0
41
1
10
14.1630634368024
20
1.34871346430882
30
0
41
1
10
14.1422433562508
20
1.33773564577859
30
0
41
1
10
14.1222102940526
20
1.32380143303922
30
0
41
1
10
14.1025786481296
20
1.30835932058403
30
0
41
1
10
14.0929217374853
20
1.29983613365201
30
0
41
1
10
14.0651466136046
20
1.27248836972282
30
0
41
1
10
14.0480577833704
20
1.25181459491549
30
0
41
1
10
14.0245361050739
20
1.21719287109173
30
0
41
1
10
14.0170426658869
20
1.20503309945985
30
0
41
1
10
14.0028208549019
20
1.1795100605984
30
0
41
1
10
13.9961964711147
20
1.16633606881322
30
0
41
1
10
13.9777334498802
20
1.12561858730163
30
0
41
1
10
13.9672917115965
20
1.09689080860974
30
0
41
1
10
13.9544812855652
20
1.0513810655664
30
0
41
1
10
13.9506889336861
20
1.03576751393888
30
0
41
1
10
13.9442346739122
20
1.00440493730767
30
0
41
1
10
13.9388591265737
20
0.972745587862363
30
0
41
1
10
13.9356027931514
20
0.940503205296352
30
0
41
1
10
13.9334176768782
20
0.907966112001759
30
0
41
1
10
13.9328610188872
20
0.891489880359217
30
0
41
1
10
13.9328610188872
20
0.875
30
0
0
SPLINE
5
143
100
AcDbEntity
8
1
62
256
6
ByLayer
370
18
48
1
60
0
100
AcDbSpline
70
4
71
3
72
45
73
41
40
0
40
0
40
0
40
0
40
0.0312500000000019
40
0.0312500000000019
40
0.0625000000000039
40
0.0625000000000039
40
0.125000000000008
40
0.125000000000008
40
0.156250000000009
40
0.156250000000009
40
0.187500000000011
40
0.187500000000011
40
0.250000000000012
40
0.250000000000012
40
0.312500000000012
40
0.328125000000013
40
0.328125000000013
40
0.343750000000013
40
0.343750000000013
40
0.375000000000011
40
0.375000000000011
40
0.437500000000008
40
0.437500000000008
40
0.500000000000004
40
0.500000000000004
40
0.531250000000004
40
0.531250000000004
40
0.562500000000003
40
0.562500000000003
40
0.625
40
0.625
40
0.749999999999993
40
0.749999999999993
40
0.781249999999992
40
0.781249999999992
40
0.812499999999992
40
0.812499999999992
40
0.874999999999995
40
0.874999999999995
40
1
40
1
40
1
40
1
41
1
10
25.5
20
12.6948697599268
30
0
41
1
10
25.5
20
12.7245050557894
30
0
41
1
10
25.5007985709654
20
12.7542324084075
30
0
41
1
10
25.5040702713858
20
12.8138801514928
30
0
41
1
10
25.5065235000596
20
12.8434325627358
30
0
41
1
10
25.5162933892682
20
12.9312788224523
30
0
41
1
10
25.5260133134226
20
12.9887687471492
30
0
41
1
10
25.5453734463827
20
13.0734022280181
30
0
41
1
10
25.5526253464392
20
13.1013458793733
30
0
41
1
10
25.5687432049959
20
13.1566924645629
30
0
41
1
10
25.5776249761483
20
13.1841394522126
30
0
41
1
10
25.6066391952093
20
13.2653732087622
30
0
41
1
10
25.6287556931136
20
13.3170420890237
30
0
41
1
10
25.6780842511479
20
13.4158110374865
30
0
41
1
10
25.7121020568163
20
13.4746836744963
30
0
41
1
10
25.7499199909599
20
13.5301490186426
30
0
41
1
10
25.7653507814613
20
13.5520629256351
30
0
41
1
10
25.7732318361215
20
13.5629026362569
30
0
41
1
10
25.7972006004098
20
13.5948495471938
30
0
41
1
10
25.8136105253985
20
13.6153876585954
30
0
41
1
10
25.8640521049934
20
13.6748644022202
30
0
41
1
10
25.8992913797841
20
13.7116728251102
30
0
41
1
10
25.9726889247589
20
13.7801406419896
30
0
41
1
10
26.0108485798035
20
13.8117975931226
30
0
41
1
10
26.0701411491588
20
13.8556614302738
30
0
41
1
10
26.090302504921
20
13.869711981918
30
0
41
1
10
26.1309822849636
20
13.8964270544559
30
0
41
1
10
26.15149447472
20
13.9090933420731
30
0
41
1
10
26.2135178027048
20
13.9451393794842
30
0
41
1
10
26.2555142143851
20
13.9665722625621
30
0
41
1
10
26.3832702811384
20
14.0237825663679
30
0
41
1
10
26.4707823280503
20
14.0525295729414
30
0
41
1
10
26.5828086742848
20
14.0778868189828
30
0
41
1
10
26.6053217565627
20
14.0824165302958
30
0
41
1
10
26.6502698673042
20
14.0903734127457
30
0
41
1
10
26.6727457374556
20
14.0938101831067
30
0
41
1
10
26.7401785894117
20
14.1025560248325
30
0
41
1
10
26.7851408013333
20
14.1063040248891
30
0
41
1
10
26.9200472145503
20
14.1116449042337
30
0
41
1
10
27.0100110558013
20
14.1073757022856
30
0
41
1
10
27.1
20
14.0956138398575
30
0
0
SPLINE
5
144
100
AcDbEntity
8
1
62
256
6
ByLayer
370
18
48
1
60
0
100
AcDbSpline
70
4
71
3
72
22
73
18
40
0
40
0
40
0
40
0
40
0.125000000000003
40
0.125000000000003
40
0.187500000000003
40
0.187500000000003
40
0.250000000000002
40
0.250000000000002
40
0.375000000000003
40
0.375000000000003
40
0.500000000000004
40
0.500000000000004
40
0.625000000000005
40
0.625000000000005
40
0.750000000000006
40
0.750000000000006
40
1
40
1
40
1
40
1
41
1
10
-19
20
0.875000000000369
30
0
41
1
10
-19
20
0.886739396505504
30
0
41
1
10
-19
20
0.898334933247412
30
0
41
1
10
-19
20
0.915526319994314
30
0
41
1
10
-19
20
0.921249839664796
30
0
41
1
10
-19
20
0.932382397268725
30
0
41
1
10
-19
20
0.937818025288578
30
0
41
1
10
-19
20
0.953779495961811
30
0
41
1
10
-19
20
0.963962002739862
30
0
41
1
10
-19
20
0.983590258656619
30
0
41
1
10
-19
20
0.993066633922297
30
0
41
1
10
-19
20
1.01103989558169
30
0
41
1
10
-19
20
1.01958933386419
30
0
41
1
10
-19
20
1.03599807149254
30
0
41
1
10
-19
20
1.04387864715071
30
0
41
1
10
-19
20
1.06647334031416
30
0
41
1
10
-19
20
1.08016731983292
30
0
41
1
10
-19
20
1.09294494717704
30
0
0
SPLINE
5
145
100
AcDbEntity
8
1
62
256
6
ByLayer
370
18
48
1
60
0
100
AcDbSpline
70
4
71
3
72
17
73
13
40
0
40
0
40
0
40
0
40
0.125000000000001
40
0.125000000000001
40
0.250000000000001
40
0.250000000000001
40
0.5
40
0.749999999999999
40
0.749999999999999
40
0.875
40
0.875
40
1
40
1
40
1
40
1
41
1
10
13.235222578539
20
1.10194986103858
30
0
41
1
10
13.2321935483699
20
1.09318855767597
30
0
41
1
10
13.2293203218475
20
1.08423466879822
30
0
41
1
10
13.2239543142364
20
1.06613922486676
30
0
41
1
10
13.2214653348583
20
1.05701600373573
30
0
41
1
10
13.2145677418627
20
1.02942479564714
30
0
41
1
10
13.2068853819296
20
0.992047219944453
30
0
41
1
10
13.2021935309542
20
0.953505971538249
30
0
41
1
10
13.1998286481951
20
0.924150986363628
30
0
41
1
10
13.1992333220498
20
0.91426735684496
30
0
41
1
10
13.1984461533015
20
0.894599019382014
30
0
41
1
10
13.19825125937
20
0.884788104788328
30
0
41
1
10
13.19825125937
20
0.875000000000085
30
0
0
SPLINE
5
146
100
AcDbEntity
8
1
62
256
6
ByLayer
370
18
48
1
60
0
100
AcDbSpline
70
4
71
3
72
18
73
14
40
0
40
0
40
0
40
0
40
0.124999999999999
40
0.124999999999999
40
0.249999999999999
40
0.249999999999999
40
0.499999999999999
40
0.499999999999999
40
0.75
40
0.75
40
0.875
40
0.875
40
1
40
1
40
1
40
1
41
1
10
11.008951354588
20
1.375
30
0
41
1
10
11.1024043261518
20
1.375
30
0
41
1
10
11.1957087125228
20
1.37255596513185
30
0
41
1
10
11.3820854841408
20
1.36385177599382
30
0
41
1
10
11.4751574989197
20
1.35758552800058
30
0
41
1
10
11.7540946265054
20
1.33419896304537
30
0
41
1
10
11.939683050875
20
1.31252747798848
30
0
41
1
10
12.3103884324468
20
1.26142948077404
30
0
41
1
10
12.4955020109838
20
1.23194739392957
30
0
41
1
10
12.7729840888848
20
1.18462713747374
30
0
41
1
10
12.8654466157606
20
1.16833559921221
30
0
41
1
10
13.0503435121645
20
1.13528937061892
30
0
41
1
10
13.1427773011428
20
1.11852513099282
30
0
41
1
10
13.2352225785401
20
1.10194986104807
30
0
0
SPLINE
5
147
100
AcDbEntity
8
1
62
256
6
ByLayer
370
18
48
1
60
0
100
AcDbSpline
70
4
71
3
72
29
73
25
40
0
40
0
40
0
40
0
40
0.0312500000000007
40
0.0312500000000007
40
0.0390625000000007
40
0.0390625000000007
40
0.0468750000000007
40
0.0625000000000007
40
0.0625000000000007
40
0.125000000000001
40
0.125000000000001
40
0.250000000000001
40
0.250000000000001
40
0.5
40
0.5
40
0.625
40
0.625
40
0.75
40
0.75
40
0.875
40
0.875
40
0.9375
40
0.9375
40
1
40
1
40
1
40
1
41
1
10
4.27170925976944
20
1.375
30
0
41
1
10
4.22741708030421
20
1.375
30
0
41
1
10
4.18311521228611
20
1.37474466629501
30
0
41
1
10
4.12772677047062
20
1.37413278892913
30
0
41
1
10
4.11662214905542
20
1.37399551069433
30
0
41
1
10
4.09427422884423
20
1.37368997305902
30
0
41
1
10
4.06075558069162
20
1.37318797124104
30
0
41
1
10
4.02724641447105
20
1.37255778395618
30
0
41
1
10
3.9155693592561
20
1.37018454364463
30
0
41
1
10
3.82629208870634
20
1.36741568963569
30
0
41
1
10
3.55862276249422
20
1.35691250020776
30
0
41
1
10
3.38039235477672
20
1.34699285937802
30
0
41
1
10
2.84615367628121
20
1.3111160225001
30
0
41
1
10
2.49060296760774
20
1.27897308159913
30
0
41
1
10
1.95751260839614
20
1.22757220977638
30
0
41
1
10
1.77985535969111
20
1.20990407890304
30
0
41
1
10
1.42447169103707
20
1.17550293757336
30
0
41
1
10
1.24674643474305
20
1.15875419576076
30
0
41
1
10
0.891013924382435
20
1.12906901707234
30
0
41
1
10
0.713004743019667
20
1.11615863515703
30
0
41
1
10
0.445564863653289
20
1.10255357249485
30
0
41
1
10
0.356363876266812
20
1.09898704843107
30
0
41
1
10
0.178116206561867
20
1.09418171358328
30
0
41
1
10
0.0890353225494209
20
1.09294494717704
30
0
41
1
10
0
20
1.09294494717704
30
0
0
SPLINE
5
148
100
AcDbEntity
8
1
62
256
6
ByLayer
370
18
48
1
60
0
100
AcDbSpline
70
4
71
3
72
19
73
15
40
0
40
0
40
0
40
0
40
0.25
40
0.25
40
0.5
40
0.5
40
0.75
40
0.75
40
0.78125
40
0.78125
40
0.8125
40
0.8125
40
0.875
40
1
40
1
40
1
40
1
41
1
10
5.63509935370516
20
0.394519052838319
30
0
41
1
10
4.70254111910936
20
0.222952407750881
30
0
41
1
10
3.76801610718675
20
0.0927021215975117
30
0
41
1
10
1.89487856191636
20
-0.0819313319209414
30
0
41
1
10
0.956265693072965
20
-0.126307451483001
30
0
41
1
10
-0.925138877083555
20
-0.127274388280995
30
0
41
1
10
-1.86793073751329
20
-0.083861862932082
30
0
41
1
10
-2.93093349052771
20
0.0145941935030862
30
0
41
1
10
-3.04907766511903
20
0.0262218984740628
30
0
41
1
10
-3.28543148800509
20
0.0508527234128167
30
0
41
1
10
-3.40368510858852
20
0.0638609988027099
30
0
41
1
10
-3.75823014923867
20
0.104910346530318
30
0
41
1
10
-4.46572999617388
20
0.195015774362247
30
0
41
1
10
-5.16854959974498
20
0.308685940134069
30
0
41
1
10
-5.63509935370516
20
0.394519052838291
30
0
0
SPLINE
5
149
100
AcDbEntity
8
1
62
256
6
ByLayer
370
18
48
1
60
0
100
AcDbSpline
70
4
71
3
72
18
73
14
40
0
40
0
40
0
40
0
40
0.250000000000006
40
0.250000000000006
40
0.500000000000012
40
0.500000000000012
40
0.625000000000009
40
0.625000000000009
40
0.750000000000006
40
0.750000000000006
40
0.875000000000003
40
0.875000000000003
40
1
40
1
40
1
40
1
41
1
10
-18.0287287527199
20
-0.249980947161589
30
0
41
1
10
-18.0203801250128
20
-0.259705568661019
30
0
41
1
10
-18.0127640730215
20
-0.269146074866086
30
0
41
1
10
-17.9995385373246
20
-0.287244191447456
30
0
41
1
10
-17.9942059657753
20
-0.2955286581508
30
0
41
1
10
-17.9888303130257
20
-0.306287723333213
30
0
41
1
10
-17.98753960481
20
-0.309477182072811
30
0
41
1
10
-17.9859863111476
20
-0.315040220045688
30
0
41
1
10
-17.9857248510136
20
-0.317423789181305
30
0
41
1
10
-17.9863130485071
20
-0.321261305045226
30
0
41
1
10
-17.9871484850687
20
-0.322665110889972
30
0
41
1
10
-17.9898118920066
20
-0.324527026171893
30
0
41
1
10
-17.9916613950634
20
-0.324980947161691
30
0
41
1
10
-17.9939249199246
20
-0.324980947161691
30
0
0
SPLINE
5
14A
100
AcDbEntity
8
1
62
256
6
ByLayer
370
18
48
1
60
0
100
AcDbSpline
70
4
71
3
72
8
73
4
40
0
40
0
40
0
40
0
40
1
40
1
40
1
40
1
41
1
10
-18.5812482082592
20
0.394519052838319
30
0
41
1
10
-18.397239110843
20
0.17958023859083
30
0
41
1
10
-18.2130708182976
20
-0.0352562190928438
30
0
41
1
10
-18.0287287527199
20
-0.249980947161561
30
0
0
SPLINE
5
14B
100
AcDbEntity
8
1
62
256
6
ByLayer
370
18
48
1
60
0
100
AcDbSpline
70
4
71
3
72
35
73
31
40
0
40
0
40
0
40
0
40
0.124999999999995
40
0.124999999999995
40
0.24999999999999
40
0.24999999999999
40
0.374999999999985
40
0.374999999999985
40
0.437499999999985
40
0.437499999999985
40
0.499999999999984
40
0.499999999999984
40
0.562499999999984
40
0.562499999999984
40
0.624999999999984
40
0.624999999999984
40
0.656249999999984
40
0.656249999999984
40
0.687499999999984
40
0.718749999999984
40
0.718749999999984
40
0.749999999999984
40
0.749999999999984
40
0.812499999999988
40
0.812499999999988
40
0.874999999999992
40
0.874999999999992
40
0.937499999999996
40
0.937499999999996
40
1
40
1
40
1
40
1
41
1
10
-18.4739743524117
20
0.394519052838319
30
0
41
1
10
-18.4870076534492
20
0.40467771428311
30
0
41
1
10
-18.4998072213005
20
0.41425738730112
30
0
41
1
10
-18.5248961876862
20
0.432166599792794
30
0
41
1
10
-18.5371877874604
20
0.44050144479246
30
0
41
1
10
-18.5611262051355
20
0.455603749929821
30
0
41
1
10
-18.5724254375322
20
0.462153942749722
30
0
41
1
10
-18.5880536600985
20
0.470032587577066
30
0
41
1
10
-18.5930715511233
20
0.472341317897843
30
0
41
1
10
-18.6023316428988
20
0.476059968224234
30
0
41
1
10
-18.6065924280455
20
0.477483071167541
30
0
41
1
10
-18.61424480329
20
0.479301674402052
30
0
41
1
10
-18.6176614101842
20
0.479690478088912
30
0
41
1
10
-18.6231992909744
20
0.479203435856874
30
0
41
1
10
-18.6253491347405
20
0.478344329635576
30
0
41
1
10
-18.6275127386324
20
0.475998666709387
30
0
41
1
10
-18.6280515637346
20
0.475037860517887
30
0
41
1
10
-18.6287334483274
20
0.47280285105478
30
0
41
1
10
-18.6290306263816
20
0.470245039390562
30
0
41
1
10
-18.6285640542785
20
0.467045659082999
30
0
41
1
10
-18.6277115578637
20
0.463521717329655
30
0
41
1
10
-18.6270871066253
20
0.461588002934661
30
0
41
1
10
-18.624692905213
20
0.455453171617592
30
0
41
1
10
-18.6224018034917
20
0.450883639903509
30
0
41
1
10
-18.6165835561629
20
0.440889135534377
30
0
41
1
10
-18.6130868726059
20
0.435525392193966
30
0
41
1
10
-18.6052856511484
20
0.424440528495324
30
0
41
1
10
-18.6009563118815
20
0.418678369205168
30
0
41
1
10
-18.5915551587891
20
0.4067724130702
30
0
41
1
10
-18.5865153525356
20
0.400671540737704
30
0
41
1
10
-18.5812482082592
20
0.394519052838319
30
0
0
SPLINE
5
14C
100
AcDbEntity
8
1
62
256
6
ByLayer
370
18
48
1
60
0
100
AcDbSpline
70
4
71
3
72
8
73
4
40
0
40
0
40
0
40
0
40
1
40
1
40
1
40
1
41
1
10
-17.6355675589552
20
-0.249980947161674
30
0
41
1
10
-17.9167965179605
20
-0.0368647817199701
30
0
41
1
10
-18.1962122396723
20
0.17802046530457
30
0
41
1
10
-18.4739743524117
20
0.394519052838319
30
0
0
SPLINE
5
14D
100
AcDbEntity
8
1
62
256
6
ByLayer
370
18
48
1
60
0
100
AcDbSpline
70
4
71
3
72
16
73
12
40
0
40
0
40
0
40
0
40
0.125000000000011
40
0.125000000000011
40
0.250000000000022
40
0.250000000000022
40
0.500000000000015
40
0.500000000000015
40
0.750000000000007
40
0.750000000000007
40
1
40
1
40
1
40
1
41
1
10
-17.5000603949205
20
-0.32498094716351
30
0
41
1
10
-17.5034531652321
20
-0.32498094716334
30
0
41
1
10
-17.5073995575774
20
-0.324343825065853
30
0
41
1
10
-17.516211201762
20
-0.322010582254791
30
0
41
1
10
-17.5210964025255
20
-0.320298706549949
30
0
41
1
10
-17.5364170579665
20
-0.313999603466158
30
0
41
1
10
-17.5477048511587
20
-0.308216513563508
30
0
41
1
10
-17.5716642128454
20
-0.294401957912299
30
0
41
1
10
-17.5840274375988
20
-0.286548128378229
30
0
41
1
10
-17.6093593126197
20
-0.26935695362036
30
0
41
1
10
-17.6223873763713
20
-0.259968929843211
30
0
41
1
10
-17.6355675589552
20
-0.249980947161674
30
0
0
SPLINE
5
14E
100
AcDbEntity
8
1
62
256
6
ByLayer
370
18
48
1
60
0
100
AcDbSpline
70
4
71
3
72
22
73
18
40
0
40
0
40
0
40
0
40
0.125
40
0.125
40
0.25
40
0.25
40
0.375
40
0.375
40
0.5
40
0.5
40
0.625
40
0.625
40
0.75
40
0.75
40
0.875
40
0.875
40
1
40
1
40
1
40
1
41
1
10
-17.4382636790639
20
-0.249980947161532
30
0
41
1
10
-17.4341690345688
20
-0.254867676870248
30
0
41
1
10
-17.4302867485268
20
-0.259694172525712
30
0
41
1
10
-17.4230138932383
20
-0.269207361992926
30
0
41
1
10
-17.4196040003651
20
-0.273922123855868
30
0
41
1
10
-17.4134737102217
20
-0.283050307925606
30
0
41
1
10
-17.4107831734637
20
-0.287415492847487
30
0
41
1
10
-17.4062510968043
20
-0.295693994296243
30
0
41
1
10
-17.4043952993558
20
-0.299650731135898
30
0
41
1
10
-17.4017898508421
20
-0.306767870244073
30
0
41
1
10
-17.4010281714754
20
-0.309930304132877
30
0
41
1
10
-17.4006235085082
20
-0.315434288950485
30
0
41
1
10
-17.4009999617451
20
-0.317791201698924
30
0
41
1
10
-17.4028560532314
20
-0.321456739983034
30
0
41
1
10
-17.4043205947448
20
-0.322797204013625
30
0
41
1
10
-17.4082400976542
20
-0.324567600424018
30
0
41
1
10
-17.4106764673078
20
-0.324980947161691
30
0
41
1
10
-17.4134725186275
20
-0.324980947161691
30
0
0
SPLINE
5
14F
100
AcDbEntity
8
1
62
256
6
ByLayer
370
18
48
1
60
0
100
AcDbSpline
70
4
71
3
72
8
73
4
40
0
40
0
40
0
40
0
40
1
40
1
40
1
40
1
41
1
10
-17.9778880275984
20
0.394519052838319
30
0
41
1
10
-17.7980999976783
20
0.179631242401683
30
0
41
1
10
-17.6182278533523
20
-0.0352037478078557
30
0
41
1
10
-17.4382636790639
20
-0.249980947161504
30
0
0
SPLINE
5
150
100
AcDbEntity
8
1
62
256
6
ByLayer
370
18
48
1
60
0
100
AcDbSpline
70
4
71
3
72
32
73
28
40
0
40
0
40
0
40
0
40
0.124999999999999
40
0.124999999999999
40
0.249999999999997
40
0.249999999999997
40
0.3125
40
0.3125
40
0.375000000000002
40
0.375000000000002
40
0.499999999999992
40
0.499999999999992
40
0.562499999999993
40
0.562499999999993
40
0.624999999999994
40
0.624999999999994
40
0.687499999999995
40
0.687499999999995
40
0.749999999999996
40
0.749999999999996
40
0.812499999999997
40
0.812499999999997
40
0.874999999999998
40
0.874999999999998
40
0.937499999999999
40
0.937499999999999
40
1
40
1
40
1
40
1
41
1
10
-17.8422547739246
20
0.394519052838319
30
0
41
1
10
-17.8560258583049
20
0.404520298715681
30
0
41
1
10
-17.8696032737995
20
0.413929027723412
30
0
41
1
10
-17.8963439997889
20
0.431494872861293
30
0
41
1
10
-17.9095086622445
20
0.439656005426087
30
0
41
1
10
-17.9288752363966
20
0.450757410418703
30
0
41
1
10
-17.9352728578613
20
0.454267026879989
30
0
41
1
10
-17.9476703393397
20
0.460711222123479
30
0
41
1
10
-17.9537005653584
20
0.46366412377742
30
0
41
1
10
-17.9712128917084
20
0.471599262198481
30
0
41
1
10
-17.9822334827617
20
0.475699253576352
30
0
41
1
10
-17.9962669091183
20
0.478921245725019
30
0
41
1
10
-18.0005541852456
20
0.479519553246576
30
0
41
1
10
-18.008147229582
20
0.479518551809349
30
0
41
1
10
-18.011339731184
20
0.478915980909278
30
0
41
1
10
-18.0163291232035
20
0.476337856270049
30
0
41
1
10
-18.0181293379942
20
0.474316428364631
30
0
41
1
10
-18.0199708816204
20
0.468918723610557
30
0
41
1
10
-18.0200531724044
20
0.465548906874716
30
0
41
1
10
-18.0184789084955
20
0.457414202766614
30
0
41
1
10
-18.0168366824856
20
0.45276514253942
30
0
41
1
10
-18.0120969825224
20
0.442603577620275
30
0
41
1
10
-18.0089580969637
20
0.437021951453488
30
0
41
1
10
-18.0016666684293
20
0.425517957988518
30
0
41
1
10
-17.9974945596912
20
0.419543766457821
30
0
41
1
10
-17.988265511424
20
0.407220741848732
30
0
41
1
10
-17.9832116767568
20
0.400882031017034
30
0
41
1
10
-17.9778880275984
20
0.394519052838319
30
0
0
SPLINE
5
151
100
AcDbEntity
8
1
62
256
6
ByLayer
370
18
48
1
60
0
100
AcDbSpline
70
4
71
3
72
8
73
4
40
0
40
0
40
0
40
0
40
1
40
1
40
1
40
1
41
1
10
-16.9397539363789
20
-0.249980947161674
30
0
41
1
10
-17.2427061894618
20
-0.0373726821929097
30
0
41
1
10
-17.5434740859654
20
0.177529668330379
30
0
41
1
10
-17.8422547739246
20
0.394519052838319
30
0
0
SPLINE
5
152
100
AcDbEntity
8
1
62
256
6
ByLayer
370
18
48
1
60
0
100
AcDbSpline
70
4
71
3
72
18
73
14
40
0
40
0
40
0
40
0
40
0.124999999999992
40
0.124999999999992
40
0.249999999999983
40
0.249999999999983
40
0.499999999999983
40
0.499999999999983
40
0.62499999999999
40
0.62499999999999
40
0.749999999999997
40
0.749999999999997
40
1
40
1
40
1
40
1
41
1
10
-16.7870313841584
20
-0.324980947167205
30
0
41
1
10
-16.791342106785
20
-0.324980947166722
30
0
41
1
10
-16.7961881593911
20
-0.324327948262379
30
0
41
1
10
-16.8067373608678
20
-0.321974304028231
30
0
41
1
10
-16.8124756598324
20
-0.320254548459019
30
0
41
1
10
-16.8302474035175
20
-0.313940007976839
30
0
41
1
10
-16.8429780756196
20
-0.308195138262704
30
0
41
1
10
-16.8630506740278
20
-0.297879915890746
30
0
41
1
10
-16.8698793452217
20
-0.294164224961349
30
0
41
1
10
-16.8835836043086
20
-0.286352873803736
30
0
41
1
10
-16.8904897614687
20
-0.282241375851697
30
0
41
1
10
-16.9113560136087
20
-0.269346955069722
30
0
41
1
10
-16.9254620768257
20
-0.260010803126988
30
0
41
1
10
-16.9397539363789
20
-0.249980947161674
30
0
0
SPLINE
5
153
100
AcDbEntity
8
1
62
256
6
ByLayer
370
18
48
1
60
0
100
AcDbSpline
70
4
71
3
72
22
73
18
40
0
40
0
40
0
40
0
40
0.125
40
0.125
40
0.25
40
0.25
40
0.375
40
0.375
40
0.5
40
0.5
40
0.625
40
0.625
40
0.75
40
0.75
40
0.875
40
0.875
40
1
40
1
40
1
40
1
41
1
10
-16.6928433719953
20
-0.249980947161418
30
0
41
1
10
-16.6887857444674
20
-0.254908553871502
30
0
41
1
10
-16.6849705694704
20
-0.259790857720077
30
0
41
1
10
-16.6779149533852
20
-0.26944782393528
30
0
41
1
10
-16.6746501619329
20
-0.274263633559656
30
0
41
1
10
-16.668997911571
20
-0.283500347574631
30
0
41
1
10
-16.666600016134
20
-0.287927339757033
30
0
41
1
10
-16.6627981564321
20
-0.296336048834661
30
0
41
1
10
-16.6614063262736
20
-0.300325602141925
30
0
41
1
10
-16.6598747052286
20
-0.307395135076689
30
0
41
1
10
-16.6597043062066
20
-0.31053181254066
30
0
41
1
10
-16.6606077625794
20
-0.315971261589283
30
0
41
1
10
-16.6616850913993
20
-0.318214129968481
30
0
41
1
10
-16.6649110617957
20
-0.321701165436622
30
0
41
1
10
-16.6670940108751
20
-0.322977219047687
30
0
41
1
10
-16.6722914023283
20
-0.324610296155299
30
0
41
1
10
-16.6752935883738
20
-0.324980947162004
30
0
41
1
10
-16.6786305280169
20
-0.324980947162004
30
0
0
SPLINE
5
154
100
AcDbEntity
8
1
62
256
6
ByLayer
370
18
48
1
60
0
100
AcDbSpline
70
4
71
3
72
8
73
4
40
0
40
0
40
0
40
0
40
1
40
1
40
1
40
1
41
1
10
-17.2234180953955
20
0.394519052838319
30
0
41
1
10
-17.0465893021273
20
0.179667539911037
30
0
41
1
10
-16.8697319891465
20
-0.0351663712000629
30
0
41
1
10
-16.6928433719954
20
-0.249980947161418
30
0
0
SPLINE
5
155
100
AcDbEntity
8
1
62
256
6
ByLayer
370
18
48
1
60
0
100
AcDbSpline
70
4
71
3
72
36
73
32
40
0
40
0
40
0
40
0
40
0.125000000000003
40
0.125000000000003
40
0.250000000000007
40
0.250000000000007
40
0.312500000000003
40
0.312500000000003
40
0.374999999999999
40
0.374999999999999
40
0.437499999999995
40
0.437499999999995
40
0.499999999999991
40
0.499999999999991
40
0.562499999999987
40
0.562499999999987
40
0.624999999999983
40
0.624999999999983
40
0.687499999999979
40
0.687499999999979
40
0.749999999999975
40
0.749999999999975
40
0.812499999999971
40
0.812499999999971
40
0.843749999999975
40
0.843749999999975
40
0.87499999999998
40
0.87499999999998
40
0.93749999999999
40
0.93749999999999
40
1
40
1
40
1
40
1
41
1
10
-17.0559192792914
20
0.394519052838319
30
0
41
1
10
-17.0705982671182
20
0.404362834404878
30
0
41
1
10
-17.0851178275437
20
0.413601630101539
30
0
41
1
10
-17.1138227275755
20
0.430828338333697
30
0
41
1
10
-17.1280088688477
20
0.438819193995471
30
0
41
1
10
-17.1489899980216
20
0.449699392425316
30
0
41
1
10
-17.1559606335937
20
0.4531526058731
30
0
41
1
10
-17.1696501918301
20
0.459564811699522
30
0
41
1
10
-17.1763456356655
20
0.462514412437883
30
0
41
1
10
-17.1894003078252
20
0.467836120126378
30
0
41
1
10
-17.1957600056047
20
0.470209044019242
30
0
41
1
10
-17.2080807163957
20
0.474269475598959
30
0
41
1
10
-17.2140546329025
20
0.475956566440431
30
0
41
1
10
-17.2252235244482
20
0.478415526060701
30
0
41
1
10
-17.2304549202225
20
0.479202477171327
30
0
41
1
10
-17.2400467319688
20
0.479682312363281
30
0
41
1
10
-17.2444294871586
20
0.479360097418436
30
0
41
1
10
-17.2517430897208
20
0.477362054351346
30
0
41
1
10
-17.2547315718806
20
0.475687856197624
30
0
41
1
10
-17.2589862605905
20
0.470736049652856
30
0
41
1
10
-17.2601800791641
20
0.467549883255174
30
0
41
1
10
-17.2606310932113
20
0.459699767510244
30
0
41
1
10
-17.2598443353929
20
0.454972489546776
30
0
41
1
10
-17.2572903989193
20
0.447204211494579
30
0
41
1
10
-17.2562136678002
20
0.444488571355805
30
0
41
1
10
-17.2536321914573
20
0.438817281238812
30
0
41
1
10
-17.25212003757
20
0.435851492444499
30
0
41
1
10
-17.2470990805785
20
0.4268335141021
30
0
41
1
10
-17.2430846030587
20
0.420595456700227
30
0
41
1
10
-17.2339746722671
20
0.407751827534497
30
0
41
1
10
-17.2288630059653
20
0.401134758640808
30
0
41
1
10
-17.2234180953955
20
0.394519052838319
30
0
0
SPLINE
5
156
100
AcDbEntity
8
1
62
256
6
ByLayer
370
18
48
1
60
0
100
AcDbSpline
70
4
71
3
72
8
73
4
40
0
40
0
40
0
40
0
40
1
40
1
40
1
40
1
41
1
10
-16.0747405491863
20
-0.249980947161674
30
0
41
1
10
-16.4043614902331
20
-0.0380721567194087
30
0
41
1
10
-16.7313392866229
20
0.176854552642226
30
0
41
1
10
-17.0559192792914
20
0.394519052838319
30
0
0
SPLINE
5
157
100
AcDbEntity
8
1
62
256
6
ByLayer
370
18
48
1
60
0
100
AcDbSpline
70
4
71
3
72
18
73
14
40
0
40
0
40
0
40
0
40
0.12500000000002
40
0.12500000000002
40
0.25000000000004
40
0.25000000000004
40
0.500000000000049
40
0.500000000000049
40
0.625000000000037
40
0.625000000000037
40
0.750000000000025
40
0.750000000000025
40
1
40
1
40
1
40
1
41
1
10
-15.9014694779915
20
-0.3249809471763
30
0
41
1
10
-15.9068347284255
20
-0.324980947175277
30
0
41
1
10
-15.9127047740947
20
-0.324317621812298
30
0
41
1
10
-15.9252257328505
20
-0.321961956424673
30
0
41
1
10
-15.9319250958335
20
-0.320249195654498
30
0
41
1
10
-15.9524998074368
20
-0.313959742985048
30
0
41
1
10
-15.9669425794261
20
-0.308258872530075
30
0
41
1
10
-15.9893960442947
20
-0.298066963277279
30
0
41
1
10
-15.9970463709325
20
-0.294372260744638
30
0
41
1
10
-16.0124072411958
20
-0.286558897961356
30
0
41
1
10
-16.0201229062703
20
-0.28243976752168
30
0
41
1
10
-16.0433670810145
20
-0.269500582045311
30
0
41
1
10
-16.0589915323881
20
-0.260105774454985
30
0
41
1
10
-16.0747405491863
20
-0.249980947161674
30
0
0
SPLINE
5
158
100
AcDbEntity
8
1
62
256
6
ByLayer
370
18
48
1
60
0
100
AcDbSpline
70
4
71
3
72
24
73
20
40
0
40
0
40
0
40
0
40
0.125000000000023
40
0.125000000000023
40
0.250000000000047
40
0.250000000000047
40
0.37500000000007
40
0.37500000000007
40
0.500000000000093
40
0.500000000000093
40
0.562500000000092
40
0.562500000000092
40
0.625000000000091
40
0.625000000000091
40
0.750000000000061
40
0.750000000000061
40
0.87500000000003
40
0.87500000000003
40
1
40
1
40
1
40
1
41
1
10
-15.7705104401658
20
-0.249980947161219
30
0
41
1
10
-15.7664409806213
20
-0.254963799579315
30
0
41
1
10
-15.7626505409949
20
-0.259920539419568
30
0
41
1
10
-15.7557515288527
20
-0.269770044953589
30
0
41
1
10
-15.7526342009609
20
-0.274688047466299
30
0
41
1
10
-15.7474658460834
20
-0.284082327184649
30
0
41
1
10
-15.7453822187738
20
-0.288598514860155
30
0
41
1
10
-15.7424161976405
20
-0.297195434075917
30
0
41
1
10
-15.7415893741885
20
-0.30113726110136
30
0
41
1
10
-15.7413685370152
20
-0.306412502500422
30
0
41
1
10
-15.7414634919665
20
-0.308069754760112
30
0
41
1
10
-15.7419978988112
20
-0.311177247757087
30
0
41
1
10
-15.7424416837273
20
-0.312630120683394
30
0
41
1
10
-15.744244201702
20
-0.316565770116426
30
0
41
1
10
-15.7460732175954
20
-0.31867350402598
30
0
41
1
10
-15.7508356082857
20
-0.321978291223502
30
0
41
1
10
-15.75373219378
20
-0.323141681747728
30
0
41
1
10
-15.7602441134992
20
-0.32463826070034
30
0
41
1
10
-15.7638772192612
20
-0.324980947161663
30
0
41
1
10
-15.7678282405415
20
-0.324980947161663
30
0
0
SPLINE
5
159
100
AcDbEntity
8
1
62
256
6
ByLayer
370
18
48
1
60
0
100
AcDbSpline
70
4
71
3
72
8
73
4
40
0
40
0
40
0
40
0
40
1
40
1
40
1
40
1
41
1
10
-16.2968648471025
20
0.394519052838319
30
0
41
1
10
-16.1214142561082
20
0.179685181728644
30
0
41
1
10
-15.9459628164259
20
-0.0351481695532812
30
0
41
1
10
-15.7705104401659
20
-0.249980947161219
30
0
0
SPLINE
5
15A
100
AcDbEntity
8
1
62
256
6
ByLayer
370
18
48
1
60
0
100
AcDbSpline
70
4
71
3
72
37
73
33
40
0
40
0
40
0
40
0
40
0.124999999999992
40
0.124999999999992
40
0.249999999999983
40
0.249999999999983
40
0.312499999999982
40
0.312499999999982
40
0.37499999999998
40
0.37499999999998
40
0.437499999999979
40
0.437499999999979
40
0.499999999999977
40
0.499999999999977
40
0.562499999999976
40
0.562499999999976
40
0.624999999999974
40
0.624999999999974
40
0.687499999999973
40
0.687499999999973
40
0.718749999999972
40
0.718749999999972
40
0.749999999999972
40
0.781249999999971
40
0.781249999999971
40
0.81249999999997
40
0.81249999999997
40
0.87499999999998
40
0.87499999999998
40
0.93749999999999
40
0.93749999999999
40
1
40
1
40
1
40
1
41
1
10
-16.0923183384426
20
0.394519052838319
30
0
41
1
10
-16.1081403501313
20
0.404200256657845
30
0
41
1
10
-16.1238313712992
20
0.413265662151645
30
0
41
1
10
-16.1549439718491
20
0.430149685211973
30
0
41
1
10
-16.1703660028168
20
0.437970340595513
30
0
41
1
10
-16.1932654366168
20
0.448629773409038
30
0
41
1
10
-16.2008593510069
20
0.452002917468832
30
0
41
1
10
-16.2159579026447
20
0.458340102413388
30
0
41
1
10
-16.2234519279944
20
0.461297908650891
30
0
41
1
10
-16.2380890158211
20
0.466647495179046
30
0
41
1
10
-16.245260980452
20
0.469052204399844
30
0
41
1
10
-16.2592633136992
20
0.473231268390492
30
0
41
1
10
-16.2661219864907
20
0.475012423208597
30
0
41
1
10
-16.2792863978668
20
0.477766429622619
30
0
41
1
10
-16.2855515578539
20
0.478734012847497
30
0
41
1
10
-16.2973118227788
20
0.479672125908735
30
0
41
1
10
-16.3028162984544
20
0.479645941417374
30
0
41
1
10
-16.3127801679192
20
0.478272438753095
30
0
41
1
10
-16.3170998390114
20
0.476943943677298
30
0
41
1
10
-16.3223498902317
20
0.473755976422041
30
0
41
1
10
-16.3239027532794
20
0.472480345157834
30
0
41
1
10
-16.3264777974483
20
0.469527657879866
30
0
41
1
10
-16.3285221872621
20
0.466189998119518
30
0
41
1
10
-16.3294707477644
20
0.462056024846504
30
0
41
1
10
-16.3298403401064
20
0.457500657007216
30
0
41
1
10
-16.3297288331335
20
0.454989178748832
30
0
41
1
10
-16.3285186876843
20
0.44706044623743
30
0
41
1
10
-16.3265623504638
20
0.441180005305654
30
0
41
1
10
-16.3206481840525
20
0.428496905157545
30
0
41
1
10
-16.316807646128
20
0.421921670112624
30
0
41
1
10
-16.3077594567696
20
0.408408203381782
30
0
41
1
10
-16.3025219331033
20
0.401445981256501
30
0
41
1
10
-16.2968648471025
20
0.394519052838319
30
0
0
SPLINE
5
15B
100
AcDbEntity
8
1
62
256
6
ByLayer
370
18
48
1
60
0
100
AcDbSpline
70
4
71
3
72
8
73
4
40
0
40
0
40
0
40
0
40
1
40
1
40
1
40
1
41
1
10
-15.0113058733159
20
-0.249980947161674
30
0
41
1
10
-15.3747684041203
20
-0.0390788144742373
30
0
41
1
10
-15.7350028490323
20
0.175884144148966
30
0
41
1
10
-16.0923183384426
20
0.394519052838319
30
0
0
SPLINE
5
15C
100
AcDbEntity
8
1
62
256
6
ByLayer
370
18
48
1
60
0
100
AcDbSpline
70
4
71
3
72
18
73
14
40
0
40
0
40
0
40
0
40
0.124999999999999
40
0.124999999999999
40
0.249999999999998
40
0.249999999999998
40
0.499999999999996
40
0.499999999999996
40
0.624999999999995
40
0.624999999999995
40
0.749999999999994
40
0.749999999999994
40
1
40
1
40
1
40
1
41
1
10
-14.8124623350353
20
-0.324980947161691
30
0
41
1
10
-14.8191040881758
20
-0.324980947161009
30
0
41
1
10
-14.8262013671261
20
-0.324309054638235
30
0
41
1
10
-14.8410729561888
20
-0.321962674102565
30
0
41
1
10
-14.8488745658275
20
-0.320277142050088
30
0
41
1
10
-14.8729727659273
20
-0.31400004023601
30
0
41
1
10
-14.8895680346605
20
-0.308329666237881
30
0
41
1
10
-14.9150208402985
20
-0.298248546839886
30
0
41
1
10
-14.9236014290334
20
-0.294617357588294
30
0
41
1
10
-14.9409404746337
20
-0.286855545448702
30
0
41
1
10
-14.9497206956231
20
-0.282713288346656
30
0
41
1
10
-14.976052688455
20
-0.26969847336872
30
0
41
1
10
-14.9936550910215
20
-0.260222959237126
30
0
41
1
10
-15.0113058733159
20
-0.249980947161674
30
0
0
SPLINE
5
15D
100
AcDbEntity
8
1
62
256
6
ByLayer
370
18
48
1
60
0
100
AcDbSpline
70
4
71
3
72
22
73
18
40
0
40
0
40
0
40
0
40
0.125
40
0.125
40
0.25
40
0.25
40
0.375
40
0.375
40
0.5
40
0.5
40
0.625
40
0.625
40
0.75
40
0.75
40
0.875
40
0.875
40
1
40
1
40
1
40
1
41
1
10
-14.6378611567674
20
-0.249980947160765
30
0
41
1
10
-14.6337062695904
20
-0.255043416118525
30
0
41
1
10
-14.6298767351538
20
-0.260106240331453
30
0
41
1
10
-14.6230472637205
20
-0.270232753743471
30
0
41
1
10
-14.6200843263832
20
-0.275257691632021
30
0
41
1
10
-14.6154489910775
20
-0.284851965514861
30
0
41
1
10
-14.6137386426708
20
-0.289478184913406
30
0
41
1
10
-14.6118264888769
20
-0.298252416364676
30
0
41
1
10
-14.6116726799336
20
-0.302184420737689
30
0
41
1
10
-14.6129132685258
20
-0.309168004887198
30
0
41
1
10
-14.6143452457558
20
-0.312233712057065
30
0
41
1
10
-14.6185013101192
20
-0.317228993892542
30
0
41
1
10
-14.6212507120715
20
-0.319223339349236
30
0
41
1
10
-14.6276897795995
20
-0.322264257201539
30
0
41
1
10
-14.6313455176698
20
-0.323311967656196
30
0
41
1
10
-14.6393339813921
20
-0.324671544088858
30
0
41
1
10
-14.6436861637691
20
-0.324980947161691
30
0
41
1
10
-14.6482797132064
20
-0.324980947161691
30
0
0
SPLINE
5
15E
100
AcDbEntity
8
1
62
256
6
ByLayer
370
18
48
1
60
0
100
AcDbSpline
70
4
71
3
72
8
73
4
40
0
40
0
40
0
40
0
40
1
40
1
40
1
40
1
41
1
10
-15.1667226783067
20
0.394519052838319
30
0
41
1
10
-14.9904557633516
20
0.179673252606676
30
0
41
1
10
-14.8141693177328
20
-0.035160531136512
30
0
41
1
10
-14.6378611567676
20
-0.249980947160765
30
0
0
SPLINE
5
15F
100
AcDbEntity
8
1
62
256
6
ByLayer
370
18
48
1
60
0
100
AcDbSpline
70
4
71
3
72
32
73
28
40
0
40
0
40
0
40
0
40
0.124999999999985
40
0.124999999999985
40
0.24999999999997
40
0.24999999999997
40
0.374999999999956
40
0.374999999999956
40
0.437499999999953
40
0.437499999999953
40
0.499999999999949
40
0.499999999999949
40
0.624999999999958
40
0.624999999999958
40
0.749999999999966
40
0.749999999999966
40
0.812499999999972
40
0.812499999999972
40
0.843749999999975
40
0.843749999999975
40
0.874999999999978
40
0.874999999999978
40
0.906249999999981
40
0.906249999999981
40
0.937499999999984
40
0.937499999999984
40
1
40
1
40
1
40
1
41
1
10
-14.917139020263
20
0.394519052838319
30
0
41
1
10
-14.9344476298749
20
0.404023486860524
30
0
41
1
10
-14.951670326529
20
0.412916838420955
30
0
41
1
10
-14.985940144602
20
0.429481867193488
30
0
41
1
10
-15.0029874868118
20
0.437155024368053
30
0
41
1
10
-15.0368825566627
20
0.451126841449934
30
0
41
1
10
-15.0538143213152
20
0.457452343825082
30
0
41
1
10
-15.0784542027497
20
0.465437639459168
30
0
41
1
10
-15.086556340249
20
0.467854927845565
30
0
41
1
10
-15.1025031675837
20
0.472121922114553
30
0
41
1
10
-15.1103771446343
20
0.473978062194675
30
0
41
1
10
-15.1333232050906
20
0.478462496419667
30
0
41
1
10
-15.1475864856647
20
0.480042909231599
30
0
41
1
10
-15.1728315270451
20
0.478697351337104
30
0
41
1
10
-15.1839406355279
20
0.475624193230942
30
0
41
1
10
-15.1935543889026
20
0.465213977477276
30
0
41
1
10
-15.1955157054795
20
0.460889148266347
30
0
41
1
10
-15.1962909719604
20
0.452906798019313
30
0
41
1
10
-15.1961750258383
20
0.450020940609448
30
0
41
1
10
-15.1952286606578
20
0.443978379701605
30
0
41
1
10
-15.1944011683871
20
0.440798728334443
30
0
41
1
10
-15.1920700953782
20
0.434136718479124
30
0
41
1
10
-15.1905606996569
20
0.430654502661866
30
0
41
1
10
-15.1870296219919
20
0.423643516063777
30
0
41
1
10
-15.1849986360634
20
0.420084952291035
30
0
41
1
10
-15.1782123037365
20
0.409270385922156
30
0
41
1
10
-15.1727363465437
20
0.401848910316261
30
0
41
1
10
-15.1667226783068
20
0.394519052838319
30
0
0
SPLINE
5
160
100
AcDbEntity
8
1
62
256
6
ByLayer
370
18
48
1
60
0
100
AcDbSpline
70
4
71
3
72
8
73
4
40
0
40
0
40
0
40
0
40
1
40
1
40
1
40
1
41
1
10
-13.7033325990741
20
-0.249980947161674
30
0
41
1
10
-14.1118090101191
20
-0.0406200174700473
30
0
41
1
10
-14.5162787786963
20
0.174400290933079
30
0
41
1
10
-14.917139020263
20
0.394519052838319
30
0
0
SPLINE
5
161
100
AcDbEntity
8
1
62
256
6
ByLayer
370
18
48
1
60
0
100
AcDbSpline
70
4
71
3
72
18
73
14
40
0
40
0
40
0
40
0
40
0.125000000000003
40
0.125000000000003
40
0.250000000000007
40
0.250000000000007
40
0.500000000000013
40
0.500000000000013
40
0.625000000000012
40
0.625000000000012
40
0.750000000000011
40
0.750000000000011
40
1
40
1
40
1
40
1
41
1
10
-13.4707590466833
20
-0.324980947161663
30
0
41
1
10
-13.4790426143305
20
-0.324980947160924
30
0
41
1
10
-13.4877484855215
20
-0.324300247940755
30
0
41
1
10
-13.5057756944861
20
-0.321941256519949
30
0
41
1
10
-13.5151490437596
20
-0.320245771405467
30
0
41
1
10
-13.5435827809818
20
-0.3140236442012
30
0
41
1
10
-13.5629742414692
20
-0.308403963315669
30
0
41
1
10
-13.5925288496342
20
-0.298384525187089
30
0
41
1
10
-13.6024606690834
20
-0.294771964935876
30
0
41
1
10
-13.6224734316684
20
-0.287040580432603
30
0
41
1
10
-13.6325784400979
20
-0.282910887998582
30
0
41
1
10
-13.6628952175061
20
-0.269878476907678
30
0
41
1
10
-13.6831105541848
20
-0.260345575335549
30
0
41
1
10
-13.7033325990741
20
-0.249980947161674
30
0
0
SPLINE
5
162
100
AcDbEntity
8
1
62
256
6
ByLayer
370
18
48
1
60
0
100
AcDbSpline
70
4
71
3
72
24
73
20
40
0
40
0
40
0
40
0
40
0.125000000000002
40
0.125000000000002
40
0.250000000000004
40
0.250000000000004
40
0.375000000000006
40
0.375000000000006
40
0.437499999999995
40
0.437499999999995
40
0.499999999999985
40
0.499999999999985
40
0.624999999999988
40
0.624999999999988
40
0.749999999999992
40
0.749999999999992
40
0.874999999999996
40
0.874999999999996
40
1
40
1
40
1
40
1
41
1
10
-13.2410331525235
20
-0.249980947159685
30
0
41
1
10
-13.2366717680853
20
-0.255161360763538
30
0
41
1
10
-13.2326950507481
20
-0.260385226271268
30
0
41
1
10
-13.2258016845266
20
-0.270931072699625
30
0
41
1
10
-13.2229993581938
20
-0.276081925994362
30
0
41
1
10
-13.2189684212771
20
-0.286084946206671
30
0
41
1
10
-13.2177598928941
20
-0.291002174949767
30
0
41
1
10
-13.2174600076951
20
-0.29758040757747
30
0
41
1
10
-13.217599246198
20
-0.299659982289512
30
0
41
1
10
-13.2183530563977
20
-0.303593932941084
30
0
41
1
10
-13.2189756245217
20
-0.305461994606986
30
0
41
1
10
-13.2214983554681
20
-0.310608205530798
30
0
41
1
10
-13.2240247330258
20
-0.313435949905653
30
0
41
1
10
-13.2304155523803
20
-0.318099627225706
30
0
41
1
10
-13.2341732063759
20
-0.319865449819161
30
0
41
1
10
-13.2425039387842
20
-0.322573447462219
30
0
41
1
10
-13.247106454522
20
-0.323514290699364
30
0
41
1
10
-13.2568419376322
20
-0.324717378813944
30
0
41
1
10
-13.2619500759375
20
-0.324980947164164
30
0
41
1
10
-13.2672449924391
20
-0.324980947164107
30
0
0
SPLINE
5
163
100
AcDbEntity
8
1
62
256
6
ByLayer
370
18
48
1
60
0
100
AcDbSpline
70
4
71
3
72
8
73
4
40
0
40
0
40
0
40
0
40
1
40
1
40
1
40
1
41
1
10
-13.7830022040408
20
0.394519052838319
30
0
41
1
10
-13.6024787330431
20
0.179601914328856
30
0
41
1
10
-13.4218277113966
20
-0.0352347798379355
30
0
41
1
10
-13.2410331525239
20
-0.249980947159742
30
0
0
SPLINE
5
164
100
AcDbEntity
8
1
62
256
6
ByLayer
370
18
48
1
60
0
100
AcDbSpline
70
4
71
3
72
42
73
38
40
0
40
0
40
0
40
0
40
0.12499999999999
40
0.12499999999999
40
0.24999999999998
40
0.24999999999998
40
0.374999999999971
40
0.374999999999971
40
0.43749999999997
40
0.43749999999997
40
0.499999999999969
40
0.499999999999969
40
0.562499999999968
40
0.562499999999968
40
0.624999999999967
40
0.624999999999967
40
0.687499999999967
40
0.687499999999967
40
0.71874999999997
40
0.71874999999997
40
0.749999999999973
40
0.749999999999973
40
0.781249999999977
40
0.781249999999977
40
0.81249999999998
40
0.81249999999998
40
0.843749999999983
40
0.843749999999983
40
0.874999999999987
40
0.874999999999987
40
0.90624999999999
40
0.90624999999999
40
0.937499999999993
40
0.937499999999993
40
0.968749999999997
40
0.968749999999997
40
1
40
1
40
1
40
1
41
1
10
-13.4751387226226
20
0.394519052838348
30
0
41
1
10
-13.4944974298941
20
0.403824970923949
30
0
41
1
10
-13.5137682733054
20
0.412506876021638
30
0
41
1
10
-13.5521351294637
20
0.428655124456242
30
0
41
1
10
-13.5712312469642
20
0.436122125516334
30
0
41
1
10
-13.6092315701573
20
0.449732644727959
30
0
41
1
10
-13.6281363869181
20
0.455880681945132
30
0
41
1
10
-13.6563165838365
20
0.463875283141988
30
0
41
1
10
-13.6657097944521
20
0.466339640870586
30
0
41
1
10
-13.68417823702
20
0.470721421207799
30
0
41
1
10
-13.6932733156991
20
0.472646210690215
30
0
41
1
10
-13.7111381361335
20
0.475871029240125
30
0
41
1
10
-13.7199085658052
20
0.477172418009957
30
0
41
1
10
-13.7370460781937
20
0.478996684936675
30
0
41
1
10
-13.7454473674279
20
0.479522794198147
30
0
41
1
10
-13.7615565883783
20
0.479515271737995
30
0
41
1
10
-13.7691954443652
20
0.478988680249955
30
0
41
1
10
-13.7797908223149
20
0.477107910049227
30
0
41
1
10
-13.7831870871887
20
0.476291703406076
30
0
41
1
10
-13.7894934249633
20
0.474249515499508
30
0
41
1
10
-13.7924190564528
20
0.47302260592582
30
0
41
1
10
-13.7977338238776
20
0.470082361169176
30
0
41
1
10
-13.8001238000058
20
0.468369794664795
30
0
41
1
10
-13.8042436244571
20
0.464344813194259
30
0
41
1
10
-13.8059545012143
20
0.462033278761908
30
0
41
1
10
-13.8084586467166
20
0.456907376408793
30
0
41
1
10
-13.8092739842408
20
0.454074887423445
30
0
41
1
10
-13.8099296361508
20
0.447806989829843
30
0
41
1
10
-13.8097574303534
20
0.444470345874578
30
0
41
1
10
-13.8084729692142
20
0.437445286657436
30
0
41
1
10
-13.8073470724843
20
0.433719731071363
30
0
41
1
10
-13.8042548936939
20
0.42607571628605
30
0
41
1
10
-13.8023108722539
20
0.42219152204089
30
0
41
1
10
-13.7977493603533
20
0.414317667809627
30
0
41
1
10
-13.7951158494948
20
0.410309926271566
30
0
41
1
10
-13.7893940390956
20
0.40238146501062
30
0
41
1
10
-13.786296163494
20
0.398440583573262
30
0
41
1
10
-13.7830022040414
20
0.394519052838263
30
0
0
SPLINE
5
165
100
AcDbEntity
8
1
62
256
6
ByLayer
370
18
48
1
60
0
100
AcDbSpline
70
4
71
3
72
8
73
4
40
0
40
0
40
0
40
0
40
1
40
1
40
1
40
1
41
1
10
-12.0715924641051
20
-0.249980947161674
30
0
41
1
10
-12.5443782285905
20
-0.0432112314598498
30
0
41
1
10
-13.0120515832121
20
0.171908579658265
30
0
41
1
10
-13.4751387226226
20
0.394519052838319
30
0
0
SPLINE
5
166
100
AcDbEntity
8
1
62
256
6
ByLayer
370
18
48
1
60
0
100
AcDbSpline
70
4
71
3
72
18
73
14
40
0
40
0
40
0
40
0
40
0.124999999999998
40
0.124999999999998
40
0.249999999999996
40
0.249999999999996
40
0.374999999999994
40
0.374999999999994
40
0.499999999999992
40
0.499999999999992
40
0.749999999999996
40
0.749999999999996
40
1
40
1
40
1
40
1
41
1
10
-11.7904053433561
20
-0.324980947161691
30
0
41
1
10
-11.8009857587864
20
-0.324980947161123
30
0
41
1
10
-11.8119141236755
20
-0.324294680904728
30
0
41
1
10
-11.8342604401862
20
-0.321948179201343
30
0
41
1
10
-11.8456816009172
20
-0.320281751592603
30
0
41
1
10
-11.868919781421
20
-0.316156259594692
30
0
41
1
10
-11.8806546577429
20
-0.313709166632691
30
0
41
1
10
-11.9041624897105
20
-0.308214039015723
30
0
41
1
10
-11.9159624072422
20
-0.305160068139657
30
0
41
1
10
-11.95148223962
20
-0.29519330724861
30
0
41
1
10
-11.9753205267178
20
-0.287485958052685
30
0
41
1
10
-12.0232815266328
20
-0.270170993163305
30
0
41
1
10
-12.0474840624247
20
-0.260524596602778
30
0
41
1
10
-12.0715924641051
20
-0.249980947161674
30
0
0
SPLINE
5
167
100
AcDbEntity
8
1
62
256
6
ByLayer
370
18
48
1
60
0
100
AcDbSpline
70
4
71
3
72
26
73
22
40
0
40
0
40
0
40
0
40
0.0625000000000036
40
0.0625000000000036
40
0.125000000000007
40
0.125000000000007
40
0.250000000000001
40
0.250000000000001
40
0.312500000000001
40
0.312500000000001
40
0.375
40
0.375
40
0.4375
40
0.4375
40
0.499999999999999
40
0.499999999999999
40
0.625000000000009
40
0.625000000000009
40
0.750000000000019
40
0.750000000000019
40
1
40
1
40
1
40
1
41
1
10
-11.4840297216474
20
-0.2499809471567
30
0
41
1
10
-11.4816286657575
20
-0.252662809483013
30
0
41
1
10
-11.4793484168762
20
-0.255372625405698
30
0
41
1
10
-11.4750796198067
20
-0.260859831188952
30
0
41
1
10
-11.4730842221144
20
-0.263650244245781
30
0
41
1
10
-11.4677646288332
20
-0.271946319953031
30
0
41
1
10
-11.4650456356642
20
-0.277434891804376
30
0
41
1
10
-11.4627060576781
20
-0.285534684117294
30
0
41
1
10
-11.4622438677764
20
-0.288130022310526
30
0
41
1
10
-11.4619653550609
20
-0.293107796327661
30
0
41
1
10
-11.4621533183068
20
-0.295506817538978
30
0
41
1
10
-11.4631780671403
20
-0.300007083328865
30
0
41
1
10
-11.4640022960698
20
-0.302081589349513
30
0
41
1
10
-11.4662023413252
20
-0.305919505641953
30
0
41
1
10
-11.4675918046275
20
-0.307694451502499
30
0
41
1
10
-11.4723994241289
20
-0.312493707308533
30
0
41
1
10
-11.4764176812268
20
-0.315011270866336
30
0
41
1
10
-11.4855788711065
20
-0.3190997144346
30
0
41
1
10
-11.4906901155618
20
-0.320641072370194
30
0
41
1
10
-11.5067742702653
20
-0.324111897520851
30
0
41
1
10
-11.5186972392776
20
-0.324980947161748
30
0
41
1
10
-11.5311526233312
20
-0.324980947161748
30
0
0
SPLINE
5
168
100
AcDbEntity
8
1
62
256
6
ByLayer
370
18
48
1
60
0
100
AcDbSpline
70
4
71
3
72
8
73
4
40
0
40
0
40
0
40
0
40
1
40
1
40
1
40
1
41
1
10
-12.0587239255455
20
0.394519052838319
30
0
41
1
10
-11.8676217953063
20
0.179376344705133
30
0
41
1
10
-11.6760787809167
20
-0.0354715144199815
30
0
41
1
10
-11.4840297216482
20
-0.249980947156956
30
0
0
SPLINE
5
169
100
AcDbEntity
8
1
62
256
6
ByLayer
370
18
48
1
60
0
100
AcDbSpline
70
4
71
3
72
32
73
28
40
0
40
0
40
0
40
0
40
0.250000000000005
40
0.250000000000005
40
0.375000000000007
40
0.375000000000007
40
0.50000000000001
40
0.50000000000001
40
0.625000000000012
40
0.625000000000012
40
0.687500000000008
40
0.687500000000008
40
0.750000000000004
40
0.750000000000004
40
0.8125
40
0.8125
40
0.84375
40
0.84375
40
0.875
40
0.875
40
0.90625
40
0.90625
40
0.9375
40
0.9375
40
0.96875
40
0.96875
40
1
40
1
40
1
40
1
41
1
10
-11.6678057336413
20
0.394519052838405
30
0
41
1
10
-11.7127397678169
20
0.41266167405351
30
0
41
1
10
-11.7573384013257
20
0.428385440091915
30
0
41
1
10
-11.8237114343644
20
0.448288569619422
30
0
41
1
10
-11.845746713031
20
0.454295911623802
30
0
41
1
10
-11.8896066393101
20
0.464812029230075
30
0
41
1
10
-11.9114326704852
20
0.46933185223088
30
0
41
1
10
-11.95479962995
20
0.476291629724812
30
0
41
1
10
-11.9759294367788
20
0.478686948315044
30
0
41
1
10
-12.0062651822148
20
0.479674902419362
30
0
41
1
10
-12.0162023258966
20
0.479558848744972
30
0
41
1
10
-12.0351157717405
20
0.478062827266314
30
0
41
1
10
-12.0440909421574
20
0.476702313584752
30
0
41
1
10
-12.0605343945399
20
0.472050935714037
30
0
41
1
10
-12.0677998310453
20
0.468833437824344
30
0
41
1
10
-12.0762532119582
20
0.461814512102706
30
0
41
1
10
-12.0786055530974
20
0.459126123836853
30
0
41
1
10
-12.0820678765738
20
0.453040044483913
30
0
41
1
10
-12.0831948388428
20
0.449567033594036
30
0
41
1
10
-12.0839543936443
20
0.442111383170811
30
0
41
1
10
-12.0836171858975
20
0.43812255355823
30
0
41
1
10
-12.0815169303313
20
0.429624814704908
30
0
41
1
10
-12.0797842940736
20
0.42525064573681
30
0
41
1
10
-12.0752352121409
20
0.416407852627799
30
0
41
1
10
-12.07239584525
20
0.411909057921463
30
0
41
1
10
-12.0660531689379
20
0.403129240718585
30
0
41
1
10
-12.0625268109323
20
0.398800339805859
30
0
41
1
10
-12.0587239255501
20
0.394519052837495
30
0
0
SPLINE
5
16A
100
AcDbEntity
8
1
62
256
6
ByLayer
370
18
48
1
60
0
100
AcDbSpline
70
4
71
3
72
8
73
4
40
0
40
0
40
0
40
0
40
1
40
1
40
1
40
1
41
1
10
-9.95818080364235
20
-0.249980947161674
30
0
41
1
10
-10.5346776336162
20
-0.0483216931654624
30
0
41
1
10
-11.1043070714565
20
0.167000136035085
30
0
41
1
10
-11.6678057336413
20
0.394519052838319
30
0
0
SPLINE
5
16B
100
AcDbEntity
8
1
62
256
6
ByLayer
370
18
48
1
60
0
100
AcDbSpline
70
4
71
3
72
18
73
14
40
0
40
0
40
0
40
0
40
0.124999999999998
40
0.124999999999998
40
0.249999999999996
40
0.249999999999996
40
0.374999999999994
40
0.374999999999994
40
0.499999999999992
40
0.499999999999992
40
0.749999999999996
40
0.749999999999996
40
1
40
1
40
1
40
1
41
1
10
-9.59510119943219
20
-0.324980947161663
30
0
41
1
10
-9.60939630151748
20
-0.324980947161464
30
0
41
1
10
-9.6239295812311
20
-0.324297794518799
30
0
41
1
10
-9.65331986464513
20
-0.321987997282719
30
0
41
1
10
-9.66817941641823
20
-0.320354306837686
30
0
41
1
10
-9.69815480400072
20
-0.316330675660282
30
0
41
1
10
-9.71327144979442
20
-0.313938494308843
30
0
41
1
10
-9.74372435458608
20
-0.308500052459749
30
0
41
1
10
-9.75905370529834
20
-0.305452754405337
30
0
41
1
10
-9.80495401068578
20
-0.295505489673701
30
0
41
1
10
-9.83557362085624
20
-0.287787704120774
30
0
41
1
10
-9.89684818743098
20
-0.270391615950899
30
0
41
1
10
-9.92750315018561
20
-0.260712025614936
30
0
41
1
10
-9.95818080364235
20
-0.249980947161788
30
0
0
SPLINE
5
16C
100
AcDbEntity
8
1
62
256
6
ByLayer
370
18
48
1
60
0
100
AcDbSpline
70
4
71
3
72
28
73
24
40
0
40
0
40
0
40
0
40
0.124999999999972
40
0.124999999999972
40
0.187499999999966
40
0.187499999999966
40
0.249999999999959
40
0.249999999999959
40
0.312499999999953
40
0.312499999999953
40
0.374999999999947
40
0.374999999999947
40
0.437499999999941
40
0.437499999999941
40
0.499999999999935
40
0.499999999999935
40
0.562499999999928
40
0.562499999999928
40
0.624999999999922
40
0.624999999999922
40
0.749999999999941
40
0.749999999999941
40
1
40
1
40
1
40
1
41
1
10
-9.16192765463472
20
-0.249980947138766
30
0
41
1
10
-9.15615273719948
20
-0.255600302159451
30
0
41
1
10
-9.15099568342298
20
-0.261428771439654
30
0
41
1
10
-9.14496698035525
20
-0.27073385593485
30
0
41
1
10
-9.14331827787987
20
-0.273832273955748
30
0
41
1
10
-9.14090466831681
20
-0.280021122036175
30
0
41
1
10
-9.14015242917439
20
-0.28313213225735
30
0
41
1
10
-9.13974594268898
20
-0.288994391027103
30
0
41
1
10
-9.1400768539919
20
-0.291811047499152
30
0
41
1
10
-9.14176760795786
20
-0.297056649595334
30
0
41
1
10
-9.1430966205908
20
-0.299433796617109
30
0
41
1
10
-9.1465454728243
20
-0.303785698641434
30
0
41
1
10
-9.14864892647037
20
-0.305731679420518
30
0
41
1
10
-9.15332789905037
20
-0.309190981638437
30
0
41
1
10
-9.15591900108384
20
-0.310721335777487
30
0
41
1
10
-9.16149106763955
20
-0.313472547988169
30
0
41
1
10
-9.16447108844564
20
-0.314689457233726
30
0
41
1
10
-9.1706178484545
20
-0.31683450337357
30
0
41
1
10
-9.1738011699394
20
-0.317770516319001
30
0
41
1
10
-9.18361005093541
20
-0.32025617836365
30
0
41
1
10
-9.19049092912915
20
-0.321487874959047
30
0
41
1
10
-9.21184074493274
20
-0.324296988707999
30
0
41
1
10
-9.22679002986516
20
-0.324980947185395
30
0
41
1
10
-9.24203289084451
20
-0.324980947184287
30
0
0
SPLINE
5
16D
100
AcDbEntity
8
1
62
256
6
ByLayer
370
18
48
1
60
0
100
AcDbSpline
70
4
71
3
72
8
73
4
40
0
40
0
40
0
40
0
40
1
40
1
40
1
40
1
41
1
10
-9.81603258289493
20
0.394519052838319
30
0
41
1
10
-9.59945084309437
20
0.178579548921931
30
0
41
1
10
-9.38150318820514
20
-0.0363202513205749
30
0
41
1
10
-9.16192765466236
20
-0.249980947148117
30
0
0
SPLINE
5
16E
100
AcDbEntity
8
1
62
256
6
ByLayer
370
18
48
1
60
0
100
AcDbSpline
70
4
71
3
72
40
73
36
40
0
40
0
40
0
40
0
40
0.250000000000001
40
0.250000000000001
40
0.375000000000001
40
0.375000000000001
40
0.500000000000001
40
0.500000000000001
40
0.625000000000001
40
0.625000000000001
40
0.687500000000002
40
0.687500000000002
40
0.750000000000002
40
0.750000000000002
40
0.781250000000002
40
0.781250000000002
40
0.812500000000002
40
0.812500000000002
40
0.843750000000002
40
0.843750000000002
40
0.859375
40
0.859375
40
0.874999999999998
40
0.874999999999998
40
0.890624999999996
40
0.890624999999996
40
0.906249999999994
40
0.906249999999994
40
0.921874999999991
40
0.921874999999991
40
0.937499999999989
40
0.937499999999989
40
0.968749999999995
40
0.968749999999995
40
1
40
1
40
1
40
1
41
1
10
-9.28418104530839
20
0.394519052838376
30
0
41
1
10
-9.34017379706034
20
0.411984788024654
30
0
41
1
10
-9.39601192035433
20
0.427203651425628
30
0
41
1
10
-9.47952542222005
20
0.446639435856639
30
0
41
1
10
-9.50732211964873
20
0.452540557511185
30
0
41
1
10
-9.56282215011132
20
0.462985872473894
30
0
41
1
10
-9.59059715764968
20
0.46754346444186
30
0
41
1
10
-9.64542464074819
20
0.474775707838489
30
0
41
1
10
-9.67252935657895
20
0.477485771001255
30
0
41
1
10
-9.71247397730109
20
0.479401388086785
30
0
41
1
10
-9.72561496243209
20
0.479671406018895
30
0
41
1
10
-9.75127744124482
20
0.479198955684723
30
0
41
1
10
-9.76382370190693
20
0.478467938343755
30
0
41
1
10
-9.78197621721299
20
0.476199819832971
30
0
41
1
10
-9.78793553313179
20
0.475240630314488
30
0
41
1
10
-9.79941135246932
20
0.472809610404283
30
0
41
1
10
-9.80493252167
20
0.471341442256374
30
0
41
1
10
-9.81536969482481
20
0.467696445541065
30
0
41
1
10
-9.82025191704597
20
0.465528162032342
30
0
41
1
10
-9.82671081231393
20
0.46160232917947
30
0
41
1
10
-9.82872465913616
20
0.460178391440451
30
0
41
1
10
-9.83240803000095
20
0.457044593765261
30
0
41
1
10
-9.83408395207491
20
0.455322141342577
30
0
41
1
10
-9.83691476309484
20
0.451629505232489
30
0
41
1
10
-9.83808223492782
20
0.44965214766799
30
0
41
1
10
-9.83984362065759
20
0.445393853961377
30
0
41
1
10
-9.84043321763885
20
0.443094163484318
30
0
41
1
10
-9.84093439359414
20
0.438350627376025
30
0
41
1
10
-9.8408581966258
20
0.43588877511641
30
0
41
1
10
-9.84005628377636
20
0.430785798097901
30
0
41
1
10
-9.83931959826043
20
0.428130012762551
30
0
41
1
10
-9.83628141918076
20
0.42020718810565
30
0
41
1
10
-9.83310183810713
20
0.414823368519535
30
0
41
1
10
-9.82543633707968
20
0.404451510867119
30
0
41
1
10
-9.82095703569023
20
0.399428903016116
30
0
41
1
10
-9.81603258289498
20
0.394519052838319
30
0
0
SPLINE
5
16F
100
AcDbEntity
8
1
62
256
6
ByLayer
370
18
48
1
60
0
100
AcDbSpline
70
4
71
3
72
8
73
4
40
0
40
0
40
0
40
0
40
1
40
1
40
1
40
1
41
1
10
-6.93594876110136
20
-0.249980947161703
30
0
41
1
10
-7.72871488352833
20
-0.0625343625468133
30
0
41
1
10
-8.51106941926359
20
0.153363501317045
30
0
41
1
10
-9.2841810453084
20
0.394519052838319
30
0
0
SPLINE
5
170
100
AcDbEntity
8
1
62
256
6
ByLayer
370
18
48
1
60
0
100
AcDbSpline
70
4
71
3
72
16
73
12
40
0
40
0
40
0
40
0
40
0.124999999999998
40
0.124999999999998
40
0.249999999999997
40
0.249999999999997
40
0.499999999999998
40
0.499999999999998
40
0.749999999999999
40
0.749999999999999
40
1
40
1
40
1
40
1
41
1
10
-6.37324688789337
20
-0.324980947161691
30
0
41
1
10
-6.39622554762155
20
-0.324980947161805
30
0
41
1
10
-6.41933984890954
20
-0.324326836591211
30
0
41
1
10
-6.46575063303879
20
-0.322103275723606
30
0
41
1
10
-6.48904860821469
20
-0.320527259459766
30
0
41
1
10
-6.55915724759689
20
-0.31468517028145
30
0
41
1
10
-6.60624700046333
20
-0.30931152451268
30
0
41
1
10
-6.70053768771602
20
-0.296247688555923
30
0
41
1
10
-6.74765569510397
20
-0.288561641840119
30
0
41
1
10
-6.84183988712428
20
-0.270989081156273
30
0
41
1
10
-6.88890603212444
20
-0.261104024483615
30
0
41
1
10
-6.93594876110134
20
-0.249980947162044
30
0
0
SPLINE
5
171
100
AcDbEntity
8
1
62
256
6
ByLayer
370
18
48
1
60
0
100
AcDbSpline
70
4
71
3
72
32
73
28
40
0
40
0
40
0
40
0
40
0.0624999999999826
40
0.0624999999999826
40
0.124999999999965
40
0.124999999999965
40
0.156249999999957
40
0.156249999999957
40
0.187499999999948
40
0.187499999999948
40
0.218749999999939
40
0.218749999999939
40
0.249999999999931
40
0.249999999999931
40
0.281249999999922
40
0.281249999999922
40
0.312499999999913
40
0.312499999999913
40
0.374999999999918
40
0.374999999999918
40
0.499999999999934
40
0.499999999999934
40
0.624999999999951
40
0.624999999999951
40
0.749999999999967
40
0.749999999999967
40
1
40
1
40
1
40
1
41
1
10
-5.61238790983072
20
-0.249980947161674
30
0
41
1
10
-5.60765302916408
20
-0.25308918492064
30
0
41
1
10
-5.60312924602138
20
-0.256357332105779
30
0
41
1
10
-5.59482555714965
20
-0.263458431072081
30
0
41
1
10
-5.59105027515611
20
-0.26728590672252
30
0
41
1
10
-5.58688499125805
20
-0.273464681357837
30
0
41
1
10
-5.5857859156398
20
-0.275548359099446
30
0
41
1
10
-5.58431463660077
20
-0.279764544741255
30
0
41
1
10
-5.58395291309174
20
-0.281932408544151
30
0
41
1
10
-5.58411087529188
20
-0.286034279942328
30
0
41
1
10
-5.58461644419518
20
-0.288011152822264
30
0
41
1
10
-5.58637613485092
20
-0.291729229057779
30
0
41
1
10
-5.5875947313595
20
-0.293421247005369
30
0
41
1
10
-5.59053069476536
20
-0.296559073188945
30
0
41
1
10
-5.59225727253889
20
-0.298005436744717
30
0
41
1
10
-5.59597133164448
20
-0.300628566677915
30
0
41
1
10
-5.59797251939438
20
-0.30182026104319
30
0
41
1
10
-5.60429163701178
20
-0.30513253057245
30
0
41
1
10
-5.60894278908546
20
-0.306999070165261
30
0
41
1
10
-5.62327045301899
20
-0.311839387041061
30
0
41
1
10
-5.63344455078987
20
-0.314152801215727
30
0
41
1
10
-5.65436067839303
20
-0.317936657222759
30
0
41
1
10
-5.66515582305118
20
-0.319378401561352
30
0
41
1
10
-5.68692929171778
20
-0.321677238196486
30
0
41
1
10
-5.69791907592238
20
-0.32253227345069
30
0
41
1
10
-5.73109936285263
20
-0.324485004299049
30
0
41
1
10
-5.75349694670444
20
-0.324980947161691
30
0
41
1
10
-5.77605947760026
20
-0.324980947161691
30
0
0
SPLINE
5
172
100
AcDbEntity
8
1
62
256
6
ByLayer
370
18
48
1
60
0
100
AcDbSpline
70
4
71
3
72
8
73
4
40
0
40
0
40
0
40
0
40
1
40
1
40
1
40
1
41
1
10
-6.54187806553897
20
0.394519052838319
30
0
41
1
10
-6.23806730610465
20
0.173174989895386
30
0
41
1
10
-5.92880201540666
20
-0.0422692138213847
30
0
41
1
10
-5.61238790983074
20
-0.249980947161703
30
0
0
SPLINE
5
173
100
AcDbEntity
8
1
62
256
6
ByLayer
370
18
48
1
60
0
100
AcDbSpline
70
4
71
3
72
42
73
38
40
0
40
0
40
0
40
0
40
0.250000000000006
40
0.250000000000006
40
0.375000000000008
40
0.375000000000008
40
0.500000000000011
40
0.500000000000011
40
0.625000000000014
40
0.625000000000014
40
0.687500000000016
40
0.687500000000016
40
0.750000000000017
40
0.750000000000017
40
0.812500000000018
40
0.812500000000018
40
0.843750000000019
40
0.843750000000019
40
0.87500000000002
40
0.87500000000002
40
0.906250000000021
40
0.906250000000021
40
0.921875000000022
40
0.921875000000022
40
0.937500000000023
40
0.937500000000023
40
0.94531250000002
40
0.94531250000002
40
0.953125000000017
40
0.953125000000017
40
0.960937500000014
40
0.960937500000014
40
0.968750000000012
40
0.968750000000012
40
0.984375000000006
40
0.984375000000006
40
1
40
1
40
1
40
1
41
1
10
-5.63509935370516
20
0.394519052838319
30
0
41
1
10
-5.72190542173044
20
0.41048912882053
30
0
41
1
10
-5.80868288459695
20
0.424733471319001
30
0
41
1
10
-5.93880564924044
20
0.443353543084044
30
0
41
1
10
-5.9821471639614
20
0.449088887548072
30
0
41
1
10
-6.06857569510589
20
0.459429533412248
30
0
41
1
10
-6.11168761760081
20
0.464042436826361
30
0
41
1
10
-6.19766252675518
20
0.471813512737214
30
0
41
1
10
-6.2405273446623
20
0.474985904312462
30
0
41
1
10
-6.3045665585008
20
0.478102801442105
30
0
41
1
10
-6.32586637804098
20
0.478863267139729
30
0
41
1
10
-6.36813982915069
20
0.479628898773399
30
0
41
1
10
-6.38913744363759
20
0.479640522332318
30
0
41
1
10
-6.43073070040577
20
0.478558744535746
30
0
41
1
10
-6.45138968921584
20
0.477480842671042
30
0
41
1
10
-6.48167377269935
20
0.474423628354543
30
0
41
1
10
-6.49161165409663
20
0.473164616848663
30
0
41
1
10
-6.51102817672674
20
0.469936618638428
30
0
41
1
10
-6.52051396104336
20
0.467978904086635
30
0
41
1
10
-6.53870820348467
20
0.462851168792327
30
0
41
1
10
-6.54747415553975
20
0.459688354136972
30
0
41
1
10
-6.55865084378891
20
0.45327318316717
30
0
41
1
10
-6.56208225390402
20
0.450813268369984
30
0
41
1
10
-6.56760145856258
20
0.445164968140489
30
0
41
1
10
-6.56972718234782
20
0.441898806140671
30
0
41
1
10
-6.57125941384879
20
0.436516137352527
30
0
41
1
10
-6.57150328364484
20
0.434610744631584
30
0
41
1
10
-6.57139923706535
20
0.430734829804351
30
0
41
1
10
-6.57106010970028
20
0.428773985692999
30
0
41
1
10
-6.56985184236828
20
0.42481000434347
30
0
41
1
10
-6.56897326203293
20
0.422798454423315
30
0
41
1
10
-6.56682641679652
20
0.418892726543106
30
0
41
1
10
-6.56555403553972
20
0.416977450053451
30
0
41
1
10
-6.56125565118423
20
0.411322623198941
30
0
41
1
10
-6.55776397299188
20
0.407698427918291
30
0
41
1
10
-6.55024111986286
20
0.400882110664838
30
0
41
1
10
-6.5461660120209
20
0.397643074837191
30
0
41
1
10
-6.54187806553904
20
0.394519052838291
30
0
0
SPLINE
5
174
100
AcDbEntity
8
1
62
256
6
ByLayer
370
18
48
1
60
0
100
AcDbSpline
70
4
71
3
72
44
73
40
40
0
40
0
40
0
40
0
40
0.0156250000000087
40
0.0156250000000087
40
0.0312500000000174
40
0.0312500000000174
40
0.0468750000000262
40
0.0468750000000262
40
0.0625000000000349
40
0.0625000000000349
40
0.0703125000000354
40
0.0703125000000354
40
0.078125000000036
40
0.078125000000036
40
0.0937500000000359
40
0.0937500000000359
40
0.109375000000036
40
0.109375000000036
40
0.125000000000036
40
0.125000000000036
40
0.156250000000033
40
0.156250000000033
40
0.187500000000029
40
0.187500000000029
40
0.218750000000026
40
0.218750000000026
40
0.250000000000023
40
0.250000000000023
40
0.31250000000002
40
0.31250000000002
40
0.375000000000017
40
0.375000000000017
40
0.500000000000014
40
0.500000000000014
40
0.62500000000001
40
0.62500000000001
40
0.750000000000007
40
0.750000000000007
40
1
40
1
40
1
40
1
41
1
10
6.54187806555959
20
0.394519052853354
30
0
41
1
10
6.54614546779464
20
0.397628107157232
30
0
41
1
10
6.55021756356129
20
0.400861465452977
30
0
41
1
10
6.55777056206983
20
0.407703701197704
30
0
41
1
10
6.56129598643125
20
0.411363114125635
30
0
41
1
10
6.56705748724224
20
0.418968163507486
30
0
41
1
10
6.56932722932987
20
0.422995671933734
30
0
41
1
10
6.57168490957019
20
0.430920997184245
30
0
41
1
10
6.57175717462624
20
0.434925051400626
30
0
41
1
10
6.57015139304471
20
0.44032260618178
30
0
41
1
10
6.56933658674413
20
0.442055744708625
30
0
41
1
10
6.56726874995528
20
0.445298049905972
30
0
41
1
10
6.5660280453917
20
0.446800463934608
30
0
41
1
10
6.56181730098169
20
0.451027436641482
30
0
41
1
10
6.55833373982009
20
0.453484973406688
30
0
41
1
10
6.5508004452978
20
0.457746368327577
30
0
41
1
10
6.5467176738498
20
0.459580952860648
30
0
41
1
10
6.53813304768261
20
0.462858852853856
30
0
41
1
10
6.53361639847378
20
0.464301094258474
30
0
41
1
10
6.5198495325705
20
0.46813334285531
30
0
41
1
10
6.51030376473537
20
0.470077388088697
30
0
41
1
10
6.49079444448401
20
0.47327846449943
30
0
41
1
10
6.48082394217533
20
0.474523817516143
30
0
41
1
10
6.46058932392771
20
0.476536430526153
30
0
41
1
10
6.45030212179387
20
0.477301669748783
30
0
41
1
10
6.42961236265563
20
0.478467690200063
30
0
41
1
10
6.41922412124936
20
0.478867771469453
30
0
41
1
10
6.38795856659962
20
0.479649983083448
30
0
41
1
10
6.36698186331
20
0.479620519913681
30
0
41
1
10
6.32484567668064
20
0.478831518110468
30
0
41
1
10
6.30368495098853
20
0.47806642369909
30
0
41
1
10
6.23998913389465
20
0.474946284754395
30
0
41
1
10
6.19724342039717
20
0.471779858008915
30
0
41
1
10
6.11135271730831
20
0.464007901333133
30
0
41
1
10
6.0681616831572
20
0.459383828874366
30
0
41
1
10
5.9816617348537
20
0.449026939424954
30
0
41
1
10
5.93839049291037
20
0.443296531767231
30
0
41
1
10
5.80851432815439
20
0.424704531841371
30
0
41
1
10
5.72184695483151
20
0.410478372420215
30
0
41
1
10
5.63509935370516
20
0.394519052838348
30
0
0
SPLINE
5
175
100
AcDbEntity
8
1
62
256
6
ByLayer
370
18
48
1
60
0
100
AcDbSpline
70
4
71
3
72
8
73
4
40
0
40
0
40
0
40
0
40
1
40
1
40
1
40
1
41
1
10
5.61238790983109
20
-0.249980947161475
30
0
41
1
10
5.92880201541405
20
-0.0422692138165246
30
0
41
1
10
6.23806730611875
20
0.17317498990522
30
0
41
1
10
6.54187806555959
20
0.394519052853354
30
0
0
SPLINE
5
176
100
AcDbEntity
8
1
62
256
6
ByLayer
370
18
48
1
60
0
100
AcDbSpline
70
4
71
3
72
30
73
26
40
0
40
0
40
0
40
0
40
0.25
40
0.25
40
0.375000000000006
40
0.375000000000006
40
0.500000000000012
40
0.500000000000012
40
0.625000000000019
40
0.625000000000019
40
0.687500000000025
40
0.687500000000025
40
0.750000000000032
40
0.750000000000032
40
0.781250000000023
40
0.781250000000023
40
0.812500000000014
40
0.812500000000014
40
0.843750000000005
40
0.843750000000005
40
0.874999999999996
40
0.874999999999996
40
0.937499999999998
40
0.937499999999998
40
1
40
1
40
1
40
1
41
1
10
5.77605947760026
20
-0.324980947161691
30
0
41
1
10
5.75348207034327
20
-0.324980947161691
30
0
41
1
10
5.73107070305846
20
-0.324484360437964
30
0
41
1
10
5.69787250034997
20
-0.322529009528012
30
0
41
1
10
5.68687721032143
20
-0.321672821768971
30
0
41
1
10
5.66509411678842
20
-0.3193707986525
30
0
41
1
10
5.6542865791387
20
-0.31792659946683
30
0
41
1
10
5.63331780876882
20
-0.31412649334905
30
0
41
1
10
5.62309598237721
20
-0.311798232781058
30
0
41
1
10
5.60871185823672
20
-0.306911863318533
30
0
41
1
10
5.6041455916058
20
-0.305066689942009
30
0
41
1
10
5.59577508366937
20
-0.300657420183342
30
0
41
1
10
5.59190833607624
20
-0.298055354480226
30
0
41
1
10
5.58753904531321
20
-0.293349354747391
30
0
41
1
10
5.58631061121667
20
-0.291617982905677
30
0
41
1
10
5.58459914277955
20
-0.28794605759029
30
0
41
1
10
5.58410136075489
20
-0.286000156232347
30
0
41
1
10
5.58395805840715
20
-0.281846846797293
30
0
41
1
10
5.58432091561428
20
-0.27973412365381
30
0
41
1
10
5.58580546243638
20
-0.27550499097211
30
0
41
1
10
5.58693477365927
20
-0.273383741368946
30
0
41
1
10
5.59105083891663
20
-0.267299518675458
30
0
41
1
10
5.59482596376836
20
-0.263460724263382
30
0
41
1
10
5.60307603158662
20
-0.256400215582772
30
0
41
1
10
5.60761618345623
20
-0.253113372482801
30
0
41
1
10
5.61238790983106
20
-0.249980947161447
30
0
0
SPLINE
5
177
100
AcDbEntity
8
1
62
256
6
ByLayer
370
18
48
1
60
0
100
AcDbSpline
70
4
71
3
72
16
73
12
40
0
40
0
40
0
40
0
40
0.250000000000001
40
0.250000000000001
40
0.500000000000002
40
0.500000000000002
40
0.750000000000003
40
0.750000000000003
40
0.875000000000002
40
0.875000000000002
40
1
40
1
40
1
40
1
41
1
10
6.93594876110134
20
-0.249980947161845
30
0
41
1
10
6.88889586647392
20
-0.261106428113465
30
0
41
1
10
6.84180134307147
20
-0.270997589283866
30
0
41
1
10
6.74752829299007
20
-0.28858409305434
30
0
41
1
10
6.70028861513458
20
-0.296286256727484
30
0
41
1
10
6.60600611195241
20
-0.30934081857896
30
0
41
1
10
6.55906062392077
20
-0.314694231797262
30
0
41
1
10
6.489025074133
20
-0.320528714779613
30
0
41
1
10
6.46574452041284
20
-0.322103532762128
30
0
41
1
10
6.4193513210578
20
-0.324326322771526
30
0
41
1
10
6.39623729139331
20
-0.324980947161805
30
0
41
1
10
6.37324688789337
20
-0.324980947161691
30
0
0
SPLINE
5
178
100
AcDbEntity
8
1
62
256
6
ByLayer
370
18
48
1
60
0
100
AcDbSpline
70
4
71
3
72
8
73
4
40
0
40
0
40
0
40
0
40
1
40
1
40
1
40
1
41
1
10
9.2841810453084
20
0.394519052838319
30
0
41
1
10
8.51106941926361
20
0.153363501317045
30
0
41
1
10
7.72871488352831
20
-0.0625343625468133
30
0
41
1
10
6.93594876110137
20
-0.249980947161703
30
0
0
SPLINE
5
179
100
AcDbEntity
8
1
62
256
6
ByLayer
370
18
48
1
60
0
100
AcDbSpline
70
4
71
3
72
40
73
36
40
0
40
0
40
0
40
0
40
0.0312500000000092
40
0.0312500000000092
40
0.0625000000000183
40
0.0625000000000183
40
0.0781250000000191
40
0.0781250000000191
40
0.0937500000000198
40
0.0937500000000198
40
0.109375000000021
40
0.109375000000021
40
0.125000000000021
40
0.125000000000021
40
0.156250000000023
40
0.156250000000023
40
0.187500000000025
40
0.187500000000025
40
0.250000000000023
40
0.250000000000023
40
0.312500000000021
40
0.312500000000021
40
0.375000000000019
40
0.375000000000019
40
0.437500000000017
40
0.437500000000017
40
0.500000000000015
40
0.500000000000015
40
0.625000000000011
40
0.625000000000011
40
0.750000000000008
40
0.750000000000008
40
0.875000000000004
40
0.875000000000004
40
1
40
1
40
1
40
1
41
1
10
9.8160325828969
20
0.394519052837552
30
0
41
1
10
9.82098195223347
20
0.399453745670826
30
0
41
1
10
9.8255668829454
20
0.404602539074745
30
0
41
1
10
9.83325114814545
20
0.415051948253478
30
0
41
1
10
9.83638059560761
20
0.420378652246569
30
0
41
1
10
9.83940873940759
20
0.428409088717331
30
0
41
1
10
9.84011456011223
20
0.431030341943966
30
0
41
1
10
9.84087800321674
20
0.43615432775411
30
0
41
1
10
9.84093087921795
20
0.438682333081204
30
0
41
1
10
9.84035685513882
20
0.44347090089758
30
0
41
1
10
9.83974008264053
20
0.445725814987299
30
0
41
1
10
9.83790623184575
20
0.449982263740196
30
0
41
1
10
9.83667511604253
20
0.451996393124347
30
0
41
1
10
9.83230034394296
20
0.457522482393898
30
0
41
1
10
9.8284838541814
20
0.460585485218388
30
0
41
1
10
9.81960368743447
20
0.465853786827211
30
0
41
1
10
9.81467620295791
20
0.467977995037984
30
0
41
1
10
9.7989514958669
20
0.473342775126554
30
0
41
1
10
9.78712100451713
20
0.475600029742935
30
0
41
1
10
9.76283016137606
20
0.47854552376856
30
0
41
1
10
9.75026244320495
20
0.479243914143836
30
0
41
1
10
9.72458674972188
20
0.47966188106983
30
0
41
1
10
9.71147318768166
20
0.479370998879574
30
0
41
1
10
9.68483745942677
20
0.478057041979355
30
0
41
1
10
9.67129728761574
20
0.477027476641609
30
0
41
1
10
9.64421248948494
20
0.474417261577855
30
0
41
1
10
9.63062287134738
20
0.472833887959126
30
0
41
1
10
9.58973686994528
20
0.467407407483734
30
0
41
1
10
9.56232469000275
20
0.462896755182072
30
0
41
1
10
9.50725848501213
20
0.452524028495901
30
0
41
1
10
9.47960346504198
20
0.446655482458595
30
0
41
1
10
9.42407905641585
20
0.433737715187703
30
0
41
1
10
9.39620939340276
20
0.426686741656397
30
0
41
1
10
9.34026369811073
20
0.411446491895219
30
0
41
1
10
9.31218172106821
20
0.403253261687809
30
0
41
1
10
9.2841810453084
20
0.394519052838319
30
0
0
SPLINE
5
17A
100
AcDbEntity
8
1
62
256
6
ByLayer
370
18
48
1
60
0
100
AcDbSpline
70
4
71
3
72
8
73
4
40
0
40
0
40
0
40
0
40
1
40
1
40
1
40
1
41
1
10
9.16192765464842
20
-0.249980947161674
30
0
41
1
10
9.38150318819592
20
-0.0363202513296415
30
0
41
1
10
9.59945084308978
20
0.178579548917355
30
0
41
1
10
9.81603258289493
20
0.394519052838319
30
0
0
SPLINE
5
17B
100
AcDbEntity
8
1
62
256
6
ByLayer
370
18
48
1
60
0
100
AcDbSpline
70
4
71
3
72
26
73
22
40
0
40
0
40
0
40
0
40
0.250000000000061
40
0.250000000000061
40
0.375000000000077
40
0.375000000000077
40
0.500000000000093
40
0.500000000000093
40
0.562500000000084
40
0.562500000000084
40
0.625000000000074
40
0.625000000000074
40
0.687500000000065
40
0.687500000000065
40
0.750000000000055
40
0.750000000000055
40
0.812500000000045
40
0.812500000000045
40
0.875000000000036
40
0.875000000000036
40
1
40
1
40
1
40
1
41
1
10
9.24203289085631
20
-0.324980947161663
30
0
41
1
10
9.22681846497238
20
-0.324980947161663
30
0
41
1
10
9.21195319237697
20
-0.324305164641998
30
0
41
1
10
9.19059288824326
20
-0.321504563341364
30
0
41
1
10
9.1836709094483
20
-0.320269721185071
30
0
41
1
10
9.17054086661494
20
-0.316946194301352
30
0
41
1
10
9.1642649129623
20
-0.3148363382507
30
0
41
1
10
9.15599732501141
20
-0.310762869504856
30
0
41
1
10
9.15342589019343
20
-0.309251451722815
30
0
41
1
10
9.14876447288793
20
-0.305828546272068
30
0
41
1
10
9.14666152309883
20
-0.30390484096003
30
0
41
1
10
9.14317602879879
20
-0.299559795826326
30
0
41
1
10
9.14183367160857
20
-0.297191208615885
30
0
41
1
10
9.14011111824311
20
-0.291983727565139
30
0
41
1
10
9.13975376954048
20
-0.28914247162993
30
0
41
1
10
9.14012473484786
20
-0.283283573994225
30
0
41
1
10
9.14085462438072
20
-0.280188457343087
30
0
41
1
10
9.1432485736552
20
-0.273973881768512
30
0
41
1
10
9.14489040353692
20
-0.270868207717939
30
0
41
1
10
9.15089358034203
20
-0.261555053522642
30
0
41
1
10
9.15608552735691
20
-0.25566570156937
30
0
41
1
10
9.16192765464814
20
-0.249980947161589
30
0
0
SPLINE
5
17C
100
AcDbEntity
8
1
62
256
6
ByLayer
370
18
48
1
60
0
100
AcDbSpline
70
4
71
3
72
18
73
14
40
0
40
0
40
0
40
0
40
0.250000000000004
40
0.250000000000004
40
0.500000000000008
40
0.500000000000008
40
0.625000000000006
40
0.625000000000006
40
0.750000000000004
40
0.750000000000004
40
0.875000000000002
40
0.875000000000002
40
1
40
1
40
1
40
1
41
1
10
9.95818080364234
20
-0.249980947161987
30
0
41
1
10
9.92749994234364
20
-0.26071314772193
30
0
41
1
10
9.89687592587646
20
-0.27038180066279
30
0
41
1
10
9.83572596896019
20
-0.287746386430427
30
0
41
1
10
9.80520000776735
20
-0.295443207372898
30
0
41
1
10
9.75949165829152
20
-0.305362247104569
30
0
41
1
10
9.74426915486944
20
-0.308394975835455
30
0
41
1
10
9.7138557687901
20
-0.313841643015138
30
0
41
1
10
9.69862277638646
20
-0.316261825895964
30
0
41
1
10
9.66843979450144
20
-0.320325245372089
30
0
41
1
10
9.65349518651499
20
-0.321971785451893
30
0
41
1
10
9.62397991030193
20
-0.324296253793733
30
0
41
1
10
9.60940649911072
20
-0.324980947161464
30
0
41
1
10
9.59510119943221
20
-0.324980947161663
30
0
0
SPLINE
5
17D
100
AcDbEntity
8
1
62
256
6
ByLayer
370
18
48
1
60
0
100
AcDbSpline
70
4
71
3
72
8
73
4
40
0
40
0
40
0
40
0
40
1
40
1
40
1
40
1
41
1
10
11.5338810822349
20
0.340722418964958
30
0
41
1
10
11.0140865548844
20
0.133000688010128
30
0
41
1
10
10.4890458043901
20
-0.0642837594974139
30
0
41
1
10
9.95818080364236
20
-0.249980947161674
30
0
0
SPLINE
5
17E
100
AcDbEntity
8
1
62
256
6
ByLayer
370
18
48
1
60
0
100
AcDbSpline
70
4
71
3
72
8
73
4
40
0
40
0
40
0
40
0
40
1
40
1
40
1
40
1
41
1
10
11.5338810822349
20
0.340722418964958
30
0
41
1
10
11.600876101822
20
0.385414396364894
30
0
41
1
10
11.6678402108189
20
0.430173904668635
30
0
41
1
10
11.7347738412602
20
0.475000000002325
30
0
0
SPLINE
5
17F
100
AcDbEntity
8
1
62
256
6
ByLayer
370
18
48
1
60
0
100
AcDbSpline
70
4
71
3
72
8
73
4
40
0
40
0
40
0
40
0
40
1
40
1
40
1
40
1
41
1
10
11.871308760417
20
0.675000000000011
30
0
41
1
10
11.825798519862
20
0.608331258506041
30
0
41
1
10
11.7802868943198
20
0.54166457068726
30
0
41
1
10
11.7347738412623
20
0.474999999999994
30
0
0
SPLINE
5
180
100
AcDbEntity
8
1
62
256
6
ByLayer
370
18
48
1
60
0
100
AcDbSpline
70
4
71
3
72
8
73
4
40
0
40
0
40
0
40
0
40
1
40
1
40
1
40
1
41
1
10
-19
20
0.675000000000011
30
0
41
1
10
-18.6666167702326
20
0.341616770232548
30
0
41
1
10
-18.3332883074241
20
0.0082883074240954
30
0
41
1
10
-18.0000190528383
20
-0.324980947161691
30
0
0
SPLINE
5
181
100
AcDbEntity
8
1
62
256
6
ByLayer
370
18
48
1
60
0
100
AcDbSpline
70
4
71
3
72
33
73
29
40
0
40
0
40
0
40
0
40
0.124999999999979
40
0.249999999999958
40
0.249999999999958
40
0.281249999999955
40
0.281249999999955
40
0.312499999999952
40
0.312499999999952
40
0.37499999999995
40
0.37499999999995
40
0.499999999999948
40
0.499999999999948
40
0.531249999999949
40
0.531249999999949
40
0.56249999999995
40
0.56249999999995
40
0.624999999999956
40
0.624999999999956
40
0.749999999999964
40
0.749999999999964
40
0.781249999999967
40
0.781249999999967
40
0.812499999999969
40
0.812499999999969
40
0.87499999999998
40
0.87499999999998
40
1
40
1
40
1
40
1
41
1
10
25.5381856353659
20
12.1
30
0
41
1
10
25.5578402292367
20
12.1879248962958
30
0
41
1
10
25.6114679464757
20
12.3579608589717
30
0
41
1
10
25.6925328276291
20
12.5168563617005
30
0
41
1
10
25.7521440786014
20
12.6125337798861
30
0
41
1
10
25.7645114771118
20
12.6314726271765
30
0
41
1
10
25.7899114505675
20
12.6686234214436
30
0
41
1
10
25.8029719015549
20
12.6868812035243
30
0
41
1
10
25.8432201868628
20
12.7407144460962
30
0
41
1
10
25.8714730857284
20
12.7753514486879
30
0
41
1
10
25.9604482499027
20
12.8755472099805
30
0
41
1
10
26.0253555747238
20
12.9374183967152
30
0
41
1
10
26.1137824726941
20
13.0083315430174
30
0
41
1
10
26.1318047989415
20
13.0221633139888
30
0
41
1
10
26.1682480050918
20
13.0489245775138
30
0
41
1
10
26.1867067802585
20
13.061884898327
30
0
41
1
10
26.2427853863802
20
13.0995212951316
30
0
41
1
10
26.2811062615268
20
13.1229549966607
30
0
41
1
10
26.3988466860166
20
13.1883333493841
30
0
41
1
10
26.4810230854602
20
13.2253923739635
30
0
41
1
10
26.5885583804915
20
13.2631834839612
30
0
41
1
10
26.6102158682038
20
13.2702782524494
30
0
41
1
10
26.6536391134581
20
13.2834918042334
30
0
41
1
10
26.675434432825
20
13.2896210576766
30
0
41
1
10
26.7410682053435
20
13.3065949403803
30
0
41
1
10
26.7851540346738
20
13.3160281923405
30
0
41
1
10
26.9183916627289
20
13.338735867989
30
0
41
1
10
27.0085161742063
20
13.3464605871494
30
0
41
1
10
27.1
20
13.3464298895142
30
0
0
SPLINE
5
182
100
AcDbEntity
8
1
62
256
6
ByLayer
370
18
48
1
60
0
100
AcDbSpline
70
4
71
3
72
8
73
4
40
0
40
0
40
0
40
0
40
1
40
1
40
1
40
1
41
1
10
19.2870625622058
20
0.129903810567669
30
0
41
1
10
19.4703205128146
20
0.311580759106135
30
0
41
1
10
19.653556200176
20
0.493280087502797
30
0
41
1
10
19.8367714106908
20
0.675000000000011
30
0
0
SPLINE
5
183
100
AcDbEntity
8
1
62
256
6
ByLayer
370
18
48
1
60
0
100
AcDbSpline
70
4
71
3
72
8
73
4
40
0
40
0
40
0
40
0
40
1
40
1
40
1
40
1
41
1
10
18.8729219314525
20
-0.249980947161674
30
0
41
1
10
19.0113201534983
20
-0.123639035795151
30
0
41
1
10
19.1493610312483
20
0.0029941060164731
30
0
41
1
10
19.2870625622058
20
0.129903810567669
30
0
0
SPLINE
5
184
100
AcDbEntity
8
1
62
256
6
ByLayer
370
18
48
1
60
0
100
AcDbSpline
70
4
71
3
72
20
73
16
40
0
40
0
40
0
40
0
40
0.125000000000005
40
0.125000000000005
40
0.250000000000009
40
0.250000000000009
40
0.375000000000014
40
0.375000000000014
40
0.500000000000018
40
0.500000000000018
40
0.625000000000023
40
0.625000000000023
40
0.750000000000027
40
0.750000000000027
40
1
40
1
40
1
40
1
41
1
10
18.7775181327357
20
-0.324980947161691
30
0
41
1
10
18.7787010242645
20
-0.324980947161691
30
0
41
1
10
18.7804472864332
20
-0.324397783309394
30
0
41
1
10
18.7849851214943
20
-0.322149113157053
30
0
41
1
10
18.7877652228033
20
-0.320483944021561
30
0
41
1
10
18.7940419579248
20
-0.31632025809796
30
0
41
1
10
18.7975633120804
20
-0.313808713729202
30
0
41
1
10
18.8052728850999
20
-0.308032368047549
30
0
41
1
10
18.8093760264562
20
-0.304831757523772
30
0
41
1
10
18.8179958139009
20
-0.297911309070372
30
0
41
1
10
18.8225131770649
20
-0.294190567740913
30
0
41
1
10
18.8319167921744
20
-0.286286962265336
30
0
41
1
10
18.8368284752011
20
-0.282081584144691
30
0
41
1
10
18.8518338885015
20
-0.269034872976135
30
0
41
1
10
18.8622168298091
20
-0.259753493246421
30
0
41
1
10
18.8729219314525
20
-0.249980947161674
30
0
0
SPLINE
5
185
100
AcDbEntity
8
1
62
256
6
ByLayer
370
18
48
1
60
0
100
AcDbSpline
70
4
71
3
72
17
73
13
40
0
40
0
40
0
40
0
40
0.250000000000019
40
0.250000000000019
40
0.500000000000038
40
0.500000000000038
40
0.562500000000037
40
0.562500000000037
40
0.625000000000036
40
0.750000000000026
40
0.750000000000026
40
1
40
1
40
1
40
1
41
1
10
18.3564173719112
20
6.00788229583281
30
0
41
1
10
18.3853753963689
20
6.03604768119052
30
0
41
1
10
18.4122309410963
20
6.06627424213536
30
0
41
1
10
18.4617197383668
20
6.13107832338699
30
0
41
1
10
18.4843572921868
20
6.16564930486621
30
0
41
1
10
18.5097894773874
20
6.21201148814336
30
0
41
1
10
18.5147424479629
20
6.22146529018866
30
0
41
1
10
18.5242836416444
20
6.24057472388634
30
0
41
1
10
18.5380498884724
20
6.26953796305179
30
0
41
1
10
18.5501769665483
20
6.29941372325661
30
0
41
1
10
18.572190923673
20
6.36045061207815
30
0
41
1
10
18.5839044979643
20
6.40284180273295
30
0
41
1
10
18.5922620637002
20
6.44725870662353
30
0
0
SPLINE
5
186
100
AcDbEntity
8
1
62
256
6
ByLayer
370
18
48
1
60
0
100
AcDbSpline
70
4
71
3
72
18
73
14
40
0
40
0
40
0
40
0
40
0.249999999999978
40
0.249999999999978
40
0.374999999999973
40
0.374999999999973
40
0.437499999999975
40
0.437499999999975
40
0.499999999999976
40
0.499999999999976
40
0.749999999999988
40
0.749999999999988
40
1
40
1
40
1
40
1
41
1
10
18.5922620637002
20
6.75274129337646
30
0
41
1
10
18.5839029765649
20
6.79716628285735
30
0
41
1
10
18.5721940761371
20
6.83952872768282
30
0
41
1
10
18.5502147004154
20
6.90048759793962
30
0
41
1
10
18.5421460177693
20
6.92037281285283
30
0
41
1
10
18.5289590937531
20
6.94958514624344
30
0
41
1
10
18.5243825255529
20
6.95921984345725
30
0
41
1
10
18.5148692909951
20
6.97828787560948
30
0
41
1
10
18.5099208758559
20
6.9877420298248
30
0
41
1
10
18.4844501468564
20
7.03420879187772
30
0
41
1
10
18.4617830025327
20
7.06883334385503
30
0
41
1
10
18.4122494705403
20
7.13370697530971
30
0
41
1
10
18.3853786034381
20
7.16394919952418
30
0
41
1
10
18.3564173719112
20
7.19211770416717
30
0
0
SPLINE
5
187
100
AcDbEntity
8
1
62
256
6
ByLayer
370
18
48
1
60
0
100
AcDbSpline
70
4
71
3
72
24
73
20
40
0
40
0
40
0
40
0
40
0.124999999999996
40
0.124999999999996
40
0.187499999999995
40
0.187499999999995
40
0.249999999999994
40
0.249999999999994
40
0.374999999999994
40
0.374999999999994
40
0.499999999999994
40
0.499999999999994
40
0.624999999999994
40
0.624999999999994
40
0.687499999999991
40
0.687499999999991
40
0.749999999999988
40
0.749999999999988
40
1
40
1
40
1
40
1
41
1
10
18.3018189416602
20
7.59557688959518
30
0
41
1
10
18.2920717429747
20
7.57895084257393
30
0
41
1
10
18.2838642633101
20
7.56163824881963
30
0
41
1
10
18.2738342365023
20
7.53465255621271
30
0
41
1
10
18.2708640587043
20
7.52545262888157
30
0
41
1
10
18.2657514504448
20
7.50685546517266
30
0
41
1
10
18.2636304107339
20
7.49754907943679
30
0
41
1
10
18.258503655387
20
7.46960896588177
30
0
41
1
10
18.2567259261731
20
7.45095434024378
30
0
41
1
10
18.2563184965416
20
7.41360005805808
30
0
41
1
10
18.2577395219956
20
7.39476107757361
30
0
41
1
10
18.2635127050969
20
7.3585848950795
30
0
41
1
10
18.2678413753686
20
7.34106952644703
30
0
41
1
10
18.2763479036088
20
7.31561112318155
30
0
41
1
10
18.2795208606012
20
7.30726150218695
30
0
41
1
10
18.28653701553
20
7.29083605914886
30
0
41
1
10
18.2903971485727
20
7.28273325540874
30
0
41
1
10
18.3110153586929
20
7.24358412847945
30
0
41
1
10
18.3317858476265
20
7.21607501432294
30
0
41
1
10
18.3564173719112
20
7.19211770416717
30
0
0
SPLINE
5
188
100
AcDbEntity
8
1
62
256
6
ByLayer
370
18
48
1
60
0
100
AcDbSpline
70
4
71
3
72
24
73
20
40
0
40
0
40
0
40
0
40
0.249999999999986
40
0.249999999999986
40
0.312499999999986
40
0.312499999999986
40
0.374999999999986
40
0.374999999999986
40
0.499999999999992
40
0.499999999999992
40
0.624999999999998
40
0.624999999999998
40
0.750000000000004
40
0.750000000000004
40
0.812500000000007
40
0.812500000000007
40
0.875000000000009
40
0.875000000000009
40
1
40
1
40
1
40
1
41
1
10
18.3564173719112
20
6.00788229583281
30
0
41
1
10
18.3317858476265
20
5.98392498567705
30
0
41
1
10
18.3110153586929
20
5.95641587152056
30
0
41
1
10
18.2903971485727
20
5.91726674459125
30
0
41
1
10
18.28653701553
20
5.90916394085113
30
0
41
1
10
18.2795208606012
20
5.89273849781304
30
0
41
1
10
18.2763479036088
20
5.88438887681843
30
0
41
1
10
18.2678413753686
20
5.85893047355299
30
0
41
1
10
18.2635127050969
20
5.84141510492052
30
0
41
1
10
18.2577395219956
20
5.80523892242638
30
0
41
1
10
18.2563184965416
20
5.78639994194191
30
0
41
1
10
18.2567259261731
20
5.74904565975621
30
0
41
1
10
18.258503655387
20
5.73039103411821
30
0
41
1
10
18.2636304107339
20
5.70245092056322
30
0
41
1
10
18.2657514504448
20
5.69314453482735
30
0
41
1
10
18.2708640587043
20
5.67454737111845
30
0
41
1
10
18.2738342365023
20
5.66534744378728
30
0
41
1
10
18.2838642633101
20
5.63836175118036
30
0
41
1
10
18.2920717429747
20
5.62104915742606
30
0
41
1
10
18.3018189416602
20
5.60442311040484
30
0
0
SPLINE
5
189
100
AcDbEntity
8
1
62
256
6
ByLayer
370
18
48
1
60
0
100
AcDbSpline
70
4
71
3
72
18
73
14
40
0
40
0
40
0
40
0
40
0.249999999999982
40
0.249999999999982
40
0.374999999999979
40
0.374999999999979
40
0.437499999999979
40
0.437499999999979
40
0.49999999999998
40
0.49999999999998
40
0.74999999999999
40
0.74999999999999
40
1
40
1
40
1
40
1
41
1
10
21.4077379362998
20
6.44725870662353
30
0
41
1
10
21.4160970234352
20
6.40283371714233
30
0
41
1
10
21.427805923863
20
6.36047127231677
30
0
41
1
10
21.4497852995847
20
6.29951240206012
30
0
41
1
10
21.4578539822308
20
6.27962718714699
30
0
41
1
10
21.4710409062468
20
6.25041485375655
30
0
41
1
10
21.475617474447
20
6.24078015654285
30
0
41
1
10
21.4851307090048
20
6.22171212439076
30
0
41
1
10
21.4900791241439
20
6.21225797017553
30
0
41
1
10
21.5155498531435
20
6.16579120812241
30
0
41
1
10
21.5382169974673
20
6.13116665614501
30
0
41
1
10
21.5877505294598
20
6.06629302469025
30
0
41
1
10
21.6146213965619
20
6.03605080047578
30
0
41
1
10
21.6435826280888
20
6.00788229583281
30
0
0
SPLINE
5
18A
100
AcDbEntity
8
1
62
256
6
ByLayer
370
18
48
1
60
0
100
AcDbSpline
70
4
71
3
72
24
73
20
40
0
40
0
40
0
40
0
40
0.124999999999996
40
0.124999999999996
40
0.187499999999995
40
0.187499999999995
40
0.249999999999994
40
0.249999999999994
40
0.374999999999994
40
0.374999999999994
40
0.499999999999994
40
0.499999999999994
40
0.624999999999994
40
0.624999999999994
40
0.687499999999991
40
0.687499999999991
40
0.749999999999988
40
0.749999999999988
40
1
40
1
40
1
40
1
41
1
10
21.6981810583398
20
5.60442311040484
30
0
41
1
10
21.7079282570253
20
5.62104915742606
30
0
41
1
10
21.7161357366898
20
5.63836175118036
30
0
41
1
10
21.7261657634977
20
5.66534744378728
30
0
41
1
10
21.7291359412957
20
5.67454737111845
30
0
41
1
10
21.7342485495551
20
5.69314453482735
30
0
41
1
10
21.7363695892661
20
5.70245092056322
30
0
41
1
10
21.741496344613
20
5.73039103411821
30
0
41
1
10
21.7432740738269
20
5.74904565975621
30
0
41
1
10
21.7436815034583
20
5.78639994194191
30
0
41
1
10
21.7422604780044
20
5.80523892242638
30
0
41
1
10
21.7364872949031
20
5.84141510492052
30
0
41
1
10
21.7321586246314
20
5.85893047355299
30
0
41
1
10
21.7236520963912
20
5.88438887681843
30
0
41
1
10
21.7204791393988
20
5.89273849781304
30
0
41
1
10
21.71346298447
20
5.90916394085113
30
0
41
1
10
21.7096028514273
20
5.91726674459125
30
0
41
1
10
21.6889846413071
20
5.95641587152056
30
0
41
1
10
21.6682141523735
20
5.98392498567705
30
0
41
1
10
21.6435826280888
20
6.00788229583281
30
0
0
SPLINE
5
18B
100
AcDbEntity
8
1
62
256
6
ByLayer
370
18
48
1
60
0
100
AcDbSpline
70
4
71
3
72
24
73
20
40
0
40
0
40
0
40
0
40
0.25
40
0.25
40
0.312499999999994
40
0.312499999999994
40
0.374999999999988
40
0.374999999999988
40
0.499999999999992
40
0.499999999999992
40
0.624999999999995
40
0.624999999999995
40
0.749999999999999
40
0.749999999999999
40
0.8125
40
0.8125
40
0.875000000000001
40
0.875000000000001
40
1
40
1
40
1
40
1
41
1
10
21.6435826280888
20
7.19211770416717
30
0
41
1
10
21.6682141523735
20
7.21607501432294
30
0
41
1
10
21.6889846413071
20
7.24358412847945
30
0
41
1
10
21.7096028514273
20
7.28273325540874
30
0
41
1
10
21.71346298447
20
7.29083605914886
30
0
41
1
10
21.7204791393988
20
7.30726150218695
30
0
41
1
10
21.7236520963912
20
7.31561112318158
30
0
41
1
10
21.7321586246314
20
7.34106952644703
30
0
41
1
10
21.7364872949031
20
7.3585848950795
30
0
41
1
10
21.7422604780044
20
7.39476107757361
30
0
41
1
10
21.7436815034583
20
7.41360005805808
30
0
41
1
10
21.7432740738269
20
7.45095434024378
30
0
41
1
10
21.741496344613
20
7.46960896588177
30
0
41
1
10
21.7363695892661
20
7.49754907943679
30
0
41
1
10
21.7342485495551
20
7.50685546517266
30
0
41
1
10
21.7291359412957
20
7.52545262888157
30
0
41
1
10
21.7261657634977
20
7.53465255621271
30
0
41
1
10
21.7161357366899
20
7.56163824881963
30
0
41
1
10
21.7079282570253
20
7.57895084257393
30
0
41
1
10
21.6981810583398
20
7.59557688959518
30
0
0
SPLINE
5
18C
100
AcDbEntity
8
1
62
256
6
ByLayer
370
18
48
1
60
0
100
AcDbSpline
70
4
71
3
72
17
73
13
40
0
40
0
40
0
40
0
40
0.249999999999989
40
0.249999999999989
40
0.499999999999978
40
0.499999999999978
40
0.562499999999982
40
0.562499999999982
40
0.624999999999985
40
0.749999999999988
40
0.749999999999988
40
1
40
1
40
1
40
1
41
1
10
21.6435826280888
20
7.19211770416717
30
0
41
1
10
21.6146246036311
20
7.16395231880944
30
0
41
1
10
21.5877690589036
20
7.13372575786454
30
0
41
1
10
21.538280261633
20
7.0689216766128
30
0
41
1
10
21.5156427078131
20
7.0343506951335
30
0
41
1
10
21.4902105226124
20
6.98798851185626
30
0
41
1
10
21.4852575520369
20
6.97853470981096
30
0
41
1
10
21.4757163583554
20
6.95942527611325
30
0
41
1
10
21.4619501115274
20
6.93046203694774
30
0
41
1
10
21.4498230334515
20
6.90058627674296
30
0
41
1
10
21.4278090763268
20
6.83954938792146
30
0
41
1
10
21.4160955020356
20
6.79715819726678
30
0
41
1
10
21.4077379362998
20
6.75274129337646
30
0
0
SPLINE
5
18D
100
AcDbEntity
8
1
62
256
6
ByLayer
370
18
48
1
60
0
100
AcDbSpline
70
4
71
3
72
26
73
22
40
0
40
0
40
0
40
0
40
0.249999999999994
40
0.249999999999994
40
0.312499999999994
40
0.312499999999994
40
0.374999999999994
40
0.374999999999994
40
0.499999999999994
40
0.499999999999994
40
0.562499999999996
40
0.562499999999996
40
0.624999999999998
40
0.624999999999998
40
0.749999999999988
40
0.749999999999988
40
0.812499999999985
40
0.812499999999985
40
0.874999999999983
40
0.874999999999983
40
1
40
1
40
1
40
1
41
1
10
20.3181619695468
20
8.32609544014431
30
0
41
1
10
20.3092192305469
20
8.35857703334901
30
0
41
1
10
20.295487632259
20
8.38946368973188
30
0
41
1
10
20.271835338829
20
8.42579851732179
30
0
41
1
10
20.2667495067731
20
8.43297745742416
30
0
41
1
10
20.2560530091763
20
8.44685939456051
30
0
41
1
10
20.2504333990711
20
8.45358159444692
30
0
41
1
10
20.2327595033493
20
8.47308672630902
30
0
41
1
10
20.2198957841168
20
8.48521280863645
30
0
41
1
10
20.1988810548679
20
8.50198940674917
30
0
41
1
10
20.1915883106091
20
8.50734511719321
30
0
41
1
10
20.1763916134439
20
8.51755156603639
30
0
41
1
10
20.1685411707113
20
8.52236211290429
30
0
41
1
10
20.1445437728381
20
8.53572449293853
30
0
41
1
10
20.1278334996496
20
8.54329690404472
30
0
41
1
10
20.1016705104134
20
8.55258397985133
30
0
41
1
10
20.0927656700964
20
8.55533273158269
30
0
41
1
10
20.0745707697433
20
8.56010169410391
30
0
41
1
10
20.0652845989499
20
8.56211452550454
30
0
41
1
10
20.0374812768526
20
8.56690358371338
30
0
41
1
10
20.01880895329
20
8.5685
30
0
41
1
10
20
20
8.5685
30
0
0
SPLINE
5
18E
100
AcDbEntity
8
1
62
256
6
ByLayer
370
18
48
1
60
0
100
AcDbSpline
70
4
71
3
72
34
73
30
40
0
40
0
40
0
40
0
40
0.125000000000004
40
0.125000000000004
40
0.187500000000006
40
0.187500000000006
40
0.218750000000009
40
0.218750000000009
40
0.250000000000012
40
0.250000000000012
40
0.375000000000001
40
0.375000000000001
40
0.406249999999998
40
0.406249999999998
40
0.437499999999995
40
0.499999999999996
40
0.562499999999996
40
0.562499999999996
40
0.624999999999996
40
0.624999999999996
40
0.687499999999997
40
0.687499999999997
40
0.749999999999997
40
0.749999999999997
40
0.874999999999998
40
0.874999999999998
40
0.937499999999999
40
0.937499999999999
40
1
40
1
40
1
40
1
41
1
10
20.3181619695468
20
8.32609544014431
30
0
41
1
10
20.3316243955842
20
8.27719755258437
30
0
41
1
10
20.3495186520746
20
8.22960672669575
30
0
41
1
10
20.3834427074956
20
8.16005578649057
30
0
41
1
10
20.3959401462236
20
8.13717940089674
30
0
41
1
10
20.4166305781722
20
8.10332472256971
30
0
41
1
10
20.4238696464604
20
8.09209141124251
30
0
41
1
10
20.4389547957833
20
8.06989940372523
30
0
41
1
10
20.4467750039595
20
8.05897602964609
30
0
41
1
10
20.4872859904911
20
8.00522043482457
30
0
41
1
10
20.5241451570225
20
7.96493514485431
30
0
41
1
10
20.5766976577683
20
7.9182858555198
30
0
41
1
10
20.5875531522008
20
7.90913457392739
30
0
41
1
10
20.6095897675602
20
7.89150744141085
30
0
41
1
10
20.6432548145305
20
7.86596844876547
30
0
41
1
10
20.7023826118536
20
7.82785925819269
30
0
41
1
10
20.7529298677765
20
7.80215540891766
30
0
41
1
10
20.8051631063884
20
7.77893946270262
30
0
41
1
10
20.831493866305
20
7.76885484885503
30
0
41
1
10
20.8845188699141
20
7.75153063832269
30
0
41
1
10
20.9112225356447
20
7.74428773988413
30
0
41
1
10
20.9650247101004
20
7.73252593542009
30
0
41
1
10
20.992216397077
20
7.72801179583885
30
0
41
1
10
21.0724935208943
20
7.71866218546464
30
0
41
1
10
21.1249222467064
20
7.71779191314599
30
0
41
1
10
21.2024065588861
20
7.72362886795273
30
0
41
1
10
21.2281182805367
20
7.72679386939393
30
0
41
1
10
21.2787427947224
20
7.73542982562995
30
0
41
1
10
21.30363915096
20
7.74088811906907
30
0
41
1
10
21.3281523379786
20
7.74745103358487
30
0
0
SPLINE
5
18F
100
AcDbEntity
8
1
62
256
6
ByLayer
370
18
48
1
60
0
100
AcDbSpline
70
4
71
3
72
24
73
20
40
0
40
0
40
0
40
0
40
0.0625000000000049
40
0.0625000000000049
40
0.12500000000001
40
0.12500000000001
40
0.250000000000008
40
0.250000000000008
40
0.312500000000006
40
0.312500000000006
40
0.375000000000003
40
0.375000000000003
40
0.500000000000003
40
0.500000000000003
40
0.625000000000003
40
0.625000000000003
40
0.750000000000004
40
0.750000000000004
40
1
40
1
40
1
40
1
41
1
10
21.6981810583398
20
7.59557688959518
30
0
41
1
10
21.6934313378224
20
7.60367860981313
30
0
41
1
10
21.6882897889865
20
7.61164980922734
30
0
41
1
10
21.677355321586
20
7.6270930657009
30
0
41
1
10
21.6716008277749
20
7.63451769513676
30
0
41
1
10
21.653507056405
20
7.65593275162766
30
0
41
1
10
21.6403431053359
20
7.6690702395251
30
0
41
1
10
21.6189603728398
20
7.68708047797622
30
0
41
1
10
21.6115431209205
20
7.69280535445586
30
0
41
1
10
21.5964570188402
20
7.70347091349853
30
0
41
1
10
21.5887541685168
20
7.70844253451469
30
0
41
1
10
21.5651865615503
20
7.72231523036024
30
0
41
1
10
21.5488655560664
20
7.73018071772847
30
0
41
1
10
21.5150376500416
20
7.74319032755994
30
0
41
1
10
21.497973394896
20
7.74816506090181
30
0
41
1
10
21.4636029977596
20
7.75532399248331
30
0
41
1
10
21.446237058748
20
7.75750930691862
30
0
41
1
10
21.39416944413
20
7.75993921004607
30
0
41
1
10
21.3606039107084
20
7.75613929176882
30
0
41
1
10
21.3281523379786
20
7.74745103358487
30
0
0
SPLINE
5
190
100
AcDbEntity
8
1
62
256
6
ByLayer
370
18
48
1
60
0
100
AcDbSpline
70
4
71
3
72
26
73
22
40
0
40
0
40
0
40
0
40
0.125000000000008
40
0.125000000000008
40
0.250000000000016
40
0.250000000000016
40
0.312500000000029
40
0.312500000000029
40
0.375000000000043
40
0.375000000000043
40
0.500000000000048
40
0.500000000000048
40
0.562500000000042
40
0.562500000000042
40
0.625000000000036
40
0.625000000000036
40
0.750000000000024
40
0.750000000000024
40
0.875000000000012
40
0.875000000000012
40
1
40
1
40
1
40
1
41
1
10
20
20
8.5685
30
0
41
1
10
19.9812579161203
20
8.5685
30
0
41
1
10
19.962209975879
20
8.56686279550459
30
0
41
1
10
19.9253294541456
20
8.56048528068294
30
0
41
1
10
19.9073531625207
20
8.5557727916655
30
0
41
1
10
19.8810727694392
20
8.54646538610317
30
0
41
1
10
19.8723863894371
20
8.54296752509535
30
0
41
1
10
19.855517452384
20
8.53533413023604
30
0
41
1
10
19.8473226044842
20
8.53119909926488
30
0
41
1
10
19.8234267481805
20
8.51788232941573
30
0
41
1
10
19.8084100630755
20
8.50779456249336
30
0
41
1
10
19.7872244605916
20
8.4909047070862
30
0
41
1
10
19.7804080814309
20
8.48499261738442
30
0
41
1
10
19.7674404104893
20
8.47279737184289
30
0
41
1
10
19.7612596172288
20
8.46649129678536
30
0
41
1
10
19.7435909177987
20
8.44697635277581
30
0
41
1
10
19.7329717290289
20
8.43317412766206
30
0
41
1
10
19.7139986190539
20
8.40404553323992
30
0
41
1
10
19.7058188411954
20
8.38897729418625
30
0
41
1
10
19.6919779801761
20
8.35811774769991
30
0
41
1
10
19.6862980163446
20
8.3422948894881
30
0
41
1
10
19.6818380304532
20
8.32609544014431
30
0
0
SPLINE
5
191
100
AcDbEntity
8
1
62
256
6
ByLayer
370
18
48
1
60
0
100
AcDbSpline
70
4
71
3
72
34
73
30
40
0
40
0
40
0
40
0
40
0.124999999999983
40
0.124999999999983
40
0.187499999999974
40
0.187499999999974
40
0.21874999999997
40
0.21874999999997
40
0.249999999999966
40
0.249999999999966
40
0.374999999999948
40
0.374999999999948
40
0.406249999999947
40
0.406249999999947
40
0.437499999999947
40
0.499999999999952
40
0.562499999999957
40
0.562499999999957
40
0.624999999999962
40
0.624999999999962
40
0.687499999999967
40
0.687499999999967
40
0.749999999999972
40
0.749999999999972
40
0.874999999999989
40
0.874999999999989
40
0.937499999999994
40
0.937499999999994
40
1
40
1
40
1
40
1
41
1
10
18.6718476620214
20
7.74745103358487
30
0
41
1
10
18.7208394593323
20
7.73433446177873
30
0
41
1
10
18.770945098419
20
7.72570218410934
30
0
41
1
10
18.8481023724607
20
7.71979203960024
30
0
41
1
10
18.8741579501174
20
7.71900347636432
30
0
41
1
10
18.9138278946093
20
7.71973050935989
30
0
41
1
10
18.9271798085304
20
7.72029419915327
30
0
41
1
10
18.9539537358994
20
7.72208412311213
30
0
41
1
10
18.9673321899401
20
7.72330590152711
30
0
41
1
10
19.0341945419054
20
7.7310667159455
30
0
41
1
10
19.0875894364998
20
7.74248984827958
30
0
41
1
10
19.1544113754504
20
7.76423264973621
30
0
41
1
10
19.167796193224
20
7.7689691450463
30
0
41
1
10
19.1941478369934
20
7.77906464844685
30
0
41
1
10
19.2332059929598
20
7.79519028533056
30
0
41
1
10
19.2959860666201
20
7.82692464033107
30
0
41
1
10
19.3437246825773
20
7.85753080364262
30
0
41
1
10
19.3901697315483
20
7.89084969244914
30
0
41
1
10
19.4121863952644
20
7.90846431994893
30
0
41
1
10
19.4539492170245
20
7.94544601877467
30
0
41
1
10
19.4737029913318
20
7.96481955032939
30
0
41
1
10
19.5110603053287
20
8.00528490510212
30
0
41
1
10
19.5287068593985
20
8.02645952289146
30
0
41
1
10
19.5773730428752
20
8.09098420587003
30
0
41
1
10
19.6046398483741
20
8.13577315483099
30
0
41
1
10
19.638792442722
20
8.20556920502847
30
0
41
1
10
19.6490658739522
20
8.22935084526262
30
0
41
1
10
19.6672193811967
20
8.27739115500324
30
0
41
1
10
19.6751020665243
20
8.30162924022724
30
0
41
1
10
19.6818380304532
20
8.32609544014431
30
0
0
SPLINE
5
192
100
AcDbEntity
8
1
62
256
6
ByLayer
370
18
48
1
60
0
100
AcDbSpline
70
4
71
3
72
24
73
20
40
0
40
0
40
0
40
0
40
0.0624999999999998
40
0.0624999999999998
40
0.125
40
0.125
40
0.249999999999998
40
0.249999999999998
40
0.312499999999998
40
0.312499999999998
40
0.374999999999997
40
0.374999999999997
40
0.499999999999999
40
0.499999999999999
40
0.625
40
0.625
40
0.750000000000001
40
0.750000000000001
40
1
40
1
40
1
40
1
41
1
10
18.3018189416602
20
7.59557688959518
30
0
41
1
10
18.3065686621776
20
7.60367860981313
30
0
41
1
10
18.3117102110135
20
7.61164980922734
30
0
41
1
10
18.322644678414
20
7.6270930657009
30
0
41
1
10
18.3283991722251
20
7.63451769513679
30
0
41
1
10
18.346492943595
20
7.65593275162766
30
0
41
1
10
18.3596568946641
20
7.6690702395251
30
0
41
1
10
18.3810396271602
20
7.68708047797622
30
0
41
1
10
18.3884568790795
20
7.69280535445586
30
0
41
1
10
18.4035429811598
20
7.70347091349853
30
0
41
1
10
18.4112458314832
20
7.70844253451469
30
0
41
1
10
18.4348134384497
20
7.72231523036024
30
0
41
1
10
18.4511344439336
20
7.73018071772847
30
0
41
1
10
18.4849623499584
20
7.74319032755994
30
0
41
1
10
18.502026605104
20
7.74816506090181
30
0
41
1
10
18.5363970022403
20
7.75532399248331
30
0
41
1
10
18.553762941252
20
7.75750930691862
30
0
41
1
10
18.60583055587
20
7.75993921004607
30
0
41
1
10
18.6393960892915
20
7.75613929176882
30
0
41
1
10
18.6718476620214
20
7.74745103358487
30
0
0
SPLINE
5
193
100
AcDbEntity
8
1
62
256
6
ByLayer
370
18
48
1
60
0
100
AcDbSpline
70
4
71
3
72
26
73
22
40
0
40
0
40
0
40
0
40
0.124999999999978
40
0.124999999999978
40
0.249999999999956
40
0.249999999999956
40
0.312499999999955
40
0.312499999999955
40
0.374999999999954
40
0.374999999999954
40
0.499999999999977
40
0.499999999999977
40
0.56249999999998
40
0.56249999999998
40
0.624999999999983
40
0.624999999999983
40
0.749999999999988
40
0.749999999999988
40
0.874999999999994
40
0.874999999999994
40
1
40
1
40
1
40
1
41
1
10
20
20
4.63149999999999
30
0
41
1
10
20.0187420838797
20
4.63149999999999
30
0
41
1
10
20.037790024121
20
4.6331372044954
30
0
41
1
10
20.0746705458543
20
4.63951471931705
30
0
41
1
10
20.0926468374794
20
4.64422720833451
30
0
41
1
10
20.1189272305608
20
4.65353461389682
30
0
41
1
10
20.127613610563
20
4.65703247490467
30
0
41
1
10
20.144482547616
20
4.66466586976395
30
0
41
1
10
20.1526773955158
20
4.66880090073514
30
0
41
1
10
20.1765732518195
20
4.68211767058426
30
0
41
1
10
20.1915899369245
20
4.69220543750666
30
0
41
1
10
20.2127755394084
20
4.70909529291379
30
0
41
1
10
20.2195919185691
20
4.71500738261557
30
0
41
1
10
20.2325595895107
20
4.72720262815713
30
0
41
1
10
20.2387403827712
20
4.73350870321462
30
0
41
1
10
20.2564090822013
20
4.75302364722421
30
0
41
1
10
20.2670282709711
20
4.76682587233793
30
0
41
1
10
20.2860013809461
20
4.79595446676007
30
0
41
1
10
20.2941811588046
20
4.81102270581377
30
0
41
1
10
20.3080220198239
20
4.84188225230008
30
0
41
1
10
20.3137019836554
20
4.85770511051189
30
0
41
1
10
20.3181619695468
20
4.87390455985567
30
0
0
SPLINE
5
194
100
AcDbEntity
8
1
62
256
6
ByLayer
370
18
48
1
60
0
100
AcDbSpline
70
4
71
3
72
34
73
30
40
0
40
0
40
0
40
0
40
0.124999999999985
40
0.124999999999985
40
0.187499999999978
40
0.187499999999978
40
0.218749999999974
40
0.218749999999974
40
0.249999999999971
40
0.249999999999971
40
0.374999999999956
40
0.374999999999956
40
0.406249999999956
40
0.406249999999956
40
0.437499999999956
40
0.499999999999962
40
0.562499999999969
40
0.562499999999969
40
0.624999999999975
40
0.624999999999975
40
0.687499999999981
40
0.687499999999981
40
0.749999999999988
40
0.749999999999988
40
0.874999999999995
40
0.874999999999995
40
0.937499999999997
40
0.937499999999997
40
1
40
1
40
1
40
1
41
1
10
21.3281523379786
20
5.45254896641512
30
0
41
1
10
21.2791605406677
20
5.46566553822126
30
0
41
1
10
21.229054901581
20
5.47429781589065
30
0
41
1
10
21.1518976275393
20
5.48020796039975
30
0
41
1
10
21.1258420498826
20
5.48099652363567
30
0
41
1
10
21.0861721053907
20
5.4802694906401
30
0
41
1
10
21.0728201914696
20
5.47970580084672
30
0
41
1
10
21.0460462641006
20
5.47791587688789
30
0
41
1
10
21.0326678100599
20
5.47669409847288
30
0
41
1
10
20.9658054580945
20
5.46893328405449
30
0
41
1
10
20.9124105635002
20
5.45751015172044
30
0
41
1
10
20.8455886245496
20
5.4357673502638
30
0
41
1
10
20.832203806776
20
5.43103085495372
30
0
41
1
10
20.8058521630066
20
5.42093535155317
30
0
41
1
10
20.7667940070401
20
5.40480971466945
30
0
41
1
10
20.7040139333799
20
5.37307535966892
30
0
41
1
10
20.6562753174227
20
5.34246919635737
30
0
41
1
10
20.6098302684517
20
5.30915030755085
30
0
41
1
10
20.5878136047356
20
5.29153568005106
30
0
41
1
10
20.5460507829755
20
5.25455398122531
30
0
41
1
10
20.5262970086682
20
5.23518044967059
30
0
41
1
10
20.4889396946712
20
5.19471509489787
30
0
41
1
10
20.4712931406015
20
5.17354047710853
30
0
41
1
10
20.4226269571248
20
5.10901579412996
30
0
41
1
10
20.3953601516259
20
5.06422684516903
30
0
41
1
10
20.3612075572781
20
4.99443079497152
30
0
41
1
10
20.3509341260477
20
4.97064915473737
30
0
41
1
10
20.3327806188033
20
4.92260884499674
30
0
41
1
10
20.3248979334757
20
4.89837075977275
30
0
41
1
10
20.3181619695468
20
4.87390455985567
30
0
0
SPLINE
5
195
100
AcDbEntity
8
1
62
256
6
ByLayer
370
18
48
1
60
0
100
AcDbSpline
70
4
71
3
72
24
73
20
40
0
40
0
40
0
40
0
40
0.0625000000000041
40
0.0625000000000041
40
0.125000000000008
40
0.125000000000008
40
0.250000000000007
40
0.250000000000007
40
0.312500000000004
40
0.312500000000004
40
0.375000000000002
40
0.375000000000002
40
0.500000000000002
40
0.500000000000002
40
0.625000000000003
40
0.625000000000003
40
0.750000000000003
40
0.750000000000003
40
1
40
1
40
1
40
1
41
1
10
21.6981810583398
20
5.60442311040484
30
0
41
1
10
21.6934313378224
20
5.59632139018686
30
0
41
1
10
21.6882897889865
20
5.58835019077264
30
0
41
1
10
21.677355321586
20
5.57290693429908
30
0
41
1
10
21.6716008277749
20
5.56548230486322
30
0
41
1
10
21.653507056405
20
5.54406724837233
30
0
41
1
10
21.6403431053359
20
5.53092976047492
30
0
41
1
10
21.6189603728398
20
5.51291952202376
30
0
41
1
10
21.6115431209205
20
5.50719464554416
30
0
41
1
10
21.5964570188402
20
5.49652908650145
30
0
41
1
10
21.5887541685168
20
5.4915574654853
30
0
41
1
10
21.5651865615503
20
5.47768476963978
30
0
41
1
10
21.5488655560664
20
5.46981928227152
30
0
41
1
10
21.5150376500416
20
5.45680967244004
30
0
41
1
10
21.497973394896
20
5.45183493909818
30
0
41
1
10
21.4636029977596
20
5.44467600751668
30
0
41
1
10
21.446237058748
20
5.4424906930814
30
0
41
1
10
21.39416944413
20
5.44006078995395
30
0
41
1
10
21.3606039107084
20
5.44386070823117
30
0
41
1
10
21.3281523379786
20
5.45254896641512
30
0
0
SPLINE
5
196
100
AcDbEntity
8
1
62
256
6
ByLayer
370
18
48
1
60
0
100
AcDbSpline
70
4
71
3
72
34
73
30
40
0
40
0
40
0
40
0
40
0.124999999999988
40
0.124999999999988
40
0.187499999999983
40
0.187499999999983
40
0.21874999999998
40
0.21874999999998
40
0.249999999999977
40
0.249999999999977
40
0.374999999999965
40
0.374999999999965
40
0.406249999999963
40
0.406249999999963
40
0.437499999999962
40
0.499999999999966
40
0.56249999999997
40
0.56249999999997
40
0.624999999999974
40
0.624999999999974
40
0.687499999999978
40
0.687499999999978
40
0.749999999999982
40
0.749999999999982
40
0.87499999999999
40
0.87499999999999
40
0.937499999999995
40
0.937499999999995
40
1
40
1
40
1
40
1
41
1
10
19.6818380304532
20
4.87390455985567
30
0
41
1
10
19.6683756044158
20
4.92280244741565
30
0
41
1
10
19.6504813479254
20
4.97039327330427
30
0
41
1
10
19.6165572925044
20
5.03994421350944
30
0
41
1
10
19.6040598537764
20
5.06282059910325
30
0
41
1
10
19.5833694218278
20
5.09667527743028
30
0
41
1
10
19.5761303535396
20
5.10790858875748
30
0
41
1
10
19.5610452042167
20
5.13010059627479
30
0
41
1
10
19.5532249960405
20
5.14102397035393
30
0
41
1
10
19.5127140095089
20
5.19477956517545
30
0
41
1
10
19.4758548429775
20
5.23506485514571
30
0
41
1
10
19.4233023422318
20
5.28171414448019
30
0
41
1
10
19.4124468477992
20
5.29086542607263
30
0
41
1
10
19.3904102324398
20
5.30849255858914
30
0
41
1
10
19.3567451854695
20
5.33403155123452
30
0
41
1
10
19.2976173881464
20
5.3721407418073
30
0
41
1
10
19.2470701322235
20
5.39784459108233
30
0
41
1
10
19.1948368936116
20
5.42106053729736
30
0
41
1
10
19.168506133695
20
5.43114515114499
30
0
41
1
10
19.1154811300859
20
5.4484693616773
30
0
41
1
10
19.0887774643553
20
5.45571226011586
30
0
41
1
10
19.0349752898996
20
5.4674740645799
30
0
41
1
10
19.007783602923
20
5.47198820416116
30
0
41
1
10
18.9275064791057
20
5.48133781453535
30
0
41
1
10
18.8750777532935
20
5.48220808685403
30
0
41
1
10
18.7975934411138
20
5.47637113204726
30
0
41
1
10
18.7718817194633
20
5.47320613060606
30
0
41
1
10
18.7212572052776
20
5.46457017437007
30
0
41
1
10
18.69636084904
20
5.45911188093092
30
0
41
1
10
18.6718476620214
20
5.45254896641512
30
0
0
SPLINE
5
197
100
AcDbEntity
8
1
62
256
6
ByLayer
370
18
48
1
60
0
100
AcDbSpline
70
4
71
3
72
24
73
20
40
0
40
0
40
0
40
0
40
0.062500000000007
40
0.062500000000007
40
0.125000000000014
40
0.125000000000014
40
0.250000000000017
40
0.250000000000017
40
0.312500000000018
40
0.312500000000018
40
0.375000000000019
40
0.375000000000019
40
0.500000000000016
40
0.500000000000016
40
0.625000000000014
40
0.625000000000014
40
0.750000000000011
40
0.750000000000011
40
1
40
1
40
1
40
1
41
1
10
18.3018189416602
20
5.60442311040484
30
0
41
1
10
18.3065686621776
20
5.59632139018686
30
0
41
1
10
18.3117102110135
20
5.58835019077264
30
0
41
1
10
18.322644678414
20
5.57290693429908
30
0
41
1
10
18.3283991722251
20
5.56548230486322
30
0
41
1
10
18.346492943595
20
5.54406724837236
30
0
41
1
10
18.3596568946641
20
5.53092976047492
30
0
41
1
10
18.3810396271602
20
5.51291952202376
30
0
41
1
10
18.3884568790795
20
5.50719464554416
30
0
41
1
10
18.4035429811598
20
5.49652908650145
30
0
41
1
10
18.4112458314832
20
5.4915574654853
30
0
41
1
10
18.4348134384497
20
5.47768476963978
30
0
41
1
10
18.4511344439336
20
5.46981928227152
30
0
41
1
10
18.4849623499584
20
5.45680967244004
30
0
41
1
10
18.502026605104
20
5.45183493909818
30
0
41
1
10
18.5363970022404
20
5.4446760075167
30
0
41
1
10
18.553762941252
20
5.4424906930814
30
0
41
1
10
18.60583055587
20
5.44006078995395
30
0
41
1
10
18.6393960892915
20
5.44386070823117
30
0
41
1
10
18.6718476620214
20
5.45254896641512
30
0
0
SPLINE
5
198
100
AcDbEntity
8
1
62
256
6
ByLayer
370
18
48
1
60
0
100
AcDbSpline
70
4
71
3
72
26
73
22
40
0
40
0
40
0
40
0
40
0.250000000000033
40
0.250000000000033
40
0.31250000000003
40
0.31250000000003
40
0.375000000000028
40
0.375000000000028
40
0.500000000000027
40
0.500000000000027
40
0.562500000000028
40
0.562500000000028
40
0.625000000000029
40
0.625000000000029
40
0.750000000000011
40
0.750000000000011
40
0.812500000000003
40
0.812500000000003
40
0.874999999999994
40
0.874999999999994
40
1
40
1
40
1
40
1
41
1
10
19.6818380304532
20
4.87390455985567
30
0
41
1
10
19.6907807694531
20
4.84142296665098
30
0
41
1
10
19.7045123677409
20
4.81053631026811
30
0
41
1
10
19.728164661171
20
4.77420148267819
30
0
41
1
10
19.7332504932269
20
4.76702254257583
30
0
41
1
10
19.7439469908236
20
4.75314060543948
30
0
41
1
10
19.7495666009289
20
4.74641840555307
30
0
41
1
10
19.7672404966507
20
4.72691327369097
30
0
41
1
10
19.7801042158832
20
4.71478719136354
30
0
41
1
10
19.8011189451321
20
4.69801059325081
30
0
41
1
10
19.8084116893909
20
4.69265488280678
30
0
41
1
10
19.8236083865561
20
4.68244843396363
30
0
41
1
10
19.8314588292887
20
4.67763788709573
30
0
41
1
10
19.8554562271619
20
4.66427550706149
30
0
41
1
10
19.8721665003504
20
4.65670309595527
30
0
41
1
10
19.8983294895866
20
4.64741602014865
30
0
41
1
10
19.9072343299035
20
4.64466726841729
30
0
41
1
10
19.9254292302567
20
4.63989830589611
30
0
41
1
10
19.9347154010501
20
4.63788547449548
30
0
41
1
10
19.9625187231474
20
4.63309641628661
30
0
41
1
10
19.98119104671
20
4.63149999999999
30
0
41
1
10
20
20
4.63149999999999
30
0
0
LINE
5
7D
100
AcDbEntity
8
81
62
256
6
ByLayer
370
18
48
1
60
0
100
AcDbLine
10
45.1
20
18
30
0
11
50.1
21
18
31
0
39
0
210
0
220
0
230
1
0
LINE
5
7E
100
AcDbEntity
8
80
62
256
6
ByLayer
370
18
48
1
60
0
100
AcDbLine
10
0
20
0
30
0
11
0
21
-5
31
0
39
0
210
0
220
0
230
1
0
LINE
5
7F
100
AcDbEntity
8
1
62
256
6
ByLayer
370
18
48
1
60
0
100
AcDbLine
10
20
20
0.675
30
0
11
20
21
0.875
31
0
39
0
210
0
220
0
230
1
0
LINE
5
80
100
AcDbEntity
8
1
62
256
6
ByLayer
370
18
48
1
60
0
100
AcDbLine
10
38.73
20
13.4
30
0
11
40.224301
21
13.4
31
0
39
0
210
0
220
0
230
1
0
LINE
5
81
100
AcDbEntity
8
1
62
256
6
ByLayer
370
18
48
1
60
0
100
AcDbLine
10
38.73
20
17.6
30
0
11
40.224301
21
17.6
31
0
39
0
210
0
220
0
230
1
0
LINE
5
82
100
AcDbEntity
8
1
62
256
6
ByLayer
370
18
48
1
60
0
100
AcDbLine
10
40.6
20
17.81691
30
0
11
40.224301
21
17.6
31
0
39
0
210
0
220
0
230
1
0
LINE
5
83
100
AcDbEntity
8
1
62
256
6
ByLayer
370
13
48
1
60
0
100
AcDbLine
10
37.1
20
15.48
30
0
11
38.037861
21
15.48
31
0
39
0
210
0
220
0
230
1
0
LINE
5
84
100
AcDbEntity
8
1
62
256
6
ByLayer
370
13
48
1
60
0
100
AcDbLine
10
37.1
20
15.52
30
0
11
38.037861
21
15.52
31
0
39
0
210
0
220
0
230
1
0
LINE
5
85
100
AcDbEntity
8
1
62
256
6
ByLayer
370
13
48
1
60
0
100
AcDbLine
10
37.099918
20
15.710736
30
0
11
38.028946
21
15.710736
31
0
39
0
210
0
220
0
230
1
0
LINE
5
86
100
AcDbEntity
8
1
62
256
6
ByLayer
370
13
48
1
60
0
100
AcDbLine
10
37.099918
20
15.289264
30
0
11
38.028946
21
15.289264
31
0
39
0
210
0
220
0
230
1
0
LINE
5
87
100
AcDbEntity
8
1
62
256
6
ByLayer
370
13
48
1
60
0
100
AcDbLine
10
37.002143
20
15.927733
30
0
11
37.848945
21
15.927733
31
0
39
0
210
0
220
0
230
1
0
LINE
5
88
100
AcDbEntity
8
1
62
256
6
ByLayer
370
13
48
1
60
0
100
AcDbLine
10
37.002143
20
15.072267
30
0
11
37.848945
21
15.072267
31
0
39
0
210
0
220
0
230
1
0
LINE
5
89
100
AcDbEntity
8
1
62
256
6
ByLayer
370
13
48
1
60
0
100
AcDbLine
10
37.690119
20
15.016915
30
0
11
36.886755
21
15.016915
31
0
39
0
210
0
220
0
230
1
0
LINE
5
8A
100
AcDbEntity
8
1
62
256
6
ByLayer
370
13
48
1
60
0
100
AcDbLine
10
37.690119
20
15.983085
30
0
11
36.886755
21
15.983085
31
0
39
0
210
0
220
0
230
1
0
LINE
5
8B
100
AcDbEntity
8
1
62
256
6
ByLayer
370
13
48
1
60
0
100
AcDbLine
10
36.849568
20
16.013888
30
0
11
37.649523
21
16.013888
31
0
39
0
210
0
220
0
230
1
0
LINE
5
8C
100
AcDbEntity
8
1
62
256
6
ByLayer
370
13
48
1
60
0
100
AcDbLine
10
36.84941
20
14.986112
30
0
11
37.649523
21
14.986112
31
0
39
0
210
0
220
0
230
1
0
LINE
5
8D
100
AcDbEntity
8
1
62
256
6
ByLayer
370
13
48
1
60
0
100
AcDbLine
10
36.836793
20
16.105665
30
0
11
37.577691
21
16.105665
31
0
39
0
210
0
220
0
230
1
0
LINE
5
8E
100
AcDbEntity
8
1
62
256
6
ByLayer
370
13
48
1
60
0
100
AcDbLine
10
36.83586
20
14.894335
30
0
11
37.577691
21
14.894335
31
0
39
0
210
0
220
0
230
1
0
LINE
5
8F
100
AcDbEntity
8
1
62
256
6
ByLayer
370
13
48
1
60
0
100
AcDbLine
10
36.829449
20
14.850066
30
0
11
37.557959
21
14.850066
31
0
39
0
210
0
220
0
230
1
0
LINE
5
90
100
AcDbEntity
8
1
62
256
6
ByLayer
370
13
48
1
60
0
100
AcDbLine
10
36.830688
20
16.149934
30
0
11
37.557959
21
16.149934
31
0
39
0
210
0
220
0
230
1
0
LINE
5
91
100
AcDbEntity
8
1
62
256
6
ByLayer
370
13
48
1
60
0
100
AcDbLine
10
36.654536
20
13.658616
30
0
11
37.347874
21
13.658616
31
0
39
0
210
0
220
0
230
1
0
LINE
5
92
100
AcDbEntity
8
1
62
256
6
ByLayer
370
13
48
1
60
0
100
AcDbLine
10
36.650678
20
17.341384
30
0
11
37.347874
21
17.341384
31
0
39
0
210
0
220
0
230
1
0
LINE
5
93
100
AcDbEntity
8
1
62
256
6
ByLayer
370
18
48
1
60
0
100
AcDbLine
10
38.73
20
13.4
30
0
11
38.73
21
17.6
31
0
39
0
210
0
220
0
230
1
0
LINE
5
94
100
AcDbEntity
8
1
62
256
6
ByLayer
370
18
48
1
60
0
100
AcDbLine
10
37.346355
20
17.6
30
0
11
38.73
21
17.6
31
0
39
0
210
0
220
0
230
1
0
LINE
5
95
100
AcDbEntity
8
1
62
256
6
ByLayer
370
18
48
1
60
0
100
AcDbLine
10
37.557959
20
16.149934
30
0
11
37.347874
21
17.341384
31
0
39
0
210
0
220
0
230
1
0
LINE
5
96
100
AcDbEntity
8
1
62
256
6
ByLayer
370
18
48
1
60
0
100
AcDbLine
10
37.649523
20
16.013888
30
0
11
37.577691
21
16.105665
31
0
39
0
210
0
220
0
230
1
0
LINE
5
97
100
AcDbEntity
8
1
62
256
6
ByLayer
370
18
48
1
60
0
100
AcDbLine
10
38.037861
20
15.48
30
0
11
38.037861
21
15.52
31
0
39
0
210
0
220
0
230
1
0
LINE
5
98
100
AcDbEntity
8
1
62
256
6
ByLayer
370
18
48
1
60
0
100
AcDbLine
10
37.649523
20
14.986112
30
0
11
37.577691
21
14.894335
31
0
39
0
210
0
220
0
230
1
0
LINE
5
99
100
AcDbEntity
8
1
62
256
6
ByLayer
370
18
48
1
60
0
100
AcDbLine
10
37.557959
20
14.850066
30
0
11
37.347874
21
13.658616
31
0
39
0
210
0
220
0
230
1
0
LINE
5
9A
100
AcDbEntity
8
1
62
256
6
ByLayer
370
18
48
1
60
0
100
AcDbLine
10
37.346355
20
13.4
30
0
11
38.73
21
13.4
31
0
39
0
210
0
220
0
230
1
0
LINE
5
9B
100
AcDbEntity
8
1
62
256
6
ByLayer
370
13
48
1
60
0
100
AcDbLine
10
36.648047
20
17.358749
30
0
11
37.346355
21
17.358749
31
0
39
0
210
0
220
0
230
1
0
LINE
5
9C
100
AcDbEntity
8
1
62
256
6
ByLayer
370
18
48
1
60
0
100
AcDbLine
10
37.346355
20
17.358749
30
0
11
37.346355
21
17.6
31
0
39
0
210
0
220
0
230
1
0
LINE
5
9D
100
AcDbEntity
8
1
62
256
6
ByLayer
370
18
48
1
60
0
100
AcDbLine
10
36.611115
20
17.6
30
0
11
37.346355
21
17.6
31
0
39
0
210
0
220
0
230
1
0
LINE
5
9E
100
AcDbEntity
8
1
62
256
6
ByLayer
370
13
48
1
60
0
100
AcDbLine
10
36.652052
20
13.641251
30
0
11
37.346355
21
13.641251
31
0
39
0
210
0
220
0
230
1
0
LINE
5
9F
100
AcDbEntity
8
1
62
256
6
ByLayer
370
18
48
1
60
0
100
AcDbLine
10
36.61156
20
13.4
30
0
11
37.346355
21
13.4
31
0
39
0
210
0
220
0
230
1
0
LINE
5
A0
100
AcDbEntity
8
1
62
256
6
ByLayer
370
18
48
1
60
0
100
AcDbLine
10
37.346355
20
13.641251
30
0
11
37.346355
21
13.4
31
0
39
0
210
0
220
0
230
1
0
LINE
5
A1
100
AcDbEntity
8
1
62
256
6
ByLayer
370
18
48
1
60
0
100
AcDbLine
10
40.6
20
13.18309
30
0
11
40.224301
21
13.4
31
0
39
0
210
0
220
0
230
1
0
LINE
5
A2
100
AcDbEntity
8
1
62
256
6
ByLayer
370
18
48
1
60
0
100
AcDbLine
10
45.1
20
13.3
30
0
11
45.1
21
17.7
31
0
39
0
210
0
220
0
230
1
0
LINE
5
A3
100
AcDbEntity
8
1
62
256
6
ByLayer
370
18
48
1
60
0
100
AcDbLine
10
44.786914
20
17.999714
30
0
11
40.6
21
17.81691
31
0
39
0
210
0
220
0
230
1
0
LINE
5
A4
100
AcDbEntity
8
1
62
256
6
ByLayer
370
18
48
1
60
0
100
AcDbLine
10
44.786914
20
13.000286
30
0
11
40.6
21
13.18309
31
0
39
0
210
0
220
0
230
1
0
LINE
5
A5
100
AcDbEntity
8
1
62
256
6
ByLayer
370
18
48
1
60
0
100
AcDbLine
10
9.863043
20
-0.324981
30
0
11
11.476486
21
-0.324981
31
0
39
0
210
0
220
0
230
1
0
LINE
5
A6
100
AcDbEntity
8
1
62
256
6
ByLayer
370
18
48
1
60
0
100
AcDbLine
10
11.476746
20
-0.324981
30
0
11
11.592073
21
-0.324981
31
0
39
0
210
0
220
0
230
1
0
LINE
5
A7
100
AcDbEntity
8
1
62
256
6
ByLayer
370
18
48
1
60
0
100
AcDbLine
10
11.700309
20
-0.324981
30
0
11
12.078907
21
-0.324981
31
0
39
0
210
0
220
0
230
1
0
LINE
5
A8
100
AcDbEntity
8
1
62
256
6
ByLayer
370
18
48
1
60
0
100
AcDbLine
10
35.436768
20
17.717265
30
0
11
35.436924
21
17.805006
31
0
39
0
210
0
220
0
230
1
0
LINE
5
A9
100
AcDbEntity
8
1
62
256
6
ByLayer
370
18
48
1
60
0
100
AcDbLine
10
37.906193
20
17.599989
30
0
11
37.906554
21
17.802234
31
0
39
0
210
0
220
0
230
1
0
LINE
5
AA
100
AcDbEntity
8
1
62
256
6
ByLayer
370
18
48
1
60
0
100
AcDbLine
10
12.159145
20
-0.324981
30
0
11
18.777518
21
-0.324981
31
0
39
0
210
0
220
0
230
1
0
LINE
5
AB
100
AcDbEntity
8
1
62
256
6
ByLayer
370
18
48
1
60
0
100
AcDbLine
10
10.085407
20
-0.25
30
0
11
12.112448
21
-0.25
31
0
39
0
210
0
220
0
230
1
0
LINE
5
AC
100
AcDbEntity
8
1
62
256
6
ByLayer
370
13
48
1
60
0
100
AcDbLine
10
10.085505
20
-0.249981
30
0
11
18.872922
21
-0.249981
31
0
39
0
210
0
220
0
230
1
0
LINE
5
AD
100
AcDbEntity
8
1
62
256
6
ByLayer
370
18
48
1
60
0
100
AcDbLine
10
19.287063
20
0.129904
30
0
11
10.971714
21
0.129904
31
0
39
0
210
0
220
0
230
1
0
LINE
5
AE
100
AcDbEntity
8
1
62
256
6
ByLayer
370
18
48
1
60
0
100
AcDbLine
10
15.581547
20
18.956547
30
0
11
17.709547
21
21.084547
31
0
39
0
210
0
220
0
230
1
0
LINE
5
AF
100
AcDbEntity
8
1
62
256
6
ByLayer
370
18
48
1
60
0
100
AcDbLine
10
33.345155
20
17.805006
30
0
11
35.436924
21
17.805006
31
0
39
0
210
0
220
0
230
1
0
LINE
5
B0
100
AcDbEntity
8
1
62
256
6
ByLayer
370
18
48
1
60
0
100
AcDbLine
10
37.906554
20
17.802234
30
0
11
40.574671
21
17.802234
31
0
39
0
210
0
220
0
230
1
0
LINE
5
B1
100
AcDbEntity
8
1
62
256
6
ByLayer
370
18
48
1
60
0
100
AcDbLine
10
44.1
20
18.151548
30
0
11
44.1
21
17.969722
31
0
39
0
210
0
220
0
230
1
0
LINE
5
B2
100
AcDbEntity
8
1
62
256
6
ByLayer
370
18
48
1
60
0
100
AcDbLine
10
37.1
20
15.774969
30
0
11
37.1
21
15.225031
31
0
39
0
210
0
220
0
230
1
0
LINE
5
B3
100
AcDbEntity
8
1
62
256
6
ByLayer
370
18
48
1
60
0
100
AcDbLine
10
36.59568
20
17.688987
30
0
11
36.608056
21
17.620716
31
0
39
0
210
0
220
0
230
1
0
LINE
5
B4
100
AcDbEntity
8
1
62
256
6
ByLayer
370
18
48
1
60
0
100
AcDbLine
10
-17.993925
20
-0.324981
30
0
11
-17.500052
21
-0.324981
31
0
39
0
210
0
220
0
230
1
0
LINE
5
B5
100
AcDbEntity
8
1
62
256
6
ByLayer
370
18
48
1
60
0
100
AcDbLine
10
-12.088254
20
-0.324981
30
0
11
-11.914321
21
-0.324981
31
0
39
0
210
0
220
0
230
1
0
LINE
5
B6
100
AcDbEntity
8
1
62
256
6
ByLayer
370
13
48
1
60
0
100
AcDbLine
10
-18.028729
20
-0.249981
30
0
11
-17.635485
21
-0.249981
31
0
39
0
210
0
220
0
230
1
0
LINE
5
B7
100
AcDbEntity
8
1
62
256
6
ByLayer
370
13
48
1
60
0
100
AcDbLine
10
-18.581248
20
0.394519
30
0
11
-18.473911
21
0.394519
31
0
39
0
210
0
220
0
230
1
0
LINE
5
B8
100
AcDbEntity
8
1
62
256
6
ByLayer
370
18
48
1
60
0
100
AcDbLine
10
-17.413473
20
-0.324981
30
0
11
-16.786972
21
-0.324981
31
0
39
0
210
0
220
0
230
1
0
LINE
5
B9
100
AcDbEntity
8
1
62
256
6
ByLayer
370
18
48
1
60
0
100
AcDbLine
10
-13.593357
20
-0.324981
30
0
11
-13.533459
21
-0.324981
31
0
39
0
210
0
220
0
230
1
0
LINE
5
BA
100
AcDbEntity
8
1
62
256
6
ByLayer
370
13
48
1
60
0
100
AcDbLine
10
-17.438264
20
-0.249981
30
0
11
-16.939731
21
-0.249981
31
0
39
0
210
0
220
0
230
1
0
LINE
5
BB
100
AcDbEntity
8
1
62
256
6
ByLayer
370
13
48
1
60
0
100
AcDbLine
10
-17.977888
20
0.394519
30
0
11
-17.842224
21
0.394519
31
0
39
0
210
0
220
0
230
1
0
LINE
5
BC
100
AcDbEntity
8
1
62
256
6
ByLayer
370
18
48
1
60
0
100
AcDbLine
10
-16.678631
20
-0.324981
30
0
11
-15.90146
21
-0.324981
31
0
39
0
210
0
220
0
230
1
0
LINE
5
BD
100
AcDbEntity
8
1
62
256
6
ByLayer
370
13
48
1
60
0
100
AcDbLine
10
-16.692843
20
-0.249981
30
0
11
-16.07471
21
-0.249981
31
0
39
0
210
0
220
0
230
1
0
LINE
5
BE
100
AcDbEntity
8
1
62
256
6
ByLayer
370
13
48
1
60
0
100
AcDbLine
10
-17.223418
20
0.394519
30
0
11
-17.055876
21
0.394519
31
0
39
0
210
0
220
0
230
1
0
LINE
5
BF
100
AcDbEntity
8
1
62
256
6
ByLayer
370
18
48
1
60
0
100
AcDbLine
10
-15.767828
20
-0.324981
30
0
11
-14.812472
21
-0.324981
31
0
39
0
210
0
220
0
230
1
0
LINE
5
C0
100
AcDbEntity
8
1
62
256
6
ByLayer
370
13
48
1
60
0
100
AcDbLine
10
-15.77051
20
-0.249981
30
0
11
-15.011304
21
-0.249981
31
0
39
0
210
0
220
0
230
1
0
LINE
5
C1
100
AcDbEntity
8
1
62
256
6
ByLayer
370
13
48
1
60
0
100
AcDbLine
10
-16.296865
20
0.394519
30
0
11
-16.09229
21
0.394519
31
0
39
0
210
0
220
0
230
1
0
LINE
5
C2
100
AcDbEntity
8
1
62
256
6
ByLayer
370
13
48
1
60
0
100
AcDbLine
10
27.1
20
14.095614
30
0
11
27.1
21
13.34643
31
0
39
0
210
0
220
0
230
1
0
LINE
5
C3
100
AcDbEntity
8
1
62
256
6
ByLayer
370
18
48
1
60
0
100
AcDbLine
10
-14.64828
20
-0.324981
30
0
11
-13.593304
21
-0.324981
31
0
39
0
210
0
220
0
230
1
0
LINE
5
C4
100
AcDbEntity
8
1
62
256
6
ByLayer
370
13
48
1
60
0
100
AcDbLine
10
-14.637861
20
-0.249981
30
0
11
-13.703342
21
-0.249981
31
0
39
0
210
0
220
0
230
1
0
LINE
5
C5
100
AcDbEntity
8
1
62
256
6
ByLayer
370
13
48
1
60
0
100
AcDbLine
10
-15.166723
20
0.394519
30
0
11
-14.917111
21
0.394519
31
0
39
0
210
0
220
0
230
1
0
LINE
5
C6
100
AcDbEntity
8
1
62
256
6
ByLayer
370
18
48
1
60
0
100
AcDbLine
10
-13.267245
20
-0.324981
30
0
11
-12.088194
21
-0.324981
31
0
39
0
210
0
220
0
230
1
0
LINE
5
C7
100
AcDbEntity
8
1
62
256
6
ByLayer
370
13
48
1
60
0
100
AcDbLine
10
-13.241033
20
-0.249981
30
0
11
-12.071604
21
-0.249981
31
0
39
0
210
0
220
0
230
1
0
LINE
5
C8
100
AcDbEntity
8
1
62
256
6
ByLayer
370
13
48
1
60
0
100
AcDbLine
10
-13.783002
20
0.394519
30
0
11
-13.474849
21
0.394519
31
0
39
0
210
0
220
0
230
1
0
LINE
5
C9
100
AcDbEntity
8
1
62
256
6
ByLayer
370
18
48
1
60
0
100
AcDbLine
10
13.51676
20
17.375
30
0
11
13.235114
21
17.375
31
0
39
0
210
0
220
0
230
1
0
LINE
5
CA
100
AcDbEntity
8
1
62
256
6
ByLayer
370
18
48
1
60
0
100
AcDbLine
10
13.932861
20
0.675
30
0
11
13.198176
21
0.675
31
0
39
0
210
0
220
0
230
1
0
LINE
5
CB
100
AcDbEntity
8
1
62
256
6
ByLayer
370
18
48
1
60
0
100
AcDbLine
10
14.272209
20
1.375
30
0
11
14.39618
21
1.375
31
0
39
0
210
0
220
0
230
1
0
LINE
5
CC
100
AcDbEntity
8
1
62
256
6
ByLayer
370
18
48
1
60
0
100
AcDbLine
10
13.932861
20
0.675
30
0
11
13.932861
21
0.875
31
0
39
0
210
0
220
0
230
1
0
LINE
5
CD
100
AcDbEntity
8
1
62
256
6
ByLayer
370
18
48
1
60
0
100
AcDbLine
10
25.5
20
3.278172
30
0
11
23.231888
21
1.375
31
0
39
0
210
0
220
0
230
1
0
LINE
5
CE
100
AcDbEntity
8
1
62
256
6
ByLayer
370
18
48
1
60
0
100
AcDbLine
10
25.5
20
3.278172
30
0
11
25.5
21
12.69487
31
0
39
0
210
0
220
0
230
1
0
LINE
5
CF
100
AcDbEntity
8
1
62
256
6
ByLayer
370
18
48
1
60
0
100
AcDbLine
10
33.6
20
17.793468
30
0
11
33.6
21
13.481742
31
0
39
0
210
0
220
0
230
1
0
LINE
5
D0
100
AcDbEntity
8
1
62
256
6
ByLayer
370
18
48
1
60
0
100
AcDbLine
10
21.384526
20
1.375
30
0
11
23.231888
21
1.375
31
0
39
0
210
0
220
0
230
1
0
LINE
5
D1
100
AcDbEntity
8
1
62
256
6
ByLayer
370
18
48
1
60
0
100
AcDbLine
10
14.39618
20
17.638355
30
0
11
14.39618
21
1.375
31
0
39
0
210
0
220
0
230
1
0
LINE
5
D2
100
AcDbEntity
8
1
62
256
6
ByLayer
370
18
48
1
60
0
100
AcDbLine
10
21.384526
20
1.375
30
0
11
14.39618
21
1.375
31
0
39
0
210
0
220
0
230
1
0
LINE
5
D3
100
AcDbEntity
8
1
62
256
6
ByLayer
370
18
48
1
60
0
100
AcDbLine
10
21.384526
20
1.375
30
0
11
21.384526
21
2.265766
31
0
39
0
210
0
220
0
230
1
0
LINE
5
D4
100
AcDbEntity
8
1
62
256
6
ByLayer
370
18
48
1
60
0
100
AcDbLine
10
21.384526
20
10.934234
30
0
11
21.384526
21
18.956525
31
0
39
0
210
0
220
0
230
1
0
LINE
5
D5
100
AcDbEntity
8
1
62
256
6
ByLayer
370
18
48
1
60
0
100
AcDbLine
10
15.581525
20
18.956525
30
0
11
15
21
18.375
31
0
39
0
210
0
220
0
230
1
0
LINE
5
D6
100
AcDbEntity
8
1
62
256
6
ByLayer
370
18
48
1
60
0
100
AcDbLine
10
15.581525
20
18.956525
30
0
11
21.384526
21
18.956525
31
0
39
0
210
0
220
0
230
1
0
LINE
5
D7
100
AcDbEntity
8
1
62
256
6
ByLayer
370
18
48
1
60
0
100
AcDbLine
10
-11.531153
20
-0.324981
30
0
11
-9.594947
21
-0.324981
31
0
39
0
210
0
220
0
230
1
0
LINE
5
D8
100
AcDbEntity
8
1
62
256
6
ByLayer
370
13
48
1
60
0
100
AcDbLine
10
-11.48403
20
-0.249981
30
0
11
-9.957988
21
-0.249981
31
0
39
0
210
0
220
0
230
1
0
LINE
5
D9
100
AcDbEntity
8
1
62
256
6
ByLayer
370
13
48
1
60
0
100
AcDbLine
10
9.958064
20
-0.249981
30
0
11
10.085459
21
-0.249981
31
0
39
0
210
0
220
0
230
1
0
LINE
5
DA
100
AcDbEntity
8
1
62
256
6
ByLayer
370
13
48
1
60
0
100
AcDbLine
10
-12.058724
20
0.394519
30
0
11
-11.667722
21
0.394519
31
0
39
0
210
0
220
0
230
1
0
LINE
5
DB
100
AcDbEntity
8
1
62
256
6
ByLayer
370
18
48
1
60
0
100
AcDbLine
10
-9.242033
20
-0.324981
30
0
11
-6.372959
21
-0.324981
31
0
39
0
210
0
220
0
230
1
0
LINE
5
DC
100
AcDbEntity
8
1
62
256
6
ByLayer
370
18
48
1
60
0
100
AcDbLine
10
6.372959
20
-0.324981
30
0
11
9.242033
21
-0.324981
31
0
39
0
210
0
220
0
230
1
0
LINE
5
DD
100
AcDbEntity
8
1
62
256
6
ByLayer
370
13
48
1
60
0
100
AcDbLine
10
-9.161928
20
-0.249981
30
0
11
-6.935866
21
-0.249981
31
0
39
0
210
0
220
0
230
1
0
LINE
5
DE
100
AcDbEntity
8
1
62
256
6
ByLayer
370
13
48
1
60
0
100
AcDbLine
10
6.935866
20
-0.249981
30
0
11
9.161928
21
-0.249981
31
0
39
0
210
0
220
0
230
1
0
LINE
5
DF
100
AcDbEntity
8
1
62
256
6
ByLayer
370
13
48
1
60
0
100
AcDbLine
10
-9.816033
20
0.394519
30
0
11
-9.284126
21
0.394519
31
0
39
0
210
0
220
0
230
1
0
LINE
5
E0
100
AcDbEntity
8
1
62
256
6
ByLayer
370
13
48
1
60
0
100
AcDbLine
10
9.284126
20
0.394519
30
0
11
9.816033
21
0.394519
31
0
39
0
210
0
220
0
230
1
0
LINE
5
E1
100
AcDbEntity
8
1
62
256
6
ByLayer
370
18
48
1
60
0
100
AcDbLine
10
-5.776059
20
-0.324981
30
0
11
5.776059
21
-0.324981
31
0
39
0
210
0
220
0
230
1
0
LINE
5
E2
100
AcDbEntity
8
1
62
256
6
ByLayer
370
13
48
1
60
0
100
AcDbLine
10
-5.612388
20
-0.249981
30
0
11
5.612388
21
-0.249981
31
0
39
0
210
0
220
0
230
1
0
LINE
5
E3
100
AcDbEntity
8
1
62
256
6
ByLayer
370
13
48
1
60
0
100
AcDbLine
10
-6.541878
20
0.394519
30
0
11
-5.63501
21
0.394519
31
0
39
0
210
0
220
0
230
1
0
LINE
5
E4
100
AcDbEntity
8
1
62
256
6
ByLayer
370
13
48
1
60
0
100
AcDbLine
10
5.63501
20
0.394519
30
0
11
6.541878
21
0.394519
31
0
39
0
210
0
220
0
230
1
0
LINE
5
E5
100
AcDbEntity
8
1
62
256
6
ByLayer
370
18
48
1
60
0
100
AcDbLine
10
-19
20
0.675
30
0
11
-19
21
0.875
31
0
39
0
210
0
220
0
230
1
0
LINE
5
E6
100
AcDbEntity
8
1
62
256
6
ByLayer
370
18
48
1
60
0
100
AcDbLine
10
11.871309
20
0.675
30
0
11
13.198251
21
0.675
31
0
39
0
210
0
220
0
230
1
0
LINE
5
E7
100
AcDbEntity
8
1
62
256
6
ByLayer
370
18
48
1
60
0
100
AcDbLine
10
13.198251
20
0.875
30
0
11
13.198251
21
0.675
31
0
39
0
210
0
220
0
230
1
0
LINE
5
E8
100
AcDbEntity
8
1
62
256
6
ByLayer
370
18
48
1
60
0
100
AcDbLine
10
11.008951
20
1.375
30
0
11
8.2521
21
1.375
31
0
39
0
210
0
220
0
230
1
0
LINE
5
E9
100
AcDbEntity
8
1
62
256
6
ByLayer
370
18
48
1
60
0
100
AcDbLine
10
13.235223
20
17.375
30
0
11
8.2521
21
17.375
31
0
39
0
210
0
220
0
230
1
0
LINE
5
EA
100
AcDbEntity
8
1
62
256
6
ByLayer
370
18
48
1
60
0
100
AcDbLine
10
13.235223
20
1.10195
30
0
11
13.235223
21
17.375
31
0
39
0
210
0
220
0
230
1
0
LINE
5
EB
100
AcDbEntity
8
1
62
256
6
ByLayer
370
18
48
1
60
0
100
AcDbLine
10
0
20
17.375
30
0
11
-7.725
21
17.375
31
0
39
0
210
0
220
0
230
1
0
LINE
5
EC
100
AcDbEntity
8
1
62
256
6
ByLayer
370
18
48
1
60
0
100
AcDbLine
10
-7.725
20
17.375
30
0
11
-19
21
6.1
31
0
39
0
210
0
220
0
230
1
0
LINE
5
ED
100
AcDbEntity
8
1
62
256
6
ByLayer
370
18
48
1
60
0
100
AcDbLine
10
-19
20
6.1
30
0
11
-19
21
1.092945
31
0
39
0
210
0
220
0
230
1
0
LINE
5
EE
100
AcDbEntity
8
1
62
256
6
ByLayer
370
18
48
1
60
0
100
AcDbLine
10
8.2521
20
1.375
30
0
11
4.271709
21
1.375
31
0
39
0
210
0
220
0
230
1
0
LINE
5
EF
100
AcDbEntity
8
1
62
256
6
ByLayer
370
18
48
1
60
0
100
AcDbLine
10
8.2521
20
17.375
30
0
11
0
21
17.375
31
0
39
0
210
0
220
0
230
1
0
LINE
5
F0
100
AcDbEntity
8
1
62
256
6
ByLayer
370
13
48
1
60
0
100
AcDbLine
10
0
20
17.375
30
0
11
0
21
1.092945
31
0
39
0
210
0
220
0
230
1
0
LINE
5
F1
100
AcDbEntity
8
1
62
256
6
ByLayer
370
18
48
1
60
0
100
AcDbLine
10
8.2521
20
17.375
30
0
11
8.2521
21
1.375
31
0
39
0
210
0
220
0
230
1
0
LINE
5
F2
100
AcDbEntity
8
1
62
256
6
ByLayer
370
13
48
1
60
0
100
AcDbLine
10
13.198251
20
0.875
30
0
11
-19
21
0.875
31
0
39
0
210
0
220
0
230
1
0
LINE
5
F3
100
AcDbEntity
8
1
62
256
6
ByLayer
370
18
48
1
60
0
100
AcDbLine
10
0
20
1.092945
30
0
11
-19
21
1.092945
31
0
39
0
210
0
220
0
230
1
0
LINE
5
F4
100
AcDbEntity
8
1
62
256
6
ByLayer
370
18
48
1
60
0
100
AcDbLine
10
-17.993925
20
-0.324981
30
0
11
-18.000019
21
-0.324981
31
0
39
0
210
0
220
0
230
1
0
LINE
5
F5
100
AcDbEntity
8
1
62
256
6
ByLayer
370
18
48
1
60
0
100
AcDbLine
10
-17.413473
20
-0.324981
30
0
11
-17.50006
21
-0.324981
31
0
39
0
210
0
220
0
230
1
0
LINE
5
F6
100
AcDbEntity
8
1
62
256
6
ByLayer
370
18
48
1
60
0
100
AcDbLine
10
-16.678631
20
-0.324981
30
0
11
-16.787031
21
-0.324981
31
0
39
0
210
0
220
0
230
1
0
LINE
5
F7
100
AcDbEntity
8
1
62
256
6
ByLayer
370
18
48
1
60
0
100
AcDbLine
10
-15.767828
20
-0.324981
30
0
11
-15.901469
21
-0.324981
31
0
39
0
210
0
220
0
230
1
0
LINE
5
F8
100
AcDbEntity
8
1
62
256
6
ByLayer
370
18
48
1
60
0
100
AcDbLine
10
-14.64828
20
-0.324981
30
0
11
-14.812462
21
-0.324981
31
0
39
0
210
0
220
0
230
1
0
LINE
5
F9
100
AcDbEntity
8
1
62
256
6
ByLayer
370
18
48
1
60
0
100
AcDbLine
10
-13.267245
20
-0.324981
30
0
11
-13.470759
21
-0.324981
31
0
39
0
210
0
220
0
230
1
0
LINE
5
FA
100
AcDbEntity
8
1
62
256
6
ByLayer
370
18
48
1
60
0
100
AcDbLine
10
-11.531153
20
-0.324981
30
0
11
-11.790405
21
-0.324981
31
0
39
0
210
0
220
0
230
1
0
LINE
5
FB
100
AcDbEntity
8
1
62
256
6
ByLayer
370
18
48
1
60
0
100
AcDbLine
10
-9.242033
20
-0.324981
30
0
11
-9.595101
21
-0.324981
31
0
39
0
210
0
220
0
230
1
0
LINE
5
FC
100
AcDbEntity
8
1
62
256
6
ByLayer
370
18
48
1
60
0
100
AcDbLine
10
-5.776059
20
-0.324981
30
0
11
-6.373247
21
-0.324981
31
0
39
0
210
0
220
0
230
1
0
LINE
5
FD
100
AcDbEntity
8
1
62
256
6
ByLayer
370
18
48
1
60
0
100
AcDbLine
10
6.373247
20
-0.324981
30
0
11
5.776059
21
-0.324981
31
0
39
0
210
0
220
0
230
1
0
LINE
5
FE
100
AcDbEntity
8
1
62
256
6
ByLayer
370
18
48
1
60
0
100
AcDbLine
10
9.595101
20
-0.324981
30
0
11
9.242033
21
-0.324981
31
0
39
0
210
0
220
0
230
1
0
LINE
5
FF
100
AcDbEntity
8
1
62
256
6
ByLayer
370
18
48
1
60
0
100
AcDbLine
10
-19
20
0.675
30
0
11
11.871309
21
0.675
31
0
39
0
210
0
220
0
230
1
0
LINE
5
100
100
AcDbEntity
8
1
62
256
6
ByLayer
370
18
48
1
60
0
100
AcDbLine
10
36.608056
20
13.379284
30
0
11
36.601544
21
13.34336
31
0
39
0
210
0
220
0
230
1
0
LINE
5
101
100
AcDbEntity
8
1
62
256
6
ByLayer
370
18
48
1
60
0
100
AcDbLine
10
20
20
0.675
30
0
11
13.932861
21
0.675
31
0
39
0
210
0
220
0
230
1
0
LINE
5
102
100
AcDbEntity
8
1
62
256
6
ByLayer
370
13
48
1
60
0
100
AcDbLine
10
20
20
0.875
30
0
11
13.932861
21
0.875
31
0
39
0
210
0
220
0
230
1
0
LINE
5
103
100
AcDbEntity
8
1
62
256
6
ByLayer
370
18
48
1
60
0
100
AcDbLine
10
34.813841
20
21.441113
30
0
11
24.28645
21
21.441113
31
0
39
0
210
0
220
0
230
1
0
MTEXT
5
199
100
AcDbEntity
8
SK6
62
256
6
ByLayer
370
18
48
1
60
0
100
AcDbMText
10
-19.2645
20
-45.99681
30
0
210
0
220
0
230
1
1
\W0.7666;C2A-SL40-LGJ18B-120GB
40
3.5
41
0
44
1.084337
50
0
71
7
72
5
7
iso_b_vert
0
DIMENSION
5
19E
100
AcDbEntity
8
2
62
256
6
ByLayer
370
18
48
1
60
0
100
AcDbDimension
2
_U0
10
45.1
20
-19.75
30
0
11
22.55
21
-19.75
31
0
70
32
71
1
72
1
41
1
210
0
220
0
230
1
3
Standard
100
AcDbAlignedDimension
13
0
23
0
33
0
14
45.1
24
18
34
0
50
0
100
AcDbRotatedDimension
1001
ACAD
1000
DSTYLE
1002
{
1070
   371
1070
    13
1070
   372
1070
    13
1070
   170
1070
     0
1070
   144
1040
1.0
1070
   277
1070
     2
1070
   284
1070
     8
1070
   278
1070
    46
1070
   146
1040
1.0
1070
   345
1005
16
1070
   347
1005
16
1070
   346
1005
16
1070
   344
1005
0
1070
   343
1005
0
1070
   172
1070
     1
1070
    76
1070
     0
1070
    75
1070
     0
1070
   282
1070
     0
1070
   281
1070
     0
1070
    71
1070
     0
1070
    74
1070
     0
1070
   279
1070
     0
1070
   173
1070
     1
1070
   340
1005
19A
1070
   271
1070
     2
1070
   272
1070
     2
1070
    77
1070
     1
1070
    73
1070
     1
1070
   171
1070
     3
1070
   274
1070
     4
1070
   177
1070
     2
1070
   176
1070
     2
1070
   178
1070
     2
1070
    78
1070
     8
1070
    48
1040
-0.1
1070
    41
1040
3.5
1070
   147
1040
1.75
1070
    42
1040
1.5875
1070
    44
1040
2.0
1070
   140
1040
3.5
1002
}
1001
ACAD_DSTYLE_DIM_LINETYPE
1070
   380
1005
16
1001
ACAD_DSTYLE_DIM_EXT1_LINETYPE
1070
   381
1005
16
1001
ACAD_DSTYLE_DIM_EXT2_LINETYPE
1070
   382
1005
16
0
DIMENSION
5
1B8
100
AcDbEntity
8
2
62
256
6
ByLayer
370
18
48
1
60
0
100
AcDbDimension
2
_U1
10
45.1
20
-11.75
30
0
11
36.1
21
-11.75
31
0
70
32
71
1
72
1
41
1
210
0
220
0
230
1
3
Standard
100
AcDbAlignedDimension
13
27.1
23
13.325
33
0
14
45.1
24
18
34
0
50
0
100
AcDbRotatedDimension
1001
ACAD
1000
DSTYLE
1002
{
1070
   371
1070
    13
1070
   372
1070
    13
1070
   170
1070
     0
1070
   144
1040
1.0
1070
   277
1070
     2
1070
   284
1070
     8
1070
   278
1070
    46
1070
   146
1040
1.0
1070
   345
1005
16
1070
   347
1005
16
1070
   346
1005
16
1070
   344
1005
0
1070
   343
1005
0
1070
   172
1070
     1
1070
    76
1070
     0
1070
    75
1070
     0
1070
   282
1070
     0
1070
   281
1070
     0
1070
    71
1070
     0
1070
    74
1070
     0
1070
   279
1070
     0
1070
   173
1070
     1
1070
   340
1005
19A
1070
   271
1070
     2
1070
   272
1070
     2
1070
    77
1070
     1
1070
    73
1070
     1
1070
   171
1070
     3
1070
   274
1070
     4
1070
   177
1070
     2
1070
   176
1070
     2
1070
   178
1070
     2
1070
    78
1070
     8
1070
    48
1040
-0.1
1070
    41
1040
3.5
1070
   147
1040
1.75
1070
    42
1040
1.5875
1070
    44
1040
2.0
1070
   140
1040
3.5
1002
}
1001
ACAD_DSTYLE_DIM_LINETYPE
1070
   380
1005
16
1001
ACAD_DSTYLE_DIM_EXT1_LINETYPE
1070
   381
1005
16
1001
ACAD_DSTYLE_DIM_EXT2_LINETYPE
1070
   382
1005
16
0
DIMENSION
5
1D0
100
AcDbEntity
8
2
62
256
6
ByLayer
370
18
48
1
60
0
100
AcDbDimension
2
_U2
10
69.85
20
0
30
0
11
69.85
21
9
31
0
70
32
71
1
72
1
41
1
210
0
220
0
230
1
3
Standard
100
AcDbAlignedDimension
13
45.1
23
18
33
0
14
0
24
0
34
0
50
90
100
AcDbRotatedDimension
1001
ACAD
1000
DSTYLE
1002
{
1070
   371
1070
    13
1070
   372
1070
    13
1070
   170
1070
     0
1070
   144
1040
1.0
1070
   277
1070
     2
1070
   284
1070
     8
1070
   278
1070
    46
1070
   146
1040
1.0
1070
   345
1005
16
1070
   347
1005
16
1070
   346
1005
16
1070
   344
1005
0
1070
   343
1005
0
1070
   172
1070
     1
1070
    76
1070
     0
1070
    75
1070
     0
1070
   282
1070
     0
1070
   281
1070
     0
1070
    71
1070
     0
1070
    74
1070
     0
1070
   279
1070
     0
1070
   173
1070
     1
1070
   340
1005
19A
1070
   271
1070
     2
1070
   272
1070
     2
1070
    77
1070
     1
1070
    73
1070
     0
1070
   171
1070
     3
1070
   274
1070
     4
1070
   177
1070
     2
1070
   176
1070
     2
1070
   178
1070
     2
1070
    78
1070
     8
1070
    48
1040
-0.1
1070
    41
1040
3.5
1070
   147
1040
1.75
1070
    42
1040
1.5875
1070
    44
1040
2.0
1070
   140
1040
3.5
1002
}
1001
ACAD_DSTYLE_DIM_LINETYPE
1070
   380
1005
16
1001
ACAD_DSTYLE_DIM_EXT1_LINETYPE
1070
   381
1005
16
1001
ACAD_DSTYLE_DIM_EXT2_LINETYPE
1070
   382
1005
16
0
DIMENSION
5
1E8
100
AcDbEntity
8
2
62
256
6
ByLayer
370
18
48
1
60
0
100
AcDbDimension
2
_U3
10
56.85
20
13
30
0
11
56.85
21
15.5
31
0
70
32
71
1
72
1
41
1
210
0
220
0
230
1
3
Standard
100
AcDbAlignedDimension
13
45.1
23
18
33
0
14
45.1
24
13
34
0
50
90
100
AcDbRotatedDimension
1001
ACAD
1000
DSTYLE
1002
{
1070
   371
1070
    13
1070
   372
1070
    13
1070
   170
1070
     0
1070
   144
1040
1.0
1070
   277
1070
     2
1070
   284
1070
     8
1070
   278
1070
    46
1070
   146
1040
1.0
1070
   345
1005
16
1070
   347
1005
16
1070
   346
1005
16
1070
   344
1005
0
1070
   343
1005
0
1070
   172
1070
     1
1070
    76
1070
     0
1070
    75
1070
     0
1070
   282
1070
     0
1070
   281
1070
     0
1070
    71
1070
     0
1070
    74
1070
     0
1070
   279
1070
     0
1070
   173
1070
     1
1070
   340
1005
19A
1070
   271
1070
     2
1070
   272
1070
     2
1070
    77
1070
     1
1070
    73
1070
     0
1070
   171
1070
     3
1070
   274
1070
     4
1070
   177
1070
     2
1070
   176
1070
     2
1070
   178
1070
     2
1070
    78
1070
     8
1070
    48
1040
-0.1
1070
    41
1040
3.5
1070
   147
1040
1.75
1070
    42
1040
1.5875
1070
    44
1040
2.0
1070
   140
1040
3.5
1002
}
1001
ACAD_DSTYLE_DIM_LINETYPE
1070
   380
1005
16
1001
ACAD_DSTYLE_DIM_EXT1_LINETYPE
1070
   381
1005
16
1001
ACAD_DSTYLE_DIM_EXT2_LINETYPE
1070
   382
1005
16
0
ENDSEC
0
SECTION
2
OBJECTS
0
DICTIONARY
5
26e
330
0
100
AcDbDictionary
280
0
281
1
3
ACAD_GROUP
350
26f
3
ACAD_MLINESTYLE
350
270
0
DICTIONARY
5
26f
330
0
100
AcDbDictionary
280
0
281
1
0
DICTIONARY
5
270
330
0
100
AcDbDictionary
280
0
281
1
3
Standard
350
18
0
MLINESTYLE
5
18
330
270
100
AcDbMlineStyle
2
Standard
70
0
3

62
256
51
90
52
90
71
2
49
-0.5
62
256
6
ByLayer
49
0.5
62
256
6
ByLayer
0
RASTERVARIABLES
5
25f
330

100
AcDbRasterVariables
90
0
70
1
71
1
72
1
0
ENDSEC
0
EOF
