0
SECTION
2
HEADER
9
$ACADVER
1
AC1015
9
$DWGCODEPAGE
3
ANSI_1252
9
$HANDSEED
5
27c
9
$ANGBASE
50
0
9
$ANGDIR
70
0
9
$ATTMODE
70
1
9
$AUNITS
70
0
9
$AUPREC
70
0
9
$CECOLOR
62
256
9
$CELTSCALE
40
1
9
$CELTYPE
6
ByLayer
9
$CELWEIGHT
370
18
9
$CLAYER
8
0
9
$CMLJUST
70
0
9
$CMLSCALE
40
1
9
$CMLSTYLE
2
Standard
9
$DIMSTYLE
2
Standard
9
$TEXTSIZE
40
0.2
9
$TEXTSTYLE
7
Standard
9
$LUNITS
70
2
9
$LUPREC
70
4
9
$EXTNAMES
290
1
9
$INSUNITS
70
4
9
$LTSCALE
40
1
9
$LWDISPLAY
290
1
9
$PDMODE
70
0
9
$PDSIZE
40
0
9
$PLINEGEN
70
0
0
ENDSEC
0
SECTION
2
CLASSES
0
CLASS
1
RASTERVARIABLES
2
AcDbRasterVariables
3
ISM
90
0
280
0
281
0
0
ENDSEC
0
SECTION
2
TABLES
0
TABLE
2
VPORT
5
272
100
AcDbSymbolTable
0
VPORT
5
1
100
AcDbSymbolTableRecord
100
AcDbViewportTableRecord
2
*Active
70
0
10
0
20
0
11
1
21
1
12
-1
22
1
13
0
23
0
14
0.5
24
0.5
15
10
25
10
16
0
26
0
36
1
17
0
27
0
37
0
0
ENDTAB
0
TABLE
2
LTYPE
5
273
100
AcDbSymbolTable
0
LTYPE
5
14
100
AcDbSymbolTableRecord
100
AcDbLinetypeTableRecord
70
0
2
ByBlock
3

72
65
73
0
40
0
0
LTYPE
5
15
100
AcDbSymbolTableRecord
100
AcDbLinetypeTableRecord
70
0
2
ByLayer
3

72
65
73
0
40
0
0
LTYPE
5
16
100
AcDbSymbolTableRecord
100
AcDbLinetypeTableRecord
70
0
2
Continuous
3
Solid line
72
65
73
0
40
0
0
LTYPE
5
6E
100
AcDbSymbolTableRecord
100
AcDbLinetypeTableRecord
70
0
2
CENTER
3
____ _ ____ _ ____ _ ____
72
65
73
4
40
47.5
49
22
74
0
49
-8.5
74
0
49
8.5
74
0
49
-8.5
74
0
0
LTYPE
5
6F
100
AcDbSymbolTableRecord
100
AcDbLinetypeTableRecord
70
0
2
DASHED
3
__ __ __ __ __ __ __ __ __
72
65
73
2
40
25.72
49
12.86
74
0
49
-12.86
74
0
0
ENDTAB
0
TABLE
2
LAYER
5
274
100
AcDbSymbolTable
0
LAYER
5
10
100
AcDbSymbolTableRecord
100
AcDbLayerTableRecord
2
0
70
0
62
7
6
Continuous
290
1
370
-3
390
0
0
LAYER
5
71
100
AcDbSymbolTableRecord
100
AcDbLayerTableRecord
2
81
70
0
62
-3
6
Continuous
290
1
370
-3
390
0
0
LAYER
5
73
100
AcDbSymbolTableRecord
100
AcDbLayerTableRecord
2
80
70
0
62
-6
6
Continuous
290
1
370
-3
390
0
0
LAYER
5
75
100
AcDbSymbolTableRecord
100
AcDbLayerTableRecord
2
1
70
0
62
4
6
Continuous
290
1
370
-3
390
0
0
LAYER
5
1A2
100
AcDbSymbolTableRecord
100
AcDbLayerTableRecord
2
Defpoints
70
0
62
7
6
Continuous
290
0
370
-3
390
0
0
LAYER
5
1AF
100
AcDbSymbolTableRecord
100
AcDbLayerTableRecord
2
2
70
0
62
7
6
Continuous
290
1
370
-3
390
0
0
LAYER
5
261
100
AcDbSymbolTableRecord
100
AcDbLayerTableRecord
2
SK6
70
0
62
5
6
Continuous
290
1
370
-3
390
0
0
ENDTAB
0
TABLE
2
STYLE
5
275
100
AcDbSymbolTable
0
STYLE
5
11
100
AcDbSymbolTableRecord
100
AcDbTextStyleTableRecord
2
Standard
3
txt
70
0
71
0
40
0
41
1
42
0
50
0
0
STYLE
5
19B
100
AcDbSymbolTableRecord
100
AcDbTextStyleTableRecord
2
iso_b_vert
3
simplex.shx
70
0
71
0
40
0
41
1
42
0
50
0
0
STYLE
5
19C
100
AcDbSymbolTableRecord
100
AcDbTextStyleTableRecord
2
DWGDirectTextStyle
3
simplex
70
0
71
0
40
0
41
1
42
0
50
0
0
ENDTAB
0
TABLE
2
DIMSTYLE
5
276
100
AcDbSymbolTable
100
AcDbDimStyleTable
0
DIMSTYLE
105
27
100
AcDbSymbolTableRecord
100
AcDbDimStyleTableRecord
2
Standard
70
0
3
<>
41
0.18
42
0.0625
44
0.18
140
0.18
147
0.09
73
0
74
0
77
1
271
2
275
0
278
52
280
0
340
11
0
ENDTAB
0
TABLE
2
VIEW
5
277
100
AcDbSymbolTable
0
ENDTAB
0
TABLE
2
UCS
5
278
100
AcDbSymbolTable
0
ENDTAB
0
TABLE
2
APPID
5
279
100
AcDbSymbolTable
0
APPID
5
12
100
AcDbSymbolTableRecord
100
AcDbRegAppTableRecord
2
ACAD
70
0
0
APPID
5
19E
100
AcDbSymbolTableRecord
100
AcDbRegAppTableRecord
2
ACAD_DSTYLE_DIMBREAK
70
0
0
APPID
5
220
100
AcDbSymbolTableRecord
100
AcDbRegAppTableRecord
2
ACAD_DSTYLE_DIM_LINETYPE
70
0
0
APPID
5
221
100
AcDbSymbolTableRecord
100
AcDbRegAppTableRecord
2
ACAD_DSTYLE_DIM_EXT1_LINETYPE
70
0
0
APPID
5
222
100
AcDbSymbolTableRecord
100
AcDbRegAppTableRecord
2
ACAD_DSTYLE_DIM_EXT2_LINETYPE
70
0
0
APPID
5
25D
100
AcDbSymbolTableRecord
100
AcDbRegAppTableRecord
2
ACAD_MLEADERVER
70
0
0
ENDTAB
0
TABLE
2
BLOCK_RECORD
5
27a
100
AcDbSymbolTable
0
BLOCK_RECORD
5
1F
100
AcDbSymbolTableRecord
100
AcDbBlockTableRecord
2
*Model_Space
340
0
70
0
0
BLOCK_RECORD
5
1B
100
AcDbSymbolTableRecord
100
AcDbBlockTableRecord
2
*Paper_Space
340
0
70
0
0
BLOCK_RECORD
5
23
100
AcDbSymbolTableRecord
100
AcDbBlockTableRecord
2
*Paper_Space0
340
0
70
0
0
BLOCK_RECORD
5
1A3
100
AcDbSymbolTableRecord
100
AcDbBlockTableRecord
2
*D1
340
0
70
0
0
BLOCK_RECORD
5
1B0
100
AcDbSymbolTableRecord
100
AcDbBlockTableRecord
2
_U0
340
0
70
0
0
BLOCK_RECORD
5
1BC
100
AcDbSymbolTableRecord
100
AcDbBlockTableRecord
2
*D3
340
0
70
0
0
BLOCK_RECORD
5
1C8
100
AcDbSymbolTableRecord
100
AcDbBlockTableRecord
2
_U1
340
0
70
0
0
BLOCK_RECORD
5
1D4
100
AcDbSymbolTableRecord
100
AcDbBlockTableRecord
2
*D5
340
0
70
0
0
BLOCK_RECORD
5
1E0
100
AcDbSymbolTableRecord
100
AcDbBlockTableRecord
2
_U2
340
0
70
0
0
BLOCK_RECORD
5
1EC
100
AcDbSymbolTableRecord
100
AcDbBlockTableRecord
2
*D7
340
0
70
0
0
BLOCK_RECORD
5
1F9
100
AcDbSymbolTableRecord
100
AcDbBlockTableRecord
2
_U3
340
0
70
0
0
ENDTAB
0
ENDSEC
0
SECTION
2
BLOCKS
0
BLOCK
5
20
100
AcDbEntity
8
0
100
AcDbBlockBegin
2
*Model_Space
70
0
10
0
20
0
30
0
3
*Model_Space
0
ENDBLK
5
21
100
AcDbEntity
8
0
100
AcDbBlockEnd
0
BLOCK
5
1C
100
AcDbEntity
8
0
100
AcDbBlockBegin
2
*Paper_Space
70
0
10
0
20
0
30
0
3
*Paper_Space
0
ENDBLK
5
1D
100
AcDbEntity
8
0
100
AcDbBlockEnd
0
BLOCK
5
24
100
AcDbEntity
8
0
100
AcDbBlockBegin
2
*Paper_Space0
70
0
10
0
20
0
30
0
3
*Paper_Space0
0
ENDBLK
5
25
100
AcDbEntity
8
0
100
AcDbBlockEnd
0
BLOCK
5
1A4
100
AcDbEntity
8
0
100
AcDbBlockBegin
2
*D1
70
1
10
0
20
0
30
0
3
*D1
0
LINE
5
1A6
100
AcDbEntity
8
0
62
256
6
ByLayer
370
-2
48
1
60
0
100
AcDbLine
10
0
20
-1.5875
30
0
11
0
21
-21.75
31
0
39
0
210
0
220
0
230
1
0
LINE
5
1A7
100
AcDbEntity
8
0
62
256
6
ByLayer
370
-2
48
1
60
0
100
AcDbLine
10
45.1
20
16.4125
30
0
11
45.1
21
-21.75
31
0
39
0
210
0
220
0
230
1
0
LINE
5
1A8
100
AcDbEntity
8
0
62
256
6
ByLayer
370
-2
48
1
60
0
100
AcDbLine
10
3.5
20
-19.75
30
0
11
41.6
21
-19.75
31
0
39
0
210
0
220
0
230
1
0
SOLID
5
1A9
100
AcDbEntity
8
0
62
256
6
ByLayer
370
-1
48
1
60
0
100
AcDbTrace
10
3.5
20
-19.166667
30
0
11
3.5
21
-20.333333
31
0
12
0
22
-19.75
32
0
13
0
23
-19.75
33
0
39
0
210
0
220
0
230
1
0
SOLID
5
1AA
100
AcDbEntity
8
0
62
256
6
ByLayer
370
-1
48
1
60
0
100
AcDbTrace
10
41.6
20
-20.333333
30
0
11
41.6
21
-19.166667
31
0
12
45.1
22
-19.75
32
0
13
45.1
23
-19.75
33
0
39
0
210
0
220
0
230
1
0
MTEXT
5
1AB
100
AcDbEntity
8
0
62
256
6
ByLayer
370
18
48
1
60
0
100
AcDbMText
10
22.55
20
-12.75
30
0
210
0
220
0
230
1
1
\A1;45.1
40
3.5
41
0
44
1
50
0
71
5
72
5
7
iso_b_vert
0
POINT
5
1AC
100
AcDbEntity
8
Defpoints
62
0
6
ByLayer
370
-1
48
1
60
0
100
AcDbPoint
10
0
20
0
30
0
39
0
210
0
220
0
230
1
50
360
0
POINT
5
1AD
100
AcDbEntity
8
Defpoints
62
0
6
ByLayer
370
-1
48
1
60
0
100
AcDbPoint
10
45.1
20
18
30
0
39
0
210
0
220
0
230
1
50
360
0
POINT
5
1AE
100
AcDbEntity
8
Defpoints
62
0
6
ByLayer
370
-1
48
1
60
0
100
AcDbPoint
10
45.1
20
-19.75
30
0
39
0
210
0
220
0
230
1
50
360
0
ENDBLK
5
1A5
100
AcDbEntity
8
0
100
AcDbBlockEnd
0
BLOCK
5
1B7
100
AcDbEntity
8
0
100
AcDbBlockBegin
2
_U0
70
0
10
0
20
0
30
0
3
_U0
0
MTEXT
5
1B1
100
AcDbEntity
8
2
62
256
6
ByLayer
370
18
48
1
60
0
100
AcDbMText
10
18.881467
20
-18.717366
30
0
210
0
220
0
230
1
1
\W0.7531;45.1
40
3.5
41
0
44
1.084337
50
0
71
7
72
5
7
iso_b_vert
0
LINE
5
1B2
100
AcDbEntity
8
2
62
256
6
ByLayer
370
13
48
1
60
0
100
AcDbLine
10
0
20
-1.5875
30
0
11
0
21
-21.75
31
0
39
0
210
0
220
0
230
1
0
LINE
5
1B3
100
AcDbEntity
8
2
62
256
6
ByLayer
370
13
48
1
60
0
100
AcDbLine
10
45.1
20
16.4125
30
0
11
45.1
21
-21.75
31
0
39
0
210
0
220
0
230
1
0
LINE
5
1B4
100
AcDbEntity
8
2
62
256
6
ByLayer
370
13
48
1
60
0
100
AcDbLine
10
0
20
-19.75
30
0
11
45.1
21
-19.75
31
0
39
0
210
0
220
0
230
1
0
SOLID
5
1B5
100
AcDbEntity
8
2
62
256
6
ByLayer
370
18
48
1
60
0
100
AcDbTrace
10
0
20
-19.75
30
0
11
3.499998
21
-19.289216
31
0
12
3.500002
22
-20.210784
32
0
13
3.500002
23
-20.210784
33
0
39
0
210
0
220
0
230
1
0
SOLID
5
1B6
100
AcDbEntity
8
2
62
256
6
ByLayer
370
18
48
1
60
0
100
AcDbTrace
10
45.1
20
-19.75
30
0
11
41.600002
21
-20.210784
31
0
12
41.599998
22
-19.289216
32
0
13
41.599998
23
-19.289216
33
0
39
0
210
0
220
0
230
1
0
ENDBLK
5
1B8
100
AcDbEntity
8
0
100
AcDbBlockEnd
0
BLOCK
5
1BD
100
AcDbEntity
8
0
100
AcDbBlockBegin
2
*D3
70
1
10
0
20
0
30
0
3
*D3
0
LINE
5
1BF
100
AcDbEntity
8
0
62
256
6
ByLayer
370
-2
48
1
60
0
100
AcDbLine
10
27.1
20
11.737504
30
0
11
27.1
21
-13.75
31
0
39
0
210
0
220
0
230
1
0
LINE
5
1C0
100
AcDbEntity
8
0
62
256
6
ByLayer
370
-2
48
1
60
0
100
AcDbLine
10
45.1
20
16.4125
30
0
11
45.1
21
-13.75
31
0
39
0
210
0
220
0
230
1
0
LINE
5
1C1
100
AcDbEntity
8
0
62
256
6
ByLayer
370
-2
48
1
60
0
100
AcDbLine
10
30.6
20
-11.75
30
0
11
41.6
21
-11.75
31
0
39
0
210
0
220
0
230
1
0
SOLID
5
1C2
100
AcDbEntity
8
0
62
256
6
ByLayer
370
-1
48
1
60
0
100
AcDbTrace
10
30.6
20
-11.166667
30
0
11
30.6
21
-12.333333
31
0
12
27.1
22
-11.75
32
0
13
27.1
23
-11.75
33
0
39
0
210
0
220
0
230
1
0
SOLID
5
1C3
100
AcDbEntity
8
0
62
256
6
ByLayer
370
-1
48
1
60
0
100
AcDbTrace
10
41.6
20
-12.333333
30
0
11
41.6
21
-11.166667
31
0
12
45.1
22
-11.75
32
0
13
45.1
23
-11.75
33
0
39
0
210
0
220
0
230
1
0
MTEXT
5
1C4
100
AcDbEntity
8
0
62
256
6
ByLayer
370
18
48
1
60
0
100
AcDbMText
10
36.1
20
-4.75
30
0
210
0
220
0
230
1
1
\A1;18
40
3.5
41
0
44
1
50
0
71
5
72
5
7
iso_b_vert
0
POINT
5
1C5
100
AcDbEntity
8
Defpoints
62
0
6
ByLayer
370
-1
48
1
60
0
100
AcDbPoint
10
27.1
20
13.325004
30
0
39
0
210
0
220
0
230
1
50
360
0
POINT
5
1C6
100
AcDbEntity
8
Defpoints
62
0
6
ByLayer
370
-1
48
1
60
0
100
AcDbPoint
10
45.1
20
18
30
0
39
0
210
0
220
0
230
1
50
360
0
POINT
5
1C7
100
AcDbEntity
8
Defpoints
62
0
6
ByLayer
370
-1
48
1
60
0
100
AcDbPoint
10
45.1
20
-11.75
30
0
39
0
210
0
220
0
230
1
50
360
0
ENDBLK
5
1BE
100
AcDbEntity
8
0
100
AcDbBlockEnd
0
BLOCK
5
1CF
100
AcDbEntity
8
0
100
AcDbBlockBegin
2
_U1
70
0
10
0
20
0
30
0
3
_U1
0
MTEXT
5
1C9
100
AcDbEntity
8
2
62
256
6
ByLayer
370
18
48
1
60
0
100
AcDbMText
10
34.632467
20
-10.717366
30
0
210
0
220
0
230
1
1
\W0.5321;18
40
3.5
41
0
44
1.084337
50
0
71
7
72
5
7
iso_b_vert
0
LINE
5
1CA
100
AcDbEntity
8
2
62
256
6
ByLayer
370
13
48
1
60
0
100
AcDbLine
10
27.1
20
11.737504
30
0
11
27.1
21
-13.75
31
0
39
0
210
0
220
0
230
1
0
LINE
5
1CB
100
AcDbEntity
8
2
62
256
6
ByLayer
370
13
48
1
60
0
100
AcDbLine
10
45.1
20
16.4125
30
0
11
45.1
21
-13.75
31
0
39
0
210
0
220
0
230
1
0
LINE
5
1CC
100
AcDbEntity
8
2
62
256
6
ByLayer
370
13
48
1
60
0
100
AcDbLine
10
27.1
20
-11.75
30
0
11
45.1
21
-11.75
31
0
39
0
210
0
220
0
230
1
0
SOLID
5
1CD
100
AcDbEntity
8
2
62
256
6
ByLayer
370
18
48
1
60
0
100
AcDbTrace
10
27.1
20
-11.75
30
0
11
30.599998
21
-11.289216
31
0
12
30.600002
22
-12.210784
32
0
13
30.600002
23
-12.210784
33
0
39
0
210
0
220
0
230
1
0
SOLID
5
1CE
100
AcDbEntity
8
2
62
256
6
ByLayer
370
18
48
1
60
0
100
AcDbTrace
10
45.1
20
-11.75
30
0
11
41.600002
21
-12.210784
31
0
12
41.599998
22
-11.289216
32
0
13
41.599998
23
-11.289216
33
0
39
0
210
0
220
0
230
1
0
ENDBLK
5
1D0
100
AcDbEntity
8
0
100
AcDbBlockEnd
0
BLOCK
5
1D5
100
AcDbEntity
8
0
100
AcDbBlockBegin
2
*D5
70
1
10
0
20
0
30
0
3
*D5
0
LINE
5
1D7
100
AcDbEntity
8
0
62
256
6
ByLayer
370
-2
48
1
60
0
100
AcDbLine
10
46.6875
20
18
30
0
11
71.85
21
18
31
0
39
0
210
0
220
0
230
1
0
LINE
5
1D8
100
AcDbEntity
8
0
62
256
6
ByLayer
370
-2
48
1
60
0
100
AcDbLine
10
1.5875
20
0
30
0
11
71.85
21
0
31
0
39
0
210
0
220
0
230
1
0
LINE
5
1D9
100
AcDbEntity
8
0
62
256
6
ByLayer
370
-2
48
1
60
0
100
AcDbLine
10
69.85
20
14.5
30
0
11
69.85
21
3.5
31
0
39
0
210
0
220
0
230
1
0
SOLID
5
1DA
100
AcDbEntity
8
0
62
256
6
ByLayer
370
-1
48
1
60
0
100
AcDbTrace
10
70.433333
20
14.5
30
0
11
69.266667
21
14.5
31
0
12
69.85
22
18
32
0
13
69.85
23
18
33
0
39
0
210
0
220
0
230
1
0
SOLID
5
1DB
100
AcDbEntity
8
0
62
256
6
ByLayer
370
-1
48
1
60
0
100
AcDbTrace
10
69.266667
20
3.5
30
0
11
70.433333
21
3.5
31
0
12
69.85
22
0
32
0
13
69.85
23
0
33
0
39
0
210
0
220
0
230
1
0
MTEXT
5
1DC
100
AcDbEntity
8
0
62
256
6
ByLayer
370
18
48
1
60
0
100
AcDbMText
10
62.85
20
9
30
0
210
0
220
0
230
1
1
\A1;18
40
3.5
41
0
44
1
50
90
71
5
72
5
7
iso_b_vert
0
POINT
5
1DD
100
AcDbEntity
8
Defpoints
62
0
6
ByLayer
370
-1
48
1
60
0
100
AcDbPoint
10
45.1
20
18
30
0
39
0
210
0
220
0
230
1
50
360
0
POINT
5
1DE
100
AcDbEntity
8
Defpoints
62
0
6
ByLayer
370
-1
48
1
60
0
100
AcDbPoint
10
0
20
0
30
0
39
0
210
0
220
0
230
1
50
360
0
POINT
5
1DF
100
AcDbEntity
8
Defpoints
62
0
6
ByLayer
370
-1
48
1
60
0
100
AcDbPoint
10
69.85
20
0
30
0
39
0
210
0
220
0
230
1
50
360
0
ENDBLK
5
1D6
100
AcDbEntity
8
0
100
AcDbBlockEnd
0
BLOCK
5
1E7
100
AcDbEntity
8
0
100
AcDbBlockBegin
2
_U2
70
0
10
0
20
0
30
0
3
_U2
0
MTEXT
5
1E1
100
AcDbEntity
8
2
62
256
6
ByLayer
370
18
48
1
60
0
100
AcDbMText
10
69.160366
20
7.504467
30
0
210
0
220
0
230
1
1
\W0.5321;18
40
3.5
41
0
44
1.084337
50
90
71
7
72
5
7
iso_b_vert
0
LINE
5
1E2
100
AcDbEntity
8
2
62
256
6
ByLayer
370
13
48
1
60
0
100
AcDbLine
10
46.6875
20
18
30
0
11
71.85
21
18
31
0
39
0
210
0
220
0
230
1
0
LINE
5
1E3
100
AcDbEntity
8
2
62
256
6
ByLayer
370
13
48
1
60
0
100
AcDbLine
10
1.5875
20
0
30
0
11
71.85
21
0
31
0
39
0
210
0
220
0
230
1
0
LINE
5
1E4
100
AcDbEntity
8
2
62
256
6
ByLayer
370
13
48
1
60
0
100
AcDbLine
10
69.85
20
18
30
0
11
69.85
21
0
31
0
39
0
210
0
220
0
230
1
0
SOLID
5
1E5
100
AcDbEntity
8
2
62
256
6
ByLayer
370
18
48
1
60
0
100
AcDbTrace
10
69.85
20
18
30
0
11
70.310784
21
14.500002
31
0
12
69.389216
22
14.499998
32
0
13
69.389216
23
14.499998
33
0
39
0
210
0
220
0
230
1
0
SOLID
5
1E6
100
AcDbEntity
8
2
62
256
6
ByLayer
370
18
48
1
60
0
100
AcDbTrace
10
69.85
20
0
30
0
11
69.389216
21
3.499998
31
0
12
70.310784
22
3.500002
32
0
13
70.310784
23
3.500002
33
0
39
0
210
0
220
0
230
1
0
ENDBLK
5
1E8
100
AcDbEntity
8
0
100
AcDbBlockEnd
0
BLOCK
5
1ED
100
AcDbEntity
8
0
100
AcDbBlockBegin
2
*D7
70
1
10
0
20
0
30
0
3
*D7
0
LINE
5
1EF
100
AcDbEntity
8
0
62
256
6
ByLayer
370
-2
48
1
60
0
100
AcDbLine
10
46.6875
20
18
30
0
11
58.85
21
18
31
0
39
0
210
0
220
0
230
1
0
LINE
5
1F0
100
AcDbEntity
8
0
62
256
6
ByLayer
370
-2
48
1
60
0
100
AcDbLine
10
46.6875
20
13
30
0
11
58.85
21
13
31
0
39
0
210
0
220
0
230
1
0
LINE
5
1F1
100
AcDbEntity
8
0
62
256
6
ByLayer
370
-2
48
1
60
0
100
AcDbLine
10
56.85
20
21.5
30
0
11
56.85
21
25
31
0
39
0
210
0
220
0
230
1
0
LINE
5
1F2
100
AcDbEntity
8
0
62
256
6
ByLayer
370
-2
48
1
60
0
100
AcDbLine
10
56.85
20
9.5
30
0
11
56.85
21
6
31
0
39
0
210
0
220
0
230
1
0
SOLID
5
1F3
100
AcDbEntity
8
0
62
256
6
ByLayer
370
-1
48
1
60
0
100
AcDbTrace
10
56.266667
20
21.5
30
0
11
57.433333
21
21.5
31
0
12
56.85
22
18
32
0
13
56.85
23
18
33
0
39
0
210
0
220
0
230
1
0
SOLID
5
1F4
100
AcDbEntity
8
0
62
256
6
ByLayer
370
-1
48
1
60
0
100
AcDbTrace
10
57.433333
20
9.5
30
0
11
56.266667
21
9.5
31
0
12
56.85
22
13
32
0
13
56.85
23
13
33
0
39
0
210
0
220
0
230
1
0
MTEXT
5
1F5
100
AcDbEntity
8
0
62
256
6
ByLayer
370
18
48
1
60
0
100
AcDbMText
10
49.85
20
15.5
30
0
210
0
220
0
230
1
1
\A1;5
40
3.5
41
0
44
1
50
90
71
5
72
5
7
iso_b_vert
0
POINT
5
1F6
100
AcDbEntity
8
Defpoints
62
0
6
ByLayer
370
-1
48
1
60
0
100
AcDbPoint
10
45.1
20
18
30
0
39
0
210
0
220
0
230
1
50
360
0
POINT
5
1F7
100
AcDbEntity
8
Defpoints
62
0
6
ByLayer
370
-1
48
1
60
0
100
AcDbPoint
10
45.1
20
13
30
0
39
0
210
0
220
0
230
1
50
360
0
POINT
5
1F8
100
AcDbEntity
8
Defpoints
62
0
6
ByLayer
370
-1
48
1
60
0
100
AcDbPoint
10
56.85
20
13
30
0
39
0
210
0
220
0
230
1
50
360
0
ENDBLK
5
1EE
100
AcDbEntity
8
0
100
AcDbBlockEnd
0
BLOCK
5
200
100
AcDbEntity
8
0
100
AcDbBlockBegin
2
_U3
70
0
10
0
20
0
30
0
3
_U3
0
MTEXT
5
1FA
100
AcDbEntity
8
2
62
256
6
ByLayer
370
18
48
1
60
0
100
AcDbMText
10
56.160366
20
14.874767
30
0
210
0
220
0
230
1
1
\W0.5404;5
40
3.5
41
0
44
1.084337
50
90
71
7
72
5
7
iso_b_vert
0
LINE
5
1FB
100
AcDbEntity
8
2
62
256
6
ByLayer
370
13
48
1
60
0
100
AcDbLine
10
46.6875
20
18
30
0
11
58.85
21
18
31
0
39
0
210
0
220
0
230
1
0
LINE
5
1FC
100
AcDbEntity
8
2
62
256
6
ByLayer
370
13
48
1
60
0
100
AcDbLine
10
46.6875
20
13
30
0
11
58.85
21
13
31
0
39
0
210
0
220
0
230
1
0
LINE
5
1FD
100
AcDbEntity
8
2
62
256
6
ByLayer
370
13
48
1
60
0
100
AcDbLine
10
56.85
20
26.75
30
0
11
56.85
21
4.25
31
0
39
0
210
0
220
0
230
1
0
SOLID
5
1FE
100
AcDbEntity
8
2
62
256
6
ByLayer
370
18
48
1
60
0
100
AcDbTrace
10
56.85
20
18
30
0
11
56.389216
21
21.499998
31
0
12
57.310784
22
21.500002
32
0
13
57.310784
23
21.500002
33
0
39
0
210
0
220
0
230
1
0
SOLID
5
1FF
100
AcDbEntity
8
2
62
256
6
ByLayer
370
18
48
1
60
0
100
AcDbTrace
10
56.85
20
13
30
0
11
57.310784
21
9.500002
31
0
12
56.389216
22
9.499998
32
0
13
56.389216
23
9.499998
33
0
39
0
210
0
220
0
230
1
0
ENDBLK
5
201
100
AcDbEntity
8
0
100
AcDbBlockEnd
0
ENDSEC
0
SECTION
2
ENTITIES
0
ARC
5
103
100
AcDbEntity
8
1
62
256
6
ByLayer
370
18
48
1
60
0
100
AcDbCircle
39
0
10
27.1
20
11.725004
30
0
40
1.6
210
0
220
0
230
1
100
AcDbArc
50
166.447466
51
180
0
ARC
5
104
100
AcDbEntity
8
1
62
256
6
ByLayer
370
18
48
1
60
0
100
AcDbCircle
39
0
10
20.5
20
0.875
30
0
40
0.5
210
0
220
0
230
1
100
AcDbArc
50
90
51
180
0
ARC
5
105
100
AcDbEntity
8
1
62
256
6
ByLayer
370
18
48
1
60
0
100
AcDbCircle
39
0
10
13.51676
20
18.975004
30
0
40
1.60000000000024
210
0
220
0
230
1
100
AcDbArc
50
270
51
303.342147
0
ARC
5
106
100
AcDbEntity
8
1
62
256
6
ByLayer
370
18
48
1
60
0
100
AcDbCircle
39
0
10
13.51676
20
18.975004
30
0
40
1.6
210
0
220
0
230
1
100
AcDbArc
50
303.342147
51
337.975687
0
ARC
5
107
100
AcDbEntity
8
1
62
256
6
ByLayer
370
18
48
1
60
0
100
AcDbCircle
39
0
10
20
20
6.600001
30
0
40
4.55
210
0
220
0
230
1
100
AcDbArc
50
72.352838
51
287.647162
0
ARC
5
108
100
AcDbEntity
8
1
62
256
6
ByLayer
370
18
48
1
60
0
100
AcDbCircle
39
0
10
20
20
6.600001
30
0
40
4.55
210
0
220
0
230
1
100
AcDbArc
50
287.647162
51
72.352838
0
ARC
5
109
100
AcDbEntity
8
1
62
256
6
ByLayer
370
18
48
1
60
0
100
AcDbCircle
39
0
10
20
20
6.600001
30
0
40
1.416
210
0
220
0
230
1
100
AcDbArc
50
240.190711
51
299.809289
0
ARC
5
10A
100
AcDbEntity
8
1
62
256
6
ByLayer
370
18
48
1
60
0
100
AcDbCircle
39
0
10
20
20
6.600001
30
0
40
1.416
210
0
220
0
230
1
100
AcDbArc
50
119.809289
51
173.807562
0
ARC
5
10B
100
AcDbEntity
8
1
62
256
6
ByLayer
370
18
48
1
60
0
100
AcDbCircle
39
0
10
20
20
6.600001
30
0
40
1.416
210
0
220
0
230
1
100
AcDbArc
50
60.190711
51
119.809289
0
ARC
5
10C
100
AcDbEntity
8
1
62
256
6
ByLayer
370
18
48
1
60
0
100
AcDbCircle
39
0
10
20
20
6.600001
30
0
40
1.416
210
0
220
0
230
1
100
AcDbArc
50
6.192438
51
60.190711
0
ARC
5
10D
100
AcDbEntity
8
1
62
256
6
ByLayer
370
18
48
1
60
0
100
AcDbCircle
39
0
10
20
20
6.600001
30
0
40
1.416
210
0
220
0
230
1
100
AcDbArc
50
186.192438
51
240.190711
0
ARC
5
10E
100
AcDbEntity
8
1
62
256
6
ByLayer
370
18
48
1
60
0
100
AcDbCircle
39
0
10
20
20
6.600001
30
0
40
1.416
210
0
220
0
230
1
100
AcDbArc
50
299.809289
51
353.807562
0
ARC
5
10F
100
AcDbEntity
8
1
62
256
6
ByLayer
370
18
48
1
60
0
100
AcDbCircle
39
0
10
20
20
6.600001
30
0
40
1.416
210
0
220
0
230
1
100
AcDbArc
50
173.807562
51
186.192438
0
ARC
5
112
100
AcDbEntity
8
1
62
256
6
ByLayer
370
18
48
1
60
0
100
AcDbCircle
39
0
10
20
20
6.600001
30
0
40
1.9685
210
0
220
0
230
1
100
AcDbArc
50
30.381422
51
90
0
ARC
5
113
100
AcDbEntity
8
1
62
256
6
ByLayer
370
18
48
1
60
0
100
AcDbCircle
39
0
10
20
20
6.600001
30
0
40
1.9685
210
0
220
0
230
1
100
AcDbArc
50
149.618578
51
210.381422
0
ARC
5
114
100
AcDbEntity
8
1
62
256
6
ByLayer
370
18
48
1
60
0
100
AcDbCircle
39
0
10
20
20
6.600001
30
0
40
1.9685
210
0
220
0
230
1
100
AcDbArc
50
90
51
149.618578
0
ARC
5
115
100
AcDbEntity
8
1
62
256
6
ByLayer
370
18
48
1
60
0
100
AcDbCircle
39
0
10
20
20
6.600001
30
0
40
1.9685
210
0
220
0
230
1
100
AcDbArc
50
329.618578
51
30.381422
0
ARC
5
116
100
AcDbEntity
8
1
62
256
6
ByLayer
370
18
48
1
60
0
100
AcDbCircle
39
0
10
20
20
6.600001
30
0
40
1.416
210
0
220
0
230
1
100
AcDbArc
50
353.807562
51
6.192438
0
ARC
5
117
100
AcDbEntity
8
1
62
256
6
ByLayer
370
18
48
1
60
0
100
AcDbCircle
39
0
10
20
20
6.600001
30
0
40
1.9685
210
0
220
0
230
1
100
AcDbArc
50
270
51
329.618578
0
ARC
5
118
100
AcDbEntity
8
1
62
256
6
ByLayer
370
18
48
1
60
0
100
AcDbCircle
39
0
10
20
20
6.600001
30
0
40
1.9685
210
0
220
0
230
1
100
AcDbArc
50
210.381422
51
270
0
CIRCLE
5
110
100
AcDbEntity
8
1
62
256
6
ByLayer
370
18
48
1
60
0
100
AcDbCircle
10
20
20
6.600001
30
0
40
4.25
39
0
210
0
220
0
230
1
0
CIRCLE
5
111
100
AcDbEntity
8
1
62
256
6
ByLayer
370
18
48
1
60
0
100
AcDbCircle
10
20
20
6.600001
30
0
40
3.75
39
0
210
0
220
0
230
1
0
ELLIPSE
5
119
100
AcDbEntity
8
1
62
256
6
ByLayer
370
18
48
1
60
0
100
AcDbEllipse
10
37.446355
20
17.356509
30
0
11
0.0707722378673917
21
0.0707724765539309
31
0
210
0
220
0
230
1
40
0.998256
41
2.35706546787163
42
2.53159839405652
0
ELLIPSE
5
11A
100
AcDbEntity
8
1
62
256
6
ByLayer
370
18
48
1
60
0
100
AcDbEllipse
10
37.65644
20
16.165428
30
0
11
0.0707723557516446
21
0.0707723599961837
31
0
210
0
220
0
230
1
40
0.998256
41
2.53160005908638
42
3.02115060486641
0
ELLIPSE
5
11B
100
AcDbEntity
8
1
62
256
6
ByLayer
370
18
48
1
60
0
100
AcDbEllipse
10
37.65644
20
14.830832
30
0
11
0.0707723556424624
21
0.070772360120493
31
0
210
0
220
0
230
1
40
0.998256
41
1.69298364314256
42
2.18253418892419
0
ELLIPSE
5
11C
100
AcDbEntity
8
1
62
256
6
ByLayer
370
18
48
1
60
0
100
AcDbEllipse
10
37.446355
20
13.639017
30
0
11
0.0707722151902634
21
0.070772499186613
31
0
210
0
220
0
230
1
40
0.998256
41
2.18253222275849
42
2.35706514913959
0
ELLIPSE
5
11D
100
AcDbEntity
8
1
62
256
6
ByLayer
370
18
48
1
60
0
100
AcDbEllipse
10
44.8
20
17.7
30
0
11
0.3
21
0
31
0
210
0
220
0
230
1
40
0.999998
41
0
42
1.614429558062
0
ELLIPSE
5
11E
100
AcDbEntity
8
1
62
256
6
ByLayer
370
18
48
1
60
0
100
AcDbEllipse
10
44.8
20
13.300007
30
0
11
-0.3
21
3.67381906146713E-17
31
0
210
0
220
0
230
1
40
0.999998
41
1.52716309552779
42
3.14159265358979
0
ELLIPSE
5
11F
100
AcDbEntity
8
1
62
256
6
ByLayer
370
18
48
1
60
0
100
AcDbEllipse
10
650.726148
20
61.587382
30
0
11
2181.94613287591
21
7.72179624673035
31
0
210
0
220
0
230
1
40
0.019812
41
-1.85673505528062
42
-1.85555553812447
0
ELLIPSE
5
120
100
AcDbEntity
8
1
62
256
6
ByLayer
370
18
48
1
60
0
100
AcDbEllipse
10
38.160178
20
48.000004
30
0
11
-35.1727591258849
21
4.30727843070227E-15
31
0
210
0
220
0
230
1
40
0.985848
41
1.4407794683122
42
1.52667060620375
0
ELLIPSE
5
121
100
AcDbEntity
8
1
62
256
6
ByLayer
370
18
48
1
60
0
100
AcDbEllipse
10
38.957691
20
48.000004
30
0
11
-41.3239928827265
21
5.06056242494976E-15
31
0
210
0
220
0
230
1
40
0.839101
41
1.27976068557757
42
1.44077946822265
0
ELLIPSE
5
122
100
AcDbEntity
8
1
62
256
6
ByLayer
370
18
48
1
60
0
100
AcDbEllipse
10
38.957691
20
60.700004
30
0
11
-51.2751202247906
21
6.27918380202848E-15
31
0
210
0
220
0
230
1
40
0.839101
41
1.22087496099872
42
1.46611615155624
0
ELLIPSE
5
123
100
AcDbEntity
8
1
62
256
6
ByLayer
370
18
48
1
60
0
100
AcDbEllipse
10
38.160178
20
60.700004
30
0
11
-43.6426232151548
21
5.34450336867546E-15
31
0
210
0
220
0
230
1
40
0.985848
41
1.46611615153075
42
1.53478092161706
0
ELLIPSE
5
124
100
AcDbEntity
8
1
62
256
6
ByLayer
370
18
48
1
60
0
100
AcDbEllipse
10
10.067574
20
-0.174981
30
0
11
0.244102752793956
21
0.135103450139141
31
0
210
0
220
0
230
1
40
0.266975
41
-2.69215064132301
42
-1.64495309012565
0
ELLIPSE
5
125
100
AcDbEntity
8
1
62
256
6
ByLayer
370
18
48
1
60
0
100
AcDbEllipse
10
-308.509505
20
47.997173
30
0
11
-2689.58123108402
21
5.96250465137097
31
0
210
0
220
0
230
1
40
0.012699
41
1.69593190826775
42
1.69949572104046
0
ELLIPSE
5
126
100
AcDbEntity
8
1
62
256
6
ByLayer
370
18
48
1
60
0
100
AcDbEllipse
10
49.307848
20
60.700004
30
0
11
-5.4686380342764E-14
21
43.0250000000217
31
0
210
0
220
0
230
1
40
0.57735
41
2.51870645165748
42
2.93037409481903
0
ELLIPSE
5
127
100
AcDbEntity
8
1
62
256
6
ByLayer
370
18
48
1
60
0
100
AcDbEllipse
10
-114.168887
20
60.700081
30
0
11
-237.332136295429
21
4.61368732485872E-05
31
0
210
0
220
0
230
1
40
0.181286
41
2.18237908324492
42
2.19368307652789
0
POINT
5
70
100
AcDbEntity
8
81
62
256
6
ByLayer
370
18
48
1
60
0
100
AcDbPoint
10
45.1
20
18
30
0
39
0
210
0
220
0
230
1
50
360
0
POINT
5
72
100
AcDbEntity
8
80
62
256
6
ByLayer
370
18
48
1
60
0
100
AcDbPoint
10
0
20
0
30
0
39
0
210
0
220
0
230
1
50
360
0
POINT
5
74
100
AcDbEntity
8
1
62
256
6
ByLayer
370
18
48
1
60
1
100
AcDbPoint
10
0
20
0
30
0
39
0
210
0
220
0
230
1
50
360
0
POINT
5
76
100
AcDbEntity
8
1
62
256
6
ByLayer
370
18
48
1
60
1
100
AcDbPoint
10
45.1
20
18
30
0
39
0
210
0
220
0
230
1
50
360
0
POINT
5
77
100
AcDbEntity
8
1
62
256
6
ByLayer
370
18
48
1
60
1
100
AcDbPoint
10
27.1
20
13.325004
30
0
39
0
210
0
220
0
230
1
50
360
0
POINT
5
78
100
AcDbEntity
8
1
62
256
6
ByLayer
370
18
48
1
60
1
100
AcDbPoint
10
45.1
20
18
30
0
39
0
210
0
220
0
230
1
50
360
0
POINT
5
79
100
AcDbEntity
8
1
62
256
6
ByLayer
370
18
48
1
60
1
100
AcDbPoint
10
45.1
20
18
30
0
39
0
210
0
220
0
230
1
50
360
0
POINT
5
7A
100
AcDbEntity
8
1
62
256
6
ByLayer
370
18
48
1
60
1
100
AcDbPoint
10
0
20
0
30
0
39
0
210
0
220
0
230
1
50
360
0
POINT
5
7B
100
AcDbEntity
8
1
62
256
6
ByLayer
370
18
48
1
60
1
100
AcDbPoint
10
45.1
20
18
30
0
39
0
210
0
220
0
230
1
50
360
0
POINT
5
7C
100
AcDbEntity
8
1
62
256
6
ByLayer
370
18
48
1
60
1
100
AcDbPoint
10
45.1
20
13
30
0
39
0
210
0
220
0
230
1
50
360
0
SPLINE
5
128
100
AcDbEntity
8
1
62
256
6
ByLayer
370
18
48
1
60
0
100
AcDbSpline
70
4
71
3
72
18
73
14
40
0
40
0
40
0
40
0
40
0.106502320877169
40
0.209819720887587
40
0.309970050663322
40
0.406972922398905
40
0.500849920824597
40
0.591624858695378
40
0.679324076625498
40
0.763976789998094
40
0.845615488386666
40
0.924276395492861
40
1
40
1
40
1
40
1
41
1
10
37.6901186384102
20
15.9812734893215
30
0
41
1
10
37.688541527336
20
15.9819496850206
30
0
41
1
10
37.6854344682345
20
15.9832818549836
30
0
41
1
10
37.6809243323187
20
15.9855770156533
30
0
41
1
10
37.6766153234626
20
15.9880308534473
30
0
41
1
10
37.6725126225174
20
15.9906474810406
30
0
41
1
10
37.6686149102107
20
15.9934029725073
30
0
41
1
10
37.6649224452298
20
15.9962810978359
30
0
41
1
10
37.6614353720452
20
15.9992648317461
30
0
41
1
10
37.6581528367142
20
16.0023366182316
30
0
41
1
10
37.6550778698628
20
16.0054853292608
30
0
41
1
10
37.6521996835924
20
16.008679899611
30
0
41
1
10
37.6504035869189
20
16.0109106507847
30
0
41
1
10
37.6495226247502
20
16.0120048053593
30
0
0
SPLINE
5
129
100
AcDbEntity
8
1
62
256
6
ByLayer
370
18
48
1
60
0
100
AcDbSpline
70
4
71
3
72
16
73
12
40
0
40
0
40
0
40
0
40
0.117319552095945
40
0.233085853241673
40
0.34729936220234
40
0.459960556706235
40
0.571069934503126
40
0.680628014495724
40
0.7886353379499
40
0.89509246979181
40
1
40
1
40
1
40
1
41
1
10
37.8489454154502
20
15.9261979503869
30
0
41
1
10
37.8426777667178
20
15.9280098113907
30
0
41
1
10
37.8302254497212
20
15.9316095452838
30
0
41
1
10
37.8117192560504
20
15.9372918435797
30
0
41
1
10
37.7934972967518
20
15.9431255105661
30
0
41
1
10
37.7755628434146
20
15.9491239823832
30
0
41
1
10
37.7579151154149
20
15.955272767606
30
0
41
1
10
37.740554028918
20
15.9615631094022
30
0
41
1
10
37.7234806581605
20
15.9679913275185
30
0
41
1
10
37.706690875273
20
15.9745291270345
30
0
41
1
10
37.695615651685
20
15.9790363834166
30
0
41
1
10
37.6901186384102
20
15.9812734893286
30
0
0
SPLINE
5
12A
100
AcDbEntity
8
1
62
256
6
ByLayer
370
18
48
1
60
0
100
AcDbSpline
70
4
71
2
72
10
73
7
40
0
40
0
40
0
40
0.5
40
0.5
40
0.75
40
0.75
40
1
40
1
40
1
41
1
10
37.8489454154407
20
15.9261979504229
30
0
41
1
10
37.9165392416633
20
15.9068212662844
30
0
41
1
10
37.9642354827663
20
15.8551810431715
30
0
41
1
10
37.9902224727181
20
15.8270452000084
30
0
41
1
10
38.0068593747276
20
15.7912188905061
30
0
41
1
10
38.0248252361496
20
15.7525307674765
30
0
41
1
10
38.0289461970802
20
15.7095155046322
30
0
0
SPLINE
5
12B
100
AcDbEntity
8
1
62
256
6
ByLayer
370
18
48
1
60
0
100
AcDbSpline
70
4
71
2
72
6
73
3
40
0
40
0
40
0
40
1
40
1
40
1
41
1
10
38.0289461971182
20
15.7095155047182
30
0
41
1
10
38.0378374892903
20
15.6143121349447
30
0
41
1
10
38.0378609595287
20
15.5187957680524
30
0
0
SPLINE
5
12C
100
AcDbEntity
8
1
62
256
6
ByLayer
370
18
48
1
60
0
100
AcDbSpline
70
4
71
3
72
17
73
13
40
0
40
0
40
0
40
0
40
0.100317411816952
40
0.20054131029333
40
0.300680278273328
40
0.400742920447451
40
0.500737861201714
40
0.600673742442678
40
0.70055922139913
40
0.800402968404829
40
0.900213664663547
40
1
40
1
40
1
40
1
41
1
10
38.0289461971202
20
15.2880449725394
30
0
41
1
10
38.0295231228819
20
15.2943903273405
30
0
41
1
10
38.0306764366099
20
15.3070751219644
30
0
41
1
10
38.0321818251215
20
15.3261322033485
30
0
41
1
10
38.0335216262515
20
15.3451969815232
30
0
41
1
10
38.0346798037515
20
15.3642707575547
30
0
41
1
10
38.0356607269916
20
15.3833510656775
30
0
41
1
10
38.0364629358431
20
15.4024364484599
30
0
41
1
10
38.0370879043619
20
15.4215251819916
30
0
41
1
10
38.0375311975093
20
15.4406156061118
30
0
41
1
10
38.0378090731847
20
15.4597060779128
30
0
41
1
10
38.037843665489
20
15.4724330954711
30
0
41
1
10
38.0378609595302
20
15.4787958275806
30
0
0
SPLINE
5
12D
100
AcDbEntity
8
1
62
256
6
ByLayer
370
18
48
1
60
0
100
AcDbSpline
70
4
71
3
72
38
73
34
40
0
40
0
40
0
40
0
40
0.0320161803190502
40
0.0634137556494232
40
0.0941938978101297
40
0.124357850627714
40
0.153906935790697
40
0.18284255929263
40
0.211166218534091
40
0.238879510162451
40
0.265984138740214
40
0.292481926343989
40
0.318374823211783
40
0.343664919571537
40
0.36835445880406
40
0.392445852114295
40
0.415941694911096
40
0.438844785123606
40
0.461158143716723
40
0.482885037704947
40
0.504029006008791
40
0.551366811163276
40
0.597409666800355
40
0.642207857910835
40
0.685815975457098
40
0.728293199079291
40
0.769703557231242
40
0.810116149643021
40
0.849605314210593
40
0.888250718110501
40
0.926137351649329
40
0.963355403684619
40
1
40
1
40
1
40
1
41
1
10
37.8489454154402
20
15.0707342058944
30
0
41
1
10
37.8515736233649
20
15.0715198790754
30
0
41
1
10
37.8567792579369
20
15.073076044946
30
0
41
1
10
37.8644507904019
20
15.0757255430245
30
0
41
1
10
37.8719249095615
20
15.0785628112066
30
0
41
1
10
37.8791975153449
20
15.081598558092
30
0
41
1
10
37.8862696764343
20
15.0848136670014
30
0
41
1
10
37.8931411178629
20
15.0881970015865
30
0
41
1
10
37.8998119140348
20
15.0917356089105
30
0
41
1
10
37.9062820488619
20
15.0954172932183
30
0
41
1
10
37.9125515300009
20
15.0992299730953
30
0
41
1
10
37.9186203592443
20
15.1031618710534
30
0
41
1
10
37.9244885401621
20
15.1072014845098
30
0
41
1
10
37.9301560763664
20
15.1113376108709
30
0
41
1
10
37.9356229711868
20
15.1155593564344
30
0
41
1
10
37.9408892306569
20
15.1198561462978
30
0
41
1
10
37.9459548524155
20
15.1242177350367
30
0
41
1
10
37.950819865802
20
15.1286342035793
30
0
41
1
10
37.9554841879104
20
15.1330959991581
30
0
41
1
10
37.959948140218
20
15.1375938135108
30
0
41
1
10
37.9660095568
20
15.1440288947972
30
0
41
1
10
37.9734588192034
20
15.152630685031
30
0
41
1
10
37.9820027422799
20
15.163718898743
30
0
41
1
10
37.9898489226437
20
15.1751820000157
30
0
41
1
10
37.996997605538
20
15.1869744614707
30
0
41
1
10
38.0034486190908
20
15.1990517499826
30
0
41
1
10
38.0092017357359
20
15.2113697620713
30
0
41
1
10
38.0142571546109
20
15.2238850509338
30
0
41
1
10
38.0186132961073
20
15.2365553198647
30
0
41
1
10
38.0222748801841
20
15.2493380742678
30
0
41
1
10
38.0252236999949
20
15.2621960826091
30
0
41
1
10
38.027524633432
20
15.2750780570712
30
0
41
1
10
38.0284748015063
20
15.2837450971975
30
0
41
1
10
38.0289461970802
20
15.2880449726253
30
0
0
SPLINE
5
12E
100
AcDbEntity
8
1
62
256
6
ByLayer
370
18
48
1
60
0
100
AcDbSpline
70
4
71
2
72
6
73
3
40
0
40
0
40
0
40
1
40
1
40
1
41
1
10
37.8489454154492
20
15.0707342059304
30
0
41
1
10
37.7679467190098
20
15.0473406390518
30
0
41
1
10
37.6901186384097
20
15.0151042572303
30
0
0
SPLINE
5
12F
100
AcDbEntity
8
1
62
256
6
ByLayer
370
18
48
1
60
0
100
AcDbSpline
70
4
71
2
72
6
73
3
40
0
40
0
40
0
40
1
40
1
40
1
41
1
10
37.6901186384087
20
15.0151042572373
30
0
41
1
10
37.6658197594154
20
15.0048925441628
30
0
41
1
10
37.6495226247482
20
14.9842312344516
30
0
0
SPLINE
5
130
100
AcDbEntity
8
1
62
256
6
ByLayer
370
18
48
1
60
0
100
AcDbSpline
70
4
71
3
72
10
73
6
40
0
40
0
40
0
40
0
40
0.5
40
0.5
40
1
40
1
40
1
40
1
41
1
10
11.0276281961116
20
-0.28227754060643
30
0
41
1
10
11.024604110705
20
-0.277167459287682
30
0
41
1
10
11.0210220935147
20
-0.271804402679436
30
0
41
1
10
11.013193480974
20
-0.261019280122355
30
0
41
1
10
11.0089152580003
20
-0.255544143276097
30
0
41
1
10
11.0043341013017
20
-0.249999999999773
30
0
0
SPLINE
5
131
100
AcDbEntity
8
1
62
256
6
ByLayer
370
18
48
1
60
0
100
AcDbSpline
70
4
71
3
72
16
73
12
40
0
40
0
40
0
40
0
40
0.25
40
0.25
40
0.5
40
0.5
40
0.75
40
0.75
40
0.875
40
0.875
40
1
40
1
40
1
40
1
41
1
10
11.0276281961116
20
-0.282277540606486
30
0
41
1
10
11.0655609699118
20
-0.287336251186275
30
0
41
1
10
11.1034318228734
20
-0.292282100096372
30
0
41
1
10
11.1790487078829
20
-0.301684454692804
30
0
41
1
10
11.2167947747196
20
-0.306145453798138
30
0
41
1
10
11.2921593820356
20
-0.314163386023608
30
0
41
1
10
11.3297360724389
20
-0.317725065648716
30
0
41
1
10
11.3854005138776
20
-0.321753904772265
30
0
41
1
10
11.403855529943
20
-0.322876673905029
30
0
41
1
10
11.4405128455448
20
-0.324487662952038
30
0
41
1
10
11.4587165340475
20
-0.324980947161691
30
0
41
1
10
11.4767455840037
20
-0.324980947161691
30
0
0
SPLINE
5
132
100
AcDbEntity
8
1
62
256
6
ByLayer
370
18
48
1
60
0
100
AcDbSpline
70
4
71
3
72
8
73
4
40
0
40
0
40
0
40
0
40
1
40
1
40
1
40
1
41
1
10
11.0276281961116
20
-0.282277540606486
30
0
41
1
10
11.0118395197766
20
-0.271487560575792
30
0
41
1
10
10.9960440478665
20
-0.260728153479562
30
0
41
1
10
10.9802416290831
20
-0.25
30
0
0
SPLINE
5
133
100
AcDbEntity
8
1
62
256
6
ByLayer
370
18
48
1
60
0
100
AcDbSpline
70
4
71
3
72
18
73
14
40
0
40
0
40
0
40
0
40
0.125000000000005
40
0.125000000000005
40
0.25000000000001
40
0.25000000000001
40
0.500000000000015
40
0.500000000000015
40
0.625000000000017
40
0.625000000000017
40
0.750000000000019
40
0.750000000000019
40
1
40
1
40
1
40
1
41
1
10
11.6224972601399
20
-0.324980947161663
30
0
41
1
10
11.6192703907151
20
-0.324980947161663
30
0
41
1
10
11.6154439919953
20
-0.324317343478441
30
0
41
1
10
11.6069612897688
20
-0.321956226105357
30
0
41
1
10
11.602269896615
20
-0.320249995981385
30
0
41
1
10
11.5871602352551
20
-0.313833832995215
30
0
41
1
10
11.576065685278
20
-0.308011887553732
30
0
41
1
10
11.5583323750177
20
-0.297626089548913
30
0
41
1
10
11.5522495768641
20
-0.293887591674519
30
0
41
1
10
11.5399996913608
20
-0.286061631183884
30
0
41
1
10
11.5338007062621
20
-0.281955461569027
30
0
41
1
10
11.5150061950698
20
-0.269118079601725
30
0
41
1
10
11.5022154752707
20
-0.259874306686129
30
0
41
1
10
11.4891887427026
20
-0.25
30
0
0
SPLINE
5
134
100
AcDbEntity
8
1
62
256
6
ByLayer
370
18
48
1
60
0
100
AcDbSpline
70
4
71
2
72
6
73
3
40
0
40
0
40
0
40
1
40
1
40
1
41
1
10
11.7003488338351
20
-0.324980947161691
30
0
41
1
10
11.6623357600101
20
-0.324980947161691
30
0
41
1
10
11.6225385935649
20
-0.324980947161691
30
0
0
SPLINE
5
135
100
AcDbEntity
8
1
62
256
6
ByLayer
370
18
48
1
60
0
100
AcDbSpline
70
4
71
3
72
20
73
16
40
0
40
0
40
0
40
0
40
0.249999999999989
40
0.249999999999989
40
0.374999999999991
40
0.374999999999991
40
0.499999999999993
40
0.499999999999993
40
0.624999999999995
40
0.624999999999995
40
0.749999999999996
40
0.749999999999996
40
0.874999999999998
40
0.874999999999998
40
1
40
1
40
1
40
1
41
1
10
11.6684781235838
20
-0.249999999999915
30
0
41
1
10
11.6767867414206
20
-0.259734549354079
30
0
41
1
10
11.6843676251665
20
-0.269228281522629
30
0
41
1
10
11.6941070170369
20
-0.282819409469283
30
0
41
1
10
11.6970181369881
20
-0.287157299177181
30
0
41
1
10
11.7020757146846
20
-0.295395783281549
30
0
41
1
10
11.70423462607
20
-0.299327912698914
30
0
41
1
10
11.7075283622337
20
-0.306433565607506
30
0
41
1
10
11.7086811012233
20
-0.309627561895638
30
0
41
1
10
11.709905560238
20
-0.315233151109652
30
0
41
1
10
11.7099565341409
20
-0.317602526875618
30
0
41
1
10
11.7089593394717
20
-0.321329216849307
30
0
41
1
10
11.7079143112223
20
-0.322720644458258
30
0
41
1
10
11.7047744349767
20
-0.324556906143442
30
0
41
1
10
11.7027276586107
20
-0.32498065502682
30
0
41
1
10
11.7002715671113
20
-0.324980947011881
30
0
0
SPLINE
5
136
100
AcDbEntity
8
1
62
256
6
ByLayer
370
18
48
1
60
0
100
AcDbSpline
70
4
71
3
72
20
73
16
40
0
40
0
40
0
40
0
40
0.125
40
0.125
40
0.249999999999999
40
0.249999999999999
40
0.374999999999999
40
0.374999999999999
40
0.499999999999999
40
0.499999999999999
40
0.624999999999998
40
0.624999999999998
40
0.749999999999998
40
0.749999999999998
40
1
40
1
40
1
40
1
41
1
10
12.1092848975575
20
-0.324980947087283
30
0
41
1
10
12.107254044376
20
-0.324981196953928
30
0
41
1
10
12.1045810907115
20
-0.324340880433709
30
0
41
1
10
12.0983483013897
20
-0.322018168166267
30
0
41
1
10
12.0947757469597
20
-0.320340999940072
30
0
41
1
10
12.0868485278645
20
-0.316102421478263
30
0
41
1
10
12.0824979881206
20
-0.31353891412266
30
0
41
1
10
12.0733790323531
20
-0.307803069518741
30
0
41
1
10
12.0685783551001
20
-0.304613503251545
30
0
41
1
10
12.0585602905132
20
-0.29767751332821
30
0
41
1
10
12.0533120633888
20
-0.29390734752613
30
0
41
1
10
12.0426436032128
20
-0.286012629843469
30
0
41
1
10
12.0372126933245
20
-0.281882103214599
30
0
41
1
10
12.020666805848
20
-0.269007950892956
30
0
41
1
10
12.009301763559
20
-0.259787645928668
30
0
41
1
10
11.9976433210011
20
-0.25
30
0
0
SPLINE
5
137
100
AcDbEntity
8
1
62
256
6
ByLayer
370
18
48
1
60
0
100
AcDbSpline
70
4
71
2
72
6
73
3
40
0
40
0
40
0
40
1
40
1
40
1
41
1
10
12.1591777306887
20
-0.324980947161691
30
0
41
1
10
12.1351086225604
20
-0.324980947161691
30
0
41
1
10
12.1093895093787
20
-0.324980947161691
30
0
0
SPLINE
5
138
100
AcDbEntity
8
1
62
256
6
ByLayer
370
18
48
1
60
0
100
AcDbSpline
70
4
71
3
72
22
73
18
40
0
40
0
40
0
40
0
40
0.125
40
0.125
40
0.25
40
0.25
40
0.375
40
0.375
40
0.5
40
0.5
40
0.625
40
0.625
40
0.75
40
0.75
40
0.875
40
0.875
40
1
40
1
40
1
40
1
41
1
10
12.112447912294
20
-0.249999999999943
30
0
41
1
10
12.1167868703034
20
-0.254854742203293
30
0
41
1
10
12.1209776473745
20
-0.259636419717196
30
0
41
1
10
12.1290217080621
20
-0.269034144111373
30
0
41
1
10
12.1328661856319
20
-0.273641363100268
30
0
41
1
10
12.1400065186708
20
-0.282471564406677
30
0
41
1
10
12.1433230755429
20
-0.286718169404963
30
0
41
1
10
12.1493691551654
20
-0.294822935140644
30
0
41
1
10
12.1521174610557
20
-0.298711369994777
30
0
41
1
10
12.1567559307757
20
-0.305797443053109
30
0
41
1
10
12.1586618746924
20
-0.309011980465471
30
0
41
1
10
12.1615434185314
20
-0.314703920460232
30
0
41
1
10
12.1624968318173
20
-0.317151650447101
30
0
41
1
10
12.1633272609604
20
-0.321050353590891
30
0
41
1
10
12.1632184611248
20
-0.322535308026602
30
0
41
1
10
12.1619178742492
20
-0.324512333252699
30
0
41
1
10
12.160748914312
20
-0.324980744910022
30
0
41
1
10
12.1591123242011
20
-0.324980947096634
30
0
0
SPLINE
5
139
100
AcDbEntity
8
1
62
256
6
ByLayer
370
18
48
1
60
0
100
AcDbSpline
70
4
71
3
72
8
73
4
40
0
40
0
40
0
40
0
40
1
40
1
40
1
40
1
41
1
10
37.0272539859064
20
15.08212345105
30
0
41
1
10
36.9689873208263
20
15.0535538706696
30
0
41
1
10
36.910651779655
20
15.0252661934084
30
0
41
1
10
36.8521290256815
20
14.9977447598762
30
0
0
SPLINE
5
13A
100
AcDbEntity
8
1
62
256
6
ByLayer
370
18
48
1
60
0
100
AcDbSpline
70
4
71
3
72
20
73
16
40
0
40
0
40
0
40
0
40
0.12500000000001
40
0.12500000000001
40
0.25000000000002
40
0.25000000000002
40
0.37500000000003
40
0.37500000000003
40
0.50000000000004
40
0.50000000000004
40
0.62500000000005
40
0.62500000000005
40
0.75000000000006
40
0.75000000000006
40
1
40
1
40
1
40
1
41
1
10
37.1003069910608
20
15.2232032561467
30
0
41
1
10
37.1003157271313
20
15.2153772331953
30
0
41
1
10
37.0998747870441
20
15.207617739262
30
0
41
1
10
37.0981066814651
20
15.1922298673219
30
0
41
1
10
37.0967705473348
20
15.1846033974453
30
0
41
1
10
37.093302414782
20
15.1699366319686
30
0
41
1
10
37.0911653819646
20
15.1628354073327
30
0
41
1
10
37.0860901099744
20
15.149094551092
30
0
41
1
10
37.0831215575695
20
15.1424090514258
30
0
41
1
10
37.0765706296255
20
15.1299407744312
30
0
41
1
10
37.0729784442383
20
15.1241115242988
30
0
41
1
10
37.0651786838864
20
15.1132397219575
30
0
41
1
10
37.0609383756766
20
15.1081650331128
30
0
41
1
10
37.0474931292567
20
15.0944012136179
30
0
41
1
10
37.0377511277641
20
15.0872704581364
30
0
41
1
10
37.0272539859064
20
15.08212345105
30
0
0
SPLINE
5
13B
100
AcDbEntity
8
1
62
256
6
ByLayer
370
18
48
1
60
0
100
AcDbSpline
70
4
71
2
72
6
73
3
40
0
40
0
40
0
40
1
40
1
40
1
41
0.499913265315706
10
37.0996929136898
20
15.7731407756759
30
0
41
0.500086734684294
10
37.1000000168335
20
15.4981995914688
30
0
41
0.499913265315706
10
37.1003069910608
20
15.2232032561462
30
0
0
SPLINE
5
13C
100
AcDbEntity
8
1
62
256
6
ByLayer
370
18
48
1
60
0
100
AcDbSpline
70
4
71
3
72
20
73
16
40
0
40
0
40
0
40
0
40
0.125000000000007
40
0.125000000000007
40
0.250000000000013
40
0.250000000000013
40
0.37500000000002
40
0.37500000000002
40
0.500000000000026
40
0.500000000000026
40
0.625000000000033
40
0.625000000000033
40
0.75000000000004
40
0.75000000000004
40
1
40
1
40
1
40
1
41
1
10
37.0263001761093
20
15.9139686016426
30
0
41
1
10
37.0315581679808
20
15.9114124292351
30
0
41
1
10
37.0366397387804
20
15.9083440002437
30
0
41
1
10
37.0464503562318
20
15.9011835524266
30
0
41
1
10
37.0512110717199
20
15.897055874103
30
0
41
1
10
37.0601588665948
20
15.8879246413269
30
0
41
1
10
37.0643533316329
20
15.8829275438443
30
0
41
1
10
37.0721816022803
20
15.8720676155406
30
0
41
1
10
37.075839387095
20
15.8661579228917
30
0
41
1
10
37.0824361420399
20
15.8536385811342
30
0
41
1
10
37.0853544489839
20
15.8470848578436
30
0
41
1
10
37.0904396617502
20
15.8333960683387
30
0
41
1
10
37.0926141662068
20
15.8262292966806
30
0
41
1
10
37.0978938758078
20
15.804009989656
30
0
41
1
10
37.0996754398078
20
15.788784672245
30
0
41
1
10
37.0996929136899
20
15.7731407756872
30
0
0
SPLINE
5
13D
100
AcDbEntity
8
1
62
256
6
ByLayer
370
18
48
1
60
0
100
AcDbSpline
70
4
71
3
72
8
73
4
40
0
40
0
40
0
40
0
40
1
40
1
40
1
40
1
41
1
10
36.85086821323
20
15.9977441135717
30
0
41
1
10
36.9094943714287
20
15.9704335137654
30
0
41
1
10
36.967931965172
20
15.9423443036062
30
0
41
1
10
37.0263001761093
20
15.9139686016426
30
0
0
SPLINE
5
13E
100
AcDbEntity
8
1
62
256
6
ByLayer
370
18
48
1
60
0
100
AcDbSpline
70
4
71
3
72
16
73
12
40
0
40
0
40
0
40
0
40
0.125000000000002
40
0.125000000000002
40
0.250000000000005
40
0.250000000000005
40
0.500000000000003
40
0.500000000000003
40
0.750000000000002
40
0.750000000000002
40
1
40
1
40
1
40
1
41
1
10
36.6080089471239
20
17.5975300387862
30
0
41
1
10
36.6201006485094
20
17.5315027836719
30
0
41
1
10
36.6316080838824
20
17.4652832134835
30
0
41
1
10
36.6539329844773
20
17.3326169648071
30
0
41
1
10
36.6647432606636
20
17.2661679199998
30
0
41
1
10
36.6964800884568
20
17.0665923505742
30
0
41
1
10
36.7167289758041
20
16.9332465849998
30
0
41
1
10
36.7562928143506
20
16.6663137502934
30
0
41
1
10
36.7755916359294
20
16.5327093933257
30
0
41
1
10
36.8136164748401
20
16.2653371257285
30
0
41
1
10
36.8323371510481
20
16.1315676900398
30
0
41
1
10
36.85086821323
20
15.9977441135717
30
0
0
SPLINE
5
13F
100
AcDbEntity
8
1
62
256
6
ByLayer
370
18
48
1
60
0
100
AcDbSpline
70
4
71
3
72
10
73
6
40
0
40
0
40
0
40
0
40
0.5
40
0.5
40
1
40
1
40
1
40
1
41
1
10
25.5442169557141
20
12.1006717255804
30
0
41
1
10
25.5450506698912
20
12.1000070968954
30
0
41
1
10
25.5444043361454
20
12.0993424693999
30
0
41
1
10
25.5403447829254
20
12.0980132166327
30
0
41
1
10
25.5369334869241
20
12.0973485913593
30
0
41
1
10
25.5326778237118
20
12.0966839667646
30
0
0
SPLINE
5
140
100
AcDbEntity
8
1
62
256
6
ByLayer
370
18
48
1
60
0
100
AcDbSpline
70
4
71
3
72
12
73
8
40
0
40
0
40
0
40
0
40
0.279915818467444
40
0.279915818467444
40
0.559831636934887
40
0.559831636934887
40
1
40
1
40
1
40
1
41
1
10
-12.0881936018054
20
-0.324980947161663
30
0
41
1
10
-12.0724293033973
20
-0.324980947161293
30
0
41
1
10
-12.0563145906413
20
-0.324140031765523
30
0
41
1
10
-12.0236224935398
20
-0.321432392161768
30
0
41
1
10
-12.0070405445916
20
-0.319553049457142
30
0
41
1
10
-11.9639178530067
20
-0.31375527917919
30
0
41
1
10
-11.9370513372836
20
-0.309281617071235
30
0
41
1
10
-11.910084161008
20
-0.304203938282598
30
0
0
SPLINE
5
141
100
AcDbEntity
8
1
62
256
6
ByLayer
370
18
48
1
60
0
100
AcDbSpline
70
4
71
3
72
30
73
26
40
0
40
0
40
0
40
0
40
0.124999999999996
40
0.124999999999996
40
0.187499999999994
40
0.187499999999994
40
0.249999999999993
40
0.312499999999991
40
0.312499999999991
40
0.374999999999989
40
0.374999999999989
40
0.499999999999989
40
0.499999999999989
40
0.56249999999999
40
0.56249999999999
40
0.624999999999992
40
0.624999999999992
40
0.749999999999994
40
0.749999999999994
40
0.812499999999995
40
0.812499999999995
40
0.874999999999997
40
0.937499999999998
40
0.937499999999998
40
1
40
1
40
1
40
1
41
1
10
14.272209428644
20
1.375
30
0
41
1
10
14.2500924484084
20
1.375
30
0
41
1
10
14.228053699137
20
1.37184524071961
30
0
41
1
10
14.1951172651323
20
1.3622058076956
30
0
41
1
10
14.1842805696398
20
1.35819977622589
30
0
41
1
10
14.1630634368024
20
1.34871346430882
30
0
41
1
10
14.1422433562508
20
1.33773564577859
30
0
41
1
10
14.1222102940526
20
1.32380143303922
30
0
41
1
10
14.1025786481296
20
1.30835932058403
30
0
41
1
10
14.0929217374853
20
1.29983613365201
30
0
41
1
10
14.0651466136046
20
1.27248836972282
30
0
41
1
10
14.0480577833704
20
1.25181459491549
30
0
41
1
10
14.0245361050739
20
1.21719287109173
30
0
41
1
10
14.0170426658869
20
1.20503309945985
30
0
41
1
10
14.002820854902
20
1.1795100605984
30
0
41
1
10
13.9961964711147
20
1.16633606881322
30
0
41
1
10
13.9777334498802
20
1.12561858730163
30
0
41
1
10
13.9672917115965
20
1.09689080860974
30
0
41
1
10
13.9544812855652
20
1.0513810655664
30
0
41
1
10
13.9506889336861
20
1.03576751393888
30
0
41
1
10
13.9442346739122
20
1.00440493730767
30
0
41
1
10
13.9388591445105
20
0.972745582927615
30
0
41
1
10
13.9356027931514
20
0.940503205296352
30
0
41
1
10
13.9334176768782
20
0.907966112001759
30
0
41
1
10
13.9328610188872
20
0.891489880359217
30
0
41
1
10
13.9328610188872
20
0.875
30
0
0
SPLINE
5
142
100
AcDbEntity
8
1
62
256
6
ByLayer
370
18
48
1
60
0
100
AcDbSpline
70
4
71
3
72
45
73
41
40
0
40
0
40
0
40
0
40
0.0625000000000019
40
0.0625000000000019
40
0.093750000000003
40
0.093750000000003
40
0.109375000000005
40
0.109375000000005
40
0.125000000000006
40
0.125000000000006
40
0.187500000000008
40
0.187500000000008
40
0.218750000000009
40
0.234375000000011
40
0.234375000000011
40
0.250000000000013
40
0.250000000000013
40
0.312500000000015
40
0.312500000000015
40
0.375000000000017
40
0.375000000000017
40
0.406250000000016
40
0.406250000000016
40
0.437500000000015
40
0.437500000000015
40
0.500000000000014
40
0.500000000000014
40
0.562500000000013
40
0.562500000000013
40
0.625000000000012
40
0.625000000000012
40
0.75000000000001
40
0.75000000000001
40
0.781250000000009
40
0.781250000000009
40
0.812500000000008
40
0.812500000000008
40
0.875000000000006
40
0.875000000000006
40
1
40
1
40
1
40
1
41
1
10
25.5000000000001
20
13.5274319518147
30
0
41
1
10
25.5000000000001
20
13.5859826678352
30
0
41
1
10
25.50289167768
20
13.644306921239
30
0
41
1
10
25.5119090830855
20
13.7314267944235
30
0
41
1
10
25.5156968466973
20
13.7604055125747
30
0
41
1
10
25.5226155739006
20
13.8037767073654
30
0
41
1
10
25.5251268905623
20
13.8182033754988
30
0
41
1
10
25.5305264240025
20
13.8467954550092
30
0
41
1
10
25.5334188872543
20
13.8609885546638
30
0
41
1
10
25.5488416138934
20
13.9314409936707
30
0
41
1
10
25.5642444833779
20
13.9861657627945
30
0
41
1
10
25.5919907110979
20
14.0657731620852
30
0
41
1
10
25.6070268600737
20
14.1049555586339
30
0
41
1
10
25.6238400088085
20
14.1431886670333
30
0
41
1
10
25.6354490429703
20
14.1684635792684
30
0
41
1
10
25.6414675629737
20
14.1810212203339
30
0
41
1
10
25.6723587272564
20
14.2428416192515
30
0
41
1
10
25.6996277950206
20
14.28927995344
30
0
41
1
10
25.7589098155945
20
14.376555600683
30
0
41
1
10
25.7909244761243
20
14.4173908974627
30
0
41
1
10
25.8423702915679
20
14.4746013934512
30
0
41
1
10
25.8601438186969
20
14.4930409450021
30
0
41
1
10
25.8963108155573
20
14.5281063658392
30
0
41
1
10
25.914751016389
20
14.5447914380768
30
0
41
1
10
25.9710754815039
20
14.5924611584159
30
0
41
1
10
26.0099602370932
20
14.6210683214561
30
0
41
1
10
26.0901471041501
20
14.6725382423097
30
0
41
1
10
26.1314503283052
20
14.6953983560239
30
0
41
1
10
26.2163199977792
20
14.735740451254
30
0
41
1
10
26.2592430741088
20
14.7529173778287
30
0
41
1
10
26.3890610890105
20
14.7964647067255
30
0
41
1
10
26.4771068280448
20
14.8149794089981
30
0
41
1
10
26.5887500530306
20
14.8270055447236
30
0
41
1
10
26.6111589196215
20
14.8288484679002
30
0
41
1
10
26.6561331382573
20
14.83143744759
30
0
41
1
10
26.6786461356801
20
14.8321788437733
30
0
41
1
10
26.7459413556892
20
14.8328089634118
30
0
41
1
10
26.7906114525115
20
14.831116008601
30
0
41
1
10
26.92408839998
20
14.8202094803042
30
0
41
1
10
27.0123657719895
20
14.8052104675607
30
0
41
1
10
27.1000000000002
20
14.7831840314615
30
0
0
SPLINE
5
143
100
AcDbEntity
8
1
62
256
6
ByLayer
370
18
48
1
60
0
100
AcDbSpline
70
4
71
3
72
22
73
18
40
0
40
0
40
0
40
0
40
0.125000000000003
40
0.125000000000003
40
0.187500000000003
40
0.187500000000003
40
0.250000000000002
40
0.250000000000002
40
0.375000000000003
40
0.375000000000003
40
0.500000000000004
40
0.500000000000004
40
0.625000000000005
40
0.625000000000005
40
0.750000000000006
40
0.750000000000006
40
1
40
1
40
1
40
1
41
1
10
-19
20
0.875000000000369
30
0
41
1
10
-19
20
0.886739396505504
30
0
41
1
10
-19
20
0.898334933247412
30
0
41
1
10
-19
20
0.915526319994314
30
0
41
1
10
-19
20
0.921249839664796
30
0
41
1
10
-19
20
0.932382397268725
30
0
41
1
10
-19
20
0.937818025288578
30
0
41
1
10
-19
20
0.953779495961811
30
0
41
1
10
-19
20
0.963962002739862
30
0
41
1
10
-19
20
0.983590258656619
30
0
41
1
10
-19
20
0.993066633922297
30
0
41
1
10
-19
20
1.01103989558169
30
0
41
1
10
-19
20
1.01958933386419
30
0
41
1
10
-19
20
1.03599807149254
30
0
41
1
10
-19
20
1.04387864715071
30
0
41
1
10
-19
20
1.06647334031416
30
0
41
1
10
-19
20
1.08016731983292
30
0
41
1
10
-19
20
1.09294494717704
30
0
0
SPLINE
5
144
100
AcDbEntity
8
1
62
256
6
ByLayer
370
18
48
1
60
0
100
AcDbSpline
70
4
71
3
72
17
73
13
40
0
40
0
40
0
40
0
40
0.125000000000001
40
0.125000000000001
40
0.250000000000001
40
0.250000000000001
40
0.5
40
0.75
40
0.75
40
0.875
40
0.875
40
1
40
1
40
1
40
1
41
1
10
13.2352225785396
20
1.10194986103841
30
0
41
1
10
13.2321935483705
20
1.0931885576758
30
0
41
1
10
13.229320321848
20
1.08423466879805
30
0
41
1
10
13.223954314237
20
1.06613922486659
30
0
41
1
10
13.2214653348589
20
1.05701600373558
30
0
41
1
10
13.2145677418633
20
1.02942479564703
30
0
41
1
10
13.2068854653391
20
0.992047187488112
30
0
41
1
10
13.2021935309548
20
0.953505971538164
30
0
41
1
10
13.1998286481957
20
0.9241509863636
30
0
41
1
10
13.1992333220504
20
0.914267356844931
30
0
41
1
10
13.1984461533021
20
0.894599019381985
30
0
41
1
10
13.1982512593706
20
0.884788104788299
30
0
41
1
10
13.1982512593706
20
0.875000000000085
30
0
0
SPLINE
5
145
100
AcDbEntity
8
1
62
256
6
ByLayer
370
18
48
1
60
0
100
AcDbSpline
70
4
71
3
72
18
73
14
40
0
40
0
40
0
40
0
40
0.124999999999999
40
0.124999999999999
40
0.249999999999998
40
0.249999999999998
40
0.499999999999998
40
0.499999999999998
40
0.749999999999998
40
0.749999999999998
40
0.874999999999999
40
0.874999999999999
40
1
40
1
40
1
40
1
41
1
10
11.008951354588
20
1.375
30
0
41
1
10
11.1024043261518
20
1.375
30
0
41
1
10
11.1957087125229
20
1.37255596513185
30
0
41
1
10
11.3820854841409
20
1.36385177599382
30
0
41
1
10
11.4751574989198
20
1.35758552800056
30
0
41
1
10
11.7540946265056
20
1.33419896304534
30
0
41
1
10
11.9396830508753
20
1.31252747798845
30
0
41
1
10
12.3103884324472
20
1.26142948077398
30
0
41
1
10
12.4955020109842
20
1.23194739392949
30
0
41
1
10
12.7729840888853
20
1.18462713747366
30
0
41
1
10
12.8654466157611
20
1.16833559921213
30
0
41
1
10
13.050343512165
20
1.13528937061881
30
0
41
1
10
13.1427773011434
20
1.11852513099271
30
0
41
1
10
13.2352225785407
20
1.10194986104796
30
0
0
SPLINE
5
146
100
AcDbEntity
8
1
62
256
6
ByLayer
370
18
48
1
60
0
100
AcDbSpline
70
4
71
3
72
29
73
25
40
0
40
0
40
0
40
0
40
0.0312500000000007
40
0.0312500000000007
40
0.0390625000000007
40
0.0390625000000007
40
0.0468750000000007
40
0.0625000000000007
40
0.0625000000000007
40
0.125000000000001
40
0.125000000000001
40
0.250000000000001
40
0.250000000000001
40
0.5
40
0.5
40
0.625
40
0.625
40
0.75
40
0.75
40
0.875
40
0.875
40
0.9375
40
0.9375
40
1
40
1
40
1
40
1
41
1
10
4.27170925976944
20
1.375
30
0
41
1
10
4.22741708030421
20
1.375
30
0
41
1
10
4.18311521228611
20
1.37474466629501
30
0
41
1
10
4.12772677047062
20
1.37413278892913
30
0
41
1
10
4.11662214905542
20
1.37399551069433
30
0
41
1
10
4.09427422884423
20
1.37368997305902
30
0
41
1
10
4.06075558069162
20
1.37318797124104
30
0
41
1
10
4.02724641447105
20
1.37255778395618
30
0
41
1
10
3.9155693592561
20
1.37018454364463
30
0
41
1
10
3.82629208870634
20
1.36741568963569
30
0
41
1
10
3.55862276249422
20
1.35691250020776
30
0
41
1
10
3.38039235477672
20
1.34699285937802
30
0
41
1
10
2.84615367628121
20
1.3111160225001
30
0
41
1
10
2.49060296760774
20
1.27897308159913
30
0
41
1
10
1.95751260839614
20
1.22757220977638
30
0
41
1
10
1.77985535969111
20
1.20990407890304
30
0
41
1
10
1.42447169103707
20
1.17550293757336
30
0
41
1
10
1.24674643474305
20
1.15875419576076
30
0
41
1
10
0.891013924382435
20
1.12906901707234
30
0
41
1
10
0.713004743019667
20
1.11615863515703
30
0
41
1
10
0.445564863653289
20
1.10255357249485
30
0
41
1
10
0.356363876266812
20
1.09898704843107
30
0
41
1
10
0.178116206561867
20
1.09418171358328
30
0
41
1
10
0.0890353225494209
20
1.09294494717704
30
0
41
1
10
0
20
1.09294494717704
30
0
0
SPLINE
5
147
100
AcDbEntity
8
1
62
256
6
ByLayer
370
18
48
1
60
0
100
AcDbSpline
70
4
71
3
72
19
73
15
40
0
40
0
40
0
40
0
40
0.25
40
0.25
40
0.5
40
0.5
40
0.75
40
0.75
40
0.781249999999999
40
0.781249999999999
40
0.812499999999999
40
0.812499999999999
40
0.875
40
1
40
1
40
1
40
1
41
1
10
5.63509935370516
20
0.394519052838319
30
0
41
1
10
4.70254111910936
20
0.222952407750881
30
0
41
1
10
3.76801610718675
20
0.0927021215975117
30
0
41
1
10
1.89487856191636
20
-0.0819313319209414
30
0
41
1
10
0.956265693072965
20
-0.126307451483001
30
0
41
1
10
-0.925138877083555
20
-0.127274388280995
30
0
41
1
10
-1.86793073751329
20
-0.083861862932082
30
0
41
1
10
-2.93093349052771
20
0.0145941935030862
30
0
41
1
10
-3.04907766511903
20
0.0262218984740628
30
0
41
1
10
-3.28543148800509
20
0.0508527234128167
30
0
41
1
10
-3.40368510858852
20
0.0638609988027099
30
0
41
1
10
-3.75823014923867
20
0.104910346530318
30
0
41
1
10
-4.46572999617388
20
0.195015774362247
30
0
41
1
10
-5.16854959974498
20
0.308685940134069
30
0
41
1
10
-5.63509935370516
20
0.394519052838291
30
0
0
SPLINE
5
148
100
AcDbEntity
8
1
62
256
6
ByLayer
370
18
48
1
60
0
100
AcDbSpline
70
4
71
3
72
18
73
14
40
0
40
0
40
0
40
0
40
0.250000000000008
40
0.250000000000008
40
0.500000000000016
40
0.500000000000016
40
0.625000000000012
40
0.625000000000012
40
0.750000000000008
40
0.750000000000008
40
0.875000000000004
40
0.875000000000004
40
1
40
1
40
1
40
1
41
1
10
-18.0287287527199
20
-0.249980947161589
30
0
41
1
10
-18.0203801250127
20
-0.259705568661019
30
0
41
1
10
-18.0127640730215
20
-0.269146074866086
30
0
41
1
10
-17.9995385373246
20
-0.287244191447456
30
0
41
1
10
-17.9942059657753
20
-0.295528658150829
30
0
41
1
10
-17.9888303130257
20
-0.306287723333213
30
0
41
1
10
-17.98753960481
20
-0.309477182072811
30
0
41
1
10
-17.9859863111476
20
-0.315040220045688
30
0
41
1
10
-17.9857248510136
20
-0.317423789181305
30
0
41
1
10
-17.9863130485071
20
-0.321261305045226
30
0
41
1
10
-17.9871484850687
20
-0.32266511089
30
0
41
1
10
-17.9898118920066
20
-0.324527026171893
30
0
41
1
10
-17.9916613950634
20
-0.324980947161691
30
0
41
1
10
-17.9939249199246
20
-0.324980947161691
30
0
0
SPLINE
5
149
100
AcDbEntity
8
1
62
256
6
ByLayer
370
18
48
1
60
0
100
AcDbSpline
70
4
71
3
72
8
73
4
40
0
40
0
40
0
40
0
40
1
40
1
40
1
40
1
41
1
10
-18.5812482082592
20
0.394519052838319
30
0
41
1
10
-18.397239110843
20
0.179580238590802
30
0
41
1
10
-18.2130708182976
20
-0.0352562190928438
30
0
41
1
10
-18.0287287527199
20
-0.249980947161589
30
0
0
SPLINE
5
14A
100
AcDbEntity
8
1
62
256
6
ByLayer
370
18
48
1
60
0
100
AcDbSpline
70
4
71
3
72
35
73
31
40
0
40
0
40
0
40
0
40
0.125000000000001
40
0.125000000000001
40
0.250000000000001
40
0.250000000000001
40
0.375000000000002
40
0.375000000000002
40
0.4375
40
0.4375
40
0.499999999999998
40
0.499999999999998
40
0.562499999999995
40
0.562499999999995
40
0.624999999999993
40
0.624999999999993
40
0.656249999999992
40
0.656249999999992
40
0.687499999999991
40
0.718749999999991
40
0.718749999999991
40
0.74999999999999
40
0.74999999999999
40
0.812499999999992
40
0.812499999999992
40
0.874999999999995
40
0.874999999999995
40
0.937499999999997
40
0.937499999999997
40
1
40
1
40
1
40
1
41
1
10
-18.4739743524117
20
0.394519052838319
30
0
41
1
10
-18.4870076534492
20
0.40467771428311
30
0
41
1
10
-18.4998072213004
20
0.41425738730112
30
0
41
1
10
-18.5248961876862
20
0.432166599792794
30
0
41
1
10
-18.5371877874604
20
0.44050144479246
30
0
41
1
10
-18.5611262051355
20
0.455603749929821
30
0
41
1
10
-18.5724254375322
20
0.462153942749694
30
0
41
1
10
-18.5880536600985
20
0.470032587577066
30
0
41
1
10
-18.5930715511233
20
0.472341317897843
30
0
41
1
10
-18.6023316428988
20
0.476059968224234
30
0
41
1
10
-18.6065924280455
20
0.477483071167541
30
0
41
1
10
-18.61424480329
20
0.479301674402052
30
0
41
1
10
-18.6176614101842
20
0.479690478088912
30
0
41
1
10
-18.6231992909744
20
0.479203435856874
30
0
41
1
10
-18.6253491347405
20
0.478344329635576
30
0
41
1
10
-18.6275127386324
20
0.475998666709387
30
0
41
1
10
-18.6280515637346
20
0.475037860517887
30
0
41
1
10
-18.6287334483274
20
0.47280285105478
30
0
41
1
10
-18.6290306236999
20
0.470245036757745
30
0
41
1
10
-18.6285640542785
20
0.467045659082999
30
0
41
1
10
-18.6277115578637
20
0.463521717329655
30
0
41
1
10
-18.6270871066253
20
0.461588002934661
30
0
41
1
10
-18.624692905213
20
0.455453171617592
30
0
41
1
10
-18.6224018034917
20
0.450883639903509
30
0
41
1
10
-18.6165835561629
20
0.440889135534377
30
0
41
1
10
-18.6130868726058
20
0.435525392193966
30
0
41
1
10
-18.6052856511485
20
0.424440528495324
30
0
41
1
10
-18.6009563118815
20
0.418678369205168
30
0
41
1
10
-18.5915551587891
20
0.4067724130702
30
0
41
1
10
-18.5865153525356
20
0.400671540737704
30
0
41
1
10
-18.5812482082592
20
0.394519052838319
30
0
0
SPLINE
5
14B
100
AcDbEntity
8
1
62
256
6
ByLayer
370
18
48
1
60
0
100
AcDbSpline
70
4
71
3
72
8
73
4
40
0
40
0
40
0
40
0
40
1
40
1
40
1
40
1
41
1
10
-17.6355675589552
20
-0.249980947161674
30
0
41
1
10
-17.9167965179605
20
-0.0368647817199701
30
0
41
1
10
-18.1962122396723
20
0.17802046530457
30
0
41
1
10
-18.4739743524117
20
0.394519052838319
30
0
0
SPLINE
5
14C
100
AcDbEntity
8
1
62
256
6
ByLayer
370
18
48
1
60
0
100
AcDbSpline
70
4
71
3
72
16
73
12
40
0
40
0
40
0
40
0
40
0.124999999999993
40
0.124999999999993
40
0.249999999999986
40
0.249999999999986
40
0.49999999999999
40
0.49999999999999
40
0.749999999999995
40
0.749999999999995
40
1
40
1
40
1
40
1
41
1
10
-17.5000603949205
20
-0.32498094716351
30
0
41
1
10
-17.5034531652321
20
-0.32498094716334
30
0
41
1
10
-17.5073995575774
20
-0.324343825065853
30
0
41
1
10
-17.516211201762
20
-0.322010582254791
30
0
41
1
10
-17.5210964025255
20
-0.320298706549949
30
0
41
1
10
-17.5364170579665
20
-0.313999603466158
30
0
41
1
10
-17.5477048511587
20
-0.308216513563508
30
0
41
1
10
-17.5716642128454
20
-0.294401957912299
30
0
41
1
10
-17.5840274375988
20
-0.286548128378229
30
0
41
1
10
-17.6093593126197
20
-0.26935695362036
30
0
41
1
10
-17.6223873763713
20
-0.259968929843211
30
0
41
1
10
-17.6355675589552
20
-0.249980947161674
30
0
0
SPLINE
5
14D
100
AcDbEntity
8
1
62
256
6
ByLayer
370
18
48
1
60
0
100
AcDbSpline
70
4
71
3
72
22
73
18
40
0
40
0
40
0
40
0
40
0.125
40
0.125
40
0.25
40
0.25
40
0.375
40
0.375
40
0.5
40
0.5
40
0.625
40
0.625
40
0.75
40
0.75
40
0.875
40
0.875
40
1
40
1
40
1
40
1
41
1
10
-17.4382636790639
20
-0.249980947161532
30
0
41
1
10
-17.4341690345688
20
-0.254867676870248
30
0
41
1
10
-17.4302867485268
20
-0.259694172525741
30
0
41
1
10
-17.4230138932382
20
-0.269207361992954
30
0
41
1
10
-17.4196040003651
20
-0.273922123855897
30
0
41
1
10
-17.4134737102216
20
-0.283050307925663
30
0
41
1
10
-17.4107831734637
20
-0.287415492847543
30
0
41
1
10
-17.4062510968042
20
-0.295693994296329
30
0
41
1
10
-17.4043952993558
20
-0.299650731135984
30
0
41
1
10
-17.401789850842
20
-0.306767870244158
30
0
41
1
10
-17.4010281714754
20
-0.309930304132962
30
0
41
1
10
-17.4006235085082
20
-0.31543428895057
30
0
41
1
10
-17.4009999617451
20
-0.317791201699009
30
0
41
1
10
-17.4028560532315
20
-0.321456739983091
30
0
41
1
10
-17.4043205947448
20
-0.322797204013682
30
0
41
1
10
-17.4082400976543
20
-0.324567600424046
30
0
41
1
10
-17.4106764673079
20
-0.32498094716172
30
0
41
1
10
-17.4134725186276
20
-0.324980947161691
30
0
0
SPLINE
5
14E
100
AcDbEntity
8
1
62
256
6
ByLayer
370
18
48
1
60
0
100
AcDbSpline
70
4
71
3
72
8
73
4
40
0
40
0
40
0
40
0
40
1
40
1
40
1
40
1
41
1
10
-17.9778880275984
20
0.394519052838319
30
0
41
1
10
-17.7980999976783
20
0.179631242401683
30
0
41
1
10
-17.6182278533523
20
-0.0352037478078557
30
0
41
1
10
-17.4382636790639
20
-0.249980947161504
30
0
0
SPLINE
5
14F
100
AcDbEntity
8
1
62
256
6
ByLayer
370
18
48
1
60
0
100
AcDbSpline
70
4
71
3
72
32
73
28
40
0
40
0
40
0
40
0
40
0.124999999999998
40
0.124999999999998
40
0.249999999999997
40
0.249999999999997
40
0.312499999999999
40
0.312499999999999
40
0.375000000000002
40
0.375000000000002
40
0.499999999999992
40
0.499999999999992
40
0.562499999999993
40
0.562499999999993
40
0.624999999999994
40
0.624999999999994
40
0.687499999999995
40
0.687499999999995
40
0.749999999999996
40
0.749999999999996
40
0.812499999999997
40
0.812499999999997
40
0.874999999999998
40
0.874999999999998
40
0.937499999999999
40
0.937499999999999
40
1
40
1
40
1
40
1
41
1
10
-17.8422547739246
20
0.394519052838319
30
0
41
1
10
-17.8560258583049
20
0.404520298715681
30
0
41
1
10
-17.8696032737994
20
0.413929027723412
30
0
41
1
10
-17.8963439997889
20
0.431494872861293
30
0
41
1
10
-17.9095086622445
20
0.439656005426087
30
0
41
1
10
-17.9288752363966
20
0.450757410418703
30
0
41
1
10
-17.9352728578613
20
0.454267026879989
30
0
41
1
10
-17.9476703393397
20
0.460711222123479
30
0
41
1
10
-17.9537005653584
20
0.46366412377742
30
0
41
1
10
-17.9712128917084
20
0.471599262198481
30
0
41
1
10
-17.9822334827617
20
0.475699253576352
30
0
41
1
10
-17.9962669091183
20
0.478921245725019
30
0
41
1
10
-18.0005541852456
20
0.479519553246576
30
0
41
1
10
-18.008147229582
20
0.479518551809349
30
0
41
1
10
-18.011339731184
20
0.478915980909278
30
0
41
1
10
-18.0163291232035
20
0.476337856270049
30
0
41
1
10
-18.0181293379942
20
0.474316428364631
30
0
41
1
10
-18.0199708816204
20
0.468918723610557
30
0
41
1
10
-18.0200531724044
20
0.465548906874716
30
0
41
1
10
-18.0184789084955
20
0.457414202766614
30
0
41
1
10
-18.0168366824856
20
0.45276514253942
30
0
41
1
10
-18.0120969825224
20
0.442603577620275
30
0
41
1
10
-18.0089580969637
20
0.437021951453488
30
0
41
1
10
-18.0016666684293
20
0.425517957988518
30
0
41
1
10
-17.9974945596912
20
0.419543766457821
30
0
41
1
10
-17.988265511424
20
0.407220741848732
30
0
41
1
10
-17.9832116767568
20
0.400882031017034
30
0
41
1
10
-17.9778880275984
20
0.394519052838319
30
0
0
SPLINE
5
150
100
AcDbEntity
8
1
62
256
6
ByLayer
370
18
48
1
60
0
100
AcDbSpline
70
4
71
3
72
8
73
4
40
0
40
0
40
0
40
0
40
1
40
1
40
1
40
1
41
1
10
-16.9397539363789
20
-0.249980947161674
30
0
41
1
10
-17.2427061894618
20
-0.0373726821929097
30
0
41
1
10
-17.5434740859654
20
0.177529668330379
30
0
41
1
10
-17.8422547739246
20
0.394519052838319
30
0
0
SPLINE
5
151
100
AcDbEntity
8
1
62
256
6
ByLayer
370
18
48
1
60
0
100
AcDbSpline
70
4
71
3
72
18
73
14
40
0
40
0
40
0
40
0
40
0.124999999999987
40
0.124999999999987
40
0.249999999999973
40
0.249999999999973
40
0.499999999999947
40
0.499999999999947
40
0.624999999999957
40
0.624999999999957
40
0.749999999999968
40
0.749999999999968
40
1
40
1
40
1
40
1
41
1
10
-16.7870313841584
20
-0.324980947167205
30
0
41
1
10
-16.791342106785
20
-0.324980947166722
30
0
41
1
10
-16.7961881593911
20
-0.324327948262379
30
0
41
1
10
-16.8067373608678
20
-0.321974304028231
30
0
41
1
10
-16.8124756598324
20
-0.320254548459047
30
0
41
1
10
-16.8302474035175
20
-0.313940007976839
30
0
41
1
10
-16.8429780756196
20
-0.308195138262704
30
0
41
1
10
-16.8630506740278
20
-0.297879915890746
30
0
41
1
10
-16.8698793452217
20
-0.294164224961378
30
0
41
1
10
-16.8835836043086
20
-0.286352873803736
30
0
41
1
10
-16.8904897614687
20
-0.282241375851697
30
0
41
1
10
-16.9113560136087
20
-0.26934695506975
30
0
41
1
10
-16.9254620768257
20
-0.260010803126988
30
0
41
1
10
-16.9397539363789
20
-0.249980947161674
30
0
0
SPLINE
5
152
100
AcDbEntity
8
1
62
256
6
ByLayer
370
18
48
1
60
0
100
AcDbSpline
70
4
71
3
72
22
73
18
40
0
40
0
40
0
40
0
40
0.125
40
0.125
40
0.25
40
0.25
40
0.375
40
0.375
40
0.5
40
0.5
40
0.625
40
0.625
40
0.75
40
0.75
40
0.875
40
0.875
40
1
40
1
40
1
40
1
41
1
10
-16.6928433719953
20
-0.249980947161418
30
0
41
1
10
-16.6887857444674
20
-0.254908553871502
30
0
41
1
10
-16.6849705694704
20
-0.259790857720077
30
0
41
1
10
-16.6779149533852
20
-0.26944782393528
30
0
41
1
10
-16.6746501619329
20
-0.274263633559656
30
0
41
1
10
-16.668997911571
20
-0.283500347574631
30
0
41
1
10
-16.6666000161339
20
-0.287927339757061
30
0
41
1
10
-16.6627981564321
20
-0.296336048834689
30
0
41
1
10
-16.6614063262736
20
-0.300325602141925
30
0
41
1
10
-16.6598747052286
20
-0.307395135076689
30
0
41
1
10
-16.6597043062066
20
-0.310531812540688
30
0
41
1
10
-16.6606077625794
20
-0.315971261589283
30
0
41
1
10
-16.6616850913993
20
-0.31821412996851
30
0
41
1
10
-16.6649110617957
20
-0.321701165436622
30
0
41
1
10
-16.6670940108751
20
-0.322977219047687
30
0
41
1
10
-16.6722914023283
20
-0.324610296155299
30
0
41
1
10
-16.6752935883738
20
-0.324980947162004
30
0
41
1
10
-16.6786305280169
20
-0.324980947162004
30
0
0
SPLINE
5
153
100
AcDbEntity
8
1
62
256
6
ByLayer
370
18
48
1
60
0
100
AcDbSpline
70
4
71
3
72
8
73
4
40
0
40
0
40
0
40
0
40
1
40
1
40
1
40
1
41
1
10
-17.2234180953955
20
0.394519052838319
30
0
41
1
10
-17.0465893021273
20
0.179667539911037
30
0
41
1
10
-16.8697319891465
20
-0.0351663712000629
30
0
41
1
10
-16.6928433719954
20
-0.249980947161418
30
0
0
SPLINE
5
154
100
AcDbEntity
8
1
62
256
6
ByLayer
370
18
48
1
60
0
100
AcDbSpline
70
4
71
3
72
36
73
32
40
0
40
0
40
0
40
0
40
0.125000000000005
40
0.125000000000005
40
0.25000000000001
40
0.25000000000001
40
0.312500000000007
40
0.312500000000007
40
0.375000000000005
40
0.375000000000005
40
0.437500000000001
40
0.437500000000001
40
0.499999999999998
40
0.499999999999998
40
0.562499999999995
40
0.562499999999995
40
0.624999999999992
40
0.624999999999992
40
0.687499999999989
40
0.687499999999989
40
0.749999999999986
40
0.749999999999986
40
0.812499999999983
40
0.812499999999983
40
0.843749999999989
40
0.843749999999989
40
0.874999999999994
40
0.874999999999994
40
0.937499999999997
40
0.937499999999997
40
1
40
1
40
1
40
1
41
1
10
-17.0559192792914
20
0.394519052838319
30
0
41
1
10
-17.0705982671182
20
0.404362834404878
30
0
41
1
10
-17.0851178275437
20
0.413601630101539
30
0
41
1
10
-17.1138227275755
20
0.430828338333697
30
0
41
1
10
-17.1280088688477
20
0.438819193995471
30
0
41
1
10
-17.1489899980216
20
0.449699392425316
30
0
41
1
10
-17.1559606335937
20
0.4531526058731
30
0
41
1
10
-17.1696501918301
20
0.459564811699522
30
0
41
1
10
-17.1763456356655
20
0.462514412437883
30
0
41
1
10
-17.1894003078252
20
0.467836120126378
30
0
41
1
10
-17.1957600056047
20
0.470209044019242
30
0
41
1
10
-17.2080807163957
20
0.474269475598959
30
0
41
1
10
-17.2140546329025
20
0.475956566440431
30
0
41
1
10
-17.2252235244482
20
0.478415526060701
30
0
41
1
10
-17.2304549202225
20
0.479202477171327
30
0
41
1
10
-17.2400467319688
20
0.479682312363281
30
0
41
1
10
-17.2444294871586
20
0.479360097418436
30
0
41
1
10
-17.2517430897208
20
0.477362054351346
30
0
41
1
10
-17.2547315718806
20
0.475687856197624
30
0
41
1
10
-17.2589862605905
20
0.470736049652856
30
0
41
1
10
-17.2601800791641
20
0.467549883255174
30
0
41
1
10
-17.2606310932113
20
0.459699767510244
30
0
41
1
10
-17.2598443353929
20
0.454972489546776
30
0
41
1
10
-17.2572903989193
20
0.447204211494579
30
0
41
1
10
-17.2562136678002
20
0.444488571355805
30
0
41
1
10
-17.2536321914573
20
0.438817281238812
30
0
41
1
10
-17.2521200375701
20
0.435851492444527
30
0
41
1
10
-17.2470990805785
20
0.4268335141021
30
0
41
1
10
-17.2430846030587
20
0.420595456700227
30
0
41
1
10
-17.2339746722671
20
0.407751827534497
30
0
41
1
10
-17.2288630059653
20
0.401134758640808
30
0
41
1
10
-17.2234180953955
20
0.394519052838348
30
0
0
SPLINE
5
155
100
AcDbEntity
8
1
62
256
6
ByLayer
370
18
48
1
60
0
100
AcDbSpline
70
4
71
3
72
8
73
4
40
0
40
0
40
0
40
0
40
1
40
1
40
1
40
1
41
1
10
-16.0747405491863
20
-0.249980947161674
30
0
41
1
10
-16.4043614902331
20
-0.0380721567194087
30
0
41
1
10
-16.7313392866229
20
0.176854552642254
30
0
41
1
10
-17.0559192792914
20
0.394519052838319
30
0
0
SPLINE
5
156
100
AcDbEntity
8
1
62
256
6
ByLayer
370
18
48
1
60
0
100
AcDbSpline
70
4
71
3
72
18
73
14
40
0
40
0
40
0
40
0
40
0.125000000000017
40
0.125000000000017
40
0.250000000000034
40
0.250000000000034
40
0.500000000000053
40
0.500000000000053
40
0.62500000000004
40
0.62500000000004
40
0.750000000000026
40
0.750000000000026
40
1
40
1
40
1
40
1
41
1
10
-15.9014694779915
20
-0.3249809471763
30
0
41
1
10
-15.9068347284255
20
-0.324980947175277
30
0
41
1
10
-15.9127047740947
20
-0.324317621812298
30
0
41
1
10
-15.9252257328505
20
-0.321961956424673
30
0
41
1
10
-15.9319250958335
20
-0.320249195654498
30
0
41
1
10
-15.9524998074369
20
-0.313959742985048
30
0
41
1
10
-15.9669425794261
20
-0.308258872530075
30
0
41
1
10
-15.9893960442947
20
-0.298066963277279
30
0
41
1
10
-15.9970463709325
20
-0.294372260744638
30
0
41
1
10
-16.0124072411958
20
-0.286558897961356
30
0
41
1
10
-16.0201229062703
20
-0.28243976752168
30
0
41
1
10
-16.0433670810145
20
-0.269500582045311
30
0
41
1
10
-16.0589915323881
20
-0.260105774454985
30
0
41
1
10
-16.0747405491863
20
-0.249980947161674
30
0
0
SPLINE
5
157
100
AcDbEntity
8
1
62
256
6
ByLayer
370
18
48
1
60
0
100
AcDbSpline
70
4
71
3
72
24
73
20
40
0
40
0
40
0
40
0
40
0.124999999999984
40
0.124999999999984
40
0.249999999999967
40
0.249999999999967
40
0.374999999999951
40
0.374999999999951
40
0.499999999999935
40
0.499999999999935
40
0.562499999999939
40
0.562499999999939
40
0.624999999999944
40
0.624999999999944
40
0.749999999999962
40
0.749999999999962
40
0.874999999999981
40
0.874999999999981
40
1
40
1
40
1
40
1
41
1
10
-15.7705104401658
20
-0.249980947161219
30
0
41
1
10
-15.7664409806213
20
-0.254963799579343
30
0
41
1
10
-15.7626505409949
20
-0.259920539419596
30
0
41
1
10
-15.7557515288526
20
-0.269770044953645
30
0
41
1
10
-15.7526342009608
20
-0.274688047466384
30
0
41
1
10
-15.7474658460833
20
-0.284082327184763
30
0
41
1
10
-15.7453822187737
20
-0.288598514860297
30
0
41
1
10
-15.7424161976405
20
-0.297195434076059
30
0
41
1
10
-15.7415893741885
20
-0.30113726110153
30
0
41
1
10
-15.7413685370152
20
-0.306412502500592
30
0
41
1
10
-15.7414634919665
20
-0.308069754760282
30
0
41
1
10
-15.7419978988112
20
-0.311177247757257
30
0
41
1
10
-15.7424416837274
20
-0.312630120683565
30
0
41
1
10
-15.7442442017021
20
-0.316565770116597
30
0
41
1
10
-15.7460732175956
20
-0.318673504026094
30
0
41
1
10
-15.7508356082859
20
-0.321978291223615
30
0
41
1
10
-15.7537321937803
20
-0.323141681747813
30
0
41
1
10
-15.7602441134995
20
-0.324638260700397
30
0
41
1
10
-15.7638772192615
20
-0.324980947161691
30
0
41
1
10
-15.7678282405418
20
-0.324980947161663
30
0
0
SPLINE
5
158
100
AcDbEntity
8
1
62
256
6
ByLayer
370
18
48
1
60
0
100
AcDbSpline
70
4
71
3
72
8
73
4
40
0
40
0
40
0
40
0
40
1
40
1
40
1
40
1
41
1
10
-16.2968648471025
20
0.394519052838319
30
0
41
1
10
-16.1214142561082
20
0.179685181728644
30
0
41
1
10
-15.9459628164259
20
-0.0351481695532812
30
0
41
1
10
-15.7705104401659
20
-0.249980947161219
30
0
0
SPLINE
5
159
100
AcDbEntity
8
1
62
256
6
ByLayer
370
18
48
1
60
0
100
AcDbSpline
70
4
71
3
72
37
73
33
40
0
40
0
40
0
40
0
40
0.125000000000014
40
0.125000000000014
40
0.250000000000028
40
0.250000000000028
40
0.312500000000026
40
0.312500000000026
40
0.375000000000024
40
0.375000000000024
40
0.437500000000022
40
0.437500000000022
40
0.500000000000021
40
0.500000000000021
40
0.562500000000019
40
0.562500000000019
40
0.625000000000017
40
0.625000000000017
40
0.687500000000015
40
0.687500000000015
40
0.718750000000014
40
0.718750000000014
40
0.750000000000013
40
0.781250000000012
40
0.781250000000012
40
0.812500000000011
40
0.812500000000011
40
0.875000000000007
40
0.875000000000007
40
0.937500000000004
40
0.937500000000004
40
1
40
1
40
1
40
1
41
1
10
-16.0923183384426
20
0.394519052838319
30
0
41
1
10
-16.1081403501313
20
0.404200256657845
30
0
41
1
10
-16.1238313712992
20
0.413265662151645
30
0
41
1
10
-16.1549439718491
20
0.430149685211973
30
0
41
1
10
-16.1703660028168
20
0.437970340595513
30
0
41
1
10
-16.1932654366168
20
0.448629773409038
30
0
41
1
10
-16.2008593510069
20
0.452002917468832
30
0
41
1
10
-16.2159579026447
20
0.458340102413388
30
0
41
1
10
-16.2234519279944
20
0.461297908650863
30
0
41
1
10
-16.2380890158211
20
0.466647495179046
30
0
41
1
10
-16.245260980452
20
0.469052204399844
30
0
41
1
10
-16.2592633136992
20
0.473231268390492
30
0
41
1
10
-16.2661219864907
20
0.475012423208597
30
0
41
1
10
-16.2792863978668
20
0.477766429622619
30
0
41
1
10
-16.2855515578539
20
0.478734012847497
30
0
41
1
10
-16.2973118227789
20
0.479672125908735
30
0
41
1
10
-16.3028162984544
20
0.479645941417374
30
0
41
1
10
-16.3127801679192
20
0.478272438753095
30
0
41
1
10
-16.3170998390114
20
0.476943943677298
30
0
41
1
10
-16.3223498902317
20
0.473755976422041
30
0
41
1
10
-16.3239027532794
20
0.472480345157834
30
0
41
1
10
-16.3264777974483
20
0.469527657879866
30
0
41
1
10
-16.3285222818147
20
0.466190067695862
30
0
41
1
10
-16.3294707477644
20
0.462056024846504
30
0
41
1
10
-16.3298403401063
20
0.457500657007216
30
0
41
1
10
-16.3297288331335
20
0.454989178748832
30
0
41
1
10
-16.3285186876843
20
0.44706044623743
30
0
41
1
10
-16.3265623504638
20
0.441180005305654
30
0
41
1
10
-16.3206481840525
20
0.428496905157545
30
0
41
1
10
-16.316807646128
20
0.421921670112624
30
0
41
1
10
-16.3077594567695
20
0.408408203381782
30
0
41
1
10
-16.3025219331033
20
0.401445981256501
30
0
41
1
10
-16.2968648471025
20
0.394519052838319
30
0
0
SPLINE
5
15A
100
AcDbEntity
8
1
62
256
6
ByLayer
370
18
48
1
60
0
100
AcDbSpline
70
4
71
3
72
8
73
4
40
0
40
0
40
0
40
0
40
1
40
1
40
1
40
1
41
1
10
-15.0113058733159
20
-0.249980947161674
30
0
41
1
10
-15.3747684041203
20
-0.0390788144742373
30
0
41
1
10
-15.7350028490323
20
0.175884144148966
30
0
41
1
10
-16.0923183384426
20
0.394519052838319
30
0
0
SPLINE
5
15B
100
AcDbEntity
8
1
62
256
6
ByLayer
370
18
48
1
60
0
100
AcDbSpline
70
4
71
3
72
18
73
14
40
0
40
0
40
0
40
0
40
0.125000000000019
40
0.125000000000019
40
0.250000000000039
40
0.250000000000039
40
0.500000000000049
40
0.500000000000049
40
0.625000000000041
40
0.625000000000041
40
0.750000000000033
40
0.750000000000033
40
1
40
1
40
1
40
1
41
1
10
-14.8124623350353
20
-0.324980947161691
30
0
41
1
10
-14.8191040881758
20
-0.324980947161009
30
0
41
1
10
-14.826201367126
20
-0.324309054638235
30
0
41
1
10
-14.8410729561888
20
-0.321962674102565
30
0
41
1
10
-14.8488745658274
20
-0.320277142050088
30
0
41
1
10
-14.8729727659273
20
-0.314000040236039
30
0
41
1
10
-14.8895680346605
20
-0.308329666237881
30
0
41
1
10
-14.9150208402985
20
-0.298248546839915
30
0
41
1
10
-14.9236014290334
20
-0.294617357588294
30
0
41
1
10
-14.9409404746336
20
-0.286855545448702
30
0
41
1
10
-14.9497206956231
20
-0.282713288346656
30
0
41
1
10
-14.976052688455
20
-0.26969847336872
30
0
41
1
10
-14.9936550910215
20
-0.260222959237126
30
0
41
1
10
-15.0113058733159
20
-0.249980947161674
30
0
0
SPLINE
5
15C
100
AcDbEntity
8
1
62
256
6
ByLayer
370
18
48
1
60
0
100
AcDbSpline
70
4
71
3
72
22
73
18
40
0
40
0
40
0
40
0
40
0.125
40
0.125
40
0.25
40
0.25
40
0.375
40
0.375
40
0.5
40
0.5
40
0.625
40
0.625
40
0.75
40
0.75
40
0.875
40
0.875
40
1
40
1
40
1
40
1
41
1
10
-14.6378611567674
20
-0.249980947160765
30
0
41
1
10
-14.6337062695904
20
-0.255043416118525
30
0
41
1
10
-14.6298767351538
20
-0.260106240331453
30
0
41
1
10
-14.6230472637204
20
-0.270232753743471
30
0
41
1
10
-14.6200843263832
20
-0.275257691632021
30
0
41
1
10
-14.6154489910775
20
-0.284851965514861
30
0
41
1
10
-14.6137386426708
20
-0.289478184913406
30
0
41
1
10
-14.6118264888769
20
-0.298252416364704
30
0
41
1
10
-14.6116726799336
20
-0.302184420737689
30
0
41
1
10
-14.6129132685258
20
-0.309168004887198
30
0
41
1
10
-14.6143452457557
20
-0.312233712057065
30
0
41
1
10
-14.6185013101192
20
-0.31722899389257
30
0
41
1
10
-14.6212507120715
20
-0.319223339349264
30
0
41
1
10
-14.6276897795995
20
-0.322264257201539
30
0
41
1
10
-14.6313455176698
20
-0.323311967656196
30
0
41
1
10
-14.6393339813921
20
-0.324671544088858
30
0
41
1
10
-14.6436861637691
20
-0.324980947161691
30
0
41
1
10
-14.6482797132064
20
-0.324980947161691
30
0
0
SPLINE
5
15D
100
AcDbEntity
8
1
62
256
6
ByLayer
370
18
48
1
60
0
100
AcDbSpline
70
4
71
3
72
8
73
4
40
0
40
0
40
0
40
0
40
1
40
1
40
1
40
1
41
1
10
-15.1667226783067
20
0.394519052838319
30
0
41
1
10
-14.9904557633516
20
0.179673252606676
30
0
41
1
10
-14.8141693177328
20
-0.035160531136512
30
0
41
1
10
-14.6378611567676
20
-0.249980947160765
30
0
0
SPLINE
5
15E
100
AcDbEntity
8
1
62
256
6
ByLayer
370
18
48
1
60
0
100
AcDbSpline
70
4
71
3
72
32
73
28
40
0
40
0
40
0
40
0
40
0.124999999999994
40
0.124999999999994
40
0.249999999999988
40
0.249999999999988
40
0.374999999999982
40
0.374999999999982
40
0.437499999999983
40
0.437499999999983
40
0.499999999999984
40
0.499999999999984
40
0.624999999999985
40
0.624999999999985
40
0.749999999999987
40
0.749999999999987
40
0.812499999999987
40
0.812499999999987
40
0.843749999999988
40
0.843749999999988
40
0.874999999999988
40
0.874999999999988
40
0.906249999999988
40
0.906249999999988
40
0.937499999999989
40
0.937499999999989
40
1
40
1
40
1
40
1
41
1
10
-14.917139020263
20
0.394519052838319
30
0
41
1
10
-14.9344476298749
20
0.404023486860524
30
0
41
1
10
-14.951670326529
20
0.412916838420955
30
0
41
1
10
-14.985940144602
20
0.429481867193488
30
0
41
1
10
-15.0029874868118
20
0.437155024368053
30
0
41
1
10
-15.0368825566627
20
0.451126841449934
30
0
41
1
10
-15.0538143213152
20
0.457452343825082
30
0
41
1
10
-15.0784542027497
20
0.465437639459168
30
0
41
1
10
-15.086556340249
20
0.467854927845565
30
0
41
1
10
-15.1025031675837
20
0.472121922114553
30
0
41
1
10
-15.1103771446343
20
0.473978062194675
30
0
41
1
10
-15.1333232050906
20
0.478462496419667
30
0
41
1
10
-15.1475864856647
20
0.480042909231599
30
0
41
1
10
-15.1728315270451
20
0.478697351337104
30
0
41
1
10
-15.1839406355279
20
0.475624193230942
30
0
41
1
10
-15.1935543889026
20
0.465213977477276
30
0
41
1
10
-15.1955157054795
20
0.460889148266347
30
0
41
1
10
-15.1962909719604
20
0.452906798019313
30
0
41
1
10
-15.1961750258383
20
0.450020940609448
30
0
41
1
10
-15.1952286606578
20
0.443978379701605
30
0
41
1
10
-15.1944011683871
20
0.440798728334443
30
0
41
1
10
-15.1920700953782
20
0.434136718479124
30
0
41
1
10
-15.1905606996569
20
0.430654502661866
30
0
41
1
10
-15.1870296219919
20
0.423643516063777
30
0
41
1
10
-15.1849986360634
20
0.420084952291035
30
0
41
1
10
-15.1782123037365
20
0.409270385922156
30
0
41
1
10
-15.1727363465437
20
0.401848910316261
30
0
41
1
10
-15.1667226783068
20
0.394519052838319
30
0
0
SPLINE
5
15F
100
AcDbEntity
8
1
62
256
6
ByLayer
370
18
48
1
60
0
100
AcDbSpline
70
4
71
3
72
8
73
4
40
0
40
0
40
0
40
0
40
1
40
1
40
1
40
1
41
1
10
-13.7033325990741
20
-0.249980947161674
30
0
41
1
10
-14.1118090101191
20
-0.0406200174700473
30
0
41
1
10
-14.5162787786963
20
0.174400290933079
30
0
41
1
10
-14.917139020263
20
0.394519052838319
30
0
0
SPLINE
5
160
100
AcDbEntity
8
1
62
256
6
ByLayer
370
18
48
1
60
0
100
AcDbSpline
70
4
71
3
72
18
73
14
40
0
40
0
40
0
40
0
40
0.125000000000008
40
0.125000000000008
40
0.250000000000015
40
0.250000000000015
40
0.500000000000016
40
0.500000000000016
40
0.625000000000012
40
0.625000000000012
40
0.750000000000008
40
0.750000000000008
40
1
40
1
40
1
40
1
41
1
10
-13.4707590466833
20
-0.324980947161663
30
0
41
1
10
-13.4790426143305
20
-0.324980947160924
30
0
41
1
10
-13.4877484855215
20
-0.324300247940755
30
0
41
1
10
-13.5057756944861
20
-0.321941256519949
30
0
41
1
10
-13.5151490437596
20
-0.320245771405467
30
0
41
1
10
-13.5435827809818
20
-0.3140236442012
30
0
41
1
10
-13.5629742414692
20
-0.308403963315669
30
0
41
1
10
-13.5925288496342
20
-0.298384525187089
30
0
41
1
10
-13.6024606690834
20
-0.294771964935876
30
0
41
1
10
-13.6224734316684
20
-0.287040580432603
30
0
41
1
10
-13.6325784400979
20
-0.282910887998582
30
0
41
1
10
-13.662895217506
20
-0.269878476907678
30
0
41
1
10
-13.6831105541848
20
-0.260345575335549
30
0
41
1
10
-13.7033325990741
20
-0.249980947161674
30
0
0
SPLINE
5
161
100
AcDbEntity
8
1
62
256
6
ByLayer
370
18
48
1
60
0
100
AcDbSpline
70
4
71
3
72
24
73
20
40
0
40
0
40
0
40
0
40
0.125
40
0.125
40
0.249999999999999
40
0.249999999999999
40
0.374999999999999
40
0.374999999999999
40
0.437499999999986
40
0.437499999999986
40
0.499999999999974
40
0.499999999999974
40
0.62499999999998
40
0.62499999999998
40
0.749999999999987
40
0.749999999999987
40
0.874999999999993
40
0.874999999999993
40
1
40
1
40
1
40
1
41
1
10
-13.2410331525235
20
-0.249980947159685
30
0
41
1
10
-13.2366717680853
20
-0.255161360763594
30
0
41
1
10
-13.232695050748
20
-0.260385226271353
30
0
41
1
10
-13.2258016845265
20
-0.270931072699795
30
0
41
1
10
-13.2229993581937
20
-0.276081925994561
30
0
41
1
10
-13.218968421277
20
-0.286084946206984
30
0
41
1
10
-13.217759892894
20
-0.29100217495008
30
0
41
1
10
-13.2174600076951
20
-0.297580407577812
30
0
41
1
10
-13.2175992461981
20
-0.299659982289853
30
0
41
1
10
-13.2183530563979
20
-0.303593932941453
30
0
41
1
10
-13.2189756245219
20
-0.305461994607356
30
0
41
1
10
-13.2214983554683
20
-0.310608205531139
30
0
41
1
10
-13.2240247330261
20
-0.313435949905994
30
0
41
1
10
-13.2304155523808
20
-0.31809962722599
30
0
41
1
10
-13.2341732063764
20
-0.319865449819389
30
0
41
1
10
-13.2425039387849
20
-0.322573447462389
30
0
41
1
10
-13.2471064545229
20
-0.323514290699506
30
0
41
1
10
-13.2568419376332
20
-0.324717378814029
30
0
41
1
10
-13.2619500759385
20
-0.324980947164193
30
0
41
1
10
-13.2672449924402
20
-0.324980947164107
30
0
0
SPLINE
5
162
100
AcDbEntity
8
1
62
256
6
ByLayer
370
18
48
1
60
0
100
AcDbSpline
70
4
71
3
72
8
73
4
40
0
40
0
40
0
40
0
40
1
40
1
40
1
40
1
41
1
10
-13.7830022040408
20
0.394519052838319
30
0
41
1
10
-13.6024787330431
20
0.179601914328856
30
0
41
1
10
-13.4218277113966
20
-0.0352347798379355
30
0
41
1
10
-13.2410331525239
20
-0.249980947159742
30
0
0
SPLINE
5
163
100
AcDbEntity
8
1
62
256
6
ByLayer
370
18
48
1
60
0
100
AcDbSpline
70
4
71
3
72
42
73
38
40
0
40
0
40
0
40
0
40
0.125
40
0.125
40
0.249999999999999
40
0.249999999999999
40
0.374999999999999
40
0.374999999999999
40
0.437500000000002
40
0.437500000000002
40
0.500000000000006
40
0.500000000000006
40
0.56250000000001
40
0.56250000000001
40
0.625000000000014
40
0.625000000000014
40
0.687500000000018
40
0.687500000000018
40
0.718750000000016
40
0.718750000000016
40
0.750000000000014
40
0.750000000000014
40
0.781250000000013
40
0.781250000000013
40
0.812500000000011
40
0.812500000000011
40
0.843750000000009
40
0.843750000000009
40
0.875000000000007
40
0.875000000000007
40
0.906250000000005
40
0.906250000000005
40
0.937500000000004
40
0.937500000000004
40
0.968750000000002
40
0.968750000000002
40
1
40
1
40
1
40
1
41
1
10
-13.4751387226226
20
0.394519052838348
30
0
41
1
10
-13.4944974298941
20
0.403824970923949
30
0
41
1
10
-13.5137682733054
20
0.412506876021638
30
0
41
1
10
-13.5521351294637
20
0.428655124456242
30
0
41
1
10
-13.5712312469642
20
0.436122125516334
30
0
41
1
10
-13.6092315701573
20
0.449732644727959
30
0
41
1
10
-13.6281363869181
20
0.455880681945132
30
0
41
1
10
-13.6563165838365
20
0.463875283141988
30
0
41
1
10
-13.6657097944521
20
0.466339640870586
30
0
41
1
10
-13.68417823702
20
0.470721421207799
30
0
41
1
10
-13.6932733156991
20
0.472646210690215
30
0
41
1
10
-13.7111381361335
20
0.475871029240125
30
0
41
1
10
-13.7199085658052
20
0.477172418009957
30
0
41
1
10
-13.7370460781938
20
0.478996684936675
30
0
41
1
10
-13.7454473674279
20
0.479522794198147
30
0
41
1
10
-13.7615565883783
20
0.479515271737995
30
0
41
1
10
-13.7691954443652
20
0.478988680249955
30
0
41
1
10
-13.7797908223149
20
0.477107910049227
30
0
41
1
10
-13.7831870871887
20
0.476291703406076
30
0
41
1
10
-13.7894934249633
20
0.474249515499508
30
0
41
1
10
-13.7924190564528
20
0.47302260592582
30
0
41
1
10
-13.7977338238776
20
0.470082361169176
30
0
41
1
10
-13.8001238000058
20
0.468369794664795
30
0
41
1
10
-13.8042436244571
20
0.464344813194259
30
0
41
1
10
-13.8059545012143
20
0.462033278761908
30
0
41
1
10
-13.8084586467166
20
0.456907376408793
30
0
41
1
10
-13.8092739842408
20
0.454074887423445
30
0
41
1
10
-13.8099296361508
20
0.447806989829843
30
0
41
1
10
-13.8097574303534
20
0.444470345874578
30
0
41
1
10
-13.8084729692142
20
0.437445286657436
30
0
41
1
10
-13.8073470724843
20
0.433719731071363
30
0
41
1
10
-13.8042548936939
20
0.42607571628605
30
0
41
1
10
-13.8023108722539
20
0.42219152204089
30
0
41
1
10
-13.7977493603533
20
0.414317667809627
30
0
41
1
10
-13.7951158494948
20
0.410309926271566
30
0
41
1
10
-13.7893940390956
20
0.40238146501062
30
0
41
1
10
-13.786296163494
20
0.398440583573262
30
0
41
1
10
-13.7830022040414
20
0.394519052838263
30
0
0
SPLINE
5
164
100
AcDbEntity
8
1
62
256
6
ByLayer
370
18
48
1
60
0
100
AcDbSpline
70
4
71
3
72
8
73
4
40
0
40
0
40
0
40
0
40
1
40
1
40
1
40
1
41
1
10
-12.0715924641051
20
-0.249980947161674
30
0
41
1
10
-12.5443782285905
20
-0.0432112314598498
30
0
41
1
10
-13.0120515832121
20
0.171908579658265
30
0
41
1
10
-13.4751387226226
20
0.394519052838319
30
0
0
SPLINE
5
165
100
AcDbEntity
8
1
62
256
6
ByLayer
370
18
48
1
60
0
100
AcDbSpline
70
4
71
3
72
18
73
14
40
0
40
0
40
0
40
0
40
0.125
40
0.125
40
0.25
40
0.25
40
0.375
40
0.375
40
0.5
40
0.5
40
0.75
40
0.75
40
1
40
1
40
1
40
1
41
1
10
-11.7904053433561
20
-0.324980947161691
30
0
41
1
10
-11.8009857587864
20
-0.324980947161123
30
0
41
1
10
-11.8119141236754
20
-0.324294680904728
30
0
41
1
10
-11.8342604401862
20
-0.321948179201343
30
0
41
1
10
-11.8456816009172
20
-0.320281751592631
30
0
41
1
10
-11.8689197814209
20
-0.316156259594692
30
0
41
1
10
-11.8806546577429
20
-0.313709166632691
30
0
41
1
10
-11.9041624897105
20
-0.308214039015723
30
0
41
1
10
-11.9159624072422
20
-0.305160068139685
30
0
41
1
10
-11.95148223962
20
-0.29519330724861
30
0
41
1
10
-11.9753205267178
20
-0.287485958052713
30
0
41
1
10
-12.0232815266328
20
-0.270170993163305
30
0
41
1
10
-12.0474840624247
20
-0.260524596602778
30
0
41
1
10
-12.0715924641051
20
-0.249980947161674
30
0
0
SPLINE
5
166
100
AcDbEntity
8
1
62
256
6
ByLayer
370
18
48
1
60
0
100
AcDbSpline
70
4
71
3
72
26
73
22
40
0
40
0
40
0
40
0
40
0.062500000000013
40
0.062500000000013
40
0.125000000000026
40
0.125000000000026
40
0.250000000000052
40
0.250000000000052
40
0.312500000000053
40
0.312500000000053
40
0.375000000000054
40
0.375000000000054
40
0.437500000000055
40
0.437500000000055
40
0.500000000000056
40
0.500000000000056
40
0.625000000000047
40
0.625000000000047
40
0.750000000000038
40
0.750000000000038
40
1
40
1
40
1
40
1
41
1
10
-11.4840297216474
20
-0.2499809471567
30
0
41
1
10
-11.4816286657575
20
-0.252662809483013
30
0
41
1
10
-11.4793484168762
20
-0.255372625405698
30
0
41
1
10
-11.4750796198066
20
-0.260859831188952
30
0
41
1
10
-11.4730842221143
20
-0.263650244245781
30
0
41
1
10
-11.4677646288332
20
-0.271946319953031
30
0
41
1
10
-11.4650456356642
20
-0.277434891804376
30
0
41
1
10
-11.462706057678
20
-0.285534684117294
30
0
41
1
10
-11.4622438677764
20
-0.288130022310526
30
0
41
1
10
-11.4619653550609
20
-0.293107796327661
30
0
41
1
10
-11.4621533183068
20
-0.295506817538978
30
0
41
1
10
-11.4631780671402
20
-0.300007083328865
30
0
41
1
10
-11.4640022960697
20
-0.302081589349541
30
0
41
1
10
-11.4662023413252
20
-0.305919505641953
30
0
41
1
10
-11.4675918046274
20
-0.307694451502499
30
0
41
1
10
-11.4723994241289
20
-0.312493707308562
30
0
41
1
10
-11.4764176812268
20
-0.315011270866336
30
0
41
1
10
-11.4855788711065
20
-0.319099714434628
30
0
41
1
10
-11.4906901155617
20
-0.320641072370194
30
0
41
1
10
-11.5067742702653
20
-0.324111897520851
30
0
41
1
10
-11.5186972392776
20
-0.324980947161748
30
0
41
1
10
-11.5311526233312
20
-0.324980947161748
30
0
0
SPLINE
5
167
100
AcDbEntity
8
1
62
256
6
ByLayer
370
18
48
1
60
0
100
AcDbSpline
70
4
71
3
72
8
73
4
40
0
40
0
40
0
40
0
40
1
40
1
40
1
40
1
41
1
10
-12.0587239255455
20
0.394519052838319
30
0
41
1
10
-11.8676217953063
20
0.179376344705133
30
0
41
1
10
-11.6760787809167
20
-0.0354715144199815
30
0
41
1
10
-11.4840297216482
20
-0.249980947156956
30
0
0
SPLINE
5
168
100
AcDbEntity
8
1
62
256
6
ByLayer
370
18
48
1
60
0
100
AcDbSpline
70
4
71
3
72
32
73
28
40
0
40
0
40
0
40
0
40
0.249999999999995
40
0.249999999999995
40
0.374999999999993
40
0.374999999999993
40
0.49999999999999
40
0.49999999999999
40
0.624999999999988
40
0.624999999999988
40
0.687499999999992
40
0.687499999999992
40
0.749999999999996
40
0.749999999999996
40
0.8125
40
0.8125
40
0.84375
40
0.84375
40
0.875
40
0.875
40
0.90625
40
0.90625
40
0.9375
40
0.9375
40
0.96875
40
0.96875
40
1
40
1
40
1
40
1
41
1
10
-11.6678057336413
20
0.394519052838405
30
0
41
1
10
-11.7127397678169
20
0.41266167405351
30
0
41
1
10
-11.7573384013257
20
0.428385440091915
30
0
41
1
10
-11.8237114343644
20
0.448288569619422
30
0
41
1
10
-11.845746713031
20
0.454295911623802
30
0
41
1
10
-11.8896066393101
20
0.464812029230075
30
0
41
1
10
-11.9114326704852
20
0.46933185223088
30
0
41
1
10
-11.95479962995
20
0.476291629724812
30
0
41
1
10
-11.9759294367788
20
0.478686948315044
30
0
41
1
10
-12.0062651822148
20
0.479674902419362
30
0
41
1
10
-12.0162023258966
20
0.479558848744972
30
0
41
1
10
-12.0351157717405
20
0.478062827266314
30
0
41
1
10
-12.0440909421574
20
0.476702313584752
30
0
41
1
10
-12.0605343945399
20
0.472050935714037
30
0
41
1
10
-12.0677998310453
20
0.468833437824344
30
0
41
1
10
-12.0762532119582
20
0.461814512102706
30
0
41
1
10
-12.0786055530974
20
0.459126123836853
30
0
41
1
10
-12.0820678765738
20
0.453040044483913
30
0
41
1
10
-12.0831948388428
20
0.449567033594036
30
0
41
1
10
-12.0839543936443
20
0.442111383170811
30
0
41
1
10
-12.0836171858975
20
0.43812255355823
30
0
41
1
10
-12.0815169303313
20
0.429624814704908
30
0
41
1
10
-12.0797842940736
20
0.42525064573681
30
0
41
1
10
-12.0752352121409
20
0.416407852627799
30
0
41
1
10
-12.07239584525
20
0.411909057921463
30
0
41
1
10
-12.0660531689379
20
0.403129240718585
30
0
41
1
10
-12.0625268109323
20
0.398800339805859
30
0
41
1
10
-12.0587239255501
20
0.394519052837495
30
0
0
SPLINE
5
169
100
AcDbEntity
8
1
62
256
6
ByLayer
370
18
48
1
60
0
100
AcDbSpline
70
4
71
3
72
8
73
4
40
0
40
0
40
0
40
0
40
1
40
1
40
1
40
1
41
1
10
-9.95818080364235
20
-0.249980947161674
30
0
41
1
10
-10.5346776336162
20
-0.0483216931654624
30
0
41
1
10
-11.1043070714565
20
0.167000136035085
30
0
41
1
10
-11.6678057336413
20
0.394519052838319
30
0
0
SPLINE
5
16A
100
AcDbEntity
8
1
62
256
6
ByLayer
370
18
48
1
60
0
100
AcDbSpline
70
4
71
3
72
18
73
14
40
0
40
0
40
0
40
0
40
0.125
40
0.125
40
0.25
40
0.25
40
0.375
40
0.375
40
0.5
40
0.5
40
0.75
40
0.75
40
1
40
1
40
1
40
1
41
1
10
-9.59510119943218
20
-0.324980947161663
30
0
41
1
10
-9.60939630151746
20
-0.324980947161464
30
0
41
1
10
-9.62392958123108
20
-0.324297794518799
30
0
41
1
10
-9.6533198646451
20
-0.321987997282719
30
0
41
1
10
-9.66817941641821
20
-0.320354306837686
30
0
41
1
10
-9.69815480400071
20
-0.316330675660282
30
0
41
1
10
-9.71327144979441
20
-0.313938494308843
30
0
41
1
10
-9.74372435458606
20
-0.308500052459749
30
0
41
1
10
-9.75905370529833
20
-0.305452754405337
30
0
41
1
10
-9.80495401068578
20
-0.295505489673701
30
0
41
1
10
-9.83557362085624
20
-0.287787704120774
30
0
41
1
10
-9.89684818743098
20
-0.270391615950899
30
0
41
1
10
-9.92750315018563
20
-0.260712025614936
30
0
41
1
10
-9.95818080364235
20
-0.249980947161788
30
0
0
SPLINE
5
16B
100
AcDbEntity
8
1
62
256
6
ByLayer
370
18
48
1
60
0
100
AcDbSpline
70
4
71
3
72
28
73
24
40
0
40
0
40
0
40
0
40
0.125000000000034
40
0.125000000000034
40
0.187500000000032
40
0.187500000000032
40
0.25000000000003
40
0.25000000000003
40
0.312500000000029
40
0.312500000000029
40
0.375000000000027
40
0.375000000000027
40
0.437500000000025
40
0.437500000000025
40
0.500000000000023
40
0.500000000000023
40
0.562500000000021
40
0.562500000000021
40
0.62500000000002
40
0.62500000000002
40
0.750000000000016
40
0.750000000000016
40
1
40
1
40
1
40
1
41
1
10
-9.16192765463472
20
-0.249980947138766
30
0
41
1
10
-9.15615273719939
20
-0.255600302159536
30
0
41
1
10
-9.15099568342281
20
-0.261428771439853
30
0
41
1
10
-9.14496698035506
20
-0.270733855935191
30
0
41
1
10
-9.14331827787969
20
-0.273832273956145
30
0
41
1
10
-9.14090466831667
20
-0.280021122036658
30
0
41
1
10
-9.14015242917431
20
-0.283132132257862
30
0
41
1
10
-9.139745942689
20
-0.288994391027671
30
0
41
1
10
-9.14007685399201
20
-0.291811047499749
30
0
41
1
10
-9.14176760795814
20
-0.297056649595959
30
0
41
1
10
-9.14309662059118
20
-0.299433796617706
30
0
41
1
10
-9.14654547282488
20
-0.303785698642059
30
0
41
1
10
-9.14864892647104
20
-0.305731679421086
30
0
41
1
10
-9.15332789905122
20
-0.309190981638977
30
0
41
1
10
-9.15591900108478
20
-0.310721335777998
30
0
41
1
10
-9.16149106764067
20
-0.313472547988653
30
0
41
1
10
-9.16447108844685
20
-0.314689457234209
30
0
41
1
10
-9.17061784845586
20
-0.316834503373997
30
0
41
1
10
-9.17380116994084
20
-0.317770516319399
30
0
41
1
10
-9.18361005093709
20
-0.320256178363991
30
0
41
1
10
-9.19049092913099
20
-0.321487874959359
30
0
41
1
10
-9.21184074493505
20
-0.324296988708198
30
0
41
1
10
-9.22679002986771
20
-0.32498094718548
30
0
41
1
10
-9.24203289084736
20
-0.324980947184287
30
0
0
SPLINE
5
16C
100
AcDbEntity
8
1
62
256
6
ByLayer
370
18
48
1
60
0
100
AcDbSpline
70
4
71
3
72
8
73
4
40
0
40
0
40
0
40
0
40
1
40
1
40
1
40
1
41
1
10
-9.81603258289493
20
0.394519052838319
30
0
41
1
10
-9.59945084309437
20
0.178579548921931
30
0
41
1
10
-9.38150318820514
20
-0.0363202513205749
30
0
41
1
10
-9.16192765466236
20
-0.249980947148117
30
0
0
SPLINE
5
16D
100
AcDbEntity
8
1
62
256
6
ByLayer
370
18
48
1
60
0
100
AcDbSpline
70
4
71
3
72
40
73
36
40
0
40
0
40
0
40
0
40
0.249999999999994
40
0.249999999999994
40
0.374999999999992
40
0.374999999999992
40
0.499999999999989
40
0.499999999999989
40
0.624999999999986
40
0.624999999999986
40
0.687499999999985
40
0.687499999999985
40
0.749999999999983
40
0.749999999999983
40
0.781249999999986
40
0.781249999999986
40
0.812499999999988
40
0.812499999999988
40
0.84374999999999
40
0.84374999999999
40
0.859374999999989
40
0.859374999999989
40
0.874999999999988
40
0.874999999999988
40
0.890624999999988
40
0.890624999999988
40
0.906249999999987
40
0.906249999999987
40
0.921874999999986
40
0.921874999999986
40
0.937499999999985
40
0.937499999999985
40
0.968749999999992
40
0.968749999999992
40
1
40
1
40
1
40
1
41
1
10
-9.2841810453084
20
0.394519052838376
30
0
41
1
10
-9.34017379706033
20
0.411984788024654
30
0
41
1
10
-9.39601192035434
20
0.427203651425628
30
0
41
1
10
-9.47952542222005
20
0.446639435856639
30
0
41
1
10
-9.50732211964873
20
0.452540557511185
30
0
41
1
10
-9.56282215011132
20
0.462985872473894
30
0
41
1
10
-9.5905971576497
20
0.46754346444186
30
0
41
1
10
-9.64542464074819
20
0.474775707838489
30
0
41
1
10
-9.67252935657895
20
0.477485771001255
30
0
41
1
10
-9.71247397730109
20
0.479401388086785
30
0
41
1
10
-9.72561496243209
20
0.479671406018895
30
0
41
1
10
-9.75127744124482
20
0.479198955684723
30
0
41
1
10
-9.76382370190693
20
0.478467938343755
30
0
41
1
10
-9.78197621721299
20
0.476199819832971
30
0
41
1
10
-9.78793553313179
20
0.475240630314488
30
0
41
1
10
-9.79941135246932
20
0.472809610404283
30
0
41
1
10
-9.80493252167
20
0.471341442256374
30
0
41
1
10
-9.81536969482481
20
0.467696445541065
30
0
41
1
10
-9.82025191704597
20
0.465528162032342
30
0
41
1
10
-9.82671081231395
20
0.46160232917947
30
0
41
1
10
-9.82872465913616
20
0.460178391440451
30
0
41
1
10
-9.83240803000095
20
0.457044593765261
30
0
41
1
10
-9.83408395207491
20
0.455322141342577
30
0
41
1
10
-9.83691476309485
20
0.451629505232489
30
0
41
1
10
-9.83808223492781
20
0.44965214766799
30
0
41
1
10
-9.83984362065759
20
0.445393853961377
30
0
41
1
10
-9.84043321763885
20
0.443094163484318
30
0
41
1
10
-9.84093439359414
20
0.438350627376025
30
0
41
1
10
-9.8408581966258
20
0.43588877511641
30
0
41
1
10
-9.84005628377635
20
0.430785798097901
30
0
41
1
10
-9.83931959826043
20
0.428130012762523
30
0
41
1
10
-9.83628141918076
20
0.42020718810565
30
0
41
1
10
-9.83310183810713
20
0.414823368519507
30
0
41
1
10
-9.82543633707969
20
0.404451510867119
30
0
41
1
10
-9.82095703569023
20
0.399428903016116
30
0
41
1
10
-9.81603258289498
20
0.394519052838319
30
0
0
SPLINE
5
16E
100
AcDbEntity
8
1
62
256
6
ByLayer
370
18
48
1
60
0
100
AcDbSpline
70
4
71
3
72
8
73
4
40
0
40
0
40
0
40
0
40
1
40
1
40
1
40
1
41
1
10
-6.93594876110137
20
-0.249980947161703
30
0
41
1
10
-7.72871488352834
20
-0.0625343625468133
30
0
41
1
10
-8.51106941926361
20
0.153363501317045
30
0
41
1
10
-9.2841810453084
20
0.394519052838319
30
0
0
SPLINE
5
16F
100
AcDbEntity
8
1
62
256
6
ByLayer
370
18
48
1
60
0
100
AcDbSpline
70
4
71
3
72
16
73
12
40
0
40
0
40
0
40
0
40
0.124999999999998
40
0.124999999999998
40
0.249999999999997
40
0.249999999999997
40
0.499999999999998
40
0.499999999999998
40
0.749999999999999
40
0.749999999999999
40
1
40
1
40
1
40
1
41
1
10
-6.37324688789334
20
-0.324980947161691
30
0
41
1
10
-6.39622554762153
20
-0.324980947161805
30
0
41
1
10
-6.41933984890952
20
-0.32432683659124
30
0
41
1
10
-6.46575063303877
20
-0.322103275723634
30
0
41
1
10
-6.48904860821466
20
-0.320527259459766
30
0
41
1
10
-6.55915724759686
20
-0.314685170281479
30
0
41
1
10
-6.60624700046331
20
-0.30931152451268
30
0
41
1
10
-6.70053768771601
20
-0.296247688555951
30
0
41
1
10
-6.74765569510397
20
-0.288561641840119
30
0
41
1
10
-6.84183988712428
20
-0.270989081156273
30
0
41
1
10
-6.88890603212444
20
-0.261104024483615
30
0
41
1
10
-6.93594876110136
20
-0.249980947162044
30
0
0
SPLINE
5
170
100
AcDbEntity
8
1
62
256
6
ByLayer
370
18
48
1
60
0
100
AcDbSpline
70
4
71
3
72
32
73
28
40
0
40
0
40
0
40
0
40
0.0624999999999956
40
0.0624999999999956
40
0.124999999999991
40
0.124999999999991
40
0.156249999999989
40
0.156249999999989
40
0.187499999999987
40
0.187499999999987
40
0.218749999999985
40
0.218749999999985
40
0.249999999999982
40
0.249999999999982
40
0.28124999999998
40
0.28124999999998
40
0.312499999999978
40
0.312499999999978
40
0.37499999999998
40
0.37499999999998
40
0.499999999999984
40
0.499999999999984
40
0.624999999999988
40
0.624999999999988
40
0.749999999999992
40
0.749999999999992
40
1
40
1
40
1
40
1
41
1
10
-5.61238790983066
20
-0.249980947161674
30
0
41
1
10
-5.60765302916403
20
-0.253089184920668
30
0
41
1
10
-5.60312924602133
20
-0.256357332105779
30
0
41
1
10
-5.59482555714962
20
-0.263458431072081
30
0
41
1
10
-5.59105027515605
20
-0.26728590672252
30
0
41
1
10
-5.58688499125802
20
-0.273464681357865
30
0
41
1
10
-5.58578591563975
20
-0.275548359099474
30
0
41
1
10
-5.58431463660071
20
-0.279764544741283
30
0
41
1
10
-5.58395291309168
20
-0.281932408544151
30
0
41
1
10
-5.58411087529183
20
-0.286034279942328
30
0
41
1
10
-5.58461644419509
20
-0.288011152822264
30
0
41
1
10
-5.58637613485084
20
-0.291729229057808
30
0
41
1
10
-5.58759473135945
20
-0.293421247005369
30
0
41
1
10
-5.59053069476531
20
-0.296559073188945
30
0
41
1
10
-5.59225727253883
20
-0.298005436744745
30
0
41
1
10
-5.59597133164442
20
-0.300628566677915
30
0
41
1
10
-5.59797251939432
20
-0.30182026104319
30
0
41
1
10
-5.60429163701173
20
-0.305132530572479
30
0
41
1
10
-5.60894278908538
20
-0.306999070165261
30
0
41
1
10
-5.62327045301893
20
-0.311839387041061
30
0
41
1
10
-5.63344455078982
20
-0.314152801215755
30
0
41
1
10
-5.65436067839298
20
-0.317936657222759
30
0
41
1
10
-5.66515582305112
20
-0.319378401561352
30
0
41
1
10
-5.68692929171772
20
-0.321677238196486
30
0
41
1
10
-5.69791907592233
20
-0.322532273450719
30
0
41
1
10
-5.7310993628526
20
-0.324485004299049
30
0
41
1
10
-5.75349694670439
20
-0.324980947161691
30
0
41
1
10
-5.77605947760023
20
-0.324980947161691
30
0
0
SPLINE
5
171
100
AcDbEntity
8
1
62
256
6
ByLayer
370
18
48
1
60
0
100
AcDbSpline
70
4
71
3
72
8
73
4
40
0
40
0
40
0
40
0
40
1
40
1
40
1
40
1
41
1
10
-6.54187806553897
20
0.394519052838319
30
0
41
1
10
-6.23806730610463
20
0.173174989895386
30
0
41
1
10
-5.92880201540663
20
-0.0422692138214131
30
0
41
1
10
-5.61238790983069
20
-0.249980947161731
30
0
0
SPLINE
5
172
100
AcDbEntity
8
1
62
256
6
ByLayer
370
18
48
1
60
0
100
AcDbSpline
70
4
71
3
72
42
73
38
40
0
40
0
40
0
40
0
40
0.250000000000007
40
0.250000000000007
40
0.37500000000001
40
0.37500000000001
40
0.500000000000014
40
0.500000000000014
40
0.625000000000017
40
0.625000000000017
40
0.687500000000019
40
0.687500000000019
40
0.750000000000021
40
0.750000000000021
40
0.812500000000023
40
0.812500000000023
40
0.843750000000023
40
0.843750000000023
40
0.875000000000024
40
0.875000000000024
40
0.906250000000025
40
0.906250000000025
40
0.921875000000026
40
0.921875000000026
40
0.937500000000026
40
0.937500000000026
40
0.945312500000023
40
0.945312500000023
40
0.95312500000002
40
0.95312500000002
40
0.960937500000016
40
0.960937500000016
40
0.968750000000013
40
0.968750000000013
40
0.984375000000007
40
0.984375000000007
40
1
40
1
40
1
40
1
41
1
10
-5.63509935370516
20
0.394519052838319
30
0
41
1
10
-5.72190542173044
20
0.41048912882053
30
0
41
1
10
-5.80868288459695
20
0.424733471319001
30
0
41
1
10
-5.93880564924044
20
0.443353543084044
30
0
41
1
10
-5.9821471639614
20
0.449088887548072
30
0
41
1
10
-6.06857569510589
20
0.459429533412248
30
0
41
1
10
-6.11168761760081
20
0.464042436826361
30
0
41
1
10
-6.19766252675518
20
0.471813512737214
30
0
41
1
10
-6.2405273446623
20
0.474985904312462
30
0
41
1
10
-6.3045665585008
20
0.478102801442105
30
0
41
1
10
-6.32586637804098
20
0.478863267139729
30
0
41
1
10
-6.36813982915069
20
0.479628898773399
30
0
41
1
10
-6.38913744363759
20
0.479640522332318
30
0
41
1
10
-6.43073070040577
20
0.478558744535746
30
0
41
1
10
-6.45138968921583
20
0.477480842671042
30
0
41
1
10
-6.48167377269934
20
0.474423628354543
30
0
41
1
10
-6.49161165409663
20
0.473164616848663
30
0
41
1
10
-6.51102817672674
20
0.469936618638428
30
0
41
1
10
-6.52051396104336
20
0.467978904086635
30
0
41
1
10
-6.53870820348467
20
0.462851168792327
30
0
41
1
10
-6.54747415553975
20
0.459688354136972
30
0
41
1
10
-6.55865084378891
20
0.45327318316717
30
0
41
1
10
-6.56208225390402
20
0.450813268369984
30
0
41
1
10
-6.56760145856258
20
0.445164968140489
30
0
41
1
10
-6.56972718234782
20
0.441898806140671
30
0
41
1
10
-6.57125941384879
20
0.436516137352527
30
0
41
1
10
-6.57150328364484
20
0.434610744631584
30
0
41
1
10
-6.57139923706535
20
0.430734829804351
30
0
41
1
10
-6.5710601097003
20
0.428773985692999
30
0
41
1
10
-6.56985184236829
20
0.42481000434347
30
0
41
1
10
-6.56897326203291
20
0.422798454423315
30
0
41
1
10
-6.56682641679652
20
0.418892726543106
30
0
41
1
10
-6.56555403553972
20
0.416977450053451
30
0
41
1
10
-6.56125565118423
20
0.411322623198941
30
0
41
1
10
-6.55776397299188
20
0.407698427918291
30
0
41
1
10
-6.55024111986286
20
0.400882110664838
30
0
41
1
10
-6.5461660120209
20
0.397643074837191
30
0
41
1
10
-6.54187806553904
20
0.394519052838291
30
0
0
SPLINE
5
173
100
AcDbEntity
8
1
62
256
6
ByLayer
370
18
48
1
60
0
100
AcDbSpline
70
4
71
3
72
44
73
40
40
0
40
0
40
0
40
0
40
0.0156249999999961
40
0.0156249999999961
40
0.0312499999999922
40
0.0312499999999922
40
0.0468749999999883
40
0.0468749999999883
40
0.0624999999999844
40
0.0624999999999844
40
0.0703124999999823
40
0.0703124999999823
40
0.0781249999999801
40
0.0781249999999801
40
0.0937499999999771
40
0.0937499999999771
40
0.109374999999974
40
0.109374999999974
40
0.124999999999971
40
0.124999999999971
40
0.15624999999997
40
0.15624999999997
40
0.187499999999969
40
0.187499999999969
40
0.218749999999968
40
0.218749999999968
40
0.249999999999967
40
0.249999999999967
40
0.312499999999971
40
0.312499999999971
40
0.374999999999974
40
0.374999999999974
40
0.499999999999979
40
0.499999999999979
40
0.624999999999984
40
0.624999999999984
40
0.749999999999988
40
0.749999999999988
40
1
40
1
40
1
40
1
41
1
10
6.54187806555959
20
0.394519052853354
30
0
41
1
10
6.54614546779462
20
0.397628107157232
30
0
41
1
10
6.55021756356132
20
0.400861465452977
30
0
41
1
10
6.55777056206983
20
0.407703701197676
30
0
41
1
10
6.56129598643125
20
0.411363114125635
30
0
41
1
10
6.56705748724221
20
0.418968163507486
30
0
41
1
10
6.56932722932987
20
0.422995671933734
30
0
41
1
10
6.57168490957019
20
0.430920997184245
30
0
41
1
10
6.57175717462624
20
0.434925051400626
30
0
41
1
10
6.57015139304471
20
0.44032260618178
30
0
41
1
10
6.56933658674413
20
0.442055744708597
30
0
41
1
10
6.56726874995528
20
0.445298049905972
30
0
41
1
10
6.5660280453917
20
0.446800463934608
30
0
41
1
10
6.56181730098169
20
0.451027436641482
30
0
41
1
10
6.55833373982009
20
0.453484973406688
30
0
41
1
10
6.5508004452978
20
0.457746368327577
30
0
41
1
10
6.5467176738498
20
0.459580952860648
30
0
41
1
10
6.53813304768261
20
0.462858852853856
30
0
41
1
10
6.53361639847378
20
0.464301094258474
30
0
41
1
10
6.5198495325705
20
0.46813334285531
30
0
41
1
10
6.51030376473537
20
0.470077388088697
30
0
41
1
10
6.49079444448401
20
0.47327846449943
30
0
41
1
10
6.48082394217533
20
0.474523817516143
30
0
41
1
10
6.46058932392771
20
0.476536430526153
30
0
41
1
10
6.45030212179387
20
0.477301669748783
30
0
41
1
10
6.42961236265563
20
0.478467690200063
30
0
41
1
10
6.41922412124936
20
0.478867771469453
30
0
41
1
10
6.38795856659962
20
0.479649983083448
30
0
41
1
10
6.36698186331
20
0.479620519913681
30
0
41
1
10
6.32484567668064
20
0.478831518110468
30
0
41
1
10
6.30368495098853
20
0.47806642369909
30
0
41
1
10
6.23998913389465
20
0.474946284754395
30
0
41
1
10
6.19724342039717
20
0.471779858008915
30
0
41
1
10
6.11135271730831
20
0.464007901333133
30
0
41
1
10
6.0681616831572
20
0.459383828874366
30
0
41
1
10
5.98166173485373
20
0.449026939424954
30
0
41
1
10
5.93839049291037
20
0.443296531767231
30
0
41
1
10
5.80851432815439
20
0.424704531841371
30
0
41
1
10
5.72184695483151
20
0.410478372420215
30
0
41
1
10
5.63509935370516
20
0.394519052838348
30
0
0
SPLINE
5
174
100
AcDbEntity
8
1
62
256
6
ByLayer
370
18
48
1
60
0
100
AcDbSpline
70
4
71
3
72
8
73
4
40
0
40
0
40
0
40
0
40
1
40
1
40
1
40
1
41
1
10
5.61238790983106
20
-0.249980947161475
30
0
41
1
10
5.92880201541402
20
-0.042269213816553
30
0
41
1
10
6.23806730611875
20
0.173174989905192
30
0
41
1
10
6.54187806555959
20
0.394519052853354
30
0
0
SPLINE
5
175
100
AcDbEntity
8
1
62
256
6
ByLayer
370
18
48
1
60
0
100
AcDbSpline
70
4
71
3
72
30
73
26
40
0
40
0
40
0
40
0
40
0.249999999999997
40
0.249999999999997
40
0.37499999999999
40
0.37499999999999
40
0.499999999999982
40
0.499999999999982
40
0.624999999999974
40
0.624999999999974
40
0.68749999999997
40
0.68749999999997
40
0.749999999999967
40
0.749999999999967
40
0.781249999999975
40
0.781249999999975
40
0.812499999999984
40
0.812499999999984
40
0.843749999999992
40
0.843749999999992
40
0.875
40
0.875
40
0.9375
40
0.9375
40
1
40
1
40
1
40
1
41
1
10
5.77605947760023
20
-0.324980947161691
30
0
41
1
10
5.75348207034324
20
-0.324980947161691
30
0
41
1
10
5.73107070305844
20
-0.324484360437964
30
0
41
1
10
5.69787250034994
20
-0.322529009528012
30
0
41
1
10
5.6868772103214
20
-0.321672821768971
30
0
41
1
10
5.6650941167884
20
-0.319370798652528
30
0
41
1
10
5.65428657913864
20
-0.31792659946683
30
0
41
1
10
5.63331780876879
20
-0.31412649334905
30
0
41
1
10
5.62309598237715
20
-0.311798232781058
30
0
41
1
10
5.60871185823666
20
-0.306911863318533
30
0
41
1
10
5.60414559160574
20
-0.305066689942038
30
0
41
1
10
5.59577508366931
20
-0.300657420183342
30
0
41
1
10
5.59190833607616
20
-0.298055354480255
30
0
41
1
10
5.58753904531315
20
-0.29334935474742
30
0
41
1
10
5.58631061121662
20
-0.291617982905677
30
0
41
1
10
5.5845991427795
20
-0.28794605759029
30
0
41
1
10
5.58410136075486
20
-0.286000156232347
30
0
41
1
10
5.58395805840709
20
-0.281846846797293
30
0
41
1
10
5.58432091561423
20
-0.27973412365381
30
0
41
1
10
5.58580546243633
20
-0.27550499097211
30
0
41
1
10
5.58693477365921
20
-0.273383741368946
30
0
41
1
10
5.59105083891654
20
-0.267299518675458
30
0
41
1
10
5.5948259637683
20
-0.263460724263382
30
0
41
1
10
5.60307603158657
20
-0.256400215582801
30
0
41
1
10
5.60761618345617
20
-0.253113372482801
30
0
41
1
10
5.612387909831
20
-0.249980947161447
30
0
0
SPLINE
5
176
100
AcDbEntity
8
1
62
256
6
ByLayer
370
18
48
1
60
0
100
AcDbSpline
70
4
71
3
72
16
73
12
40
0
40
0
40
0
40
0
40
0.25
40
0.25
40
0.5
40
0.5
40
0.75
40
0.75
40
0.875
40
0.875
40
1
40
1
40
1
40
1
41
1
10
6.93594876110137
20
-0.249980947161845
30
0
41
1
10
6.88889586647392
20
-0.261106428113465
30
0
41
1
10
6.84180134307147
20
-0.270997589283866
30
0
41
1
10
6.74752829299007
20
-0.28858409305434
30
0
41
1
10
6.70028861513458
20
-0.296286256727484
30
0
41
1
10
6.60600611195241
20
-0.309340818578988
30
0
41
1
10
6.55906062392074
20
-0.314694231797262
30
0
41
1
10
6.48902507413297
20
-0.320528714779613
30
0
41
1
10
6.46574452041281
20
-0.322103532762128
30
0
41
1
10
6.41935132105777
20
-0.324326322771526
30
0
41
1
10
6.39623729139325
20
-0.324980947161805
30
0
41
1
10
6.37324688789334
20
-0.324980947161691
30
0
0
SPLINE
5
177
100
AcDbEntity
8
1
62
256
6
ByLayer
370
18
48
1
60
0
100
AcDbSpline
70
4
71
3
72
8
73
4
40
0
40
0
40
0
40
0
40
1
40
1
40
1
40
1
41
1
10
9.2841810453084
20
0.394519052838319
30
0
41
1
10
8.51106941926361
20
0.153363501317045
30
0
41
1
10
7.72871488352834
20
-0.0625343625468133
30
0
41
1
10
6.93594876110137
20
-0.249980947161703
30
0
0
SPLINE
5
178
100
AcDbEntity
8
1
62
256
6
ByLayer
370
18
48
1
60
0
100
AcDbSpline
70
4
71
3
72
40
73
36
40
0
40
0
40
0
40
0
40
0.0312500000000133
40
0.0312500000000133
40
0.0625000000000266
40
0.0625000000000266
40
0.0781250000000277
40
0.0781250000000277
40
0.0937500000000288
40
0.0937500000000288
40
0.10937500000003
40
0.10937500000003
40
0.125000000000031
40
0.125000000000031
40
0.156250000000033
40
0.156250000000033
40
0.187500000000035
40
0.187500000000035
40
0.250000000000035
40
0.250000000000035
40
0.312500000000034
40
0.312500000000034
40
0.375000000000033
40
0.375000000000033
40
0.437500000000033
40
0.437500000000033
40
0.500000000000032
40
0.500000000000032
40
0.625000000000024
40
0.625000000000024
40
0.750000000000016
40
0.750000000000016
40
0.875000000000008
40
0.875000000000008
40
1
40
1
40
1
40
1
41
1
10
9.8160325828969
20
0.394519052837552
30
0
41
1
10
9.82098195223347
20
0.399453745670826
30
0
41
1
10
9.8255668829454
20
0.404602539074745
30
0
41
1
10
9.83325114814545
20
0.415051948253478
30
0
41
1
10
9.83638059560761
20
0.420378652246569
30
0
41
1
10
9.83940873940759
20
0.428409088717331
30
0
41
1
10
9.84011456011223
20
0.431030341943966
30
0
41
1
10
9.84087800321672
20
0.43615432775411
30
0
41
1
10
9.84093087921795
20
0.438682333081204
30
0
41
1
10
9.84035685513882
20
0.44347090089758
30
0
41
1
10
9.83974008264053
20
0.445725814987299
30
0
41
1
10
9.83790623184572
20
0.449982263740196
30
0
41
1
10
9.83667511604253
20
0.451996393124347
30
0
41
1
10
9.83230034394296
20
0.457522482393898
30
0
41
1
10
9.8284838541814
20
0.460585485218388
30
0
41
1
10
9.81960368743447
20
0.465853786827211
30
0
41
1
10
9.81467620295791
20
0.467977995037984
30
0
41
1
10
9.7989514958669
20
0.473342775126554
30
0
41
1
10
9.78712100451713
20
0.475600029742935
30
0
41
1
10
9.76283016137606
20
0.47854552376856
30
0
41
1
10
9.75026244320495
20
0.479243914143836
30
0
41
1
10
9.72458674972188
20
0.47966188106983
30
0
41
1
10
9.71147318768166
20
0.479370998879574
30
0
41
1
10
9.68483745942677
20
0.478057041979355
30
0
41
1
10
9.67129728761574
20
0.477027476641609
30
0
41
1
10
9.64421248948494
20
0.474417261577855
30
0
41
1
10
9.63062287134738
20
0.472833887959126
30
0
41
1
10
9.58973686994528
20
0.467407407483734
30
0
41
1
10
9.56232469000275
20
0.462896755182072
30
0
41
1
10
9.50725848501213
20
0.452524028495901
30
0
41
1
10
9.47960346504198
20
0.446655482458595
30
0
41
1
10
9.42407905641585
20
0.433737715187703
30
0
41
1
10
9.39620939340276
20
0.426686741656397
30
0
41
1
10
9.34026369811073
20
0.411446491895219
30
0
41
1
10
9.31218172106821
20
0.403253261687809
30
0
41
1
10
9.2841810453084
20
0.394519052838319
30
0
0
SPLINE
5
179
100
AcDbEntity
8
1
62
256
6
ByLayer
370
18
48
1
60
0
100
AcDbSpline
70
4
71
3
72
8
73
4
40
0
40
0
40
0
40
0
40
1
40
1
40
1
40
1
41
1
10
9.16192765464842
20
-0.249980947161674
30
0
41
1
10
9.38150318819592
20
-0.0363202513296415
30
0
41
1
10
9.59945084308978
20
0.178579548917355
30
0
41
1
10
9.81603258289493
20
0.394519052838319
30
0
0
SPLINE
5
17A
100
AcDbEntity
8
1
62
256
6
ByLayer
370
18
48
1
60
0
100
AcDbSpline
70
4
71
3
72
26
73
22
40
0
40
0
40
0
40
0
40
0.250000000000012
40
0.250000000000012
40
0.375000000000023
40
0.375000000000023
40
0.500000000000033
40
0.500000000000033
40
0.56250000000003
40
0.56250000000003
40
0.625000000000028
40
0.625000000000028
40
0.687500000000025
40
0.687500000000025
40
0.750000000000022
40
0.750000000000022
40
0.812500000000019
40
0.812500000000019
40
0.875000000000017
40
0.875000000000017
40
1
40
1
40
1
40
1
41
1
10
9.24203289085915
20
-0.324980947161663
30
0
41
1
10
9.22681846497491
20
-0.324980947161748
30
0
41
1
10
9.21195319237924
20
-0.324305164642169
30
0
41
1
10
9.19059288824508
20
-0.321504563341676
30
0
41
1
10
9.18367090945
20
-0.320269721185412
30
0
41
1
10
9.17054086661631
20
-0.316946194301778
30
0
41
1
10
9.16426491296349
20
-0.314836338251155
30
0
41
1
10
9.15599732501235
20
-0.310762869505368
30
0
41
1
10
9.15342589019426
20
-0.309251451723327
30
0
41
1
10
9.14876447288859
20
-0.305828546272636
30
0
41
1
10
9.1466615230994
20
-0.303904840960627
30
0
41
1
10
9.14317602879919
20
-0.299559795826923
30
0
41
1
10
9.14183367160885
20
-0.297191208616482
30
0
41
1
10
9.14011111824323
20
-0.291983727565736
30
0
41
1
10
9.1397537695405
20
-0.289142471630527
30
0
41
1
10
9.14012473484777
20
-0.283283573994737
30
0
41
1
10
9.14085462438058
20
-0.28018845734357
30
0
41
1
10
9.14324857365503
20
-0.273973881768882
30
0
41
1
10
9.14489040353672
20
-0.27086820771828
30
0
41
1
10
9.15089358034186
20
-0.261555053522812
30
0
41
1
10
9.15608552735682
20
-0.255665701569456
30
0
41
1
10
9.16192765464814
20
-0.249980947161589
30
0
0
SPLINE
5
17B
100
AcDbEntity
8
1
62
256
6
ByLayer
370
18
48
1
60
0
100
AcDbSpline
70
4
71
3
72
18
73
14
40
0
40
0
40
0
40
0
40
0.249999999999996
40
0.249999999999996
40
0.499999999999992
40
0.499999999999992
40
0.624999999999994
40
0.624999999999994
40
0.749999999999996
40
0.749999999999996
40
0.874999999999998
40
0.874999999999998
40
1
40
1
40
1
40
1
41
1
10
9.95818080364234
20
-0.249980947161987
30
0
41
1
10
9.92749994234364
20
-0.26071314772193
30
0
41
1
10
9.89687592587646
20
-0.27038180066279
30
0
41
1
10
9.83572596896019
20
-0.287746386430427
30
0
41
1
10
9.80520000776733
20
-0.295443207372898
30
0
41
1
10
9.75949165829152
20
-0.305362247104569
30
0
41
1
10
9.74426915486944
20
-0.308394975835455
30
0
41
1
10
9.71385576879007
20
-0.313841643015138
30
0
41
1
10
9.69862277638646
20
-0.316261825895964
30
0
41
1
10
9.66843979450141
20
-0.320325245372089
30
0
41
1
10
9.65349518651496
20
-0.321971785451893
30
0
41
1
10
9.62397991030193
20
-0.324296253793733
30
0
41
1
10
9.60940649911069
20
-0.324980947161464
30
0
41
1
10
9.59510119943221
20
-0.324980947161663
30
0
0
SPLINE
5
17C
100
AcDbEntity
8
1
62
256
6
ByLayer
370
18
48
1
60
0
100
AcDbSpline
70
4
71
3
72
8
73
4
40
0
40
0
40
0
40
0
40
1
40
1
40
1
40
1
41
1
10
11.5338810822442
20
0.34072241896871
30
0
41
1
10
11.0140865548907
20
0.133000688012515
30
0
41
1
10
10.4890458043933
20
-0.0642837594963055
30
0
41
1
10
9.95818080364236
20
-0.249980947161674
30
0
0
SPLINE
5
17D
100
AcDbEntity
8
1
62
256
6
ByLayer
370
18
48
1
60
0
100
AcDbSpline
70
4
71
3
72
8
73
4
40
0
40
0
40
0
40
0
40
1
40
1
40
1
40
1
41
1
10
11.5338810822442
20
0.34072241896871
30
0
41
1
10
11.6008761018287
20
0.385414396366883
30
0
41
1
10
11.6678402108229
20
0.430173904668862
30
0
41
1
10
11.7347738412617
20
0.47500000000079
30
0
0
SPLINE
5
17E
100
AcDbEntity
8
1
62
256
6
ByLayer
370
18
48
1
60
0
100
AcDbSpline
70
4
71
3
72
8
73
4
40
0
40
0
40
0
40
0
40
1
40
1
40
1
40
1
41
1
10
11.8713087604171
20
0.674999999999983
30
0
41
1
10
11.8257985198621
20
0.608331258506041
30
0
41
1
10
11.7802868943199
20
0.54166457068726
30
0
41
1
10
11.7347738412624
20
0.474999999999994
30
0
0
SPLINE
5
17F
100
AcDbEntity
8
1
62
256
6
ByLayer
370
18
48
1
60
0
100
AcDbSpline
70
4
71
3
72
8
73
4
40
0
40
0
40
0
40
0
40
1
40
1
40
1
40
1
41
1
10
-19
20
0.675000000000011
30
0
41
1
10
-18.6666167702326
20
0.341616770232548
30
0
41
1
10
-18.3332883074241
20
0.0082883074240954
30
0
41
1
10
-18.0000190528383
20
-0.324980947161691
30
0
0
SPLINE
5
180
100
AcDbEntity
8
1
62
256
6
ByLayer
370
18
48
1
60
0
100
AcDbSpline
70
4
71
3
72
16
73
12
40
0
40
0
40
0
40
0
40
0.250000000000001
40
0.250000000000001
40
0.500000000000001
40
0.500000000000001
40
0.750000000000002
40
0.750000000000002
40
0.875000000000001
40
0.875000000000001
40
1
40
1
40
1
40
1
41
1
10
36.8521290256815
20
14.9977447598762
30
0
41
1
10
36.8335199540003
20
14.8606724055987
30
0
41
1
10
36.814727841371
20
14.7236511315241
30
0
41
1
10
36.7765760201993
20
14.4497669791579
30
0
41
1
10
36.757221761605
20
14.3129025799802
30
0
41
1
10
36.7175645181384
20
14.0394385373044
30
0
41
1
10
36.6972784858525
20
13.9028223822728
30
0
41
1
10
36.6654931405629
20
13.6983336487634
30
0
41
1
10
36.6546676797537
20
13.6302445606577
30
0
41
1
10
36.6323079469397
20
13.4942935500126
30
0
41
1
10
36.6207814661321
20
13.4264291304871
30
0
41
1
10
36.6086586895293
20
13.358755816679
30
0
0
SPLINE
5
181
100
AcDbEntity
8
1
62
256
6
ByLayer
370
18
48
1
60
0
100
AcDbSpline
70
4
71
3
72
8
73
4
40
0
40
0
40
0
40
0
40
1
40
1
40
1
40
1
41
1
10
36.6086586895293
20
13.358755816679
30
0
41
1
10
36.6084716468384
20
13.3587559110167
30
0
41
1
10
36.608284582795
20
13.3587560118222
30
0
41
1
10
36.6080974973832
20
13.3587561191005
30
0
0
SPLINE
5
182
100
AcDbEntity
8
1
62
256
6
ByLayer
370
18
48
1
60
0
100
AcDbSpline
70
4
71
3
72
33
73
29
40
0
40
0
40
0
40
0
40
0.125000000000004
40
0.250000000000007
40
0.250000000000007
40
0.281250000000008
40
0.281250000000008
40
0.312500000000009
40
0.312500000000009
40
0.375000000000012
40
0.375000000000012
40
0.500000000000016
40
0.500000000000016
40
0.531250000000016
40
0.531250000000016
40
0.562500000000016
40
0.562500000000016
40
0.625000000000013
40
0.625000000000013
40
0.750000000000005
40
0.750000000000005
40
0.781250000000005
40
0.781250000000005
40
0.812500000000005
40
0.812500000000005
40
0.875000000000005
40
0.875000000000005
40
1
40
1
40
1
40
1
41
1
10
25.5326778237119
20
12.0966839667651
30
0
41
1
10
25.5511359544587
20
12.1858980857786
30
0
41
1
10
25.602846709325
20
12.3584592351792
30
0
41
1
10
25.6827729904983
20
12.5198308839111
30
0
41
1
10
25.7419043983347
20
12.6170486277172
30
0
41
1
10
25.7542187244278
20
12.6363445440377
30
0
41
1
10
25.7795496311731
20
12.6742087694699
30
0
41
1
10
25.7925864269246
20
12.6928139374982
30
0
41
1
10
25.8327939748965
20
12.7476634573899
30
0
41
1
10
25.861059910567
20
12.7829435659256
30
0
41
1
10
25.9501801757985
20
12.8849782263737
30
0
41
1
10
26.0153243909658
20
12.9479557913598
30
0
41
1
10
26.1041963359895
20
13.020125798243
30
0
41
1
10
26.1223543340241
20
13.0342328528183
30
0
41
1
10
26.1590710788819
20
13.061513712422
30
0
41
1
10
26.1776723564232
20
13.0747232463561
30
0
41
1
10
26.2341945211669
20
13.1130775796225
30
0
41
1
10
26.2728324435002
20
13.1369504111816
30
0
41
1
10
26.3915813750504
20
13.2035395317276
30
0
41
1
10
26.4745058685536
20
13.241264905782
30
0
41
1
10
26.5830617230247
20
13.2797289609848
30
0
41
1
10
26.604960028172
20
13.2869606264818
30
0
41
1
10
26.6488425179687
20
13.3004184053158
30
0
41
1
10
26.6708689686429
20
13.3066597321132
30
0
41
1
10
26.7372004344472
20
13.3239410725587
30
0
41
1
10
26.7817571074488
20
13.3335410550604
30
0
41
1
10
26.9164232942477
20
13.3566407530887
30
0
41
1
10
27.0075212837791
20
13.3644842344742
30
0
41
1
10
27.1000000000002
20
13.3644269519125
30
0
0
SPLINE
5
183
100
AcDbEntity
8
1
62
256
6
ByLayer
370
18
48
1
60
0
100
AcDbSpline
70
4
71
3
72
8
73
4
40
0
40
0
40
0
40
0
40
1
40
1
40
1
40
1
41
1
10
19.2870625622058
20
0.129903810567669
30
0
41
1
10
19.4703205128146
20
0.311580759106135
30
0
41
1
10
19.653556200176
20
0.493280087502797
30
0
41
1
10
19.8367714106908
20
0.675000000000011
30
0
0
SPLINE
5
184
100
AcDbEntity
8
1
62
256
6
ByLayer
370
18
48
1
60
0
100
AcDbSpline
70
4
71
3
72
8
73
4
40
0
40
0
40
0
40
0
40
1
40
1
40
1
40
1
41
1
10
18.8729219314525
20
-0.249980947161674
30
0
41
1
10
19.0113201534983
20
-0.123639035795151
30
0
41
1
10
19.1493610312483
20
0.0029941060164731
30
0
41
1
10
19.2870625622058
20
0.129903810567669
30
0
0
SPLINE
5
185
100
AcDbEntity
8
1
62
256
6
ByLayer
370
18
48
1
60
0
100
AcDbSpline
70
4
71
3
72
20
73
16
40
0
40
0
40
0
40
0
40
0.125
40
0.125
40
0.25
40
0.25
40
0.375
40
0.375
40
0.5
40
0.5
40
0.625
40
0.625
40
0.75
40
0.75
40
1
40
1
40
1
40
1
41
1
10
18.7775181327357
20
-0.32498094716172
30
0
41
1
10
18.7787010242645
20
-0.32498094716172
30
0
41
1
10
18.7804472864331
20
-0.324397783309394
30
0
41
1
10
18.7849851214943
20
-0.322149113157053
30
0
41
1
10
18.7877652228033
20
-0.320483944021561
30
0
41
1
10
18.7940419579247
20
-0.31632025809796
30
0
41
1
10
18.7975633120804
20
-0.31380871372923
30
0
41
1
10
18.8052728850999
20
-0.308032368047549
30
0
41
1
10
18.8093760264562
20
-0.3048317575238
30
0
41
1
10
18.8179958139009
20
-0.297911309070372
30
0
41
1
10
18.8225131770649
20
-0.294190567740941
30
0
41
1
10
18.8319167921743
20
-0.286286962265365
30
0
41
1
10
18.8368284752011
20
-0.28208158414472
30
0
41
1
10
18.8518338885015
20
-0.269034872976135
30
0
41
1
10
18.8622168298091
20
-0.25975349324645
30
0
41
1
10
18.8729219314525
20
-0.249980947161674
30
0
0
SPLINE
5
186
100
AcDbEntity
8
1
62
256
6
ByLayer
370
18
48
1
60
0
100
AcDbSpline
70
4
71
3
72
17
73
13
40
0
40
0
40
0
40
0
40
0.250000000000009
40
0.250000000000009
40
0.500000000000019
40
0.500000000000019
40
0.56250000000002
40
0.56250000000002
40
0.625000000000021
40
0.750000000000016
40
0.750000000000016
40
1
40
1
40
1
40
1
41
1
10
18.3564173719115
20
6.00788366661317
30
0
41
1
10
18.3853753963691
20
6.03604905197088
30
0
41
1
10
18.4122309410965
20
6.06627561291572
30
0
41
1
10
18.4617197383671
20
6.13107969416734
30
0
41
1
10
18.484357292187
20
6.16565067564656
30
0
41
1
10
18.5097894773877
20
6.21201285892371
30
0
41
1
10
18.5147424479632
20
6.22146666096901
30
0
41
1
10
18.5242836416446
20
6.24057609466669
30
0
41
1
10
18.5380498884727
20
6.26953933383214
30
0
41
1
10
18.5501769665485
20
6.29941509403696
30
0
41
1
10
18.5721909236733
20
6.36045198285851
30
0
41
1
10
18.5839044979646
20
6.4028431735133
30
0
41
1
10
18.5922620637004
20
6.44726007740388
30
0
0
SPLINE
5
187
100
AcDbEntity
8
1
62
256
6
ByLayer
370
18
48
1
60
0
100
AcDbSpline
70
4
71
3
72
18
73
14
40
0
40
0
40
0
40
0
40
0.250000000000002
40
0.250000000000002
40
0.375000000000006
40
0.375000000000006
40
0.437500000000007
40
0.437500000000007
40
0.500000000000008
40
0.500000000000008
40
0.750000000000004
40
0.750000000000004
40
1
40
1
40
1
40
1
41
1
10
18.5922620637004
20
6.75274266415681
30
0
41
1
10
18.5839029765652
20
6.7971676536377
30
0
41
1
10
18.5721940761373
20
6.83953009846317
30
0
41
1
10
18.5502147004157
20
6.90048896871997
30
0
41
1
10
18.5421460177695
20
6.92037418363319
30
0
41
1
10
18.5289590937534
20
6.94958651702379
30
0
41
1
10
18.5243825255532
20
6.95922121423757
30
0
41
1
10
18.5148692909953
20
6.97828924638981
30
0
41
1
10
18.5099208758562
20
6.98774340060515
30
0
41
1
10
18.4844501468566
20
7.03421016265804
30
0
41
1
10
18.4617830025329
20
7.06883471463536
30
0
41
1
10
18.4122494705405
20
7.13370834609006
30
0
41
1
10
18.3853786034383
20
7.16395057030454
30
0
41
1
10
18.3564173719115
20
7.19211907494753
30
0
0
SPLINE
5
188
100
AcDbEntity
8
1
62
256
6
ByLayer
370
18
48
1
60
0
100
AcDbSpline
70
4
71
3
72
24
73
20
40
0
40
0
40
0
40
0
40
0.125000000000011
40
0.125000000000011
40
0.187500000000009
40
0.187500000000009
40
0.250000000000008
40
0.250000000000008
40
0.375000000000008
40
0.375000000000008
40
0.500000000000007
40
0.500000000000007
40
0.625000000000007
40
0.625000000000007
40
0.687499999999999
40
0.687499999999999
40
0.749999999999991
40
0.749999999999991
40
1
40
1
40
1
40
1
41
1
10
18.3018189416605
20
7.59557826037553
30
0
41
1
10
18.2920717429749
20
7.57895221335428
30
0
41
1
10
18.2838642633104
20
7.56163961959999
30
0
41
1
10
18.2738342365026
20
7.53465392699306
30
0
41
1
10
18.2708640587045
20
7.52545399966189
30
0
41
1
10
18.2657514504451
20
7.50685683595299
30
0
41
1
10
18.2636304107342
20
7.49755045021712
30
0
41
1
10
18.2585036553872
20
7.46961033666213
30
0
41
1
10
18.2567259261733
20
7.45095571102414
30
0
41
1
10
18.2563184965419
20
7.41360142883843
30
0
41
1
10
18.2577395219959
20
7.39476244835396
30
0
41
1
10
18.2635127050972
20
7.35858626585986
30
0
41
1
10
18.2678413753689
20
7.34107089722738
30
0
41
1
10
18.276347903609
20
7.31561249396191
30
0
41
1
10
18.2795208606015
20
7.3072628729673
30
0
41
1
10
18.2865370155303
20
7.29083742992921
30
0
41
1
10
18.2903971485729
20
7.2827346261891
30
0
41
1
10
18.3110153586932
20
7.24358549925978
30
0
41
1
10
18.3317858476267
20
7.21607638510329
30
0
41
1
10
18.3564173719115
20
7.19211907494753
30
0
0
SPLINE
5
189
100
AcDbEntity
8
1
62
256
6
ByLayer
370
18
48
1
60
0
100
AcDbSpline
70
4
71
3
72
24
73
20
40
0
40
0
40
0
40
0
40
0.249999999999985
40
0.249999999999985
40
0.31249999999998
40
0.31249999999998
40
0.374999999999975
40
0.374999999999975
40
0.499999999999981
40
0.499999999999981
40
0.624999999999987
40
0.624999999999987
40
0.749999999999994
40
0.749999999999994
40
0.812499999999996
40
0.812499999999996
40
0.874999999999998
40
0.874999999999998
40
1
40
1
40
1
40
1
41
1
10
18.3564173719115
20
6.00788366661317
30
0
41
1
10
18.3317858476267
20
5.9839263564574
30
0
41
1
10
18.3110153586932
20
5.95641724230092
30
0
41
1
10
18.2903971485729
20
5.9172681153716
30
0
41
1
10
18.2865370155303
20
5.90916531163148
30
0
41
1
10
18.2795208606015
20
5.8927398685934
30
0
41
1
10
18.276347903609
20
5.88439024759879
30
0
41
1
10
18.2678413753689
20
5.85893184433331
30
0
41
1
10
18.2635127050972
20
5.84141647570087
30
0
41
1
10
18.2577395219959
20
5.80524029320674
30
0
41
1
10
18.2563184965419
20
5.78640131272226
30
0
41
1
10
18.2567259261733
20
5.74904703053656
30
0
41
1
10
18.2585036553872
20
5.73039240489857
30
0
41
1
10
18.2636304107342
20
5.70245229134358
30
0
41
1
10
18.2657514504451
20
5.69314590560771
30
0
41
1
10
18.2708640587045
20
5.6745487418988
30
0
41
1
10
18.2738342365026
20
5.66534881456764
30
0
41
1
10
18.2838642633104
20
5.63836312196071
30
0
41
1
10
18.2920717429749
20
5.62105052820641
30
0
41
1
10
18.3018189416605
20
5.60442448118516
30
0
0
SPLINE
5
18A
100
AcDbEntity
8
1
62
256
6
ByLayer
370
18
48
1
60
0
100
AcDbSpline
70
4
71
3
72
26
73
22
40
0
40
0
40
0
40
0
40
0.125000000000008
40
0.125000000000008
40
0.250000000000016
40
0.250000000000016
40
0.312500000000029
40
0.312500000000029
40
0.375000000000043
40
0.375000000000043
40
0.500000000000048
40
0.500000000000048
40
0.562500000000042
40
0.562500000000042
40
0.625000000000036
40
0.625000000000036
40
0.750000000000024
40
0.750000000000024
40
0.875000000000012
40
0.875000000000012
40
1
40
1
40
1
40
1
41
1
10
20.0000000000002
20
8.56850137078035
30
0
41
1
10
19.9812579161206
20
8.56850137078035
30
0
41
1
10
19.9622099758793
20
8.56686416628494
30
0
41
1
10
19.9253294541459
20
8.56048665146329
30
0
41
1
10
19.9073531625209
20
8.55577416244586
30
0
41
1
10
19.8810727694394
20
8.54646675688352
30
0
41
1
10
19.8723863894373
20
8.5429688958757
30
0
41
1
10
19.8555174523843
20
8.53533550101639
30
0
41
1
10
19.8473226044844
20
8.53120047004523
30
0
41
1
10
19.8234267481807
20
8.51788370019608
30
0
41
1
10
19.8084100630757
20
8.50779593327371
30
0
41
1
10
19.7872244605919
20
8.49090607786655
30
0
41
1
10
19.7804080814312
20
8.48499398816477
30
0
41
1
10
19.7674404104895
20
8.47279874262324
30
0
41
1
10
19.7612596172291
20
8.46649266756572
30
0
41
1
10
19.7435909177989
20
8.44697772355616
30
0
41
1
10
19.7329717290292
20
8.43317549844241
30
0
41
1
10
19.7139986190541
20
8.40404690402028
30
0
41
1
10
19.7058188411957
20
8.3889786649666
30
0
41
1
10
19.6919779801763
20
8.35811911848026
30
0
41
1
10
19.6862980163448
20
8.34229626026845
30
0
41
1
10
19.6818380304534
20
8.32609681092467
30
0
0
SPLINE
5
18B
100
AcDbEntity
8
1
62
256
6
ByLayer
370
18
48
1
60
0
100
AcDbSpline
70
4
71
3
72
34
73
30
40
0
40
0
40
0
40
0
40
0.124999999999986
40
0.124999999999986
40
0.187499999999978
40
0.187499999999978
40
0.218749999999975
40
0.218749999999975
40
0.249999999999971
40
0.249999999999971
40
0.374999999999957
40
0.374999999999957
40
0.406249999999957
40
0.406249999999957
40
0.437499999999957
40
0.499999999999963
40
0.56249999999997
40
0.56249999999997
40
0.624999999999976
40
0.624999999999976
40
0.687499999999983
40
0.687499999999983
40
0.749999999999989
40
0.749999999999989
40
0.874999999999998
40
0.874999999999998
40
0.937499999999999
40
0.937499999999999
40
1
40
1
40
1
40
1
41
1
10
18.6718476620217
20
7.74745240436522
30
0
41
1
10
18.7208394593326
20
7.73433583255908
30
0
41
1
10
18.7709450984193
20
7.72570355488969
30
0
41
1
10
18.8481023724609
20
7.71979341038059
30
0
41
1
10
18.8741579501177
20
7.71900484714467
30
0
41
1
10
18.9138278946096
20
7.71973188014024
30
0
41
1
10
18.9271798085306
20
7.72029556993363
30
0
41
1
10
18.9539537358996
20
7.72208549389248
30
0
41
1
10
18.9673321899404
20
7.72330727230747
30
0
41
1
10
19.0341945419057
20
7.73106808672586
30
0
41
1
10
19.0875894365001
20
7.74249121905993
30
0
41
1
10
19.1544113754507
20
7.76423402051657
30
0
41
1
10
19.1677961932242
20
7.76897051582662
30
0
41
1
10
19.1941478369937
20
7.77906601922717
30
0
41
1
10
19.2332059929601
20
7.79519165611092
30
0
41
1
10
19.2959862068405
20
7.82692573413865
30
0
41
1
10
19.3437246825775
20
7.85753217442297
30
0
41
1
10
19.3901697315486
20
7.89085106322952
30
0
41
1
10
19.4121863952646
20
7.90846569072929
30
0
41
1
10
19.4539492170248
20
7.94544738955503
30
0
41
1
10
19.4737029913321
20
7.96482092110975
30
0
41
1
10
19.511060305329
20
8.00528627588247
30
0
41
1
10
19.5287068593988
20
8.02646089367181
30
0
41
1
10
19.5773730428754
20
8.09098557665038
30
0
41
1
10
19.6046398483744
20
8.13577452561134
30
0
41
1
10
19.6387924427222
20
8.20557057580882
30
0
41
1
10
19.6490658739525
20
8.22935221604297
30
0
41
1
10
19.667219381197
20
8.2773925257836
30
0
41
1
10
19.6751020665246
20
8.3016306110076
30
0
41
1
10
19.6818380304534
20
8.32609681092467
30
0
0
SPLINE
5
18C
100
AcDbEntity
8
1
62
256
6
ByLayer
370
18
48
1
60
0
100
AcDbSpline
70
4
71
3
72
24
73
20
40
0
40
0
40
0
40
0
40
0.0625000000000012
40
0.0625000000000012
40
0.125000000000002
40
0.125000000000002
40
0.250000000000004
40
0.250000000000004
40
0.312500000000003
40
0.312500000000003
40
0.375000000000002
40
0.375000000000002
40
0.500000000000003
40
0.500000000000003
40
0.625000000000003
40
0.625000000000003
40
0.750000000000004
40
0.750000000000004
40
1
40
1
40
1
40
1
41
1
10
18.3018189416605
20
7.59557826037553
30
0
41
1
10
18.3065686621778
20
7.60367998059348
30
0
41
1
10
18.3117102110138
20
7.6116511800077
30
0
41
1
10
18.3226446784142
20
7.62709443648126
30
0
41
1
10
18.3283991722253
20
7.63451906591712
30
0
41
1
10
18.3464929435952
20
7.65593412240801
30
0
41
1
10
18.3596568946644
20
7.66907161030545
30
0
41
1
10
18.3810396271605
20
7.68708184875658
30
0
41
1
10
18.3884568790797
20
7.69280672523621
30
0
41
1
10
18.40354298116
20
7.70347228427889
30
0
41
1
10
18.4112458314835
20
7.70844390529504
30
0
41
1
10
18.43481343845
20
7.72231660114059
30
0
41
1
10
18.4511344439339
20
7.73018208850883
30
0
41
1
10
18.4849623499586
20
7.7431916983403
30
0
41
1
10
18.5020266051043
20
7.74816643168217
30
0
41
1
10
18.5363970022406
20
7.75532536326367
30
0
41
1
10
18.5537629412522
20
7.75751067769895
30
0
41
1
10
18.6058305558702
20
7.7599405808264
30
0
41
1
10
18.6393960892918
20
7.75614066254917
30
0
41
1
10
18.6718476620217
20
7.74745240436522
30
0
0
SPLINE
5
18D
100
AcDbEntity
8
1
62
256
6
ByLayer
370
18
48
1
60
0
100
AcDbSpline
70
4
71
3
72
26
73
22
40
0
40
0
40
0
40
0
40
0.250000000000039
40
0.250000000000039
40
0.312500000000039
40
0.312500000000039
40
0.375000000000038
40
0.375000000000038
40
0.500000000000038
40
0.500000000000038
40
0.562500000000035
40
0.562500000000035
40
0.625000000000031
40
0.625000000000031
40
0.75000000000001
40
0.75000000000001
40
0.812500000000002
40
0.812500000000002
40
0.874999999999994
40
0.874999999999994
40
1
40
1
40
1
40
1
41
1
10
20.3181619695471
20
8.32609681092467
30
0
41
1
10
20.3092192305472
20
8.35857840412936
30
0
41
1
10
20.2954876322593
20
8.38946506051224
30
0
41
1
10
20.2718353388293
20
8.42579988810215
30
0
41
1
10
20.2667495067734
20
8.43297882820451
30
0
41
1
10
20.2560530091766
20
8.44686076534086
30
0
41
1
10
20.2504333990714
20
8.45358296522727
30
0
41
1
10
20.2327595033495
20
8.47308809708937
30
0
41
1
10
20.2198957841171
20
8.4852141794168
30
0
41
1
10
20.1988810548682
20
8.50199077752953
30
0
41
1
10
20.1915883106093
20
8.50734648797356
30
0
41
1
10
20.1763916134441
20
8.51755293681674
30
0
41
1
10
20.1685411707115
20
8.52236348368464
30
0
41
1
10
20.1445437728384
20
8.53572586371885
30
0
41
1
10
20.1278334996498
20
8.54329827482508
30
0
41
1
10
20.1016705104136
20
8.55258535063169
30
0
41
1
10
20.0927656700967
20
8.55533410236305
30
0
41
1
10
20.0745707697435
20
8.56010306488423
30
0
41
1
10
20.0652845989502
20
8.56211589628487
30
0
41
1
10
20.0374812768528
20
8.56690495449374
30
0
41
1
10
20.0188089532903
20
8.56850137078035
30
0
41
1
10
20.0000000000002
20
8.56850137078035
30
0
0
SPLINE
5
18E
100
AcDbEntity
8
1
62
256
6
ByLayer
370
18
48
1
60
0
100
AcDbSpline
70
4
71
3
72
34
73
30
40
0
40
0
40
0
40
0
40
0.124999999999999
40
0.124999999999999
40
0.187500000000002
40
0.187500000000002
40
0.218750000000005
40
0.218750000000005
40
0.250000000000008
40
0.250000000000008
40
0.375000000000016
40
0.375000000000016
40
0.406250000000018
40
0.406250000000018
40
0.43750000000002
40
0.500000000000018
40
0.562500000000015
40
0.562500000000015
40
0.625000000000013
40
0.625000000000013
40
0.687500000000011
40
0.687500000000011
40
0.750000000000008
40
0.750000000000008
40
0.875000000000003
40
0.875000000000003
40
0.937500000000002
40
0.937500000000002
40
1
40
1
40
1
40
1
41
1
10
20.3181619695471
20
8.32609681092467
30
0
41
1
10
20.3316243955845
20
8.27719892336472
30
0
41
1
10
20.3495186520748
20
8.2296080974761
30
0
41
1
10
20.3834427074959
20
8.1600571572709
30
0
41
1
10
20.3959401462238
20
8.13718077167709
30
0
41
1
10
20.4166305781724
20
8.10332609335006
30
0
41
1
10
20.4238696464607
20
8.09209278202286
30
0
41
1
10
20.4389547957836
20
8.06990077450556
30
0
41
1
10
20.4467750039597
20
8.05897740042641
30
0
41
1
10
20.4872859904914
20
8.00522180560489
30
0
41
1
10
20.5241451570227
20
7.96493651563466
30
0
41
1
10
20.5766976577685
20
7.91828722630015
30
0
41
1
10
20.5875531522011
20
7.90913594470774
30
0
41
1
10
20.6095897675604
20
7.8915088121912
30
0
41
1
10
20.6432548145307
20
7.86596981954582
30
0
41
1
10
20.7023826118538
20
7.82786062897304
30
0
41
1
10
20.7529298677767
20
7.80215677969801
30
0
41
1
10
20.8051631063886
20
7.77894083348298
30
0
41
1
10
20.8314938663053
20
7.76885621963535
30
0
41
1
10
20.8845188699143
20
7.75153200910304
30
0
41
1
10
20.911222535645
20
7.74428911066448
30
0
41
1
10
20.9650247101006
20
7.73252730620044
30
0
41
1
10
20.9922163970773
20
7.72801316661921
30
0
41
1
10
21.0724935208946
20
7.71866355624499
30
0
41
1
10
21.1249222467067
20
7.71779328392631
30
0
41
1
10
21.2024065588864
20
7.72363023873308
30
0
41
1
10
21.2281182805369
20
7.72679524017428
30
0
41
1
10
21.2787427947226
20
7.73543119641027
30
0
41
1
10
21.3036391509602
20
7.74088948984942
30
0
41
1
10
21.3281523379788
20
7.74745240436522
30
0
0
SPLINE
5
18F
100
AcDbEntity
8
1
62
256
6
ByLayer
370
18
48
1
60
0
100
AcDbSpline
70
4
71
3
72
24
73
20
40
0
40
0
40
0
40
0
40
0.0625000000000078
40
0.0625000000000078
40
0.125000000000016
40
0.125000000000016
40
0.250000000000011
40
0.250000000000011
40
0.312500000000011
40
0.312500000000011
40
0.37500000000001
40
0.37500000000001
40
0.500000000000009
40
0.500000000000009
40
0.625000000000008
40
0.625000000000008
40
0.750000000000007
40
0.750000000000007
40
1
40
1
40
1
40
1
41
1
10
21.69818105834
20
7.59557826037553
30
0
41
1
10
21.6934313378227
20
7.60367998059348
30
0
41
1
10
21.6882897889867
20
7.6116511800077
30
0
41
1
10
21.6773553215863
20
7.62709443648126
30
0
41
1
10
21.6716008277752
20
7.63451906591712
30
0
41
1
10
21.6535070564053
20
7.65593412240801
30
0
41
1
10
21.6403431053361
20
7.66907161030545
30
0
41
1
10
21.61896037284
20
7.68708184875658
30
0
41
1
10
21.6115431209208
20
7.69280672523621
30
0
41
1
10
21.5964570188405
20
7.70347228427889
30
0
41
1
10
21.588754168517
20
7.70844390529504
30
0
41
1
10
21.5651865615505
20
7.72231660114059
30
0
41
1
10
21.5488655560666
20
7.73018208850883
30
0
41
1
10
21.5150376500419
20
7.7431916983403
30
0
41
1
10
21.4979733948962
20
7.74816643168217
30
0
41
1
10
21.4636029977599
20
7.75532536326367
30
0
41
1
10
21.4462370587483
20
7.75751067769895
30
0
41
1
10
21.3941694441303
20
7.75994058082642
30
0
41
1
10
21.3606039107087
20
7.75614066254917
30
0
41
1
10
21.3281523379788
20
7.74745240436522
30
0
0
SPLINE
5
190
100
AcDbEntity
8
1
62
256
6
ByLayer
370
18
48
1
60
0
100
AcDbSpline
70
4
71
3
72
18
73
14
40
0
40
0
40
0
40
0
40
0.250000000000007
40
0.250000000000007
40
0.375000000000011
40
0.375000000000011
40
0.437500000000012
40
0.437500000000012
40
0.500000000000012
40
0.500000000000012
40
0.750000000000006
40
0.750000000000006
40
1
40
1
40
1
40
1
41
1
10
21.4077379363001
20
6.44726007740388
30
0
41
1
10
21.4160970234354
20
6.40283508792268
30
0
41
1
10
21.4278059238633
20
6.36047264309712
30
0
41
1
10
21.4497852995849
20
6.29951377284047
30
0
41
1
10
21.457853982231
20
6.27962855792734
30
0
41
1
10
21.4710409062471
20
6.25041622453691
30
0
41
1
10
21.4756174744472
20
6.24078152732321
30
0
41
1
10
21.4851307090051
20
6.22171349517112
30
0
41
1
10
21.4900791241441
20
6.21225934095588
30
0
41
1
10
21.5155498531438
20
6.16579257890277
30
0
41
1
10
21.5382169974675
20
6.13116802692537
30
0
41
1
10
21.58775052946
20
6.06629439547061
30
0
41
1
10
21.6146213965622
20
6.03605217125613
30
0
41
1
10
21.643582628089
20
6.00788366661317
30
0
0
SPLINE
5
191
100
AcDbEntity
8
1
62
256
6
ByLayer
370
18
48
1
60
0
100
AcDbSpline
70
4
71
3
72
24
73
20
40
0
40
0
40
0
40
0
40
0.124999999999984
40
0.124999999999984
40
0.187499999999983
40
0.187499999999983
40
0.249999999999981
40
0.249999999999981
40
0.37499999999998
40
0.37499999999998
40
0.499999999999979
40
0.499999999999979
40
0.624999999999978
40
0.624999999999978
40
0.687499999999975
40
0.687499999999975
40
0.749999999999972
40
0.749999999999972
40
1
40
1
40
1
40
1
41
1
10
21.69818105834
20
5.60442448118516
30
0
41
1
10
21.7079282570256
20
5.62105052820641
30
0
41
1
10
21.7161357366901
20
5.63836312196071
30
0
41
1
10
21.7261657634979
20
5.66534881456764
30
0
41
1
10
21.729135941296
20
5.6745487418988
30
0
41
1
10
21.7342485495554
20
5.69314590560771
30
0
41
1
10
21.7363695892663
20
5.70245229134358
30
0
41
1
10
21.7414963446133
20
5.73039240489857
30
0
41
1
10
21.7432740738271
20
5.74904703053656
30
0
41
1
10
21.7436815034586
20
5.78640131272226
30
0
41
1
10
21.7422604780046
20
5.80524029320674
30
0
41
1
10
21.7364872949033
20
5.84141647570087
30
0
41
1
10
21.7321586246317
20
5.85893184433331
30
0
41
1
10
21.7236520963915
20
5.88439024759879
30
0
41
1
10
21.720479139399
20
5.8927398685934
30
0
41
1
10
21.7134629844702
20
5.90916531163148
30
0
41
1
10
21.7096028514276
20
5.9172681153716
30
0
41
1
10
21.6889846413073
20
5.95641724230092
30
0
41
1
10
21.6682141523738
20
5.9839263564574
30
0
41
1
10
21.643582628089
20
6.00788366661317
30
0
0
SPLINE
5
192
100
AcDbEntity
8
1
62
256
6
ByLayer
370
18
48
1
60
0
100
AcDbSpline
70
4
71
3
72
24
73
20
40
0
40
0
40
0
40
0
40
0.250000000000009
40
0.250000000000009
40
0.312500000000001
40
0.312500000000001
40
0.374999999999993
40
0.374999999999993
40
0.499999999999993
40
0.499999999999993
40
0.624999999999992
40
0.624999999999992
40
0.749999999999992
40
0.749999999999992
40
0.812499999999991
40
0.812499999999991
40
0.874999999999989
40
0.874999999999989
40
1
40
1
40
1
40
1
41
1
10
21.643582628089
20
7.19211907494753
30
0
41
1
10
21.6682141523738
20
7.21607638510329
30
0
41
1
10
21.6889846413073
20
7.24358549925978
30
0
41
1
10
21.7096028514276
20
7.2827346261891
30
0
41
1
10
21.7134629844702
20
7.29083742992921
30
0
41
1
10
21.720479139399
20
7.3072628729673
30
0
41
1
10
21.7236520963915
20
7.31561249396191
30
0
41
1
10
21.7321586246317
20
7.34107089722738
30
0
41
1
10
21.7364872949033
20
7.35858626585986
30
0
41
1
10
21.7422604780046
20
7.39476244835396
30
0
41
1
10
21.7436815034586
20
7.41360142883843
30
0
41
1
10
21.7432740738271
20
7.45095571102414
30
0
41
1
10
21.7414963446133
20
7.46961033666213
30
0
41
1
10
21.7363695892663
20
7.49755045021712
30
0
41
1
10
21.7342485495554
20
7.50685683595299
30
0
41
1
10
21.729135941296
20
7.52545399966189
30
0
41
1
10
21.7261657634979
20
7.53465392699306
30
0
41
1
10
21.7161357366901
20
7.56163961959999
30
0
41
1
10
21.7079282570256
20
7.57895221335428
30
0
41
1
10
21.69818105834
20
7.59557826037553
30
0
0
SPLINE
5
193
100
AcDbEntity
8
1
62
256
6
ByLayer
370
18
48
1
60
0
100
AcDbSpline
70
4
71
3
72
17
73
13
40
0
40
0
40
0
40
0
40
0.249999999999991
40
0.249999999999991
40
0.499999999999982
40
0.499999999999982
40
0.562499999999982
40
0.562499999999982
40
0.624999999999982
40
0.749999999999986
40
0.749999999999986
40
1
40
1
40
1
40
1
41
1
10
21.643582628089
20
7.19211907494753
30
0
41
1
10
21.6146246036313
20
7.16395368958979
30
0
41
1
10
21.5877690589039
20
7.13372712864489
30
0
41
1
10
21.5382802616333
20
7.06892304739316
30
0
41
1
10
21.5156427078133
20
7.03435206591385
30
0
41
1
10
21.4902105226126
20
6.98798988263661
30
0
41
1
10
21.4852575520371
20
6.97853608059131
30
0
41
1
10
21.4757163583556
20
6.95942664689358
30
0
41
1
10
21.4619501115276
20
6.9304634077281
30
0
41
1
10
21.4498230334517
20
6.90058764752331
30
0
41
1
10
21.4278090763271
20
6.83955075870182
30
0
41
1
10
21.4160955020359
20
6.79715956804714
30
0
41
1
10
21.4077379363001
20
6.75274266415681
30
0
0
SPLINE
5
194
100
AcDbEntity
8
1
62
256
6
ByLayer
370
18
48
1
60
0
100
AcDbSpline
70
4
71
3
72
26
73
22
40
0
40
0
40
0
40
0
40
0.125000000000006
40
0.125000000000006
40
0.250000000000012
40
0.250000000000012
40
0.312500000000025
40
0.312500000000025
40
0.375000000000038
40
0.375000000000038
40
0.500000000000044
40
0.500000000000044
40
0.562500000000039
40
0.562500000000039
40
0.625000000000033
40
0.625000000000033
40
0.750000000000022
40
0.750000000000022
40
0.875000000000011
40
0.875000000000011
40
1
40
1
40
1
40
1
41
1
10
20.0000000000002
20
4.63150137078034
30
0
41
1
10
20.0187420838799
20
4.63150137078034
30
0
41
1
10
20.0377900241213
20
4.63313857527575
30
0
41
1
10
20.0746705458546
20
4.6395160900974
30
0
41
1
10
20.0926468374796
20
4.64422857911487
30
0
41
1
10
20.118927230561
20
4.65353598467718
30
0
41
1
10
20.1276136105632
20
4.65703384568499
30
0
41
1
10
20.1444825476162
20
4.6646672405443
30
0
41
1
10
20.1526773955161
20
4.66880227151546
30
0
41
1
10
20.1765732518198
20
4.68211904136462
30
0
41
1
10
20.1915899369248
20
4.69220680828698
30
0
41
1
10
20.2127755394087
20
4.70909666369414
30
0
41
1
10
20.2195919185693
20
4.71500875339592
30
0
41
1
10
20.232559589511
20
4.72720399893748
30
0
41
1
10
20.2387403827714
20
4.73351007399498
30
0
41
1
10
20.2564090822016
20
4.75302501800454
30
0
41
1
10
20.2670282709713
20
4.76682724311829
30
0
41
1
10
20.2860013809464
20
4.79595583754042
30
0
41
1
10
20.2941811588048
20
4.81102407659409
30
0
41
1
10
20.3080220198242
20
4.84188362308044
30
0
41
1
10
20.3137019836557
20
4.85770648129224
30
0
41
1
10
20.3181619695471
20
4.87390593063603
30
0
0
SPLINE
5
195
100
AcDbEntity
8
1
62
256
6
ByLayer
370
18
48
1
60
0
100
AcDbSpline
70
4
71
3
72
34
73
30
40
0
40
0
40
0
40
0
40
0.124999999999968
40
0.124999999999968
40
0.187499999999952
40
0.187499999999952
40
0.218749999999944
40
0.218749999999944
40
0.249999999999936
40
0.249999999999936
40
0.37499999999993
40
0.37499999999993
40
0.406249999999931
40
0.406249999999931
40
0.437499999999932
40
0.499999999999941
40
0.56249999999995
40
0.56249999999995
40
0.624999999999959
40
0.624999999999959
40
0.687499999999968
40
0.687499999999968
40
0.749999999999977
40
0.749999999999977
40
0.874999999999991
40
0.874999999999991
40
0.937499999999995
40
0.937499999999995
40
1
40
1
40
1
40
1
41
1
10
21.3281523379788
20
5.45255033719548
30
0
41
1
10
21.2791605406679
20
5.46566690900161
30
0
41
1
10
21.2290549015812
20
5.474299186671
30
0
41
1
10
21.1518976275396
20
5.48020933118011
30
0
41
1
10
21.1258420498828
20
5.48099789441602
30
0
41
1
10
21.0861721053909
20
5.48027086142045
30
0
41
1
10
21.0728201914699
20
5.47970717162707
30
0
41
1
10
21.0460462641009
20
5.47791724766822
30
0
41
1
10
21.0326678100601
20
5.47669546925323
30
0
41
1
10
20.9658054580948
20
5.46893465483484
30
0
41
1
10
20.9124105635004
20
5.45751152250077
30
0
41
1
10
20.8455886245499
20
5.43576872104413
30
0
41
1
10
20.8322038067763
20
5.43103222573407
30
0
41
1
10
20.8058521630068
20
5.42093672233352
30
0
41
1
10
20.7667940070404
20
5.40481108544978
30
0
41
1
10
20.70401379316
20
5.37307700742204
30
0
41
1
10
20.6562753174229
20
5.34247056713772
30
0
41
1
10
20.6098302684519
20
5.3091516783312
30
0
41
1
10
20.5878136047359
20
5.29153705083141
30
0
41
1
10
20.5460507829757
20
5.25455535200567
30
0
41
1
10
20.5262970086685
20
5.23518182045095
30
0
41
1
10
20.4889396946715
20
5.19471646567823
30
0
41
1
10
20.4712931406017
20
5.17354184788888
30
0
41
1
10
20.4226269571251
20
5.10901716491031
30
0
41
1
10
20.3953601516261
20
5.06422821594936
30
0
41
1
10
20.3612075572783
20
4.99443216575187
30
0
41
1
10
20.350934126048
20
4.97065052551773
30
0
41
1
10
20.3327806188035
20
4.9226102157771
30
0
41
1
10
20.3248979334759
20
4.8983721305531
30
0
41
1
10
20.3181619695471
20
4.87390593063603
30
0
0
SPLINE
5
196
100
AcDbEntity
8
1
62
256
6
ByLayer
370
18
48
1
60
0
100
AcDbSpline
70
4
71
3
72
24
73
20
40
0
40
0
40
0
40
0
40
0.062500000000007
40
0.062500000000007
40
0.125000000000014
40
0.125000000000014
40
0.25000000000001
40
0.25000000000001
40
0.312500000000009
40
0.312500000000009
40
0.375000000000009
40
0.375000000000009
40
0.500000000000008
40
0.500000000000008
40
0.625000000000007
40
0.625000000000007
40
0.750000000000006
40
0.750000000000006
40
1
40
1
40
1
40
1
41
1
10
21.69818105834
20
5.60442448118516
30
0
41
1
10
21.6934313378227
20
5.59632276096721
30
0
41
1
10
21.6882897889867
20
5.588351561553
30
0
41
1
10
21.6773553215863
20
5.57290830507944
30
0
41
1
10
21.6716008277752
20
5.56548367564358
30
0
41
1
10
21.6535070564053
20
5.54406861915268
30
0
41
1
10
21.6403431053361
20
5.53093113125524
30
0
41
1
10
21.61896037284
20
5.51292089280412
30
0
41
1
10
21.6115431209208
20
5.50719601632449
30
0
41
1
10
21.5964570188405
20
5.49653045728181
30
0
41
1
10
21.5887541685171
20
5.49155883626565
30
0
41
1
10
21.5651865615505
20
5.47768614042013
30
0
41
1
10
21.5488655560666
20
5.46982065305187
30
0
41
1
10
21.5150376500419
20
5.4568110432204
30
0
41
1
10
21.4979733948962
20
5.45183630987853
30
0
41
1
10
21.4636029977599
20
5.44467737829703
30
0
41
1
10
21.4462370587483
20
5.44249206386175
30
0
41
1
10
21.3941694441303
20
5.4400621607343
30
0
41
1
10
21.3606039107087
20
5.44386207901152
30
0
41
1
10
21.3281523379788
20
5.45255033719548
30
0
0
SPLINE
5
197
100
AcDbEntity
8
1
62
256
6
ByLayer
370
18
48
1
60
0
100
AcDbSpline
70
4
71
3
72
26
73
22
40
0
40
0
40
0
40
0
40
0.250000000000023
40
0.250000000000023
40
0.312500000000022
40
0.312500000000022
40
0.375000000000022
40
0.375000000000022
40
0.500000000000025
40
0.500000000000025
40
0.562500000000026
40
0.562500000000026
40
0.625000000000027
40
0.625000000000027
40
0.75000000000001
40
0.75000000000001
40
0.812500000000002
40
0.812500000000002
40
0.874999999999993
40
0.874999999999993
40
1
40
1
40
1
40
1
41
1
10
19.6818380304534
20
4.87390593063603
30
0
41
1
10
19.6907807694533
20
4.84142433743133
30
0
41
1
10
19.7045123677412
20
4.81053768104846
30
0
41
1
10
19.7281646611712
20
4.77420285345855
30
0
41
1
10
19.7332504932271
20
4.76702391335618
30
0
41
1
10
19.7439469908239
20
4.75314197621984
30
0
41
1
10
19.7495666009291
20
4.74641977633342
30
0
41
1
10
19.7672404966509
20
4.72691464447132
30
0
41
1
10
19.7801042158834
20
4.7147885621439
30
0
41
1
10
19.8011189451323
20
4.69801196403117
30
0
41
1
10
19.8084116893912
20
4.69265625358713
30
0
41
1
10
19.8236083865564
20
4.68244980474395
30
0
41
1
10
19.831458829289
20
4.67763925787605
30
0
41
1
10
19.8554562271621
20
4.66427687784184
30
0
41
1
10
19.8721665003507
20
4.65670446673562
30
0
41
1
10
19.8983294895869
20
4.64741739092901
30
0
41
1
10
19.9072343299038
20
4.64466863919765
30
0
41
1
10
19.925429230257
20
4.63989967667646
30
0
41
1
10
19.9347154010503
20
4.63788684527583
30
0
41
1
10
19.9625187231477
20
4.63309778706696
30
0
41
1
10
19.9811910467102
20
4.63150137078034
30
0
41
1
10
20.0000000000002
20
4.63150137078034
30
0
0
SPLINE
5
198
100
AcDbEntity
8
1
62
256
6
ByLayer
370
18
48
1
60
0
100
AcDbSpline
70
4
71
3
72
34
73
30
40
0
40
0
40
0
40
0
40
0.124999999999994
40
0.124999999999994
40
0.187499999999993
40
0.187499999999993
40
0.218749999999993
40
0.218749999999993
40
0.249999999999993
40
0.249999999999993
40
0.374999999999997
40
0.374999999999997
40
0.40625
40
0.40625
40
0.437500000000002
40
0.500000000000002
40
0.562500000000001
40
0.562500000000001
40
0.625000000000001
40
0.625000000000001
40
0.687500000000001
40
0.687500000000001
40
0.75
40
0.75
40
0.874999999999999
40
0.874999999999999
40
0.9375
40
0.9375
40
1
40
1
40
1
40
1
41
1
10
19.6818380304534
20
4.87390593063603
30
0
41
1
10
19.668375604416
20
4.92280381819597
30
0
41
1
10
19.6504813479257
20
4.97039464408459
30
0
41
1
10
19.6165572925046
20
5.03994558428977
30
0
41
1
10
19.6040598537767
20
5.0628219698836
30
0
41
1
10
19.583369421828
20
5.09667664821063
30
0
41
1
10
19.5761303535398
20
5.10790995953784
30
0
41
1
10
19.5610452042169
20
5.13010196705514
30
0
41
1
10
19.5532249960408
20
5.14102534113428
30
0
41
1
10
19.5127140095091
20
5.19478093595578
30
0
41
1
10
19.4758548429778
20
5.23506622592606
30
0
41
1
10
19.423302342232
20
5.28171551526054
30
0
41
1
10
19.4124468477994
20
5.29086679685298
30
0
41
1
10
19.3904102324401
20
5.30849392936949
30
0
41
1
10
19.3567451854698
20
5.33403292201487
30
0
41
1
10
19.2976173881467
20
5.37214211258765
30
0
41
1
10
19.2470701322238
20
5.39784596186269
30
0
41
1
10
19.1948368936119
20
5.42106190807772
30
0
41
1
10
19.1685061336952
20
5.43114652192534
30
0
41
1
10
19.1154811300861
20
5.44847073245765
30
0
41
1
10
19.0887774643555
20
5.45571363089621
30
0
41
1
10
19.0349752898999
20
5.46747543536026
30
0
41
1
10
19.0077836029232
20
5.47198957494149
30
0
41
1
10
18.9275064791059
20
5.4813391853157
30
0
41
1
10
18.8750777532938
20
5.48220945763438
30
0
41
1
10
18.7975934411141
20
5.47637250282762
30
0
41
1
10
18.7718817194636
20
5.47320750138641
30
0
41
1
10
18.7212572052779
20
5.46457154515042
30
0
41
1
10
18.6963608490403
20
5.45911325171127
30
0
41
1
10
18.6718476620217
20
5.45255033719548
30
0
0
SPLINE
5
199
100
AcDbEntity
8
1
62
256
6
ByLayer
370
18
48
1
60
0
100
AcDbSpline
70
4
71
3
72
24
73
20
40
0
40
0
40
0
40
0
40
0.0625000000000104
40
0.0625000000000104
40
0.125000000000021
40
0.125000000000021
40
0.250000000000021
40
0.250000000000021
40
0.31250000000002
40
0.31250000000002
40
0.375000000000018
40
0.375000000000018
40
0.500000000000016
40
0.500000000000016
40
0.625000000000013
40
0.625000000000013
40
0.75000000000001
40
0.75000000000001
40
1
40
1
40
1
40
1
41
1
10
18.3018189416605
20
5.60442448118516
30
0
41
1
10
18.3065686621778
20
5.59632276096721
30
0
41
1
10
18.3117102110138
20
5.588351561553
30
0
41
1
10
18.3226446784142
20
5.57290830507944
30
0
41
1
10
18.3283991722253
20
5.56548367564358
30
0
41
1
10
18.3464929435952
20
5.54406861915268
30
0
41
1
10
18.3596568946644
20
5.53093113125524
30
0
41
1
10
18.3810396271605
20
5.51292089280412
30
0
41
1
10
18.3884568790797
20
5.50719601632449
30
0
41
1
10
18.40354298116
20
5.49653045728181
30
0
41
1
10
18.4112458314835
20
5.49155883626565
30
0
41
1
10
18.43481343845
20
5.4776861404201
30
0
41
1
10
18.4511344439339
20
5.46982065305187
30
0
41
1
10
18.4849623499586
20
5.4568110432204
30
0
41
1
10
18.5020266051043
20
5.45183630987853
30
0
41
1
10
18.5363970022406
20
5.44467737829703
30
0
41
1
10
18.5537629412522
20
5.44249206386175
30
0
41
1
10
18.6058305558702
20
5.4400621607343
30
0
41
1
10
18.6393960892918
20
5.44386207901152
30
0
41
1
10
18.6718476620217
20
5.45255033719548
30
0
0
LINE
5
7D
100
AcDbEntity
8
81
62
256
6
ByLayer
370
18
48
1
60
0
100
AcDbLine
10
45.1
20
18
30
0
11
50.1
21
18
31
0
39
0
210
0
220
0
230
1
0
LINE
5
7E
100
AcDbEntity
8
80
62
256
6
ByLayer
370
18
48
1
60
0
100
AcDbLine
10
0
20
0
30
0
11
0
21
-5
31
0
39
0
210
0
220
0
230
1
0
LINE
5
7F
100
AcDbEntity
8
1
62
256
6
ByLayer
370
18
48
1
60
0
100
AcDbLine
10
20
20
0.675
30
0
11
20
21
0.875
31
0
39
0
210
0
220
0
230
1
0
LINE
5
80
100
AcDbEntity
8
1
62
256
6
ByLayer
370
18
48
1
60
0
100
AcDbLine
10
40.6
20
17.81691
30
0
11
40.224301
21
17.600001
31
0
39
0
210
0
220
0
230
1
0
LINE
5
81
100
AcDbEntity
8
1
62
256
6
ByLayer
370
13
48
1
60
0
100
AcDbLine
10
37.1
20
15.478796
30
0
11
38.037861
21
15.478796
31
0
39
0
210
0
220
0
230
1
0
LINE
5
82
100
AcDbEntity
8
1
62
256
6
ByLayer
370
13
48
1
60
0
100
AcDbLine
10
37.099915
20
15.518796
30
0
11
38.037861
21
15.518796
31
0
39
0
210
0
220
0
230
1
0
LINE
5
83
100
AcDbEntity
8
1
62
256
6
ByLayer
370
13
48
1
60
0
100
AcDbLine
10
37.100172
20
15.288045
30
0
11
38.028946
21
15.288045
31
0
39
0
210
0
220
0
230
1
0
LINE
5
84
100
AcDbEntity
8
1
62
256
6
ByLayer
370
13
48
1
60
0
100
AcDbLine
10
37.099748
20
15.709516
30
0
11
38.028946
21
15.709516
31
0
39
0
210
0
220
0
230
1
0
LINE
5
85
100
AcDbEntity
8
1
62
256
6
ByLayer
370
13
48
1
60
0
100
AcDbLine
10
37.003537
20
15.070734
30
0
11
37.848945
21
15.070734
31
0
39
0
210
0
220
0
230
1
0
LINE
5
86
100
AcDbEntity
8
1
62
256
6
ByLayer
370
13
48
1
60
0
100
AcDbLine
10
37.000667
20
15.926198
30
0
11
37.848945
21
15.926198
31
0
39
0
210
0
220
0
230
1
0
LINE
5
87
100
AcDbEntity
8
1
62
256
6
ByLayer
370
13
48
1
60
0
100
AcDbLine
10
37.690119
20
15.015104
30
0
11
36.888107
21
15.015104
31
0
39
0
210
0
220
0
230
1
0
LINE
5
88
100
AcDbEntity
8
1
62
256
6
ByLayer
370
13
48
1
60
0
100
AcDbLine
10
37.690119
20
15.981273
30
0
11
36.885323
21
15.981273
31
0
39
0
210
0
220
0
230
1
0
LINE
5
89
100
AcDbEntity
8
1
62
256
6
ByLayer
370
13
48
1
60
0
100
AcDbLine
10
36.850199
20
14.984231
30
0
11
37.649523
21
14.984231
31
0
39
0
210
0
220
0
230
1
0
LINE
5
8A
100
AcDbEntity
8
1
62
256
6
ByLayer
370
13
48
1
60
0
100
AcDbLine
10
36.848779
20
16.012005
30
0
11
37.649523
21
16.012005
31
0
39
0
210
0
220
0
230
1
0
LINE
5
8B
100
AcDbEntity
8
1
62
256
6
ByLayer
370
13
48
1
60
0
100
AcDbLine
10
36.837104
20
14.892329
30
0
11
37.577691
21
14.892329
31
0
39
0
210
0
220
0
230
1
0
LINE
5
8C
100
AcDbEntity
8
1
62
256
6
ByLayer
370
13
48
1
60
0
100
AcDbLine
10
36.835393
20
16.103657
30
0
11
37.577691
21
16.103657
31
0
39
0
210
0
220
0
230
1
0
LINE
5
8D
100
AcDbEntity
8
1
62
256
6
ByLayer
370
13
48
1
60
0
100
AcDbLine
10
36.830843
20
14.848025
30
0
11
37.557959
21
14.848025
31
0
39
0
210
0
220
0
230
1
0
LINE
5
8E
100
AcDbEntity
8
1
62
256
6
ByLayer
370
13
48
1
60
0
100
AcDbLine
10
36.65398
20
13.638843
30
0
11
37.346355
21
13.638843
31
0
39
0
210
0
220
0
230
1
0
LINE
5
8F
100
AcDbEntity
8
1
62
256
6
ByLayer
370
13
48
1
60
0
100
AcDbLine
10
36.656762
20
13.65621
30
0
11
37.347874
21
13.65621
31
0
39
0
210
0
220
0
230
1
0
LINE
5
90
100
AcDbEntity
8
1
62
256
6
ByLayer
370
13
48
1
60
0
100
AcDbLine
10
36.828984
20
16.147891
30
0
11
37.557959
21
16.147891
31
0
39
0
210
0
220
0
230
1
0
LINE
5
91
100
AcDbEntity
8
1
62
256
6
ByLayer
370
13
48
1
60
0
100
AcDbLine
10
36.650975
20
17.338973
30
0
11
37.347874
21
17.338973
31
0
39
0
210
0
220
0
230
1
0
LINE
5
92
100
AcDbEntity
8
1
62
256
6
ByLayer
370
18
48
1
60
0
100
AcDbLine
10
38.73
20
17.600001
30
0
11
40.224301
21
17.600001
31
0
39
0
210
0
220
0
230
1
0
LINE
5
93
100
AcDbEntity
8
1
62
256
6
ByLayer
370
18
48
1
60
0
100
AcDbLine
10
38.73
20
13.400007
30
0
11
38.73
21
17.600001
31
0
39
0
210
0
220
0
230
1
0
LINE
5
94
100
AcDbEntity
8
1
62
256
6
ByLayer
370
18
48
1
60
0
100
AcDbLine
10
37.346355
20
17.597586
30
0
11
38.73
21
17.600001
31
0
39
0
210
0
220
0
230
1
0
LINE
5
95
100
AcDbEntity
8
1
62
256
6
ByLayer
370
18
48
1
60
0
100
AcDbLine
10
37.557959
20
16.147891
30
0
11
37.347874
21
17.338973
31
0
39
0
210
0
220
0
230
1
0
LINE
5
96
100
AcDbEntity
8
1
62
256
6
ByLayer
370
18
48
1
60
0
100
AcDbLine
10
37.649523
20
16.012005
30
0
11
37.577691
21
16.103657
31
0
39
0
210
0
220
0
230
1
0
LINE
5
97
100
AcDbEntity
8
1
62
256
6
ByLayer
370
18
48
1
60
0
100
AcDbLine
10
38.037861
20
15.478796
30
0
11
38.037861
21
15.518796
31
0
39
0
210
0
220
0
230
1
0
LINE
5
98
100
AcDbEntity
8
1
62
256
6
ByLayer
370
18
48
1
60
0
100
AcDbLine
10
37.649523
20
14.984231
30
0
11
37.577691
21
14.892329
31
0
39
0
210
0
220
0
230
1
0
LINE
5
99
100
AcDbEntity
8
1
62
256
6
ByLayer
370
18
48
1
60
0
100
AcDbLine
10
37.557959
20
14.848025
30
0
11
37.347874
21
13.65621
31
0
39
0
210
0
220
0
230
1
0
LINE
5
9A
100
AcDbEntity
8
1
62
256
6
ByLayer
370
18
48
1
60
0
100
AcDbLine
10
37.346355
20
13.638843
30
0
11
37.346355
21
13.397592
31
0
39
0
210
0
220
0
230
1
0
LINE
5
9B
100
AcDbEntity
8
1
62
256
6
ByLayer
370
13
48
1
60
0
100
AcDbLine
10
36.648047
20
17.356335
30
0
11
37.346355
21
17.356335
31
0
39
0
210
0
220
0
230
1
0
LINE
5
9C
100
AcDbEntity
8
1
62
256
6
ByLayer
370
18
48
1
60
0
100
AcDbLine
10
37.346355
20
17.356335
30
0
11
37.346355
21
17.597586
31
0
39
0
210
0
220
0
230
1
0
LINE
5
9D
100
AcDbEntity
8
1
62
256
6
ByLayer
370
18
48
1
60
0
100
AcDbLine
10
36.607852
20
17.597586
30
0
11
37.346355
21
17.597586
31
0
39
0
210
0
220
0
230
1
0
LINE
5
9E
100
AcDbEntity
8
1
62
256
6
ByLayer
370
18
48
1
60
0
100
AcDbLine
10
40.6
20
13.183097
30
0
11
40.224301
21
13.400007
31
0
39
0
210
0
220
0
230
1
0
LINE
5
9F
100
AcDbEntity
8
1
62
256
6
ByLayer
370
18
48
1
60
0
100
AcDbLine
10
45.1
20
13.300007
30
0
11
45.1
21
17.7
31
0
39
0
210
0
220
0
230
1
0
LINE
5
A0
100
AcDbEntity
8
1
62
256
6
ByLayer
370
18
48
1
60
0
100
AcDbLine
10
44.786914
20
17.999714
30
0
11
40.6
21
17.81691
31
0
39
0
210
0
220
0
230
1
0
LINE
5
A1
100
AcDbEntity
8
1
62
256
6
ByLayer
370
18
48
1
60
0
100
AcDbLine
10
44.786914
20
13.000293
30
0
11
40.6
21
13.183097
31
0
39
0
210
0
220
0
230
1
0
LINE
5
A2
100
AcDbEntity
8
1
62
256
6
ByLayer
370
18
48
1
60
0
100
AcDbLine
10
40.238002
20
17.608001
30
0
11
36.605821
21
17.608001
31
0
39
0
210
0
220
0
230
1
0
LINE
5
A3
100
AcDbEntity
8
1
62
256
6
ByLayer
370
18
48
1
60
0
100
AcDbLine
10
37.346355
20
13.397592
30
0
11
38.73
21
13.400007
31
0
39
0
210
0
220
0
230
1
0
LINE
5
A4
100
AcDbEntity
8
1
62
256
6
ByLayer
370
18
48
1
60
0
100
AcDbLine
10
36.614823
20
13.397592
30
0
11
37.346355
21
13.397592
31
0
39
0
210
0
220
0
230
1
0
LINE
5
A5
100
AcDbEntity
8
1
62
256
6
ByLayer
370
18
48
1
60
0
100
AcDbLine
10
38.73
20
13.400007
30
0
11
40.224301
21
13.400007
31
0
39
0
210
0
220
0
230
1
0
LINE
5
A6
100
AcDbEntity
8
1
62
256
6
ByLayer
370
18
48
1
60
0
100
AcDbLine
10
9.863043
20
-0.324981
30
0
11
11.476486
21
-0.324981
31
0
39
0
210
0
220
0
230
1
0
LINE
5
A7
100
AcDbEntity
8
1
62
256
6
ByLayer
370
18
48
1
60
0
100
AcDbLine
10
11.476746
20
-0.324981
30
0
11
11.592073
21
-0.324981
31
0
39
0
210
0
220
0
230
1
0
LINE
5
A8
100
AcDbEntity
8
1
62
256
6
ByLayer
370
18
48
1
60
0
100
AcDbLine
10
11.700309
20
-0.324981
30
0
11
12.078907
21
-0.324981
31
0
39
0
210
0
220
0
230
1
0
LINE
5
A9
100
AcDbEntity
8
1
62
256
6
ByLayer
370
18
48
1
60
0
100
AcDbLine
10
35.436827
20
17.758828
30
0
11
35.437144
21
17.936424
31
0
39
0
210
0
220
0
230
1
0
LINE
5
AA
100
AcDbEntity
8
1
62
256
6
ByLayer
370
18
48
1
60
0
100
AcDbLine
10
37.906193
20
17.60798
30
0
11
37.906769
21
17.930811
31
0
39
0
210
0
220
0
230
1
0
LINE
5
AB
100
AcDbEntity
8
1
62
256
6
ByLayer
370
18
48
1
60
0
100
AcDbLine
10
12.159145
20
-0.324981
30
0
11
18.777518
21
-0.324981
31
0
39
0
210
0
220
0
230
1
0
LINE
5
AC
100
AcDbEntity
8
1
62
256
6
ByLayer
370
18
48
1
60
0
100
AcDbLine
10
10.085407
20
-0.25
30
0
11
12.112448
21
-0.25
31
0
39
0
210
0
220
0
230
1
0
LINE
5
AD
100
AcDbEntity
8
1
62
256
6
ByLayer
370
13
48
1
60
0
100
AcDbLine
10
10.085505
20
-0.249981
30
0
11
18.872922
21
-0.249981
31
0
39
0
210
0
220
0
230
1
0
LINE
5
AE
100
AcDbEntity
8
1
62
256
6
ByLayer
370
18
48
1
60
0
100
AcDbLine
10
19.287063
20
0.129904
30
0
11
10.971714
21
0.129904
31
0
39
0
210
0
220
0
230
1
0
LINE
5
AF
100
AcDbEntity
8
1
62
256
6
ByLayer
370
18
48
1
60
0
100
AcDbLine
10
16.907426
20
20.28243
30
0
11
22.098686
21
25.473689
31
0
39
0
210
0
220
0
230
1
0
LINE
5
B0
100
AcDbEntity
8
1
62
256
6
ByLayer
370
18
48
1
60
0
100
AcDbLine
10
33.313923
20
17.936424
30
0
11
35.437144
21
17.936424
31
0
39
0
210
0
220
0
230
1
0
LINE
5
B1
100
AcDbEntity
8
1
62
256
6
ByLayer
370
18
48
1
60
0
100
AcDbLine
10
37.906769
20
17.930811
30
0
11
43.208755
21
17.930811
31
0
39
0
210
0
220
0
230
1
0
LINE
5
B2
100
AcDbEntity
8
1
62
256
6
ByLayer
370
18
48
1
60
0
100
AcDbLine
10
44.1
20
18.631184
30
0
11
44.1
21
17.969731
31
0
39
0
210
0
220
0
230
1
0
LINE
5
B3
100
AcDbEntity
8
1
62
256
6
ByLayer
370
18
48
1
60
0
100
AcDbLine
10
36.588711
20
17.702905
30
0
11
36.608009
21
17.59753
31
0
39
0
210
0
220
0
230
1
0
LINE
5
B4
100
AcDbEntity
8
1
62
256
6
ByLayer
370
18
48
1
60
0
100
AcDbLine
10
-17.993925
20
-0.324981
30
0
11
-17.500052
21
-0.324981
31
0
39
0
210
0
220
0
230
1
0
LINE
5
B5
100
AcDbEntity
8
1
62
256
6
ByLayer
370
18
48
1
60
0
100
AcDbLine
10
-12.088254
20
-0.324981
30
0
11
-11.914321
21
-0.324981
31
0
39
0
210
0
220
0
230
1
0
LINE
5
B6
100
AcDbEntity
8
1
62
256
6
ByLayer
370
13
48
1
60
0
100
AcDbLine
10
-18.028729
20
-0.249981
30
0
11
-17.635485
21
-0.249981
31
0
39
0
210
0
220
0
230
1
0
LINE
5
B7
100
AcDbEntity
8
1
62
256
6
ByLayer
370
13
48
1
60
0
100
AcDbLine
10
-18.581248
20
0.394519
30
0
11
-18.473911
21
0.394519
31
0
39
0
210
0
220
0
230
1
0
LINE
5
B8
100
AcDbEntity
8
1
62
256
6
ByLayer
370
18
48
1
60
0
100
AcDbLine
10
-17.413473
20
-0.324981
30
0
11
-16.786972
21
-0.324981
31
0
39
0
210
0
220
0
230
1
0
LINE
5
B9
100
AcDbEntity
8
1
62
256
6
ByLayer
370
18
48
1
60
0
100
AcDbLine
10
-13.593357
20
-0.324981
30
0
11
-13.533459
21
-0.324981
31
0
39
0
210
0
220
0
230
1
0
LINE
5
BA
100
AcDbEntity
8
1
62
256
6
ByLayer
370
13
48
1
60
0
100
AcDbLine
10
-17.438264
20
-0.249981
30
0
11
-16.939731
21
-0.249981
31
0
39
0
210
0
220
0
230
1
0
LINE
5
BB
100
AcDbEntity
8
1
62
256
6
ByLayer
370
13
48
1
60
0
100
AcDbLine
10
-17.977888
20
0.394519
30
0
11
-17.842224
21
0.394519
31
0
39
0
210
0
220
0
230
1
0
LINE
5
BC
100
AcDbEntity
8
1
62
256
6
ByLayer
370
18
48
1
60
0
100
AcDbLine
10
-16.678631
20
-0.324981
30
0
11
-15.90146
21
-0.324981
31
0
39
0
210
0
220
0
230
1
0
LINE
5
BD
100
AcDbEntity
8
1
62
256
6
ByLayer
370
13
48
1
60
0
100
AcDbLine
10
-16.692843
20
-0.249981
30
0
11
-16.07471
21
-0.249981
31
0
39
0
210
0
220
0
230
1
0
LINE
5
BE
100
AcDbEntity
8
1
62
256
6
ByLayer
370
13
48
1
60
0
100
AcDbLine
10
-17.223418
20
0.394519
30
0
11
-17.055876
21
0.394519
31
0
39
0
210
0
220
0
230
1
0
LINE
5
BF
100
AcDbEntity
8
1
62
256
6
ByLayer
370
18
48
1
60
0
100
AcDbLine
10
-15.767828
20
-0.324981
30
0
11
-14.812472
21
-0.324981
31
0
39
0
210
0
220
0
230
1
0
LINE
5
C0
100
AcDbEntity
8
1
62
256
6
ByLayer
370
13
48
1
60
0
100
AcDbLine
10
-15.77051
20
-0.249981
30
0
11
-15.011304
21
-0.249981
31
0
39
0
210
0
220
0
230
1
0
LINE
5
C1
100
AcDbEntity
8
1
62
256
6
ByLayer
370
13
48
1
60
0
100
AcDbLine
10
-16.296865
20
0.394519
30
0
11
-16.09229
21
0.394519
31
0
39
0
210
0
220
0
230
1
0
LINE
5
C2
100
AcDbEntity
8
1
62
256
6
ByLayer
370
13
48
1
60
0
100
AcDbLine
10
27.1
20
14.783184
30
0
11
27.1
21
13.364427
31
0
39
0
210
0
220
0
230
1
0
LINE
5
C3
100
AcDbEntity
8
1
62
256
6
ByLayer
370
18
48
1
60
0
100
AcDbLine
10
-14.64828
20
-0.324981
30
0
11
-13.593304
21
-0.324981
31
0
39
0
210
0
220
0
230
1
0
LINE
5
C4
100
AcDbEntity
8
1
62
256
6
ByLayer
370
13
48
1
60
0
100
AcDbLine
10
-14.637861
20
-0.249981
30
0
11
-13.703342
21
-0.249981
31
0
39
0
210
0
220
0
230
1
0
LINE
5
C5
100
AcDbEntity
8
1
62
256
6
ByLayer
370
13
48
1
60
0
100
AcDbLine
10
-15.166723
20
0.394519
30
0
11
-14.917111
21
0.394519
31
0
39
0
210
0
220
0
230
1
0
LINE
5
C6
100
AcDbEntity
8
1
62
256
6
ByLayer
370
18
48
1
60
0
100
AcDbLine
10
-13.267245
20
-0.324981
30
0
11
-12.088194
21
-0.324981
31
0
39
0
210
0
220
0
230
1
0
LINE
5
C7
100
AcDbEntity
8
1
62
256
6
ByLayer
370
13
48
1
60
0
100
AcDbLine
10
-13.241033
20
-0.249981
30
0
11
-12.071604
21
-0.249981
31
0
39
0
210
0
220
0
230
1
0
LINE
5
C8
100
AcDbEntity
8
1
62
256
6
ByLayer
370
13
48
1
60
0
100
AcDbLine
10
-13.783002
20
0.394519
30
0
11
-13.474849
21
0.394519
31
0
39
0
210
0
220
0
230
1
0
LINE
5
C9
100
AcDbEntity
8
1
62
256
6
ByLayer
370
18
48
1
60
0
100
AcDbLine
10
13.51676
20
17.375004
30
0
11
13.235114
21
17.375004
31
0
39
0
210
0
220
0
230
1
0
LINE
5
CA
100
AcDbEntity
8
1
62
256
6
ByLayer
370
18
48
1
60
0
100
AcDbLine
10
13.932861
20
0.675
30
0
11
13.198176
21
0.675
31
0
39
0
210
0
220
0
230
1
0
LINE
5
CB
100
AcDbEntity
8
1
62
256
6
ByLayer
370
18
48
1
60
0
100
AcDbLine
10
14.272209
20
1.375
30
0
11
14.39618
21
1.375
31
0
39
0
210
0
220
0
230
1
0
LINE
5
CC
100
AcDbEntity
8
1
62
256
6
ByLayer
370
18
48
1
60
0
100
AcDbLine
10
13.932861
20
0.675
30
0
11
13.932861
21
0.875
31
0
39
0
210
0
220
0
230
1
0
LINE
5
CD
100
AcDbEntity
8
1
62
256
6
ByLayer
370
18
48
1
60
0
100
AcDbLine
10
21.379352
20
1.375
30
0
11
14.39618
21
1.375
31
0
39
0
210
0
220
0
230
1
0
LINE
5
CE
100
AcDbEntity
8
1
62
256
6
ByLayer
370
18
48
1
60
0
100
AcDbLine
10
14.39618
20
17.638359
30
0
11
14.39618
21
1.375
31
0
39
0
210
0
220
0
230
1
0
LINE
5
CF
100
AcDbEntity
8
1
62
256
6
ByLayer
370
18
48
1
60
0
100
AcDbLine
10
16.907329
20
20.282333
30
0
11
15
21
18.375004
31
0
39
0
210
0
220
0
230
1
0
LINE
5
D0
100
AcDbEntity
8
1
62
256
6
ByLayer
370
18
48
1
60
0
100
AcDbLine
10
21.379352
20
1.375
30
0
11
23.231887
21
1.375
31
0
39
0
210
0
220
0
230
1
0
LINE
5
D1
100
AcDbEntity
8
1
62
256
6
ByLayer
370
18
48
1
60
0
100
AcDbLine
10
25.5
20
3.278173
30
0
11
23.231887
21
1.375
31
0
39
0
210
0
220
0
230
1
0
LINE
5
D2
100
AcDbEntity
8
1
62
256
6
ByLayer
370
18
48
1
60
0
100
AcDbLine
10
25.5
20
3.278173
30
0
11
25.5
21
13.527432
31
0
39
0
210
0
220
0
230
1
0
LINE
5
D3
100
AcDbEntity
8
1
62
256
6
ByLayer
370
18
48
1
60
0
100
AcDbLine
10
33.6
20
17.910521
30
0
11
33.6
21
13.617671
31
0
39
0
210
0
220
0
230
1
0
LINE
5
D4
100
AcDbEntity
8
1
62
256
6
ByLayer
370
18
48
1
60
0
100
AcDbLine
10
21.379352
20
10.935885
30
0
11
21.379352
21
20.282333
31
0
39
0
210
0
220
0
230
1
0
LINE
5
D5
100
AcDbEntity
8
1
62
256
6
ByLayer
370
18
48
1
60
0
100
AcDbLine
10
21.379352
20
1.375
30
0
11
21.379352
21
2.264118
31
0
39
0
210
0
220
0
230
1
0
LINE
5
D6
100
AcDbEntity
8
1
62
256
6
ByLayer
370
18
48
1
60
0
100
AcDbLine
10
16.907329
20
20.282333
30
0
11
21.379352
21
20.282333
31
0
39
0
210
0
220
0
230
1
0
LINE
5
D7
100
AcDbEntity
8
1
62
256
6
ByLayer
370
18
48
1
60
0
100
AcDbLine
10
-11.531153
20
-0.324981
30
0
11
-9.594947
21
-0.324981
31
0
39
0
210
0
220
0
230
1
0
LINE
5
D8
100
AcDbEntity
8
1
62
256
6
ByLayer
370
13
48
1
60
0
100
AcDbLine
10
-11.48403
20
-0.249981
30
0
11
-9.957988
21
-0.249981
31
0
39
0
210
0
220
0
230
1
0
LINE
5
D9
100
AcDbEntity
8
1
62
256
6
ByLayer
370
13
48
1
60
0
100
AcDbLine
10
9.958064
20
-0.249981
30
0
11
10.085459
21
-0.249981
31
0
39
0
210
0
220
0
230
1
0
LINE
5
DA
100
AcDbEntity
8
1
62
256
6
ByLayer
370
13
48
1
60
0
100
AcDbLine
10
-12.058724
20
0.394519
30
0
11
-11.667722
21
0.394519
31
0
39
0
210
0
220
0
230
1
0
LINE
5
DB
100
AcDbEntity
8
1
62
256
6
ByLayer
370
18
48
1
60
0
100
AcDbLine
10
-9.242033
20
-0.324981
30
0
11
-6.372959
21
-0.324981
31
0
39
0
210
0
220
0
230
1
0
LINE
5
DC
100
AcDbEntity
8
1
62
256
6
ByLayer
370
18
48
1
60
0
100
AcDbLine
10
6.372959
20
-0.324981
30
0
11
9.242033
21
-0.324981
31
0
39
0
210
0
220
0
230
1
0
LINE
5
DD
100
AcDbEntity
8
1
62
256
6
ByLayer
370
13
48
1
60
0
100
AcDbLine
10
-9.161928
20
-0.249981
30
0
11
-6.935866
21
-0.249981
31
0
39
0
210
0
220
0
230
1
0
LINE
5
DE
100
AcDbEntity
8
1
62
256
6
ByLayer
370
13
48
1
60
0
100
AcDbLine
10
6.935866
20
-0.249981
30
0
11
9.161928
21
-0.249981
31
0
39
0
210
0
220
0
230
1
0
LINE
5
DF
100
AcDbEntity
8
1
62
256
6
ByLayer
370
13
48
1
60
0
100
AcDbLine
10
-9.816033
20
0.394519
30
0
11
-9.284126
21
0.394519
31
0
39
0
210
0
220
0
230
1
0
LINE
5
E0
100
AcDbEntity
8
1
62
256
6
ByLayer
370
13
48
1
60
0
100
AcDbLine
10
9.284126
20
0.394519
30
0
11
9.816033
21
0.394519
31
0
39
0
210
0
220
0
230
1
0
LINE
5
E1
100
AcDbEntity
8
1
62
256
6
ByLayer
370
18
48
1
60
0
100
AcDbLine
10
-5.776059
20
-0.324981
30
0
11
5.776059
21
-0.324981
31
0
39
0
210
0
220
0
230
1
0
LINE
5
E2
100
AcDbEntity
8
1
62
256
6
ByLayer
370
13
48
1
60
0
100
AcDbLine
10
-5.612388
20
-0.249981
30
0
11
5.612388
21
-0.249981
31
0
39
0
210
0
220
0
230
1
0
LINE
5
E3
100
AcDbEntity
8
1
62
256
6
ByLayer
370
13
48
1
60
0
100
AcDbLine
10
-6.541878
20
0.394519
30
0
11
-5.63501
21
0.394519
31
0
39
0
210
0
220
0
230
1
0
LINE
5
E4
100
AcDbEntity
8
1
62
256
6
ByLayer
370
13
48
1
60
0
100
AcDbLine
10
5.63501
20
0.394519
30
0
11
6.541878
21
0.394519
31
0
39
0
210
0
220
0
230
1
0
LINE
5
E5
100
AcDbEntity
8
1
62
256
6
ByLayer
370
18
48
1
60
0
100
AcDbLine
10
-19
20
0.675
30
0
11
-19
21
0.875
31
0
39
0
210
0
220
0
230
1
0
LINE
5
E6
100
AcDbEntity
8
1
62
256
6
ByLayer
370
18
48
1
60
0
100
AcDbLine
10
11.871309
20
0.675
30
0
11
13.198251
21
0.675
31
0
39
0
210
0
220
0
230
1
0
LINE
5
E7
100
AcDbEntity
8
1
62
256
6
ByLayer
370
18
48
1
60
0
100
AcDbLine
10
13.198251
20
0.875
30
0
11
13.198251
21
0.675
31
0
39
0
210
0
220
0
230
1
0
LINE
5
E8
100
AcDbEntity
8
1
62
256
6
ByLayer
370
18
48
1
60
0
100
AcDbLine
10
11.008951
20
1.375
30
0
11
8.2521
21
1.375
31
0
39
0
210
0
220
0
230
1
0
LINE
5
E9
100
AcDbEntity
8
1
62
256
6
ByLayer
370
18
48
1
60
0
100
AcDbLine
10
13.235223
20
17.375004
30
0
11
8.2521
21
17.375004
31
0
39
0
210
0
220
0
230
1
0
LINE
5
EA
100
AcDbEntity
8
1
62
256
6
ByLayer
370
18
48
1
60
0
100
AcDbLine
10
13.235223
20
1.10195
30
0
11
13.235223
21
17.375004
31
0
39
0
210
0
220
0
230
1
0
LINE
5
EB
100
AcDbEntity
8
1
62
256
6
ByLayer
370
18
48
1
60
0
100
AcDbLine
10
0
20
17.375004
30
0
11
-7.724996
21
17.375004
31
0
39
0
210
0
220
0
230
1
0
LINE
5
EC
100
AcDbEntity
8
1
62
256
6
ByLayer
370
18
48
1
60
0
100
AcDbLine
10
-7.724996
20
17.375004
30
0
11
-19
21
6.1
31
0
39
0
210
0
220
0
230
1
0
LINE
5
ED
100
AcDbEntity
8
1
62
256
6
ByLayer
370
18
48
1
60
0
100
AcDbLine
10
-19
20
6.1
30
0
11
-19
21
1.092945
31
0
39
0
210
0
220
0
230
1
0
LINE
5
EE
100
AcDbEntity
8
1
62
256
6
ByLayer
370
18
48
1
60
0
100
AcDbLine
10
8.2521
20
1.375
30
0
11
4.271709
21
1.375
31
0
39
0
210
0
220
0
230
1
0
LINE
5
EF
100
AcDbEntity
8
1
62
256
6
ByLayer
370
18
48
1
60
0
100
AcDbLine
10
8.2521
20
17.375004
30
0
11
0
21
17.375004
31
0
39
0
210
0
220
0
230
1
0
LINE
5
F0
100
AcDbEntity
8
1
62
256
6
ByLayer
370
13
48
1
60
0
100
AcDbLine
10
0
20
17.375004
30
0
11
0
21
1.092945
31
0
39
0
210
0
220
0
230
1
0
LINE
5
F1
100
AcDbEntity
8
1
62
256
6
ByLayer
370
18
48
1
60
0
100
AcDbLine
10
8.2521
20
17.375004
30
0
11
8.2521
21
1.375
31
0
39
0
210
0
220
0
230
1
0
LINE
5
F2
100
AcDbEntity
8
1
62
256
6
ByLayer
370
13
48
1
60
0
100
AcDbLine
10
13.198251
20
0.875
30
0
11
-19
21
0.875
31
0
39
0
210
0
220
0
230
1
0
LINE
5
F3
100
AcDbEntity
8
1
62
256
6
ByLayer
370
18
48
1
60
0
100
AcDbLine
10
0
20
1.092945
30
0
11
-19
21
1.092945
31
0
39
0
210
0
220
0
230
1
0
LINE
5
F4
100
AcDbEntity
8
1
62
256
6
ByLayer
370
18
48
1
60
0
100
AcDbLine
10
-17.993925
20
-0.324981
30
0
11
-18.000019
21
-0.324981
31
0
39
0
210
0
220
0
230
1
0
LINE
5
F5
100
AcDbEntity
8
1
62
256
6
ByLayer
370
18
48
1
60
0
100
AcDbLine
10
-17.413473
20
-0.324981
30
0
11
-17.50006
21
-0.324981
31
0
39
0
210
0
220
0
230
1
0
LINE
5
F6
100
AcDbEntity
8
1
62
256
6
ByLayer
370
18
48
1
60
0
100
AcDbLine
10
-16.678631
20
-0.324981
30
0
11
-16.787031
21
-0.324981
31
0
39
0
210
0
220
0
230
1
0
LINE
5
F7
100
AcDbEntity
8
1
62
256
6
ByLayer
370
18
48
1
60
0
100
AcDbLine
10
-15.767828
20
-0.324981
30
0
11
-15.901469
21
-0.324981
31
0
39
0
210
0
220
0
230
1
0
LINE
5
F8
100
AcDbEntity
8
1
62
256
6
ByLayer
370
18
48
1
60
0
100
AcDbLine
10
-14.64828
20
-0.324981
30
0
11
-14.812462
21
-0.324981
31
0
39
0
210
0
220
0
230
1
0
LINE
5
F9
100
AcDbEntity
8
1
62
256
6
ByLayer
370
18
48
1
60
0
100
AcDbLine
10
-13.267245
20
-0.324981
30
0
11
-13.470759
21
-0.324981
31
0
39
0
210
0
220
0
230
1
0
LINE
5
FA
100
AcDbEntity
8
1
62
256
6
ByLayer
370
18
48
1
60
0
100
AcDbLine
10
-11.531153
20
-0.324981
30
0
11
-11.790405
21
-0.324981
31
0
39
0
210
0
220
0
230
1
0
LINE
5
FB
100
AcDbEntity
8
1
62
256
6
ByLayer
370
18
48
1
60
0
100
AcDbLine
10
-9.242033
20
-0.324981
30
0
11
-9.595101
21
-0.324981
31
0
39
0
210
0
220
0
230
1
0
LINE
5
FC
100
AcDbEntity
8
1
62
256
6
ByLayer
370
18
48
1
60
0
100
AcDbLine
10
-5.776059
20
-0.324981
30
0
11
-6.373247
21
-0.324981
31
0
39
0
210
0
220
0
230
1
0
LINE
5
FD
100
AcDbEntity
8
1
62
256
6
ByLayer
370
18
48
1
60
0
100
AcDbLine
10
6.373247
20
-0.324981
30
0
11
5.776059
21
-0.324981
31
0
39
0
210
0
220
0
230
1
0
LINE
5
FE
100
AcDbEntity
8
1
62
256
6
ByLayer
370
18
48
1
60
0
100
AcDbLine
10
9.595101
20
-0.324981
30
0
11
9.242033
21
-0.324981
31
0
39
0
210
0
220
0
230
1
0
LINE
5
FF
100
AcDbEntity
8
1
62
256
6
ByLayer
370
18
48
1
60
0
100
AcDbLine
10
-19
20
0.675
30
0
11
11.871309
21
0.675
31
0
39
0
210
0
220
0
230
1
0
LINE
5
100
100
AcDbEntity
8
1
62
256
6
ByLayer
370
18
48
1
60
0
100
AcDbLine
10
20
20
0.675
30
0
11
13.932861
21
0.675
31
0
39
0
210
0
220
0
230
1
0
LINE
5
101
100
AcDbEntity
8
1
62
256
6
ByLayer
370
13
48
1
60
0
100
AcDbLine
10
20
20
0.875
30
0
11
13.932861
21
0.875
31
0
39
0
210
0
220
0
230
1
0
LINE
5
102
100
AcDbEntity
8
1
62
256
6
ByLayer
370
18
48
1
60
0
100
AcDbLine
10
34.816356
20
25.755181
30
0
11
24.28645
21
25.755181
31
0
39
0
210
0
220
0
230
1
0
MTEXT
5
19A
100
AcDbEntity
8
SK6
62
256
6
ByLayer
370
18
48
1
60
0
100
AcDbMText
10
-19.2645
20
-43.839776
30
0
210
0
220
0
230
1
1
\W0.7789;C2A-SL40-LGJ18B-060GB
40
3.5
41
0
44
1.084337
50
0
71
7
72
5
7
iso_b_vert
0
DIMENSION
5
19F
100
AcDbEntity
8
2
62
256
6
ByLayer
370
18
48
1
60
0
100
AcDbDimension
2
_U0
10
45.1
20
-19.75
30
0
11
22.55
21
-19.75
31
0
70
32
71
1
72
1
41
1
210
0
220
0
230
1
3
Standard
100
AcDbAlignedDimension
13
0
23
0
33
0
14
45.1
24
18
34
0
50
0
100
AcDbRotatedDimension
1001
ACAD
1000
DSTYLE
1002
{
1070
   371
1070
    13
1070
   372
1070
    13
1070
   170
1070
     0
1070
   144
1040
1.0
1070
   277
1070
     2
1070
   284
1070
     8
1070
   278
1070
    46
1070
   146
1040
1.0
1070
   345
1005
16
1070
   347
1005
16
1070
   346
1005
16
1070
   344
1005
0
1070
   343
1005
0
1070
   172
1070
     1
1070
    76
1070
     0
1070
    75
1070
     0
1070
   282
1070
     0
1070
   281
1070
     0
1070
    71
1070
     0
1070
    74
1070
     0
1070
   279
1070
     0
1070
   173
1070
     1
1070
   340
1005
19B
1070
   271
1070
     2
1070
   272
1070
     2
1070
    77
1070
     1
1070
    73
1070
     1
1070
   171
1070
     3
1070
   274
1070
     4
1070
   177
1070
     2
1070
   176
1070
     2
1070
   178
1070
     2
1070
    78
1070
     8
1070
    48
1040
-0.1
1070
    41
1040
3.5
1070
   147
1040
1.75
1070
    42
1040
1.5875
1070
    44
1040
2.0
1070
   140
1040
3.5
1002
}
1001
ACAD_DSTYLE_DIM_LINETYPE
1070
   380
1005
16
1001
ACAD_DSTYLE_DIM_EXT1_LINETYPE
1070
   381
1005
16
1001
ACAD_DSTYLE_DIM_EXT2_LINETYPE
1070
   382
1005
16
0
DIMENSION
5
1B9
100
AcDbEntity
8
2
62
256
6
ByLayer
370
18
48
1
60
0
100
AcDbDimension
2
_U1
10
45.1
20
-11.75
30
0
11
36.1
21
-11.75
31
0
70
32
71
1
72
1
41
1
210
0
220
0
230
1
3
Standard
100
AcDbAlignedDimension
13
27.1
23
13.325004
33
0
14
45.1
24
18
34
0
50
0
100
AcDbRotatedDimension
1001
ACAD
1000
DSTYLE
1002
{
1070
   371
1070
    13
1070
   372
1070
    13
1070
   170
1070
     0
1070
   144
1040
1.0
1070
   277
1070
     2
1070
   284
1070
     8
1070
   278
1070
    46
1070
   146
1040
1.0
1070
   345
1005
16
1070
   347
1005
16
1070
   346
1005
16
1070
   344
1005
0
1070
   343
1005
0
1070
   172
1070
     1
1070
    76
1070
     0
1070
    75
1070
     0
1070
   282
1070
     0
1070
   281
1070
     0
1070
    71
1070
     0
1070
    74
1070
     0
1070
   279
1070
     0
1070
   173
1070
     1
1070
   340
1005
19B
1070
   271
1070
     2
1070
   272
1070
     2
1070
    77
1070
     1
1070
    73
1070
     1
1070
   171
1070
     3
1070
   274
1070
     4
1070
   177
1070
     2
1070
   176
1070
     2
1070
   178
1070
     2
1070
    78
1070
     8
1070
    48
1040
-0.1
1070
    41
1040
3.5
1070
   147
1040
1.75
1070
    42
1040
1.5875
1070
    44
1040
2.0
1070
   140
1040
3.5
1002
}
1001
ACAD_DSTYLE_DIM_LINETYPE
1070
   380
1005
16
1001
ACAD_DSTYLE_DIM_EXT1_LINETYPE
1070
   381
1005
16
1001
ACAD_DSTYLE_DIM_EXT2_LINETYPE
1070
   382
1005
16
0
DIMENSION
5
1D1
100
AcDbEntity
8
2
62
256
6
ByLayer
370
18
48
1
60
0
100
AcDbDimension
2
_U2
10
69.85
20
0
30
0
11
69.85
21
9
31
0
70
32
71
1
72
1
41
1
210
0
220
0
230
1
3
Standard
100
AcDbAlignedDimension
13
45.1
23
18
33
0
14
0
24
0
34
0
50
90
100
AcDbRotatedDimension
1001
ACAD
1000
DSTYLE
1002
{
1070
   371
1070
    13
1070
   372
1070
    13
1070
   170
1070
     0
1070
   144
1040
1.0
1070
   277
1070
     2
1070
   284
1070
     8
1070
   278
1070
    46
1070
   146
1040
1.0
1070
   345
1005
16
1070
   347
1005
16
1070
   346
1005
16
1070
   344
1005
0
1070
   343
1005
0
1070
   172
1070
     1
1070
    76
1070
     0
1070
    75
1070
     0
1070
   282
1070
     0
1070
   281
1070
     0
1070
    71
1070
     0
1070
    74
1070
     0
1070
   279
1070
     0
1070
   173
1070
     1
1070
   340
1005
19B
1070
   271
1070
     2
1070
   272
1070
     2
1070
    77
1070
     1
1070
    73
1070
     0
1070
   171
1070
     3
1070
   274
1070
     4
1070
   177
1070
     2
1070
   176
1070
     2
1070
   178
1070
     2
1070
    78
1070
     8
1070
    48
1040
-0.1
1070
    41
1040
3.5
1070
   147
1040
1.75
1070
    42
1040
1.5875
1070
    44
1040
2.0
1070
   140
1040
3.5
1002
}
1001
ACAD_DSTYLE_DIM_LINETYPE
1070
   380
1005
16
1001
ACAD_DSTYLE_DIM_EXT1_LINETYPE
1070
   381
1005
16
1001
ACAD_DSTYLE_DIM_EXT2_LINETYPE
1070
   382
1005
16
0
DIMENSION
5
1E9
100
AcDbEntity
8
2
62
256
6
ByLayer
370
18
48
1
60
0
100
AcDbDimension
2
_U3
10
56.85
20
13
30
0
11
56.85
21
15.5
31
0
70
32
71
1
72
1
41
1
210
0
220
0
230
1
3
Standard
100
AcDbAlignedDimension
13
45.1
23
18
33
0
14
45.1
24
13
34
0
50
90
100
AcDbRotatedDimension
1001
ACAD
1000
DSTYLE
1002
{
1070
   371
1070
    13
1070
   372
1070
    13
1070
   170
1070
     0
1070
   144
1040
1.0
1070
   277
1070
     2
1070
   284
1070
     8
1070
   278
1070
    46
1070
   146
1040
1.0
1070
   345
1005
16
1070
   347
1005
16
1070
   346
1005
16
1070
   344
1005
0
1070
   343
1005
0
1070
   172
1070
     1
1070
    76
1070
     0
1070
    75
1070
     0
1070
   282
1070
     0
1070
   281
1070
     0
1070
    71
1070
     0
1070
    74
1070
     0
1070
   279
1070
     0
1070
   173
1070
     1
1070
   340
1005
19B
1070
   271
1070
     2
1070
   272
1070
     2
1070
    77
1070
     1
1070
    73
1070
     0
1070
   171
1070
     3
1070
   274
1070
     4
1070
   177
1070
     2
1070
   176
1070
     2
1070
   178
1070
     2
1070
    78
1070
     8
1070
    48
1040
-0.1
1070
    41
1040
3.5
1070
   147
1040
1.75
1070
    42
1040
1.5875
1070
    44
1040
2.0
1070
   140
1040
3.5
1002
}
1001
ACAD_DSTYLE_DIM_LINETYPE
1070
   380
1005
16
1001
ACAD_DSTYLE_DIM_EXT1_LINETYPE
1070
   381
1005
16
1001
ACAD_DSTYLE_DIM_EXT2_LINETYPE
1070
   382
1005
16
0
ENDSEC
0
SECTION
2
OBJECTS
0
DICTIONARY
5
26f
330
0
100
AcDbDictionary
280
0
281
1
3
ACAD_GROUP
350
270
3
ACAD_MLINESTYLE
350
271
0
DICTIONARY
5
270
330
0
100
AcDbDictionary
280
0
281
1
0
DICTIONARY
5
271
330
0
100
AcDbDictionary
280
0
281
1
3
Standard
350
18
0
MLINESTYLE
5
18
330
271
100
AcDbMlineStyle
2
Standard
70
0
3

62
256
51
90
52
90
71
2
49
-0.5
62
256
6
ByLayer
49
0.5
62
256
6
ByLayer
0
RASTERVARIABLES
5
260
330

100
AcDbRasterVariables
90
0
70
1
71
1
72
1
0
ENDSEC
0
EOF
