0
SECTION
2
HEADER
9
$ACADVER
1
AC1015
9
$DWGCODEPAGE
3
ANSI_1252
9
$HANDSEED
5
27a
9
$ANGBASE
50
0
9
$ANGDIR
70
0
9
$ATTMODE
70
1
9
$AUNITS
70
0
9
$AUPREC
70
0
9
$CECOLOR
62
256
9
$CELTSCALE
40
1
9
$CELTYPE
6
ByLayer
9
$CELWEIGHT
370
18
9
$CLAYER
8
0
9
$CMLJUST
70
0
9
$CMLSCALE
40
1
9
$CMLSTYLE
2
Standard
9
$DIMSTYLE
2
Standard
9
$TEXTSIZE
40
0.2
9
$TEXTSTYLE
7
Standard
9
$LUNITS
70
2
9
$LUPREC
70
4
9
$EXTNAMES
290
1
9
$INSUNITS
70
4
9
$LTSCALE
40
1
9
$LWDISPLAY
290
1
9
$PDMODE
70
0
9
$PDSIZE
40
0
9
$PLINEGEN
70
0
0
ENDSEC
0
SECTION
2
CLASSES
0
CLASS
1
RASTERVARIABLES
2
AcDbRasterVariables
3
ISM
90
0
280
0
281
0
0
ENDSEC
0
SECTION
2
TABLES
0
TABLE
2
VPORT
5
270
100
AcDbSymbolTable
0
VPORT
5
1
100
AcDbSymbolTableRecord
100
AcDbViewportTableRecord
2
*Active
70
0
10
0
20
0
11
1
21
1
12
-1
22
1
13
0
23
0
14
0.5
24
0.5
15
10
25
10
16
0
26
0
36
1
17
0
27
0
37
0
0
ENDTAB
0
TABLE
2
LTYPE
5
271
100
AcDbSymbolTable
0
LTYPE
5
14
100
AcDbSymbolTableRecord
100
AcDbLinetypeTableRecord
70
0
2
ByBlock
3

72
65
73
0
40
0
0
LTYPE
5
15
100
AcDbSymbolTableRecord
100
AcDbLinetypeTableRecord
70
0
2
ByLayer
3

72
65
73
0
40
0
0
LTYPE
5
16
100
AcDbSymbolTableRecord
100
AcDbLinetypeTableRecord
70
0
2
Continuous
3
Solid line
72
65
73
0
40
0
0
LTYPE
5
6E
100
AcDbSymbolTableRecord
100
AcDbLinetypeTableRecord
70
0
2
CENTER
3
____ _ ____ _ ____ _ ____
72
65
73
4
40
47.5
49
22
74
0
49
-8.5
74
0
49
8.5
74
0
49
-8.5
74
0
0
LTYPE
5
6F
100
AcDbSymbolTableRecord
100
AcDbLinetypeTableRecord
70
0
2
DASHED
3
__ __ __ __ __ __ __ __ __
72
65
73
2
40
25.72
49
12.86
74
0
49
-12.86
74
0
0
ENDTAB
0
TABLE
2
LAYER
5
272
100
AcDbSymbolTable
0
LAYER
5
10
100
AcDbSymbolTableRecord
100
AcDbLayerTableRecord
2
0
70
0
62
7
6
Continuous
290
1
370
-3
390
0
0
LAYER
5
71
100
AcDbSymbolTableRecord
100
AcDbLayerTableRecord
2
81
70
0
62
-3
6
Continuous
290
1
370
-3
390
0
0
LAYER
5
73
100
AcDbSymbolTableRecord
100
AcDbLayerTableRecord
2
80
70
0
62
-6
6
Continuous
290
1
370
-3
390
0
0
LAYER
5
75
100
AcDbSymbolTableRecord
100
AcDbLayerTableRecord
2
1
70
0
62
4
6
Continuous
290
1
370
-3
390
0
0
LAYER
5
1A0
100
AcDbSymbolTableRecord
100
AcDbLayerTableRecord
2
Defpoints
70
0
62
7
6
Continuous
290
0
370
-3
390
0
0
LAYER
5
1AD
100
AcDbSymbolTableRecord
100
AcDbLayerTableRecord
2
2
70
0
62
7
6
Continuous
290
1
370
-3
390
0
0
LAYER
5
25f
100
AcDbSymbolTableRecord
100
AcDbLayerTableRecord
2
SK6
70
0
62
5
6
Continuous
290
1
370
-3
390
0
0
ENDTAB
0
TABLE
2
STYLE
5
273
100
AcDbSymbolTable
0
STYLE
5
11
100
AcDbSymbolTableRecord
100
AcDbTextStyleTableRecord
2
Standard
3
txt
70
0
71
0
40
0
41
1
42
0
50
0
0
STYLE
5
199
100
AcDbSymbolTableRecord
100
AcDbTextStyleTableRecord
2
iso_b_vert
3
simplex.shx
70
0
71
0
40
0
41
1
42
0
50
0
0
STYLE
5
19A
100
AcDbSymbolTableRecord
100
AcDbTextStyleTableRecord
2
DWGDirectTextStyle
3
simplex
70
0
71
0
40
0
41
1
42
0
50
0
0
ENDTAB
0
TABLE
2
DIMSTYLE
5
274
100
AcDbSymbolTable
100
AcDbDimStyleTable
0
DIMSTYLE
105
27
100
AcDbSymbolTableRecord
100
AcDbDimStyleTableRecord
2
Standard
70
0
3
<>
41
0.18
42
0.0625
44
0.18
140
0.18
147
0.09
73
0
74
0
77
1
271
2
275
0
278
52
280
0
340
11
0
ENDTAB
0
TABLE
2
VIEW
5
275
100
AcDbSymbolTable
0
ENDTAB
0
TABLE
2
UCS
5
276
100
AcDbSymbolTable
0
ENDTAB
0
TABLE
2
APPID
5
277
100
AcDbSymbolTable
0
APPID
5
12
100
AcDbSymbolTableRecord
100
AcDbRegAppTableRecord
2
ACAD
70
0
0
APPID
5
19C
100
AcDbSymbolTableRecord
100
AcDbRegAppTableRecord
2
ACAD_DSTYLE_DIMBREAK
70
0
0
APPID
5
21E
100
AcDbSymbolTableRecord
100
AcDbRegAppTableRecord
2
ACAD_DSTYLE_DIM_LINETYPE
70
0
0
APPID
5
21F
100
AcDbSymbolTableRecord
100
AcDbRegAppTableRecord
2
ACAD_DSTYLE_DIM_EXT1_LINETYPE
70
0
0
APPID
5
220
100
AcDbSymbolTableRecord
100
AcDbRegAppTableRecord
2
ACAD_DSTYLE_DIM_EXT2_LINETYPE
70
0
0
APPID
5
25B
100
AcDbSymbolTableRecord
100
AcDbRegAppTableRecord
2
ACAD_MLEADERVER
70
0
0
ENDTAB
0
TABLE
2
BLOCK_RECORD
5
278
100
AcDbSymbolTable
0
BLOCK_RECORD
5
1F
100
AcDbSymbolTableRecord
100
AcDbBlockTableRecord
2
*Model_Space
340
0
70
0
0
BLOCK_RECORD
5
1B
100
AcDbSymbolTableRecord
100
AcDbBlockTableRecord
2
*Paper_Space
340
0
70
0
0
BLOCK_RECORD
5
23
100
AcDbSymbolTableRecord
100
AcDbBlockTableRecord
2
*Paper_Space0
340
0
70
0
0
BLOCK_RECORD
5
1A1
100
AcDbSymbolTableRecord
100
AcDbBlockTableRecord
2
*D1
340
0
70
0
0
BLOCK_RECORD
5
1AE
100
AcDbSymbolTableRecord
100
AcDbBlockTableRecord
2
_U0
340
0
70
0
0
BLOCK_RECORD
5
1BA
100
AcDbSymbolTableRecord
100
AcDbBlockTableRecord
2
*D3
340
0
70
0
0
BLOCK_RECORD
5
1C6
100
AcDbSymbolTableRecord
100
AcDbBlockTableRecord
2
_U1
340
0
70
0
0
BLOCK_RECORD
5
1D2
100
AcDbSymbolTableRecord
100
AcDbBlockTableRecord
2
*D5
340
0
70
0
0
BLOCK_RECORD
5
1DE
100
AcDbSymbolTableRecord
100
AcDbBlockTableRecord
2
_U2
340
0
70
0
0
BLOCK_RECORD
5
1EA
100
AcDbSymbolTableRecord
100
AcDbBlockTableRecord
2
*D7
340
0
70
0
0
BLOCK_RECORD
5
1F7
100
AcDbSymbolTableRecord
100
AcDbBlockTableRecord
2
_U3
340
0
70
0
0
ENDTAB
0
ENDSEC
0
SECTION
2
BLOCKS
0
BLOCK
5
20
100
AcDbEntity
8
0
100
AcDbBlockBegin
2
*Model_Space
70
0
10
0
20
0
30
0
3
*Model_Space
0
ENDBLK
5
21
100
AcDbEntity
8
0
100
AcDbBlockEnd
0
BLOCK
5
1C
100
AcDbEntity
8
0
100
AcDbBlockBegin
2
*Paper_Space
70
0
10
0
20
0
30
0
3
*Paper_Space
0
ENDBLK
5
1D
100
AcDbEntity
8
0
100
AcDbBlockEnd
0
BLOCK
5
24
100
AcDbEntity
8
0
100
AcDbBlockBegin
2
*Paper_Space0
70
0
10
0
20
0
30
0
3
*Paper_Space0
0
ENDBLK
5
25
100
AcDbEntity
8
0
100
AcDbBlockEnd
0
BLOCK
5
1A2
100
AcDbEntity
8
0
100
AcDbBlockBegin
2
*D1
70
1
10
0
20
0
30
0
3
*D1
0
LINE
5
1A4
100
AcDbEntity
8
0
62
256
6
ByLayer
370
-2
48
1
60
0
100
AcDbLine
10
0
20
-1.5875
30
0
11
0
21
-21.75
31
0
39
0
210
0
220
0
230
1
0
LINE
5
1A5
100
AcDbEntity
8
0
62
256
6
ByLayer
370
-2
48
1
60
0
100
AcDbLine
10
45.1
20
16.4125
30
0
11
45.1
21
-21.75
31
0
39
0
210
0
220
0
230
1
0
LINE
5
1A6
100
AcDbEntity
8
0
62
256
6
ByLayer
370
-2
48
1
60
0
100
AcDbLine
10
3.5
20
-19.75
30
0
11
41.6
21
-19.75
31
0
39
0
210
0
220
0
230
1
0
SOLID
5
1A7
100
AcDbEntity
8
0
62
256
6
ByLayer
370
-1
48
1
60
0
100
AcDbTrace
10
3.5
20
-19.166667
30
0
11
3.5
21
-20.333333
31
0
12
0
22
-19.75
32
0
13
0
23
-19.75
33
0
39
0
210
0
220
0
230
1
0
SOLID
5
1A8
100
AcDbEntity
8
0
62
256
6
ByLayer
370
-1
48
1
60
0
100
AcDbTrace
10
41.6
20
-20.333333
30
0
11
41.6
21
-19.166667
31
0
12
45.1
22
-19.75
32
0
13
45.1
23
-19.75
33
0
39
0
210
0
220
0
230
1
0
MTEXT
5
1A9
100
AcDbEntity
8
0
62
256
6
ByLayer
370
18
48
1
60
0
100
AcDbMText
10
22.55
20
-12.75
30
0
210
0
220
0
230
1
1
\A1;45.1
40
3.5
41
0
44
1
50
0
71
5
72
5
7
iso_b_vert
0
POINT
5
1AA
100
AcDbEntity
8
Defpoints
62
0
6
ByLayer
370
-1
48
1
60
0
100
AcDbPoint
10
0
20
0
30
0
39
0
210
0
220
0
230
1
50
360
0
POINT
5
1AB
100
AcDbEntity
8
Defpoints
62
0
6
ByLayer
370
-1
48
1
60
0
100
AcDbPoint
10
45.1
20
18
30
0
39
0
210
0
220
0
230
1
50
360
0
POINT
5
1AC
100
AcDbEntity
8
Defpoints
62
0
6
ByLayer
370
-1
48
1
60
0
100
AcDbPoint
10
45.1
20
-19.75
30
0
39
0
210
0
220
0
230
1
50
360
0
ENDBLK
5
1A3
100
AcDbEntity
8
0
100
AcDbBlockEnd
0
BLOCK
5
1B5
100
AcDbEntity
8
0
100
AcDbBlockBegin
2
_U0
70
0
10
0
20
0
30
0
3
_U0
0
MTEXT
5
1AF
100
AcDbEntity
8
2
62
256
6
ByLayer
370
18
48
1
60
0
100
AcDbMText
10
18.881467
20
-18.717366
30
0
210
0
220
0
230
1
1
\W0.7531;45.1
40
3.5
41
0
44
1.084337
50
0
71
7
72
5
7
iso_b_vert
0
LINE
5
1B0
100
AcDbEntity
8
2
62
256
6
ByLayer
370
13
48
1
60
0
100
AcDbLine
10
0
20
-1.5875
30
0
11
0
21
-21.75
31
0
39
0
210
0
220
0
230
1
0
LINE
5
1B1
100
AcDbEntity
8
2
62
256
6
ByLayer
370
13
48
1
60
0
100
AcDbLine
10
45.1
20
16.4125
30
0
11
45.1
21
-21.75
31
0
39
0
210
0
220
0
230
1
0
LINE
5
1B2
100
AcDbEntity
8
2
62
256
6
ByLayer
370
13
48
1
60
0
100
AcDbLine
10
0
20
-19.75
30
0
11
45.1
21
-19.75
31
0
39
0
210
0
220
0
230
1
0
SOLID
5
1B3
100
AcDbEntity
8
2
62
256
6
ByLayer
370
18
48
1
60
0
100
AcDbTrace
10
0
20
-19.75
30
0
11
3.499998
21
-19.289216
31
0
12
3.500002
22
-20.210784
32
0
13
3.500002
23
-20.210784
33
0
39
0
210
0
220
0
230
1
0
SOLID
5
1B4
100
AcDbEntity
8
2
62
256
6
ByLayer
370
18
48
1
60
0
100
AcDbTrace
10
45.1
20
-19.75
30
0
11
41.600002
21
-20.210784
31
0
12
41.599998
22
-19.289216
32
0
13
41.599998
23
-19.289216
33
0
39
0
210
0
220
0
230
1
0
ENDBLK
5
1B6
100
AcDbEntity
8
0
100
AcDbBlockEnd
0
BLOCK
5
1BB
100
AcDbEntity
8
0
100
AcDbBlockBegin
2
*D3
70
1
10
0
20
0
30
0
3
*D3
0
LINE
5
1BD
100
AcDbEntity
8
0
62
256
6
ByLayer
370
-2
48
1
60
0
100
AcDbLine
10
27.1
20
12.73761
30
0
11
27.1
21
-13.75
31
0
39
0
210
0
220
0
230
1
0
LINE
5
1BE
100
AcDbEntity
8
0
62
256
6
ByLayer
370
-2
48
1
60
0
100
AcDbLine
10
45.1
20
16.4125
30
0
11
45.1
21
-13.75
31
0
39
0
210
0
220
0
230
1
0
LINE
5
1BF
100
AcDbEntity
8
0
62
256
6
ByLayer
370
-2
48
1
60
0
100
AcDbLine
10
30.6
20
-11.75
30
0
11
41.6
21
-11.75
31
0
39
0
210
0
220
0
230
1
0
SOLID
5
1C0
100
AcDbEntity
8
0
62
256
6
ByLayer
370
-1
48
1
60
0
100
AcDbTrace
10
30.6
20
-11.166667
30
0
11
30.6
21
-12.333333
31
0
12
27.1
22
-11.75
32
0
13
27.1
23
-11.75
33
0
39
0
210
0
220
0
230
1
0
SOLID
5
1C1
100
AcDbEntity
8
0
62
256
6
ByLayer
370
-1
48
1
60
0
100
AcDbTrace
10
41.6
20
-12.333333
30
0
11
41.6
21
-11.166667
31
0
12
45.1
22
-11.75
32
0
13
45.1
23
-11.75
33
0
39
0
210
0
220
0
230
1
0
MTEXT
5
1C2
100
AcDbEntity
8
0
62
256
6
ByLayer
370
18
48
1
60
0
100
AcDbMText
10
36.1
20
-4.75
30
0
210
0
220
0
230
1
1
\A1;18
40
3.5
41
0
44
1
50
0
71
5
72
5
7
iso_b_vert
0
POINT
5
1C3
100
AcDbEntity
8
Defpoints
62
0
6
ByLayer
370
-1
48
1
60
0
100
AcDbPoint
10
27.1
20
14.32511
30
0
39
0
210
0
220
0
230
1
50
360
0
POINT
5
1C4
100
AcDbEntity
8
Defpoints
62
0
6
ByLayer
370
-1
48
1
60
0
100
AcDbPoint
10
45.1
20
18
30
0
39
0
210
0
220
0
230
1
50
360
0
POINT
5
1C5
100
AcDbEntity
8
Defpoints
62
0
6
ByLayer
370
-1
48
1
60
0
100
AcDbPoint
10
45.1
20
-11.75
30
0
39
0
210
0
220
0
230
1
50
360
0
ENDBLK
5
1BC
100
AcDbEntity
8
0
100
AcDbBlockEnd
0
BLOCK
5
1CD
100
AcDbEntity
8
0
100
AcDbBlockBegin
2
_U1
70
0
10
0
20
0
30
0
3
_U1
0
MTEXT
5
1C7
100
AcDbEntity
8
2
62
256
6
ByLayer
370
18
48
1
60
0
100
AcDbMText
10
34.632467
20
-10.717366
30
0
210
0
220
0
230
1
1
\W0.5321;18
40
3.5
41
0
44
1.084337
50
0
71
7
72
5
7
iso_b_vert
0
LINE
5
1C8
100
AcDbEntity
8
2
62
256
6
ByLayer
370
13
48
1
60
0
100
AcDbLine
10
27.1
20
12.73761
30
0
11
27.1
21
-13.75
31
0
39
0
210
0
220
0
230
1
0
LINE
5
1C9
100
AcDbEntity
8
2
62
256
6
ByLayer
370
13
48
1
60
0
100
AcDbLine
10
45.1
20
16.4125
30
0
11
45.1
21
-13.75
31
0
39
0
210
0
220
0
230
1
0
LINE
5
1CA
100
AcDbEntity
8
2
62
256
6
ByLayer
370
13
48
1
60
0
100
AcDbLine
10
27.1
20
-11.75
30
0
11
45.1
21
-11.75
31
0
39
0
210
0
220
0
230
1
0
SOLID
5
1CB
100
AcDbEntity
8
2
62
256
6
ByLayer
370
18
48
1
60
0
100
AcDbTrace
10
27.1
20
-11.75
30
0
11
30.599998
21
-11.289216
31
0
12
30.600002
22
-12.210784
32
0
13
30.600002
23
-12.210784
33
0
39
0
210
0
220
0
230
1
0
SOLID
5
1CC
100
AcDbEntity
8
2
62
256
6
ByLayer
370
18
48
1
60
0
100
AcDbTrace
10
45.1
20
-11.75
30
0
11
41.600002
21
-12.210784
31
0
12
41.599998
22
-11.289216
32
0
13
41.599998
23
-11.289216
33
0
39
0
210
0
220
0
230
1
0
ENDBLK
5
1CE
100
AcDbEntity
8
0
100
AcDbBlockEnd
0
BLOCK
5
1D3
100
AcDbEntity
8
0
100
AcDbBlockBegin
2
*D5
70
1
10
0
20
0
30
0
3
*D5
0
LINE
5
1D5
100
AcDbEntity
8
0
62
256
6
ByLayer
370
-2
48
1
60
0
100
AcDbLine
10
46.6875
20
18
30
0
11
71.85
21
18
31
0
39
0
210
0
220
0
230
1
0
LINE
5
1D6
100
AcDbEntity
8
0
62
256
6
ByLayer
370
-2
48
1
60
0
100
AcDbLine
10
1.5875
20
0
30
0
11
71.85
21
0
31
0
39
0
210
0
220
0
230
1
0
LINE
5
1D7
100
AcDbEntity
8
0
62
256
6
ByLayer
370
-2
48
1
60
0
100
AcDbLine
10
69.85
20
14.5
30
0
11
69.85
21
3.5
31
0
39
0
210
0
220
0
230
1
0
SOLID
5
1D8
100
AcDbEntity
8
0
62
256
6
ByLayer
370
-1
48
1
60
0
100
AcDbTrace
10
70.433333
20
14.5
30
0
11
69.266667
21
14.5
31
0
12
69.85
22
18
32
0
13
69.85
23
18
33
0
39
0
210
0
220
0
230
1
0
SOLID
5
1D9
100
AcDbEntity
8
0
62
256
6
ByLayer
370
-1
48
1
60
0
100
AcDbTrace
10
69.266667
20
3.5
30
0
11
70.433333
21
3.5
31
0
12
69.85
22
0
32
0
13
69.85
23
0
33
0
39
0
210
0
220
0
230
1
0
MTEXT
5
1DA
100
AcDbEntity
8
0
62
256
6
ByLayer
370
18
48
1
60
0
100
AcDbMText
10
62.85
20
9
30
0
210
0
220
0
230
1
1
\A1;18
40
3.5
41
0
44
1
50
90
71
5
72
5
7
iso_b_vert
0
POINT
5
1DB
100
AcDbEntity
8
Defpoints
62
0
6
ByLayer
370
-1
48
1
60
0
100
AcDbPoint
10
45.1
20
18
30
0
39
0
210
0
220
0
230
1
50
360
0
POINT
5
1DC
100
AcDbEntity
8
Defpoints
62
0
6
ByLayer
370
-1
48
1
60
0
100
AcDbPoint
10
0
20
0
30
0
39
0
210
0
220
0
230
1
50
360
0
POINT
5
1DD
100
AcDbEntity
8
Defpoints
62
0
6
ByLayer
370
-1
48
1
60
0
100
AcDbPoint
10
69.85
20
0
30
0
39
0
210
0
220
0
230
1
50
360
0
ENDBLK
5
1D4
100
AcDbEntity
8
0
100
AcDbBlockEnd
0
BLOCK
5
1E5
100
AcDbEntity
8
0
100
AcDbBlockBegin
2
_U2
70
0
10
0
20
0
30
0
3
_U2
0
MTEXT
5
1DF
100
AcDbEntity
8
2
62
256
6
ByLayer
370
18
48
1
60
0
100
AcDbMText
10
69.160366
20
7.504467
30
0
210
0
220
0
230
1
1
\W0.5321;18
40
3.5
41
0
44
1.084337
50
90
71
7
72
5
7
iso_b_vert
0
LINE
5
1E0
100
AcDbEntity
8
2
62
256
6
ByLayer
370
13
48
1
60
0
100
AcDbLine
10
46.6875
20
18
30
0
11
71.85
21
18
31
0
39
0
210
0
220
0
230
1
0
LINE
5
1E1
100
AcDbEntity
8
2
62
256
6
ByLayer
370
13
48
1
60
0
100
AcDbLine
10
1.5875
20
0
30
0
11
71.85
21
0
31
0
39
0
210
0
220
0
230
1
0
LINE
5
1E2
100
AcDbEntity
8
2
62
256
6
ByLayer
370
13
48
1
60
0
100
AcDbLine
10
69.85
20
18
30
0
11
69.85
21
0
31
0
39
0
210
0
220
0
230
1
0
SOLID
5
1E3
100
AcDbEntity
8
2
62
256
6
ByLayer
370
18
48
1
60
0
100
AcDbTrace
10
69.85
20
18
30
0
11
70.310784
21
14.500002
31
0
12
69.389216
22
14.499998
32
0
13
69.389216
23
14.499998
33
0
39
0
210
0
220
0
230
1
0
SOLID
5
1E4
100
AcDbEntity
8
2
62
256
6
ByLayer
370
18
48
1
60
0
100
AcDbTrace
10
69.85
20
0
30
0
11
69.389216
21
3.499998
31
0
12
70.310784
22
3.500002
32
0
13
70.310784
23
3.500002
33
0
39
0
210
0
220
0
230
1
0
ENDBLK
5
1E6
100
AcDbEntity
8
0
100
AcDbBlockEnd
0
BLOCK
5
1EB
100
AcDbEntity
8
0
100
AcDbBlockBegin
2
*D7
70
1
10
0
20
0
30
0
3
*D7
0
LINE
5
1ED
100
AcDbEntity
8
0
62
256
6
ByLayer
370
-2
48
1
60
0
100
AcDbLine
10
46.6875
20
18
30
0
11
58.85
21
18
31
0
39
0
210
0
220
0
230
1
0
LINE
5
1EE
100
AcDbEntity
8
0
62
256
6
ByLayer
370
-2
48
1
60
0
100
AcDbLine
10
46.6875
20
14
30
0
11
58.85
21
14
31
0
39
0
210
0
220
0
230
1
0
LINE
5
1EF
100
AcDbEntity
8
0
62
256
6
ByLayer
370
-2
48
1
60
0
100
AcDbLine
10
56.85
20
21.5
30
0
11
56.85
21
25
31
0
39
0
210
0
220
0
230
1
0
LINE
5
1F0
100
AcDbEntity
8
0
62
256
6
ByLayer
370
-2
48
1
60
0
100
AcDbLine
10
56.85
20
10.5
30
0
11
56.85
21
7
31
0
39
0
210
0
220
0
230
1
0
SOLID
5
1F1
100
AcDbEntity
8
0
62
256
6
ByLayer
370
-1
48
1
60
0
100
AcDbTrace
10
56.266667
20
21.5
30
0
11
57.433333
21
21.5
31
0
12
56.85
22
18
32
0
13
56.85
23
18
33
0
39
0
210
0
220
0
230
1
0
SOLID
5
1F2
100
AcDbEntity
8
0
62
256
6
ByLayer
370
-1
48
1
60
0
100
AcDbTrace
10
57.433333
20
10.5
30
0
11
56.266667
21
10.5
31
0
12
56.85
22
14
32
0
13
56.85
23
14
33
0
39
0
210
0
220
0
230
1
0
MTEXT
5
1F3
100
AcDbEntity
8
0
62
256
6
ByLayer
370
18
48
1
60
0
100
AcDbMText
10
49.85
20
16
30
0
210
0
220
0
230
1
1
\A1;4
40
3.5
41
0
44
1
50
90
71
5
72
5
7
iso_b_vert
0
POINT
5
1F4
100
AcDbEntity
8
Defpoints
62
0
6
ByLayer
370
-1
48
1
60
0
100
AcDbPoint
10
45.1
20
18
30
0
39
0
210
0
220
0
230
1
50
360
0
POINT
5
1F5
100
AcDbEntity
8
Defpoints
62
0
6
ByLayer
370
-1
48
1
60
0
100
AcDbPoint
10
45.1
20
14
30
0
39
0
210
0
220
0
230
1
50
360
0
POINT
5
1F6
100
AcDbEntity
8
Defpoints
62
0
6
ByLayer
370
-1
48
1
60
0
100
AcDbPoint
10
56.85
20
14
30
0
39
0
210
0
220
0
230
1
50
360
0
ENDBLK
5
1EC
100
AcDbEntity
8
0
100
AcDbBlockEnd
0
BLOCK
5
1FE
100
AcDbEntity
8
0
100
AcDbBlockBegin
2
_U3
70
0
10
0
20
0
30
0
3
_U3
0
MTEXT
5
1F8
100
AcDbEntity
8
2
62
256
6
ByLayer
370
18
48
1
60
0
100
AcDbMText
10
56.160366
20
15.1905
30
0
210
0
220
0
230
1
1
\W0.6380;4
40
3.5
41
0
44
1.084337
50
90
71
7
72
5
7
iso_b_vert
0
LINE
5
1F9
100
AcDbEntity
8
2
62
256
6
ByLayer
370
13
48
1
60
0
100
AcDbLine
10
46.6875
20
18
30
0
11
58.85
21
18
31
0
39
0
210
0
220
0
230
1
0
LINE
5
1FA
100
AcDbEntity
8
2
62
256
6
ByLayer
370
13
48
1
60
0
100
AcDbLine
10
46.6875
20
14
30
0
11
58.85
21
14
31
0
39
0
210
0
220
0
230
1
0
LINE
5
1FB
100
AcDbEntity
8
2
62
256
6
ByLayer
370
13
48
1
60
0
100
AcDbLine
10
56.85
20
26.75
30
0
11
56.85
21
5.25
31
0
39
0
210
0
220
0
230
1
0
SOLID
5
1FC
100
AcDbEntity
8
2
62
256
6
ByLayer
370
18
48
1
60
0
100
AcDbTrace
10
56.85
20
18
30
0
11
56.389216
21
21.499998
31
0
12
57.310784
22
21.500002
32
0
13
57.310784
23
21.500002
33
0
39
0
210
0
220
0
230
1
0
SOLID
5
1FD
100
AcDbEntity
8
2
62
256
6
ByLayer
370
18
48
1
60
0
100
AcDbTrace
10
56.85
20
14
30
0
11
57.310784
21
10.500002
31
0
12
56.389216
22
10.499998
32
0
13
56.389216
23
10.499998
33
0
39
0
210
0
220
0
230
1
0
ENDBLK
5
1FF
100
AcDbEntity
8
0
100
AcDbBlockEnd
0
ENDSEC
0
SECTION
2
ENTITIES
0
ARC
5
104
100
AcDbEntity
8
1
62
256
6
ByLayer
370
18
48
1
60
0
100
AcDbCircle
39
0
10
20.5
20
0.875
30
0
40
0.5
210
0
220
0
230
1
100
AcDbArc
50
90
51
180
0
ARC
5
105
100
AcDbEntity
8
1
62
256
6
ByLayer
370
18
48
1
60
0
100
AcDbCircle
39
0
10
20
20
7.100077
30
0
40
1.416
210
0
220
0
230
1
100
AcDbArc
50
60.190711
51
119.809289
0
ARC
5
106
100
AcDbEntity
8
1
62
256
6
ByLayer
370
18
48
1
60
0
100
AcDbCircle
39
0
10
20
20
7.100077
30
0
40
1.416
210
0
220
0
230
1
100
AcDbArc
50
119.809289
51
173.807562
0
ARC
5
107
100
AcDbEntity
8
1
62
256
6
ByLayer
370
18
48
1
60
0
100
AcDbCircle
39
0
10
20
20
7.100077
30
0
40
1.416
210
0
220
0
230
1
100
AcDbArc
50
6.192438
51
60.190711
0
ARC
5
108
100
AcDbEntity
8
1
62
256
6
ByLayer
370
18
48
1
60
0
100
AcDbCircle
39
0
10
20
20
7.100077
30
0
40
1.416
210
0
220
0
230
1
100
AcDbArc
50
299.809289
51
353.807562
0
ARC
5
109
100
AcDbEntity
8
1
62
256
6
ByLayer
370
18
48
1
60
0
100
AcDbCircle
39
0
10
20
20
7.100077
30
0
40
1.416
210
0
220
0
230
1
100
AcDbArc
50
186.192438
51
240.190711
0
ARC
5
10A
100
AcDbEntity
8
1
62
256
6
ByLayer
370
18
48
1
60
0
100
AcDbCircle
39
0
10
20
20
7.100077
30
0
40
1.416
210
0
220
0
230
1
100
AcDbArc
50
240.190711
51
299.809289
0
ARC
5
10B
100
AcDbEntity
8
1
62
256
6
ByLayer
370
18
48
1
60
0
100
AcDbCircle
39
0
10
20
20
7.100077
30
0
40
1.416
210
0
220
0
230
1
100
AcDbArc
50
173.807562
51
186.192438
0
ARC
5
10C
100
AcDbEntity
8
1
62
256
6
ByLayer
370
18
48
1
60
0
100
AcDbCircle
39
0
10
20
20
7.100077
30
0
40
1.9685
210
0
220
0
230
1
100
AcDbArc
50
270
51
329.618578
0
ARC
5
10D
100
AcDbEntity
8
1
62
256
6
ByLayer
370
18
48
1
60
0
100
AcDbCircle
39
0
10
20
20
7.100077
30
0
40
1.9685
210
0
220
0
230
1
100
AcDbArc
50
149.618578
51
210.381422
0
ARC
5
110
100
AcDbEntity
8
1
62
256
6
ByLayer
370
18
48
1
60
0
100
AcDbCircle
39
0
10
20
20
7.100077
30
0
40
1.9685
210
0
220
0
230
1
100
AcDbArc
50
90
51
149.618578
0
ARC
5
111
100
AcDbEntity
8
1
62
256
6
ByLayer
370
18
48
1
60
0
100
AcDbCircle
39
0
10
20
20
7.100077
30
0
40
1.9685
210
0
220
0
230
1
100
AcDbArc
50
30.381422
51
90
0
ARC
5
112
100
AcDbEntity
8
1
62
256
6
ByLayer
370
18
48
1
60
0
100
AcDbCircle
39
0
10
20
20
7.100077
30
0
40
1.9685
210
0
220
0
230
1
100
AcDbArc
50
210.381422
51
270
0
ARC
5
113
100
AcDbEntity
8
1
62
256
6
ByLayer
370
18
48
1
60
0
100
AcDbCircle
39
0
10
20
20
7.100077
30
0
40
1.9685
210
0
220
0
230
1
100
AcDbArc
50
329.618578
51
30.381422
0
ARC
5
114
100
AcDbEntity
8
1
62
256
6
ByLayer
370
18
48
1
60
0
100
AcDbCircle
39
0
10
20
20
7.100077
30
0
40
1.416
210
0
220
0
230
1
100
AcDbArc
50
353.807562
51
6.192438
0
ARC
5
115
100
AcDbEntity
8
1
62
256
6
ByLayer
370
18
48
1
60
0
100
AcDbCircle
39
0
10
13.51676
20
18.97511
30
0
40
1.60000000000024
210
0
220
0
230
1
100
AcDbArc
50
270
51
303.342147
0
ARC
5
116
100
AcDbEntity
8
1
62
256
6
ByLayer
370
18
48
1
60
0
100
AcDbCircle
39
0
10
20
20
7.100077
30
0
40
4.55000000000001
210
0
220
0
230
1
100
AcDbArc
50
287.398624
51
72.601376
0
ARC
5
117
100
AcDbEntity
8
1
62
256
6
ByLayer
370
18
48
1
60
0
100
AcDbCircle
39
0
10
13.51676
20
18.97511
30
0
40
1.6
210
0
220
0
230
1
100
AcDbArc
50
303.342147
51
337.975687
0
ARC
5
118
100
AcDbEntity
8
1
62
256
6
ByLayer
370
18
48
1
60
0
100
AcDbCircle
39
0
10
20
20
7.100077
30
0
40
4.55
210
0
220
0
230
1
100
AcDbArc
50
72.601376
51
287.398624
0
CIRCLE
5
10E
100
AcDbEntity
8
1
62
256
6
ByLayer
370
18
48
1
60
0
100
AcDbCircle
10
20
20
7.100077
30
0
40
4.25
39
0
210
0
220
0
230
1
0
CIRCLE
5
10F
100
AcDbEntity
8
1
62
256
6
ByLayer
370
18
48
1
60
0
100
AcDbCircle
10
20
20
7.100077
30
0
40
3.75
39
0
210
0
220
0
230
1
0
ELLIPSE
5
119
100
AcDbEntity
8
1
62
256
6
ByLayer
370
18
48
1
60
0
100
AcDbEllipse
10
37.534518
20
17.346265
30
0
11
0.0710799549878918
21
0.0710799403064063
31
0
210
0
220
0
230
1
40
0.989582
41
2.36143058152494
42
2.5359635062714
0
ELLIPSE
5
11A
100
AcDbEntity
8
1
62
256
6
ByLayer
370
18
48
1
60
0
100
AcDbEllipse
10
37.65644
20
16.65613
30
0
11
0.0710799473964009
21
0.0710799473964009
31
0
210
0
220
0
230
1
40
0.989582
41
2.53596341229603
42
3.02551395795676
0
ELLIPSE
5
11B
100
AcDbEntity
8
1
62
256
6
ByLayer
370
18
48
1
60
0
100
AcDbEllipse
10
37.65644
20
15.321606
30
0
11
0.0710799469915811
21
0.0710799477567718
31
0
210
0
220
0
230
1
40
0.989582
41
1.69734699251921
42
2.18689753829959
0
ELLIPSE
5
11C
100
AcDbEntity
8
1
62
256
6
ByLayer
370
18
48
1
60
0
100
AcDbEllipse
10
37.534518
20
14.628916
30
0
11
0.0710799218334983
21
0.0710799714608509
31
0
210
0
220
0
230
1
40
0.989582
41
2.18689720316461
42
2.36143012959802
0
ELLIPSE
5
11D
100
AcDbEntity
8
1
62
256
6
ByLayer
370
18
48
1
60
0
100
AcDbEllipse
10
44.8
20
17.700016
30
0
11
0.3
21
0
31
0
210
0
220
0
230
1
40
0.999945
41
0
42
1.614429558062
0
ELLIPSE
5
11E
100
AcDbEntity
8
1
62
256
6
ByLayer
370
18
48
1
60
0
100
AcDbEllipse
10
44.8
20
14.300203
30
0
11
-0.3
21
3.67381906146713E-17
31
0
210
0
220
0
230
1
40
0.999945
41
1.52716309552779
42
3.14159265358979
0
ELLIPSE
5
11F
100
AcDbEntity
8
1
62
256
6
ByLayer
370
18
48
1
60
0
100
AcDbEllipse
10
528.567438
20
50.14342
30
0
11
1629.72142709655
21
5.29394720561243
31
0
210
0
220
0
230
1
40
0.019656
41
-1.87826500909186
42
-1.87667551385193
0
ELLIPSE
5
120
100
AcDbEntity
8
1
62
256
6
ByLayer
370
18
48
1
60
0
100
AcDbEllipse
10
38.143214
20
44.00011
30
0
11
-30.098403517843
21
3.68586961878603E-15
31
0
210
0
220
0
230
1
40
0.985933
41
1.41927181908826
42
1.5229709862755
0
ELLIPSE
5
121
100
AcDbEntity
8
1
62
256
6
ByLayer
370
18
48
1
60
0
100
AcDbEllipse
10
38.143214
20
50.20011
30
0
11
-32.9890673870385
21
4.03986215288419E-15
31
0
210
0
220
0
230
1
40
0.985933
41
1.43263845331755
42
1.52577281820566
0
ELLIPSE
5
122
100
AcDbEntity
8
1
62
256
6
ByLayer
370
18
48
1
60
0
100
AcDbEllipse
10
38.937933
20
44.00011
30
0
11
-35.3633487594648
21
4.33061815832773E-15
31
0
210
0
220
0
230
1
40
0.839146
41
1.22945485608638
42
1.4192718190831
0
ELLIPSE
5
123
100
AcDbEntity
8
1
62
256
6
ByLayer
370
18
48
1
60
0
100
AcDbEllipse
10
38.937933
20
50.20011
30
0
11
-38.7596602660056
21
4.74653262337472E-15
31
0
210
0
220
0
230
1
40
0.839146
41
1.1702039003733
42
1.43263845327093
0
ELLIPSE
5
124
100
AcDbEntity
8
1
62
256
6
ByLayer
370
18
48
1
60
0
100
AcDbEllipse
10
10.067574
20
-0.174981
30
0
11
0.244102752794776
21
0.135103450139883
31
0
210
0
220
0
230
1
40
0.266975
41
-2.69215064132304
42
-1.64495309012907
0
ELLIPSE
5
125
100
AcDbEntity
8
1
62
256
6
ByLayer
370
18
48
1
60
0
100
AcDbEllipse
10
-231.152391
20
44.00567
30
0
11
-2302.06837954582
21
4.84899599616641
31
0
210
0
220
0
230
1
40
0.01272
41
1.68324252769679
42
1.68739947690459
0
ELLIPSE
5
126
100
AcDbEntity
8
1
62
256
6
ByLayer
370
18
48
1
60
0
100
AcDbEllipse
10
49.317297
20
50.20011
30
0
11
-4.13404885682193E-14
21
32.5250000000024
31
0
210
0
220
0
230
1
40
0.57735
41
2.26006069053483
42
2.860051733216
0
POINT
5
70
100
AcDbEntity
8
81
62
256
6
ByLayer
370
18
48
1
60
0
100
AcDbPoint
10
45.1
20
18
30
0
39
0
210
0
220
0
230
1
50
360
0
POINT
5
72
100
AcDbEntity
8
80
62
256
6
ByLayer
370
18
48
1
60
0
100
AcDbPoint
10
0
20
0
30
0
39
0
210
0
220
0
230
1
50
360
0
POINT
5
74
100
AcDbEntity
8
1
62
256
6
ByLayer
370
18
48
1
60
1
100
AcDbPoint
10
0
20
0
30
0
39
0
210
0
220
0
230
1
50
360
0
POINT
5
76
100
AcDbEntity
8
1
62
256
6
ByLayer
370
18
48
1
60
1
100
AcDbPoint
10
45.1
20
18
30
0
39
0
210
0
220
0
230
1
50
360
0
POINT
5
77
100
AcDbEntity
8
1
62
256
6
ByLayer
370
18
48
1
60
1
100
AcDbPoint
10
27.1
20
14.32511
30
0
39
0
210
0
220
0
230
1
50
360
0
POINT
5
78
100
AcDbEntity
8
1
62
256
6
ByLayer
370
18
48
1
60
1
100
AcDbPoint
10
45.1
20
18
30
0
39
0
210
0
220
0
230
1
50
360
0
POINT
5
79
100
AcDbEntity
8
1
62
256
6
ByLayer
370
18
48
1
60
1
100
AcDbPoint
10
45.1
20
18
30
0
39
0
210
0
220
0
230
1
50
360
0
POINT
5
7A
100
AcDbEntity
8
1
62
256
6
ByLayer
370
18
48
1
60
1
100
AcDbPoint
10
0
20
0
30
0
39
0
210
0
220
0
230
1
50
360
0
POINT
5
7B
100
AcDbEntity
8
1
62
256
6
ByLayer
370
18
48
1
60
1
100
AcDbPoint
10
45.1
20
18
30
0
39
0
210
0
220
0
230
1
50
360
0
POINT
5
7C
100
AcDbEntity
8
1
62
256
6
ByLayer
370
18
48
1
60
1
100
AcDbPoint
10
45.1
20
14
30
0
39
0
210
0
220
0
230
1
50
360
0
SPLINE
5
127
100
AcDbEntity
8
1
62
256
6
ByLayer
370
18
48
1
60
0
100
AcDbSpline
70
4
71
3
72
17
73
13
40
0
40
0
40
0
40
0
40
0.250000000000019
40
0.250000000000019
40
0.500000000000038
40
0.500000000000038
40
0.562500000000037
40
0.562500000000037
40
0.625000000000036
40
0.750000000000026
40
0.750000000000026
40
1
40
1
40
1
40
1
41
1
10
18.356417371911
20
6.5079590629301
30
0
41
1
10
18.3853753963686
20
6.53612444828781
30
0
41
1
10
18.4122309410961
20
6.56635100923265
30
0
41
1
10
18.4617197383666
20
6.63115509048427
30
0
41
1
10
18.4843572921865
20
6.66572607196349
30
0
41
1
10
18.5097894773872
20
6.71208825524064
30
0
41
1
10
18.5147424479627
20
6.72154205728594
30
0
41
1
10
18.5242836416442
20
6.74065149098362
30
0
41
1
10
18.5380498884722
20
6.76961473014907
30
0
41
1
10
18.5501769665481
20
6.79949049035389
30
0
41
1
10
18.5721909236728
20
6.86052737917544
30
0
41
1
10
18.5839044979641
20
6.90291856983026
30
0
41
1
10
18.5922620636999
20
6.94733547372081
30
0
0
SPLINE
5
128
100
AcDbEntity
8
1
62
256
6
ByLayer
370
18
48
1
60
0
100
AcDbSpline
70
4
71
3
72
18
73
14
40
0
40
0
40
0
40
0
40
0.249999999999978
40
0.249999999999978
40
0.374999999999973
40
0.374999999999973
40
0.437499999999975
40
0.437499999999975
40
0.499999999999976
40
0.499999999999976
40
0.749999999999988
40
0.749999999999988
40
1
40
1
40
1
40
1
41
1
10
18.5922620636999
20
7.25281806047374
30
0
41
1
10
18.5839029765647
20
7.29724304995463
30
0
41
1
10
18.5721940761368
20
7.3396054947801
30
0
41
1
10
18.5502147004152
20
7.4005643650369
30
0
41
1
10
18.5421460177691
20
7.42044957995014
30
0
41
1
10
18.5289590937529
20
7.44966191334075
30
0
41
1
10
18.5243825255527
20
7.45929661055453
30
0
41
1
10
18.5148692909948
20
7.47836464270677
30
0
41
1
10
18.5099208758557
20
7.48781879692208
30
0
41
1
10
18.4844501468562
20
7.534285558975
30
0
41
1
10
18.4617830025325
20
7.56891011095232
30
0
41
1
10
18.4122494705401
20
7.63378374240699
30
0
41
1
10
18.3853786034379
20
7.66402596662147
30
0
41
1
10
18.356417371911
20
7.69219447126449
30
0
0
SPLINE
5
129
100
AcDbEntity
8
1
62
256
6
ByLayer
370
18
48
1
60
0
100
AcDbSpline
70
4
71
3
72
24
73
20
40
0
40
0
40
0
40
0
40
0.124999999999985
40
0.124999999999985
40
0.187499999999981
40
0.187499999999981
40
0.249999999999977
40
0.249999999999977
40
0.374999999999982
40
0.374999999999982
40
0.499999999999988
40
0.499999999999988
40
0.624999999999993
40
0.624999999999993
40
0.68749999999999
40
0.68749999999999
40
0.749999999999987
40
0.749999999999987
40
1
40
1
40
1
40
1
41
1
10
18.30181894166
20
8.09565365669246
30
0
41
1
10
18.2920717429745
20
8.07902760967121
30
0
41
1
10
18.2838642633099
20
8.06171501591692
30
0
41
1
10
18.2738342365021
20
8.03472932330999
30
0
41
1
10
18.270864058704
20
8.02552939597885
30
0
41
1
10
18.2657514504446
20
8.00693223226995
30
0
41
1
10
18.2636304107337
20
7.99762584653408
30
0
41
1
10
18.2585036553867
20
7.96968573297909
30
0
41
1
10
18.2567259261729
20
7.95103110734109
30
0
41
1
10
18.2563184965414
20
7.91367682515536
30
0
41
1
10
18.2577395219954
20
7.89483784467092
30
0
41
1
10
18.2635127050967
20
7.85866166217679
30
0
41
1
10
18.2678413753684
20
7.84114629354431
30
0
41
1
10
18.2763479036085
20
7.81568789027887
30
0
41
1
10
18.279520860601
20
7.80733826928423
30
0
41
1
10
18.2865370155298
20
7.79091282624614
30
0
41
1
10
18.2903971485724
20
7.78281002250606
30
0
41
1
10
18.3110153586927
20
7.74366089557674
30
0
41
1
10
18.3317858476262
20
7.71615178142022
30
0
41
1
10
18.356417371911
20
7.69219447126449
30
0
0
SPLINE
5
12A
100
AcDbEntity
8
1
62
256
6
ByLayer
370
18
48
1
60
0
100
AcDbSpline
70
4
71
3
72
24
73
20
40
0
40
0
40
0
40
0
40
0.249999999999986
40
0.249999999999986
40
0.312499999999986
40
0.312499999999986
40
0.374999999999986
40
0.374999999999986
40
0.499999999999992
40
0.499999999999992
40
0.624999999999998
40
0.624999999999998
40
0.750000000000004
40
0.750000000000004
40
0.812500000000007
40
0.812500000000007
40
0.875000000000009
40
0.875000000000009
40
1
40
1
40
1
40
1
41
1
10
18.356417371911
20
6.5079590629301
30
0
41
1
10
18.3317858476262
20
6.48400175277436
30
0
41
1
10
18.3110153586927
20
6.45649263861785
30
0
41
1
10
18.2903971485724
20
6.41734351168853
30
0
41
1
10
18.2865370155298
20
6.40924070794841
30
0
41
1
10
18.279520860601
20
6.39281526491033
30
0
41
1
10
18.2763479036085
20
6.38446564391572
30
0
41
1
10
18.2678413753683
20
6.35900724065027
30
0
41
1
10
18.2635127050967
20
6.3414918720178
30
0
41
1
10
18.2577395219954
20
6.30531568952367
30
0
41
1
10
18.2563184965414
20
6.28647670903919
30
0
41
1
10
18.2567259261729
20
6.24912242685349
30
0
41
1
10
18.2585036553867
20
6.2304678012155
30
0
41
1
10
18.2636304107337
20
6.20252768766051
30
0
41
1
10
18.2657514504446
20
6.19322130192464
30
0
41
1
10
18.270864058704
20
6.17462413821573
30
0
41
1
10
18.2738342365021
20
6.16542421088457
30
0
41
1
10
18.2838642633099
20
6.13843851827764
30
0
41
1
10
18.2920717429745
20
6.12112592452334
30
0
41
1
10
18.30181894166
20
6.10449987750212
30
0
0
SPLINE
5
12B
100
AcDbEntity
8
1
62
256
6
ByLayer
370
18
48
1
60
0
100
AcDbSpline
70
4
71
3
72
26
73
22
40
0
40
0
40
0
40
0
40
0.124999999999978
40
0.124999999999978
40
0.249999999999956
40
0.249999999999956
40
0.312499999999955
40
0.312499999999955
40
0.374999999999954
40
0.374999999999954
40
0.499999999999977
40
0.499999999999977
40
0.56249999999998
40
0.56249999999998
40
0.624999999999983
40
0.624999999999983
40
0.749999999999988
40
0.749999999999988
40
0.874999999999994
40
0.874999999999994
40
1
40
1
40
1
40
1
41
1
10
19.9999999999998
20
5.13157676709727
30
0
41
1
10
20.0187420838794
20
5.13157676709727
30
0
41
1
10
20.0377900241208
20
5.13321397159268
30
0
41
1
10
20.0746705458541
20
5.13959148641436
30
0
41
1
10
20.0926468374791
20
5.1443039754318
30
0
41
1
10
20.1189272305606
20
5.15361138099411
30
0
41
1
10
20.1276136105627
20
5.15710924200195
30
0
41
1
10
20.1444825476157
20
5.16474263686123
30
0
41
1
10
20.1526773955156
20
5.16887766783242
30
0
41
1
10
20.1765732518193
20
5.18219443768155
30
0
41
1
10
20.1915899369243
20
5.19228220460394
30
0
41
1
10
20.2127755394081
20
5.20917206001107
30
0
41
1
10
20.2195919185688
20
5.21508414971285
30
0
41
1
10
20.2325595895105
20
5.22727939525441
30
0
41
1
10
20.2387403827709
20
5.23358547031191
30
0
41
1
10
20.2564090822011
20
5.25310041432149
30
0
41
1
10
20.2670282709708
20
5.26690263943522
30
0
41
1
10
20.2860013809459
20
5.29603123385735
30
0
41
1
10
20.2941811588043
20
5.31109947291105
30
0
41
1
10
20.3080220198237
20
5.34195901939739
30
0
41
1
10
20.3137019836552
20
5.35778187760917
30
0
41
1
10
20.3181619695466
20
5.37398132695296
30
0
0
SPLINE
5
12C
100
AcDbEntity
8
1
62
256
6
ByLayer
370
18
48
1
60
0
100
AcDbSpline
70
4
71
3
72
34
73
30
40
0
40
0
40
0
40
0
40
0.124999999999985
40
0.124999999999985
40
0.187499999999978
40
0.187499999999978
40
0.218749999999974
40
0.218749999999974
40
0.249999999999971
40
0.249999999999971
40
0.374999999999956
40
0.374999999999956
40
0.406249999999956
40
0.406249999999956
40
0.437499999999956
40
0.499999999999962
40
0.562499999999969
40
0.562499999999969
40
0.624999999999975
40
0.624999999999975
40
0.687499999999981
40
0.687499999999981
40
0.749999999999988
40
0.749999999999988
40
0.874999999999995
40
0.874999999999995
40
0.937499999999997
40
0.937499999999997
40
1
40
1
40
1
40
1
41
1
10
21.3281523379783
20
5.95262573351241
30
0
41
1
10
21.2791605406675
20
5.96574230531854
30
0
41
1
10
21.2290549015807
20
5.97437458298793
30
0
41
1
10
21.1518976275391
20
5.98028472749704
30
0
41
1
10
21.1258420498824
20
5.98107329073298
30
0
41
1
10
21.0861721053905
20
5.98034625773738
30
0
41
1
10
21.0728201914694
20
5.979782567944
30
0
41
1
10
21.0460462641004
20
5.97799264398517
30
0
41
1
10
21.0326678100597
20
5.97677086557016
30
0
41
1
10
20.9658054580943
20
5.96901005115177
30
0
41
1
10
20.9124105635
20
5.95758691881773
30
0
41
1
10
20.8455886245494
20
5.93584411736109
30
0
41
1
10
20.8322038067758
20
5.931107622051
30
0
41
1
10
20.8058521630064
20
5.92101211865045
30
0
41
1
10
20.7667940070399
20
5.90488648176674
30
0
41
1
10
20.7040139333797
20
5.8731521267662
30
0
41
1
10
20.6562753174225
20
5.84254596345465
30
0
41
1
10
20.6098302684514
20
5.80922707464813
30
0
41
1
10
20.5878136047354
20
5.79161244714834
30
0
41
1
10
20.5460507829752
20
5.7546307483226
30
0
41
1
10
20.526297008668
20
5.73525721676788
30
0
41
1
10
20.488939694671
20
5.69479186199518
30
0
41
1
10
20.4712931406012
20
5.67361724420581
30
0
41
1
10
20.4226269571246
20
5.60909256122727
30
0
41
1
10
20.3953601516256
20
5.56430361226631
30
0
41
1
10
20.3612075572778
20
5.4945075620688
30
0
41
1
10
20.3509341260475
20
5.47072592183466
30
0
41
1
10
20.332780618803
20
5.42268561209403
30
0
41
1
10
20.3248979334754
20
5.39844752687003
30
0
41
1
10
20.3181619695466
20
5.37398132695296
30
0
0
SPLINE
5
12D
100
AcDbEntity
8
1
62
256
6
ByLayer
370
18
48
1
60
0
100
AcDbSpline
70
4
71
3
72
24
73
20
40
0
40
0
40
0
40
0
40
0.0625000000000041
40
0.0625000000000041
40
0.125000000000008
40
0.125000000000008
40
0.250000000000007
40
0.250000000000007
40
0.312500000000004
40
0.312500000000004
40
0.375000000000002
40
0.375000000000002
40
0.500000000000002
40
0.500000000000002
40
0.625000000000003
40
0.625000000000003
40
0.750000000000003
40
0.750000000000003
40
1
40
1
40
1
40
1
41
1
10
21.6981810583395
20
6.10449987750212
30
0
41
1
10
21.6934313378222
20
6.09639815728414
30
0
41
1
10
21.6882897889862
20
6.08842695786993
30
0
41
1
10
21.6773553215858
20
6.07298370139637
30
0
41
1
10
21.6716008277747
20
6.06555907196051
30
0
41
1
10
21.6535070564048
20
6.04414401546964
30
0
41
1
10
21.6403431053356
20
6.0310065275722
30
0
41
1
10
21.6189603728395
20
6.01299628912108
30
0
41
1
10
21.6115431209203
20
6.00727141264144
30
0
41
1
10
21.59645701884
20
5.99660585359874
30
0
41
1
10
21.5887541685166
20
5.99163423258258
30
0
41
1
10
21.56518656155
20
5.97776153673706
30
0
41
1
10
21.5488655560662
20
5.96989604936883
30
0
41
1
10
21.5150376500414
20
5.95688643953736
30
0
41
1
10
21.4979733948958
20
5.95191170619546
30
0
41
1
10
21.4636029977594
20
5.94475277461399
30
0
41
1
10
21.4462370587478
20
5.94256746017868
30
0
41
1
10
21.3941694441298
20
5.94013755705123
30
0
41
1
10
21.3606039107082
20
5.94393747532845
30
0
41
1
10
21.3281523379783
20
5.95262573351241
30
0
0
SPLINE
5
12E
100
AcDbEntity
8
1
62
256
6
ByLayer
370
18
48
1
60
0
100
AcDbSpline
70
4
71
3
72
34
73
30
40
0
40
0
40
0
40
0
40
0.124999999999966
40
0.124999999999966
40
0.187499999999949
40
0.187499999999949
40
0.218749999999941
40
0.218749999999941
40
0.249999999999932
40
0.249999999999932
40
0.374999999999924
40
0.374999999999924
40
0.406249999999926
40
0.406249999999926
40
0.437499999999927
40
0.499999999999934
40
0.562499999999941
40
0.562499999999941
40
0.624999999999948
40
0.624999999999948
40
0.687499999999956
40
0.687499999999956
40
0.749999999999963
40
0.749999999999963
40
0.874999999999985
40
0.874999999999985
40
0.937499999999992
40
0.937499999999992
40
1
40
1
40
1
40
1
41
1
10
18.6718476620212
20
8.24752780068215
30
0
41
1
10
18.7208394593321
20
8.23441122887601
30
0
41
1
10
18.7709450984188
20
8.22577895120662
30
0
41
1
10
18.8481023724604
20
8.21986880669755
30
0
41
1
10
18.8741579501172
20
8.2190802434616
30
0
41
1
10
18.9138278946091
20
8.21980727645717
30
0
41
1
10
18.9271798085301
20
8.22037096625058
30
0
41
1
10
18.9539537358991
20
8.22216089020941
30
0
41
1
10
18.9673321899399
20
8.2233826686244
30
0
41
1
10
19.0341945419052
20
8.23114348304279
30
0
41
1
10
19.0875894364996
20
8.24256661537686
30
0
41
1
10
19.1544113754502
20
8.2643094168335
30
0
41
1
10
19.1677961932237
20
8.26904591214358
30
0
41
1
10
19.1941478369932
20
8.27914141554413
30
0
41
1
10
19.2332059929596
20
8.29526705242785
30
0
41
1
10
19.2959860666199
20
8.32700140742836
30
0
41
1
10
19.3437246825771
20
8.3576075707399
30
0
41
1
10
19.3901697315481
20
8.39092645954645
30
0
41
1
10
19.4121863952641
20
8.40854108704622
30
0
41
1
10
19.4539492170243
20
8.44552278587196
30
0
41
1
10
19.4737029913316
20
8.46489631742668
30
0
41
1
10
19.5110603053285
20
8.5053616721994
30
0
41
1
10
19.5287068593983
20
8.52653628998874
30
0
41
1
10
19.5773730428749
20
8.59106097296731
30
0
41
1
10
19.6046398483739
20
8.63584992192827
30
0
41
1
10
19.6387924427217
20
8.70564597212575
30
0
41
1
10
19.649065873952
20
8.7294276123599
30
0
41
1
10
19.6672193811965
20
8.77746792210056
30
0
41
1
10
19.6751020665241
20
8.80170600732455
30
0
41
1
10
19.6818380304529
20
8.8261722072416
30
0
0
SPLINE
5
12F
100
AcDbEntity
8
1
62
256
6
ByLayer
370
18
48
1
60
0
100
AcDbSpline
70
4
71
3
72
26
73
22
40
0
40
0
40
0
40
0
40
0.125000000000008
40
0.125000000000008
40
0.250000000000016
40
0.250000000000016
40
0.312500000000029
40
0.312500000000029
40
0.375000000000043
40
0.375000000000043
40
0.500000000000048
40
0.500000000000048
40
0.562500000000042
40
0.562500000000042
40
0.625000000000036
40
0.625000000000036
40
0.750000000000024
40
0.750000000000024
40
0.875000000000012
40
0.875000000000012
40
1
40
1
40
1
40
1
41
1
10
19.9999999999998
20
9.06857676709728
30
0
41
1
10
19.9812579161201
20
9.06857676709728
30
0
41
1
10
19.9622099758788
20
9.06693956260187
30
0
41
1
10
19.9253294541454
20
9.06056204778022
30
0
41
1
10
19.9073531625204
20
9.05584955876279
30
0
41
1
10
19.881072769439
20
9.04654215320045
30
0
41
1
10
19.8723863894368
20
9.04304429219263
30
0
41
1
10
19.8555174523838
20
9.03541089733332
30
0
41
1
10
19.8473226044839
20
9.03127586636217
30
0
41
1
10
19.8234267481803
20
9.01795909651301
30
0
41
1
10
19.8084100630752
20
9.00787132959064
30
0
41
1
10
19.7872244605914
20
8.99098147418351
30
0
41
1
10
19.7804080814307
20
8.98506938448173
30
0
41
1
10
19.7674404104891
20
8.97287413894017
30
0
41
1
10
19.7612596172286
20
8.96656806388265
30
0
41
1
10
19.7435909177985
20
8.94705311987309
30
0
41
1
10
19.7329717290287
20
8.93325089475934
30
0
41
1
10
19.7139986190536
20
8.90412230033721
30
0
41
1
10
19.7058188411952
20
8.88905406128353
30
0
41
1
10
19.6919779801758
20
8.85819451479719
30
0
41
1
10
19.6862980163443
20
8.84237165658539
30
0
41
1
10
19.6818380304529
20
8.8261722072416
30
0
0
SPLINE
5
130
100
AcDbEntity
8
1
62
256
6
ByLayer
370
18
48
1
60
0
100
AcDbSpline
70
4
71
3
72
24
73
20
40
0
40
0
40
0
40
0
40
0.0625
40
0.0625
40
0.125
40
0.125
40
0.250000000000001
40
0.250000000000001
40
0.312499999999998
40
0.312499999999998
40
0.374999999999995
40
0.374999999999995
40
0.499999999999997
40
0.499999999999997
40
0.624999999999999
40
0.624999999999999
40
0.75
40
0.75
40
1
40
1
40
1
40
1
41
1
10
18.30181894166
20
8.09565365669246
30
0
41
1
10
18.3065686621773
20
8.10375537691044
30
0
41
1
10
18.3117102110133
20
8.11172657632463
30
0
41
1
10
18.3226446784137
20
8.12716983279819
30
0
41
1
10
18.3283991722248
20
8.13459446223408
30
0
41
1
10
18.3464929435947
20
8.15600951872494
30
0
41
1
10
18.3596568946639
20
8.16914700662238
30
0
41
1
10
18.38103962716
20
8.18715724507351
30
0
41
1
10
18.3884568790792
20
8.19288212155314
30
0
41
1
10
18.4035429811596
20
8.20354768059585
30
0
41
1
10
18.411245831483
20
8.20851930161197
30
0
41
1
10
18.4348134384495
20
8.22239199745752
30
0
41
1
10
18.4511344439334
20
8.23025748482576
30
0
41
1
10
18.4849623499581
20
8.24326709465723
30
0
41
1
10
18.5020266051038
20
8.2482418279991
30
0
41
1
10
18.5363970022401
20
8.2554007595806
30
0
41
1
10
18.5537629412517
20
8.2575860740159
30
0
41
1
10
18.6058305558697
20
8.26001597714335
30
0
41
1
10
18.6393960892913
20
8.2562160588661
30
0
41
1
10
18.6718476620212
20
8.24752780068215
30
0
0
SPLINE
5
131
100
AcDbEntity
8
1
62
256
6
ByLayer
370
18
48
1
60
0
100
AcDbSpline
70
4
71
3
72
26
73
22
40
0
40
0
40
0
40
0
40
0.249999999999994
40
0.249999999999994
40
0.312499999999994
40
0.312499999999994
40
0.374999999999994
40
0.374999999999994
40
0.499999999999994
40
0.499999999999994
40
0.562499999999996
40
0.562499999999996
40
0.624999999999998
40
0.624999999999998
40
0.749999999999988
40
0.749999999999988
40
0.812499999999985
40
0.812499999999985
40
0.874999999999983
40
0.874999999999983
40
1
40
1
40
1
40
1
41
1
10
20.3181619695466
20
8.8261722072416
30
0
41
1
10
20.3092192305467
20
8.85865380044629
30
0
41
1
10
20.2954876322588
20
8.88954045682917
30
0
41
1
10
20.2718353388288
20
8.92587528441908
30
0
41
1
10
20.2667495067729
20
8.93305422452144
30
0
41
1
10
20.2560530091761
20
8.94693616165782
30
0
41
1
10
20.2504333990709
20
8.9536583615442
30
0
41
1
10
20.2327595033491
20
8.97316349340633
30
0
41
1
10
20.2198957841166
20
8.98528957573373
30
0
41
1
10
20.1988810548677
20
9.00206617384649
30
0
41
1
10
20.1915883106088
20
9.00742188429052
30
0
41
1
10
20.1763916134436
20
9.01762833313367
30
0
41
1
10
20.168541170711
20
9.02243888000157
30
0
41
1
10
20.1445437728379
20
9.03580126003581
30
0
41
1
10
20.1278334996493
20
9.04337367114201
30
0
41
1
10
20.1016705104131
20
9.05266074694865
30
0
41
1
10
20.0927656700962
20
9.05540949867998
30
0
41
1
10
20.074570769743
20
9.06017846120119
30
0
41
1
10
20.0652845989497
20
9.06219129260182
30
0
41
1
10
20.0374812768523
20
9.0669803508107
30
0
41
1
10
20.0188089532898
20
9.06857676709728
30
0
41
1
10
19.9999999999998
20
9.06857676709728
30
0
0
SPLINE
5
132
100
AcDbEntity
8
1
62
256
6
ByLayer
370
18
48
1
60
0
100
AcDbSpline
70
4
71
3
72
34
73
30
40
0
40
0
40
0
40
0
40
0.125000000000004
40
0.125000000000004
40
0.187500000000006
40
0.187500000000006
40
0.218750000000009
40
0.218750000000009
40
0.250000000000011
40
0.250000000000011
40
0.375000000000001
40
0.375000000000001
40
0.406249999999998
40
0.406249999999998
40
0.437499999999995
40
0.499999999999995
40
0.562499999999996
40
0.562499999999996
40
0.624999999999996
40
0.624999999999996
40
0.687499999999996
40
0.687499999999996
40
0.749999999999997
40
0.749999999999997
40
0.874999999999997
40
0.874999999999997
40
0.937499999999999
40
0.937499999999999
40
1
40
1
40
1
40
1
41
1
10
20.3181619695466
20
8.8261722072416
30
0
41
1
10
20.331624395584
20
8.77727431968165
30
0
41
1
10
20.3495186520744
20
8.72968349379303
30
0
41
1
10
20.3834427074954
20
8.66013255358786
30
0
41
1
10
20.3959401462233
20
8.63725616799405
30
0
41
1
10
20.416630578172
20
8.60340148966699
30
0
41
1
10
20.4238696464602
20
8.59216817833979
30
0
41
1
10
20.4389547957831
20
8.56997617082251
30
0
41
1
10
20.4467750039592
20
8.55905279674337
30
0
41
1
10
20.4872859904909
20
8.50529720192185
30
0
41
1
10
20.5241451570223
20
8.46501191195159
30
0
41
1
10
20.576697657768
20
8.41836262261708
30
0
41
1
10
20.5875531522006
20
8.40921134102467
30
0
41
1
10
20.60958976756
20
8.39158420850814
30
0
41
1
10
20.6432548145302
20
8.36604521586276
30
0
41
1
10
20.7023824438307
20
8.32793576424328
30
0
41
1
10
20.7529298677763
20
8.30223217601494
30
0
41
1
10
20.8051631063881
20
8.27901622979994
30
0
41
1
10
20.8314938663048
20
8.26893161595231
30
0
41
1
10
20.8845188699139
20
8.25160740541997
30
0
41
1
10
20.9112225356445
20
8.24436450698141
30
0
41
1
10
20.9650247101001
20
8.2326027025174
30
0
41
1
10
20.9922163970768
20
8.22808856293614
30
0
41
1
10
21.0724935208941
20
8.21873895256192
30
0
41
1
10
21.1249222467062
20
8.21786868024327
30
0
41
1
10
21.2024065588859
20
8.22370563505001
30
0
41
1
10
21.2281182805364
20
8.22687063649121
30
0
41
1
10
21.2787427947221
20
8.23550659272723
30
0
41
1
10
21.3036391509598
20
8.24096488616635
30
0
41
1
10
21.3281523379783
20
8.24752780068215
30
0
0
SPLINE
5
133
100
AcDbEntity
8
1
62
256
6
ByLayer
370
18
48
1
60
0
100
AcDbSpline
70
4
71
3
72
24
73
20
40
0
40
0
40
0
40
0
40
0.0624999999999996
40
0.0624999999999996
40
0.124999999999999
40
0.124999999999999
40
0.250000000000012
40
0.250000000000012
40
0.312500000000015
40
0.312500000000015
40
0.375000000000018
40
0.375000000000018
40
0.500000000000015
40
0.500000000000015
40
0.625000000000013
40
0.625000000000013
40
0.75000000000001
40
0.75000000000001
40
1
40
1
40
1
40
1
41
1
10
21.6981810583395
20
8.09565365669246
30
0
41
1
10
21.6934313378222
20
8.10375537691044
30
0
41
1
10
21.6882897889862
20
8.11172657632463
30
0
41
1
10
21.6773553215858
20
8.12716983279819
30
0
41
1
10
21.6716008277747
20
8.13459446223408
30
0
41
1
10
21.6535070564048
20
8.15600951872494
30
0
41
1
10
21.6403431053357
20
8.16914700662238
30
0
41
1
10
21.6189603728395
20
8.18715724507351
30
0
41
1
10
21.6115431209203
20
8.19288212155314
30
0
41
1
10
21.59645701884
20
8.20354768059582
30
0
41
1
10
21.5887541685166
20
8.20851930161197
30
0
41
1
10
21.56518656155
20
8.22239199745752
30
0
41
1
10
21.5488655560662
20
8.23025748482576
30
0
41
1
10
21.5150376500414
20
8.24326709465723
30
0
41
1
10
21.4979733948958
20
8.2482418279991
30
0
41
1
10
21.4636029977594
20
8.2554007595806
30
0
41
1
10
21.4462370587478
20
8.2575860740159
30
0
41
1
10
21.3941694441298
20
8.26001597714335
30
0
41
1
10
21.3606039107082
20
8.2562160588661
30
0
41
1
10
21.3281523379783
20
8.24752780068215
30
0
0
SPLINE
5
134
100
AcDbEntity
8
1
62
256
6
ByLayer
370
18
48
1
60
0
100
AcDbSpline
70
4
71
3
72
26
73
22
40
0
40
0
40
0
40
0
40
0.250000000000033
40
0.250000000000033
40
0.31250000000003
40
0.31250000000003
40
0.375000000000028
40
0.375000000000028
40
0.500000000000027
40
0.500000000000027
40
0.562500000000028
40
0.562500000000028
40
0.625000000000029
40
0.625000000000029
40
0.750000000000011
40
0.750000000000011
40
0.812500000000003
40
0.812500000000003
40
0.874999999999994
40
0.874999999999994
40
1
40
1
40
1
40
1
41
1
10
19.6818380304529
20
5.37398132695296
30
0
41
1
10
19.6907807694528
20
5.34149973374826
30
0
41
1
10
19.7045123677407
20
5.31061307736539
30
0
41
1
10
19.7281646611707
20
5.27427824977548
30
0
41
1
10
19.7332504932266
20
5.26709930967311
30
0
41
1
10
19.7439469908234
20
5.25321737253677
30
0
41
1
10
19.7495666009286
20
5.24649517265036
30
0
41
1
10
19.7672404966505
20
5.22699004078825
30
0
41
1
10
19.7801042158829
20
5.21486395846082
30
0
41
1
10
19.8011189451318
20
5.1980873603481
30
0
41
1
10
19.8084116893907
20
5.19273164990406
30
0
41
1
10
19.8236083865559
20
5.18252520106091
30
0
41
1
10
19.8314588292885
20
5.17771465419301
30
0
41
1
10
19.8554562271617
20
5.16435227415877
30
0
41
1
10
19.8721665003502
20
5.15677986305255
30
0
41
1
10
19.8983294895864
20
5.14749278724594
30
0
41
1
10
19.9072343299033
20
5.14474403551458
30
0
41
1
10
19.9254292302565
20
5.13997507299339
30
0
41
1
10
19.9347154010499
20
5.13796224159276
30
0
41
1
10
19.9625187231472
20
5.13317318338389
30
0
41
1
10
19.9811910467097
20
5.13157676709727
30
0
41
1
10
19.9999999999998
20
5.13157676709727
30
0
0
SPLINE
5
135
100
AcDbEntity
8
1
62
256
6
ByLayer
370
18
48
1
60
0
100
AcDbSpline
70
4
71
3
72
34
73
30
40
0
40
0
40
0
40
0
40
0.124999999999988
40
0.124999999999988
40
0.187499999999983
40
0.187499999999983
40
0.21874999999998
40
0.21874999999998
40
0.249999999999977
40
0.249999999999977
40
0.374999999999965
40
0.374999999999965
40
0.406249999999963
40
0.406249999999963
40
0.437499999999962
40
0.499999999999966
40
0.56249999999997
40
0.56249999999997
40
0.624999999999974
40
0.624999999999974
40
0.687499999999978
40
0.687499999999978
40
0.749999999999982
40
0.749999999999982
40
0.87499999999999
40
0.87499999999999
40
0.937499999999995
40
0.937499999999995
40
1
40
1
40
1
40
1
41
1
10
19.6818380304529
20
5.37398132695296
30
0
41
1
10
19.6683756044155
20
5.42287921451293
30
0
41
1
10
19.6504813479252
20
5.47047004040155
30
0
41
1
10
19.6165572925042
20
5.54002098060673
30
0
41
1
10
19.6040598537762
20
5.56289736620053
30
0
41
1
10
19.5833694218276
20
5.59675204452756
30
0
41
1
10
19.5761303535393
20
5.60798535585479
30
0
41
1
10
19.5610452042164
20
5.63017736337207
30
0
41
1
10
19.5532249960403
20
5.64110073745121
30
0
41
1
10
19.5127140095087
20
5.69485633227274
30
0
41
1
10
19.4758548429773
20
5.73514162224299
30
0
41
1
10
19.4233023422315
20
5.78179091157747
30
0
41
1
10
19.412446847799
20
5.79094219316991
30
0
41
1
10
19.3904102324396
20
5.80856932568642
30
0
41
1
10
19.3567451854693
20
5.8341083183318
30
0
41
1
10
19.2976173881462
20
5.87221750890458
30
0
41
1
10
19.2470701322233
20
5.89792135817962
30
0
41
1
10
19.1948368936114
20
5.92113730439465
30
0
41
1
10
19.1685061336947
20
5.93122191824227
30
0
41
1
10
19.1154811300857
20
5.94854612877458
30
0
41
1
10
19.088777464355
20
5.95578902721314
30
0
41
1
10
19.0349752898994
20
5.96755083167719
30
0
41
1
10
19.0077836029227
20
5.97206497125845
30
0
41
1
10
18.9275064791054
20
5.98141458163264
30
0
41
1
10
18.8750777532933
20
5.98228485395131
30
0
41
1
10
18.7975934411136
20
5.97644789914455
30
0
41
1
10
18.7718817194631
20
5.97328289770337
30
0
41
1
10
18.7212572052774
20
5.96464694146735
30
0
41
1
10
18.6963608490398
20
5.9591886480282
30
0
41
1
10
18.6718476620212
20
5.95262573351241
30
0
0
SPLINE
5
136
100
AcDbEntity
8
1
62
256
6
ByLayer
370
18
48
1
60
0
100
AcDbSpline
70
4
71
3
72
24
73
20
40
0
40
0
40
0
40
0
40
0.062500000000007
40
0.062500000000007
40
0.125000000000014
40
0.125000000000014
40
0.250000000000017
40
0.250000000000017
40
0.312500000000018
40
0.312500000000018
40
0.375000000000019
40
0.375000000000019
40
0.500000000000016
40
0.500000000000016
40
0.625000000000014
40
0.625000000000014
40
0.750000000000011
40
0.750000000000011
40
1
40
1
40
1
40
1
41
1
10
18.30181894166
20
6.10449987750212
30
0
41
1
10
18.3065686621773
20
6.09639815728414
30
0
41
1
10
18.3117102110133
20
6.08842695786993
30
0
41
1
10
18.3226446784137
20
6.07298370139637
30
0
41
1
10
18.3283991722248
20
6.06555907196051
30
0
41
1
10
18.3464929435947
20
6.04414401546964
30
0
41
1
10
18.3596568946639
20
6.0310065275722
30
0
41
1
10
18.38103962716
20
6.01299628912105
30
0
41
1
10
18.3884568790792
20
6.00727141264144
30
0
41
1
10
18.4035429811596
20
5.99660585359874
30
0
41
1
10
18.411245831483
20
5.99163423258258
30
0
41
1
10
18.4348134384495
20
5.97776153673706
30
0
41
1
10
18.4511344439334
20
5.9698960493688
30
0
41
1
10
18.4849623499581
20
5.95688643953736
30
0
41
1
10
18.5020266051038
20
5.95191170619546
30
0
41
1
10
18.5363970022401
20
5.94475277461399
30
0
41
1
10
18.5537629412517
20
5.94256746017868
30
0
41
1
10
18.6058305558697
20
5.94013755705123
30
0
41
1
10
18.6393960892913
20
5.94393747532845
30
0
41
1
10
18.6718476620212
20
5.95262573351241
30
0
0
SPLINE
5
137
100
AcDbEntity
8
1
62
256
6
ByLayer
370
18
48
1
60
0
100
AcDbSpline
70
4
71
3
72
18
73
14
40
0
40
0
40
0
40
0
40
0.249999999999982
40
0.249999999999982
40
0.374999999999979
40
0.374999999999979
40
0.437499999999979
40
0.437499999999979
40
0.49999999999998
40
0.49999999999998
40
0.74999999999999
40
0.74999999999999
40
1
40
1
40
1
40
1
41
1
10
21.4077379362996
20
6.94733547372081
30
0
41
1
10
21.4160970234349
20
6.90291048423961
30
0
41
1
10
21.4278059238628
20
6.86054803941406
30
0
41
1
10
21.4497852995844
20
6.7995891691574
30
0
41
1
10
21.4578539822305
20
6.77970395424427
30
0
41
1
10
21.4710409062466
20
6.75049162085386
30
0
41
1
10
21.4756174744468
20
6.74085692364014
30
0
41
1
10
21.4851307090046
20
6.72178889148805
30
0
41
1
10
21.4900791241437
20
6.71233473727281
30
0
41
1
10
21.5155498531433
20
6.6658679752197
30
0
41
1
10
21.5382169974671
20
6.6312434232423
30
0
41
1
10
21.5877505294595
20
6.56636979178754
30
0
41
1
10
21.6146213965617
20
6.53612756757306
30
0
41
1
10
21.6435826280885
20
6.5079590629301
30
0
0
SPLINE
5
138
100
AcDbEntity
8
1
62
256
6
ByLayer
370
18
48
1
60
0
100
AcDbSpline
70
4
71
3
72
24
73
20
40
0
40
0
40
0
40
0
40
0.124999999999996
40
0.124999999999996
40
0.187499999999995
40
0.187499999999995
40
0.249999999999994
40
0.249999999999994
40
0.374999999999994
40
0.374999999999994
40
0.499999999999994
40
0.499999999999994
40
0.624999999999994
40
0.624999999999994
40
0.687499999999991
40
0.687499999999991
40
0.749999999999988
40
0.749999999999988
40
1
40
1
40
1
40
1
41
1
10
21.6981810583395
20
6.10449987750212
30
0
41
1
10
21.7079282570251
20
6.12112592452334
30
0
41
1
10
21.7161357366896
20
6.13843851827764
30
0
41
1
10
21.7261657634974
20
6.16542421088457
30
0
41
1
10
21.7291359412955
20
6.17462413821573
30
0
41
1
10
21.7342485495549
20
6.19322130192464
30
0
41
1
10
21.7363695892658
20
6.20252768766051
30
0
41
1
10
21.7414963446128
20
6.2304678012155
30
0
41
1
10
21.7432740738267
20
6.24912242685349
30
0
41
1
10
21.7436815034581
20
6.28647670903919
30
0
41
1
10
21.7422604780041
20
6.30531568952367
30
0
41
1
10
21.7364872949028
20
6.3414918720178
30
0
41
1
10
21.7321586246312
20
6.35900724065027
30
0
41
1
10
21.723652096391
20
6.38446564391572
30
0
41
1
10
21.7204791393985
20
6.39281526491033
30
0
41
1
10
21.7134629844697
20
6.40924070794841
30
0
41
1
10
21.7096028514271
20
6.41734351168853
30
0
41
1
10
21.6889846413068
20
6.45649263861785
30
0
41
1
10
21.6682141523733
20
6.48400175277436
30
0
41
1
10
21.6435826280885
20
6.5079590629301
30
0
0
SPLINE
5
139
100
AcDbEntity
8
1
62
256
6
ByLayer
370
18
48
1
60
0
100
AcDbSpline
70
4
71
3
72
24
73
20
40
0
40
0
40
0
40
0
40
0.249999999999984
40
0.249999999999984
40
0.312499999999984
40
0.312499999999984
40
0.374999999999983
40
0.374999999999983
40
0.499999999999993
40
0.499999999999993
40
0.625000000000003
40
0.625000000000003
40
0.750000000000013
40
0.750000000000013
40
0.812500000000012
40
0.812500000000012
40
0.875000000000011
40
0.875000000000011
40
1
40
1
40
1
40
1
41
1
10
21.6435826280885
20
7.69219447126449
30
0
41
1
10
21.6682141523733
20
7.71615178142022
30
0
41
1
10
21.6889846413068
20
7.74366089557674
30
0
41
1
10
21.7096028514271
20
7.78281002250606
30
0
41
1
10
21.7134629844697
20
7.79091282624614
30
0
41
1
10
21.7204791393985
20
7.80733826928423
30
0
41
1
10
21.723652096391
20
7.81568789027887
30
0
41
1
10
21.7321586246312
20
7.84114629354431
30
0
41
1
10
21.7364872949029
20
7.85866166217679
30
0
41
1
10
21.7422604780041
20
7.89483784467092
30
0
41
1
10
21.7436815034581
20
7.91367682515536
30
0
41
1
10
21.7432740738267
20
7.95103110734109
30
0
41
1
10
21.7414963446128
20
7.96968573297909
30
0
41
1
10
21.7363695892658
20
7.99762584653408
30
0
41
1
10
21.7342485495549
20
8.00693223226995
30
0
41
1
10
21.7291359412955
20
8.02552939597885
30
0
41
1
10
21.7261657634974
20
8.03472932330999
30
0
41
1
10
21.7161357366896
20
8.06171501591695
30
0
41
1
10
21.7079282570251
20
8.07902760967121
30
0
41
1
10
21.6981810583395
20
8.09565365669246
30
0
0
SPLINE
5
13A
100
AcDbEntity
8
1
62
256
6
ByLayer
370
18
48
1
60
0
100
AcDbSpline
70
4
71
3
72
17
73
13
40
0
40
0
40
0
40
0
40
0.249999999999989
40
0.249999999999989
40
0.499999999999978
40
0.499999999999978
40
0.562499999999982
40
0.562499999999982
40
0.624999999999985
40
0.749999999999988
40
0.749999999999988
40
1
40
1
40
1
40
1
41
1
10
21.6435826280885
20
7.69219447126449
30
0
41
1
10
21.6146246036309
20
7.66402908590672
30
0
41
1
10
21.5877690589034
20
7.63380252496182
30
0
41
1
10
21.5382802616328
20
7.56899844371009
30
0
41
1
10
21.5156427078128
20
7.53442746223081
30
0
41
1
10
21.4902105226121
20
7.48806527895357
30
0
41
1
10
21.4852575520366
20
7.47861147690824
30
0
41
1
10
21.4757163583552
20
7.45950204321053
30
0
41
1
10
21.4619501115271
20
7.43053880404506
30
0
41
1
10
21.4498230334513
20
7.40066304384024
30
0
41
1
10
21.4278090763266
20
7.33962615501875
30
0
41
1
10
21.4160955020354
20
7.29723496436406
30
0
41
1
10
21.4077379362996
20
7.25281806047374
30
0
0
SPLINE
5
13B
100
AcDbEntity
8
1
62
256
6
ByLayer
370
18
48
1
60
0
100
AcDbSpline
70
4
71
3
72
18
73
14
40
0
40
0
40
0
40
0
40
0.106502320877431
40
0.209819720888386
40
0.309970050664561
40
0.406972922400281
40
0.500849920825888
40
0.591624858696198
40
0.679324076625844
40
0.763976789997862
40
0.845615488386093
40
0.924276395492311
40
1
40
1
40
1
40
1
41
1
10
37.6901186384098
20
16.4722791120904
30
0
41
1
10
37.6885415273355
20
16.4729414964181
30
0
41
1
10
37.6854344682341
20
16.4742464566632
30
0
41
1
10
37.6809243323183
20
16.4765020215944
30
0
41
1
10
37.6766153234621
20
16.4789180112461
30
0
41
1
10
37.6725126225168
20
16.4814986053761
30
0
41
1
10
37.6686149102101
20
16.4842198892021
30
0
41
1
10
37.6649224452293
20
16.4870656433664
30
0
41
1
10
37.6614353720447
20
16.4900188425404
30
0
41
1
10
37.6581528367137
20
16.4930619132966
30
0
41
1
10
37.6550778698622
20
16.496183732023
30
0
41
1
10
37.6521996835919
20
16.4993531218051
30
0
41
1
10
37.6504035869185
20
16.5015681058289
30
0
41
1
10
37.6495226247498
20
16.5026545268206
30
0
0
SPLINE
5
13C
100
AcDbEntity
8
1
62
256
6
ByLayer
370
18
48
1
60
0
100
AcDbSpline
70
4
71
3
72
16
73
12
40
0
40
0
40
0
40
0
40
0.117319552192524
40
0.233085853411067
40
0.347299362420248
40
0.459960556948122
40
0.571069934744735
40
0.680628014712968
40
0.788635338118843
40
0.89509246988832
40
1
40
1
40
1
40
1
41
1
10
37.8489454154498
20
16.4185925187211
30
0
41
1
10
37.8426777667124
20
16.4203495867907
30
0
41
1
10
37.8302254497068
20
16.4238404602455
30
0
41
1
10
37.8117192560247
20
16.4293609496698
30
0
41
1
10
37.7934972967185
20
16.4350352817435
30
0
41
1
10
37.7755628433775
20
16.4408769226098
30
0
41
1
10
37.7579151153776
20
16.4468713764711
30
0
41
1
10
37.7405540288846
20
16.4530098861239
30
0
41
1
10
37.7234806581348
20
16.4592887790428
30
0
41
1
10
37.7066908752586
20
16.4656797236417
30
0
41
1
10
37.6956156516796
20
16.470090094028
30
0
41
1
10
37.6901186384098
20
16.4722791120974
30
0
0
SPLINE
5
13D
100
AcDbEntity
8
1
62
256
6
ByLayer
370
18
48
1
60
0
100
AcDbSpline
70
4
71
2
72
10
73
7
40
0
40
0
40
0
40
0.5
40
0.5
40
0.75
40
0.75
40
1
40
1
40
1
41
1
10
37.8489454154433
20
16.418592518757
30
0
41
1
10
37.9165392416657
20
16.3998067283658
30
0
41
1
10
37.9642354827688
20
16.348585481646
30
0
41
1
10
37.9902224727206
20
16.3206779150738
30
0
41
1
10
38.0068593747302
20
16.2849986981241
30
0
41
1
10
38.0248252361521
20
16.2464694174328
30
0
41
1
10
38.0289461970828
20
16.2034924093968
30
0
0
SPLINE
5
13E
100
AcDbEntity
8
1
62
256
6
ByLayer
370
18
48
1
60
0
100
AcDbSpline
70
4
71
2
72
6
73
3
40
0
40
0
40
0
40
1
40
1
40
1
41
1
10
38.0289461971203
20
16.2034924094832
30
0
41
1
10
38.0378374892929
20
16.1083717050773
30
0
41
1
10
38.0378609595313
20
16.0128606347435
30
0
0
SPLINE
5
13F
100
AcDbEntity
8
1
62
256
6
ByLayer
370
18
48
1
60
0
100
AcDbSpline
70
4
71
3
72
17
73
13
40
0
40
0
40
0
40
0
40
0.100317411817072
40
0.200541310293564
40
0.300680278273617
40
0.400742920447666
40
0.500737861201907
40
0.600673742442853
40
0.700559221399297
40
0.800402968404959
40
0.900213664663628
40
1
40
1
40
1
40
1
41
1
10
38.0289461971198
20
15.7820443448991
30
0
41
1
10
38.0295231228815
20
15.7883943975442
30
0
41
1
10
38.0306764366095
20
15.8010885834768
30
0
41
1
10
38.0321818251211
20
15.8201577898922
30
0
41
1
10
38.033521626251
20
15.8392332467274
30
0
41
1
10
38.0346798037511
20
15.8583161147535
30
0
41
1
10
38.0356607269911
20
15.8774039663121
30
0
41
1
10
38.0364629358427
20
15.8964953312927
30
0
41
1
10
38.0370879043614
20
15.915588498857
30
0
41
1
10
38.0375311975088
20
15.9346817705001
30
0
41
1
10
38.0378090731843
20
15.9537736456192
30
0
41
1
10
38.0378436654887
20
15.9665002840198
30
0
41
1
10
38.0378609595298
20
15.9728628265737
30
0
0
SPLINE
5
140
100
AcDbEntity
8
1
62
256
6
ByLayer
370
18
48
1
60
0
100
AcDbSpline
70
4
71
3
72
38
73
34
40
0
40
0
40
0
40
0
40
0.0320161803202244
40
0.0634137556517455
40
0.0941938978135345
40
0.124357850632128
40
0.153906935795977
40
0.182842559298688
40
0.211166218540757
40
0.238879510169574
40
0.265984138747585
40
0.292481926351475
40
0.318374823219166
40
0.343664919578638
40
0.368354458810694
40
0.392445852120294
40
0.415941694916247
40
0.438844785127738
40
0.461158143719597
40
0.482885037706445
40
0.504029006008677
40
0.55136681116347
40
0.597409666800764
40
0.642207857911423
40
0.685815975457813
40
0.728293199080095
40
0.769703557232111
40
0.810116149643927
40
0.849605314211511
40
0.888250718111323
40
0.926137351649962
40
0.963355403684977
40
1
40
1
40
1
40
1
41
1
10
37.8489454154398
20
15.5631743769724
30
0
41
1
10
37.8515736233646
20
15.5639829576162
30
0
41
1
10
37.8567792579368
20
15.5655844958028
30
0
41
1
10
37.8644507904021
20
15.5683009720385
30
0
41
1
10
37.8719249095619
20
15.5712035302896
30
0
41
1
10
37.8791975153456
20
15.5743028211058
30
0
41
1
10
37.8862696764352
20
15.5775797071692
30
0
41
1
10
37.893141117864
20
15.5810230289482
30
0
41
1
10
37.8998119140359
20
15.5846198178439
30
0
41
1
10
37.9062820488632
20
15.5883578670217
30
0
41
1
10
37.9125515300021
20
15.5922250890065
30
0
41
1
10
37.9186203592456
20
15.5962097048307
30
0
41
1
10
37.9244885401633
20
15.6003002148022
30
0
41
1
10
37.9301560763676
20
15.6044854233202
30
0
41
1
10
37.9356229711879
20
15.6087544475303
30
0
41
1
10
37.9408892306578
20
15.6130967269758
30
0
41
1
10
37.9459548524163
20
15.6175020340553
30
0
41
1
10
37.9508198658025
20
15.6219604705748
30
0
41
1
10
37.9554841879106
20
15.6264625077584
30
0
41
1
10
37.9599481402179
20
15.6309988631663
30
0
41
1
10
37.9660095567997
20
15.6374863777985
30
0
41
1
10
37.973458819203
20
15.6461527937902
30
0
41
1
10
37.9820027422794
20
15.6573152343931
30
0
41
1
10
37.9898489226433
20
15.668846529041
30
0
41
1
10
37.9969976055377
20
15.6807010605798
30
0
41
1
10
38.0034486190904
20
15.6928342363525
30
0
41
1
10
38.0092017357356
20
15.7052019151298
30
0
41
1
10
38.0142571546105
20
15.7177606399898
30
0
41
1
10
38.0186132961069
20
15.7304681114743
30
0
41
1
10
38.0222748801837
20
15.7432819067281
30
0
41
1
10
38.0252236999945
20
15.7561646933347
30
0
41
1
10
38.0275246334316
20
15.7690658011198
30
0
41
1
10
38.0284748015058
20
15.7777406135676
30
0
41
1
10
38.0289461970798
20
15.7820443449847
30
0
0
SPLINE
5
141
100
AcDbEntity
8
1
62
256
6
ByLayer
370
18
48
1
60
0
100
AcDbSpline
70
4
71
2
72
6
73
3
40
0
40
0
40
0
40
1
40
1
40
1
41
1
10
37.8489454154518
20
15.5631743770084
30
0
41
1
10
37.7679467190154
20
15.5390752181104
30
0
41
1
10
37.6901186384123
20
15.5061613841901
30
0
0
SPLINE
5
142
100
AcDbEntity
8
1
62
256
6
ByLayer
370
18
48
1
60
0
100
AcDbSpline
70
4
71
2
72
6
73
3
40
0
40
0
40
0
40
1
40
1
40
1
41
1
10
37.6901186384113
20
15.5061613841971
30
0
41
1
10
37.6658197594189
20
15.495738170132
30
0
41
1
10
37.6495226247503
20
15.4749357440851
30
0
0
SPLINE
5
143
100
AcDbEntity
8
1
62
256
6
ByLayer
370
18
48
1
60
0
100
AcDbSpline
70
4
71
3
72
10
73
6
40
0
40
0
40
0
40
0
40
0.5
40
0.5
40
1
40
1
40
1
40
1
41
1
10
11.0276281961116
20
-0.28227754060643
30
0
41
1
10
11.024604110705
20
-0.277167459287682
30
0
41
1
10
11.0210220935147
20
-0.271804402679407
30
0
41
1
10
11.013193480974
20
-0.261019280122355
30
0
41
1
10
11.0089152580003
20
-0.255544143276097
30
0
41
1
10
11.0043341013017
20
-0.249999999999773
30
0
0
SPLINE
5
144
100
AcDbEntity
8
1
62
256
6
ByLayer
370
18
48
1
60
0
100
AcDbSpline
70
4
71
3
72
16
73
12
40
0
40
0
40
0
40
0
40
0.249999999999997
40
0.249999999999997
40
0.499999999999995
40
0.499999999999995
40
0.749999999999992
40
0.749999999999992
40
0.874999999999996
40
0.874999999999996
40
1
40
1
40
1
40
1
41
1
10
11.0276281961116
20
-0.282277540606458
30
0
41
1
10
11.0655609699117
20
-0.287336251186247
30
0
41
1
10
11.1034318228734
20
-0.292282100096372
30
0
41
1
10
11.1790487078829
20
-0.301684454692804
30
0
41
1
10
11.2167947747196
20
-0.306145453798109
30
0
41
1
10
11.2921593820356
20
-0.314163386023608
30
0
41
1
10
11.3297360724389
20
-0.317725065648716
30
0
41
1
10
11.3854005138776
20
-0.321753904772237
30
0
41
1
10
11.403855529943
20
-0.322876673905029
30
0
41
1
10
11.4405128455448
20
-0.324487662952038
30
0
41
1
10
11.4587165340475
20
-0.324980947161691
30
0
41
1
10
11.4767455840037
20
-0.324980947161691
30
0
0
SPLINE
5
145
100
AcDbEntity
8
1
62
256
6
ByLayer
370
18
48
1
60
0
100
AcDbSpline
70
4
71
3
72
8
73
4
40
0
40
0
40
0
40
0
40
1
40
1
40
1
40
1
41
1
10
11.0276281961116
20
-0.282277540606458
30
0
41
1
10
11.0118395197766
20
-0.271487560575792
30
0
41
1
10
10.9960440478665
20
-0.260728153479562
30
0
41
1
10
10.9802416290831
20
-0.25
30
0
0
SPLINE
5
146
100
AcDbEntity
8
1
62
256
6
ByLayer
370
18
48
1
60
0
100
AcDbSpline
70
4
71
3
72
18
73
14
40
0
40
0
40
0
40
0
40
0.125000000000006
40
0.125000000000006
40
0.250000000000012
40
0.250000000000012
40
0.500000000000011
40
0.500000000000011
40
0.625000000000005
40
0.625000000000005
40
0.749999999999999
40
0.749999999999999
40
1
40
1
40
1
40
1
41
1
10
11.6224972601399
20
-0.324980947161663
30
0
41
1
10
11.6192703907151
20
-0.324980947161663
30
0
41
1
10
11.6154439919953
20
-0.324317343478441
30
0
41
1
10
11.6069612897688
20
-0.321956226105357
30
0
41
1
10
11.602269896615
20
-0.320249995981385
30
0
41
1
10
11.5871602352551
20
-0.313833832995215
30
0
41
1
10
11.576065685278
20
-0.308011887553732
30
0
41
1
10
11.5583323750177
20
-0.297626089548913
30
0
41
1
10
11.5522495768641
20
-0.293887591674519
30
0
41
1
10
11.5399996913608
20
-0.286061631183884
30
0
41
1
10
11.533800706262
20
-0.281955461569027
30
0
41
1
10
11.5150061950698
20
-0.269118079601725
30
0
41
1
10
11.5022154752707
20
-0.259874306686129
30
0
41
1
10
11.4891887427026
20
-0.25
30
0
0
SPLINE
5
147
100
AcDbEntity
8
1
62
256
6
ByLayer
370
18
48
1
60
0
100
AcDbSpline
70
4
71
2
72
6
73
3
40
0
40
0
40
0
40
1
40
1
40
1
41
1
10
11.7003488338351
20
-0.324980947161691
30
0
41
1
10
11.6623357600101
20
-0.324980947161691
30
0
41
1
10
11.6225385935649
20
-0.324980947161691
30
0
0
SPLINE
5
148
100
AcDbEntity
8
1
62
256
6
ByLayer
370
18
48
1
60
0
100
AcDbSpline
70
4
71
3
72
20
73
16
40
0
40
0
40
0
40
0
40
0.249999999999989
40
0.249999999999989
40
0.374999999999991
40
0.374999999999991
40
0.499999999999993
40
0.499999999999993
40
0.624999999999995
40
0.624999999999995
40
0.749999999999996
40
0.749999999999996
40
0.874999999999998
40
0.874999999999998
40
1
40
1
40
1
40
1
41
1
10
11.6684781235838
20
-0.249999999999915
30
0
41
1
10
11.6767867414206
20
-0.259734549354079
30
0
41
1
10
11.6843676251665
20
-0.269228281522629
30
0
41
1
10
11.6941070170369
20
-0.282819409469283
30
0
41
1
10
11.6970181369881
20
-0.287157299177181
30
0
41
1
10
11.7020757146846
20
-0.295395783281549
30
0
41
1
10
11.70423462607
20
-0.299327912698914
30
0
41
1
10
11.7075283622337
20
-0.306433565607506
30
0
41
1
10
11.7086811012233
20
-0.309627561895638
30
0
41
1
10
11.709905560238
20
-0.315233151109652
30
0
41
1
10
11.7099565341409
20
-0.317602526875618
30
0
41
1
10
11.7089593394717
20
-0.321329216849307
30
0
41
1
10
11.7079143112223
20
-0.322720644458258
30
0
41
1
10
11.7047744349767
20
-0.324556906143442
30
0
41
1
10
11.7027276586107
20
-0.32498065502682
30
0
41
1
10
11.7002715671113
20
-0.324980947011881
30
0
0
SPLINE
5
149
100
AcDbEntity
8
1
62
256
6
ByLayer
370
18
48
1
60
0
100
AcDbSpline
70
4
71
3
72
20
73
16
40
0
40
0
40
0
40
0
40
0.125000000000002
40
0.125000000000002
40
0.250000000000004
40
0.250000000000004
40
0.375000000000006
40
0.375000000000006
40
0.500000000000007
40
0.500000000000007
40
0.625000000000009
40
0.625000000000009
40
0.750000000000011
40
0.750000000000011
40
1
40
1
40
1
40
1
41
1
10
12.1092848975574
20
-0.324980947087255
30
0
41
1
10
12.107254044376
20
-0.324981196953928
30
0
41
1
10
12.1045810907115
20
-0.324340880433709
30
0
41
1
10
12.0983483013897
20
-0.322018168166267
30
0
41
1
10
12.0947757469597
20
-0.320340999940072
30
0
41
1
10
12.0868485278645
20
-0.316102421478263
30
0
41
1
10
12.0824979881206
20
-0.31353891412266
30
0
41
1
10
12.0733790323531
20
-0.307803069518741
30
0
41
1
10
12.0685783551001
20
-0.304613503251545
30
0
41
1
10
12.0585602905132
20
-0.29767751332821
30
0
41
1
10
12.0533120633888
20
-0.293907347526101
30
0
41
1
10
12.0426436032128
20
-0.286012629843469
30
0
41
1
10
12.0372126933245
20
-0.281882103214599
30
0
41
1
10
12.020666805848
20
-0.269007950892956
30
0
41
1
10
12.009301763559
20
-0.259787645928668
30
0
41
1
10
11.9976433210011
20
-0.25
30
0
0
SPLINE
5
14A
100
AcDbEntity
8
1
62
256
6
ByLayer
370
18
48
1
60
0
100
AcDbSpline
70
4
71
2
72
6
73
3
40
0
40
0
40
0
40
1
40
1
40
1
41
1
10
12.1591777306887
20
-0.324980947161691
30
0
41
1
10
12.1351086225604
20
-0.324980947161691
30
0
41
1
10
12.1093895093787
20
-0.324980947161691
30
0
0
SPLINE
5
14B
100
AcDbEntity
8
1
62
256
6
ByLayer
370
18
48
1
60
0
100
AcDbSpline
70
4
71
3
72
22
73
18
40
0
40
0
40
0
40
0
40
0.125
40
0.125
40
0.25
40
0.25
40
0.375
40
0.375
40
0.5
40
0.5
40
0.625
40
0.625
40
0.75
40
0.75
40
0.875
40
0.875
40
1
40
1
40
1
40
1
41
1
10
12.112447912294
20
-0.249999999999943
30
0
41
1
10
12.1167868703034
20
-0.254854742203293
30
0
41
1
10
12.1209776473745
20
-0.259636419717196
30
0
41
1
10
12.1290217080621
20
-0.269034144111373
30
0
41
1
10
12.1328661856318
20
-0.273641363100268
30
0
41
1
10
12.1400065186708
20
-0.282471564406677
30
0
41
1
10
12.1433230755429
20
-0.286718169404963
30
0
41
1
10
12.1493691551654
20
-0.294822935140644
30
0
41
1
10
12.1521174610557
20
-0.298711369994777
30
0
41
1
10
12.1567559307757
20
-0.305797443053109
30
0
41
1
10
12.1586618746924
20
-0.309011980465471
30
0
41
1
10
12.1615434185313
20
-0.314703920460204
30
0
41
1
10
12.1624968318173
20
-0.317151650447101
30
0
41
1
10
12.1633272609604
20
-0.321050353590891
30
0
41
1
10
12.1632184611248
20
-0.322535308026602
30
0
41
1
10
12.1619178742491
20
-0.32451233325267
30
0
41
1
10
12.160748914312
20
-0.324980744910022
30
0
41
1
10
12.1591123242011
20
-0.324980947096634
30
0
0
SPLINE
5
14C
100
AcDbEntity
8
1
62
256
6
ByLayer
370
18
48
1
60
0
100
AcDbSpline
70
4
71
3
72
8
73
4
40
0
40
0
40
0
40
0
40
1
40
1
40
1
40
1
41
1
10
37.0296405722342
20
15.5724470733755
30
0
41
1
10
36.9716318236949
20
15.5433942916478
30
0
41
1
10
36.9135555350636
20
15.5146119880153
30
0
41
1
10
36.85529560683
20
15.4865651066841
30
0
0
SPLINE
5
14D
100
AcDbEntity
8
1
62
256
6
ByLayer
370
18
48
1
60
0
100
AcDbSpline
70
4
71
3
72
18
73
14
40
0
40
0
40
0
40
0
40
0.124999999999994
40
0.124999999999994
40
0.249999999999988
40
0.249999999999988
40
0.374999999999982
40
0.374999999999982
40
0.499999999999976
40
0.499999999999976
40
0.749999999999988
40
0.749999999999988
40
1
40
1
40
1
40
1
41
1
10
37.101840422853
20
15.7141541618853
30
0
41
1
10
37.1018926683248
20
15.7063412558949
30
0
41
1
10
37.101496560426
20
15.6985990474172
30
0
41
1
10
37.0998264150128
20
15.6832530646614
30
0
41
1
10
37.0985354414691
20
15.6755937671613
30
0
41
1
10
37.0951437826564
20
15.660847623111
30
0
41
1
10
37.0930462221996
20
15.6537256867932
30
0
41
1
10
37.088065931569
20
15.6399726503825
30
0
41
1
10
37.0851552362727
20
15.6332900906609
30
0
41
1
10
37.0753968077177
20
15.6144027407771
30
0
41
1
10
37.067661678857
20
15.6034788625566
30
0
41
1
10
37.0497884316359
20
15.5848904844146
30
0
41
1
10
37.0400545697497
20
15.5776627624629
30
0
41
1
10
37.0296405722342
20
15.5724470733755
30
0
0
SPLINE
5
14E
100
AcDbEntity
8
1
62
256
6
ByLayer
370
18
48
1
60
0
100
AcDbSpline
70
4
71
2
72
6
73
3
40
0
40
0
40
0
40
1
40
1
40
1
41
0.500000604127249
10
37.0981561488097
20
16.2640840152329
30
0
41
0.499999395872751
10
37.1000006060434
20
15.9892845278588
30
0
41
0.500000604127249
10
37.1018404228531
20
15.7141541618859
30
0
0
SPLINE
5
14F
100
AcDbEntity
8
1
62
256
6
ByLayer
370
18
48
1
60
0
100
AcDbSpline
70
4
71
3
72
18
73
14
40
0
40
0
40
0
40
0
40
0.124999999999989
40
0.124999999999989
40
0.249999999999979
40
0.249999999999979
40
0.374999999999968
40
0.374999999999968
40
0.499999999999957
40
0.499999999999957
40
0.749999999999979
40
0.749999999999979
40
1
40
1
40
1
40
1
41
1
10
37.0239180567825
20
16.4042791260638
30
0
41
1
10
37.0291823139451
20
16.4017744791502
30
0
41
1
10
37.034274673423
20
16.3987580624326
30
0
41
1
10
37.0441154989903
20
16.3917013975702
30
0
41
1
10
37.0488964234998
20
16.3876268356541
30
0
41
1
10
37.0579196206119
20
16.3785646823819
30
0
41
1
10
37.0621488940681
20
16.3736024910595
30
0
41
1
10
37.0700441799407
20
16.3628180003102
30
0
41
1
10
37.0737270536198
20
16.3569642540852
30
0
41
1
10
37.0837626795538
20
16.3382361191844
30
0
41
1
10
37.0889477360469
20
16.3245942590137
30
0
41
1
10
37.0961862395414
20
16.2949440720169
30
0
41
1
10
37.0980512258644
20
16.2797161323995
30
0
41
1
10
37.0981561488097
20
16.2640840152325
30
0
0
SPLINE
5
150
100
AcDbEntity
8
1
62
256
6
ByLayer
370
18
48
1
60
0
100
AcDbSpline
70
4
71
3
72
8
73
4
40
0
40
0
40
0
40
0
40
1
40
1
40
1
40
1
41
1
10
36.8477314186088
20
16.4865418397759
30
0
41
1
10
36.906611653033
20
16.4597600006335
30
0
41
1
10
36.9653001439804
20
16.4321685641841
30
0
41
1
10
37.0239180567825
20
16.4042791260638
30
0
0
SPLINE
5
151
100
AcDbEntity
8
1
62
256
6
ByLayer
370
18
48
1
60
0
100
AcDbSpline
70
4
71
3
72
12
73
8
40
0
40
0
40
0
40
0
40
0.250000000000002
40
0.250000000000002
40
0.500000000000004
40
0.500000000000004
40
1
40
1
40
1
40
1
41
1
10
36.6584321714309
20
17.7080700720904
30
0
41
1
10
36.675863935114
20
17.6067952516799
30
0
41
1
10
36.692576533936
20
17.5052769256374
30
0
41
1
10
36.7251783088307
20
17.3020040326333
30
0
41
1
10
36.7410584564604
20
17.2002405914947
30
0
41
1
10
36.7878947143841
20
16.8947075356986
30
0
41
1
10
36.8180675410927
20
16.6907014974603
30
0
41
1
10
36.8477314186088
20
16.4865418397759
30
0
0
SPLINE
5
152
100
AcDbEntity
8
1
62
256
6
ByLayer
370
18
48
1
60
0
100
AcDbSpline
70
4
71
3
72
12
73
8
40
0
40
0
40
0
40
0
40
0.279915818468183
40
0.279915818468183
40
0.559831636936366
40
0.559831636936366
40
1
40
1
40
1
40
1
41
1
10
-12.0881936018054
20
-0.324980947161663
30
0
41
1
10
-12.0724293033973
20
-0.324980947161293
30
0
41
1
10
-12.0563145906413
20
-0.324140031765523
30
0
41
1
10
-12.0236224935398
20
-0.321432392161768
30
0
41
1
10
-12.0070405445916
20
-0.319553049457142
30
0
41
1
10
-11.9639178530068
20
-0.313755279179219
30
0
41
1
10
-11.9370513372839
20
-0.309281617071292
30
0
41
1
10
-11.9100841610085
20
-0.304203938282711
30
0
0
SPLINE
5
153
100
AcDbEntity
8
1
62
256
6
ByLayer
370
18
48
1
60
0
100
AcDbSpline
70
4
71
3
72
30
73
26
40
0
40
0
40
0
40
0
40
0.125000000000001
40
0.125000000000001
40
0.187499999999999
40
0.187499999999999
40
0.249999999999997
40
0.312499999999995
40
0.312499999999995
40
0.374999999999993
40
0.374999999999993
40
0.499999999999993
40
0.499999999999993
40
0.562499999999995
40
0.562499999999995
40
0.624999999999997
40
0.624999999999997
40
0.75
40
0.75
40
0.8125
40
0.8125
40
0.875
40
0.9375
40
0.9375
40
1
40
1
40
1
40
1
41
1
10
14.272209428644
20
1.375
30
0
41
1
10
14.2500924484084
20
1.375
30
0
41
1
10
14.228053699137
20
1.37184524071961
30
0
41
1
10
14.1951172651323
20
1.3622058076956
30
0
41
1
10
14.1842805696398
20
1.35819977622589
30
0
41
1
10
14.1630634368024
20
1.34871346430882
30
0
41
1
10
14.1422433458066
20
1.33773568501192
30
0
41
1
10
14.1222102940526
20
1.32380143303922
30
0
41
1
10
14.1025786481296
20
1.30835932058403
30
0
41
1
10
14.0929217374853
20
1.29983613365201
30
0
41
1
10
14.0651466136047
20
1.27248836972282
30
0
41
1
10
14.0480577833705
20
1.25181459491549
30
0
41
1
10
14.0245361050739
20
1.21719287109173
30
0
41
1
10
14.0170426658869
20
1.20503309945985
30
0
41
1
10
14.0028208549019
20
1.1795100605984
30
0
41
1
10
13.9961964711147
20
1.16633606881322
30
0
41
1
10
13.9777334498802
20
1.12561858730163
30
0
41
1
10
13.9672917115965
20
1.09689080860974
30
0
41
1
10
13.9544812855652
20
1.0513810655664
30
0
41
1
10
13.9506889336861
20
1.03576751393891
30
0
41
1
10
13.9442346739122
20
1.00440493730767
30
0
41
1
10
13.9388591445105
20
0.972745582927615
30
0
41
1
10
13.9356027931514
20
0.940503205296352
30
0
41
1
10
13.9334176768782
20
0.907966112001759
30
0
41
1
10
13.9328610188872
20
0.891489880359217
30
0
41
1
10
13.9328610188872
20
0.875
30
0
0
SPLINE
5
154
100
AcDbEntity
8
1
62
256
6
ByLayer
370
18
48
1
60
0
100
AcDbSpline
70
4
71
3
72
46
73
42
40
0
40
0
40
0
40
0
40
0.0624999999999974
40
0.0781249999999961
40
0.0781249999999961
40
0.0937499999999948
40
0.0937499999999948
40
0.124999999999995
40
0.124999999999995
40
0.187499999999996
40
0.187499999999996
40
0.218749999999996
40
0.218749999999996
40
0.234374999999997
40
0.234374999999997
40
0.249999999999999
40
0.249999999999999
40
0.312500000000003
40
0.312500000000003
40
0.375000000000007
40
0.390625000000007
40
0.390625000000007
40
0.406250000000006
40
0.406250000000006
40
0.437500000000005
40
0.437500000000005
40
0.500000000000004
40
0.500000000000004
40
0.562500000000003
40
0.562500000000003
40
0.625000000000002
40
0.625000000000002
40
0.749999999999998
40
0.749999999999998
40
0.781249999999999
40
0.781249999999999
40
0.8125
40
0.8125
40
0.875
40
0.875
40
1
40
1
40
1
40
1
41
1
10
25.4999999999998
20
14.8287398947301
30
0
41
1
10
25.4999999999998
20
14.8872472949332
30
0
41
1
10
25.5034753069826
20
14.9602203203111
30
0
41
1
10
25.5117384644322
20
15.0329712298873
30
0
41
1
10
25.5154413980109
20
15.0620531451626
30
0
41
1
10
25.5174953357404
20
15.0766092584191
30
0
41
1
10
25.5242249920685
20
15.1199612787655
30
0
41
1
10
25.529472744846
20
15.1484995127304
30
0
41
1
10
25.5475165813184
20
15.2330169428943
30
0
41
1
10
25.5626056494615
20
15.2879024892101
30
0
41
1
10
25.5900251723801
20
15.3679481409476
30
0
41
1
10
25.5999644938688
20
15.39424870881
30
0
41
1
10
25.6161155565798
20
15.4331071443877
30
0
41
1
10
25.6217208074917
20
15.4459917065484
30
0
41
1
10
25.6332621986585
20
15.4713605147446
30
0
41
1
10
25.6391998905441
20
15.4838520218121
30
0
41
1
10
25.6697065647087
20
15.5453644392583
30
0
41
1
10
25.6967221779275
20
15.5915592520715
30
0
41
1
10
25.7556821124811
20
15.6782557387042
30
0
41
1
10
25.7956141001563
20
15.7288809989858
30
0
41
1
10
25.8393113307051
20
15.7751570362013
30
0
41
1
10
25.8570926285506
20
15.7933181430699
30
0
41
1
10
25.8661393965849
20
15.802227798029
30
0
41
1
10
25.8934953490454
20
15.8282169570221
30
0
41
1
10
25.9120948450066
20
15.8446364631033
30
0
41
1
10
25.9689101131322
20
15.8913499031202
30
0
41
1
10
26.0081391470215
20
15.9191075659448
30
0
41
1
10
26.0890349574443
20
15.9685210364732
30
0
41
1
10
26.1307046578484
20
15.9901745904258
30
0
41
1
10
26.216311027214
20
16.0277870262532
30
0
41
1
10
26.2595153107303
20
16.0434302103438
30
0
41
1
10
26.390175374925
20
16.0821015182481
30
0
41
1
10
26.4786683253061
20
16.0969506034414
30
0
41
1
10
26.5907331051827
20
16.1040884782508
30
0
41
1
10
26.6132619183148
20
16.1049379981899
30
0
41
1
10
26.6582330121651
20
16.1055113071195
30
0
41
1
10
26.680658473426
20
16.1052376519909
30
0
41
1
10
26.747764323889
20
16.1028264328184
30
0
41
1
10
26.792274633615
20
16.0991028471618
30
0
41
1
10
26.9251830202278
20
16.0821267691391
30
0
41
1
10
27.0129631342024
20
16.0631116618038
30
0
41
1
10
27.1000000000007
20
16.0371656319469
30
0
0
SPLINE
5
155
100
AcDbEntity
8
1
62
256
6
ByLayer
370
18
48
1
60
0
100
AcDbSpline
70
4
71
3
72
22
73
18
40
0
40
0
40
0
40
0
40
0.125000000000003
40
0.125000000000003
40
0.187500000000003
40
0.187500000000003
40
0.250000000000002
40
0.250000000000002
40
0.375000000000003
40
0.375000000000003
40
0.500000000000004
40
0.500000000000004
40
0.625000000000005
40
0.625000000000005
40
0.750000000000006
40
0.750000000000006
40
1
40
1
40
1
40
1
41
1
10
-19
20
0.875000000000369
30
0
41
1
10
-19
20
0.886739396505504
30
0
41
1
10
-19
20
0.898334933247412
30
0
41
1
10
-19
20
0.915526319994314
30
0
41
1
10
-19
20
0.921249839664796
30
0
41
1
10
-19
20
0.932382397268725
30
0
41
1
10
-19
20
0.937818025288578
30
0
41
1
10
-19
20
0.953779495961811
30
0
41
1
10
-19
20
0.963962002739862
30
0
41
1
10
-19
20
0.983590258656619
30
0
41
1
10
-19
20
0.993066633922297
30
0
41
1
10
-19
20
1.01103989558169
30
0
41
1
10
-19
20
1.01958933386419
30
0
41
1
10
-19
20
1.03599807149254
30
0
41
1
10
-19
20
1.04387864715071
30
0
41
1
10
-19
20
1.06647334031416
30
0
41
1
10
-19
20
1.08016731983292
30
0
41
1
10
-19
20
1.09294494717704
30
0
0
SPLINE
5
156
100
AcDbEntity
8
1
62
256
6
ByLayer
370
18
48
1
60
0
100
AcDbSpline
70
4
71
3
72
17
73
13
40
0
40
0
40
0
40
0
40
0.125000000000001
40
0.125000000000001
40
0.250000000000002
40
0.250000000000002
40
0.500000000000002
40
0.75
40
0.75
40
0.875
40
0.875
40
1
40
1
40
1
40
1
41
1
10
13.235222578539
20
1.1019498610386
30
0
41
1
10
13.2321935483699
20
1.09318855767597
30
0
41
1
10
13.2293203218475
20
1.08423466879822
30
0
41
1
10
13.2239543142364
20
1.06613922486676
30
0
41
1
10
13.2214653348583
20
1.05701600373575
30
0
41
1
10
13.2145677418627
20
1.02942479564717
30
0
41
1
10
13.2068853819296
20
0.992047219944482
30
0
41
1
10
13.2021935309542
20
0.953505971538249
30
0
41
1
10
13.199828648195
20
0.924150986363628
30
0
41
1
10
13.1992333220498
20
0.91426735684496
30
0
41
1
10
13.1984461533015
20
0.894599019382014
30
0
41
1
10
13.19825125937
20
0.884788104788328
30
0
41
1
10
13.19825125937
20
0.875000000000085
30
0
0
SPLINE
5
157
100
AcDbEntity
8
1
62
256
6
ByLayer
370
18
48
1
60
0
100
AcDbSpline
70
4
71
3
72
18
73
14
40
0
40
0
40
0
40
0
40
0.125
40
0.125
40
0.250000000000001
40
0.250000000000001
40
0.5
40
0.5
40
0.749999999999999
40
0.749999999999999
40
0.875
40
0.875
40
1
40
1
40
1
40
1
41
1
10
11.008951354588
20
1.375
30
0
41
1
10
11.1024043261518
20
1.375
30
0
41
1
10
11.1957087125228
20
1.37255596513185
30
0
41
1
10
11.3820854841408
20
1.36385177599385
30
0
41
1
10
11.4751574989197
20
1.35758552800058
30
0
41
1
10
11.7540946265054
20
1.33419896304537
30
0
41
1
10
11.939683050875
20
1.31252747798851
30
0
41
1
10
12.3103884324468
20
1.26142948077404
30
0
41
1
10
12.4955020109838
20
1.23194739392957
30
0
41
1
10
12.7729840888848
20
1.18462713747374
30
0
41
1
10
12.8654466157606
20
1.16833559921221
30
0
41
1
10
13.0503435121644
20
1.13528937061892
30
0
41
1
10
13.1427773011428
20
1.11852513099282
30
0
41
1
10
13.2352225785401
20
1.10194986104807
30
0
0
SPLINE
5
158
100
AcDbEntity
8
1
62
256
6
ByLayer
370
18
48
1
60
0
100
AcDbSpline
70
4
71
3
72
29
73
25
40
0
40
0
40
0
40
0
40
0.0312500000000007
40
0.0312500000000007
40
0.0390625000000007
40
0.0390625000000007
40
0.0468750000000007
40
0.0625000000000007
40
0.0625000000000007
40
0.125000000000001
40
0.125000000000001
40
0.250000000000001
40
0.250000000000001
40
0.5
40
0.5
40
0.625
40
0.625
40
0.75
40
0.75
40
0.875
40
0.875
40
0.9375
40
0.9375
40
1
40
1
40
1
40
1
41
1
10
4.27170925976944
20
1.375
30
0
41
1
10
4.22741708030421
20
1.375
30
0
41
1
10
4.18311521228611
20
1.37474466629501
30
0
41
1
10
4.12772677047062
20
1.37413278892913
30
0
41
1
10
4.11662214905542
20
1.37399551069433
30
0
41
1
10
4.09427422884423
20
1.37368997305902
30
0
41
1
10
4.06075558069162
20
1.37318797124104
30
0
41
1
10
4.02724641447105
20
1.37255778395618
30
0
41
1
10
3.9155693592561
20
1.37018454364463
30
0
41
1
10
3.82629208870634
20
1.36741568963569
30
0
41
1
10
3.55862276249422
20
1.35691250020776
30
0
41
1
10
3.38039235477672
20
1.34699285937802
30
0
41
1
10
2.84615367628121
20
1.3111160225001
30
0
41
1
10
2.49060296760774
20
1.27897308159913
30
0
41
1
10
1.95751260839614
20
1.22757220977638
30
0
41
1
10
1.77985535969111
20
1.20990407890304
30
0
41
1
10
1.42447169103707
20
1.17550293757336
30
0
41
1
10
1.24674643474305
20
1.15875419576076
30
0
41
1
10
0.891013924382435
20
1.12906901707234
30
0
41
1
10
0.713004743019667
20
1.11615863515703
30
0
41
1
10
0.445564863653289
20
1.10255357249485
30
0
41
1
10
0.356363876266812
20
1.09898704843107
30
0
41
1
10
0.178116206561867
20
1.09418171358328
30
0
41
1
10
0.0890353225494209
20
1.09294494717704
30
0
41
1
10
0
20
1.09294494717704
30
0
0
SPLINE
5
159
100
AcDbEntity
8
1
62
256
6
ByLayer
370
18
48
1
60
0
100
AcDbSpline
70
4
71
3
72
18
73
14
40
0
40
0
40
0
40
0
40
0.25
40
0.25
40
0.5
40
0.5
40
0.625
40
0.625
40
0.75
40
0.75
40
0.875
40
0.875
40
1
40
1
40
1
40
1
41
1
10
-18.0287287527199
20
-0.249980947161589
30
0
41
1
10
-18.0203801250128
20
-0.259705568661019
30
0
41
1
10
-18.0127640730215
20
-0.269146074866086
30
0
41
1
10
-17.9995385373246
20
-0.287244191447456
30
0
41
1
10
-17.9942059657753
20
-0.2955286581508
30
0
41
1
10
-17.9888303130257
20
-0.306287723333213
30
0
41
1
10
-17.98753960481
20
-0.309477182072811
30
0
41
1
10
-17.9859863111476
20
-0.315040220045688
30
0
41
1
10
-17.9857248510136
20
-0.317423789181305
30
0
41
1
10
-17.9863130485071
20
-0.321261305045226
30
0
41
1
10
-17.9871484850687
20
-0.322665110889972
30
0
41
1
10
-17.9898118920066
20
-0.324527026171893
30
0
41
1
10
-17.9916613950634
20
-0.324980947161691
30
0
41
1
10
-17.9939249199246
20
-0.324980947161691
30
0
0
SPLINE
5
15A
100
AcDbEntity
8
1
62
256
6
ByLayer
370
18
48
1
60
0
100
AcDbSpline
70
4
71
3
72
8
73
4
40
0
40
0
40
0
40
0
40
1
40
1
40
1
40
1
41
1
10
-18.5812482082592
20
0.394519052838319
30
0
41
1
10
-18.397239110843
20
0.179580238590802
30
0
41
1
10
-18.2130708182976
20
-0.0352562190928438
30
0
41
1
10
-18.0287287527199
20
-0.249980947161561
30
0
0
SPLINE
5
15B
100
AcDbEntity
8
1
62
256
6
ByLayer
370
18
48
1
60
0
100
AcDbSpline
70
4
71
3
72
35
73
31
40
0
40
0
40
0
40
0
40
0.125000000000001
40
0.125000000000001
40
0.250000000000001
40
0.250000000000001
40
0.375000000000002
40
0.375000000000002
40
0.4375
40
0.4375
40
0.499999999999998
40
0.499999999999998
40
0.562499999999995
40
0.562499999999995
40
0.624999999999993
40
0.624999999999993
40
0.656249999999992
40
0.656249999999992
40
0.687499999999991
40
0.718749999999991
40
0.718749999999991
40
0.74999999999999
40
0.74999999999999
40
0.812499999999992
40
0.812499999999992
40
0.874999999999995
40
0.874999999999995
40
0.937499999999997
40
0.937499999999997
40
1
40
1
40
1
40
1
41
1
10
-18.4739743524117
20
0.394519052838319
30
0
41
1
10
-18.4870076534492
20
0.40467771428311
30
0
41
1
10
-18.4998072213004
20
0.41425738730112
30
0
41
1
10
-18.5248961876862
20
0.432166599792794
30
0
41
1
10
-18.5371877874604
20
0.44050144479246
30
0
41
1
10
-18.5611262051355
20
0.455603749929821
30
0
41
1
10
-18.5724254375322
20
0.462153942749694
30
0
41
1
10
-18.5880536600985
20
0.470032587577066
30
0
41
1
10
-18.5930715511233
20
0.472341317897843
30
0
41
1
10
-18.6023316428988
20
0.476059968224234
30
0
41
1
10
-18.6065924280455
20
0.477483071167541
30
0
41
1
10
-18.61424480329
20
0.479301674402052
30
0
41
1
10
-18.6176614101842
20
0.479690478088912
30
0
41
1
10
-18.6231992909744
20
0.479203435856874
30
0
41
1
10
-18.6253491347405
20
0.478344329635576
30
0
41
1
10
-18.6275127386324
20
0.475998666709387
30
0
41
1
10
-18.6280515637346
20
0.475037860517887
30
0
41
1
10
-18.6287334483274
20
0.47280285105478
30
0
41
1
10
-18.6290306236999
20
0.470245036757745
30
0
41
1
10
-18.6285640542785
20
0.467045659082999
30
0
41
1
10
-18.6277115578637
20
0.463521717329655
30
0
41
1
10
-18.6270871066253
20
0.461588002934661
30
0
41
1
10
-18.624692905213
20
0.455453171617592
30
0
41
1
10
-18.6224018034917
20
0.450883639903509
30
0
41
1
10
-18.6165835561629
20
0.440889135534377
30
0
41
1
10
-18.6130868726058
20
0.435525392193966
30
0
41
1
10
-18.6052856511485
20
0.424440528495324
30
0
41
1
10
-18.6009563118815
20
0.418678369205168
30
0
41
1
10
-18.5915551587891
20
0.4067724130702
30
0
41
1
10
-18.5865153525356
20
0.400671540737704
30
0
41
1
10
-18.5812482082592
20
0.394519052838319
30
0
0
SPLINE
5
15C
100
AcDbEntity
8
1
62
256
6
ByLayer
370
18
48
1
60
0
100
AcDbSpline
70
4
71
3
72
8
73
4
40
0
40
0
40
0
40
0
40
1
40
1
40
1
40
1
41
1
10
-17.6355675589552
20
-0.249980947161674
30
0
41
1
10
-17.9167965179605
20
-0.0368647817199701
30
0
41
1
10
-18.1962122396723
20
0.17802046530457
30
0
41
1
10
-18.4739743524117
20
0.394519052838319
30
0
0
SPLINE
5
15D
100
AcDbEntity
8
1
62
256
6
ByLayer
370
18
48
1
60
0
100
AcDbSpline
70
4
71
3
72
16
73
12
40
0
40
0
40
0
40
0
40
0.124999999999989
40
0.124999999999989
40
0.249999999999978
40
0.249999999999978
40
0.499999999999986
40
0.499999999999986
40
0.749999999999993
40
0.749999999999993
40
1
40
1
40
1
40
1
41
1
10
-17.5000603949205
20
-0.32498094716351
30
0
41
1
10
-17.5034531652321
20
-0.32498094716334
30
0
41
1
10
-17.5073995575774
20
-0.324343825065853
30
0
41
1
10
-17.516211201762
20
-0.322010582254791
30
0
41
1
10
-17.5210964025256
20
-0.320298706549949
30
0
41
1
10
-17.5364170579665
20
-0.313999603466158
30
0
41
1
10
-17.5477048511587
20
-0.308216513563508
30
0
41
1
10
-17.5716642128454
20
-0.294401957912299
30
0
41
1
10
-17.5840274375988
20
-0.286548128378229
30
0
41
1
10
-17.6093593126197
20
-0.26935695362036
30
0
41
1
10
-17.6223873763713
20
-0.259968929843211
30
0
41
1
10
-17.6355675589552
20
-0.249980947161674
30
0
0
SPLINE
5
15E
100
AcDbEntity
8
1
62
256
6
ByLayer
370
18
48
1
60
0
100
AcDbSpline
70
4
71
3
72
22
73
18
40
0
40
0
40
0
40
0
40
0.125
40
0.125
40
0.25
40
0.25
40
0.375
40
0.375
40
0.5
40
0.5
40
0.625
40
0.625
40
0.75
40
0.75
40
0.875
40
0.875
40
1
40
1
40
1
40
1
41
1
10
-17.4382636790639
20
-0.249980947161532
30
0
41
1
10
-17.4341690345688
20
-0.254867676870248
30
0
41
1
10
-17.4302867485268
20
-0.259694172525712
30
0
41
1
10
-17.4230138932383
20
-0.269207361992926
30
0
41
1
10
-17.4196040003651
20
-0.273922123855868
30
0
41
1
10
-17.4134737102217
20
-0.283050307925606
30
0
41
1
10
-17.4107831734637
20
-0.287415492847487
30
0
41
1
10
-17.4062510968043
20
-0.295693994296243
30
0
41
1
10
-17.4043952993558
20
-0.299650731135898
30
0
41
1
10
-17.4017898508421
20
-0.306767870244073
30
0
41
1
10
-17.4010281714754
20
-0.309930304132877
30
0
41
1
10
-17.4006235085082
20
-0.315434288950485
30
0
41
1
10
-17.4009999617451
20
-0.317791201698924
30
0
41
1
10
-17.4028560532314
20
-0.321456739983034
30
0
41
1
10
-17.4043205947448
20
-0.322797204013625
30
0
41
1
10
-17.4082400976542
20
-0.324567600424018
30
0
41
1
10
-17.4106764673078
20
-0.324980947161691
30
0
41
1
10
-17.4134725186275
20
-0.324980947161691
30
0
0
SPLINE
5
15F
100
AcDbEntity
8
1
62
256
6
ByLayer
370
18
48
1
60
0
100
AcDbSpline
70
4
71
3
72
8
73
4
40
0
40
0
40
0
40
0
40
1
40
1
40
1
40
1
41
1
10
-17.9778880275984
20
0.394519052838319
30
0
41
1
10
-17.7980999976783
20
0.179631242401683
30
0
41
1
10
-17.6182278533523
20
-0.0352037478078557
30
0
41
1
10
-17.4382636790639
20
-0.249980947161504
30
0
0
SPLINE
5
160
100
AcDbEntity
8
1
62
256
6
ByLayer
370
18
48
1
60
0
100
AcDbSpline
70
4
71
3
72
32
73
28
40
0
40
0
40
0
40
0
40
0.124999999999998
40
0.124999999999998
40
0.249999999999997
40
0.249999999999997
40
0.312499999999999
40
0.312499999999999
40
0.375000000000002
40
0.375000000000002
40
0.499999999999992
40
0.499999999999992
40
0.562499999999993
40
0.562499999999993
40
0.624999999999994
40
0.624999999999994
40
0.687499999999995
40
0.687499999999995
40
0.749999999999996
40
0.749999999999996
40
0.812499999999997
40
0.812499999999997
40
0.874999999999998
40
0.874999999999998
40
0.937499999999999
40
0.937499999999999
40
1
40
1
40
1
40
1
41
1
10
-17.8422547739246
20
0.394519052838319
30
0
41
1
10
-17.8560258583049
20
0.404520298715681
30
0
41
1
10
-17.8696032737994
20
0.413929027723412
30
0
41
1
10
-17.8963439997889
20
0.431494872861293
30
0
41
1
10
-17.9095086622445
20
0.439656005426087
30
0
41
1
10
-17.9288752363966
20
0.450757410418703
30
0
41
1
10
-17.9352728578613
20
0.454267026879989
30
0
41
1
10
-17.9476703393397
20
0.460711222123479
30
0
41
1
10
-17.9537005653584
20
0.46366412377742
30
0
41
1
10
-17.9712128917084
20
0.471599262198481
30
0
41
1
10
-17.9822334827617
20
0.475699253576352
30
0
41
1
10
-17.9962669091183
20
0.478921245725019
30
0
41
1
10
-18.0005541852456
20
0.479519553246576
30
0
41
1
10
-18.008147229582
20
0.479518551809349
30
0
41
1
10
-18.011339731184
20
0.478915980909278
30
0
41
1
10
-18.0163291232035
20
0.476337856270049
30
0
41
1
10
-18.0181293379942
20
0.474316428364631
30
0
41
1
10
-18.0199708816204
20
0.468918723610557
30
0
41
1
10
-18.0200531724044
20
0.465548906874716
30
0
41
1
10
-18.0184789084955
20
0.457414202766614
30
0
41
1
10
-18.0168366824856
20
0.45276514253942
30
0
41
1
10
-18.0120969825224
20
0.442603577620275
30
0
41
1
10
-18.0089580969637
20
0.437021951453488
30
0
41
1
10
-18.0016666684293
20
0.425517957988518
30
0
41
1
10
-17.9974945596912
20
0.419543766457821
30
0
41
1
10
-17.988265511424
20
0.407220741848732
30
0
41
1
10
-17.9832116767568
20
0.400882031017034
30
0
41
1
10
-17.9778880275984
20
0.394519052838319
30
0
0
SPLINE
5
161
100
AcDbEntity
8
1
62
256
6
ByLayer
370
18
48
1
60
0
100
AcDbSpline
70
4
71
3
72
8
73
4
40
0
40
0
40
0
40
0
40
1
40
1
40
1
40
1
41
1
10
-16.9397539363789
20
-0.249980947161674
30
0
41
1
10
-17.2427061894618
20
-0.0373726821929097
30
0
41
1
10
-17.5434740859654
20
0.177529668330379
30
0
41
1
10
-17.8422547739246
20
0.394519052838319
30
0
0
SPLINE
5
162
100
AcDbEntity
8
1
62
256
6
ByLayer
370
18
48
1
60
0
100
AcDbSpline
70
4
71
3
72
18
73
14
40
0
40
0
40
0
40
0
40
0.124999999999989
40
0.124999999999989
40
0.249999999999978
40
0.249999999999978
40
0.499999999999973
40
0.499999999999973
40
0.624999999999977
40
0.624999999999977
40
0.749999999999981
40
0.749999999999981
40
1
40
1
40
1
40
1
41
1
10
-16.7870313841584
20
-0.324980947167205
30
0
41
1
10
-16.791342106785
20
-0.324980947166722
30
0
41
1
10
-16.7961881593911
20
-0.324327948262379
30
0
41
1
10
-16.8067373608678
20
-0.321974304028231
30
0
41
1
10
-16.8124756598324
20
-0.320254548459019
30
0
41
1
10
-16.8302474035175
20
-0.313940007976839
30
0
41
1
10
-16.8429780756196
20
-0.308195138262704
30
0
41
1
10
-16.8630506740278
20
-0.297879915890746
30
0
41
1
10
-16.8698793452217
20
-0.294164224961349
30
0
41
1
10
-16.8835836043086
20
-0.286352873803736
30
0
41
1
10
-16.8904897614687
20
-0.282241375851697
30
0
41
1
10
-16.9113560136088
20
-0.269346955069722
30
0
41
1
10
-16.9254620768257
20
-0.260010803126988
30
0
41
1
10
-16.9397539363789
20
-0.249980947161674
30
0
0
SPLINE
5
163
100
AcDbEntity
8
1
62
256
6
ByLayer
370
18
48
1
60
0
100
AcDbSpline
70
4
71
3
72
22
73
18
40
0
40
0
40
0
40
0
40
0.125
40
0.125
40
0.25
40
0.25
40
0.375
40
0.375
40
0.5
40
0.5
40
0.625
40
0.625
40
0.75
40
0.75
40
0.875
40
0.875
40
1
40
1
40
1
40
1
41
1
10
-16.6928433719953
20
-0.249980947161418
30
0
41
1
10
-16.6887857444674
20
-0.254908553871502
30
0
41
1
10
-16.6849705694704
20
-0.259790857720077
30
0
41
1
10
-16.6779149533852
20
-0.26944782393528
30
0
41
1
10
-16.6746501619329
20
-0.274263633559656
30
0
41
1
10
-16.668997911571
20
-0.283500347574631
30
0
41
1
10
-16.666600016134
20
-0.287927339757033
30
0
41
1
10
-16.6627981564321
20
-0.296336048834661
30
0
41
1
10
-16.6614063262736
20
-0.300325602141925
30
0
41
1
10
-16.6598747052286
20
-0.307395135076661
30
0
41
1
10
-16.6597043062066
20
-0.31053181254066
30
0
41
1
10
-16.6606077625794
20
-0.315971261589283
30
0
41
1
10
-16.6616850913993
20
-0.318214129968481
30
0
41
1
10
-16.6649110617957
20
-0.321701165436622
30
0
41
1
10
-16.6670940108751
20
-0.322977219047687
30
0
41
1
10
-16.6722914023283
20
-0.324610296155299
30
0
41
1
10
-16.6752935883738
20
-0.324980947162004
30
0
41
1
10
-16.6786305280169
20
-0.324980947162004
30
0
0
SPLINE
5
164
100
AcDbEntity
8
1
62
256
6
ByLayer
370
18
48
1
60
0
100
AcDbSpline
70
4
71
3
72
8
73
4
40
0
40
0
40
0
40
0
40
1
40
1
40
1
40
1
41
1
10
-17.2234180953955
20
0.394519052838319
30
0
41
1
10
-17.0465893021273
20
0.179667539911037
30
0
41
1
10
-16.8697319891465
20
-0.0351663712000629
30
0
41
1
10
-16.6928433719954
20
-0.249980947161418
30
0
0
SPLINE
5
165
100
AcDbEntity
8
1
62
256
6
ByLayer
370
18
48
1
60
0
100
AcDbSpline
70
4
71
3
72
36
73
32
40
0
40
0
40
0
40
0
40
0.125000000000005
40
0.125000000000005
40
0.25000000000001
40
0.25000000000001
40
0.312500000000007
40
0.312500000000007
40
0.375000000000005
40
0.375000000000005
40
0.437500000000001
40
0.437500000000001
40
0.499999999999998
40
0.499999999999998
40
0.562499999999995
40
0.562499999999995
40
0.624999999999992
40
0.624999999999992
40
0.687499999999989
40
0.687499999999989
40
0.749999999999986
40
0.749999999999986
40
0.812499999999983
40
0.812499999999983
40
0.843749999999989
40
0.843749999999989
40
0.874999999999994
40
0.874999999999994
40
0.937499999999997
40
0.937499999999997
40
1
40
1
40
1
40
1
41
1
10
-17.0559192792914
20
0.394519052838319
30
0
41
1
10
-17.0705982671182
20
0.404362834404878
30
0
41
1
10
-17.0851178275437
20
0.413601630101539
30
0
41
1
10
-17.1138227275755
20
0.430828338333697
30
0
41
1
10
-17.1280088688477
20
0.438819193995471
30
0
41
1
10
-17.1489899980216
20
0.449699392425316
30
0
41
1
10
-17.1559606335937
20
0.4531526058731
30
0
41
1
10
-17.1696501918301
20
0.459564811699522
30
0
41
1
10
-17.1763456356655
20
0.462514412437883
30
0
41
1
10
-17.1894003078252
20
0.467836120126378
30
0
41
1
10
-17.1957600056047
20
0.470209044019242
30
0
41
1
10
-17.2080807163957
20
0.474269475598959
30
0
41
1
10
-17.2140546329025
20
0.475956566440431
30
0
41
1
10
-17.2252235244482
20
0.478415526060701
30
0
41
1
10
-17.2304549202225
20
0.479202477171327
30
0
41
1
10
-17.2400467319688
20
0.479682312363281
30
0
41
1
10
-17.2444294871586
20
0.479360097418436
30
0
41
1
10
-17.2517430897208
20
0.477362054351346
30
0
41
1
10
-17.2547315718806
20
0.475687856197624
30
0
41
1
10
-17.2589862605905
20
0.470736049652856
30
0
41
1
10
-17.2601800791641
20
0.467549883255174
30
0
41
1
10
-17.2606310932113
20
0.459699767510244
30
0
41
1
10
-17.2598443353929
20
0.454972489546776
30
0
41
1
10
-17.2572903989193
20
0.447204211494579
30
0
41
1
10
-17.2562136678002
20
0.444488571355805
30
0
41
1
10
-17.2536321914573
20
0.438817281238812
30
0
41
1
10
-17.2521200375701
20
0.435851492444527
30
0
41
1
10
-17.2470990805785
20
0.4268335141021
30
0
41
1
10
-17.2430846030587
20
0.420595456700227
30
0
41
1
10
-17.2339746722671
20
0.407751827534497
30
0
41
1
10
-17.2288630059653
20
0.401134758640808
30
0
41
1
10
-17.2234180953955
20
0.394519052838348
30
0
0
SPLINE
5
166
100
AcDbEntity
8
1
62
256
6
ByLayer
370
18
48
1
60
0
100
AcDbSpline
70
4
71
3
72
8
73
4
40
0
40
0
40
0
40
0
40
1
40
1
40
1
40
1
41
1
10
-16.0747405491863
20
-0.249980947161674
30
0
41
1
10
-16.4043614902331
20
-0.0380721567194087
30
0
41
1
10
-16.7313392866229
20
0.176854552642254
30
0
41
1
10
-17.0559192792914
20
0.394519052838319
30
0
0
SPLINE
5
167
100
AcDbEntity
8
1
62
256
6
ByLayer
370
18
48
1
60
0
100
AcDbSpline
70
4
71
3
72
18
73
14
40
0
40
0
40
0
40
0
40
0.125000000000008
40
0.125000000000008
40
0.250000000000017
40
0.250000000000017
40
0.500000000000034
40
0.500000000000034
40
0.625000000000026
40
0.625000000000026
40
0.750000000000017
40
0.750000000000017
40
1
40
1
40
1
40
1
41
1
10
-15.9014694779915
20
-0.3249809471763
30
0
41
1
10
-15.9068347284255
20
-0.324980947175277
30
0
41
1
10
-15.9127047740947
20
-0.324317621812298
30
0
41
1
10
-15.9252257328505
20
-0.321961956424673
30
0
41
1
10
-15.9319250958335
20
-0.320249195654498
30
0
41
1
10
-15.9524998074369
20
-0.313959742985048
30
0
41
1
10
-15.9669425794261
20
-0.308258872530075
30
0
41
1
10
-15.9893960442947
20
-0.298066963277279
30
0
41
1
10
-15.9970463709325
20
-0.294372260744638
30
0
41
1
10
-16.0124072411958
20
-0.286558897961356
30
0
41
1
10
-16.0201229062703
20
-0.28243976752168
30
0
41
1
10
-16.0433670810145
20
-0.269500582045311
30
0
41
1
10
-16.0589915323881
20
-0.260105774454985
30
0
41
1
10
-16.0747405491863
20
-0.249980947161674
30
0
0
SPLINE
5
168
100
AcDbEntity
8
1
62
256
6
ByLayer
370
18
48
1
60
0
100
AcDbSpline
70
4
71
3
72
24
73
20
40
0
40
0
40
0
40
0
40
0.124999999999989
40
0.124999999999989
40
0.249999999999978
40
0.249999999999978
40
0.374999999999967
40
0.374999999999967
40
0.499999999999956
40
0.499999999999956
40
0.562499999999951
40
0.562499999999951
40
0.624999999999946
40
0.624999999999946
40
0.749999999999964
40
0.749999999999964
40
0.874999999999982
40
0.874999999999982
40
1
40
1
40
1
40
1
41
1
10
-15.7705104401658
20
-0.249980947161219
30
0
41
1
10
-15.7664409806213
20
-0.254963799579315
30
0
41
1
10
-15.7626505409949
20
-0.259920539419568
30
0
41
1
10
-15.7557515288527
20
-0.269770044953589
30
0
41
1
10
-15.7526342009609
20
-0.274688047466299
30
0
41
1
10
-15.7474658460834
20
-0.284082327184649
30
0
41
1
10
-15.7453822187738
20
-0.288598514860155
30
0
41
1
10
-15.7424161976405
20
-0.297195434075917
30
0
41
1
10
-15.7415893741885
20
-0.30113726110136
30
0
41
1
10
-15.7413685370152
20
-0.306412502500422
30
0
41
1
10
-15.7414634919665
20
-0.308069754760112
30
0
41
1
10
-15.7419978988112
20
-0.311177247757087
30
0
41
1
10
-15.7424416837273
20
-0.312630120683394
30
0
41
1
10
-15.744244201702
20
-0.316565770116426
30
0
41
1
10
-15.7460732175954
20
-0.31867350402598
30
0
41
1
10
-15.7508356082857
20
-0.321978291223502
30
0
41
1
10
-15.75373219378
20
-0.323141681747728
30
0
41
1
10
-15.7602441134992
20
-0.32463826070034
30
0
41
1
10
-15.7638772192612
20
-0.324980947161663
30
0
41
1
10
-15.7678282405415
20
-0.324980947161663
30
0
0
SPLINE
5
169
100
AcDbEntity
8
1
62
256
6
ByLayer
370
18
48
1
60
0
100
AcDbSpline
70
4
71
3
72
8
73
4
40
0
40
0
40
0
40
0
40
1
40
1
40
1
40
1
41
1
10
-16.2968648471025
20
0.394519052838319
30
0
41
1
10
-16.1214142561082
20
0.179685181728644
30
0
41
1
10
-15.9459628164259
20
-0.0351481695532812
30
0
41
1
10
-15.7705104401659
20
-0.249980947161191
30
0
0
SPLINE
5
16A
100
AcDbEntity
8
1
62
256
6
ByLayer
370
18
48
1
60
0
100
AcDbSpline
70
4
71
3
72
37
73
33
40
0
40
0
40
0
40
0
40
0.125000000000014
40
0.125000000000014
40
0.250000000000028
40
0.250000000000028
40
0.312500000000026
40
0.312500000000026
40
0.375000000000024
40
0.375000000000024
40
0.437500000000022
40
0.437500000000022
40
0.500000000000021
40
0.500000000000021
40
0.562500000000019
40
0.562500000000019
40
0.625000000000017
40
0.625000000000017
40
0.687500000000015
40
0.687500000000015
40
0.718750000000014
40
0.718750000000014
40
0.750000000000013
40
0.781250000000012
40
0.781250000000012
40
0.812500000000011
40
0.812500000000011
40
0.875000000000007
40
0.875000000000007
40
0.937500000000004
40
0.937500000000004
40
1
40
1
40
1
40
1
41
1
10
-16.0923183384426
20
0.394519052838319
30
0
41
1
10
-16.1081403501313
20
0.404200256657845
30
0
41
1
10
-16.1238313712992
20
0.413265662151645
30
0
41
1
10
-16.1549439718491
20
0.430149685211973
30
0
41
1
10
-16.1703660028168
20
0.437970340595513
30
0
41
1
10
-16.1932654366168
20
0.448629773409038
30
0
41
1
10
-16.2008593510069
20
0.452002917468832
30
0
41
1
10
-16.2159579026447
20
0.458340102413388
30
0
41
1
10
-16.2234519279944
20
0.461297908650863
30
0
41
1
10
-16.2380890158211
20
0.466647495179046
30
0
41
1
10
-16.245260980452
20
0.469052204399844
30
0
41
1
10
-16.2592633136992
20
0.473231268390492
30
0
41
1
10
-16.2661219864907
20
0.475012423208597
30
0
41
1
10
-16.2792863978668
20
0.477766429622619
30
0
41
1
10
-16.2855515578539
20
0.478734012847497
30
0
41
1
10
-16.2973118227789
20
0.479672125908735
30
0
41
1
10
-16.3028162984544
20
0.479645941417374
30
0
41
1
10
-16.3127801679192
20
0.478272438753095
30
0
41
1
10
-16.3170998390114
20
0.476943943677298
30
0
41
1
10
-16.3223498902317
20
0.473755976422041
30
0
41
1
10
-16.3239027532794
20
0.472480345157834
30
0
41
1
10
-16.3264777974483
20
0.469527657879866
30
0
41
1
10
-16.3285222818147
20
0.466190067695862
30
0
41
1
10
-16.3294707477644
20
0.462056024846504
30
0
41
1
10
-16.3298403401063
20
0.457500657007216
30
0
41
1
10
-16.3297288331335
20
0.454989178748832
30
0
41
1
10
-16.3285186876843
20
0.44706044623743
30
0
41
1
10
-16.3265623504638
20
0.441180005305654
30
0
41
1
10
-16.3206481840525
20
0.428496905157545
30
0
41
1
10
-16.316807646128
20
0.421921670112624
30
0
41
1
10
-16.3077594567695
20
0.408408203381782
30
0
41
1
10
-16.3025219331033
20
0.401445981256501
30
0
41
1
10
-16.2968648471025
20
0.394519052838319
30
0
0
SPLINE
5
16B
100
AcDbEntity
8
1
62
256
6
ByLayer
370
18
48
1
60
0
100
AcDbSpline
70
4
71
3
72
8
73
4
40
0
40
0
40
0
40
0
40
1
40
1
40
1
40
1
41
1
10
-15.0113058733159
20
-0.249980947161674
30
0
41
1
10
-15.3747684041203
20
-0.0390788144742373
30
0
41
1
10
-15.7350028490323
20
0.175884144148966
30
0
41
1
10
-16.0923183384426
20
0.394519052838319
30
0
0
SPLINE
5
16C
100
AcDbEntity
8
1
62
256
6
ByLayer
370
18
48
1
60
0
100
AcDbSpline
70
4
71
3
72
18
73
14
40
0
40
0
40
0
40
0
40
0.125000000000002
40
0.125000000000002
40
0.250000000000003
40
0.250000000000003
40
0.500000000000006
40
0.500000000000006
40
0.625000000000003
40
0.625000000000003
40
0.749999999999999
40
0.749999999999999
40
1
40
1
40
1
40
1
41
1
10
-14.8124623350353
20
-0.324980947161691
30
0
41
1
10
-14.8191040881758
20
-0.324980947161009
30
0
41
1
10
-14.8262013671261
20
-0.324309054638235
30
0
41
1
10
-14.8410729561888
20
-0.321962674102565
30
0
41
1
10
-14.8488745658275
20
-0.320277142050088
30
0
41
1
10
-14.8729727659273
20
-0.31400004023601
30
0
41
1
10
-14.8895680346605
20
-0.308329666237881
30
0
41
1
10
-14.9150208402985
20
-0.298248546839886
30
0
41
1
10
-14.9236014290334
20
-0.294617357588265
30
0
41
1
10
-14.9409404746337
20
-0.286855545448702
30
0
41
1
10
-14.9497206956231
20
-0.282713288346656
30
0
41
1
10
-14.976052688455
20
-0.26969847336872
30
0
41
1
10
-14.9936550910215
20
-0.260222959237126
30
0
41
1
10
-15.0113058733159
20
-0.249980947161674
30
0
0
SPLINE
5
16D
100
AcDbEntity
8
1
62
256
6
ByLayer
370
18
48
1
60
0
100
AcDbSpline
70
4
71
3
72
22
73
18
40
0
40
0
40
0
40
0
40
0.125
40
0.125
40
0.25
40
0.25
40
0.375
40
0.375
40
0.5
40
0.5
40
0.625
40
0.625
40
0.75
40
0.75
40
0.875
40
0.875
40
1
40
1
40
1
40
1
41
1
10
-14.6378611567674
20
-0.249980947160765
30
0
41
1
10
-14.6337062695904
20
-0.255043416118525
30
0
41
1
10
-14.6298767351538
20
-0.260106240331453
30
0
41
1
10
-14.6230472637204
20
-0.270232753743471
30
0
41
1
10
-14.6200843263832
20
-0.275257691632021
30
0
41
1
10
-14.6154489910775
20
-0.284851965514861
30
0
41
1
10
-14.6137386426708
20
-0.289478184913406
30
0
41
1
10
-14.6118264888769
20
-0.298252416364676
30
0
41
1
10
-14.6116726799336
20
-0.302184420737689
30
0
41
1
10
-14.6129132685258
20
-0.309168004887198
30
0
41
1
10
-14.6143452457558
20
-0.312233712057065
30
0
41
1
10
-14.6185013101192
20
-0.317228993892542
30
0
41
1
10
-14.6212507120715
20
-0.319223339349236
30
0
41
1
10
-14.6276897795995
20
-0.322264257201539
30
0
41
1
10
-14.6313455176698
20
-0.323311967656196
30
0
41
1
10
-14.6393339813921
20
-0.324671544088858
30
0
41
1
10
-14.6436861637691
20
-0.324980947161691
30
0
41
1
10
-14.6482797132064
20
-0.324980947161691
30
0
0
SPLINE
5
16E
100
AcDbEntity
8
1
62
256
6
ByLayer
370
18
48
1
60
0
100
AcDbSpline
70
4
71
3
72
8
73
4
40
0
40
0
40
0
40
0
40
1
40
1
40
1
40
1
41
1
10
-15.1667226783067
20
0.394519052838319
30
0
41
1
10
-14.9904557633516
20
0.179673252606676
30
0
41
1
10
-14.8141693177328
20
-0.035160531136512
30
0
41
1
10
-14.6378611567676
20
-0.249980947160765
30
0
0
SPLINE
5
16F
100
AcDbEntity
8
1
62
256
6
ByLayer
370
18
48
1
60
0
100
AcDbSpline
70
4
71
3
72
32
73
28
40
0
40
0
40
0
40
0
40
0.124999999999994
40
0.124999999999994
40
0.249999999999988
40
0.249999999999988
40
0.374999999999982
40
0.374999999999982
40
0.437499999999983
40
0.437499999999983
40
0.499999999999984
40
0.499999999999984
40
0.624999999999985
40
0.624999999999985
40
0.749999999999987
40
0.749999999999987
40
0.812499999999987
40
0.812499999999987
40
0.843749999999988
40
0.843749999999988
40
0.874999999999988
40
0.874999999999988
40
0.906249999999988
40
0.906249999999988
40
0.937499999999989
40
0.937499999999989
40
1
40
1
40
1
40
1
41
1
10
-14.917139020263
20
0.394519052838319
30
0
41
1
10
-14.9344476298749
20
0.404023486860524
30
0
41
1
10
-14.951670326529
20
0.412916838420955
30
0
41
1
10
-14.985940144602
20
0.429481867193488
30
0
41
1
10
-15.0029874868118
20
0.437155024368053
30
0
41
1
10
-15.0368825566627
20
0.451126841449934
30
0
41
1
10
-15.0538143213152
20
0.457452343825082
30
0
41
1
10
-15.0784542027497
20
0.465437639459168
30
0
41
1
10
-15.086556340249
20
0.467854927845565
30
0
41
1
10
-15.1025031675837
20
0.472121922114553
30
0
41
1
10
-15.1103771446343
20
0.473978062194675
30
0
41
1
10
-15.1333232050906
20
0.478462496419667
30
0
41
1
10
-15.1475864856647
20
0.480042909231599
30
0
41
1
10
-15.1728315270451
20
0.478697351337104
30
0
41
1
10
-15.1839406355279
20
0.475624193230942
30
0
41
1
10
-15.1935543889026
20
0.465213977477276
30
0
41
1
10
-15.1955157054795
20
0.460889148266347
30
0
41
1
10
-15.1962909719604
20
0.452906798019313
30
0
41
1
10
-15.1961750258383
20
0.450020940609448
30
0
41
1
10
-15.1952286606578
20
0.443978379701605
30
0
41
1
10
-15.1944011683871
20
0.440798728334443
30
0
41
1
10
-15.1920700953782
20
0.434136718479124
30
0
41
1
10
-15.1905606996569
20
0.430654502661866
30
0
41
1
10
-15.1870296219919
20
0.423643516063777
30
0
41
1
10
-15.1849986360634
20
0.420084952291035
30
0
41
1
10
-15.1782123037365
20
0.409270385922156
30
0
41
1
10
-15.1727363465437
20
0.401848910316261
30
0
41
1
10
-15.1667226783068
20
0.394519052838319
30
0
0
SPLINE
5
170
100
AcDbEntity
8
1
62
256
6
ByLayer
370
18
48
1
60
0
100
AcDbSpline
70
4
71
3
72
8
73
4
40
0
40
0
40
0
40
0
40
1
40
1
40
1
40
1
41
1
10
-13.7033325990741
20
-0.249980947161674
30
0
41
1
10
-14.1118090101191
20
-0.0406200174700473
30
0
41
1
10
-14.5162787786963
20
0.174400290933079
30
0
41
1
10
-14.917139020263
20
0.394519052838319
30
0
0
SPLINE
5
171
100
AcDbEntity
8
1
62
256
6
ByLayer
370
18
48
1
60
0
100
AcDbSpline
70
4
71
3
72
18
73
14
40
0
40
0
40
0
40
0
40
0.124999999999994
40
0.124999999999994
40
0.249999999999988
40
0.249999999999988
40
0.49999999999999
40
0.49999999999999
40
0.624999999999987
40
0.624999999999987
40
0.749999999999984
40
0.749999999999984
40
1
40
1
40
1
40
1
41
1
10
-13.4707590466833
20
-0.324980947161663
30
0
41
1
10
-13.4790426143305
20
-0.324980947160924
30
0
41
1
10
-13.4877484855215
20
-0.324300247940755
30
0
41
1
10
-13.5057756944861
20
-0.321941256519949
30
0
41
1
10
-13.5151490437596
20
-0.320245771405467
30
0
41
1
10
-13.5435827809818
20
-0.3140236442012
30
0
41
1
10
-13.5629742414692
20
-0.308403963315669
30
0
41
1
10
-13.5925288496342
20
-0.298384525187089
30
0
41
1
10
-13.6024606690834
20
-0.294771964935876
30
0
41
1
10
-13.6224734316684
20
-0.287040580432603
30
0
41
1
10
-13.6325784400979
20
-0.282910887998582
30
0
41
1
10
-13.6628952175061
20
-0.269878476907678
30
0
41
1
10
-13.6831105541848
20
-0.260345575335549
30
0
41
1
10
-13.7033325990741
20
-0.249980947161674
30
0
0
SPLINE
5
172
100
AcDbEntity
8
1
62
256
6
ByLayer
370
18
48
1
60
0
100
AcDbSpline
70
4
71
3
72
24
73
20
40
0
40
0
40
0
40
0
40
0.124999999999986
40
0.124999999999986
40
0.249999999999971
40
0.249999999999971
40
0.374999999999957
40
0.374999999999957
40
0.437499999999961
40
0.437499999999961
40
0.499999999999966
40
0.499999999999966
40
0.624999999999974
40
0.624999999999974
40
0.749999999999983
40
0.749999999999983
40
0.874999999999991
40
0.874999999999991
40
1
40
1
40
1
40
1
41
1
10
-13.2410331525235
20
-0.249980947159685
30
0
41
1
10
-13.2366717680853
20
-0.255161360763538
30
0
41
1
10
-13.2326950507481
20
-0.260385226271268
30
0
41
1
10
-13.2258016845266
20
-0.270931072699625
30
0
41
1
10
-13.2229993581938
20
-0.276081925994362
30
0
41
1
10
-13.2189684212771
20
-0.286084946206699
30
0
41
1
10
-13.2177598928941
20
-0.291002174949767
30
0
41
1
10
-13.2174600076951
20
-0.29758040757747
30
0
41
1
10
-13.217599246198
20
-0.299659982289512
30
0
41
1
10
-13.2183530563978
20
-0.303593932941084
30
0
41
1
10
-13.2189756245217
20
-0.305461994607015
30
0
41
1
10
-13.2214983554681
20
-0.310608205530826
30
0
41
1
10
-13.2240247330258
20
-0.313435949905653
30
0
41
1
10
-13.2304155523804
20
-0.318099627225706
30
0
41
1
10
-13.2341732063759
20
-0.319865449819161
30
0
41
1
10
-13.2425039387842
20
-0.322573447462219
30
0
41
1
10
-13.2471064545221
20
-0.323514290699364
30
0
41
1
10
-13.2568419376322
20
-0.324717378813944
30
0
41
1
10
-13.2619500759375
20
-0.324980947164164
30
0
41
1
10
-13.2672449924391
20
-0.324980947164107
30
0
0
SPLINE
5
173
100
AcDbEntity
8
1
62
256
6
ByLayer
370
18
48
1
60
0
100
AcDbSpline
70
4
71
3
72
8
73
4
40
0
40
0
40
0
40
0
40
1
40
1
40
1
40
1
41
1
10
-13.7830022040408
20
0.394519052838319
30
0
41
1
10
-13.6024787330431
20
0.179601914328856
30
0
41
1
10
-13.4218277113966
20
-0.0352347798379355
30
0
41
1
10
-13.2410331525239
20
-0.24998094715977
30
0
0
SPLINE
5
174
100
AcDbEntity
8
1
62
256
6
ByLayer
370
18
48
1
60
0
100
AcDbSpline
70
4
71
3
72
42
73
38
40
0
40
0
40
0
40
0
40
0.125
40
0.125
40
0.249999999999999
40
0.249999999999999
40
0.374999999999999
40
0.374999999999999
40
0.437500000000002
40
0.437500000000002
40
0.500000000000006
40
0.500000000000006
40
0.56250000000001
40
0.56250000000001
40
0.625000000000014
40
0.625000000000014
40
0.687500000000018
40
0.687500000000018
40
0.718750000000016
40
0.718750000000016
40
0.750000000000014
40
0.750000000000014
40
0.781250000000013
40
0.781250000000013
40
0.812500000000011
40
0.812500000000011
40
0.843750000000009
40
0.843750000000009
40
0.875000000000007
40
0.875000000000007
40
0.906250000000005
40
0.906250000000005
40
0.937500000000004
40
0.937500000000004
40
0.968750000000002
40
0.968750000000002
40
1
40
1
40
1
40
1
41
1
10
-13.4751387226226
20
0.394519052838348
30
0
41
1
10
-13.4944974298941
20
0.403824970923949
30
0
41
1
10
-13.5137682733054
20
0.412506876021638
30
0
41
1
10
-13.5521351294637
20
0.428655124456242
30
0
41
1
10
-13.5712312469642
20
0.436122125516334
30
0
41
1
10
-13.6092315701573
20
0.449732644727959
30
0
41
1
10
-13.6281363869181
20
0.455880681945132
30
0
41
1
10
-13.6563165838365
20
0.463875283141988
30
0
41
1
10
-13.6657097944521
20
0.466339640870586
30
0
41
1
10
-13.68417823702
20
0.470721421207799
30
0
41
1
10
-13.6932733156991
20
0.472646210690215
30
0
41
1
10
-13.7111381361335
20
0.475871029240125
30
0
41
1
10
-13.7199085658052
20
0.477172418009957
30
0
41
1
10
-13.7370460781938
20
0.478996684936675
30
0
41
1
10
-13.7454473674279
20
0.479522794198147
30
0
41
1
10
-13.7615565883783
20
0.479515271737995
30
0
41
1
10
-13.7691954443652
20
0.478988680249955
30
0
41
1
10
-13.7797908223149
20
0.477107910049227
30
0
41
1
10
-13.7831870871887
20
0.476291703406076
30
0
41
1
10
-13.7894934249633
20
0.474249515499508
30
0
41
1
10
-13.7924190564528
20
0.47302260592582
30
0
41
1
10
-13.7977338238776
20
0.470082361169176
30
0
41
1
10
-13.8001238000058
20
0.468369794664795
30
0
41
1
10
-13.8042436244571
20
0.464344813194259
30
0
41
1
10
-13.8059545012143
20
0.462033278761908
30
0
41
1
10
-13.8084586467166
20
0.456907376408793
30
0
41
1
10
-13.8092739842408
20
0.454074887423445
30
0
41
1
10
-13.8099296361508
20
0.447806989829843
30
0
41
1
10
-13.8097574303534
20
0.444470345874578
30
0
41
1
10
-13.8084729692142
20
0.437445286657436
30
0
41
1
10
-13.8073470724843
20
0.433719731071363
30
0
41
1
10
-13.8042548936939
20
0.42607571628605
30
0
41
1
10
-13.8023108722539
20
0.42219152204089
30
0
41
1
10
-13.7977493603533
20
0.414317667809627
30
0
41
1
10
-13.7951158494948
20
0.410309926271566
30
0
41
1
10
-13.7893940390956
20
0.40238146501062
30
0
41
1
10
-13.786296163494
20
0.398440583573262
30
0
41
1
10
-13.7830022040414
20
0.394519052838263
30
0
0
SPLINE
5
175
100
AcDbEntity
8
1
62
256
6
ByLayer
370
18
48
1
60
0
100
AcDbSpline
70
4
71
3
72
8
73
4
40
0
40
0
40
0
40
0
40
1
40
1
40
1
40
1
41
1
10
-12.0715924641051
20
-0.249980947161674
30
0
41
1
10
-12.5443782285905
20
-0.0432112314598498
30
0
41
1
10
-13.0120515832121
20
0.171908579658265
30
0
41
1
10
-13.4751387226226
20
0.394519052838319
30
0
0
SPLINE
5
176
100
AcDbEntity
8
1
62
256
6
ByLayer
370
18
48
1
60
0
100
AcDbSpline
70
4
71
3
72
18
73
14
40
0
40
0
40
0
40
0
40
0.125000000000002
40
0.125000000000002
40
0.250000000000003
40
0.250000000000003
40
0.375000000000005
40
0.375000000000005
40
0.500000000000006
40
0.500000000000006
40
0.750000000000003
40
0.750000000000003
40
1
40
1
40
1
40
1
41
1
10
-11.7904053433561
20
-0.324980947161691
30
0
41
1
10
-11.8009857587865
20
-0.324980947161123
30
0
41
1
10
-11.8119141236754
20
-0.324294680904728
30
0
41
1
10
-11.8342604401862
20
-0.321948179201343
30
0
41
1
10
-11.8456816009172
20
-0.320281751592603
30
0
41
1
10
-11.868919781421
20
-0.316156259594692
30
0
41
1
10
-11.8806546577429
20
-0.313709166632691
30
0
41
1
10
-11.9041624897105
20
-0.308214039015723
30
0
41
1
10
-11.9159624072422
20
-0.305160068139657
30
0
41
1
10
-11.95148223962
20
-0.29519330724861
30
0
41
1
10
-11.9753205267178
20
-0.287485958052685
30
0
41
1
10
-12.0232815266328
20
-0.270170993163305
30
0
41
1
10
-12.0474840624247
20
-0.260524596602778
30
0
41
1
10
-12.0715924641051
20
-0.249980947161674
30
0
0
SPLINE
5
177
100
AcDbEntity
8
1
62
256
6
ByLayer
370
18
48
1
60
0
100
AcDbSpline
70
4
71
3
72
26
73
22
40
0
40
0
40
0
40
0
40
0.0625000000000099
40
0.0625000000000099
40
0.12500000000002
40
0.12500000000002
40
0.250000000000026
40
0.250000000000026
40
0.312500000000032
40
0.312500000000032
40
0.375000000000038
40
0.375000000000038
40
0.437500000000043
40
0.437500000000043
40
0.500000000000049
40
0.500000000000049
40
0.625000000000027
40
0.625000000000027
40
0.750000000000005
40
0.750000000000005
40
1
40
1
40
1
40
1
41
1
10
-11.4840297216474
20
-0.2499809471567
30
0
41
1
10
-11.4816286657575
20
-0.252662809483013
30
0
41
1
10
-11.4793484168762
20
-0.255372625405698
30
0
41
1
10
-11.4750796198067
20
-0.260859831188952
30
0
41
1
10
-11.4730842221144
20
-0.263650244245781
30
0
41
1
10
-11.4677646288332
20
-0.271946319953031
30
0
41
1
10
-11.4650456356642
20
-0.277434891804376
30
0
41
1
10
-11.4627060576781
20
-0.285534684117294
30
0
41
1
10
-11.4622438677764
20
-0.288130022310526
30
0
41
1
10
-11.4619653550609
20
-0.293107796327661
30
0
41
1
10
-11.4621533183068
20
-0.295506817538978
30
0
41
1
10
-11.4631780671403
20
-0.300007083328836
30
0
41
1
10
-11.4640022960698
20
-0.302081589349513
30
0
41
1
10
-11.4662023413252
20
-0.305919505641953
30
0
41
1
10
-11.4675918046275
20
-0.307694451502499
30
0
41
1
10
-11.4723994241289
20
-0.312493707308533
30
0
41
1
10
-11.4764176812268
20
-0.315011270866336
30
0
41
1
10
-11.4855788711065
20
-0.3190997144346
30
0
41
1
10
-11.4906901155618
20
-0.320641072370194
30
0
41
1
10
-11.5067742702653
20
-0.324111897520851
30
0
41
1
10
-11.5186972392776
20
-0.324980947161748
30
0
41
1
10
-11.5311526233312
20
-0.324980947161748
30
0
0
SPLINE
5
178
100
AcDbEntity
8
1
62
256
6
ByLayer
370
18
48
1
60
0
100
AcDbSpline
70
4
71
3
72
8
73
4
40
0
40
0
40
0
40
0
40
1
40
1
40
1
40
1
41
1
10
-12.0587239255455
20
0.394519052838319
30
0
41
1
10
-11.8676217953063
20
0.179376344705133
30
0
41
1
10
-11.6760787809167
20
-0.0354715144199815
30
0
41
1
10
-11.4840297216482
20
-0.249980947156956
30
0
0
SPLINE
5
179
100
AcDbEntity
8
1
62
256
6
ByLayer
370
18
48
1
60
0
100
AcDbSpline
70
4
71
3
72
32
73
28
40
0
40
0
40
0
40
0
40
0.249999999999995
40
0.249999999999995
40
0.374999999999993
40
0.374999999999993
40
0.49999999999999
40
0.49999999999999
40
0.624999999999988
40
0.624999999999988
40
0.687499999999992
40
0.687499999999992
40
0.749999999999996
40
0.749999999999996
40
0.8125
40
0.8125
40
0.84375
40
0.84375
40
0.875
40
0.875
40
0.90625
40
0.90625
40
0.9375
40
0.9375
40
0.96875
40
0.96875
40
1
40
1
40
1
40
1
41
1
10
-11.6678057336413
20
0.394519052838405
30
0
41
1
10
-11.7127397678169
20
0.41266167405351
30
0
41
1
10
-11.7573384013257
20
0.428385440091915
30
0
41
1
10
-11.8237114343644
20
0.448288569619422
30
0
41
1
10
-11.845746713031
20
0.454295911623802
30
0
41
1
10
-11.8896066393101
20
0.464812029230075
30
0
41
1
10
-11.9114326704852
20
0.46933185223088
30
0
41
1
10
-11.95479962995
20
0.476291629724812
30
0
41
1
10
-11.9759294367788
20
0.478686948315044
30
0
41
1
10
-12.0062651822148
20
0.479674902419362
30
0
41
1
10
-12.0162023258966
20
0.479558848744972
30
0
41
1
10
-12.0351157717405
20
0.478062827266314
30
0
41
1
10
-12.0440909421574
20
0.476702313584752
30
0
41
1
10
-12.0605343945399
20
0.472050935714037
30
0
41
1
10
-12.0677998310453
20
0.468833437824344
30
0
41
1
10
-12.0762532119582
20
0.461814512102706
30
0
41
1
10
-12.0786055530974
20
0.459126123836853
30
0
41
1
10
-12.0820678765738
20
0.453040044483913
30
0
41
1
10
-12.0831948388428
20
0.449567033594036
30
0
41
1
10
-12.0839543936443
20
0.442111383170811
30
0
41
1
10
-12.0836171858975
20
0.43812255355823
30
0
41
1
10
-12.0815169303313
20
0.429624814704908
30
0
41
1
10
-12.0797842940736
20
0.42525064573681
30
0
41
1
10
-12.0752352121409
20
0.416407852627799
30
0
41
1
10
-12.07239584525
20
0.411909057921463
30
0
41
1
10
-12.0660531689379
20
0.403129240718585
30
0
41
1
10
-12.0625268109323
20
0.398800339805859
30
0
41
1
10
-12.0587239255501
20
0.394519052837495
30
0
0
SPLINE
5
17A
100
AcDbEntity
8
1
62
256
6
ByLayer
370
18
48
1
60
0
100
AcDbSpline
70
4
71
3
72
8
73
4
40
0
40
0
40
0
40
0
40
1
40
1
40
1
40
1
41
1
10
-9.95818080364235
20
-0.249980947161674
30
0
41
1
10
-10.5346776336162
20
-0.0483216931654624
30
0
41
1
10
-11.1043070714565
20
0.167000136035085
30
0
41
1
10
-11.6678057336413
20
0.394519052838319
30
0
0
SPLINE
5
17B
100
AcDbEntity
8
1
62
256
6
ByLayer
370
18
48
1
60
0
100
AcDbSpline
70
4
71
3
72
18
73
14
40
0
40
0
40
0
40
0
40
0.124999999999998
40
0.124999999999998
40
0.249999999999996
40
0.249999999999996
40
0.374999999999994
40
0.374999999999994
40
0.499999999999992
40
0.499999999999992
40
0.749999999999996
40
0.749999999999996
40
1
40
1
40
1
40
1
41
1
10
-9.59510119943219
20
-0.324980947161663
30
0
41
1
10
-9.60939630151748
20
-0.324980947161464
30
0
41
1
10
-9.6239295812311
20
-0.324297794518799
30
0
41
1
10
-9.65331986464513
20
-0.321987997282719
30
0
41
1
10
-9.66817941641823
20
-0.320354306837686
30
0
41
1
10
-9.69815480400072
20
-0.316330675660282
30
0
41
1
10
-9.71327144979443
20
-0.313938494308843
30
0
41
1
10
-9.74372435458608
20
-0.308500052459749
30
0
41
1
10
-9.75905370529834
20
-0.305452754405337
30
0
41
1
10
-9.80495401068578
20
-0.295505489673701
30
0
41
1
10
-9.83557362085624
20
-0.287787704120774
30
0
41
1
10
-9.89684818743098
20
-0.270391615950899
30
0
41
1
10
-9.92750315018561
20
-0.260712025614936
30
0
41
1
10
-9.95818080364235
20
-0.249980947161788
30
0
0
SPLINE
5
17C
100
AcDbEntity
8
1
62
256
6
ByLayer
370
18
48
1
60
0
100
AcDbSpline
70
4
71
3
72
28
73
24
40
0
40
0
40
0
40
0
40
0.125000000000036
40
0.125000000000036
40
0.187500000000046
40
0.187500000000046
40
0.250000000000057
40
0.250000000000057
40
0.312500000000067
40
0.312500000000067
40
0.375000000000077
40
0.375000000000077
40
0.437500000000087
40
0.437500000000087
40
0.500000000000097
40
0.500000000000097
40
0.562500000000107
40
0.562500000000107
40
0.625000000000118
40
0.625000000000118
40
0.750000000000088
40
0.750000000000088
40
1
40
1
40
1
40
1
41
1
10
-9.16192765463472
20
-0.249980947138766
30
0
41
1
10
-9.15615273719948
20
-0.255600302159451
30
0
41
1
10
-9.15099568342298
20
-0.261428771439654
30
0
41
1
10
-9.14496698035525
20
-0.27073385593485
30
0
41
1
10
-9.14331827787987
20
-0.273832273955748
30
0
41
1
10
-9.14090466831681
20
-0.280021122036175
30
0
41
1
10
-9.14015242917441
20
-0.28313213225735
30
0
41
1
10
-9.13974594268898
20
-0.288994391027103
30
0
41
1
10
-9.1400768539919
20
-0.291811047499152
30
0
41
1
10
-9.14176760795786
20
-0.297056649595362
30
0
41
1
10
-9.1430966205908
20
-0.299433796617109
30
0
41
1
10
-9.14654547282431
20
-0.303785698641434
30
0
41
1
10
-9.14864892647037
20
-0.305731679420518
30
0
41
1
10
-9.15332789905038
20
-0.309190981638437
30
0
41
1
10
-9.15591900108384
20
-0.310721335777487
30
0
41
1
10
-9.16149106763956
20
-0.313472547988169
30
0
41
1
10
-9.16447108844565
20
-0.314689457233726
30
0
41
1
10
-9.17061784845451
20
-0.31683450337357
30
0
41
1
10
-9.17380116993941
20
-0.317770516319001
30
0
41
1
10
-9.18361005093543
20
-0.32025617836365
30
0
41
1
10
-9.19049092912917
20
-0.321487874959075
30
0
41
1
10
-9.21184074493277
20
-0.324296988707999
30
0
41
1
10
-9.22679002986519
20
-0.324980947185395
30
0
41
1
10
-9.24203289084456
20
-0.324980947184287
30
0
0
SPLINE
5
17D
100
AcDbEntity
8
1
62
256
6
ByLayer
370
18
48
1
60
0
100
AcDbSpline
70
4
71
3
72
8
73
4
40
0
40
0
40
0
40
0
40
1
40
1
40
1
40
1
41
1
10
-9.81603258289493
20
0.394519052838319
30
0
41
1
10
-9.59945084309437
20
0.178579548921931
30
0
41
1
10
-9.38150318820514
20
-0.0363202513205749
30
0
41
1
10
-9.16192765466236
20
-0.249980947148117
30
0
0
SPLINE
5
17E
100
AcDbEntity
8
1
62
256
6
ByLayer
370
18
48
1
60
0
100
AcDbSpline
70
4
71
3
72
40
73
36
40
0
40
0
40
0
40
0
40
0.249999999999994
40
0.249999999999994
40
0.374999999999992
40
0.374999999999992
40
0.499999999999989
40
0.499999999999989
40
0.624999999999986
40
0.624999999999986
40
0.687499999999985
40
0.687499999999985
40
0.749999999999983
40
0.749999999999983
40
0.781249999999986
40
0.781249999999986
40
0.812499999999988
40
0.812499999999988
40
0.84374999999999
40
0.84374999999999
40
0.859374999999989
40
0.859374999999989
40
0.874999999999988
40
0.874999999999988
40
0.890624999999988
40
0.890624999999988
40
0.906249999999987
40
0.906249999999987
40
0.921874999999986
40
0.921874999999986
40
0.937499999999985
40
0.937499999999985
40
0.968749999999992
40
0.968749999999992
40
1
40
1
40
1
40
1
41
1
10
-9.2841810453084
20
0.394519052838376
30
0
41
1
10
-9.34017379706033
20
0.411984788024654
30
0
41
1
10
-9.39601192035434
20
0.427203651425628
30
0
41
1
10
-9.47952542222005
20
0.446639435856639
30
0
41
1
10
-9.50732211964873
20
0.452540557511185
30
0
41
1
10
-9.56282215011132
20
0.462985872473894
30
0
41
1
10
-9.5905971576497
20
0.46754346444186
30
0
41
1
10
-9.64542464074819
20
0.474775707838489
30
0
41
1
10
-9.67252935657895
20
0.477485771001255
30
0
41
1
10
-9.71247397730109
20
0.479401388086785
30
0
41
1
10
-9.72561496243209
20
0.479671406018895
30
0
41
1
10
-9.75127744124482
20
0.479198955684723
30
0
41
1
10
-9.76382370190693
20
0.478467938343755
30
0
41
1
10
-9.78197621721299
20
0.476199819832971
30
0
41
1
10
-9.78793553313179
20
0.475240630314488
30
0
41
1
10
-9.79941135246932
20
0.472809610404283
30
0
41
1
10
-9.80493252167
20
0.471341442256374
30
0
41
1
10
-9.81536969482481
20
0.467696445541065
30
0
41
1
10
-9.82025191704597
20
0.465528162032342
30
0
41
1
10
-9.82671081231395
20
0.46160232917947
30
0
41
1
10
-9.82872465913616
20
0.460178391440451
30
0
41
1
10
-9.83240803000095
20
0.457044593765261
30
0
41
1
10
-9.83408395207491
20
0.455322141342577
30
0
41
1
10
-9.83691476309485
20
0.451629505232489
30
0
41
1
10
-9.83808223492781
20
0.44965214766799
30
0
41
1
10
-9.83984362065759
20
0.445393853961377
30
0
41
1
10
-9.84043321763885
20
0.443094163484318
30
0
41
1
10
-9.84093439359414
20
0.438350627376025
30
0
41
1
10
-9.8408581966258
20
0.43588877511641
30
0
41
1
10
-9.84005628377635
20
0.430785798097901
30
0
41
1
10
-9.83931959826043
20
0.428130012762523
30
0
41
1
10
-9.83628141918076
20
0.42020718810565
30
0
41
1
10
-9.83310183810713
20
0.414823368519507
30
0
41
1
10
-9.82543633707969
20
0.404451510867119
30
0
41
1
10
-9.82095703569023
20
0.399428903016116
30
0
41
1
10
-9.81603258289498
20
0.394519052838319
30
0
0
SPLINE
5
17F
100
AcDbEntity
8
1
62
256
6
ByLayer
370
18
48
1
60
0
100
AcDbSpline
70
4
71
3
72
8
73
4
40
0
40
0
40
0
40
0
40
1
40
1
40
1
40
1
41
1
10
-6.93594876110136
20
-0.249980947161703
30
0
41
1
10
-7.72871488352833
20
-0.0625343625468133
30
0
41
1
10
-8.51106941926359
20
0.153363501317045
30
0
41
1
10
-9.2841810453084
20
0.394519052838319
30
0
0
SPLINE
5
180
100
AcDbEntity
8
1
62
256
6
ByLayer
370
18
48
1
60
0
100
AcDbSpline
70
4
71
3
72
16
73
12
40
0
40
0
40
0
40
0
40
0.124999999999998
40
0.124999999999998
40
0.249999999999997
40
0.249999999999997
40
0.499999999999998
40
0.499999999999998
40
0.749999999999999
40
0.749999999999999
40
1
40
1
40
1
40
1
41
1
10
-6.37324688789337
20
-0.324980947161691
30
0
41
1
10
-6.39622554762155
20
-0.324980947161777
30
0
41
1
10
-6.41933984890954
20
-0.324326836591211
30
0
41
1
10
-6.46575063303879
20
-0.322103275723606
30
0
41
1
10
-6.48904860821469
20
-0.320527259459766
30
0
41
1
10
-6.55915724759689
20
-0.31468517028145
30
0
41
1
10
-6.60624700046333
20
-0.30931152451268
30
0
41
1
10
-6.70053768771602
20
-0.296247688555923
30
0
41
1
10
-6.74765569510397
20
-0.288561641840119
30
0
41
1
10
-6.84183988712428
20
-0.270989081156273
30
0
41
1
10
-6.88890603212444
20
-0.261104024483615
30
0
41
1
10
-6.93594876110134
20
-0.249980947162044
30
0
0
SPLINE
5
181
100
AcDbEntity
8
1
62
256
6
ByLayer
370
18
48
1
60
0
100
AcDbSpline
70
4
71
3
72
32
73
28
40
0
40
0
40
0
40
0
40
0.0625000000000054
40
0.0625000000000054
40
0.125000000000011
40
0.125000000000011
40
0.156250000000003
40
0.156250000000003
40
0.187499999999995
40
0.187499999999995
40
0.218749999999988
40
0.218749999999988
40
0.24999999999998
40
0.24999999999998
40
0.281249999999972
40
0.281249999999972
40
0.312499999999965
40
0.312499999999965
40
0.374999999999971
40
0.374999999999971
40
0.499999999999977
40
0.499999999999977
40
0.624999999999983
40
0.624999999999983
40
0.749999999999988
40
0.749999999999988
40
1
40
1
40
1
40
1
41
1
10
-5.61238790983072
20
-0.249980947161674
30
0
41
1
10
-5.60765302916408
20
-0.25308918492064
30
0
41
1
10
-5.60312924602138
20
-0.256357332105779
30
0
41
1
10
-5.59482555714968
20
-0.263458431072081
30
0
41
1
10
-5.59105027515611
20
-0.26728590672252
30
0
41
1
10
-5.58688499125805
20
-0.273464681357837
30
0
41
1
10
-5.5857859156398
20
-0.275548359099446
30
0
41
1
10
-5.58431463660077
20
-0.279764544741255
30
0
41
1
10
-5.58395291309174
20
-0.281932408544151
30
0
41
1
10
-5.58411087529191
20
-0.286034279942328
30
0
41
1
10
-5.58461644419518
20
-0.288011152822264
30
0
41
1
10
-5.58637613485092
20
-0.291729229057779
30
0
41
1
10
-5.5875947313595
20
-0.293421247005369
30
0
41
1
10
-5.59053069476536
20
-0.296559073188945
30
0
41
1
10
-5.59225727253889
20
-0.298005436744717
30
0
41
1
10
-5.59597133164448
20
-0.300628566677915
30
0
41
1
10
-5.59797251939438
20
-0.30182026104319
30
0
41
1
10
-5.60429163701178
20
-0.30513253057245
30
0
41
1
10
-5.60894278908543
20
-0.306999070165233
30
0
41
1
10
-5.62327045301899
20
-0.311839387041061
30
0
41
1
10
-5.63344455078987
20
-0.314152801215727
30
0
41
1
10
-5.65436067839303
20
-0.317936657222759
30
0
41
1
10
-5.66515582305118
20
-0.319378401561352
30
0
41
1
10
-5.68692929171778
20
-0.321677238196486
30
0
41
1
10
-5.69791907592236
20
-0.32253227345069
30
0
41
1
10
-5.73109936285263
20
-0.324485004299049
30
0
41
1
10
-5.75349694670444
20
-0.324980947161691
30
0
41
1
10
-5.77605947760026
20
-0.324980947161691
30
0
0
SPLINE
5
182
100
AcDbEntity
8
1
62
256
6
ByLayer
370
18
48
1
60
0
100
AcDbSpline
70
4
71
3
72
8
73
4
40
0
40
0
40
0
40
0
40
1
40
1
40
1
40
1
41
1
10
-6.54187806553897
20
0.394519052838319
30
0
41
1
10
-6.23806730610465
20
0.173174989895386
30
0
41
1
10
-5.92880201540666
20
-0.0422692138213847
30
0
41
1
10
-5.61238790983074
20
-0.249980947161703
30
0
0
SPLINE
5
183
100
AcDbEntity
8
1
62
256
6
ByLayer
370
18
48
1
60
0
100
AcDbSpline
70
4
71
3
72
42
73
38
40
0
40
0
40
0
40
0
40
0.250000000000007
40
0.250000000000007
40
0.37500000000001
40
0.37500000000001
40
0.500000000000014
40
0.500000000000014
40
0.625000000000017
40
0.625000000000017
40
0.687500000000019
40
0.687500000000019
40
0.750000000000021
40
0.750000000000021
40
0.812500000000023
40
0.812500000000023
40
0.843750000000023
40
0.843750000000023
40
0.875000000000024
40
0.875000000000024
40
0.906250000000025
40
0.906250000000025
40
0.921875000000026
40
0.921875000000026
40
0.937500000000026
40
0.937500000000026
40
0.945312500000023
40
0.945312500000023
40
0.95312500000002
40
0.95312500000002
40
0.960937500000016
40
0.960937500000016
40
0.968750000000013
40
0.968750000000013
40
0.984375000000007
40
0.984375000000007
40
1
40
1
40
1
40
1
41
1
10
-5.63509935370516
20
0.394519052838319
30
0
41
1
10
-5.72190542173044
20
0.41048912882053
30
0
41
1
10
-5.80868288459695
20
0.424733471319001
30
0
41
1
10
-5.93880564924044
20
0.443353543084044
30
0
41
1
10
-5.9821471639614
20
0.449088887548072
30
0
41
1
10
-6.06857569510589
20
0.459429533412248
30
0
41
1
10
-6.11168761760081
20
0.464042436826361
30
0
41
1
10
-6.19766252675518
20
0.471813512737214
30
0
41
1
10
-6.2405273446623
20
0.474985904312462
30
0
41
1
10
-6.3045665585008
20
0.478102801442105
30
0
41
1
10
-6.32586637804098
20
0.478863267139729
30
0
41
1
10
-6.36813982915069
20
0.479628898773399
30
0
41
1
10
-6.38913744363759
20
0.479640522332318
30
0
41
1
10
-6.43073070040577
20
0.478558744535746
30
0
41
1
10
-6.45138968921583
20
0.477480842671042
30
0
41
1
10
-6.48167377269934
20
0.474423628354543
30
0
41
1
10
-6.49161165409663
20
0.473164616848663
30
0
41
1
10
-6.51102817672674
20
0.469936618638428
30
0
41
1
10
-6.52051396104336
20
0.467978904086635
30
0
41
1
10
-6.53870820348467
20
0.462851168792327
30
0
41
1
10
-6.54747415553975
20
0.459688354136972
30
0
41
1
10
-6.55865084378891
20
0.45327318316717
30
0
41
1
10
-6.56208225390402
20
0.450813268369984
30
0
41
1
10
-6.56760145856258
20
0.445164968140489
30
0
41
1
10
-6.56972718234782
20
0.441898806140671
30
0
41
1
10
-6.57125941384879
20
0.436516137352527
30
0
41
1
10
-6.57150328364484
20
0.434610744631584
30
0
41
1
10
-6.57139923706535
20
0.430734829804351
30
0
41
1
10
-6.5710601097003
20
0.428773985692999
30
0
41
1
10
-6.56985184236829
20
0.42481000434347
30
0
41
1
10
-6.56897326203291
20
0.422798454423315
30
0
41
1
10
-6.56682641679652
20
0.418892726543106
30
0
41
1
10
-6.56555403553972
20
0.416977450053451
30
0
41
1
10
-6.56125565118423
20
0.411322623198941
30
0
41
1
10
-6.55776397299188
20
0.407698427918291
30
0
41
1
10
-6.55024111986286
20
0.400882110664838
30
0
41
1
10
-6.5461660120209
20
0.397643074837191
30
0
41
1
10
-6.54187806553904
20
0.394519052838291
30
0
0
SPLINE
5
184
100
AcDbEntity
8
1
62
256
6
ByLayer
370
18
48
1
60
0
100
AcDbSpline
70
4
71
3
72
19
73
15
40
0
40
0
40
0
40
0
40
0.25
40
0.25
40
0.5
40
0.5
40
0.75
40
0.75
40
0.781249999999999
40
0.781249999999999
40
0.812499999999999
40
0.812499999999999
40
0.875
40
1
40
1
40
1
40
1
41
1
10
5.63509935370516
20
0.394519052838319
30
0
41
1
10
4.70254111910936
20
0.222952407750881
30
0
41
1
10
3.76801610718675
20
0.0927021215975117
30
0
41
1
10
1.89487856191636
20
-0.0819313319209414
30
0
41
1
10
0.956265693072965
20
-0.126307451483001
30
0
41
1
10
-0.925138877083555
20
-0.127274388280995
30
0
41
1
10
-1.86793073751329
20
-0.083861862932082
30
0
41
1
10
-2.93093349052771
20
0.0145941935030862
30
0
41
1
10
-3.04907766511903
20
0.0262218984740628
30
0
41
1
10
-3.28543148800509
20
0.0508527234128167
30
0
41
1
10
-3.40368510858852
20
0.0638609988027099
30
0
41
1
10
-3.75823014923867
20
0.104910346530318
30
0
41
1
10
-4.46572999617388
20
0.195015774362247
30
0
41
1
10
-5.16854959974498
20
0.308685940134069
30
0
41
1
10
-5.63509935370516
20
0.394519052838291
30
0
0
SPLINE
5
185
100
AcDbEntity
8
1
62
256
6
ByLayer
370
18
48
1
60
0
100
AcDbSpline
70
4
71
3
72
44
73
40
40
0
40
0
40
0
40
0
40
0.0156249999999961
40
0.0156249999999961
40
0.0312499999999922
40
0.0312499999999922
40
0.0468749999999883
40
0.0468749999999883
40
0.0624999999999844
40
0.0624999999999844
40
0.0703124999999823
40
0.0703124999999823
40
0.0781249999999801
40
0.0781249999999801
40
0.0937499999999771
40
0.0937499999999771
40
0.109374999999974
40
0.109374999999974
40
0.124999999999971
40
0.124999999999971
40
0.15624999999997
40
0.15624999999997
40
0.187499999999969
40
0.187499999999969
40
0.218749999999968
40
0.218749999999968
40
0.249999999999967
40
0.249999999999967
40
0.312499999999971
40
0.312499999999971
40
0.374999999999974
40
0.374999999999974
40
0.499999999999979
40
0.499999999999979
40
0.624999999999984
40
0.624999999999984
40
0.749999999999988
40
0.749999999999988
40
1
40
1
40
1
40
1
41
1
10
6.54187806555959
20
0.394519052853354
30
0
41
1
10
6.54614546779462
20
0.397628107157232
30
0
41
1
10
6.55021756356132
20
0.400861465452977
30
0
41
1
10
6.55777056206983
20
0.407703701197676
30
0
41
1
10
6.56129598643125
20
0.411363114125635
30
0
41
1
10
6.56705748724221
20
0.418968163507486
30
0
41
1
10
6.56932722932987
20
0.422995671933734
30
0
41
1
10
6.57168490957019
20
0.430920997184245
30
0
41
1
10
6.57175717462624
20
0.434925051400626
30
0
41
1
10
6.57015139304471
20
0.44032260618178
30
0
41
1
10
6.56933658674413
20
0.442055744708597
30
0
41
1
10
6.56726874995528
20
0.445298049905972
30
0
41
1
10
6.5660280453917
20
0.446800463934608
30
0
41
1
10
6.56181730098169
20
0.451027436641482
30
0
41
1
10
6.55833373982009
20
0.453484973406688
30
0
41
1
10
6.5508004452978
20
0.457746368327577
30
0
41
1
10
6.5467176738498
20
0.459580952860648
30
0
41
1
10
6.53813304768261
20
0.462858852853856
30
0
41
1
10
6.53361639847378
20
0.464301094258474
30
0
41
1
10
6.5198495325705
20
0.46813334285531
30
0
41
1
10
6.51030376473537
20
0.470077388088697
30
0
41
1
10
6.49079444448401
20
0.47327846449943
30
0
41
1
10
6.48082394217533
20
0.474523817516143
30
0
41
1
10
6.46058932392771
20
0.476536430526153
30
0
41
1
10
6.45030212179387
20
0.477301669748783
30
0
41
1
10
6.42961236265563
20
0.478467690200063
30
0
41
1
10
6.41922412124936
20
0.478867771469453
30
0
41
1
10
6.38795856659962
20
0.479649983083448
30
0
41
1
10
6.36698186331
20
0.479620519913681
30
0
41
1
10
6.32484567668064
20
0.478831518110468
30
0
41
1
10
6.30368495098853
20
0.47806642369909
30
0
41
1
10
6.23998913389465
20
0.474946284754395
30
0
41
1
10
6.19724342039717
20
0.471779858008915
30
0
41
1
10
6.11135271730831
20
0.464007901333133
30
0
41
1
10
6.0681616831572
20
0.459383828874366
30
0
41
1
10
5.98166173485373
20
0.449026939424954
30
0
41
1
10
5.93839049291037
20
0.443296531767231
30
0
41
1
10
5.80851432815439
20
0.424704531841371
30
0
41
1
10
5.72184695483151
20
0.410478372420215
30
0
41
1
10
5.63509935370516
20
0.394519052838348
30
0
0
SPLINE
5
186
100
AcDbEntity
8
1
62
256
6
ByLayer
370
18
48
1
60
0
100
AcDbSpline
70
4
71
3
72
8
73
4
40
0
40
0
40
0
40
0
40
1
40
1
40
1
40
1
41
1
10
5.61238790983109
20
-0.249980947161475
30
0
41
1
10
5.92880201541405
20
-0.0422692138165246
30
0
41
1
10
6.23806730611875
20
0.17317498990522
30
0
41
1
10
6.54187806555959
20
0.394519052853354
30
0
0
SPLINE
5
187
100
AcDbEntity
8
1
62
256
6
ByLayer
370
18
48
1
60
0
100
AcDbSpline
70
4
71
3
72
30
73
26
40
0
40
0
40
0
40
0
40
0.250000000000021
40
0.250000000000021
40
0.375000000000038
40
0.375000000000038
40
0.500000000000055
40
0.500000000000055
40
0.625000000000072
40
0.625000000000072
40
0.687500000000077
40
0.687500000000077
40
0.750000000000081
40
0.750000000000081
40
0.781250000000071
40
0.781250000000071
40
0.812500000000061
40
0.812500000000061
40
0.843750000000051
40
0.843750000000051
40
0.87500000000004
40
0.87500000000004
40
0.93750000000002
40
0.93750000000002
40
1
40
1
40
1
40
1
41
1
10
5.77605947760026
20
-0.324980947161691
30
0
41
1
10
5.75348207034327
20
-0.324980947161691
30
0
41
1
10
5.73107070305846
20
-0.324484360437935
30
0
41
1
10
5.69787250034997
20
-0.322529009528012
30
0
41
1
10
5.68687721032143
20
-0.321672821768971
30
0
41
1
10
5.66509411678842
20
-0.3193707986525
30
0
41
1
10
5.6542865791387
20
-0.31792659946683
30
0
41
1
10
5.63331780876885
20
-0.31412649334905
30
0
41
1
10
5.62309598237718
20
-0.311798232781058
30
0
41
1
10
5.60871185823672
20
-0.306911863318533
30
0
41
1
10
5.6041455916058
20
-0.305066689942009
30
0
41
1
10
5.59577508366937
20
-0.300657420183342
30
0
41
1
10
5.59190833607624
20
-0.298055354480226
30
0
41
1
10
5.58753904531321
20
-0.293349354747391
30
0
41
1
10
5.58631061121667
20
-0.291617982905677
30
0
41
1
10
5.58459914277955
20
-0.28794605759029
30
0
41
1
10
5.58410136075491
20
-0.286000156232347
30
0
41
1
10
5.58395805840715
20
-0.281846846797293
30
0
41
1
10
5.58432091561428
20
-0.27973412365381
30
0
41
1
10
5.58580546243638
20
-0.27550499097211
30
0
41
1
10
5.58693477365927
20
-0.273383741368946
30
0
41
1
10
5.5910508389166
20
-0.267299518675458
30
0
41
1
10
5.59482596376836
20
-0.263460724263382
30
0
41
1
10
5.60307603158662
20
-0.256400215582772
30
0
41
1
10
5.6076161834562
20
-0.253113372482801
30
0
41
1
10
5.61238790983106
20
-0.249980947161447
30
0
0
SPLINE
5
188
100
AcDbEntity
8
1
62
256
6
ByLayer
370
18
48
1
60
0
100
AcDbSpline
70
4
71
3
72
16
73
12
40
0
40
0
40
0
40
0
40
0.249999999999999
40
0.249999999999999
40
0.499999999999998
40
0.499999999999998
40
0.749999999999997
40
0.749999999999997
40
0.874999999999998
40
0.874999999999998
40
1
40
1
40
1
40
1
41
1
10
6.93594876110134
20
-0.249980947161845
30
0
41
1
10
6.88889586647392
20
-0.261106428113465
30
0
41
1
10
6.84180134307147
20
-0.270997589283866
30
0
41
1
10
6.74752829299007
20
-0.28858409305434
30
0
41
1
10
6.70028861513458
20
-0.296286256727456
30
0
41
1
10
6.60600611195241
20
-0.30934081857896
30
0
41
1
10
6.55906062392077
20
-0.314694231797262
30
0
41
1
10
6.489025074133
20
-0.320528714779613
30
0
41
1
10
6.46574452041284
20
-0.322103532762128
30
0
41
1
10
6.4193513210578
20
-0.324326322771526
30
0
41
1
10
6.39623729139331
20
-0.324980947161805
30
0
41
1
10
6.37324688789337
20
-0.324980947161691
30
0
0
SPLINE
5
189
100
AcDbEntity
8
1
62
256
6
ByLayer
370
18
48
1
60
0
100
AcDbSpline
70
4
71
3
72
8
73
4
40
0
40
0
40
0
40
0
40
1
40
1
40
1
40
1
41
1
10
9.2841810453084
20
0.394519052838319
30
0
41
1
10
8.51106941926361
20
0.153363501317045
30
0
41
1
10
7.72871488352831
20
-0.0625343625468133
30
0
41
1
10
6.93594876110137
20
-0.249980947161703
30
0
0
SPLINE
5
18A
100
AcDbEntity
8
1
62
256
6
ByLayer
370
18
48
1
60
0
100
AcDbSpline
70
4
71
3
72
40
73
36
40
0
40
0
40
0
40
0
40
0.0312500000000133
40
0.0312500000000133
40
0.0625000000000266
40
0.0625000000000266
40
0.0781250000000277
40
0.0781250000000277
40
0.0937500000000288
40
0.0937500000000288
40
0.10937500000003
40
0.10937500000003
40
0.125000000000031
40
0.125000000000031
40
0.156250000000033
40
0.156250000000033
40
0.187500000000035
40
0.187500000000035
40
0.250000000000035
40
0.250000000000035
40
0.312500000000034
40
0.312500000000034
40
0.375000000000033
40
0.375000000000033
40
0.437500000000033
40
0.437500000000033
40
0.500000000000032
40
0.500000000000032
40
0.625000000000024
40
0.625000000000024
40
0.750000000000016
40
0.750000000000016
40
0.875000000000008
40
0.875000000000008
40
1
40
1
40
1
40
1
41
1
10
9.8160325828969
20
0.394519052837552
30
0
41
1
10
9.82098195223347
20
0.399453745670826
30
0
41
1
10
9.8255668829454
20
0.404602539074745
30
0
41
1
10
9.83325114814545
20
0.415051948253478
30
0
41
1
10
9.83638059560761
20
0.420378652246569
30
0
41
1
10
9.83940873940759
20
0.428409088717331
30
0
41
1
10
9.84011456011223
20
0.431030341943966
30
0
41
1
10
9.84087800321672
20
0.43615432775411
30
0
41
1
10
9.84093087921795
20
0.438682333081204
30
0
41
1
10
9.84035685513882
20
0.44347090089758
30
0
41
1
10
9.83974008264053
20
0.445725814987299
30
0
41
1
10
9.83790623184572
20
0.449982263740196
30
0
41
1
10
9.83667511604253
20
0.451996393124347
30
0
41
1
10
9.83230034394296
20
0.457522482393898
30
0
41
1
10
9.8284838541814
20
0.460585485218388
30
0
41
1
10
9.81960368743447
20
0.465853786827211
30
0
41
1
10
9.81467620295791
20
0.467977995037984
30
0
41
1
10
9.7989514958669
20
0.473342775126554
30
0
41
1
10
9.78712100451713
20
0.475600029742935
30
0
41
1
10
9.76283016137606
20
0.47854552376856
30
0
41
1
10
9.75026244320495
20
0.479243914143836
30
0
41
1
10
9.72458674972188
20
0.47966188106983
30
0
41
1
10
9.71147318768166
20
0.479370998879574
30
0
41
1
10
9.68483745942677
20
0.478057041979355
30
0
41
1
10
9.67129728761574
20
0.477027476641609
30
0
41
1
10
9.64421248948494
20
0.474417261577855
30
0
41
1
10
9.63062287134738
20
0.472833887959126
30
0
41
1
10
9.58973686994528
20
0.467407407483734
30
0
41
1
10
9.56232469000275
20
0.462896755182072
30
0
41
1
10
9.50725848501213
20
0.452524028495901
30
0
41
1
10
9.47960346504198
20
0.446655482458595
30
0
41
1
10
9.42407905641585
20
0.433737715187703
30
0
41
1
10
9.39620939340276
20
0.426686741656397
30
0
41
1
10
9.34026369811073
20
0.411446491895219
30
0
41
1
10
9.31218172106821
20
0.403253261687809
30
0
41
1
10
9.2841810453084
20
0.394519052838319
30
0
0
SPLINE
5
18B
100
AcDbEntity
8
1
62
256
6
ByLayer
370
18
48
1
60
0
100
AcDbSpline
70
4
71
3
72
8
73
4
40
0
40
0
40
0
40
0
40
1
40
1
40
1
40
1
41
1
10
9.16192765464842
20
-0.249980947161674
30
0
41
1
10
9.38150318819592
20
-0.0363202513296415
30
0
41
1
10
9.59945084308978
20
0.178579548917355
30
0
41
1
10
9.81603258289493
20
0.394519052838319
30
0
0
SPLINE
5
18C
100
AcDbEntity
8
1
62
256
6
ByLayer
370
18
48
1
60
0
100
AcDbSpline
70
4
71
3
72
26
73
22
40
0
40
0
40
0
40
0
40
0.24999999999998
40
0.24999999999998
40
0.37499999999997
40
0.37499999999997
40
0.49999999999996
40
0.49999999999996
40
0.562499999999963
40
0.562499999999963
40
0.624999999999966
40
0.624999999999966
40
0.687499999999969
40
0.687499999999969
40
0.749999999999972
40
0.749999999999972
40
0.812499999999975
40
0.812499999999975
40
0.874999999999978
40
0.874999999999978
40
1
40
1
40
1
40
1
41
1
10
9.24203289085634
20
-0.324980947161663
30
0
41
1
10
9.22681846497241
20
-0.324980947161663
30
0
41
1
10
9.211953192377
20
-0.324305164641998
30
0
41
1
10
9.19059288824326
20
-0.321504563341364
30
0
41
1
10
9.18367090944832
20
-0.320269721185071
30
0
41
1
10
9.17054086661494
20
-0.316946194301352
30
0
41
1
10
9.1642649129623
20
-0.3148363382507
30
0
41
1
10
9.15599732501141
20
-0.310762869504856
30
0
41
1
10
9.15342589019343
20
-0.309251451722815
30
0
41
1
10
9.14876447288793
20
-0.305828546272068
30
0
41
1
10
9.14666152309883
20
-0.30390484096003
30
0
41
1
10
9.14317602879879
20
-0.299559795826326
30
0
41
1
10
9.14183367160857
20
-0.297191208615885
30
0
41
1
10
9.14011111824311
20
-0.291983727565139
30
0
41
1
10
9.13975376954048
20
-0.289142471629958
30
0
41
1
10
9.14012473484786
20
-0.283283573994225
30
0
41
1
10
9.14085462438072
20
-0.280188457343087
30
0
41
1
10
9.1432485736552
20
-0.273973881768512
30
0
41
1
10
9.14489040353692
20
-0.270868207717967
30
0
41
1
10
9.15089358034203
20
-0.261555053522642
30
0
41
1
10
9.15608552735694
20
-0.25566570156937
30
0
41
1
10
9.16192765464814
20
-0.249980947161589
30
0
0
SPLINE
5
18D
100
AcDbEntity
8
1
62
256
6
ByLayer
370
18
48
1
60
0
100
AcDbSpline
70
4
71
3
72
18
73
14
40
0
40
0
40
0
40
0
40
0.250000000000004
40
0.250000000000004
40
0.500000000000008
40
0.500000000000008
40
0.625000000000006
40
0.625000000000006
40
0.750000000000004
40
0.750000000000004
40
0.875000000000002
40
0.875000000000002
40
1
40
1
40
1
40
1
41
1
10
9.95818080364234
20
-0.249980947161987
30
0
41
1
10
9.92749994234364
20
-0.26071314772193
30
0
41
1
10
9.89687592587646
20
-0.27038180066279
30
0
41
1
10
9.83572596896019
20
-0.287746386430427
30
0
41
1
10
9.80520000776735
20
-0.295443207372898
30
0
41
1
10
9.75949165829152
20
-0.305362247104569
30
0
41
1
10
9.74426915486944
20
-0.308394975835455
30
0
41
1
10
9.7138557687901
20
-0.313841643015138
30
0
41
1
10
9.69862277638646
20
-0.316261825895964
30
0
41
1
10
9.66843979450144
20
-0.320325245372089
30
0
41
1
10
9.65349518651499
20
-0.321971785451893
30
0
41
1
10
9.62397991030193
20
-0.324296253793733
30
0
41
1
10
9.60940649911069
20
-0.324980947161464
30
0
41
1
10
9.59510119943221
20
-0.324980947161663
30
0
0
SPLINE
5
18E
100
AcDbEntity
8
1
62
256
6
ByLayer
370
18
48
1
60
0
100
AcDbSpline
70
4
71
3
72
8
73
4
40
0
40
0
40
0
40
0
40
1
40
1
40
1
40
1
41
1
10
11.5338810822489
20
0.340722418970557
30
0
41
1
10
11.0140865548938
20
0.133000688013681
30
0
41
1
10
10.4890458043949
20
-0.0642837594957655
30
0
41
1
10
9.95818080364236
20
-0.249980947161674
30
0
0
SPLINE
5
18F
100
AcDbEntity
8
1
62
256
6
ByLayer
370
18
48
1
60
0
100
AcDbSpline
70
4
71
3
72
8
73
4
40
0
40
0
40
0
40
0
40
1
40
1
40
1
40
1
41
1
10
11.5338810822489
20
0.340722418970557
30
0
41
1
10
11.600876101832
20
0.38541439636785
30
0
41
1
10
11.6678402108248
20
0.430173904668891
30
0
41
1
10
11.7347738412622
20
0.474999999999909
30
0
0
SPLINE
5
190
100
AcDbEntity
8
1
62
256
6
ByLayer
370
18
48
1
60
0
100
AcDbSpline
70
4
71
3
72
8
73
4
40
0
40
0
40
0
40
0
40
1
40
1
40
1
40
1
41
1
10
11.8713087604169
20
0.674999999999983
30
0
41
1
10
11.8257985198619
20
0.608331258506041
30
0
41
1
10
11.7802868943197
20
0.54166457068726
30
0
41
1
10
11.7347738412622
20
0.474999999999994
30
0
0
SPLINE
5
191
100
AcDbEntity
8
1
62
256
6
ByLayer
370
18
48
1
60
0
100
AcDbSpline
70
4
71
3
72
8
73
4
40
0
40
0
40
0
40
0
40
1
40
1
40
1
40
1
41
1
10
-19
20
0.675000000000011
30
0
41
1
10
-18.6666167702326
20
0.341616770232548
30
0
41
1
10
-18.3332883074241
20
0.0082883074240954
30
0
41
1
10
-18.0000190528383
20
-0.324980947161691
30
0
0
SPLINE
5
192
100
AcDbEntity
8
1
62
256
6
ByLayer
370
18
48
1
60
0
100
AcDbSpline
70
4
71
3
72
37
73
33
40
0
40
0
40
0
40
0
40
0.125000000000013
40
0.125000000000013
40
0.156250000000015
40
0.156250000000015
40
0.187500000000017
40
0.187500000000017
40
0.250000000000019
40
0.312500000000021
40
0.312500000000021
40
0.343750000000021
40
0.343750000000021
40
0.375000000000021
40
0.375000000000021
40
0.500000000000019
40
0.500000000000019
40
0.562500000000017
40
0.562500000000017
40
0.593750000000017
40
0.593750000000017
40
0.625000000000016
40
0.625000000000016
40
0.750000000000007
40
0.750000000000007
40
0.781250000000006
40
0.781250000000006
40
0.812500000000005
40
0.812500000000005
40
0.875000000000003
40
0.875000000000003
40
1
40
1
40
1
40
1
41
1
10
25.4999999999998
20
12.7778873509959
30
0
41
1
10
25.4999999999998
20
12.8820968153169
30
0
41
1
10
25.5102436006919
20
12.9853149741593
30
0
41
1
10
25.535860835108
20
13.1130977441609
30
0
41
1
10
25.5416472096489
20
13.1386507082656
30
0
41
1
10
25.554425065062
20
13.1892120312863
30
0
41
1
10
25.5614179923587
20
13.2142448233026
30
0
41
1
10
25.5841763768341
20
13.2886128856233
30
0
41
1
10
25.6192581360562
20
13.3858262296802
30
0
41
1
10
25.6636806910613
20
13.4792062957634
30
0
41
1
10
25.7005513646992
20
13.5477829535335
30
0
41
1
10
25.7134349282658
20
13.5703983448499
30
0
41
1
10
25.740410487088
20
13.6151332110013
30
0
41
1
10
25.7545344770388
20
13.6372952933402
30
0
41
1
10
25.8274619063561
20
13.7457060197825
30
0
41
1
10
25.8935472976051
20
13.8256109046239
30
0
41
1
10
26.004023055073
20
13.9354684152623
30
0
41
1
10
26.0427530946716
20
13.9704090452282
30
0
41
1
10
26.1037977721679
20
14.0202207219089
30
0
41
1
10
26.1246457914871
20
14.0363901461665
30
0
41
1
10
26.1668668349511
20
14.0675012476936
30
0
41
1
10
26.1882960596623
20
14.0824904306499
30
0
41
1
10
26.2970111731144
20
14.1546480898326
30
0
41
1
10
26.3889590715827
20
14.2035316977092
30
0
41
1
10
26.5101797028339
20
14.2534657720719
30
0
41
1
10
26.5347409459795
20
14.2628890377708
30
0
41
1
10
26.5845111098033
20
14.2805845799162
30
0
41
1
10
26.6096372898374
20
14.2888240825999
30
0
41
1
10
26.6851881691049
20
14.3115644528019
30
0
41
1
10
26.736000602225
20
14.3241700606259
30
0
41
1
10
26.8897444200923
20
14.3544895099144
30
0
41
1
10
26.9939693595898
20
14.3647803688947
30
0
41
1
10
27.0999999999998
20
14.3647093268883
30
0
0
SPLINE
5
193
100
AcDbEntity
8
1
62
256
6
ByLayer
370
18
48
1
60
0
100
AcDbSpline
70
4
71
3
72
10
73
6
40
0
40
0
40
0
40
0
40
0.5
40
0.5
40
1
40
1
40
1
40
1
41
1
10
36.85529560683
20
15.4865651066841
30
0
41
1
10
36.8310196419324
20
15.2984099054806
30
0
41
1
10
36.8064741956894
20
15.1103221808283
30
0
41
1
10
36.7563868133713
20
14.7344122762567
30
0
41
1
10
36.7308752768096
20
14.5465829955814
30
0
41
1
10
36.7042962537048
20
14.3590404608104
30
0
0
SPLINE
5
194
100
AcDbEntity
8
1
62
256
6
ByLayer
370
18
48
1
60
0
100
AcDbSpline
70
4
71
3
72
8
73
4
40
0
40
0
40
0
40
0
40
1
40
1
40
1
40
1
41
1
10
36.7042962537048
20
14.3590404608104
30
0
41
1
10
36.6723646040243
20
14.3587234719394
30
0
41
1
10
36.6399106536095
20
14.358573827409
30
0
41
1
10
36.606915501388
20
14.3585941669037
30
0
0
SPLINE
5
195
100
AcDbEntity
8
1
62
256
6
ByLayer
370
18
48
1
60
0
100
AcDbSpline
70
4
71
3
72
8
73
4
40
0
40
0
40
0
40
0
40
1
40
1
40
1
40
1
41
1
10
19.2870625622058
20
0.129903810567669
30
0
41
1
10
19.4703205128146
20
0.311580759106135
30
0
41
1
10
19.653556200176
20
0.493280087502797
30
0
41
1
10
19.8367714106908
20
0.675000000000011
30
0
0
SPLINE
5
196
100
AcDbEntity
8
1
62
256
6
ByLayer
370
18
48
1
60
0
100
AcDbSpline
70
4
71
3
72
8
73
4
40
0
40
0
40
0
40
0
40
1
40
1
40
1
40
1
41
1
10
18.8729219314525
20
-0.249980947161674
30
0
41
1
10
19.0113201534983
20
-0.123639035795151
30
0
41
1
10
19.1493610312483
20
0.0029941060164731
30
0
41
1
10
19.2870625622058
20
0.129903810567669
30
0
0
SPLINE
5
197
100
AcDbEntity
8
1
62
256
6
ByLayer
370
18
48
1
60
0
100
AcDbSpline
70
4
71
3
72
20
73
16
40
0
40
0
40
0
40
0
40
0.125000000000004
40
0.125000000000004
40
0.250000000000009
40
0.250000000000009
40
0.375000000000013
40
0.375000000000013
40
0.500000000000018
40
0.500000000000018
40
0.625000000000022
40
0.625000000000022
40
0.750000000000026
40
0.750000000000026
40
1
40
1
40
1
40
1
41
1
10
18.7775181327357
20
-0.324980947161691
30
0
41
1
10
18.7787010242645
20
-0.324980947161691
30
0
41
1
10
18.7804472864332
20
-0.324397783309394
30
0
41
1
10
18.7849851214943
20
-0.322149113157053
30
0
41
1
10
18.7877652228033
20
-0.320483944021561
30
0
41
1
10
18.7940419579248
20
-0.31632025809796
30
0
41
1
10
18.7975633120804
20
-0.313808713729202
30
0
41
1
10
18.8052728850999
20
-0.308032368047549
30
0
41
1
10
18.8093760264562
20
-0.304831757523772
30
0
41
1
10
18.8179958139009
20
-0.297911309070372
30
0
41
1
10
18.8225131770649
20
-0.294190567740913
30
0
41
1
10
18.8319167921744
20
-0.286286962265336
30
0
41
1
10
18.8368284752011
20
-0.282081584144691
30
0
41
1
10
18.8518338885015
20
-0.269034872976135
30
0
41
1
10
18.8622168298091
20
-0.259753493246421
30
0
41
1
10
18.8729219314525
20
-0.249980947161674
30
0
0
LINE
5
7D
100
AcDbEntity
8
81
62
256
6
ByLayer
370
18
48
1
60
0
100
AcDbLine
10
45.1
20
18
30
0
11
50.1
21
18
31
0
39
0
210
0
220
0
230
1
0
LINE
5
7E
100
AcDbEntity
8
80
62
256
6
ByLayer
370
18
48
1
60
0
100
AcDbLine
10
0
20
0
30
0
11
0
21
-5
31
0
39
0
210
0
220
0
230
1
0
LINE
5
7F
100
AcDbEntity
8
1
62
256
6
ByLayer
370
18
48
1
60
0
100
AcDbLine
10
20
20
0.675
30
0
11
20
21
0.875
31
0
39
0
210
0
220
0
230
1
0
LINE
5
80
100
AcDbEntity
8
1
62
256
6
ByLayer
370
18
48
1
60
0
100
AcDbLine
10
41.1
20
17.838749
30
0
11
40.68649
21
17.600022
31
0
39
0
210
0
220
0
230
1
0
LINE
5
81
100
AcDbEntity
8
1
62
256
6
ByLayer
370
13
48
1
60
0
100
AcDbLine
10
37.100085
20
15.972863
30
0
11
38.037861
21
15.972863
31
0
39
0
210
0
220
0
230
1
0
LINE
5
82
100
AcDbEntity
8
1
62
256
6
ByLayer
370
13
48
1
60
0
100
AcDbLine
10
37.09983
20
16.012861
30
0
11
38.037861
21
16.012861
31
0
39
0
210
0
220
0
230
1
0
LINE
5
83
100
AcDbEntity
8
1
62
256
6
ByLayer
370
13
48
1
60
0
100
AcDbLine
10
37.10136
20
15.782044
30
0
11
38.028946
21
15.782044
31
0
39
0
210
0
220
0
230
1
0
LINE
5
84
100
AcDbEntity
8
1
62
256
6
ByLayer
370
13
48
1
60
0
100
AcDbLine
10
37.098561
20
16.203492
30
0
11
38.028946
21
16.203492
31
0
39
0
210
0
220
0
230
1
0
LINE
5
85
100
AcDbEntity
8
1
62
256
6
ByLayer
370
13
48
1
60
0
100
AcDbLine
10
37.010754
20
15.563174
30
0
11
37.848945
21
15.563174
31
0
39
0
210
0
220
0
230
1
0
LINE
5
86
100
AcDbEntity
8
1
62
256
6
ByLayer
370
13
48
1
60
0
100
AcDbLine
10
36.993203
20
16.418593
30
0
11
37.848945
21
16.418593
31
0
39
0
210
0
220
0
230
1
0
LINE
5
87
100
AcDbEntity
8
1
62
256
6
ByLayer
370
13
48
1
60
0
100
AcDbLine
10
37.690119
20
15.506161
30
0
11
36.895026
21
15.506161
31
0
39
0
210
0
220
0
230
1
0
LINE
5
88
100
AcDbEntity
8
1
62
256
6
ByLayer
370
13
48
1
60
0
100
AcDbLine
10
37.690119
20
16.472279
30
0
11
36.878245
21
16.472279
31
0
39
0
210
0
220
0
230
1
0
LINE
5
89
100
AcDbEntity
8
1
62
256
6
ByLayer
370
13
48
1
60
0
100
AcDbLine
10
36.853749
20
15.474936
30
0
11
37.649523
21
15.474936
31
0
39
0
210
0
220
0
230
1
0
LINE
5
8A
100
AcDbEntity
8
1
62
256
6
ByLayer
370
13
48
1
60
0
100
AcDbLine
10
36.845228
20
16.502655
30
0
11
37.649523
21
16.502655
31
0
39
0
210
0
220
0
230
1
0
LINE
5
8B
100
AcDbEntity
8
1
62
256
6
ByLayer
370
13
48
1
60
0
100
AcDbLine
10
36.841615
20
15.382411
30
0
11
37.577691
21
15.382411
31
0
39
0
210
0
220
0
230
1
0
LINE
5
8C
100
AcDbEntity
8
1
62
256
6
ByLayer
370
13
48
1
60
0
100
AcDbLine
10
36.831193
20
16.593675
30
0
11
37.577691
21
16.593675
31
0
39
0
210
0
220
0
230
1
0
LINE
5
8D
100
AcDbEntity
8
1
62
256
6
ByLayer
370
13
48
1
60
0
100
AcDbLine
10
36.835801
20
15.337938
30
0
11
37.557959
21
15.337938
31
0
39
0
210
0
220
0
230
1
0
LINE
5
8E
100
AcDbEntity
8
1
62
256
6
ByLayer
370
13
48
1
60
0
100
AcDbLine
10
36.740765
20
14.627869
30
0
11
37.434518
21
14.627869
31
0
39
0
210
0
220
0
230
1
0
LINE
5
8F
100
AcDbEntity
8
1
62
256
6
ByLayer
370
13
48
1
60
0
100
AcDbLine
10
36.743124
20
14.645249
30
0
11
37.436037
21
14.645249
31
0
39
0
210
0
220
0
230
1
0
LINE
5
90
100
AcDbEntity
8
1
62
256
6
ByLayer
370
13
48
1
60
0
100
AcDbLine
10
36.824491
20
16.637734
30
0
11
37.557959
21
16.637734
31
0
39
0
210
0
220
0
230
1
0
LINE
5
91
100
AcDbEntity
8
1
62
256
6
ByLayer
370
13
48
1
60
0
100
AcDbLine
10
36.718944
20
17.32787
30
0
11
37.436037
21
17.32787
31
0
39
0
210
0
220
0
230
1
0
LINE
5
92
100
AcDbEntity
8
1
62
256
6
ByLayer
370
13
48
1
60
0
100
AcDbLine
10
36.71629
20
17.345218
30
0
11
37.434518
21
17.345218
31
0
39
0
210
0
220
0
230
1
0
LINE
5
93
100
AcDbEntity
8
1
62
256
6
ByLayer
370
18
48
1
60
0
100
AcDbLine
10
38.73
20
17.600022
30
0
11
40.68649
21
17.600022
31
0
39
0
210
0
220
0
230
1
0
LINE
5
94
100
AcDbEntity
8
1
62
256
6
ByLayer
370
18
48
1
60
0
100
AcDbLine
10
36.678823
20
17.586456
30
0
11
37.434518
21
17.586456
31
0
39
0
210
0
220
0
230
1
0
LINE
5
95
100
AcDbEntity
8
1
62
256
6
ByLayer
370
18
48
1
60
0
100
AcDbLine
10
38.73
20
17.600022
30
0
11
37.434518
21
17.586456
31
0
39
0
210
0
220
0
230
1
0
LINE
5
96
100
AcDbEntity
8
1
62
256
6
ByLayer
370
18
48
1
60
0
100
AcDbLine
10
37.434518
20
17.586456
30
0
11
37.434518
21
17.345218
31
0
39
0
210
0
220
0
230
1
0
LINE
5
97
100
AcDbEntity
8
1
62
256
6
ByLayer
370
18
48
1
60
0
100
AcDbLine
10
37.436037
20
17.32787
30
0
11
37.557959
21
16.637734
31
0
39
0
210
0
220
0
230
1
0
LINE
5
98
100
AcDbEntity
8
1
62
256
6
ByLayer
370
18
48
1
60
0
100
AcDbLine
10
37.577691
20
16.593675
30
0
11
37.649523
21
16.502655
31
0
39
0
210
0
220
0
230
1
0
LINE
5
99
100
AcDbEntity
8
1
62
256
6
ByLayer
370
18
48
1
60
0
100
AcDbLine
10
38.037861
20
15.972863
30
0
11
38.037861
21
16.012861
31
0
39
0
210
0
220
0
230
1
0
LINE
5
9A
100
AcDbEntity
8
1
62
256
6
ByLayer
370
18
48
1
60
0
100
AcDbLine
10
37.577691
20
15.382411
30
0
11
37.649523
21
15.474936
31
0
39
0
210
0
220
0
230
1
0
LINE
5
9B
100
AcDbEntity
8
1
62
256
6
ByLayer
370
18
48
1
60
0
100
AcDbLine
10
37.436037
20
14.645249
30
0
11
37.557959
21
15.337938
31
0
39
0
210
0
220
0
230
1
0
LINE
5
9C
100
AcDbEntity
8
1
62
256
6
ByLayer
370
18
48
1
60
0
100
AcDbLine
10
37.434518
20
14.386631
30
0
11
37.434518
21
14.627869
31
0
39
0
210
0
220
0
230
1
0
LINE
5
9D
100
AcDbEntity
8
1
62
256
6
ByLayer
370
18
48
1
60
0
100
AcDbLine
10
38.73
20
14.400197
30
0
11
38.73
21
17.600022
31
0
39
0
210
0
220
0
230
1
0
LINE
5
9E
100
AcDbEntity
8
1
62
256
6
ByLayer
370
18
48
1
60
0
100
AcDbLine
10
41.1
20
14.16147
30
0
11
40.68649
21
14.400197
31
0
39
0
210
0
220
0
230
1
0
LINE
5
9F
100
AcDbEntity
8
1
62
256
6
ByLayer
370
18
48
1
60
0
100
AcDbLine
10
45.1
20
14.300203
30
0
11
45.1
21
17.700016
31
0
39
0
210
0
220
0
230
1
0
LINE
5
A0
100
AcDbEntity
8
1
62
256
6
ByLayer
370
18
48
1
60
0
100
AcDbLine
10
44.786914
20
17.999714
30
0
11
41.1
21
17.838749
31
0
39
0
210
0
220
0
230
1
0
LINE
5
A1
100
AcDbEntity
8
1
62
256
6
ByLayer
370
18
48
1
60
0
100
AcDbLine
10
44.786914
20
14.000505
30
0
11
41.1
21
14.16147
31
0
39
0
210
0
220
0
230
1
0
LINE
5
A2
100
AcDbEntity
8
1
62
256
6
ByLayer
370
18
48
1
60
0
100
AcDbLine
10
40.767972
20
17.647098
30
0
11
36.668649
21
17.647098
31
0
39
0
210
0
220
0
230
1
0
LINE
5
A3
100
AcDbEntity
8
1
62
256
6
ByLayer
370
18
48
1
60
0
100
AcDbLine
10
38.73
20
14.400197
30
0
11
37.434518
21
14.386631
31
0
39
0
210
0
220
0
230
1
0
LINE
5
A4
100
AcDbEntity
8
1
62
256
6
ByLayer
370
18
48
1
60
0
100
AcDbLine
10
36.707981
20
14.386631
30
0
11
37.434518
21
14.386631
31
0
39
0
210
0
220
0
230
1
0
LINE
5
A5
100
AcDbEntity
8
1
62
256
6
ByLayer
370
18
48
1
60
0
100
AcDbLine
10
38.73
20
14.400197
30
0
11
40.68649
21
14.400197
31
0
39
0
210
0
220
0
230
1
0
LINE
5
A6
100
AcDbEntity
8
1
62
256
6
ByLayer
370
18
48
1
60
0
100
AcDbLine
10
9.863043
20
-0.324981
30
0
11
11.476486
21
-0.324981
31
0
39
0
210
0
220
0
230
1
0
LINE
5
A7
100
AcDbEntity
8
1
62
256
6
ByLayer
370
18
48
1
60
0
100
AcDbLine
10
11.476746
20
-0.324981
30
0
11
11.592073
21
-0.324981
31
0
39
0
210
0
220
0
230
1
0
LINE
5
A8
100
AcDbEntity
8
1
62
256
6
ByLayer
370
18
48
1
60
0
100
AcDbLine
10
11.700309
20
-0.324981
30
0
11
12.078907
21
-0.324981
31
0
39
0
210
0
220
0
230
1
0
LINE
5
A9
100
AcDbEntity
8
1
62
256
6
ByLayer
370
18
48
1
60
0
100
AcDbLine
10
35.43591
20
17.784819
30
0
11
35.43631
21
18.00971
31
0
39
0
210
0
220
0
230
1
0
LINE
5
AA
100
AcDbEntity
8
1
62
256
6
ByLayer
370
18
48
1
60
0
100
AcDbLine
10
44.1
20
17.969719
30
0
11
44.1
21
18.00236
31
0
39
0
210
0
220
0
230
1
0
LINE
5
AB
100
AcDbEntity
8
1
62
256
6
ByLayer
370
18
48
1
60
0
100
AcDbLine
10
37.9053
20
17.64709
30
0
11
37.905933
21
18.00236
31
0
39
0
210
0
220
0
230
1
0
LINE
5
AC
100
AcDbEntity
8
1
62
256
6
ByLayer
370
18
48
1
60
0
100
AcDbLine
10
12.159145
20
-0.324981
30
0
11
18.777518
21
-0.324981
31
0
39
0
210
0
220
0
230
1
0
LINE
5
AD
100
AcDbEntity
8
1
62
256
6
ByLayer
370
18
48
1
60
0
100
AcDbLine
10
10.085407
20
-0.25
30
0
11
12.112448
21
-0.25
31
0
39
0
210
0
220
0
230
1
0
LINE
5
AE
100
AcDbEntity
8
1
62
256
6
ByLayer
370
13
48
1
60
0
100
AcDbLine
10
10.085505
20
-0.249981
30
0
11
18.872922
21
-0.249981
31
0
39
0
210
0
220
0
230
1
0
LINE
5
AF
100
AcDbEntity
8
1
62
256
6
ByLayer
370
18
48
1
60
0
100
AcDbLine
10
19.287063
20
0.129904
30
0
11
10.971714
21
0.129904
31
0
39
0
210
0
220
0
230
1
0
LINE
5
B0
100
AcDbEntity
8
1
62
256
6
ByLayer
370
18
48
1
60
0
100
AcDbLine
10
16.875133
20
20.250243
30
0
11
26.140087
21
29.515197
31
0
39
0
210
0
220
0
230
1
0
LINE
5
B1
100
AcDbEntity
8
1
62
256
6
ByLayer
370
18
48
1
60
0
100
AcDbLine
10
33.392581
20
18.00971
30
0
11
35.43631
21
18.00971
31
0
39
0
210
0
220
0
230
1
0
LINE
5
B2
100
AcDbEntity
8
1
62
256
6
ByLayer
370
18
48
1
60
0
100
AcDbLine
10
37.905933
20
18.00236
30
0
11
44.1
21
18.00236
31
0
39
0
210
0
220
0
230
1
0
LINE
5
B3
100
AcDbEntity
8
1
62
256
6
ByLayer
370
18
48
1
60
0
100
AcDbLine
10
44.1
20
18.955669
30
0
11
44.1
21
18.00236
31
0
39
0
210
0
220
0
230
1
0
LINE
5
B4
100
AcDbEntity
8
1
62
256
6
ByLayer
370
18
48
1
60
0
100
AcDbLine
10
-17.993925
20
-0.324981
30
0
11
-17.500052
21
-0.324981
31
0
39
0
210
0
220
0
230
1
0
LINE
5
B5
100
AcDbEntity
8
1
62
256
6
ByLayer
370
18
48
1
60
0
100
AcDbLine
10
-12.088254
20
-0.324981
30
0
11
-11.914321
21
-0.324981
31
0
39
0
210
0
220
0
230
1
0
LINE
5
B6
100
AcDbEntity
8
1
62
256
6
ByLayer
370
13
48
1
60
0
100
AcDbLine
10
-18.028729
20
-0.249981
30
0
11
-17.635485
21
-0.249981
31
0
39
0
210
0
220
0
230
1
0
LINE
5
B7
100
AcDbEntity
8
1
62
256
6
ByLayer
370
13
48
1
60
0
100
AcDbLine
10
-18.581248
20
0.394519
30
0
11
-18.473911
21
0.394519
31
0
39
0
210
0
220
0
230
1
0
LINE
5
B8
100
AcDbEntity
8
1
62
256
6
ByLayer
370
18
48
1
60
0
100
AcDbLine
10
-17.413473
20
-0.324981
30
0
11
-16.786972
21
-0.324981
31
0
39
0
210
0
220
0
230
1
0
LINE
5
B9
100
AcDbEntity
8
1
62
256
6
ByLayer
370
18
48
1
60
0
100
AcDbLine
10
-13.593357
20
-0.324981
30
0
11
-13.533459
21
-0.324981
31
0
39
0
210
0
220
0
230
1
0
LINE
5
BA
100
AcDbEntity
8
1
62
256
6
ByLayer
370
13
48
1
60
0
100
AcDbLine
10
-17.438264
20
-0.249981
30
0
11
-16.939731
21
-0.249981
31
0
39
0
210
0
220
0
230
1
0
LINE
5
BB
100
AcDbEntity
8
1
62
256
6
ByLayer
370
13
48
1
60
0
100
AcDbLine
10
-17.977888
20
0.394519
30
0
11
-17.842224
21
0.394519
31
0
39
0
210
0
220
0
230
1
0
LINE
5
BC
100
AcDbEntity
8
1
62
256
6
ByLayer
370
18
48
1
60
0
100
AcDbLine
10
-16.678631
20
-0.324981
30
0
11
-15.90146
21
-0.324981
31
0
39
0
210
0
220
0
230
1
0
LINE
5
BD
100
AcDbEntity
8
1
62
256
6
ByLayer
370
13
48
1
60
0
100
AcDbLine
10
-16.692843
20
-0.249981
30
0
11
-16.07471
21
-0.249981
31
0
39
0
210
0
220
0
230
1
0
LINE
5
BE
100
AcDbEntity
8
1
62
256
6
ByLayer
370
13
48
1
60
0
100
AcDbLine
10
-17.223418
20
0.394519
30
0
11
-17.055876
21
0.394519
31
0
39
0
210
0
220
0
230
1
0
LINE
5
BF
100
AcDbEntity
8
1
62
256
6
ByLayer
370
18
48
1
60
0
100
AcDbLine
10
-15.767828
20
-0.324981
30
0
11
-14.812472
21
-0.324981
31
0
39
0
210
0
220
0
230
1
0
LINE
5
C0
100
AcDbEntity
8
1
62
256
6
ByLayer
370
13
48
1
60
0
100
AcDbLine
10
-15.77051
20
-0.249981
30
0
11
-15.011304
21
-0.249981
31
0
39
0
210
0
220
0
230
1
0
LINE
5
C1
100
AcDbEntity
8
1
62
256
6
ByLayer
370
13
48
1
60
0
100
AcDbLine
10
-16.296865
20
0.394519
30
0
11
-16.09229
21
0.394519
31
0
39
0
210
0
220
0
230
1
0
LINE
5
C2
100
AcDbEntity
8
1
62
256
6
ByLayer
370
13
48
1
60
0
100
AcDbLine
10
27.1
20
16.037166
30
0
11
27.1
21
14.364709
31
0
39
0
210
0
220
0
230
1
0
LINE
5
C3
100
AcDbEntity
8
1
62
256
6
ByLayer
370
18
48
1
60
0
100
AcDbLine
10
-14.64828
20
-0.324981
30
0
11
-13.593304
21
-0.324981
31
0
39
0
210
0
220
0
230
1
0
LINE
5
C4
100
AcDbEntity
8
1
62
256
6
ByLayer
370
13
48
1
60
0
100
AcDbLine
10
-14.637861
20
-0.249981
30
0
11
-13.703342
21
-0.249981
31
0
39
0
210
0
220
0
230
1
0
LINE
5
C5
100
AcDbEntity
8
1
62
256
6
ByLayer
370
13
48
1
60
0
100
AcDbLine
10
-15.166723
20
0.394519
30
0
11
-14.917111
21
0.394519
31
0
39
0
210
0
220
0
230
1
0
LINE
5
C6
100
AcDbEntity
8
1
62
256
6
ByLayer
370
18
48
1
60
0
100
AcDbLine
10
-13.267245
20
-0.324981
30
0
11
-12.088194
21
-0.324981
31
0
39
0
210
0
220
0
230
1
0
LINE
5
C7
100
AcDbEntity
8
1
62
256
6
ByLayer
370
13
48
1
60
0
100
AcDbLine
10
-13.241033
20
-0.249981
30
0
11
-12.071604
21
-0.249981
31
0
39
0
210
0
220
0
230
1
0
LINE
5
C8
100
AcDbEntity
8
1
62
256
6
ByLayer
370
13
48
1
60
0
100
AcDbLine
10
-13.783002
20
0.394519
30
0
11
-13.474849
21
0.394519
31
0
39
0
210
0
220
0
230
1
0
LINE
5
C9
100
AcDbEntity
8
1
62
256
6
ByLayer
370
18
48
1
60
0
100
AcDbLine
10
13.51676
20
17.37511
30
0
11
13.235114
21
17.37511
31
0
39
0
210
0
220
0
230
1
0
LINE
5
CA
100
AcDbEntity
8
1
62
256
6
ByLayer
370
18
48
1
60
0
100
AcDbLine
10
13.932861
20
0.675
30
0
11
13.198176
21
0.675
31
0
39
0
210
0
220
0
230
1
0
LINE
5
CB
100
AcDbEntity
8
1
62
256
6
ByLayer
370
18
48
1
60
0
100
AcDbLine
10
14.272209
20
1.375
30
0
11
14.39618
21
1.375
31
0
39
0
210
0
220
0
230
1
0
LINE
5
CC
100
AcDbEntity
8
1
62
256
6
ByLayer
370
18
48
1
60
0
100
AcDbLine
10
13.932861
20
0.675
30
0
11
13.932861
21
0.875
31
0
39
0
210
0
220
0
230
1
0
LINE
5
CD
100
AcDbEntity
8
1
62
256
6
ByLayer
370
18
48
1
60
0
100
AcDbLine
10
21.360531
20
20.25011
30
0
11
23.823063
21
20.25011
31
0
39
0
210
0
220
0
230
1
0
LINE
5
CE
100
AcDbEntity
8
1
62
256
6
ByLayer
370
18
48
1
60
0
100
AcDbLine
10
21.360531
20
1.375
30
0
11
22.63592
21
1.375
31
0
39
0
210
0
220
0
230
1
0
LINE
5
CF
100
AcDbEntity
8
1
62
256
6
ByLayer
370
18
48
1
60
0
100
AcDbLine
10
25.5
20
3.778248
30
0
11
22.63592
21
1.375
31
0
39
0
210
0
220
0
230
1
0
LINE
5
D0
100
AcDbEntity
8
1
62
256
6
ByLayer
370
18
48
1
60
0
100
AcDbLine
10
25.5
20
3.778248
30
0
11
25.5
21
14.82874
31
0
39
0
210
0
220
0
230
1
0
LINE
5
D1
100
AcDbEntity
8
1
62
256
6
ByLayer
370
18
48
1
60
0
100
AcDbLine
10
33.6
20
17.985028
30
0
11
33.6
21
14.665123
31
0
39
0
210
0
220
0
230
1
0
LINE
5
D2
100
AcDbEntity
8
1
62
256
6
ByLayer
370
18
48
1
60
0
100
AcDbLine
10
16.875
20
20.25011
30
0
11
21.360531
21
20.25011
31
0
39
0
210
0
220
0
230
1
0
LINE
5
D3
100
AcDbEntity
8
1
62
256
6
ByLayer
370
18
48
1
60
0
100
AcDbLine
10
14.39618
20
17.638464
30
0
11
14.39618
21
1.375
31
0
39
0
210
0
220
0
230
1
0
LINE
5
D4
100
AcDbEntity
8
1
62
256
6
ByLayer
370
18
48
1
60
0
100
AcDbLine
10
21.360531
20
1.375
30
0
11
14.39618
21
1.375
31
0
39
0
210
0
220
0
230
1
0
LINE
5
D5
100
AcDbEntity
8
1
62
256
6
ByLayer
370
18
48
1
60
0
100
AcDbLine
10
21.360531
20
1.375
30
0
11
21.360531
21
2.758251
31
0
39
0
210
0
220
0
230
1
0
LINE
5
D6
100
AcDbEntity
8
1
62
256
6
ByLayer
370
18
48
1
60
0
100
AcDbLine
10
21.360531
20
11.441903
30
0
11
21.360531
21
20.25011
31
0
39
0
210
0
220
0
230
1
0
LINE
5
D7
100
AcDbEntity
8
1
62
256
6
ByLayer
370
18
48
1
60
0
100
AcDbLine
10
16.875
20
20.25011
30
0
11
15
21
18.37511
31
0
39
0
210
0
220
0
230
1
0
LINE
5
D8
100
AcDbEntity
8
1
62
256
6
ByLayer
370
18
48
1
60
0
100
AcDbLine
10
-11.531153
20
-0.324981
30
0
11
-9.594947
21
-0.324981
31
0
39
0
210
0
220
0
230
1
0
LINE
5
D9
100
AcDbEntity
8
1
62
256
6
ByLayer
370
13
48
1
60
0
100
AcDbLine
10
-11.48403
20
-0.249981
30
0
11
-9.957988
21
-0.249981
31
0
39
0
210
0
220
0
230
1
0
LINE
5
DA
100
AcDbEntity
8
1
62
256
6
ByLayer
370
13
48
1
60
0
100
AcDbLine
10
9.958064
20
-0.249981
30
0
11
10.085459
21
-0.249981
31
0
39
0
210
0
220
0
230
1
0
LINE
5
DB
100
AcDbEntity
8
1
62
256
6
ByLayer
370
13
48
1
60
0
100
AcDbLine
10
-12.058724
20
0.394519
30
0
11
-11.667722
21
0.394519
31
0
39
0
210
0
220
0
230
1
0
LINE
5
DC
100
AcDbEntity
8
1
62
256
6
ByLayer
370
18
48
1
60
0
100
AcDbLine
10
-9.242033
20
-0.324981
30
0
11
-6.372959
21
-0.324981
31
0
39
0
210
0
220
0
230
1
0
LINE
5
DD
100
AcDbEntity
8
1
62
256
6
ByLayer
370
18
48
1
60
0
100
AcDbLine
10
6.372959
20
-0.324981
30
0
11
9.242033
21
-0.324981
31
0
39
0
210
0
220
0
230
1
0
LINE
5
DE
100
AcDbEntity
8
1
62
256
6
ByLayer
370
13
48
1
60
0
100
AcDbLine
10
-9.161928
20
-0.249981
30
0
11
-6.935866
21
-0.249981
31
0
39
0
210
0
220
0
230
1
0
LINE
5
DF
100
AcDbEntity
8
1
62
256
6
ByLayer
370
13
48
1
60
0
100
AcDbLine
10
6.935866
20
-0.249981
30
0
11
9.161928
21
-0.249981
31
0
39
0
210
0
220
0
230
1
0
LINE
5
E0
100
AcDbEntity
8
1
62
256
6
ByLayer
370
13
48
1
60
0
100
AcDbLine
10
-9.816033
20
0.394519
30
0
11
-9.284126
21
0.394519
31
0
39
0
210
0
220
0
230
1
0
LINE
5
E1
100
AcDbEntity
8
1
62
256
6
ByLayer
370
13
48
1
60
0
100
AcDbLine
10
9.284126
20
0.394519
30
0
11
9.816033
21
0.394519
31
0
39
0
210
0
220
0
230
1
0
LINE
5
E2
100
AcDbEntity
8
1
62
256
6
ByLayer
370
18
48
1
60
0
100
AcDbLine
10
-5.776059
20
-0.324981
30
0
11
5.776059
21
-0.324981
31
0
39
0
210
0
220
0
230
1
0
LINE
5
E3
100
AcDbEntity
8
1
62
256
6
ByLayer
370
13
48
1
60
0
100
AcDbLine
10
-5.612388
20
-0.249981
30
0
11
5.612388
21
-0.249981
31
0
39
0
210
0
220
0
230
1
0
LINE
5
E4
100
AcDbEntity
8
1
62
256
6
ByLayer
370
13
48
1
60
0
100
AcDbLine
10
-6.541878
20
0.394519
30
0
11
-5.63501
21
0.394519
31
0
39
0
210
0
220
0
230
1
0
LINE
5
E5
100
AcDbEntity
8
1
62
256
6
ByLayer
370
13
48
1
60
0
100
AcDbLine
10
5.63501
20
0.394519
30
0
11
6.541878
21
0.394519
31
0
39
0
210
0
220
0
230
1
0
LINE
5
E6
100
AcDbEntity
8
1
62
256
6
ByLayer
370
18
48
1
60
0
100
AcDbLine
10
-19
20
0.675
30
0
11
-19
21
0.875
31
0
39
0
210
0
220
0
230
1
0
LINE
5
E7
100
AcDbEntity
8
1
62
256
6
ByLayer
370
18
48
1
60
0
100
AcDbLine
10
11.871309
20
0.675
30
0
11
13.198251
21
0.675
31
0
39
0
210
0
220
0
230
1
0
LINE
5
E8
100
AcDbEntity
8
1
62
256
6
ByLayer
370
18
48
1
60
0
100
AcDbLine
10
13.198251
20
0.875
30
0
11
13.198251
21
0.675
31
0
39
0
210
0
220
0
230
1
0
LINE
5
E9
100
AcDbEntity
8
1
62
256
6
ByLayer
370
18
48
1
60
0
100
AcDbLine
10
8.2521
20
17.37511
30
0
11
0
21
17.37511
31
0
39
0
210
0
220
0
230
1
0
LINE
5
EA
100
AcDbEntity
8
1
62
256
6
ByLayer
370
18
48
1
60
0
100
AcDbLine
10
8.2521
20
1.375
30
0
11
4.271709
21
1.375
31
0
39
0
210
0
220
0
230
1
0
LINE
5
EB
100
AcDbEntity
8
1
62
256
6
ByLayer
370
18
48
1
60
0
100
AcDbLine
10
0
20
17.37511
30
0
11
-7.72489
21
17.37511
31
0
39
0
210
0
220
0
230
1
0
LINE
5
EC
100
AcDbEntity
8
1
62
256
6
ByLayer
370
18
48
1
60
0
100
AcDbLine
10
-7.72489
20
17.37511
30
0
11
-19
21
6.1
31
0
39
0
210
0
220
0
230
1
0
LINE
5
ED
100
AcDbEntity
8
1
62
256
6
ByLayer
370
18
48
1
60
0
100
AcDbLine
10
-19
20
6.1
30
0
11
-19
21
1.092945
31
0
39
0
210
0
220
0
230
1
0
LINE
5
EE
100
AcDbEntity
8
1
62
256
6
ByLayer
370
13
48
1
60
0
100
AcDbLine
10
0
20
17.37511
30
0
11
0
21
1.092945
31
0
39
0
210
0
220
0
230
1
0
LINE
5
EF
100
AcDbEntity
8
1
62
256
6
ByLayer
370
18
48
1
60
0
100
AcDbLine
10
8.2521
20
17.37511
30
0
11
8.2521
21
1.375
31
0
39
0
210
0
220
0
230
1
0
LINE
5
F0
100
AcDbEntity
8
1
62
256
6
ByLayer
370
18
48
1
60
0
100
AcDbLine
10
11.008951
20
1.375
30
0
11
8.2521
21
1.375
31
0
39
0
210
0
220
0
230
1
0
LINE
5
F1
100
AcDbEntity
8
1
62
256
6
ByLayer
370
18
48
1
60
0
100
AcDbLine
10
13.235223
20
1.10195
30
0
11
13.235223
21
17.37511
31
0
39
0
210
0
220
0
230
1
0
LINE
5
F2
100
AcDbEntity
8
1
62
256
6
ByLayer
370
18
48
1
60
0
100
AcDbLine
10
13.235223
20
17.37511
30
0
11
8.2521
21
17.37511
31
0
39
0
210
0
220
0
230
1
0
LINE
5
F3
100
AcDbEntity
8
1
62
256
6
ByLayer
370
13
48
1
60
0
100
AcDbLine
10
13.198251
20
0.875
30
0
11
-19
21
0.875
31
0
39
0
210
0
220
0
230
1
0
LINE
5
F4
100
AcDbEntity
8
1
62
256
6
ByLayer
370
18
48
1
60
0
100
AcDbLine
10
0
20
1.092945
30
0
11
-19
21
1.092945
31
0
39
0
210
0
220
0
230
1
0
LINE
5
F5
100
AcDbEntity
8
1
62
256
6
ByLayer
370
18
48
1
60
0
100
AcDbLine
10
-17.993925
20
-0.324981
30
0
11
-18.000019
21
-0.324981
31
0
39
0
210
0
220
0
230
1
0
LINE
5
F6
100
AcDbEntity
8
1
62
256
6
ByLayer
370
18
48
1
60
0
100
AcDbLine
10
-17.413473
20
-0.324981
30
0
11
-17.50006
21
-0.324981
31
0
39
0
210
0
220
0
230
1
0
LINE
5
F7
100
AcDbEntity
8
1
62
256
6
ByLayer
370
18
48
1
60
0
100
AcDbLine
10
-16.678631
20
-0.324981
30
0
11
-16.787031
21
-0.324981
31
0
39
0
210
0
220
0
230
1
0
LINE
5
F8
100
AcDbEntity
8
1
62
256
6
ByLayer
370
18
48
1
60
0
100
AcDbLine
10
-15.767828
20
-0.324981
30
0
11
-15.901469
21
-0.324981
31
0
39
0
210
0
220
0
230
1
0
LINE
5
F9
100
AcDbEntity
8
1
62
256
6
ByLayer
370
18
48
1
60
0
100
AcDbLine
10
-14.64828
20
-0.324981
30
0
11
-14.812462
21
-0.324981
31
0
39
0
210
0
220
0
230
1
0
LINE
5
FA
100
AcDbEntity
8
1
62
256
6
ByLayer
370
18
48
1
60
0
100
AcDbLine
10
-13.267245
20
-0.324981
30
0
11
-13.470759
21
-0.324981
31
0
39
0
210
0
220
0
230
1
0
LINE
5
FB
100
AcDbEntity
8
1
62
256
6
ByLayer
370
18
48
1
60
0
100
AcDbLine
10
-11.531153
20
-0.324981
30
0
11
-11.790405
21
-0.324981
31
0
39
0
210
0
220
0
230
1
0
LINE
5
FC
100
AcDbEntity
8
1
62
256
6
ByLayer
370
18
48
1
60
0
100
AcDbLine
10
-9.242033
20
-0.324981
30
0
11
-9.595101
21
-0.324981
31
0
39
0
210
0
220
0
230
1
0
LINE
5
FD
100
AcDbEntity
8
1
62
256
6
ByLayer
370
18
48
1
60
0
100
AcDbLine
10
-5.776059
20
-0.324981
30
0
11
-6.373247
21
-0.324981
31
0
39
0
210
0
220
0
230
1
0
LINE
5
FE
100
AcDbEntity
8
1
62
256
6
ByLayer
370
18
48
1
60
0
100
AcDbLine
10
6.373247
20
-0.324981
30
0
11
5.776059
21
-0.324981
31
0
39
0
210
0
220
0
230
1
0
LINE
5
FF
100
AcDbEntity
8
1
62
256
6
ByLayer
370
18
48
1
60
0
100
AcDbLine
10
9.595101
20
-0.324981
30
0
11
9.242033
21
-0.324981
31
0
39
0
210
0
220
0
230
1
0
LINE
5
100
100
AcDbEntity
8
1
62
256
6
ByLayer
370
18
48
1
60
0
100
AcDbLine
10
-19
20
0.675
30
0
11
11.871309
21
0.675
31
0
39
0
210
0
220
0
230
1
0
LINE
5
101
100
AcDbEntity
8
1
62
256
6
ByLayer
370
18
48
1
60
0
100
AcDbLine
10
20
20
0.675
30
0
11
13.932861
21
0.675
31
0
39
0
210
0
220
0
230
1
0
LINE
5
102
100
AcDbEntity
8
1
62
256
6
ByLayer
370
13
48
1
60
0
100
AcDbLine
10
20
20
0.875
30
0
11
13.932861
21
0.875
31
0
39
0
210
0
220
0
230
1
0
LINE
5
103
100
AcDbEntity
8
1
62
256
6
ByLayer
370
18
48
1
60
0
100
AcDbLine
10
34.825805
20
29.515197
30
0
11
26.140087
21
29.515197
31
0
39
0
210
0
220
0
230
1
0
MTEXT
5
198
100
AcDbEntity
8
SK6
62
256
6
ByLayer
370
18
48
1
60
0
100
AcDbMText
10
-19.2645
20
-41.959768
30
0
210
0
220
0
230
1
1
\W0.7787;C2A-SL40-LGH18B-052GB
40
3.5
41
0
44
1.084337
50
0
71
7
72
5
7
iso_b_vert
0
DIMENSION
5
19D
100
AcDbEntity
8
2
62
256
6
ByLayer
370
18
48
1
60
0
100
AcDbDimension
2
_U0
10
45.1
20
-19.75
30
0
11
22.55
21
-19.75
31
0
70
32
71
1
72
1
41
1
210
0
220
0
230
1
3
Standard
100
AcDbAlignedDimension
13
0
23
0
33
0
14
45.1
24
18
34
0
50
0
100
AcDbRotatedDimension
1001
ACAD
1000
DSTYLE
1002
{
1070
   371
1070
    13
1070
   372
1070
    13
1070
   170
1070
     0
1070
   144
1040
1.0
1070
   277
1070
     2
1070
   284
1070
     8
1070
   278
1070
    46
1070
   146
1040
1.0
1070
   345
1005
16
1070
   347
1005
16
1070
   346
1005
16
1070
   344
1005
0
1070
   343
1005
0
1070
   172
1070
     1
1070
    76
1070
     0
1070
    75
1070
     0
1070
   282
1070
     0
1070
   281
1070
     0
1070
    71
1070
     0
1070
    74
1070
     0
1070
   279
1070
     0
1070
   173
1070
     1
1070
   340
1005
199
1070
   271
1070
     2
1070
   272
1070
     2
1070
    77
1070
     1
1070
    73
1070
     1
1070
   171
1070
     3
1070
   274
1070
     4
1070
   177
1070
     2
1070
   176
1070
     2
1070
   178
1070
     2
1070
    78
1070
     8
1070
    48
1040
-0.1
1070
    41
1040
3.5
1070
   147
1040
1.75
1070
    42
1040
1.5875
1070
    44
1040
2.0
1070
   140
1040
3.5
1002
}
1001
ACAD_DSTYLE_DIM_LINETYPE
1070
   380
1005
16
1001
ACAD_DSTYLE_DIM_EXT1_LINETYPE
1070
   381
1005
16
1001
ACAD_DSTYLE_DIM_EXT2_LINETYPE
1070
   382
1005
16
0
DIMENSION
5
1B7
100
AcDbEntity
8
2
62
256
6
ByLayer
370
18
48
1
60
0
100
AcDbDimension
2
_U1
10
45.1
20
-11.75
30
0
11
36.1
21
-11.75
31
0
70
32
71
1
72
1
41
1
210
0
220
0
230
1
3
Standard
100
AcDbAlignedDimension
13
27.1
23
14.32511
33
0
14
45.1
24
18
34
0
50
0
100
AcDbRotatedDimension
1001
ACAD
1000
DSTYLE
1002
{
1070
   371
1070
    13
1070
   372
1070
    13
1070
   170
1070
     0
1070
   144
1040
1.0
1070
   277
1070
     2
1070
   284
1070
     8
1070
   278
1070
    46
1070
   146
1040
1.0
1070
   345
1005
16
1070
   347
1005
16
1070
   346
1005
16
1070
   344
1005
0
1070
   343
1005
0
1070
   172
1070
     1
1070
    76
1070
     0
1070
    75
1070
     0
1070
   282
1070
     0
1070
   281
1070
     0
1070
    71
1070
     0
1070
    74
1070
     0
1070
   279
1070
     0
1070
   173
1070
     1
1070
   340
1005
199
1070
   271
1070
     2
1070
   272
1070
     2
1070
    77
1070
     1
1070
    73
1070
     1
1070
   171
1070
     3
1070
   274
1070
     4
1070
   177
1070
     2
1070
   176
1070
     2
1070
   178
1070
     2
1070
    78
1070
     8
1070
    48
1040
-0.1
1070
    41
1040
3.5
1070
   147
1040
1.75
1070
    42
1040
1.5875
1070
    44
1040
2.0
1070
   140
1040
3.5
1002
}
1001
ACAD_DSTYLE_DIM_LINETYPE
1070
   380
1005
16
1001
ACAD_DSTYLE_DIM_EXT1_LINETYPE
1070
   381
1005
16
1001
ACAD_DSTYLE_DIM_EXT2_LINETYPE
1070
   382
1005
16
0
DIMENSION
5
1CF
100
AcDbEntity
8
2
62
256
6
ByLayer
370
18
48
1
60
0
100
AcDbDimension
2
_U2
10
69.85
20
0
30
0
11
69.85
21
9
31
0
70
32
71
1
72
1
41
1
210
0
220
0
230
1
3
Standard
100
AcDbAlignedDimension
13
45.1
23
18
33
0
14
0
24
0
34
0
50
90
100
AcDbRotatedDimension
1001
ACAD
1000
DSTYLE
1002
{
1070
   371
1070
    13
1070
   372
1070
    13
1070
   170
1070
     0
1070
   144
1040
1.0
1070
   277
1070
     2
1070
   284
1070
     8
1070
   278
1070
    46
1070
   146
1040
1.0
1070
   345
1005
16
1070
   347
1005
16
1070
   346
1005
16
1070
   344
1005
0
1070
   343
1005
0
1070
   172
1070
     1
1070
    76
1070
     0
1070
    75
1070
     0
1070
   282
1070
     0
1070
   281
1070
     0
1070
    71
1070
     0
1070
    74
1070
     0
1070
   279
1070
     0
1070
   173
1070
     1
1070
   340
1005
199
1070
   271
1070
     2
1070
   272
1070
     2
1070
    77
1070
     1
1070
    73
1070
     0
1070
   171
1070
     3
1070
   274
1070
     4
1070
   177
1070
     2
1070
   176
1070
     2
1070
   178
1070
     2
1070
    78
1070
     8
1070
    48
1040
-0.1
1070
    41
1040
3.5
1070
   147
1040
1.75
1070
    42
1040
1.5875
1070
    44
1040
2.0
1070
   140
1040
3.5
1002
}
1001
ACAD_DSTYLE_DIM_LINETYPE
1070
   380
1005
16
1001
ACAD_DSTYLE_DIM_EXT1_LINETYPE
1070
   381
1005
16
1001
ACAD_DSTYLE_DIM_EXT2_LINETYPE
1070
   382
1005
16
0
DIMENSION
5
1E7
100
AcDbEntity
8
2
62
256
6
ByLayer
370
18
48
1
60
0
100
AcDbDimension
2
_U3
10
56.85
20
14
30
0
11
56.85
21
16
31
0
70
32
71
1
72
1
41
1
210
0
220
0
230
1
3
Standard
100
AcDbAlignedDimension
13
45.1
23
18
33
0
14
45.1
24
14
34
0
50
90
100
AcDbRotatedDimension
1001
ACAD
1000
DSTYLE
1002
{
1070
   371
1070
    13
1070
   372
1070
    13
1070
   170
1070
     0
1070
   144
1040
1.0
1070
   277
1070
     2
1070
   284
1070
     8
1070
   278
1070
    46
1070
   146
1040
1.0
1070
   345
1005
16
1070
   347
1005
16
1070
   346
1005
16
1070
   344
1005
0
1070
   343
1005
0
1070
   172
1070
     1
1070
    76
1070
     0
1070
    75
1070
     0
1070
   282
1070
     0
1070
   281
1070
     0
1070
    71
1070
     0
1070
    74
1070
     0
1070
   279
1070
     0
1070
   173
1070
     1
1070
   340
1005
199
1070
   271
1070
     2
1070
   272
1070
     2
1070
    77
1070
     1
1070
    73
1070
     0
1070
   171
1070
     3
1070
   274
1070
     4
1070
   177
1070
     2
1070
   176
1070
     2
1070
   178
1070
     2
1070
    78
1070
     8
1070
    48
1040
-0.1
1070
    41
1040
3.5
1070
   147
1040
1.75
1070
    42
1040
1.5875
1070
    44
1040
2.0
1070
   140
1040
3.5
1002
}
1001
ACAD_DSTYLE_DIM_LINETYPE
1070
   380
1005
16
1001
ACAD_DSTYLE_DIM_EXT1_LINETYPE
1070
   381
1005
16
1001
ACAD_DSTYLE_DIM_EXT2_LINETYPE
1070
   382
1005
16
0
ENDSEC
0
SECTION
2
OBJECTS
0
DICTIONARY
5
26d
330
0
100
AcDbDictionary
280
0
281
1
3
ACAD_GROUP
350
26e
3
ACAD_MLINESTYLE
350
26f
0
DICTIONARY
5
26e
330
0
100
AcDbDictionary
280
0
281
1
0
DICTIONARY
5
26f
330
0
100
AcDbDictionary
280
0
281
1
3
Standard
350
18
0
MLINESTYLE
5
18
330
26f
100
AcDbMlineStyle
2
Standard
70
0
3

62
256
51
90
52
90
71
2
49
-0.5
62
256
6
ByLayer
49
0.5
62
256
6
ByLayer
0
RASTERVARIABLES
5
25e
330

100
AcDbRasterVariables
90
0
70
1
71
1
72
1
0
ENDSEC
0
EOF
