0
SECTION
2
HEADER
9
$ACADVER
1
AC1015
9
$DWGCODEPAGE
3
ANSI_1252
9
$HANDSEED
5
273
9
$ANGBASE
50
0
9
$ANGDIR
70
0
9
$ATTMODE
70
1
9
$AUNITS
70
0
9
$AUPREC
70
0
9
$CECOLOR
62
256
9
$CELTSCALE
40
1
9
$CELTYPE
6
ByLayer
9
$CELWEIGHT
370
18
9
$CLAYER
8
0
9
$CMLJUST
70
0
9
$CMLSCALE
40
1
9
$CMLSTYLE
2
Standard
9
$DIMSTYLE
2
Standard
9
$TEXTSIZE
40
0.2
9
$TEXTSTYLE
7
Standard
9
$LUNITS
70
2
9
$LUPREC
70
4
9
$EXTNAMES
290
1
9
$INSUNITS
70
4
9
$LTSCALE
40
1
9
$LWDISPLAY
290
1
9
$PDMODE
70
0
9
$PDSIZE
40
0
9
$PLINEGEN
70
0
0
ENDSEC
0
SECTION
2
CLASSES
0
CLASS
1
RASTERVARIABLES
2
AcDbRasterVariables
3
ISM
90
0
280
0
281
0
0
ENDSEC
0
SECTION
2
TABLES
0
TABLE
2
VPORT
5
269
100
AcDbSymbolTable
0
VPORT
5
1
100
AcDbSymbolTableRecord
100
AcDbViewportTableRecord
2
*Active
70
0
10
0
20
0
11
1
21
1
12
-1
22
1
13
0
23
0
14
0.5
24
0.5
15
10
25
10
16
0
26
0
36
1
17
0
27
0
37
0
0
ENDTAB
0
TABLE
2
LTYPE
5
26a
100
AcDbSymbolTable
0
LTYPE
5
14
100
AcDbSymbolTableRecord
100
AcDbLinetypeTableRecord
70
0
2
ByBlock
3

72
65
73
0
40
0
0
LTYPE
5
15
100
AcDbSymbolTableRecord
100
AcDbLinetypeTableRecord
70
0
2
ByLayer
3

72
65
73
0
40
0
0
LTYPE
5
16
100
AcDbSymbolTableRecord
100
AcDbLinetypeTableRecord
70
0
2
Continuous
3
Solid line
72
65
73
0
40
0
0
LTYPE
5
6E
100
AcDbSymbolTableRecord
100
AcDbLinetypeTableRecord
70
0
2
CENTER
3
____ _ ____ _ ____ _ ____
72
65
73
4
40
47.5
49
22
74
0
49
-8.5
74
0
49
8.5
74
0
49
-8.5
74
0
0
LTYPE
5
6F
100
AcDbSymbolTableRecord
100
AcDbLinetypeTableRecord
70
0
2
DASHED
3
__ __ __ __ __ __ __ __ __
72
65
73
2
40
25.72
49
12.86
74
0
49
-12.86
74
0
0
ENDTAB
0
TABLE
2
LAYER
5
26b
100
AcDbSymbolTable
0
LAYER
5
10
100
AcDbSymbolTableRecord
100
AcDbLayerTableRecord
2
0
70
0
62
7
6
Continuous
290
1
370
-3
390
0
0
LAYER
5
71
100
AcDbSymbolTableRecord
100
AcDbLayerTableRecord
2
81
70
0
62
-3
6
Continuous
290
1
370
-3
390
0
0
LAYER
5
73
100
AcDbSymbolTableRecord
100
AcDbLayerTableRecord
2
80
70
0
62
-6
6
Continuous
290
1
370
-3
390
0
0
LAYER
5
75
100
AcDbSymbolTableRecord
100
AcDbLayerTableRecord
2
1
70
0
62
4
6
Continuous
290
1
370
-3
390
0
0
LAYER
5
197
100
AcDbSymbolTableRecord
100
AcDbLayerTableRecord
2
Defpoints
70
0
62
7
6
Continuous
290
0
370
-3
390
0
0
LAYER
5
1A4
100
AcDbSymbolTableRecord
100
AcDbLayerTableRecord
2
2
70
0
62
7
6
Continuous
290
1
370
-3
390
0
0
LAYER
5
258
100
AcDbSymbolTableRecord
100
AcDbLayerTableRecord
2
SK6
70
0
62
5
6
Continuous
290
1
370
-3
390
0
0
ENDTAB
0
TABLE
2
STYLE
5
26c
100
AcDbSymbolTable
0
STYLE
5
11
100
AcDbSymbolTableRecord
100
AcDbTextStyleTableRecord
2
Standard
3
txt
70
0
71
0
40
0
41
1
42
0
50
0
0
STYLE
5
190
100
AcDbSymbolTableRecord
100
AcDbTextStyleTableRecord
2
iso_b_vert
3
simplex.shx
70
0
71
0
40
0
41
1
42
0
50
0
0
STYLE
5
191
100
AcDbSymbolTableRecord
100
AcDbTextStyleTableRecord
2
DWGDirectTextStyle
3
simplex
70
0
71
0
40
0
41
1
42
0
50
0
0
ENDTAB
0
TABLE
2
DIMSTYLE
5
26d
100
AcDbSymbolTable
100
AcDbDimStyleTable
0
DIMSTYLE
105
27
100
AcDbSymbolTableRecord
100
AcDbDimStyleTableRecord
2
Standard
70
0
3
<>
41
0.18
42
0.0625
44
0.18
140
0.18
147
0.09
73
0
74
0
77
1
271
2
275
0
278
52
280
0
340
11
0
ENDTAB
0
TABLE
2
VIEW
5
26e
100
AcDbSymbolTable
0
ENDTAB
0
TABLE
2
UCS
5
26f
100
AcDbSymbolTable
0
ENDTAB
0
TABLE
2
APPID
5
270
100
AcDbSymbolTable
0
APPID
5
12
100
AcDbSymbolTableRecord
100
AcDbRegAppTableRecord
2
ACAD
70
0
0
APPID
5
193
100
AcDbSymbolTableRecord
100
AcDbRegAppTableRecord
2
ACAD_DSTYLE_DIMBREAK
70
0
0
APPID
5
217
100
AcDbSymbolTableRecord
100
AcDbRegAppTableRecord
2
ACAD_DSTYLE_DIM_LINETYPE
70
0
0
APPID
5
218
100
AcDbSymbolTableRecord
100
AcDbRegAppTableRecord
2
ACAD_DSTYLE_DIM_EXT1_LINETYPE
70
0
0
APPID
5
219
100
AcDbSymbolTableRecord
100
AcDbRegAppTableRecord
2
ACAD_DSTYLE_DIM_EXT2_LINETYPE
70
0
0
APPID
5
254
100
AcDbSymbolTableRecord
100
AcDbRegAppTableRecord
2
ACAD_MLEADERVER
70
0
0
ENDTAB
0
TABLE
2
BLOCK_RECORD
5
271
100
AcDbSymbolTable
0
BLOCK_RECORD
5
1F
100
AcDbSymbolTableRecord
100
AcDbBlockTableRecord
2
*Model_Space
340
0
70
0
0
BLOCK_RECORD
5
1B
100
AcDbSymbolTableRecord
100
AcDbBlockTableRecord
2
*Paper_Space
340
0
70
0
0
BLOCK_RECORD
5
23
100
AcDbSymbolTableRecord
100
AcDbBlockTableRecord
2
*Paper_Space0
340
0
70
0
0
BLOCK_RECORD
5
198
100
AcDbSymbolTableRecord
100
AcDbBlockTableRecord
2
*D1
340
0
70
0
0
BLOCK_RECORD
5
1A5
100
AcDbSymbolTableRecord
100
AcDbBlockTableRecord
2
_U0
340
0
70
0
0
BLOCK_RECORD
5
1B1
100
AcDbSymbolTableRecord
100
AcDbBlockTableRecord
2
*D3
340
0
70
0
0
BLOCK_RECORD
5
1BE
100
AcDbSymbolTableRecord
100
AcDbBlockTableRecord
2
_U1
340
0
70
0
0
BLOCK_RECORD
5
1CA
100
AcDbSymbolTableRecord
100
AcDbBlockTableRecord
2
*D5
340
0
70
0
0
BLOCK_RECORD
5
1D7
100
AcDbSymbolTableRecord
100
AcDbBlockTableRecord
2
_U2
340
0
70
0
0
BLOCK_RECORD
5
1E3
100
AcDbSymbolTableRecord
100
AcDbBlockTableRecord
2
*D7
340
0
70
0
0
BLOCK_RECORD
5
1F0
100
AcDbSymbolTableRecord
100
AcDbBlockTableRecord
2
_U3
340
0
70
0
0
ENDTAB
0
ENDSEC
0
SECTION
2
BLOCKS
0
BLOCK
5
20
100
AcDbEntity
8
0
100
AcDbBlockBegin
2
*Model_Space
70
0
10
0
20
0
30
0
3
*Model_Space
0
ENDBLK
5
21
100
AcDbEntity
8
0
100
AcDbBlockEnd
0
BLOCK
5
1C
100
AcDbEntity
8
0
100
AcDbBlockBegin
2
*Paper_Space
70
0
10
0
20
0
30
0
3
*Paper_Space
0
ENDBLK
5
1D
100
AcDbEntity
8
0
100
AcDbBlockEnd
0
BLOCK
5
24
100
AcDbEntity
8
0
100
AcDbBlockBegin
2
*Paper_Space0
70
0
10
0
20
0
30
0
3
*Paper_Space0
0
ENDBLK
5
25
100
AcDbEntity
8
0
100
AcDbBlockEnd
0
BLOCK
5
199
100
AcDbEntity
8
0
100
AcDbBlockBegin
2
*D1
70
1
10
0
20
0
30
0
3
*D1
0
LINE
5
19B
100
AcDbEntity
8
0
62
256
6
ByLayer
370
-2
48
1
60
0
100
AcDbLine
10
0
20
-1.5875
30
0
11
0
21
-21.75
31
0
39
0
210
0
220
0
230
1
0
LINE
5
19C
100
AcDbEntity
8
0
62
256
6
ByLayer
370
-2
48
1
60
0
100
AcDbLine
10
38.1
20
12.4125
30
0
11
38.1
21
-21.75
31
0
39
0
210
0
220
0
230
1
0
LINE
5
19D
100
AcDbEntity
8
0
62
256
6
ByLayer
370
-2
48
1
60
0
100
AcDbLine
10
3.5
20
-19.75
30
0
11
34.6
21
-19.75
31
0
39
0
210
0
220
0
230
1
0
SOLID
5
19E
100
AcDbEntity
8
0
62
256
6
ByLayer
370
-1
48
1
60
0
100
AcDbTrace
10
3.5
20
-19.166667
30
0
11
3.5
21
-20.333333
31
0
12
0
22
-19.75
32
0
13
0
23
-19.75
33
0
39
0
210
0
220
0
230
1
0
SOLID
5
19F
100
AcDbEntity
8
0
62
256
6
ByLayer
370
-1
48
1
60
0
100
AcDbTrace
10
34.6
20
-20.333333
30
0
11
34.6
21
-19.166667
31
0
12
38.1
22
-19.75
32
0
13
38.1
23
-19.75
33
0
39
0
210
0
220
0
230
1
0
MTEXT
5
1A0
100
AcDbEntity
8
0
62
256
6
ByLayer
370
18
48
1
60
0
100
AcDbMText
10
19.05
20
-12.75
30
0
210
0
220
0
230
1
1
\A1;38.1
40
3.5
41
0
44
1
50
0
71
5
72
5
7
iso_b_vert
0
POINT
5
1A1
100
AcDbEntity
8
Defpoints
62
0
6
ByLayer
370
-1
48
1
60
0
100
AcDbPoint
10
0
20
0
30
0
39
0
210
0
220
0
230
1
50
360
0
POINT
5
1A2
100
AcDbEntity
8
Defpoints
62
0
6
ByLayer
370
-1
48
1
60
0
100
AcDbPoint
10
38.1
20
14
30
0
39
0
210
0
220
0
230
1
50
360
0
POINT
5
1A3
100
AcDbEntity
8
Defpoints
62
0
6
ByLayer
370
-1
48
1
60
0
100
AcDbPoint
10
38.1
20
-19.75
30
0
39
0
210
0
220
0
230
1
50
360
0
ENDBLK
5
19A
100
AcDbEntity
8
0
100
AcDbBlockEnd
0
BLOCK
5
1AC
100
AcDbEntity
8
0
100
AcDbBlockBegin
2
_U0
70
0
10
0
20
0
30
0
3
_U0
0
MTEXT
5
1A6
100
AcDbEntity
8
2
62
256
6
ByLayer
370
18
48
1
60
0
100
AcDbMText
10
15.565734
20
-18.717366
30
0
210
0
220
0
230
1
1
\W0.7208;38.1
40
3.5
41
0
44
1.084337
50
0
71
7
72
5
7
iso_b_vert
0
LINE
5
1A7
100
AcDbEntity
8
2
62
256
6
ByLayer
370
13
48
1
60
0
100
AcDbLine
10
0
20
-1.5875
30
0
11
0
21
-21.75
31
0
39
0
210
0
220
0
230
1
0
LINE
5
1A8
100
AcDbEntity
8
2
62
256
6
ByLayer
370
13
48
1
60
0
100
AcDbLine
10
38.1
20
12.4125
30
0
11
38.1
21
-21.75
31
0
39
0
210
0
220
0
230
1
0
LINE
5
1A9
100
AcDbEntity
8
2
62
256
6
ByLayer
370
13
48
1
60
0
100
AcDbLine
10
0
20
-19.75
30
0
11
38.1
21
-19.75
31
0
39
0
210
0
220
0
230
1
0
SOLID
5
1AA
100
AcDbEntity
8
2
62
256
6
ByLayer
370
18
48
1
60
0
100
AcDbTrace
10
0
20
-19.75
30
0
11
3.499998
21
-19.289216
31
0
12
3.500002
22
-20.210784
32
0
13
3.500002
23
-20.210784
33
0
39
0
210
0
220
0
230
1
0
SOLID
5
1AB
100
AcDbEntity
8
2
62
256
6
ByLayer
370
18
48
1
60
0
100
AcDbTrace
10
38.1
20
-19.75
30
0
11
34.600002
21
-20.210784
31
0
12
34.599998
22
-19.289216
32
0
13
34.599998
23
-19.289216
33
0
39
0
210
0
220
0
230
1
0
ENDBLK
5
1AD
100
AcDbEntity
8
0
100
AcDbBlockEnd
0
BLOCK
5
1B2
100
AcDbEntity
8
0
100
AcDbBlockBegin
2
*D3
70
1
10
0
20
0
30
0
3
*D3
0
LINE
5
1B4
100
AcDbEntity
8
0
62
256
6
ByLayer
370
-2
48
1
60
0
100
AcDbLine
10
23.1
20
9.738014
30
0
11
23.1
21
-13.75
31
0
39
0
210
0
220
0
230
1
0
LINE
5
1B5
100
AcDbEntity
8
0
62
256
6
ByLayer
370
-2
48
1
60
0
100
AcDbLine
10
38.1
20
12.4125
30
0
11
38.1
21
-13.75
31
0
39
0
210
0
220
0
230
1
0
LINE
5
1B6
100
AcDbEntity
8
0
62
256
6
ByLayer
370
-2
48
1
60
0
100
AcDbLine
10
19.6
20
-11.75
30
0
11
16.1
21
-11.75
31
0
39
0
210
0
220
0
230
1
0
LINE
5
1B7
100
AcDbEntity
8
0
62
256
6
ByLayer
370
-2
48
1
60
0
100
AcDbLine
10
41.6
20
-11.75
30
0
11
45.1
21
-11.75
31
0
39
0
210
0
220
0
230
1
0
SOLID
5
1B8
100
AcDbEntity
8
0
62
256
6
ByLayer
370
-1
48
1
60
0
100
AcDbTrace
10
19.6
20
-12.333333
30
0
11
19.6
21
-11.166667
31
0
12
23.1
22
-11.75
32
0
13
23.1
23
-11.75
33
0
39
0
210
0
220
0
230
1
0
SOLID
5
1B9
100
AcDbEntity
8
0
62
256
6
ByLayer
370
-1
48
1
60
0
100
AcDbTrace
10
41.6
20
-11.166667
30
0
11
41.6
21
-12.333333
31
0
12
38.1
22
-11.75
32
0
13
38.1
23
-11.75
33
0
39
0
210
0
220
0
230
1
0
MTEXT
5
1BA
100
AcDbEntity
8
0
62
256
6
ByLayer
370
18
48
1
60
0
100
AcDbMText
10
30.6
20
-4.75
30
0
210
0
220
0
230
1
1
\A1;15
40
3.5
41
0
44
1
50
0
71
5
72
5
7
iso_b_vert
0
POINT
5
1BB
100
AcDbEntity
8
Defpoints
62
0
6
ByLayer
370
-1
48
1
60
0
100
AcDbPoint
10
23.1
20
11.325514
30
0
39
0
210
0
220
0
230
1
50
360
0
POINT
5
1BC
100
AcDbEntity
8
Defpoints
62
0
6
ByLayer
370
-1
48
1
60
0
100
AcDbPoint
10
38.1
20
14
30
0
39
0
210
0
220
0
230
1
50
360
0
POINT
5
1BD
100
AcDbEntity
8
Defpoints
62
0
6
ByLayer
370
-1
48
1
60
0
100
AcDbPoint
10
38.1
20
-11.75
30
0
39
0
210
0
220
0
230
1
50
360
0
ENDBLK
5
1B3
100
AcDbEntity
8
0
100
AcDbBlockEnd
0
BLOCK
5
1C5
100
AcDbEntity
8
0
100
AcDbBlockBegin
2
_U1
70
0
10
0
20
0
30
0
3
_U1
0
MTEXT
5
1BF
100
AcDbEntity
8
2
62
256
6
ByLayer
370
18
48
1
60
0
100
AcDbMText
10
29.132467
20
-10.717366
30
0
210
0
220
0
230
1
1
\W0.5321;15
40
3.5
41
0
44
1.084337
50
0
71
7
72
5
7
iso_b_vert
0
LINE
5
1C0
100
AcDbEntity
8
2
62
256
6
ByLayer
370
13
48
1
60
0
100
AcDbLine
10
23.1
20
9.738014
30
0
11
23.1
21
-13.75
31
0
39
0
210
0
220
0
230
1
0
LINE
5
1C1
100
AcDbEntity
8
2
62
256
6
ByLayer
370
13
48
1
60
0
100
AcDbLine
10
38.1
20
12.4125
30
0
11
38.1
21
-13.75
31
0
39
0
210
0
220
0
230
1
0
LINE
5
1C2
100
AcDbEntity
8
2
62
256
6
ByLayer
370
13
48
1
60
0
100
AcDbLine
10
23.1
20
-11.75
30
0
11
38.1
21
-11.75
31
0
39
0
210
0
220
0
230
1
0
SOLID
5
1C3
100
AcDbEntity
8
2
62
256
6
ByLayer
370
18
48
1
60
0
100
AcDbTrace
10
23.1
20
-11.75
30
0
11
26.599998
21
-11.289216
31
0
12
26.600002
22
-12.210784
32
0
13
26.600002
23
-12.210784
33
0
39
0
210
0
220
0
230
1
0
SOLID
5
1C4
100
AcDbEntity
8
2
62
256
6
ByLayer
370
18
48
1
60
0
100
AcDbTrace
10
38.1
20
-11.75
30
0
11
34.600002
21
-12.210784
31
0
12
34.599998
22
-11.289216
32
0
13
34.599998
23
-11.289216
33
0
39
0
210
0
220
0
230
1
0
ENDBLK
5
1C6
100
AcDbEntity
8
0
100
AcDbBlockEnd
0
BLOCK
5
1CB
100
AcDbEntity
8
0
100
AcDbBlockBegin
2
*D5
70
1
10
0
20
0
30
0
3
*D5
0
LINE
5
1CD
100
AcDbEntity
8
0
62
256
6
ByLayer
370
-2
48
1
60
0
100
AcDbLine
10
39.6875
20
14
30
0
11
64.85
21
14
31
0
39
0
210
0
220
0
230
1
0
LINE
5
1CE
100
AcDbEntity
8
0
62
256
6
ByLayer
370
-2
48
1
60
0
100
AcDbLine
10
1.5875
20
0
30
0
11
64.85
21
0
31
0
39
0
210
0
220
0
230
1
0
LINE
5
1CF
100
AcDbEntity
8
0
62
256
6
ByLayer
370
-2
48
1
60
0
100
AcDbLine
10
62.85
20
17.5
30
0
11
62.85
21
21
31
0
39
0
210
0
220
0
230
1
0
LINE
5
1D0
100
AcDbEntity
8
0
62
256
6
ByLayer
370
-2
48
1
60
0
100
AcDbLine
10
62.85
20
-3.5
30
0
11
62.85
21
-7
31
0
39
0
210
0
220
0
230
1
0
SOLID
5
1D1
100
AcDbEntity
8
0
62
256
6
ByLayer
370
-1
48
1
60
0
100
AcDbTrace
10
62.266667
20
17.5
30
0
11
63.433333
21
17.5
31
0
12
62.85
22
14
32
0
13
62.85
23
14
33
0
39
0
210
0
220
0
230
1
0
SOLID
5
1D2
100
AcDbEntity
8
0
62
256
6
ByLayer
370
-1
48
1
60
0
100
AcDbTrace
10
63.433333
20
-3.5
30
0
11
62.266667
21
-3.5
31
0
12
62.85
22
0
32
0
13
62.85
23
0
33
0
39
0
210
0
220
0
230
1
0
MTEXT
5
1D3
100
AcDbEntity
8
0
62
256
6
ByLayer
370
18
48
1
60
0
100
AcDbMText
10
55.85
20
7
30
0
210
0
220
0
230
1
1
\A1;14
40
3.5
41
0
44
1
50
90
71
5
72
5
7
iso_b_vert
0
POINT
5
1D4
100
AcDbEntity
8
Defpoints
62
0
6
ByLayer
370
-1
48
1
60
0
100
AcDbPoint
10
38.1
20
14
30
0
39
0
210
0
220
0
230
1
50
360
0
POINT
5
1D5
100
AcDbEntity
8
Defpoints
62
0
6
ByLayer
370
-1
48
1
60
0
100
AcDbPoint
10
0
20
0
30
0
39
0
210
0
220
0
230
1
50
360
0
POINT
5
1D6
100
AcDbEntity
8
Defpoints
62
0
6
ByLayer
370
-1
48
1
60
0
100
AcDbPoint
10
62.85
20
0
30
0
39
0
210
0
220
0
230
1
50
360
0
ENDBLK
5
1CC
100
AcDbEntity
8
0
100
AcDbBlockEnd
0
BLOCK
5
1DE
100
AcDbEntity
8
0
100
AcDbBlockBegin
2
_U2
70
0
10
0
20
0
30
0
3
_U2
0
MTEXT
5
1D8
100
AcDbEntity
8
2
62
256
6
ByLayer
370
18
48
1
60
0
100
AcDbMText
10
62.160366
20
5.3202
30
0
210
0
220
0
230
1
1
\W0.5785;14
40
3.5
41
0
44
1.084337
50
90
71
7
72
5
7
iso_b_vert
0
LINE
5
1D9
100
AcDbEntity
8
2
62
256
6
ByLayer
370
13
48
1
60
0
100
AcDbLine
10
39.6875
20
14
30
0
11
64.85
21
14
31
0
39
0
210
0
220
0
230
1
0
LINE
5
1DA
100
AcDbEntity
8
2
62
256
6
ByLayer
370
13
48
1
60
0
100
AcDbLine
10
1.5875
20
0
30
0
11
64.85
21
0
31
0
39
0
210
0
220
0
230
1
0
LINE
5
1DB
100
AcDbEntity
8
2
62
256
6
ByLayer
370
13
48
1
60
0
100
AcDbLine
10
62.85
20
14
30
0
11
62.85
21
0
31
0
39
0
210
0
220
0
230
1
0
SOLID
5
1DC
100
AcDbEntity
8
2
62
256
6
ByLayer
370
18
48
1
60
0
100
AcDbTrace
10
62.85
20
14
30
0
11
63.310784
21
10.500002
31
0
12
62.389216
22
10.499998
32
0
13
62.389216
23
10.499998
33
0
39
0
210
0
220
0
230
1
0
SOLID
5
1DD
100
AcDbEntity
8
2
62
256
6
ByLayer
370
18
48
1
60
0
100
AcDbTrace
10
62.85
20
0
30
0
11
62.389216
21
3.499998
31
0
12
63.310784
22
3.500002
32
0
13
63.310784
23
3.500002
33
0
39
0
210
0
220
0
230
1
0
ENDBLK
5
1DF
100
AcDbEntity
8
0
100
AcDbBlockEnd
0
BLOCK
5
1E4
100
AcDbEntity
8
0
100
AcDbBlockBegin
2
*D7
70
1
10
0
20
0
30
0
3
*D7
0
LINE
5
1E6
100
AcDbEntity
8
0
62
256
6
ByLayer
370
-2
48
1
60
0
100
AcDbLine
10
39.6875
20
14
30
0
11
51.85
21
14
31
0
39
0
210
0
220
0
230
1
0
LINE
5
1E7
100
AcDbEntity
8
0
62
256
6
ByLayer
370
-2
48
1
60
0
100
AcDbLine
10
39.6875
20
11
30
0
11
51.85
21
11
31
0
39
0
210
0
220
0
230
1
0
LINE
5
1E8
100
AcDbEntity
8
0
62
256
6
ByLayer
370
-2
48
1
60
0
100
AcDbLine
10
49.85
20
17.5
30
0
11
49.85
21
21
31
0
39
0
210
0
220
0
230
1
0
LINE
5
1E9
100
AcDbEntity
8
0
62
256
6
ByLayer
370
-2
48
1
60
0
100
AcDbLine
10
49.85
20
7.5
30
0
11
49.85
21
4
31
0
39
0
210
0
220
0
230
1
0
SOLID
5
1EA
100
AcDbEntity
8
0
62
256
6
ByLayer
370
-1
48
1
60
0
100
AcDbTrace
10
49.266667
20
17.5
30
0
11
50.433333
21
17.5
31
0
12
49.85
22
14
32
0
13
49.85
23
14
33
0
39
0
210
0
220
0
230
1
0
SOLID
5
1EB
100
AcDbEntity
8
0
62
256
6
ByLayer
370
-1
48
1
60
0
100
AcDbTrace
10
50.433333
20
7.5
30
0
11
49.266667
21
7.5
31
0
12
49.85
22
11
32
0
13
49.85
23
11
33
0
39
0
210
0
220
0
230
1
0
MTEXT
5
1EC
100
AcDbEntity
8
0
62
256
6
ByLayer
370
18
48
1
60
0
100
AcDbMText
10
42.85
20
12.5
30
0
210
0
220
0
230
1
1
\A1;3
40
3.5
41
0
44
1
50
90
71
5
72
5
7
iso_b_vert
0
POINT
5
1ED
100
AcDbEntity
8
Defpoints
62
0
6
ByLayer
370
-1
48
1
60
0
100
AcDbPoint
10
38.1
20
14
30
0
39
0
210
0
220
0
230
1
50
360
0
POINT
5
1EE
100
AcDbEntity
8
Defpoints
62
0
6
ByLayer
370
-1
48
1
60
0
100
AcDbPoint
10
38.1
20
11
30
0
39
0
210
0
220
0
230
1
50
360
0
POINT
5
1EF
100
AcDbEntity
8
Defpoints
62
0
6
ByLayer
370
-1
48
1
60
0
100
AcDbPoint
10
49.85
20
11
30
0
39
0
210
0
220
0
230
1
50
360
0
ENDBLK
5
1E5
100
AcDbEntity
8
0
100
AcDbBlockEnd
0
BLOCK
5
1F7
100
AcDbEntity
8
0
100
AcDbBlockBegin
2
_U3
70
0
10
0
20
0
30
0
3
_U3
0
MTEXT
5
1F1
100
AcDbEntity
8
2
62
256
6
ByLayer
370
18
48
1
60
0
100
AcDbMText
10
49.160366
20
11.874767
30
0
210
0
220
0
230
1
1
\W0.5404;3
40
3.5
41
0
44
1.084337
50
90
71
7
72
5
7
iso_b_vert
0
LINE
5
1F2
100
AcDbEntity
8
2
62
256
6
ByLayer
370
13
48
1
60
0
100
AcDbLine
10
39.6875
20
14
30
0
11
51.85
21
14
31
0
39
0
210
0
220
0
230
1
0
LINE
5
1F3
100
AcDbEntity
8
2
62
256
6
ByLayer
370
13
48
1
60
0
100
AcDbLine
10
39.6875
20
11
30
0
11
51.85
21
11
31
0
39
0
210
0
220
0
230
1
0
LINE
5
1F4
100
AcDbEntity
8
2
62
256
6
ByLayer
370
13
48
1
60
0
100
AcDbLine
10
49.85
20
22.75
30
0
11
49.85
21
2.25
31
0
39
0
210
0
220
0
230
1
0
SOLID
5
1F5
100
AcDbEntity
8
2
62
256
6
ByLayer
370
18
48
1
60
0
100
AcDbTrace
10
49.85
20
14
30
0
11
49.389216
21
17.499998
31
0
12
50.310784
22
17.500002
32
0
13
50.310784
23
17.500002
33
0
39
0
210
0
220
0
230
1
0
SOLID
5
1F6
100
AcDbEntity
8
2
62
256
6
ByLayer
370
18
48
1
60
0
100
AcDbTrace
10
49.85
20
11
30
0
11
50.310784
21
7.500002
31
0
12
49.389216
22
7.499998
32
0
13
49.389216
23
7.499998
33
0
39
0
210
0
220
0
230
1
0
ENDBLK
5
1F8
100
AcDbEntity
8
0
100
AcDbBlockEnd
0
ENDSEC
0
SECTION
2
ENTITIES
0
ARC
5
FD
100
AcDbEntity
8
1
62
256
6
ByLayer
370
18
48
1
60
0
100
AcDbCircle
39
0
10
16.5
20
0.875
30
0
40
0.5
210
0
220
0
230
1
100
AcDbArc
50
90
51
180
0
ARC
5
FE
100
AcDbEntity
8
1
62
256
6
ByLayer
370
18
48
1
60
0
100
AcDbCircle
39
0
10
16
20
6.500257
30
0
40
1.416
210
0
220
0
230
1
100
AcDbArc
50
186.192438
51
240.190711
0
ARC
5
FF
100
AcDbEntity
8
1
62
256
6
ByLayer
370
18
48
1
60
0
100
AcDbCircle
39
0
10
16
20
6.500257
30
0
40
1.416
210
0
220
0
230
1
100
AcDbArc
50
6.192438
51
60.190711
0
ARC
5
100
100
AcDbEntity
8
1
62
256
6
ByLayer
370
18
48
1
60
0
100
AcDbCircle
39
0
10
16
20
6.500257
30
0
40
1.416
210
0
220
0
230
1
100
AcDbArc
50
60.190711
51
119.809289
0
ARC
5
101
100
AcDbEntity
8
1
62
256
6
ByLayer
370
18
48
1
60
0
100
AcDbCircle
39
0
10
16
20
6.500257
30
0
40
1.416
210
0
220
0
230
1
100
AcDbArc
50
240.190711
51
299.809289
0
ARC
5
102
100
AcDbEntity
8
1
62
256
6
ByLayer
370
18
48
1
60
0
100
AcDbCircle
39
0
10
16
20
6.500257
30
0
40
1.416
210
0
220
0
230
1
100
AcDbArc
50
119.809289
51
173.807562
0
ARC
5
103
100
AcDbEntity
8
1
62
256
6
ByLayer
370
18
48
1
60
0
100
AcDbCircle
39
0
10
16
20
6.500257
30
0
40
1.416
210
0
220
0
230
1
100
AcDbArc
50
299.809289
51
353.807562
0
ARC
5
104
100
AcDbEntity
8
1
62
256
6
ByLayer
370
18
48
1
60
0
100
AcDbCircle
39
0
10
16
20
6.500257
30
0
40
1.416
210
0
220
0
230
1
100
AcDbArc
50
353.807562
51
6.192438
0
ARC
5
106
100
AcDbEntity
8
1
62
256
6
ByLayer
370
18
48
1
60
0
100
AcDbCircle
39
0
10
16
20
6.500257
30
0
40
1.416
210
0
220
0
230
1
100
AcDbArc
50
173.807562
51
186.192438
0
ARC
5
108
100
AcDbEntity
8
1
62
256
6
ByLayer
370
18
48
1
60
0
100
AcDbCircle
39
0
10
16
20
6.500257
30
0
40
1.9685
210
0
220
0
230
1
100
AcDbArc
50
30.381422
51
90
0
ARC
5
109
100
AcDbEntity
8
1
62
256
6
ByLayer
370
18
48
1
60
0
100
AcDbCircle
39
0
10
16
20
6.500257
30
0
40
1.9685
210
0
220
0
230
1
100
AcDbArc
50
329.618578
51
30.381422
0
ARC
5
10A
100
AcDbEntity
8
1
62
256
6
ByLayer
370
18
48
1
60
0
100
AcDbCircle
39
0
10
16
20
6.500257
30
0
40
1.9685
210
0
220
0
230
1
100
AcDbArc
50
270
51
329.618578
0
ARC
5
10B
100
AcDbEntity
8
1
62
256
6
ByLayer
370
18
48
1
60
0
100
AcDbCircle
39
0
10
16
20
6.500257
30
0
40
1.9685
210
0
220
0
230
1
100
AcDbArc
50
149.618578
51
210.381422
0
ARC
5
10C
100
AcDbEntity
8
1
62
256
6
ByLayer
370
18
48
1
60
0
100
AcDbCircle
39
0
10
16
20
6.500257
30
0
40
1.9685
210
0
220
0
230
1
100
AcDbArc
50
90
51
149.618578
0
ARC
5
10D
100
AcDbEntity
8
1
62
256
6
ByLayer
370
18
48
1
60
0
100
AcDbCircle
39
0
10
16
20
6.500257
30
0
40
1.9685
210
0
220
0
230
1
100
AcDbArc
50
210.381422
51
270
0
ARC
5
10E
100
AcDbEntity
8
1
62
256
6
ByLayer
370
18
48
1
60
0
100
AcDbCircle
39
0
10
16
20
6.500257
30
0
40
4.55
210
0
220
0
230
1
100
AcDbArc
50
53.370083
51
306.629917
0
ARC
5
10F
100
AcDbEntity
8
1
62
256
6
ByLayer
370
18
48
1
60
0
100
AcDbCircle
39
0
10
10.51676
20
14.975514
30
0
40
1.6
210
0
220
0
230
1
100
AcDbArc
50
270
51
337.975687
0
ARC
5
110
100
AcDbEntity
8
1
62
256
6
ByLayer
370
18
48
1
60
0
100
AcDbCircle
39
0
10
16
20
6.500257
30
0
40
4.55000000000001
210
0
220
0
230
1
100
AcDbArc
50
306.629917
51
53.370083
0
CIRCLE
5
105
100
AcDbEntity
8
1
62
256
6
ByLayer
370
18
48
1
60
0
100
AcDbCircle
10
16
20
6.500257
30
0
40
4.25
39
0
210
0
220
0
230
1
0
CIRCLE
5
107
100
AcDbEntity
8
1
62
256
6
ByLayer
370
18
48
1
60
0
100
AcDbCircle
10
16
20
6.500257
30
0
40
3.75
39
0
210
0
220
0
230
1
0
ELLIPSE
5
111
100
AcDbEntity
8
1
62
256
6
ByLayer
370
18
48
1
60
0
100
AcDbEllipse
10
34.328061
20
14.429965
30
0
11
0.897816657560425
21
0.0200227350751381
31
0
210
0
220
0
230
1
40
0.890478
41
-1.59065278634288
42
-1.31500902538375
0
ELLIPSE
5
112
100
AcDbEntity
8
1
62
256
6
ByLayer
370
18
48
1
60
0
100
AcDbEllipse
10
32.723179
20
13.498312
30
0
11
0.85069197306878
21
0.00405244722156257
31
0
210
0
220
0
230
1
40
0.176263
41
3.14075299003166
42
-2.80645643614198
0
ELLIPSE
5
113
100
AcDbEntity
8
1
62
256
6
ByLayer
370
18
48
1
60
0
100
AcDbEllipse
10
34.195006
20
12.913806
30
0
11
1.13425596406482
21
0.00540326296066834
31
0
210
0
220
0
230
1
40
0.176263
41
-2.80645643613846
42
-1.9880179146384
0
ELLIPSE
5
114
100
AcDbEntity
8
1
62
256
6
ByLayer
370
18
48
1
60
0
100
AcDbEllipse
10
38.323799
20
14.578504
30
0
11
11.3425597395781
21
0.0540326411387758
31
0
210
0
220
0
230
1
40
0.176263
41
-1.98801791727938
42
-1.92070184390234
0
ELLIPSE
5
115
100
AcDbEntity
8
1
62
256
6
ByLayer
370
18
48
1
60
0
100
AcDbEllipse
10
34.090371
20
12.479536
30
0
11
1.19096876227569
21
0.0056734261096806
31
0
210
0
220
0
230
1
40
0.176263
41
-0.000839663558036998
42
1.22089081283763
0
ELLIPSE
5
116
100
AcDbEntity
8
1
62
256
6
ByLayer
370
18
48
1
60
0
100
AcDbEllipse
10
34.090371
20
12.479536
30
0
11
1.19096876227445
21
0.00567342610968527
31
0
210
0
220
0
230
1
40
0.176263
41
-1.22257013995445
42
-0.000839663558020951
0
ELLIPSE
5
117
100
AcDbEntity
8
1
62
256
6
ByLayer
370
18
48
1
60
0
100
AcDbEllipse
10
38.323799
20
10.419648
30
0
11
11.342559613064
21
0.0540326325609266
31
0
210
0
220
0
230
1
40
0.176263
41
1.91902251275988
42
1.98633858679385
0
ELLIPSE
5
118
100
AcDbEntity
8
1
62
256
6
ByLayer
370
18
48
1
60
0
100
AcDbEllipse
10
34.195006
20
12.046232
30
0
11
1.13425596407312
21
0.00540326296135465
31
0
210
0
220
0
230
1
40
0.176263
41
1.98633858752701
42
2.80477710902308
0
ELLIPSE
5
119
100
AcDbEntity
8
1
62
256
6
ByLayer
370
18
48
1
60
0
100
AcDbEllipse
10
32.723179
20
11.448139
30
0
11
0.850691972983846
21
0.00405244722299329
31
0
210
0
220
0
230
1
40
0.176263
41
2.80477710900845
42
3.14075299003134
0
ELLIPSE
5
11A
100
AcDbEntity
8
1
62
256
6
ByLayer
370
18
48
1
60
0
100
AcDbEllipse
10
33.671498
20
13.227345
30
0
11
-0.0186163199791421
21
-0.125398860678402
31
0
210
0
220
0
230
1
40
0.98447
41
0
42
6.28318530717959
0
ELLIPSE
5
11B
100
AcDbEntity
8
1
62
256
6
ByLayer
370
18
48
1
60
0
100
AcDbEllipse
10
34.328061
20
10.531301
30
0
11
0.897816657661834
21
0.0200227351092964
31
0
210
0
220
0
230
1
40
0.890478
41
1.27529610628105
42
1.55093986720918
0
ELLIPSE
5
11C
100
AcDbEntity
8
1
62
256
6
ByLayer
370
18
48
1
60
0
100
AcDbEllipse
10
325.432107
20
48.563525
30
0
11
679.949231112183
21
10.6424259916431
31
0
210
0
220
0
230
1
40
0.048864
41
-2.01777288678859
42
-2.01627622595274
0
ELLIPSE
5
11D
100
AcDbEntity
8
1
62
256
6
ByLayer
370
18
48
1
60
0
100
AcDbEllipse
10
-602.41475
20
41.000621
30
0
11
-2401.14962364235
21
9.04889819652968
31
0
210
0
220
0
230
1
40
0.01177
41
1.83438731856872
42
1.83795086889839
0
ELLIPSE
5
11E
100
AcDbEntity
8
1
62
256
6
ByLayer
370
18
48
1
60
0
100
AcDbEllipse
10
32.676862
20
41.000514
30
0
11
-3.77180322343453E-14
21
29.6750000038767
31
0
210
0
220
0
230
1
40
0.969653
41
2.99064852064216
42
3.0987175382981
0
ELLIPSE
5
11F
100
AcDbEntity
8
1
62
256
6
ByLayer
370
18
48
1
60
0
100
AcDbEllipse
10
32.676862
20
48.700514
30
0
11
-4.45180818669692E-14
21
35.0250000150313
31
0
210
0
220
0
230
1
40
0.969653
41
3.01384282633024
42
3.10239620474636
0
ELLIPSE
5
120
100
AcDbEntity
8
1
62
256
6
ByLayer
370
18
48
1
60
0
100
AcDbEllipse
10
33.666112
20
41.000514
30
0
11
-35.3531690580895
21
4.32937154562931E-15
31
0
210
0
220
0
230
1
40
0.839387
41
1.2672847284639
42
1.41985219383287
0
ELLIPSE
5
121
100
AcDbEntity
8
1
62
256
6
ByLayer
370
18
48
1
60
0
100
AcDbEllipse
10
33.666112
20
48.700514
30
0
11
-41.7268659245248
21
5.10989851362675E-15
31
0
210
0
220
0
230
1
40
0.839387
41
1.22485476498278
42
1.44304649950851
0
ELLIPSE
5
122
100
AcDbEntity
8
1
62
256
6
ByLayer
370
18
48
1
60
0
100
AcDbEllipse
10
-88.386539
20
48.700505
30
0
11
180.524221536415
21
5.57525336491152E-06
31
0
210
0
220
0
230
1
40
0.194018
41
-0.940353228050864
42
-0.924258288211841
0
ELLIPSE
5
123
100
AcDbEntity
8
1
62
256
6
ByLayer
370
18
48
1
60
0
100
AcDbEllipse
10
42.56478
20
48.700514
30
0
11
-4.45180818479642E-14
21
35.0250000000789
31
0
210
0
220
0
230
1
40
0.57735
41
2.49505453387687
42
2.87820476726069
0
POINT
5
70
100
AcDbEntity
8
81
62
256
6
ByLayer
370
18
48
1
60
0
100
AcDbPoint
10
38.1
20
14
30
0
39
0
210
0
220
0
230
1
50
360
0
POINT
5
72
100
AcDbEntity
8
80
62
256
6
ByLayer
370
18
48
1
60
0
100
AcDbPoint
10
0
20
0
30
0
39
0
210
0
220
0
230
1
50
360
0
POINT
5
74
100
AcDbEntity
8
1
62
256
6
ByLayer
370
18
48
1
60
1
100
AcDbPoint
10
0
20
0
30
0
39
0
210
0
220
0
230
1
50
360
0
POINT
5
76
100
AcDbEntity
8
1
62
256
6
ByLayer
370
18
48
1
60
1
100
AcDbPoint
10
38.1
20
14
30
0
39
0
210
0
220
0
230
1
50
360
0
POINT
5
77
100
AcDbEntity
8
1
62
256
6
ByLayer
370
18
48
1
60
1
100
AcDbPoint
10
23.1
20
11.325514
30
0
39
0
210
0
220
0
230
1
50
360
0
POINT
5
78
100
AcDbEntity
8
1
62
256
6
ByLayer
370
18
48
1
60
1
100
AcDbPoint
10
38.1
20
14
30
0
39
0
210
0
220
0
230
1
50
360
0
POINT
5
79
100
AcDbEntity
8
1
62
256
6
ByLayer
370
18
48
1
60
1
100
AcDbPoint
10
38.1
20
14
30
0
39
0
210
0
220
0
230
1
50
360
0
POINT
5
7A
100
AcDbEntity
8
1
62
256
6
ByLayer
370
18
48
1
60
1
100
AcDbPoint
10
0
20
0
30
0
39
0
210
0
220
0
230
1
50
360
0
POINT
5
7B
100
AcDbEntity
8
1
62
256
6
ByLayer
370
18
48
1
60
1
100
AcDbPoint
10
38.1
20
14
30
0
39
0
210
0
220
0
230
1
50
360
0
POINT
5
7C
100
AcDbEntity
8
1
62
256
6
ByLayer
370
18
48
1
60
1
100
AcDbPoint
10
38.1
20
11
30
0
39
0
210
0
220
0
230
1
50
360
0
SPLINE
5
124
100
AcDbEntity
8
1
62
256
6
ByLayer
370
18
48
1
60
0
100
AcDbSpline
70
4
71
3
72
8
73
4
40
0
40
0
40
0
40
0
40
1
40
1
40
1
40
1
41
1
10
35.5196694163911
20
13.9045218231877
30
0
41
1
10
35.5324648695619
20
13.9078039560159
30
0
41
1
10
35.5455611420817
20
13.9097650024906
30
0
41
1
10
35.5587330107769
20
13.9103866670343
30
0
0
SPLINE
5
125
100
AcDbEntity
8
1
62
256
6
ByLayer
370
18
48
1
60
0
100
AcDbSpline
70
4
71
3
72
8
73
4
40
0
40
0
40
0
40
0
40
1
40
1
40
1
40
1
41
1
10
30.4999999999999
20
13.7703123677972
30
0
41
1
10
31.6083333364493
20
13.7703139607752
30
0
41
1
10
32.7166666713862
20
13.7703166571127
30
0
41
1
10
33.8249999999999
20
13.7703204570262
30
0
0
SPLINE
5
126
100
AcDbEntity
8
1
62
256
6
ByLayer
370
18
48
1
60
0
100
AcDbSpline
70
4
71
3
72
8
73
4
40
0
40
0
40
0
40
0
40
1
40
1
40
1
40
1
41
1
10
30.4642249999999
20
13.770312316762
30
0
41
1
10
30.4761500000568
20
13.770312333646
30
0
41
1
10
30.4880750000554
20
13.7703123506577
30
0
41
1
10
30.4999999999999
20
13.7703123677972
30
0
0
SPLINE
5
127
100
AcDbEntity
8
1
62
256
6
ByLayer
370
18
48
1
60
0
100
AcDbSpline
70
4
71
3
72
8
73
4
40
0
40
0
40
0
40
0
40
1
40
1
40
1
40
1
41
1
10
35.5587330107839
20
11.0622400667801
30
0
41
1
10
35.5455611270318
20
11.0627401370471
30
0
41
1
10
35.5324648843561
20
11.0645802823033
30
0
41
1
10
35.5196694163935
20
11.0677442987847
30
0
0
SPLINE
5
128
100
AcDbEntity
8
1
62
256
6
ByLayer
370
18
48
1
60
0
100
AcDbSpline
70
4
71
2
72
6
73
3
40
0
40
0
40
0
40
1
40
1
40
1
41
1.03186391735993
10
37.8999899980506
20
14.0031524048929
30
0
41
0.729637973226922
10
38.0999899980506
20
14.003152404893
30
0
41
1.03186391735993
10
38.0999899980505
20
13.8032209398978
30
0
0
SPLINE
5
129
100
AcDbEntity
8
1
62
256
6
ByLayer
370
18
48
1
60
0
100
AcDbSpline
70
4
71
2
72
6
73
3
40
0
40
0
40
0
40
1
40
1
40
1
41
1.03186391735993
10
37.6557958399111
20
13.9956941552124
30
0
41
1.03138264657361
10
37.7777789448562
20
14.0031524048929
30
0
41
1.03186391735993
10
37.8999899980506
20
14.0031524048929
30
0
0
SPLINE
5
12A
100
AcDbEntity
8
1
62
256
6
ByLayer
370
18
48
1
60
0
100
AcDbSpline
70
4
71
2
72
6
73
3
40
0
40
0
40
0
40
1
40
1
40
1
41
1.03186391735993
10
38.0999899980505
20
11.1978113498892
30
0
41
0.729637973226922
10
38.0999899980505
20
10.9978798848941
30
0
41
1.03186391735993
10
37.8999899980506
20
10.9978798848941
30
0
0
SPLINE
5
12B
100
AcDbEntity
8
1
62
256
6
ByLayer
370
18
48
1
60
0
100
AcDbSpline
70
4
71
2
72
6
73
3
40
0
40
0
40
0
40
1
40
1
40
1
41
1.03186391735993
10
37.8999899980506
20
10.9978798848941
30
0
41
1.03138264657361
10
37.7777789448562
20
10.9978798848941
30
0
41
1.03186391735993
10
37.6557958399111
20
11.0053381345747
30
0
0
SPLINE
5
12C
100
AcDbEntity
8
1
62
256
6
ByLayer
370
18
48
1
60
0
100
AcDbSpline
70
4
71
3
72
8
73
4
40
0
40
0
40
0
40
0
40
1
40
1
40
1
40
1
41
1
10
34.9965559999915
20
13.7703248846775
30
0
41
1
10
34.6060375252247
20
13.7703232718013
30
0
41
1
10
34.2155188643236
20
13.7703217959175
30
0
41
1
10
33.8249999999999
20
13.7703204570262
30
0
0
SPLINE
5
12D
100
AcDbEntity
8
1
62
256
6
ByLayer
370
18
48
1
60
0
100
AcDbSpline
70
4
71
3
72
18
73
14
40
0
40
0
40
0
40
0
40
0.250000000000007
40
0.250000000000007
40
0.375000000000011
40
0.375000000000011
40
0.437500000000012
40
0.437500000000012
40
0.500000000000012
40
0.500000000000012
40
0.750000000000006
40
0.750000000000006
40
1
40
1
40
1
40
1
41
1
10
17.4077379362997
20
6.3475158009916
30
0
41
1
10
17.416097023435
20
6.3030908115104
30
0
41
1
10
17.4278059238629
20
6.26072836668484
30
0
41
1
10
17.4497852995846
20
6.19976949642819
30
0
41
1
10
17.4578539822307
20
6.17988428151506
30
0
41
1
10
17.4710409062467
20
6.15067194812463
30
0
41
1
10
17.4756174744469
20
6.14103725091093
30
0
41
1
10
17.4851307090047
20
6.12196921875884
30
0
41
1
10
17.4900791241438
20
6.11251506454357
30
0
41
1
10
17.5155498531434
20
6.06604830249049
30
0
41
1
10
17.5382169974672
20
6.03142375051306
30
0
41
1
10
17.5877505294596
20
5.96655011905833
30
0
41
1
10
17.6146213965619
20
5.93630789484385
30
0
41
1
10
17.6435826280887
20
5.90813939020089
30
0
0
SPLINE
5
12E
100
AcDbEntity
8
1
62
256
6
ByLayer
370
18
48
1
60
0
100
AcDbSpline
70
4
71
3
72
24
73
20
40
0
40
0
40
0
40
0
40
0.124999999999984
40
0.124999999999984
40
0.187499999999983
40
0.187499999999983
40
0.249999999999981
40
0.249999999999981
40
0.37499999999998
40
0.37499999999998
40
0.499999999999979
40
0.499999999999979
40
0.624999999999978
40
0.624999999999978
40
0.687499999999975
40
0.687499999999975
40
0.749999999999972
40
0.749999999999972
40
1
40
1
40
1
40
1
41
1
10
17.6981810583397
20
5.50468020477288
30
0
41
1
10
17.7079282570252
20
5.52130625179413
30
0
41
1
10
17.7161357366898
20
5.53861884554843
30
0
41
1
10
17.7261657634976
20
5.56560453815536
30
0
41
1
10
17.7291359412956
20
5.57480446548649
30
0
41
1
10
17.7342485495551
20
5.5934016291954
30
0
41
1
10
17.736369589266
20
5.60270801493127
30
0
41
1
10
17.7414963446129
20
5.63064812848628
30
0
41
1
10
17.7432740738268
20
5.64930275412428
30
0
41
1
10
17.7436815034583
20
5.68665703630998
30
0
41
1
10
17.7422604780043
20
5.70549601679446
30
0
41
1
10
17.736487294903
20
5.74167219928856
30
0
41
1
10
17.7321586246313
20
5.75918756792103
30
0
41
1
10
17.7236520963911
20
5.78464597118651
30
0
41
1
10
17.7204791393987
20
5.79299559218111
30
0
41
1
10
17.7134629844699
20
5.8094210352192
30
0
41
1
10
17.7096028514272
20
5.81752383895932
30
0
41
1
10
17.688984641307
20
5.85667296588861
30
0
41
1
10
17.6682141523735
20
5.88418208004512
30
0
41
1
10
17.6435826280887
20
5.90813939020089
30
0
0
SPLINE
5
12F
100
AcDbEntity
8
1
62
256
6
ByLayer
370
18
48
1
60
0
100
AcDbSpline
70
4
71
3
72
24
73
20
40
0
40
0
40
0
40
0
40
0.250000000000009
40
0.250000000000009
40
0.312500000000001
40
0.312500000000001
40
0.374999999999993
40
0.374999999999993
40
0.499999999999993
40
0.499999999999993
40
0.624999999999992
40
0.624999999999992
40
0.749999999999992
40
0.749999999999992
40
0.812499999999991
40
0.812499999999991
40
0.874999999999989
40
0.874999999999989
40
1
40
1
40
1
40
1
41
1
10
17.6435826280887
20
7.09237479853525
30
0
41
1
10
17.6682141523735
20
7.11633210869101
30
0
41
1
10
17.688984641307
20
7.1438412228475
30
0
41
1
10
17.7096028514272
20
7.18299034977682
30
0
41
1
10
17.7134629844699
20
7.19109315351693
30
0
41
1
10
17.7204791393986
20
7.20751859655502
30
0
41
1
10
17.7236520963911
20
7.21586821754963
30
0
41
1
10
17.7321586246313
20
7.24132662081507
30
0
41
1
10
17.736487294903
20
7.25884198944755
30
0
41
1
10
17.7422604780043
20
7.29501817194168
30
0
41
1
10
17.7436815034583
20
7.31385715242615
30
0
41
1
10
17.7432740738268
20
7.35121143461186
30
0
41
1
10
17.7414963446129
20
7.36986606024985
30
0
41
1
10
17.736369589266
20
7.39780617380484
30
0
41
1
10
17.7342485495551
20
7.40711255954071
30
0
41
1
10
17.7291359412956
20
7.42570972324961
30
0
41
1
10
17.7261657634976
20
7.43490965058078
30
0
41
1
10
17.7161357366898
20
7.46189534318771
30
0
41
1
10
17.7079282570252
20
7.479207936942
30
0
41
1
10
17.6981810583397
20
7.49583398396322
30
0
0
SPLINE
5
130
100
AcDbEntity
8
1
62
256
6
ByLayer
370
18
48
1
60
0
100
AcDbSpline
70
4
71
3
72
17
73
13
40
0
40
0
40
0
40
0
40
0.249999999999991
40
0.249999999999991
40
0.499999999999982
40
0.499999999999982
40
0.562499999999982
40
0.562499999999982
40
0.624999999999982
40
0.749999999999986
40
0.749999999999986
40
1
40
1
40
1
40
1
41
1
10
17.6435826280887
20
7.09237479853525
30
0
41
1
10
17.614624603631
20
7.06420941317751
30
0
41
1
10
17.5877690589035
20
7.03398285223261
30
0
41
1
10
17.5382802616329
20
6.96917877098088
30
0
41
1
10
17.515642707813
20
6.93460778950157
30
0
41
1
10
17.4902105226123
20
6.88824560622433
30
0
41
1
10
17.4852575520368
20
6.87879180417903
30
0
41
1
10
17.4757163583553
20
6.85968237048129
30
0
41
1
10
17.4619501115273
20
6.83071913131582
30
0
41
1
10
17.4498230334514
20
6.800843371111
30
0
41
1
10
17.4278090763267
20
6.73980648228954
30
0
41
1
10
17.4160955020355
20
6.69741529163485
30
0
41
1
10
17.4077379362997
20
6.65299838774453
30
0
0
SPLINE
5
131
100
AcDbEntity
8
1
62
256
6
ByLayer
370
18
48
1
60
0
100
AcDbSpline
70
4
71
3
72
34
73
30
40
0
40
0
40
0
40
0
40
0.124999999999968
40
0.124999999999968
40
0.187499999999952
40
0.187499999999952
40
0.218749999999944
40
0.218749999999944
40
0.249999999999936
40
0.249999999999936
40
0.37499999999993
40
0.37499999999993
40
0.406249999999931
40
0.406249999999931
40
0.437499999999932
40
0.499999999999941
40
0.56249999999995
40
0.56249999999995
40
0.624999999999959
40
0.624999999999959
40
0.687499999999968
40
0.687499999999968
40
0.749999999999977
40
0.749999999999977
40
0.874999999999991
40
0.874999999999991
40
0.937499999999995
40
0.937499999999995
40
1
40
1
40
1
40
1
41
1
10
17.3281523379785
20
5.35280606078319
30
0
41
1
10
17.2791605406676
20
5.36592263258933
30
0
41
1
10
17.2290549015809
20
5.37455491025872
30
0
41
1
10
17.1518976275392
20
5.38046505476783
30
0
41
1
10
17.1258420498825
20
5.38125361800374
30
0
41
1
10
17.0861721053906
20
5.38052658500817
30
0
41
1
10
17.0728201914696
20
5.37996289521479
30
0
41
1
10
17.0460462641005
20
5.37817297125594
30
0
41
1
10
17.0326678100598
20
5.37695119284095
30
0
41
1
10
16.9658054580945
20
5.36919037842256
30
0
41
1
10
16.9124105635001
20
5.35776724608849
30
0
41
1
10
16.8455886245495
20
5.33602444463185
30
0
41
1
10
16.8322038067759
20
5.33128794932179
30
0
41
1
10
16.8058521630065
20
5.32119244592121
30
0
41
1
10
16.76679400704
20
5.3050668090375
30
0
41
1
10
16.7040137931597
20
5.27333273100976
30
0
41
1
10
16.6562753174226
20
5.24272629072544
30
0
41
1
10
16.6098302684516
20
5.2094074019189
30
0
41
1
10
16.5878136047355
20
5.19179277441913
30
0
41
1
10
16.5460507829754
20
5.15481107559339
30
0
41
1
10
16.5262970086681
20
5.13543754403867
30
0
41
1
10
16.4889396946712
20
5.09497218926595
30
0
41
1
10
16.4712931406014
20
5.0737975714766
30
0
41
1
10
16.4226269571247
20
5.00927288849803
30
0
41
1
10
16.3953601516258
20
4.96448393953708
30
0
41
1
10
16.3612075572779
20
4.89468788933959
30
0
41
1
10
16.3509341260476
20
4.87090624910545
30
0
41
1
10
16.3327806188032
20
4.82286593936482
30
0
41
1
10
16.3248979334756
20
4.79862785414082
30
0
41
1
10
16.3181619695467
20
4.77416165422375
30
0
0
SPLINE
5
132
100
AcDbEntity
8
1
62
256
6
ByLayer
370
18
48
1
60
0
100
AcDbSpline
70
4
71
3
72
26
73
22
40
0
40
0
40
0
40
0
40
0.125000000000006
40
0.125000000000006
40
0.250000000000012
40
0.250000000000012
40
0.312500000000025
40
0.312500000000025
40
0.375000000000038
40
0.375000000000038
40
0.500000000000044
40
0.500000000000044
40
0.562500000000039
40
0.562500000000039
40
0.625000000000033
40
0.625000000000033
40
0.750000000000022
40
0.750000000000022
40
0.875000000000011
40
0.875000000000011
40
1
40
1
40
1
40
1
41
1
10
15.9999999999999
20
4.53175709436806
30
0
41
1
10
16.0187420838796
20
4.53175709436806
30
0
41
1
10
16.0377900241209
20
4.53339429886347
30
0
41
1
10
16.0746705458543
20
4.53977181368512
30
0
41
1
10
16.0926468374792
20
4.54448430270256
30
0
41
1
10
16.1189272305607
20
4.5537917082649
30
0
41
1
10
16.1276136105629
20
4.55728956927271
30
0
41
1
10
16.1444825476159
20
4.56492296413202
30
0
41
1
10
16.1526773955157
20
4.56905799510318
30
0
41
1
10
16.1765732518194
20
4.58237476495233
30
0
41
1
10
16.1915899369245
20
4.5924625318747
30
0
41
1
10
16.2127755394083
20
4.60935238728186
30
0
41
1
10
16.219591918569
20
4.61526447698364
30
0
41
1
10
16.2325595895106
20
4.62745972252517
30
0
41
1
10
16.2387403827711
20
4.6337657975827
30
0
41
1
10
16.2564090822012
20
4.65328074159225
30
0
41
1
10
16.267028270971
20
4.667082966706
30
0
41
1
10
16.286001380946
20
4.69621156112814
30
0
41
1
10
16.2941811588045
20
4.71127980018181
30
0
41
1
10
16.3080220198238
20
4.74213934666815
30
0
41
1
10
16.3137019836553
20
4.75796220487996
30
0
41
1
10
16.3181619695467
20
4.77416165422375
30
0
0
SPLINE
5
133
100
AcDbEntity
8
1
62
256
6
ByLayer
370
18
48
1
60
0
100
AcDbSpline
70
4
71
3
72
24
73
20
40
0
40
0
40
0
40
0
40
0.062500000000007
40
0.062500000000007
40
0.125000000000014
40
0.125000000000014
40
0.25000000000001
40
0.25000000000001
40
0.312500000000009
40
0.312500000000009
40
0.375000000000009
40
0.375000000000009
40
0.500000000000008
40
0.500000000000008
40
0.625000000000007
40
0.625000000000007
40
0.750000000000006
40
0.750000000000006
40
1
40
1
40
1
40
1
41
1
10
17.6981810583397
20
5.50468020477288
30
0
41
1
10
17.6934313378223
20
5.49657848455493
30
0
41
1
10
17.6882897889864
20
5.48860728514072
30
0
41
1
10
17.6773553215859
20
5.47316402866716
30
0
41
1
10
17.6716008277748
20
5.4657393992313
30
0
41
1
10
17.6535070564049
20
5.4443243427404
30
0
41
1
10
17.6403431053358
20
5.43118685484296
30
0
41
1
10
17.6189603728397
20
5.41317661639184
30
0
41
1
10
17.6115431209205
20
5.4074517399122
30
0
41
1
10
17.5964570188401
20
5.39678618086953
30
0
41
1
10
17.5887541685167
20
5.39181455985337
30
0
41
1
10
17.5651865615502
20
5.37794186400782
30
0
41
1
10
17.5488655560663
20
5.37007637663959
30
0
41
1
10
17.5150376500415
20
5.35706676680812
30
0
41
1
10
17.4979733948959
20
5.35209203346625
30
0
41
1
10
17.4636029977595
20
5.34493310188475
30
0
41
1
10
17.4462370587479
20
5.34274778744947
30
0
41
1
10
17.3941694441299
20
5.34031788432202
30
0
41
1
10
17.3606039107084
20
5.34411780259924
30
0
41
1
10
17.3281523379785
20
5.35280606078319
30
0
0
SPLINE
5
134
100
AcDbEntity
8
1
62
256
6
ByLayer
370
18
48
1
60
0
100
AcDbSpline
70
4
71
3
72
17
73
13
40
0
40
0
40
0
40
0
40
0.250000000000002
40
0.250000000000002
40
0.500000000000004
40
0.500000000000004
40
0.562500000000002
40
0.562500000000002
40
0.625
40
0.75
40
0.75
40
1
40
1
40
1
40
1
41
1
10
14.3564173719111
20
5.90813939020089
30
0
41
1
10
14.3853753963688
20
5.9363047755586
30
0
41
1
10
14.4122309410962
20
5.96653133650341
30
0
41
1
10
14.4617197383667
20
6.03133541775506
30
0
41
1
10
14.4843572921867
20
6.06590639923428
30
0
41
1
10
14.5097894773874
20
6.11226858251143
30
0
41
1
10
14.5147424479629
20
6.12172238455673
30
0
41
1
10
14.5242836416443
20
6.14083181825441
30
0
41
1
10
14.5380498884723
20
6.16979505741986
30
0
41
1
10
14.5501769665482
20
6.19967081762468
30
0
41
1
10
14.572190923673
20
6.26070770644623
30
0
41
1
10
14.5839044979643
20
6.30309889710102
30
0
41
1
10
14.5922620637001
20
6.3475158009916
30
0
0
SPLINE
5
135
100
AcDbEntity
8
1
62
256
6
ByLayer
370
18
48
1
60
0
100
AcDbSpline
70
4
71
3
72
18
73
14
40
0
40
0
40
0
40
0
40
0.249999999999988
40
0.249999999999988
40
0.374999999999982
40
0.374999999999982
40
0.437499999999979
40
0.437499999999979
40
0.499999999999976
40
0.499999999999976
40
0.749999999999988
40
0.749999999999988
40
1
40
1
40
1
40
1
41
1
10
14.5922620637001
20
6.65299838774453
30
0
41
1
10
14.5839029765648
20
6.69742337722539
30
0
41
1
10
14.572194076137
20
6.73978582205089
30
0
41
1
10
14.5502147004153
20
6.80074469230769
30
0
41
1
10
14.5421460177692
20
6.8206299072209
30
0
41
1
10
14.5289590937531
20
6.84984224061151
30
0
41
1
10
14.5243825255529
20
6.85947693782529
30
0
41
1
10
14.5148692909949
20
6.87854496997753
30
0
41
1
10
14.5099208758558
20
6.88799912419287
30
0
41
1
10
14.4844501468563
20
6.93446588624576
30
0
41
1
10
14.4617830025326
20
6.96909043822308
30
0
41
1
10
14.4122494705402
20
7.03396406967775
30
0
41
1
10
14.385378603438
20
7.06420629389223
30
0
41
1
10
14.3564173719111
20
7.09237479853525
30
0
0
SPLINE
5
136
100
AcDbEntity
8
1
62
256
6
ByLayer
370
18
48
1
60
0
100
AcDbSpline
70
4
71
3
72
24
73
20
40
0
40
0
40
0
40
0
40
0.125000000000008
40
0.125000000000008
40
0.187500000000008
40
0.187500000000008
40
0.250000000000007
40
0.250000000000007
40
0.375000000000008
40
0.375000000000008
40
0.500000000000009
40
0.500000000000009
40
0.62500000000001
40
0.62500000000001
40
0.687500000000008
40
0.687500000000008
40
0.750000000000005
40
0.750000000000005
40
1
40
1
40
1
40
1
41
1
10
14.3018189416601
20
7.49583398396322
30
0
41
1
10
14.2920717429746
20
7.479207936942
30
0
41
1
10
14.2838642633101
20
7.46189534318771
30
0
41
1
10
14.2738342365022
20
7.43490965058078
30
0
41
1
10
14.2708640587042
20
7.42570972324961
30
0
41
1
10
14.2657514504447
20
7.40711255954071
30
0
41
1
10
14.2636304107338
20
7.39780617380484
30
0
41
1
10
14.2585036553869
20
7.36986606024985
30
0
41
1
10
14.256725926173
20
7.35121143461186
30
0
41
1
10
14.2563184965415
20
7.31385715242615
30
0
41
1
10
14.2577395219955
20
7.29501817194168
30
0
41
1
10
14.2635127050968
20
7.25884198944755
30
0
41
1
10
14.2678413753685
20
7.24132662081507
30
0
41
1
10
14.2763479036087
20
7.21586821754963
30
0
41
1
10
14.2795208606011
20
7.20751859655502
30
0
41
1
10
14.2865370155299
20
7.19109315351693
30
0
41
1
10
14.2903971485726
20
7.18299034977682
30
0
41
1
10
14.3110153586928
20
7.1438412228475
30
0
41
1
10
14.3317858476263
20
7.11633210869101
30
0
41
1
10
14.3564173719111
20
7.09237479853525
30
0
0
SPLINE
5
137
100
AcDbEntity
8
1
62
256
6
ByLayer
370
18
48
1
60
0
100
AcDbSpline
70
4
71
3
72
24
73
20
40
0
40
0
40
0
40
0
40
0.250000000000001
40
0.250000000000001
40
0.3125
40
0.3125
40
0.374999999999999
40
0.374999999999999
40
0.5
40
0.5
40
0.625
40
0.625
40
0.750000000000001
40
0.750000000000001
40
0.8125
40
0.8125
40
0.875
40
0.875
40
1
40
1
40
1
40
1
41
1
10
14.3564173719111
20
5.90813939020089
30
0
41
1
10
14.3317858476263
20
5.88418208004512
30
0
41
1
10
14.3110153586928
20
5.85667296588861
30
0
41
1
10
14.2903971485726
20
5.81752383895932
30
0
41
1
10
14.2865370155299
20
5.8094210352192
30
0
41
1
10
14.2795208606011
20
5.79299559218111
30
0
41
1
10
14.2763479036087
20
5.78464597118651
30
0
41
1
10
14.2678413753685
20
5.75918756792103
30
0
41
1
10
14.2635127050968
20
5.74167219928856
30
0
41
1
10
14.2577395219955
20
5.70549601679446
30
0
41
1
10
14.2563184965415
20
5.68665703630998
30
0
41
1
10
14.256725926173
20
5.64930275412428
30
0
41
1
10
14.2585036553869
20
5.63064812848628
30
0
41
1
10
14.2636304107338
20
5.6027080149313
30
0
41
1
10
14.2657514504447
20
5.59340162919543
30
0
41
1
10
14.2708640587042
20
5.57480446548652
30
0
41
1
10
14.2738342365022
20
5.56560453815536
30
0
41
1
10
14.2838642633101
20
5.53861884554843
30
0
41
1
10
14.2920717429746
20
5.52130625179413
30
0
41
1
10
14.3018189416601
20
5.50468020477288
30
0
0
SPLINE
5
138
100
AcDbEntity
8
1
62
256
6
ByLayer
370
18
48
1
60
0
100
AcDbSpline
70
4
71
3
72
26
73
22
40
0
40
0
40
0
40
0
40
0.250000000000039
40
0.250000000000039
40
0.312500000000039
40
0.312500000000039
40
0.375000000000038
40
0.375000000000038
40
0.500000000000038
40
0.500000000000038
40
0.562500000000035
40
0.562500000000035
40
0.625000000000031
40
0.625000000000031
40
0.75000000000001
40
0.75000000000001
40
0.812500000000002
40
0.812500000000002
40
0.874999999999994
40
0.874999999999994
40
1
40
1
40
1
40
1
41
1
10
16.3181619695467
20
8.22635253451239
30
0
41
1
10
16.3092192305468
20
8.25883412771708
30
0
41
1
10
16.295487632259
20
8.28972078409996
30
0
41
1
10
16.2718353388289
20
8.32605561168987
30
0
41
1
10
16.266749506773
20
8.33323455179223
30
0
41
1
10
16.2560530091762
20
8.34711648892858
30
0
41
1
10
16.2504333990711
20
8.35383868881499
30
0
41
1
10
16.2327595033492
20
8.37334382067709
30
0
41
1
10
16.2198957841167
20
8.38546990300452
30
0
41
1
10
16.1988810548678
20
8.40224650111725
30
0
41
1
10
16.191588310609
20
8.40760221156128
30
0
41
1
10
16.1763916134437
20
8.41780866040446
30
0
41
1
10
16.1685411707112
20
8.42261920727236
30
0
41
1
10
16.144543772838
20
8.43598158730657
30
0
41
1
10
16.1278334996495
20
8.4435539984128
30
0
41
1
10
16.1016705104133
20
8.45284107421941
30
0
41
1
10
16.0927656700964
20
8.45558982595077
30
0
41
1
10
16.0745707697432
20
8.46035878847195
30
0
41
1
10
16.0652845989498
20
8.46237161987258
30
0
41
1
10
16.0374812768525
20
8.46716067808146
30
0
41
1
10
16.0188089532899
20
8.46875709436807
30
0
41
1
10
15.9999999999999
20
8.46875709436807
30
0
0
SPLINE
5
139
100
AcDbEntity
8
1
62
256
6
ByLayer
370
18
48
1
60
0
100
AcDbSpline
70
4
71
3
72
34
73
30
40
0
40
0
40
0
40
0
40
0.124999999999971
40
0.124999999999971
40
0.187499999999959
40
0.187499999999959
40
0.218749999999955
40
0.218749999999955
40
0.24999999999995
40
0.24999999999995
40
0.374999999999943
40
0.374999999999943
40
0.406249999999944
40
0.406249999999944
40
0.437499999999944
40
0.49999999999995
40
0.562499999999956
40
0.562499999999956
40
0.624999999999962
40
0.624999999999962
40
0.687499999999968
40
0.687499999999968
40
0.749999999999974
40
0.749999999999974
40
0.874999999999986
40
0.874999999999986
40
0.937499999999993
40
0.937499999999993
40
1
40
1
40
1
40
1
41
1
10
16.3181619695467
20
8.22635253451239
30
0
41
1
10
16.3316243955842
20
8.17745464695244
30
0
41
1
10
16.3495186520745
20
8.12986382106379
30
0
41
1
10
16.3834427074955
20
8.06031288085862
30
0
41
1
10
16.3959401462235
20
8.03743649526481
30
0
41
1
10
16.4166305781721
20
8.00358181693778
30
0
41
1
10
16.4238696464603
20
7.99234850561058
30
0
41
1
10
16.4389547957833
20
7.97015649809327
30
0
41
1
10
16.4467750039594
20
7.95923312401413
30
0
41
1
10
16.487285990491
20
7.90547752919261
30
0
41
1
10
16.5241451570224
20
7.86519223922235
30
0
41
1
10
16.5766976577682
20
7.81854294988787
30
0
41
1
10
16.5875531522007
20
7.80939166829543
30
0
41
1
10
16.6095897675601
20
7.79176453577892
30
0
41
1
10
16.6432548145304
20
7.76622554313354
30
0
41
1
10
16.7023826118535
20
7.72811635256076
30
0
41
1
10
16.7529298677764
20
7.70241250328573
30
0
41
1
10
16.8051631063883
20
7.6791965570707
30
0
41
1
10
16.831493866305
20
7.66911194322307
30
0
41
1
10
16.884518869914
20
7.65178773269076
30
0
41
1
10
16.9112225356446
20
7.6445448342522
30
0
41
1
10
16.9650247101002
20
7.63278302978816
30
0
41
1
10
16.9922163970769
20
7.62826889020693
30
0
41
1
10
17.0724935208943
20
7.61891927983271
30
0
41
1
10
17.1249222467064
20
7.61804900751403
30
0
41
1
10
17.2024065588861
20
7.6238859623208
30
0
41
1
10
17.2281182805366
20
7.62705096376197
30
0
41
1
10
17.2787427947223
20
7.63568691999802
30
0
41
1
10
17.3036391509599
20
7.64114521343714
30
0
41
1
10
17.3281523379785
20
7.64770812795294
30
0
0
SPLINE
5
13A
100
AcDbEntity
8
1
62
256
6
ByLayer
370
18
48
1
60
0
100
AcDbSpline
70
4
71
3
72
24
73
20
40
0
40
0
40
0
40
0
40
0.0625000000000078
40
0.0625000000000078
40
0.125000000000016
40
0.125000000000016
40
0.250000000000011
40
0.250000000000011
40
0.312500000000011
40
0.312500000000011
40
0.37500000000001
40
0.37500000000001
40
0.500000000000009
40
0.500000000000009
40
0.625000000000008
40
0.625000000000008
40
0.750000000000007
40
0.750000000000007
40
1
40
1
40
1
40
1
41
1
10
17.6981810583397
20
7.49583398396322
30
0
41
1
10
17.6934313378223
20
7.5039357041812
30
0
41
1
10
17.6882897889864
20
7.51190690359542
30
0
41
1
10
17.6773553215859
20
7.52735016006898
30
0
41
1
10
17.6716008277748
20
7.53477478950484
30
0
41
1
10
17.653507056405
20
7.55618984599573
30
0
41
1
10
17.6403431053358
20
7.56932733389317
30
0
41
1
10
17.6189603728397
20
7.5873375723443
30
0
41
1
10
17.6115431209205
20
7.59306244882393
30
0
41
1
10
17.5964570188401
20
7.60372800786661
30
0
41
1
10
17.5887541685167
20
7.60869962888276
30
0
41
1
10
17.5651865615502
20
7.62257232472828
30
0
41
1
10
17.5488655560663
20
7.63043781209655
30
0
41
1
10
17.5150376500415
20
7.64344742192802
30
0
41
1
10
17.4979733948959
20
7.64842215526988
30
0
41
1
10
17.4636029977596
20
7.65558108685138
30
0
41
1
10
17.4462370587479
20
7.65776640128666
30
0
41
1
10
17.3941694441299
20
7.66019630441411
30
0
41
1
10
17.3606039107084
20
7.65639638613689
30
0
41
1
10
17.3281523379785
20
7.64770812795294
30
0
0
SPLINE
5
13B
100
AcDbEntity
8
1
62
256
6
ByLayer
370
18
48
1
60
0
100
AcDbSpline
70
4
71
3
72
26
73
22
40
0
40
0
40
0
40
0
40
0.125000000000008
40
0.125000000000008
40
0.250000000000016
40
0.250000000000016
40
0.312500000000029
40
0.312500000000029
40
0.375000000000043
40
0.375000000000043
40
0.500000000000048
40
0.500000000000048
40
0.562500000000042
40
0.562500000000042
40
0.625000000000036
40
0.625000000000036
40
0.750000000000024
40
0.750000000000024
40
0.875000000000012
40
0.875000000000012
40
1
40
1
40
1
40
1
41
1
10
15.9999999999999
20
8.46875709436807
30
0
41
1
10
15.9812579161202
20
8.46875709436807
30
0
41
1
10
15.9622099758789
20
8.46711988987266
30
0
41
1
10
15.9253294541455
20
8.46074237505101
30
0
41
1
10
15.9073531625206
20
8.45602988603355
30
0
41
1
10
15.8810727694391
20
8.44672248047124
30
0
41
1
10
15.8723863894369
20
8.44322461946342
30
0
41
1
10
15.8555174523839
20
8.43559122460411
30
0
41
1
10
15.8473226044841
20
8.43145619363295
30
0
41
1
10
15.8234267481804
20
8.4181394237838
30
0
41
1
10
15.8084100630754
20
8.4080516568614
30
0
41
1
10
15.7872244605915
20
8.39116180145427
30
0
41
1
10
15.7804080814308
20
8.38524971175249
30
0
41
1
10
15.7674404104892
20
8.37305446621093
30
0
41
1
10
15.7612596172287
20
8.36674839115344
30
0
41
1
10
15.7435909177986
20
8.34723344714388
30
0
41
1
10
15.7329717290288
20
8.33343122203013
30
0
41
1
10
15.7139986190538
20
8.304302627608
30
0
41
1
10
15.7058188411953
20
8.28923438855429
30
0
41
1
10
15.691977980176
20
8.25837484206798
30
0
41
1
10
15.6862980163445
20
8.24255198385617
30
0
41
1
10
15.6818380304531
20
8.22635253451239
30
0
0
SPLINE
5
13C
100
AcDbEntity
8
1
62
256
6
ByLayer
370
18
48
1
60
0
100
AcDbSpline
70
4
71
3
72
34
73
30
40
0
40
0
40
0
40
0
40
0.125000000000001
40
0.125000000000001
40
0.1875
40
0.1875
40
0.218749999999999
40
0.218749999999999
40
0.249999999999998
40
0.249999999999998
40
0.375000000000007
40
0.375000000000007
40
0.406250000000009
40
0.406250000000009
40
0.437500000000011
40
0.500000000000011
40
0.562500000000011
40
0.562500000000011
40
0.625000000000011
40
0.625000000000011
40
0.687500000000011
40
0.687500000000011
40
0.750000000000011
40
0.750000000000011
40
0.875000000000009
40
0.875000000000009
40
0.937500000000004
40
0.937500000000004
40
1
40
1
40
1
40
1
41
1
10
14.6718476620213
20
7.64770812795294
30
0
41
1
10
14.7208394593322
20
7.6345915561468
30
0
41
1
10
14.7709450984189
20
7.62595927847741
30
0
41
1
10
14.8481023724606
20
7.62004913396831
30
0
41
1
10
14.8741579501173
20
7.61926057073239
30
0
41
1
10
14.9138278946092
20
7.61998760372796
30
0
41
1
10
14.9271798085302
20
7.62055129352134
30
0
41
1
10
14.9539537358993
20
7.6223412174802
30
0
41
1
10
14.96733218994
20
7.62356299589518
30
0
41
1
10
15.0341945419054
20
7.63132381031358
30
0
41
1
10
15.0875894364997
20
7.64274694264765
30
0
41
1
10
15.1544113754503
20
7.66448974410426
30
0
41
1
10
15.1677961932239
20
7.66922623941434
30
0
41
1
10
15.1941478369933
20
7.67932174281489
30
0
41
1
10
15.2332059929598
20
7.69544737969861
30
0
41
1
10
15.29598606662
20
7.72718173469914
30
0
41
1
10
15.3437246825772
20
7.75778789801069
30
0
41
1
10
15.3901697315482
20
7.79110678681721
30
0
41
1
10
15.4121863952643
20
7.80872141431701
30
0
41
1
10
15.4539492170244
20
7.84570311314275
30
0
41
1
10
15.4737029913317
20
7.86507664469747
30
0
41
1
10
15.5110603053286
20
7.90554199947019
30
0
41
1
10
15.5287068593984
20
7.92671661725953
30
0
41
1
10
15.5773730428751
20
7.9912413002381
30
0
41
1
10
15.604639848374
20
8.03603024919906
30
0
41
1
10
15.6387924427219
20
8.10582629939654
30
0
41
1
10
15.6490658739522
20
8.12960793963069
30
0
41
1
10
15.6672193811967
20
8.17764824937132
30
0
41
1
10
15.6751020665242
20
8.20188633459532
30
0
41
1
10
15.6818380304531
20
8.22635253451239
30
0
0
SPLINE
5
13D
100
AcDbEntity
8
1
62
256
6
ByLayer
370
18
48
1
60
0
100
AcDbSpline
70
4
71
3
72
24
73
20
40
0
40
0
40
0
40
0
40
0.0624999999999889
40
0.0624999999999889
40
0.124999999999978
40
0.124999999999978
40
0.249999999999968
40
0.249999999999968
40
0.312499999999966
40
0.312499999999966
40
0.374999999999963
40
0.374999999999963
40
0.499999999999969
40
0.499999999999969
40
0.624999999999976
40
0.624999999999976
40
0.749999999999982
40
0.749999999999982
40
1
40
1
40
1
40
1
41
1
10
14.3018189416601
20
7.49583398396322
30
0
41
1
10
14.3065686621775
20
7.5039357041812
30
0
41
1
10
14.3117102110134
20
7.51190690359542
30
0
41
1
10
14.3226446784139
20
7.52735016006898
30
0
41
1
10
14.328399172225
20
7.53477478950484
30
0
41
1
10
14.3464929435948
20
7.55618984599573
30
0
41
1
10
14.359656894664
20
7.56932733389314
30
0
41
1
10
14.3810396271601
20
7.5873375723443
30
0
41
1
10
14.3884568790793
20
7.59306244882393
30
0
41
1
10
14.4035429811597
20
7.60372800786661
30
0
41
1
10
14.4112458314831
20
7.60869962888276
30
0
41
1
10
14.4348134384496
20
7.62257232472828
30
0
41
1
10
14.4511344439335
20
7.63043781209655
30
0
41
1
10
14.4849623499583
20
7.64344742192802
30
0
41
1
10
14.5020266051039
20
7.64842215526988
30
0
41
1
10
14.5363970022402
20
7.65558108685138
30
0
41
1
10
14.5537629412519
20
7.65776640128666
30
0
41
1
10
14.6058305558699
20
7.66019630441411
30
0
41
1
10
14.6393960892914
20
7.65639638613689
30
0
41
1
10
14.6718476620213
20
7.64770812795294
30
0
0
SPLINE
5
13E
100
AcDbEntity
8
1
62
256
6
ByLayer
370
18
48
1
60
0
100
AcDbSpline
70
4
71
3
72
34
73
30
40
0
40
0
40
0
40
0
40
0.125000000000008
40
0.125000000000008
40
0.187500000000012
40
0.187500000000012
40
0.218750000000013
40
0.218750000000013
40
0.250000000000014
40
0.250000000000014
40
0.375000000000017
40
0.375000000000017
40
0.406250000000017
40
0.406250000000017
40
0.437500000000016
40
0.500000000000015
40
0.562500000000013
40
0.562500000000013
40
0.625000000000011
40
0.625000000000011
40
0.68750000000001
40
0.68750000000001
40
0.750000000000008
40
0.750000000000008
40
0.875000000000003
40
0.875000000000003
40
0.937500000000002
40
0.937500000000002
40
1
40
1
40
1
40
1
41
1
10
15.6818380304531
20
4.77416165422375
30
0
41
1
10
15.6683756044156
20
4.82305954178369
30
0
41
1
10
15.6504813479253
20
4.87065036767231
30
0
41
1
10
15.6165572925043
20
4.94020130787749
30
0
41
1
10
15.6040598537763
20
4.96307769347132
30
0
41
1
10
15.5833694218277
20
4.99693237179835
30
0
41
1
10
15.5761303535395
20
5.00816568312555
30
0
41
1
10
15.5610452042165
20
5.03035769064286
30
0
41
1
10
15.5532249960404
20
5.041281064722
30
0
41
1
10
15.5127140095088
20
5.0950366595435
30
0
41
1
10
15.4758548429774
20
5.13532194951375
30
0
41
1
10
15.4233023422317
20
5.18197123884826
30
0
41
1
10
15.4124468477991
20
5.19112252044067
30
0
41
1
10
15.3904102324397
20
5.20874965295721
30
0
41
1
10
15.3567451854694
20
5.23428864560259
30
0
41
1
10
15.2976175561689
20
5.27239809722209
30
0
41
1
10
15.2470701322234
20
5.2981016854504
30
0
41
1
10
15.1948368936115
20
5.32131763166544
30
0
41
1
10
15.1685061336948
20
5.33140224551306
30
0
41
1
10
15.1154811300858
20
5.34872645604537
30
0
41
1
10
15.0887774643552
20
5.35596935448393
30
0
41
1
10
15.0349752898996
20
5.36773115894798
30
0
41
1
10
15.0077836029229
20
5.37224529852921
30
0
41
1
10
14.9275064791056
20
5.38159490890342
30
0
41
1
10
14.8750777532934
20
5.38246518122207
30
0
41
1
10
14.7975934411138
20
5.37662822641533
30
0
41
1
10
14.7718817194632
20
5.37346322497413
30
0
41
1
10
14.7212572052775
20
5.36482726873811
30
0
41
1
10
14.6963608490399
20
5.35936897529899
30
0
41
1
10
14.6718476620213
20
5.35280606078319
30
0
0
SPLINE
5
13F
100
AcDbEntity
8
1
62
256
6
ByLayer
370
18
48
1
60
0
100
AcDbSpline
70
4
71
3
72
24
73
20
40
0
40
0
40
0
40
0
40
0.0625000000000045
40
0.0625000000000045
40
0.125000000000009
40
0.125000000000009
40
0.250000000000014
40
0.250000000000014
40
0.312500000000018
40
0.312500000000018
40
0.375000000000023
40
0.375000000000023
40
0.500000000000019
40
0.500000000000019
40
0.625000000000015
40
0.625000000000015
40
0.750000000000012
40
0.750000000000012
40
1
40
1
40
1
40
1
41
1
10
14.3018189416601
20
5.50468020477288
30
0
41
1
10
14.3065686621775
20
5.49657848455493
30
0
41
1
10
14.3117102110134
20
5.48860728514072
30
0
41
1
10
14.3226446784139
20
5.47316402866716
30
0
41
1
10
14.328399172225
20
5.4657393992313
30
0
41
1
10
14.3464929435949
20
5.4443243427404
30
0
41
1
10
14.359656894664
20
5.43118685484296
30
0
41
1
10
14.3810396271601
20
5.41317661639184
30
0
41
1
10
14.3884568790793
20
5.4074517399122
30
0
41
1
10
14.4035429811597
20
5.39678618086953
30
0
41
1
10
14.4112458314831
20
5.39181455985337
30
0
41
1
10
14.4348134384496
20
5.37794186400782
30
0
41
1
10
14.4511344439335
20
5.37007637663959
30
0
41
1
10
14.4849623499583
20
5.35706676680812
30
0
41
1
10
14.5020266051039
20
5.35209203346625
30
0
41
1
10
14.5363970022402
20
5.34493310188475
30
0
41
1
10
14.5537629412519
20
5.34274778744947
30
0
41
1
10
14.6058305558699
20
5.34031788432202
30
0
41
1
10
14.6393960892914
20
5.34411780259924
30
0
41
1
10
14.6718476620213
20
5.35280606078319
30
0
0
SPLINE
5
140
100
AcDbEntity
8
1
62
256
6
ByLayer
370
18
48
1
60
0
100
AcDbSpline
70
4
71
3
72
26
73
22
40
0
40
0
40
0
40
0
40
0.250000000000023
40
0.250000000000023
40
0.312500000000022
40
0.312500000000022
40
0.375000000000022
40
0.375000000000022
40
0.500000000000025
40
0.500000000000025
40
0.562500000000026
40
0.562500000000026
40
0.625000000000027
40
0.625000000000027
40
0.75000000000001
40
0.75000000000001
40
0.812500000000002
40
0.812500000000002
40
0.874999999999993
40
0.874999999999993
40
1
40
1
40
1
40
1
41
1
10
15.6818380304531
20
4.77416165422375
30
0
41
1
10
15.690780769453
20
4.74168006101905
30
0
41
1
10
15.7045123677409
20
4.71079340463618
30
0
41
1
10
15.7281646611709
20
4.67445857704627
30
0
41
1
10
15.7332504932268
20
4.6672796369439
30
0
41
1
10
15.7439469908236
20
4.65339769980756
30
0
41
1
10
15.7495666009287
20
4.64667549992114
30
0
41
1
10
15.7672404966506
20
4.62717036805904
30
0
41
1
10
15.7801042158831
20
4.61504428573161
30
0
41
1
10
15.801118945132
20
4.59826768761889
30
0
41
1
10
15.8084116893908
20
4.59291197717485
30
0
41
1
10
15.8236083865561
20
4.58270552833167
30
0
41
1
10
15.8314588292886
20
4.57789498146377
30
0
41
1
10
15.8554562271618
20
4.56453260142953
30
0
41
1
10
15.8721665003503
20
4.55696019032334
30
0
41
1
10
15.8983294895865
20
4.54767311451673
30
0
41
1
10
15.9072343299034
20
4.54492436278537
30
0
41
1
10
15.9254292302566
20
4.54015540026415
30
0
41
1
10
15.93471540105
20
4.53814256886352
30
0
41
1
10
15.9625187231473
20
4.53335351065468
30
0
41
1
10
15.9811910467099
20
4.53175709436806
30
0
41
1
10
15.9999999999999
20
4.53175709436806
30
0
0
SPLINE
5
141
100
AcDbEntity
8
1
62
256
6
ByLayer
370
18
48
1
60
0
100
AcDbSpline
70
4
71
3
72
26
73
22
40
0
40
0
40
0
40
0
40
0.249999999999994
40
0.249999999999994
40
0.375000000000005
40
0.375000000000005
40
0.500000000000016
40
0.500000000000016
40
0.562500000000017
40
0.562500000000017
40
0.625000000000017
40
0.625000000000017
40
0.687500000000017
40
0.687500000000017
40
0.750000000000018
40
0.750000000000018
40
0.812500000000018
40
0.812500000000018
40
0.875000000000018
40
0.875000000000018
40
1
40
1
40
1
40
1
41
1
10
-9.76977062535472
20
-0.324980947162374
30
0
41
1
10
-9.78371394299811
20
-0.324980947162487
30
0
41
1
10
-9.79721633043981
20
-0.32425295140925
30
0
41
1
10
-9.81586925133684
20
-0.32120854408106
30
0
41
1
10
-9.82185023943548
20
-0.319858473912291
30
0
41
1
10
-9.83297200704564
20
-0.316164973904421
30
0
41
1
10
-9.8380039320314
20
-0.313865133235709
30
0
41
1
10
-9.84436713160804
20
-0.309378419529736
30
0
41
1
10
-9.84629792389401
20
-0.307691692329655
30
0
41
1
10
-9.84954436483507
20
-0.303975286250648
30
0
41
1
10
-9.85087263754812
20
-0.30194195579503
30
0
41
1
10
-9.85283128801585
20
-0.297457432910704
30
0
41
1
10
-9.85343991278354
20
-0.295033554344769
30
0
41
1
10
-9.85385630319132
20
-0.289942785349865
30
0
41
1
10
-9.85367136975532
20
-0.287249769995697
30
0
41
1
10
-9.85250595826948
20
-0.281606923074861
30
0
41
1
10
-9.85154717061492
20
-0.278746080497683
30
0
41
1
10
-9.84899139102981
20
-0.272956798030066
30
0
41
1
10
-9.84737849564692
20
-0.270005548215949
30
0
41
1
10
-9.84181586539509
20
-0.261242606835538
30
0
41
1
10
-9.83720772401583
20
-0.255558778474722
30
0
41
1
10
-9.83200555996575
20
-0.249980947161674
30
0
0
SPLINE
5
142
100
AcDbEntity
8
1
62
256
6
ByLayer
370
18
48
1
60
0
100
AcDbSpline
70
4
71
3
72
8
73
4
40
0
40
0
40
0
40
0
40
1
40
1
40
1
40
1
41
1
10
8.97509300114021
20
-0.269594177820636
30
0
41
1
10
8.97048024229872
20
-0.263188796058728
30
0
41
1
10
8.96535566342396
20
-0.256648768658465
30
0
41
1
10
8.95982040671319
20
-0.249999999999829
30
0
0
SPLINE
5
143
100
AcDbEntity
8
1
62
256
6
ByLayer
370
18
48
1
60
0
100
AcDbSpline
70
4
71
3
72
8
73
4
40
0
40
0
40
0
40
0
40
1
40
1
40
1
40
1
41
1
10
8.97509300113904
20
-0.269594177821347
30
0
41
1
10
8.96602634583104
20
-0.263052313104737
30
0
41
1
10
8.95695689263579
20
-0.256520867363747
30
0
41
1
10
8.94788459874798
20
-0.25
30
0
0
SPLINE
5
144
100
AcDbEntity
8
1
62
256
6
ByLayer
370
18
48
1
60
0
100
AcDbSpline
70
4
71
3
72
20
73
16
40
0
40
0
40
0
40
0
40
0.125
40
0.125
40
0.25
40
0.25
40
0.375
40
0.375
40
0.5
40
0.5
40
0.625
40
0.625
40
0.75
40
0.75
40
1
40
1
40
1
40
1
41
1
10
9.5070945452878
20
-0.324980947161691
30
0
41
1
10
9.50446684643606
20
-0.324980947161691
30
0
41
1
10
9.50120547788177
20
-0.324325438354236
30
0
41
1
10
9.49383752136632
20
-0.321978904858042
30
0
41
1
10
9.48970604367264
20
-0.320287538788818
30
0
41
1
10
9.48067606109115
20
-0.316017460644701
30
0
41
1
10
9.47584069438224
20
-0.313466776029827
30
0
41
1
10
9.46575547887247
20
-0.307741778715808
30
0
41
1
10
9.46048600059484
20
-0.304557321014272
30
0
41
1
10
9.44955246765531
20
-0.297627228915957
30
0
41
1
10
9.44387251607549
20
-0.293868908437645
30
0
41
1
10
9.43240356571505
20
-0.286013315481341
30
0
41
1
10
9.42658457612515
20
-0.281897606492294
30
0
41
1
10
9.40890440191322
20
-0.269050270820657
30
0
41
1
10
9.39682270649575
20
-0.259824535101188
30
0
41
1
10
9.3844789550599
20
-0.25
30
0
0
SPLINE
5
145
100
AcDbEntity
8
1
62
256
6
ByLayer
370
18
48
1
60
0
100
AcDbSpline
70
4
71
2
72
6
73
3
40
0
40
0
40
0
40
1
40
1
40
1
41
1
10
9.57062122153147
20
-0.324980947161691
30
0
41
1
10
9.53999786148736
20
-0.324980947161691
30
0
41
1
10
9.50723215695228
20
-0.324980947161691
30
0
0
SPLINE
5
146
100
AcDbEntity
8
1
62
256
6
ByLayer
370
18
48
1
60
0
100
AcDbSpline
70
4
71
3
72
22
73
18
40
0
40
0
40
0
40
0
40
0.125
40
0.125
40
0.25
40
0.25
40
0.375
40
0.375
40
0.5
40
0.5
40
0.625
40
0.625
40
0.75
40
0.75
40
0.875
40
0.875
40
1
40
1
40
1
40
1
41
1
10
9.53081289439862
20
-0.249999999999943
30
0
41
1
10
9.53505931314226
20
-0.254861141173507
30
0
41
1
10
9.53914014588514
20
-0.259653435704053
30
0
41
1
10
9.5469222663894
20
-0.26908108225922
30
0
41
1
10
9.55063275024946
20
-0.273730195609943
30
0
41
1
10
9.55744018536603
20
-0.282630010692884
30
0
41
1
10
9.56055905507199
20
-0.28690587896952
30
0
41
1
10
9.56613810398775
20
-0.295057128232287
30
0
41
1
10
9.56861585716385
20
-0.298965833156615
30
0
41
1
10
9.57263907119452
20
-0.306067076874996
30
0
41
1
10
9.5741997112676
20
-0.309275100347463
30
0
41
1
10
9.57631860575586
20
-0.314932710155119
30
0
41
1
10
9.57685514810564
20
-0.317350053736362
30
0
41
1
10
9.57683167984811
20
-0.321175545408039
30
0
41
1
10
9.57628182451117
20
-0.322618634072569
30
0
41
1
10
9.57410536556662
20
-0.324533102723962
30
0
41
1
10
9.57251449079982
20
-0.324980699935452
30
0
41
1
10
9.57048139756094
20
-0.324980947060027
30
0
0
SPLINE
5
147
100
AcDbEntity
8
1
62
256
6
ByLayer
370
18
48
1
60
0
100
AcDbSpline
70
4
71
3
72
12
73
8
40
0
40
0
40
0
40
0
40
0.500000000000005
40
0.500000000000005
40
0.750000000000003
40
0.750000000000003
40
1
40
1
40
1
40
1
41
1
10
31.6686702559032
20
12.2221734547171
30
0
41
1
10
31.6326599266351
20
12.0764650282688
30
0
41
1
10
31.5962165351009
20
11.9309885814645
30
0
41
1
10
31.5402805019612
20
11.7134547222781
30
0
41
1
10
31.5214192473366
20
11.6410590931117
30
0
41
1
10
31.4830509002568
20
11.4966137924891
30
0
41
1
10
31.4635485238376
20
11.4245615947812
30
0
41
1
10
31.4435311868868
20
11.3527852473843
30
0
0
SPLINE
5
148
100
AcDbEntity
8
1
62
256
6
ByLayer
370
18
48
1
60
0
100
AcDbSpline
70
4
71
3
72
8
73
4
40
0
40
0
40
0
40
0
40
1
40
1
40
1
40
1
41
1
10
31.7837003209984
20
12.2874021901523
30
0
41
1
10
31.7454181494018
20
12.2654363596234
30
0
41
1
10
31.7070852871455
20
12.2436552179209
30
0
41
1
10
31.6686702559032
20
12.2221734547171
30
0
0
SPLINE
5
149
100
AcDbEntity
8
1
62
256
6
ByLayer
370
18
48
1
60
0
100
AcDbSpline
70
4
71
3
72
18
73
14
40
0
40
0
40
0
40
0
40
0.250000000000011
40
0.250000000000011
40
0.500000000000021
40
0.500000000000021
40
0.625000000000016
40
0.625000000000016
40
0.750000000000011
40
0.750000000000011
40
0.875000000000005
40
0.875000000000005
40
1
40
1
40
1
40
1
41
1
10
31.8508587380439
20
12.4283435388065
30
0
41
1
10
31.8511272861671
20
12.4130736727627
30
0
41
1
10
31.8497068483792
20
12.3981202327286
30
0
41
1
10
31.8435022941727
20
12.3688435268971
30
0
41
1
10
31.838862457986
20
12.3552565766522
30
0
41
1
10
31.8297920231189
20
12.336559740453
30
0
41
1
10
31.8263963274081
20
12.3306022797273
30
0
41
1
10
31.8191368816918
20
12.3196507499584
30
0
41
1
10
31.8152465618976
20
12.3145959863376
30
0
41
1
10
31.8069613169135
20
12.3053016624991
30
0
41
1
10
31.8025320402377
20
12.301035447617
30
0
41
1
10
31.7933238119791
20
12.2934767540754
30
0
41
1
10
31.7885786961748
20
12.2902013407206
30
0
41
1
10
31.7837003209984
20
12.2874021901522
30
0
0
SPLINE
5
14A
100
AcDbEntity
8
1
62
256
6
ByLayer
370
18
48
1
60
0
100
AcDbSpline
70
4
71
2
72
6
73
3
40
0
40
0
40
0
40
1
40
1
40
1
41
0.500000063726177
10
31.8491406976202
20
12.5259685340045
30
0
41
0.499999936273823
10
31.8500000351086
20
12.477170090404
30
0
41
0.500000063726177
10
31.850858738044
20
12.4283435388066
30
0
0
SPLINE
5
14B
100
AcDbEntity
8
1
62
256
6
ByLayer
370
18
48
1
60
0
100
AcDbSpline
70
4
71
3
72
18
73
14
40
0
40
0
40
0
40
0
40
0.250000000000024
40
0.250000000000024
40
0.500000000000047
40
0.500000000000047
40
0.625000000000036
40
0.625000000000036
40
0.750000000000024
40
0.750000000000024
40
0.875000000000012
40
0.875000000000012
40
1
40
1
40
1
40
1
41
1
10
31.776918021008
20
12.6631458336199
30
0
41
1
10
31.7869472010966
20
12.658053252325
30
0
41
1
10
31.7963577250388
20
12.65111148487
30
0
41
1
10
31.8138008033743
20
12.6332825450565
30
0
41
1
10
31.8214507322478
20
12.6227925956615
30
0
41
1
10
31.8312368378528
20
12.604574818984
30
0
41
1
10
31.8341683408051
20
12.5981531016415
30
0
41
1
10
31.8392686285839
20
12.5848439047729
30
0
41
1
10
31.8414559826299
20
12.5779230339798
30
0
41
1
10
31.8450738935461
20
12.5635258353631
30
0
41
1
10
31.8464872790451
20
12.5560814762563
30
0
41
1
10
31.8484450903935
20
12.5411497282959
30
0
41
1
10
31.8490062850418
20
12.5336013031015
30
0
41
1
10
31.8491406976202
20
12.5259685340046
30
0
0
SPLINE
5
14C
100
AcDbEntity
8
1
62
256
6
ByLayer
370
18
48
1
60
0
100
AcDbSpline
70
4
71
3
72
8
73
4
40
0
40
0
40
0
40
0
40
1
40
1
40
1
40
1
41
1
10
31.6591480093554
20
12.7220876984175
30
0
41
1
10
31.6984771697918
20
12.7027388479574
30
0
41
1
10
31.7377232618822
20
12.683048008615
30
0
41
1
10
31.776918021008
20
12.6631458336199
30
0
0
SPLINE
5
14D
100
AcDbEntity
8
1
62
256
6
ByLayer
370
18
48
1
60
0
100
AcDbSpline
70
4
71
3
72
14
73
10
40
0
40
0
40
0
40
0
40
0.25
40
0.25
40
0.5
40
0.5
40
0.75
40
0.75
40
1
40
1
40
1
40
1
41
1
10
31.3576145396468
20
13.6712310224239
30
0
41
1
10
31.3862050718451
20
13.5944093755186
30
0
41
1
10
31.413159259032
20
13.5165133077844
30
0
41
1
10
31.4654190136006
20
13.3596386918826
30
0
41
1
10
31.4906903777818
20
13.2806376859624
30
0
41
1
10
31.5402140441938
20
13.1219665601043
30
0
41
1
10
31.5644566512976
20
13.0422900743655
30
0
41
1
10
31.6122639711654
20
12.8824919988338
30
0
41
1
10
31.6358250911295
20
12.8023680500157
30
0
41
1
10
31.6591480093553
20
12.7220876984175
30
0
0
SPLINE
5
14E
100
AcDbEntity
8
1
62
256
6
ByLayer
370
18
48
1
60
0
100
AcDbSpline
70
4
71
3
72
8
73
4
40
0
40
0
40
0
40
0
40
1
40
1
40
1
40
1
41
1
10
31.4435311868868
20
11.3527852473843
30
0
41
1
10
31.4150819465879
20
11.352632994614
30
0
41
1
10
31.3863056837958
20
11.3525633334631
30
0
41
1
10
31.3571866210042
20
11.3525792649793
30
0
0
SPLINE
5
14F
100
AcDbEntity
8
1
62
256
6
ByLayer
370
18
48
1
60
0
100
AcDbSpline
70
4
71
3
72
10
73
6
40
0
40
0
40
0
40
0
40
0.5
40
0.5
40
1
40
1
40
1
40
1
41
1
10
21.587298818442
20
10.2468763319895
30
0
41
1
10
21.5845320080615
20
10.239491103948
30
0
41
1
10
21.5804842716719
20
10.2321057310486
30
0
41
1
10
21.5704350188885
20
10.2173347642997
30
0
41
1
10
21.5644353001215
20
10.2099491706536
30
0
41
1
10
21.5579366989262
20
10.2025635205896
30
0
0
SPLINE
5
150
100
AcDbEntity
8
1
62
256
6
ByLayer
370
18
48
1
60
0
100
AcDbSpline
70
4
71
3
72
20
73
16
40
0
40
0
40
0
40
0
40
0.125
40
0.125
40
0.250000000000001
40
0.250000000000001
40
0.375000000000001
40
0.375000000000001
40
0.500000000000002
40
0.500000000000002
40
0.625000000000002
40
0.625000000000002
40
0.750000000000002
40
0.750000000000002
40
1
40
1
40
1
40
1
41
1
10
-11.1320782392769
20
-0.32498094716172
30
0
41
1
10
-11.1352153779729
20
-0.32498094716172
30
0
41
1
10
-11.1379995581218
20
-0.324581483697585
30
0
41
1
10
-11.1425602599156
20
-0.322880500925265
30
0
41
1
10
-11.1443698180766
20
-0.321572915063968
30
0
41
1
10
-11.1468471997408
20
-0.317947268097782
30
0
41
1
10
-11.1474895806123
20
-0.31567755487319
30
0
41
1
10
-11.1475787917377
20
-0.310212274884549
30
0
41
1
10
-11.1470034342433
20
-0.306969162786601
30
0
41
1
10
-11.1447268949469
20
-0.29985100455238
30
0
41
1
10
-11.1430395672149
20
-0.295963435139413
30
0
41
1
10
-11.1386768192221
20
-0.287590116805859
30
0
41
1
10
-11.1360204266698
20
-0.283150106968293
30
0
41
1
10
-11.1270564922387
20
-0.269508992532707
30
0
41
1
10
-11.1195900715259
20
-0.259735651200032
30
0
41
1
10
-11.1114500273988
20
-0.249980947154313
30
0
0
SPLINE
5
151
100
AcDbEntity
8
1
62
256
6
ByLayer
370
18
48
1
60
0
100
AcDbSpline
70
4
71
3
72
16
73
12
40
0
40
0
40
0
40
0
40
0.11126071778214
40
0.11126071778214
40
0.333445538336605
40
0.333445538336605
40
0.55563035889107
40
0.55563035889107
40
0.777815179445535
40
0.777815179445535
40
1
40
1
40
1
40
1
41
1
10
-10.9355763242354
20
-0.295585243643501
30
0
41
1
10
-10.9392749349832
20
-0.297414379612746
30
0
41
1
10
-10.9429537234276
20
-0.299188283644128
30
0
41
1
10
-10.9539161602598
20
-0.304330463663064
30
0
41
1
10
-10.9611695861205
20
-0.3075343818509
30
0
41
1
10
-10.9751929157508
20
-0.313258941423413
30
0
41
1
10
-10.9819859246727
20
-0.315793026802652
30
0
41
1
10
-10.9950506921146
20
-0.320074036858045
30
0
41
1
10
-11.0013242982397
20
-0.321823931556111
30
0
41
1
10
-11.0131968590635
20
-0.324294057072905
30
0
41
1
10
-11.0186481431831
20
-0.324980947167972
30
0
41
1
10
-11.0234674519049
20
-0.324980947168172
30
0
0
SPLINE
5
152
100
AcDbEntity
8
1
62
256
6
ByLayer
370
18
48
1
60
0
100
AcDbSpline
70
4
71
3
72
14
73
10
40
0
40
0
40
0
40
0
40
0.0894598291370978
40
0.0894598291370978
40
0.392973219424732
40
0.392973219424732
40
0.696486609712366
40
0.696486609712366
40
1
40
1
40
1
40
1
41
1
10
-9.23069302614087
20
-0.311032527846521
30
0
41
1
10
-9.23599680282415
20
-0.311723378500773
30
0
41
1
10
-9.24129838173971
20
-0.312398183522987
30
0
41
1
10
-9.26457702802544
20
-0.315286220502202
30
0
41
1
10
-9.28248929514578
20
-0.317312073842714
30
0
41
1
10
-9.31797101298204
20
-0.320786465315137
30
0
41
1
10
-9.33556537129779
20
-0.322240606435287
30
0
41
1
10
-9.37037734089566
20
-0.324333802127739
30
0
41
1
10
-9.38759768042246
20
-0.324980947161663
30
0
41
1
10
-9.40454881002677
20
-0.324980947161663
30
0
0
SPLINE
5
153
100
AcDbEntity
8
1
62
256
6
ByLayer
370
18
48
1
60
0
100
AcDbSpline
70
4
71
3
72
8
73
4
40
0
40
0
40
0
40
0
40
1
40
1
40
1
40
1
41
1
10
-9.96637832280624
20
-0.249980947161504
30
0
41
1
10
-9.8653504720117
20
-0.208886956077919
30
0
41
1
10
-9.76333499207151
20
-0.169915419793
30
0
41
1
10
-9.660217605339
20
-0.133311925570638
30
0
0
SPLINE
5
154
100
AcDbEntity
8
1
62
256
6
ByLayer
370
18
48
1
60
0
100
AcDbSpline
70
4
71
3
72
16
73
12
40
0
40
0
40
0
40
0
40
0.125000000000003
40
0.125000000000003
40
0.250000000000006
40
0.250000000000006
40
0.500000000000004
40
0.500000000000004
40
0.750000000000002
40
0.750000000000002
40
1
40
1
40
1
40
1
41
1
10
-10.2470436468637
20
-0.324980947161663
30
0
41
1
10
-10.2368176996361
20
-0.324980947160697
30
0
41
1
10
-10.2261105645492
20
-0.324200732781947
30
0
41
1
10
-10.2040252939894
20
-0.321595212906118
30
0
41
1
10
-10.1925916480194
20
-0.319751268507446
30
0
41
1
10
-10.1578378552941
20
-0.313070425791182
30
0
41
1
10
-10.1343736234426
20
-0.307193150124277
30
0
41
1
10
-10.0870307140286
20
-0.293653557543223
30
0
41
1
10
-10.0631479963767
20
-0.285965246733184
30
0
41
1
10
-10.0150264157267
20
-0.269095229194733
30
0
41
1
10
-9.99078675577488
20
-0.259909297798572
30
0
41
1
10
-9.96637832280616
20
-0.249980947161674
30
0
0
SPLINE
5
155
100
AcDbEntity
8
1
62
256
6
ByLayer
370
18
48
1
60
0
100
AcDbSpline
70
4
71
3
72
8
73
4
40
0
40
0
40
0
40
0
40
1
40
1
40
1
40
1
41
1
10
-11.1539311130555
20
-0.249980947161646
30
0
41
1
10
-11.1370643731009
20
-0.237366129676502
30
0
41
1
10
-11.120166047202
20
-0.224786456048179
30
0
41
1
10
-11.103235063126
20
-0.212243119288473
30
0
0
SPLINE
5
156
100
AcDbEntity
8
1
62
256
6
ByLayer
370
18
48
1
60
0
100
AcDbSpline
70
4
71
3
72
20
73
16
40
0
40
0
40
0
40
0
40
0.125000000000008
40
0.125000000000008
40
0.250000000000016
40
0.250000000000016
40
0.375000000000024
40
0.375000000000024
40
0.500000000000032
40
0.500000000000032
40
0.750000000000016
40
0.750000000000016
40
0.875000000000008
40
0.875000000000008
40
1
40
1
40
1
40
1
41
1
10
-11.2871772280887
20
-0.324980947161919
30
0
41
1
10
-11.2841126650964
20
-0.32498094716189
30
0
41
1
10
-11.2804336330612
20
-0.324326717375243
30
0
41
1
10
-11.2720438166112
20
-0.32192703352834
30
0
41
1
10
-11.2673785357809
20
-0.320189385940665
30
0
41
1
10
-11.2574809997012
20
-0.315925042907395
30
0
41
1
10
-11.2522175048208
20
-0.313387918152557
30
0
41
1
10
-11.2411564914624
20
-0.307626792034853
30
0
41
1
10
-11.2353751890956
20
-0.304408475138501
30
0
41
1
10
-11.2177208346944
20
-0.29407886125324
30
0
41
1
10
-11.2054148194759
20
-0.286238759708993
30
0
41
1
10
-11.1863183862468
20
-0.273317667880235
30
0
41
1
10
-11.1798450150413
20
-0.268812423928665
30
0
41
1
10
-11.1669160865667
20
-0.259584653592839
30
0
41
1
10
-11.1604321264514
20
-0.254843125490652
30
0
41
1
10
-11.1539311130558
20
-0.249980947163749
30
0
0
SPLINE
5
157
100
AcDbEntity
8
1
62
256
6
ByLayer
370
18
48
1
60
0
100
AcDbSpline
70
4
71
3
72
47
73
43
40
0
40
0
40
0
40
0
40
0.062499999999999
40
0.062499999999999
40
0.0937499999999976
40
0.0937499999999976
40
0.109374999999996
40
0.109374999999996
40
0.124999999999995
40
0.124999999999995
40
0.187499999999991
40
0.187499999999991
40
0.21874999999999
40
0.234374999999991
40
0.234374999999991
40
0.249999999999991
40
0.249999999999991
40
0.31249999999999
40
0.31249999999999
40
0.37499999999999
40
0.37499999999999
40
0.406249999999989
40
0.406249999999989
40
0.437499999999989
40
0.437499999999989
40
0.499999999999987
40
0.499999999999987
40
0.531249999999987
40
0.531249999999987
40
0.562499999999988
40
0.562499999999988
40
0.62499999999999
40
0.62499999999999
40
0.749999999999994
40
0.749999999999994
40
0.781249999999994
40
0.781249999999994
40
0.812499999999993
40
0.812499999999993
40
0.874999999999995
40
0.874999999999995
40
1
40
1
40
1
40
1
41
1
10
21.4999999999998
20
11.4397452728644
30
0
41
1
10
21.4999999999998
20
11.4982918138397
30
0
41
1
10
21.5028600414352
20
11.5566010305203
30
0
41
1
10
21.5117885945024
20
11.6436799567173
30
0
41
1
10
21.5155398429849
20
11.6726419511551
30
0
41
1
10
21.5223942910488
20
11.7159830794442
30
0
41
1
10
21.5248859917717
20
11.730419082483
30
0
41
1
10
21.5302454326974
20
11.7590289518999
30
0
41
1
10
21.5331173133882
20
11.7732311496039
30
0
41
1
10
21.5484355482158
20
11.8437295062221
30
0
41
1
10
21.5637497278806
20
11.8984924040279
30
0
41
1
10
21.5913765520765
20
11.9781476938233
30
0
41
1
10
21.606356417889
20
12.0173517031136
30
0
41
1
10
21.6231227129101
20
12.0556006116136
30
0
41
1
10
21.6347031246464
20
12.0808844862981
30
0
41
1
10
21.6407086542735
20
12.093445879339
30
0
41
1
10
21.6715403968332
20
12.1552751246988
30
0
41
1
10
21.6987850386093
20
12.2017001858838
30
0
41
1
10
21.7580803408674
20
12.2888888531023
30
0
41
1
10
21.7901326229604
20
12.3296505488898
30
0
41
1
10
21.8416921936331
20
12.3866923260442
30
0
41
1
10
21.8595010494561
20
12.4050519763633
30
0
41
1
10
21.8957267854579
20
12.4399155885349
30
0
41
1
10
21.9142012469897
20
12.4564890481299
30
0
41
1
10
21.9706427916639
20
12.5037925304389
30
0
41
1
10
22.0096246487615
20
12.5321136946171
30
0
41
1
10
22.0699377587239
20
12.570226900566
30
0
41
1
10
22.0903497732209
20
12.5822010196137
30
0
41
1
10
22.1317668002747
20
12.6047416058562
30
0
41
1
10
22.1528043846736
20
12.6153229590565
30
0
41
1
10
22.216566581204
20
12.6449179813598
30
0
41
1
10
22.2595112949592
20
12.6616062889798
30
0
41
1
10
22.3894927734923
20
12.7036776202363
30
0
41
1
10
22.4776661734354
20
12.7211416146841
30
0
41
1
10
22.5894868860956
20
12.7317966695771
30
0
41
1
10
22.6119613522883
20
12.7333636343319
30
0
41
1
10
22.6569357005343
20
12.7353898741426
30
0
41
1
10
22.6793726342067
20
12.735848034955
30
0
41
1
10
22.7465404684354
20
12.735643297494
30
0
41
1
10
22.7911287707911
20
12.7334052507672
30
0
41
1
10
22.9243691725166
20
12.7208973924755
30
0
41
1
10
23.0125005800777
20
12.7048759873151
30
0
41
1
10
23.1000000000011
20
12.6818736080199
30
0
0
SPLINE
5
158
100
AcDbEntity
8
1
62
256
6
ByLayer
370
18
48
1
60
0
100
AcDbSpline
70
4
71
3
72
9
73
5
40
0
40
0
40
0
40
0
40
0.5
40
1
40
1
40
1
40
1
41
1
10
10.3885656683961
20
1.35753920737758
30
0
41
1
10
10.4223280233231
20
1.36335541594894
30
0
41
1
10
10.4902926869092
20
1.37204681272578
30
0
41
1
10
10.5591157419288
20
1.375
30
0
41
1
10
10.593748156342
20
1.375
30
0
0
SPLINE
5
159
100
AcDbEntity
8
1
62
256
6
ByLayer
370
18
48
1
60
0
100
AcDbSpline
70
4
71
3
72
30
73
26
40
0
40
0
40
0
40
0
40
0.0624999999999994
40
0.0624999999999994
40
0.124999999999999
40
0.124999999999999
40
0.249999999999998
40
0.249999999999998
40
0.312499999999997
40
0.312499999999997
40
0.374999999999997
40
0.374999999999997
40
0.499999999999998
40
0.499999999999998
40
0.562499999999998
40
0.562499999999998
40
0.624999999999998
40
0.624999999999998
40
0.750000000000001
40
0.750000000000001
40
0.8125
40
0.8125
40
0.875
40
0.875
40
1
40
1
40
1
40
1
41
1
10
10.1630807948133
20
0.875
30
0
41
1
10
10.1630807948133
20
0.888611598389531
30
0
41
1
10
10.163422910675
20
0.90233473804895
30
0
41
1
10
10.1647950576133
20
0.929637042188773
30
0
41
1
10
10.1658189687721
20
0.943156192910664
30
0
41
1
10
10.1698767621814
20
0.983328367635892
30
0
41
1
10
10.1738903460554
20
1.00959859854385
30
0
41
1
10
10.1818836815989
20
1.04823306186862
30
0
41
1
10
10.1848843247539
20
1.06100383158724
30
0
41
1
10
10.1915440776093
20
1.08618669921529
30
0
41
1
10
10.1951674906062
20
1.09846886889588
30
0
41
1
10
10.2068920716582
20
1.13441526059285
30
0
41
1
10
10.2158421101627
20
1.15718513004279
30
0
41
1
10
10.2309673347538
20
1.18954867316899
30
0
41
1
10
10.2362938056151
20
1.20003653587054
30
0
41
1
10
10.2475336035718
20
1.22039396153269
30
0
41
1
10
10.2533890169325
20
1.23015571156284
30
0
41
1
10
10.2715524892907
20
1.25807357051423
30
0
41
1
10
10.2844916116682
20
1.27493958336478
30
0
41
1
10
10.3051385487059
20
1.29763439598162
30
0
41
1
10
10.3122282395104
20
1.30476318989142
30
0
41
1
10
10.3268338465609
20
1.3181243706679
30
0
41
1
10
10.3343194973798
20
1.3243232448834
30
0
41
1
10
10.3570150539347
20
1.34125326378333
30
0
41
1
10
10.3725769510693
20
1.35043649184078
30
0
41
1
10
10.3885656683961
20
1.35753920737758
30
0
0
SPLINE
5
15A
100
AcDbEntity
8
1
62
256
6
ByLayer
370
18
48
1
60
0
100
AcDbSpline
70
4
71
3
72
81
73
77
40
0
40
0
40
0
40
0
40
0.0078124999999992
40
0.0078124999999992
40
0.0117187499999987
40
0.0117187499999987
40
0.0156249999999984
40
0.0156249999999984
40
0.0175781249999985
40
0.0175781249999985
40
0.0195312499999986
40
0.0195312499999986
40
0.0214843749999987
40
0.0214843749999987
40
0.0234374999999988
40
0.0234374999999988
40
0.027343749999999
40
0.027343749999999
40
0.0312499999999991
40
0.0312499999999991
40
0.0390624999999989
40
0.0390624999999989
40
0.0468749999999987
40
0.0468749999999987
40
0.0624999999999981
40
0.0624999999999981
40
0.0937499999999975
40
0.0937499999999975
40
0.124999999999997
40
0.124999999999997
40
0.187499999999996
40
0.187499999999996
40
0.249999999999994
40
0.249999999999994
40
0.312499999999993
40
0.312499999999993
40
0.374999999999991
40
0.374999999999991
40
0.499999999999988
40
0.624999999999985
40
0.624999999999985
40
0.749999999999982
40
0.749999999999982
40
0.812499999999981
40
0.812499999999981
40
0.874999999999979
40
0.874999999999979
40
0.906249999999979
40
0.906249999999979
40
0.937499999999978
40
0.937499999999978
40
0.953124999999977
40
0.953124999999977
40
0.960937499999977
40
0.960937499999977
40
0.968749999999977
40
0.968749999999977
40
0.972656249999977
40
0.972656249999977
40
0.976562499999976
40
0.976562499999976
40
0.978515624999976
40
0.978515624999976
40
0.980468749999975
40
0.980468749999975
40
0.981445312499976
40
0.981445312499976
40
0.982421874999977
40
0.982421874999977
40
0.98437499999998
40
0.98437499999998
40
0.988281249999985
40
0.988281249999985
40
0.99218749999999
40
0.99218749999999
40
1
40
1
40
1
40
1
41
1
10
1.91224221527588
20
0.394519052843208
30
0
41
1
10
1.922600273651
20
0.397470382277874
30
0
41
1
10
1.93283786110675
20
0.400656000617488
30
0
41
1
10
1.94779456186387
20
0.406204007763904
30
0
41
1
10
1.95271325741365
20
0.408182097958047
30
0
41
1
10
1.9622975569516
20
0.412623793809558
30
0
41
1
10
1.96692460319264
20
0.415043395047661
30
0
41
1
10
1.9730824467959
20
0.419356299912891
30
0
41
1
10
1.97498510374822
20
0.420901794091378
30
0
41
1
10
1.97814356823224
20
0.424317649885921
30
0
41
1
10
1.97937553127733
20
0.426188446354104
30
0
41
1
10
1.98041974242852
20
0.430094718808988
30
0
41
1
10
1.98016767343333
20
0.432084882313831
30
0
41
1
10
1.97833650493834
20
0.435660915574772
30
0
41
1
10
1.97684146809379
20
0.437229800282694
30
0
41
1
10
1.97155211298303
20
0.441419320218841
30
0
41
1
10
1.96714261473923
20
0.443496857369809
30
0
41
1
10
1.95788625907491
20
0.447126197110322
30
0
41
1
10
1.95306542600468
20
0.448616583755779
30
0
41
1
10
1.93832423326452
20
0.452621312482364
30
0
41
1
10
1.92812264321603
20
0.454664943117933
30
0
41
1
10
1.90740435871601
20
0.458233151164762
30
0
41
1
10
1.89692280726288
20
0.459723906732535
30
0
41
1
10
1.86538741092374
20
0.463682824017269
30
0
41
1
10
1.84417449210764
20
0.465656248769335
30
0
41
1
10
1.78025703058944
20
0.47064578145492
30
0
41
1
10
1.7372526498894
20
0.472719601202726
30
0
41
1
10
1.65098443404128
20
0.475886802092418
30
0
41
1
10
1.6077869137429
20
0.476925497381728
30
0
41
1
10
1.47807229819904
20
0.479177404442254
30
0
41
1
10
1.39143454900747
20
0.479542216888063
30
0
41
1
10
1.21796857575387
20
0.479493958295478
30
0
41
1
10
1.13113690460122
20
0.479041949024122
30
0
41
1
10
0.957329148831406
20
0.477882761325304
30
0
41
1
10
0.870323792927081
20
0.477166899227512
30
0
41
1
10
0.696349175854323
20
0.475776693033907
30
0
41
1
10
0.609388405753748
20
0.475099760634464
30
0
41
1
10
0.348574051787495
20
0.473386319949782
30
0
41
1
10
0.001000350770255
20
0.47200367055919
30
0
41
1
10
-0.346258593410397
20
0.473375275194542
30
0
41
1
10
-0.693339956070901
20
0.475647183276322
30
0
41
1
10
-0.866793441191334
20
0.477269893009009
30
0
41
1
10
-1.12678156308047
20
0.479017268009557
30
0
41
1
10
-1.2134118568122
20
0.479476207823097
30
0
41
1
10
-1.38658196181331
20
0.479556475236905
30
0
41
1
10
-1.47312342215656
20
0.479215768728096
30
0
41
1
10
-1.60282241164072
20
0.477033463499424
30
0
41
1
10
-1.64603636785412
20
0.476023509055096
30
0
41
1
10
-1.732404440539
20
0.472937703046796
30
0
41
1
10
-1.77556093947172
20
0.470916772337659
30
0
41
1
10
-1.84020397899081
20
0.466007269746626
30
0
41
1
10
-1.86179262627243
20
0.464054865240968
30
0
41
1
10
-1.89394318274029
20
0.460129304204259
30
0
41
1
10
-1.90457892025233
20
0.458657307765151
30
0
41
1
10
-1.92557687187249
20
0.455151548859845
30
0
41
1
10
-1.93595107519371
20
0.453143056337922
30
0
41
1
10
-1.95106731633359
20
0.449203062644955
30
0
41
1
10
-1.9560684346626
20
0.447721193247531
30
0
41
1
10
-1.96555805505966
20
0.444199414509029
30
0
41
1
10
-1.97009904328232
20
0.442195860936522
30
0
41
1
10
-1.97581374795772
20
0.438152979130393
30
0
41
1
10
-1.97748212350464
20
0.436651382667094
30
0
41
1
10
-1.97980883341094
20
0.43315604020998
30
0
41
1
10
-1.98037246688429
20
0.431176687394242
30
0
41
1
10
-1.97997556416402
20
0.428196550109362
30
0
41
1
10
-1.97964165466871
20
0.427187280234875
30
0
41
1
10
-1.97867307625054
20
0.425265399838025
30
0
41
1
10
-1.9780408753785
20
0.424340153169794
30
0
41
1
10
-1.97580369573168
20
0.421646658948987
30
0
41
1
10
-1.97395171242516
20
0.420048670860723
30
0
41
1
10
-1.96785173654939
20
0.415569664711171
30
0
41
1
10
-1.96318270865211
20
0.413077560163487
30
0
41
1
10
-1.95359149055579
20
0.408552813285269
30
0
41
1
10
-1.94859288445005
20
0.406516669262459
30
0
41
1
10
-1.93328703299298
20
0.400792642800013
30
0
41
1
10
-1.92282156572341
20
0.397533435195697
30
0
41
1
10
-1.91224221525877
20
0.394519052838348
30
0
0
SPLINE
5
15B
100
AcDbEntity
8
1
62
256
6
ByLayer
370
18
48
1
60
0
100
AcDbSpline
70
4
71
3
72
17
73
13
40
0
40
0
40
0
40
0
40
0.25
40
0.25
40
0.5
40
0.5
40
0.5625
40
0.5625
40
0.625
40
0.75
40
0.75
40
1
40
1
40
1
40
1
41
1
10
-1.91224221525877
20
0.394519052838319
30
0
41
1
10
-1.60176192357352
20
0.306053667681027
30
0
41
1
10
-1.28776911723091
20
0.236983023929383
30
0
41
1
10
-0.651754427740144
20
0.143175179431694
30
0
41
1
10
-0.329727668873431
20
0.118464900509594
30
0
41
1
10
0.0783629119484033
20
0.118261377257454
30
0
41
1
10
0.160394283177112
20
0.119762754673957
30
0
41
1
10
0.323519502227299
20
0.12580696443888
30
0
41
1
10
0.567279119098941
20
0.139418800322744
30
0
41
1
10
0.808326323249958
20
0.166313521538967
30
0
41
1
10
1.28701472260707
20
0.236782441218367
30
0
41
1
10
1.60159777754367
20
0.306006897427352
30
0
41
1
10
1.9122422152769
20
0.394519052843492
30
0
0
SPLINE
5
15C
100
AcDbEntity
8
1
62
256
6
ByLayer
370
18
48
1
60
0
100
AcDbSpline
70
4
71
3
72
8
73
4
40
0
40
0
40
0
40
0
40
1
40
1
40
1
40
1
41
1
10
-13.9273497265336
20
-0.249980947161674
30
0
41
1
10
-14.1400184018759
20
-0.0890594833153955
30
0
41
1
10
-14.3513710386801
20
0.0731431542574228
30
0
41
1
10
-14.5615187733781
20
0.236518773378123
30
0
0
SPLINE
5
15D
100
AcDbEntity
8
1
62
256
6
ByLayer
370
18
48
1
60
0
100
AcDbSpline
70
4
71
3
72
16
73
12
40
0
40
0
40
0
40
0
40
0.124999999999996
40
0.124999999999996
40
0.249999999999993
40
0.249999999999993
40
0.499999999999995
40
0.499999999999995
40
0.749999999999998
40
0.749999999999998
40
1
40
1
40
1
40
1
41
1
10
-13.7912890092361
20
-0.324980947163624
30
0
41
1
10
-13.7947211231748
20
-0.324980947163425
30
0
41
1
10
-13.7987038822678
20
-0.3243439697697
30
0
41
1
10
-13.8075818891419
20
-0.322012470654755
30
0
41
1
10
-13.8124983254929
20
-0.320301845067462
30
0
41
1
10
-13.8279050504171
20
-0.314006523917868
30
0
41
1
10
-13.8392323105369
20
-0.308231113448897
30
0
41
1
10
-13.8632846302391
20
-0.294416067556767
30
0
41
1
10
-13.8756867854771
20
-0.286560850671492
30
0
41
1
10
-13.9010856072335
20
-0.269365680292765
30
0
41
1
10
-13.9141383585476
20
-0.259977683504246
30
0
41
1
10
-13.9273497265336
20
-0.249980947161674
30
0
0
SPLINE
5
15E
100
AcDbEntity
8
1
62
256
6
ByLayer
370
18
48
1
60
0
100
AcDbSpline
70
4
71
3
72
22
73
18
40
0
40
0
40
0
40
0
40
0.125
40
0.125
40
0.25
40
0.25
40
0.375
40
0.375
40
0.5
40
0.5
40
0.625
40
0.625
40
0.75
40
0.75
40
0.875
40
0.875
40
1
40
1
40
1
40
1
41
1
10
-13.7271595028412
20
-0.249980947161504
30
0
41
1
10
-13.7230711169545
20
-0.254870580017553
30
0
41
1
10
-13.719197862038
20
-0.259701365260099
30
0
41
1
10
-13.711950430119
20
-0.269226009096116
30
0
41
1
10
-13.7085556247414
20
-0.273950228042338
30
0
41
1
10
-13.7024739620712
20
-0.283086608544551
30
0
41
1
10
-13.699812285762
20
-0.287456554264992
30
0
41
1
10
-13.6953495169543
20
-0.295745119604987
30
0
41
1
10
-13.6935353207013
20
-0.299707252978664
30
0
41
1
10
-13.6910284293275
20
-0.306819145366916
30
0
41
1
10
-13.6903199496591
20
-0.309978932734424
30
0
41
1
10
-13.6900300661806
20
-0.31547687530076
30
0
41
1
10
-13.690469285274
20
-0.317827037319773
30
0
41
1
10
-13.6924447562857
20
-0.321476351282854
30
0
41
1
10
-13.6939679064125
20
-0.322810804878514
30
0
41
1
10
-13.6980030233289
20
-0.32457223002757
30
0
41
1
10
-13.7004864228397
20
-0.32498094716172
30
0
41
1
10
-13.7033273915928
20
-0.32498094716172
30
0
0
SPLINE
5
15F
100
AcDbEntity
8
1
62
256
6
ByLayer
370
18
48
1
60
0
100
AcDbSpline
70
4
71
3
72
8
73
4
40
0
40
0
40
0
40
0
40
1
40
1
40
1
40
1
41
1
10
-14.2655750866984
20
0.394519052838319
30
0
41
1
10
-14.0862027304346
20
0.179623374600055
30
0
41
1
10
-13.9067347108406
20
-0.035212365746446
30
0
41
1
10
-13.7271595028412
20
-0.249980947161504
30
0
0
SPLINE
5
160
100
AcDbEntity
8
1
62
256
6
ByLayer
370
18
48
1
60
0
100
AcDbSpline
70
4
71
3
72
36
73
32
40
0
40
0
40
0
40
0
40
0.125000000000003
40
0.125000000000003
40
0.250000000000005
40
0.250000000000005
40
0.312500000000005
40
0.312500000000005
40
0.375000000000005
40
0.375000000000005
40
0.437500000000004
40
0.437500000000004
40
0.500000000000004
40
0.500000000000004
40
0.562500000000003
40
0.562500000000003
40
0.625000000000003
40
0.625000000000003
40
0.687500000000003
40
0.687500000000003
40
0.750000000000002
40
0.750000000000002
40
0.781250000000002
40
0.781250000000002
40
0.812500000000002
40
0.812500000000002
40
0.875000000000001
40
0.875000000000001
40
0.937500000000001
40
0.937500000000001
40
1
40
1
40
1
40
1
41
1
10
-14.1255646241437
20
0.394519052838348
30
0
41
1
10
-14.1394710770359
20
0.404489622046128
30
0
41
1
10
-14.1531891256639
20
0.413867112124933
30
0
41
1
10
-14.1802225014732
20
0.431373754650593
30
0
41
1
10
-14.1935390957799
20
0.439506751248615
30
0
41
1
10
-14.2131449243124
20
0.450573991117722
30
0
41
1
10
-14.2196336197054
20
0.454078795623701
30
0
41
1
10
-14.2322228540822
20
0.460520725310033
30
0
41
1
10
-14.2383514182247
20
0.463474796430233
30
0
41
1
10
-14.2502293710657
20
0.468773718754022
30
0
41
1
10
-14.2559794178474
20
0.471119640285877
30
0
41
1
10
-14.2670211051816
20
0.475074458444681
30
0
41
1
10
-14.2722259261514
20
0.476650936816839
30
0
41
1
10
-14.2818410972795
20
0.478850703577962
30
0
41
1
10
-14.2862625152793
20
0.479479731271681
30
0
41
1
10
-14.2941373580524
20
0.4795548484297
30
0
41
1
10
-14.2974997750462
20
0.478992735534973
30
0
41
1
10
-14.3028010571971
20
0.476498487128254
30
0
41
1
10
-14.3047638284419
20
0.474520523657986
30
0
41
1
10
-14.3069086232189
20
0.469181053338957
30
0
41
1
10
-14.3071284482325
20
0.465834428936034
30
0
41
1
10
-14.3061330482862
20
0.459758935437492
30
0
41
1
10
-14.3055769996615
20
0.457562174581426
30
0
41
1
10
-14.3040654324165
20
0.452948725894231
30
0
41
1
10
-14.303108097956
20
0.450518030421819
30
0
41
1
10
-14.2996681948549
20
0.442875980593413
30
0
41
1
10
-14.2965819676909
20
0.437266289211095
30
0
41
1
10
-14.2893548863108
20
0.4256951480927
30
0
41
1
10
-14.2851987194409
20
0.41968620333094
30
0
41
1
10
-14.275978382755
20
0.407293077501066
30
0
41
1
10
-14.2709152318049
20
0.400916772801736
30
0
41
1
10
-14.2655750866984
20
0.394519052838319
30
0
0
SPLINE
5
161
100
AcDbEntity
8
1
62
256
6
ByLayer
370
18
48
1
60
0
100
AcDbSpline
70
4
71
3
72
8
73
4
40
0
40
0
40
0
40
0
40
1
40
1
40
1
40
1
41
1
10
-13.2065548385552
20
-0.249980947161674
30
0
41
1
10
-13.5156891436444
20
-0.0381396122572539
30
0
41
1
10
-13.8219161595784
20
0.176810910131763
30
0
41
1
10
-14.1255646241437
20
0.394519052838319
30
0
0
SPLINE
5
162
100
AcDbEntity
8
1
62
256
6
ByLayer
370
18
48
1
60
0
100
AcDbSpline
70
4
71
3
72
18
73
14
40
0
40
0
40
0
40
0
40
0.124999999999996
40
0.124999999999996
40
0.249999999999993
40
0.249999999999993
40
0.499999999999993
40
0.499999999999993
40
0.624999999999994
40
0.624999999999994
40
0.749999999999994
40
0.749999999999994
40
1
40
1
40
1
40
1
41
1
10
-13.0480635116142
20
-0.324980947169223
30
0
41
1
10
-13.0526835673824
20
-0.324980947168598
30
0
41
1
10
-13.0578276924747
20
-0.324325815519529
30
0
41
1
10
-13.0689460777358
20
-0.321974818101211
30
0
41
1
10
-13.0749605537727
20
-0.320259096726829
30
0
41
1
10
-13.0935302985871
20
-0.313958174179788
30
0
41
1
10
-13.1067398789887
20
-0.308231131630805
30
0
41
1
10
-13.1274676194249
20
-0.297960016390789
30
0
41
1
10
-13.1345354389663
20
-0.29424506725934
30
0
41
1
10
-13.1486989674189
20
-0.286431559643603
30
0
41
1
10
-13.1558285169502
20
-0.282316542817881
30
0
41
1
10
-13.1773484039918
20
-0.269403809868607
30
0
41
1
10
-13.1918683483694
20
-0.260045199607333
30
0
41
1
10
-13.2065548385552
20
-0.249980947161674
30
0
0
SPLINE
5
163
100
AcDbEntity
8
1
62
256
6
ByLayer
370
18
48
1
60
0
100
AcDbSpline
70
4
71
3
72
23
73
19
40
0
40
0
40
0
40
0
40
0.125000000000001
40
0.125000000000001
40
0.250000000000001
40
0.250000000000001
40
0.375000000000002
40
0.375000000000002
40
0.437500000000003
40
0.437500000000003
40
0.500000000000003
40
0.625000000000002
40
0.625000000000002
40
0.750000000000002
40
0.750000000000002
40
0.875000000000001
40
0.875000000000001
40
1
40
1
40
1
40
1
41
1
10
-12.9419043311969
20
-0.249980947161362
30
0
41
1
10
-12.9378497028419
20
-0.254925918244197
30
0
41
1
10
-12.9340500009027
20
-0.259832030827397
30
0
41
1
10
-12.9270609615909
20
-0.26955094003489
30
0
41
1
10
-12.9238503710631
20
-0.274403028467305
30
0
41
1
10
-12.9183740783399
20
-0.283688995222491
30
0
41
1
10
-12.9160876840443
20
-0.288143993684287
30
0
41
1
10
-12.9134525305583
20
-0.294494826399216
30
0
41
1
10
-12.9127048890145
20
-0.296567433923769
30
0
41
1
10
-12.9115299156306
20
-0.300494947426273
30
0
41
1
10
-12.9102338827602
20
-0.306085646339625
30
0
41
1
10
-12.9103315847485
20
-0.310777985080392
30
0
41
1
10
-12.9117605960215
20
-0.316192959110282
30
0
41
1
10
-12.9130939065335
20
-0.318369971001488
30
0
41
1
10
-12.9168431622451
20
-0.321793174571212
30
0
41
1
10
-12.9192871440886
20
-0.323036678820301
30
0
41
1
10
-12.9249370215665
20
-0.324620114170159
30
0
41
1
10
-12.9281546626962
20
-0.324980947161777
30
0
41
1
10
-12.9317003032968
20
-0.324980947161777
30
0
0
SPLINE
5
164
100
AcDbEntity
8
1
62
256
6
ByLayer
370
18
48
1
60
0
100
AcDbSpline
70
4
71
3
72
8
73
4
40
0
40
0
40
0
40
0
40
1
40
1
40
1
40
1
41
1
10
-13.4702748862137
20
0.394519052838319
30
0
41
1
10
-13.2941699218972
20
0.179674312264069
30
0
41
1
10
-13.1180471579123
20
-0.0351594867746314
30
0
41
1
10
-12.941904331197
20
-0.249980947161362
30
0
0
SPLINE
5
165
100
AcDbEntity
8
1
62
256
6
ByLayer
370
18
48
1
60
0
100
AcDbSpline
70
4
71
3
72
38
73
34
40
0
40
0
40
0
40
0
40
0.124999999999995
40
0.124999999999995
40
0.249999999999991
40
0.249999999999991
40
0.374999999999986
40
0.374999999999986
40
0.437499999999984
40
0.437499999999984
40
0.499999999999981
40
0.499999999999981
40
0.562499999999979
40
0.562499999999979
40
0.593749999999979
40
0.593749999999979
40
0.624999999999979
40
0.624999999999979
40
0.687499999999965
40
0.687499999999965
40
0.718749999999965
40
0.718749999999965
40
0.749999999999964
40
0.749999999999964
40
0.812499999999975
40
0.812499999999975
40
0.84374999999998
40
0.84374999999998
40
0.874999999999986
40
0.874999999999986
40
0.937499999999993
40
0.937499999999993
40
1
40
1
40
1
40
1
41
1
10
-13.2887133686798
20
0.394519052838319
30
0
41
1
10
-13.3038332306426
20
0.4042879581867
30
0
41
1
10
-13.3188052716474
20
0.413449436874572
30
0
41
1
10
-13.3484408250735
20
0.430527273477082
30
0
41
1
10
-13.3631049887933
20
0.438446193463477
30
0
41
1
10
-13.3920697914073
20
0.452832519259857
30
0
41
1
10
-13.4064644692924
20
0.459334429025461
30
0
41
1
10
-13.4269699921963
20
0.467341554080946
30
0
41
1
10
-13.433645567981
20
0.469730324423097
30
0
41
1
10
-13.4466202325066
20
0.473845750572934
30
0
41
1
10
-13.4529523427325
20
0.475578705664162
30
0
41
1
10
-13.4648977094209
20
0.478164746212002
30
0
41
1
10
-13.470530542591
20
0.479028435196653
30
0
41
1
10
-13.4783549901368
20
0.479532351315839
30
0
41
1
10
-13.4808583852177
20
0.479567589455002
30
0
41
1
10
-13.4856250849188
20
0.47933332242323
30
0
41
1
10
-13.4878873439799
20
0.479061483870908
30
0
41
1
10
-13.4941255566638
20
0.477748652573382
30
0
41
1
10
-13.4976100463298
20
0.476217282345146
30
0
41
1
10
-13.5015835740844
20
0.472696292951213
30
0
41
1
10
-13.5026851457819
20
0.471320945690934
30
0
41
1
10
-13.5043739139206
20
0.468214962997223
30
0
41
1
10
-13.5049704660338
20
0.466476927786175
30
0
41
1
10
-13.5059946892605
20
0.460690215559282
30
0
41
1
10
-13.5056210814371
20
0.455977741753941
30
0
41
1
10
-13.503532127041
20
0.448145570507194
30
0
41
1
10
-13.5025893474109
20
0.445402644548608
30
0
41
1
10
-13.5002379631945
20
0.439666430659713
30
0
41
1
10
-13.4988176392413
20
0.436652706244104
30
0
41
1
10
-13.4939949832354
20
0.427453269472068
30
0
41
1
10
-13.4900398258229
20
0.421090866571319
30
0
41
1
10
-13.4809501781441
20
0.407998820378509
30
0
41
1
10
-13.4757943146983
20
0.401252651663839
30
0
41
1
10
-13.4702748862137
20
0.394519052838319
30
0
0
SPLINE
5
166
100
AcDbEntity
8
1
62
256
6
ByLayer
370
18
48
1
60
0
100
AcDbSpline
70
4
71
3
72
8
73
4
40
0
40
0
40
0
40
0
40
1
40
1
40
1
40
1
41
1
10
-12.2619374897427
20
-0.249980947161674
30
0
41
1
10
-12.6077628641245
20
-0.0394093519147987
30
0
41
1
10
-12.9498764087536
20
0.175597332640279
30
0
41
1
10
-13.2887133686798
20
0.394519052838319
30
0
0
SPLINE
5
167
100
AcDbEntity
8
1
62
256
6
ByLayer
370
18
48
1
60
0
100
AcDbSpline
70
4
71
3
72
18
73
14
40
0
40
0
40
0
40
0
40
0.124999999999999
40
0.124999999999999
40
0.249999999999999
40
0.249999999999999
40
0.499999999999982
40
0.499999999999982
40
0.624999999999982
40
0.624999999999982
40
0.749999999999982
40
0.749999999999982
40
1
40
1
40
1
40
1
41
1
10
-12.0749439034001
20
-0.324980947161691
30
0
41
1
10
-12.081008255091
20
-0.324980947161094
30
0
41
1
10
-12.0875370462495
20
-0.324314999120048
30
0
41
1
10
-12.1012908516913
20
-0.321980394436167
30
0
41
1
10
-12.1085189695399
20
-0.320307354028273
30
0
41
1
10
-12.1310821815718
20
-0.314018794774057
30
0
41
1
10
-12.1466956039985
20
-0.308331973172614
30
0
41
1
10
-12.1707074902565
20
-0.298228829183756
30
0
41
1
10
-12.1788139447434
20
-0.294590398040555
30
0
41
1
10
-12.1952158399689
20
-0.286815352002606
30
0
41
1
10
-12.2035319977382
20
-0.282666955587615
30
0
41
1
10
-12.2284787618341
20
-0.26964953894975
30
0
41
1
10
-12.245175409905
20
-0.260187306071543
30
0
41
1
10
-12.2619374897427
20
-0.249980947161674
30
0
0
SPLINE
5
168
100
AcDbEntity
8
1
62
256
6
ByLayer
370
18
48
1
60
0
100
AcDbSpline
70
4
71
3
72
24
73
20
40
0
40
0
40
0
40
0
40
0.125000000000011
40
0.125000000000011
40
0.250000000000022
40
0.250000000000022
40
0.312500000000022
40
0.312500000000022
40
0.375000000000022
40
0.375000000000022
40
0.500000000000018
40
0.500000000000018
40
0.625000000000013
40
0.625000000000013
40
0.750000000000009
40
0.750000000000009
40
0.875000000000004
40
0.875000000000004
40
1
40
1
40
1
40
1
41
1
10
-11.9185094462045
20
-0.249980947160964
30
0
41
1
10
-11.9143984087425
20
-0.255008549371979
30
0
41
1
10
-11.9105940690077
20
-0.260025649179823
30
0
41
1
10
-11.9037537286027
20
-0.270033424617793
30
0
41
1
10
-11.9007316163329
20
-0.275018276597791
30
0
41
1
10
-11.8970946969525
20
-0.282167946486851
30
0
41
1
10
-11.8960240148196
20
-0.284507876358191
30
0
41
1
10
-11.8941940114109
20
-0.289092391428142
30
0
41
1
10
-11.8934309418025
20
-0.291353045960363
30
0
41
1
10
-11.8916984067637
20
-0.297837448784492
30
0
41
1
10
-11.891274090198
20
-0.301756712238841
30
0
41
1
10
-11.8919008982491
20
-0.30877759856898
30
0
41
1
10
-11.8929836812652
20
-0.311879900363635
30
0
41
1
10
-11.8964381114455
20
-0.31696313099431
30
0
41
1
10
-11.8988364705386
20
-0.3190154121788
30
0
41
1
10
-11.9046064730613
20
-0.32215189995452
30
0
41
1
10
-11.9079485979119
20
-0.323240679223716
30
0
41
1
10
-11.9153564824701
20
-0.32465661851694
30
0
41
1
10
-11.9194457489922
20
-0.324980947161691
30
0
41
1
10
-11.9237814416149
20
-0.324980947161691
30
0
0
SPLINE
5
169
100
AcDbEntity
8
1
62
256
6
ByLayer
370
18
48
1
60
0
100
AcDbSpline
70
4
71
3
72
8
73
4
40
0
40
0
40
0
40
0
40
1
40
1
40
1
40
1
41
1
10
-12.4454802424852
20
0.394519052838319
30
0
41
1
10
-12.2698302504261
20
0.179681463779445
30
0
41
1
10
-12.0941736247425
20
-0.0351520577178803
30
0
41
1
10
-11.9185094462047
20
-0.249980947160964
30
0
0
SPLINE
5
16A
100
AcDbEntity
8
1
62
256
6
ByLayer
370
18
48
1
60
0
100
AcDbSpline
70
4
71
3
72
34
73
30
40
0
40
0
40
0
40
0
40
0.125000000000001
40
0.125000000000001
40
0.250000000000003
40
0.250000000000003
40
0.375000000000004
40
0.375000000000004
40
0.4375
40
0.4375
40
0.499999999999997
40
0.499999999999997
40
0.624999999999982
40
0.624999999999982
40
0.687499999999978
40
0.687499999999978
40
0.718749999999974
40
0.718749999999974
40
0.74999999999997
40
0.74999999999997
40
0.812499999999973
40
0.812499999999973
40
0.874999999999977
40
0.874999999999977
40
0.906249999999983
40
0.906249999999983
40
0.937499999999988
40
0.937499999999988
40
1
40
1
40
1
40
1
41
1
10
-12.21262584537
20
0.394519052838319
30
0
41
1
10
-12.2293879167132
20
0.404069856331262
30
0
41
1
10
-12.2460474242468
20
0.413010889696807
30
0
41
1
10
-12.2791555920721
20
0.42966862177019
30
0
41
1
10
-12.2956045495882
20
0.437386982382037
30
0
41
1
10
-12.3282608368064
20
0.451436957631131
30
0
41
1
10
-12.3445735365322
20
0.457805604881315
30
0
41
1
10
-12.3682424193965
20
0.465816634568256
30
0
41
1
10
-12.3760079072084
20
0.46823433620375
30
0
41
1
10
-12.3912507161594
20
0.47248177544077
30
0
41
1
10
-12.3987563531804
20
0.474318017873884
30
0
41
1
10
-12.4205497597282
20
0.478701530894455
30
0
41
1
10
-12.4339597259438
20
0.480156666608053
30
0
41
1
10
-12.4514152534257
20
0.478821439948945
30
0
41
1
10
-12.4568329303758
20
0.477746501187454
30
0
41
1
10
-12.4636450953421
20
0.47495820558143
30
0
41
1
10
-12.4657065335108
20
0.473834537101368
30
0
41
1
10
-12.4693513853986
20
0.471142526978696
30
0
41
1
10
-12.4709433497243
20
0.469557994706776
30
0
41
1
10
-12.4747761141799
20
0.464180222176765
30
0
41
1
10
-12.4761223246412
20
0.459769092372454
30
0
41
1
10
-12.4760958204851
20
0.449081203462839
30
0
41
1
10
-12.4747089449443
20
0.443053990405275
30
0
41
1
10
-12.470827460083
20
0.433240182207101
30
0
41
1
10
-12.4692288824021
20
0.429837099363681
30
0
41
1
10
-12.4655825007594
20
0.422985527209846
30
0
41
1
10
-12.4635248995896
20
0.419510621874565
30
0
41
1
10
-12.4567374379799
20
0.408956814071246
30
0
41
1
10
-12.4513585152093
20
0.401708771010675
30
0
41
1
10
-12.4454802424852
20
0.394519052838319
30
0
0
SPLINE
5
16B
100
AcDbEntity
8
1
62
256
6
ByLayer
370
18
48
1
60
0
100
AcDbSpline
70
4
71
3
72
8
73
4
40
0
40
0
40
0
40
0
40
1
40
1
40
1
40
1
41
1
10
-11.0361737618139
20
-0.249980947161674
30
0
41
1
10
-11.4329616463351
20
-0.0414960685943413
30
0
41
1
10
-11.8249154221808
20
0.173606852417663
30
0
41
1
10
-12.21262584537
20
0.394519052838319
30
0
0
SPLINE
5
16C
100
AcDbEntity
8
1
62
256
6
ByLayer
370
18
48
1
60
0
100
AcDbSpline
70
4
71
3
72
18
73
14
40
0
40
0
40
0
40
0
40
0.124999999999992
40
0.124999999999992
40
0.249999999999983
40
0.249999999999983
40
0.499999999999981
40
0.499999999999981
40
0.62499999999998
40
0.62499999999998
40
0.749999999999979
40
0.749999999999979
40
1
40
1
40
1
40
1
41
1
10
-10.8100221617362
20
-0.324980947161663
30
0
41
1
10
-10.8180111708273
20
-0.324980947160952
30
0
41
1
10
-10.8264247732998
20
-0.324303802427465
30
0
41
1
10
-10.8438730220196
20
-0.321952441620653
30
0
41
1
10
-10.8529592725556
20
-0.320261231068514
30
0
41
1
10
-10.8805796347571
20
-0.314041022539698
30
0
41
1
10
-10.8994387758157
20
-0.308419743129093
30
0
41
1
10
-10.9282051094205
20
-0.298394950509135
30
0
41
1
10
-10.9378759446479
20
-0.294780090670855
30
0
41
1
10
-10.9573700935551
20
-0.28704319003694
30
0
41
1
10
-10.9672176050399
20
-0.282909900397783
30
0
41
1
10
-10.9967579988524
20
-0.269872232720218
30
0
41
1
10
-11.0164600587408
20
-0.260339148990965
30
0
41
1
10
-11.0361737618139
20
-0.249980947161674
30
0
0
SPLINE
5
16D
100
AcDbEntity
8
1
62
256
6
ByLayer
370
18
48
1
60
0
100
AcDbSpline
70
4
71
3
72
22
73
18
40
0
40
0
40
0
40
0
40
0.125
40
0.125
40
0.25
40
0.25
40
0.375
40
0.375
40
0.5
40
0.5
40
0.625
40
0.625
40
0.75
40
0.75
40
0.875
40
0.875
40
1
40
1
40
1
40
1
41
1
10
-10.588146538497
20
-0.249980947159827
30
0
41
1
10
-10.5838159736942
20
-0.255144731035813
30
0
41
1
10
-10.5798645746344
20
-0.260343891665031
30
0
41
1
10
-10.572985089628
20
-0.27083784852482
30
0
41
1
10
-10.5701679829123
20
-0.275969703602755
30
0
41
1
10
-10.5660666715437
20
-0.285914845664848
30
0
41
1
10
-10.5647901952416
20
-0.290809930744786
30
0
41
1
10
-10.5642045954565
20
-0.299573635406631
30
0
41
1
10
-10.5648541823852
20
-0.303528393936119
30
0
41
1
10
-10.5679631001511
20
-0.310436416643597
30
0
41
1
10
-10.5703512144501
20
-0.313281206584975
30
0
41
1
10
-10.5764671398953
20
-0.317988035234293
30
0
41
1
10
-10.5801191826616
20
-0.319788199103215
30
0
41
1
10
-10.5882140101569
20
-0.322533301974119
30
0
41
1
10
-10.5926877142222
20
-0.323486343691656
30
0
41
1
10
-10.6022321565404
20
-0.32471243842005
30
0
41
1
10
-10.6072496942067
20
-0.324980947163254
30
0
41
1
10
-10.6124575382183
20
-0.324980947163198
30
0
0
SPLINE
5
16E
100
AcDbEntity
8
1
62
256
6
ByLayer
370
18
48
1
60
0
100
AcDbSpline
70
4
71
3
72
8
73
4
40
0
40
0
40
0
40
0
40
1
40
1
40
1
40
1
41
1
10
-11.1279670839745
20
0.394519052838319
30
0
41
1
10
-10.9481691234914
20
0.179596378150762
30
0
41
1
10
-10.7682360652239
20
-0.0352414300963915
30
0
41
1
10
-10.5881465384974
20
-0.249980947159912
30
0
0
SPLINE
5
16F
100
AcDbEntity
8
1
62
256
6
ByLayer
370
18
48
1
60
0
100
AcDbSpline
70
4
71
3
72
39
73
35
40
0
40
0
40
0
40
0
40
0.125000000000014
40
0.125000000000014
40
0.250000000000029
40
0.250000000000029
40
0.375000000000043
40
0.375000000000043
40
0.437500000000047
40
0.437500000000047
40
0.50000000000005
40
0.50000000000005
40
0.562500000000053
40
0.562500000000053
40
0.625000000000056
40
0.625000000000056
40
0.687500000000059
40
0.687500000000059
40
0.718750000000053
40
0.718750000000053
40
0.750000000000048
40
0.781250000000043
40
0.781250000000043
40
0.812500000000038
40
0.812500000000038
40
0.843750000000032
40
0.843750000000032
40
0.875000000000027
40
0.875000000000027
40
0.906250000000022
40
0.906250000000022
40
0.937500000000016
40
0.937500000000016
40
1
40
1
40
1
40
1
41
1
10
-10.8261977204866
20
0.394519052838319
30
0
41
1
10
-10.8453613808028
20
0.403822742416708
30
0
41
1
10
-10.8644350163225
20
0.412508030361977
30
0
41
1
10
-10.9024018906364
20
0.428670682946205
30
0
41
1
10
-10.9212952504409
20
0.436148777585913
30
0
41
1
10
-10.958882884293
20
0.449784789803459
30
0
41
1
10
-10.9775778122249
20
0.455947419880573
30
0
41
1
10
-11.0054357249662
20
0.463959959019945
30
0
41
1
10
-11.0147120130597
20
0.466427265972556
30
0
41
1
10
-11.0329270751786
20
0.47080817215442
30
0
41
1
10
-11.0418937770116
20
0.472731225930374
30
0
41
1
10
-11.0594969792525
20
0.475947166332247
30
0
41
1
10
-11.0681342039558
20
0.477241484467243
30
0
41
1
10
-11.0849977650711
20
0.479041057890981
30
0
41
1
10
-11.0932713386151
20
0.479548725267819
30
0
41
1
10
-11.1090219945275
20
0.479486703751746
30
0
41
1
10
-11.1164767895555
20
0.478927144527404
30
0
41
1
10
-11.1267820133678
20
0.476978430843047
30
0
41
1
10
-11.1300670569308
20
0.476138633700827
30
0
41
1
10
-11.1361417146117
20
0.474049581821959
30
0
41
1
10
-11.1417564108312
20
0.471545769909596
30
0
41
1
10
-11.1462927930953
20
0.468066856897167
30
0
41
1
10
-11.1501654640366
20
0.463986118035706
30
0
41
1
10
-11.1517438299298
20
0.461655824862362
30
0
41
1
10
-11.1540017219895
20
0.456500109917954
30
0
41
1
10
-11.1547000127545
20
0.453656662833254
30
0
41
1
10
-11.1551425423024
20
0.447385299333632
30
0
41
1
10
-11.1548792054188
20
0.444063384204014
30
0
41
1
10
-11.1534486470362
20
0.43707126200934
30
0
41
1
10
-11.1522661294609
20
0.433367252098947
30
0
41
1
10
-11.1491042633321
20
0.425789142768139
30
0
41
1
10
-11.147148000852
20
0.421949799605244
30
0
41
1
10
-11.1403381258876
20
0.410305290730918
30
0
41
1
10
-11.1344994067131
20
0.402327507790147
30
0
41
1
10
-11.1279670839746
20
0.394519052838319
30
0
0
SPLINE
5
170
100
AcDbEntity
8
1
62
256
6
ByLayer
370
18
48
1
60
0
100
AcDbSpline
70
4
71
3
72
8
73
4
40
0
40
0
40
0
40
0
40
1
40
1
40
1
40
1
41
1
10
-9.42014604979882
20
-0.249980947161674
30
0
41
1
10
-9.89509800998097
20
-0.045403532794694
30
0
41
1
10
-10.3635024894917
20
0.169886976943701
30
0
41
1
10
-10.8261977204866
20
0.394519052838319
30
0
0
SPLINE
5
171
100
AcDbEntity
8
1
62
256
6
ByLayer
370
18
48
1
60
0
100
AcDbSpline
70
4
71
3
72
18
73
14
40
0
40
0
40
0
40
0
40
0.125
40
0.125
40
0.25
40
0.25
40
0.375
40
0.375
40
0.5
40
0.5
40
0.75
40
0.75
40
1
40
1
40
1
40
1
41
1
10
-9.13284665392273
20
-0.324980947161691
30
0
41
1
10
-9.1437298608829
20
-0.324980947161151
30
0
41
1
10
-9.15494813399803
20
-0.324297936899598
30
0
41
1
10
-9.17785494091434
20
-0.321962244274374
30
0
41
1
10
-9.18954659680884
20
-0.320303380454163
30
0
41
1
10
-9.21330961472533
20
-0.316195905728222
30
0
41
1
10
-9.22532162877248
20
-0.313754324838584
30
0
41
1
10
-9.24935609579742
20
-0.308270592014935
30
0
41
1
10
-9.2614134877624
20
-0.305221378626044
30
0
41
1
10
-9.29769042100246
20
-0.295264739422492
30
0
41
1
10
-9.32201317218862
20
-0.287558568041931
30
0
41
1
10
-9.3709080164588
20
-0.270230194328235
30
0
41
1
10
-9.39555423460408
20
-0.260573449959651
30
0
41
1
10
-9.42014604979882
20
-0.249980947161674
30
0
0
SPLINE
5
172
100
AcDbEntity
8
1
62
256
6
ByLayer
370
18
48
1
60
0
100
AcDbSpline
70
4
71
3
72
28
73
24
40
0
40
0
40
0
40
0
40
0.0624999999999969
40
0.0624999999999969
40
0.124999999999994
40
0.124999999999994
40
0.187499999999991
40
0.187499999999991
40
0.249999999999988
40
0.249999999999988
40
0.312499999999985
40
0.312499999999985
40
0.374999999999982
40
0.374999999999982
40
0.437499999999978
40
0.437499999999978
40
0.499999999999975
40
0.499999999999975
40
0.624999999999981
40
0.624999999999981
40
0.749999999999988
40
0.749999999999988
40
1
40
1
40
1
40
1
41
1
10
-8.81287846405201
20
-0.249980947155791
30
0
41
1
10
-8.81042372701619
20
-0.25268050799562
30
0
41
1
10
-8.80809426650329
20
-0.255412160239644
30
0
41
1
10
-8.80374131425189
20
-0.260953956620313
30
0
41
1
10
-8.80171509926663
20
-0.263772010194657
30
0
41
1
10
-8.79813432448751
20
-0.269361345622173
30
0
41
1
10
-8.79656638697138
20
-0.272147870695989
30
0
41
1
10
-8.79395351452457
20
-0.277701759323776
30
0
41
1
10
-8.79290203059389
20
-0.280494627087478
30
0
41
1
10
-8.79146539182062
20
-0.285933125165428
30
0
41
1
10
-8.79108275102193
20
-0.288549776175699
30
0
41
1
10
-8.79100712746298
20
-0.293571945582585
30
0
41
1
10
-8.79132427301086
20
-0.295998566424203
30
0
41
1
10
-8.79261865796582
20
-0.30047339121117
30
0
41
1
10
-8.79358803963606
20
-0.302536520574051
30
0
41
1
10
-8.79609940480202
20
-0.306352422583785
30
0
41
1
10
-8.79764866346821
20
-0.308104402530773
30
0
41
1
10
-8.80288537420074
20
-0.312803317823807
30
0
41
1
10
-8.80719346932879
20
-0.315274284744561
30
0
41
1
10
-8.81692618508805
20
-0.319278475547179
30
0
41
1
10
-8.82221699514493
20
-0.32075719148483
30
0
41
1
10
-8.83894481110525
20
-0.324132477893784
30
0
41
1
10
-8.85129538935948
20
-0.32498094716226
30
0
41
1
10
-8.86408179867618
20
-0.324980947162231
30
0
0
SPLINE
5
173
100
AcDbEntity
8
1
62
256
6
ByLayer
370
18
48
1
60
0
100
AcDbSpline
70
4
71
3
72
8
73
4
40
0
40
0
40
0
40
0
40
1
40
1
40
1
40
1
41
1
10
-9.3953884633876
20
0.394519052838319
30
0
41
1
10
-9.20190632438599
20
0.179219444300429
30
0
41
1
10
-9.0077785167926
20
-0.0356424895420275
30
0
41
1
10
-8.81287846405296
20
-0.249980947156075
30
0
0
SPLINE
5
174
100
AcDbEntity
8
1
62
256
6
ByLayer
370
18
48
1
60
0
100
AcDbSpline
70
4
71
3
72
38
73
34
40
0
40
0
40
0
40
0
40
0.250000000000003
40
0.250000000000003
40
0.375000000000003
40
0.375000000000003
40
0.500000000000002
40
0.500000000000002
40
0.562500000000005
40
0.562500000000005
40
0.625000000000008
40
0.625000000000008
40
0.687500000000012
40
0.687500000000012
40
0.750000000000015
40
0.750000000000015
40
0.781250000000014
40
0.781250000000014
40
0.812500000000012
40
0.812500000000012
40
0.843750000000011
40
0.843750000000011
40
0.859375000000007
40
0.859375000000007
40
0.875000000000003
40
0.875000000000003
40
0.906250000000002
40
0.906250000000002
40
0.937500000000001
40
0.937500000000001
40
0.968750000000001
40
0.968750000000001
40
1
40
1
40
1
40
1
41
1
10
-8.98692851463424
20
0.394519052838433
30
0
41
1
10
-9.0332619564788
20
0.412493674837833
30
0
41
1
10
-9.07924677772213
20
0.428095750861701
30
0
41
1
10
-9.14767753970106
20
0.447892731526878
30
0
41
1
10
-9.17039514074557
20
0.453877630445248
30
0
41
1
10
-9.21561276810894
20
0.464384190703157
30
0
41
1
10
-9.23811409009988
20
0.468915971092088
30
0
41
1
10
-9.27164840317904
20
0.474201921571563
30
0
41
1
10
-9.28280754864188
20
0.475708447562795
30
0
41
1
10
-9.30470496885984
20
0.478037327116795
30
0
41
1
10
-9.31547973767194
20
0.478868132934792
30
0
41
1
10
-9.33658051127526
20
0.479660016760334
30
0
41
1
10
-9.34696068021994
20
0.479621526876542
30
0
41
1
10
-9.36677891891844
20
0.478317730661246
30
0
41
1
10
-9.37622144042925
20
0.477070148566497
30
0
41
1
10
-9.38930097964762
20
0.473801534714227
30
0
41
1
10
-9.39349606281391
20
0.472464916766313
30
0
41
1
10
-9.40121470148263
20
0.469229096419326
30
0
41
1
10
-9.40475722197043
20
0.467329854200102
30
0
41
1
10
-9.41101084625686
20
0.462790271628449
30
0
41
1
10
-9.41370522919763
20
0.460142637892375
30
0
41
1
10
-9.41676860092079
20
0.455629436905042
30
0
41
1
10
-9.41763416504909
20
0.454029340103233
30
0
41
1
10
-9.41901882100981
20
0.450615689000983
30
0
41
1
10
-9.41953665683756
20
0.448791861472614
30
0
41
1
10
-9.42048798744298
20
0.44314609700092
30
0
41
1
10
-9.42034760074219
20
0.439106172816139
30
0
41
1
10
-9.41852742540985
20
0.430476184279115
30
0
41
1
10
-9.41685123823549
20
0.425966268108198
30
0
41
1
10
-9.41232312472627
20
0.416909228814092
30
0
41
1
10
-9.40943685546671
20
0.41229412988929
30
0
41
1
10
-9.40294265258265
20
0.403307302163142
30
0
41
1
10
-9.39931252043964
20
0.398885595145714
30
0
41
1
10
-9.39538846339337
20
0.394519052837154
30
0
0
SPLINE
5
175
100
AcDbEntity
8
1
62
256
6
ByLayer
370
18
48
1
60
0
100
AcDbSpline
70
4
71
3
72
8
73
4
40
0
40
0
40
0
40
0
40
1
40
1
40
1
40
1
41
1
10
-7.15410175340969
20
-0.249980947161674
30
0
41
1
10
-7.77427580892314
20
-0.0548377836275904
30
0
41
1
10
-8.384783437259
20
0.160922546217108
30
0
41
1
10
-8.98692851463423
20
0.394519052838319
30
0
0
SPLINE
5
176
100
AcDbEntity
8
1
62
256
6
ByLayer
370
18
48
1
60
0
100
AcDbSpline
70
4
71
3
72
17
73
13
40
0
40
0
40
0
40
0
40
0.124999999999999
40
0.124999999999999
40
0.249999999999998
40
0.249999999999998
40
0.374999999999998
40
0.374999999999998
40
0.499999999999997
40
0.499999999999997
40
0.749999999999998
40
1
40
1
40
1
40
1
41
1
10
-6.74249188881709
20
-0.324980947161663
30
0
41
1
10
-6.75895378391422
20
-0.324980947161606
30
0
41
1
10
-6.77560867949245
20
-0.324310745266985
30
0
41
1
10
-6.8091790679558
20
-0.322040380930361
30
0
41
1
10
-6.82609666353446
20
-0.320433354681313
30
0
41
1
10
-6.8601373246226
20
-0.31647039455359
30
0
41
1
10
-6.87726105822415
20
-0.314112278634411
30
0
41
1
10
-6.91168423969094
20
-0.308745403149373
30
0
41
1
10
-6.92901200463672
20
-0.305730156657205
30
0
41
1
10
-6.98098651916527
20
-0.295834974764006
30
0
41
1
10
-7.05026156071182
20
-0.280409342926959
30
0
41
1
10
-7.11949273474028
20
-0.260870976065661
30
0
41
1
10
-7.15410175340969
20
-0.249980947161816
30
0
0
SPLINE
5
177
100
AcDbEntity
8
1
62
256
6
ByLayer
370
18
48
1
60
0
100
AcDbSpline
70
4
71
3
72
28
73
24
40
0
40
0
40
0
40
0
40
0.062500000000002
40
0.062500000000002
40
0.125000000000004
40
0.125000000000004
40
0.187500000000006
40
0.187500000000006
40
0.250000000000008
40
0.250000000000008
40
0.31250000000001
40
0.31250000000001
40
0.375000000000012
40
0.375000000000012
40
0.437500000000014
40
0.437500000000014
40
0.500000000000016
40
0.500000000000016
40
0.625000000000015
40
0.625000000000015
40
0.750000000000013
40
0.750000000000013
40
1
40
1
40
1
40
1
41
1
10
-6.22292588127033
20
-0.249980947140926
30
0
41
1
10
-6.21958846278596
20
-0.252886604388976
30
0
41
1
10
-6.21643658084923
20
-0.2558747816623
30
0
41
1
10
-6.21065250989122
20
-0.262082766471423
30
0
41
1
10
-6.20799059239903
20
-0.265341649736172
30
0
41
1
10
-6.20359999834165
20
-0.272014335422199
30
0
41
1
10
-6.20188043678124
20
-0.275412687019298
30
0
41
1
10
-6.19979992398484
20
-0.282212586931053
30
0
41
1
10
-6.1994771564062
20
-0.285483953660503
30
0
41
1
10
-6.20034973300679
20
-0.291754064168089
30
0
41
1
10
-6.20153703134238
20
-0.294630037775505
30
0
41
1
10
-6.20507139005912
20
-0.299823372219606
30
0
41
1
10
-6.20738715966201
20
-0.302109007415226
30
0
41
1
10
-6.21267351534166
20
-0.30614672963037
30
0
41
1
10
-6.21568609914914
20
-0.307929189855884
30
0
41
1
10
-6.22210698144582
20
-0.31107607510512
30
0
41
1
10
-6.22550351037791
20
-0.312439632077798
30
0
41
1
10
-6.23609002146526
20
-0.316080959786547
30
0
41
1
10
-6.24369435696326
20
-0.317921804204559
30
0
41
1
10
-6.2594332674004
20
-0.320855188810611
30
0
41
1
10
-6.26749588936983
20
-0.321930095246671
30
0
41
1
10
-6.29206351344484
20
-0.324375867069932
30
0
41
1
10
-6.30894164051674
20
-0.324980947161663
30
0
41
1
10
-6.32610759209325
20
-0.324980947161663
30
0
0
SPLINE
5
178
100
AcDbEntity
8
1
62
256
6
ByLayer
370
18
48
1
60
0
100
AcDbSpline
70
4
71
3
72
8
73
4
40
0
40
0
40
0
40
0
40
1
40
1
40
1
40
1
41
1
10
-6.94370199058156
20
0.394519052846192
30
0
41
1
10
-6.70648353684933
20
0.177135671778956
30
0
41
1
10
-6.46649386217527
20
-0.0379233125592862
30
0
41
1
10
-6.2229258812701
20
-0.249980947141125
30
0
0
SPLINE
5
179
100
AcDbEntity
8
1
62
256
6
ByLayer
370
18
48
1
60
0
100
AcDbSpline
70
4
71
3
72
38
73
34
40
0
40
0
40
0
40
0
40
0.250000000000004
40
0.250000000000004
40
0.375000000000005
40
0.375000000000005
40
0.500000000000007
40
0.500000000000007
40
0.625000000000008
40
0.625000000000008
40
0.687500000000009
40
0.687500000000009
40
0.750000000000009
40
0.750000000000009
40
0.81250000000001
40
0.81250000000001
40
0.843750000000009
40
0.843750000000009
40
0.859375000000008
40
0.859375000000008
40
0.875000000000008
40
0.875000000000008
40
0.906250000000002
40
0.906250000000002
40
0.921875000000002
40
0.921875000000002
40
0.937500000000002
40
0.937500000000002
40
0.953125000000001
40
0.953125000000001
40
0.968750000000001
40
0.968750000000001
40
1
40
1
40
1
40
1
41
1
10
-6.31056345909113
20
0.394519052838348
30
0
41
1
10
-6.37481328661519
20
0.411390584813802
30
0
41
1
10
-6.4389694704841
20
0.426235064493312
30
0
41
1
10
-6.53505244750028
20
0.445376954980162
30
0
41
1
10
-6.56705479948485
20
0.45122594227513
30
0
41
1
10
-6.63100511187719
20
0.461668317288456
30
0
41
1
10
-6.66283482363753
20
0.466246113725987
30
0
41
1
10
-6.72600609435827
20
0.473707937007589
30
0
41
1
10
-6.75736948054711
20
0.476614959194904
30
0
41
1
10
-6.80391672915488
20
0.479030439617617
30
0
41
1
10
-6.8192776629011
20
0.479502300680395
30
0
41
1
10
-6.84957718699221
20
0.479534942910078
30
0
41
1
10
-6.86452894473786
20
0.479103966091572
30
0
41
1
10
-6.89376528285266
20
0.476844350448005
30
0
41
1
10
-6.90791400682033
20
0.4750543513058
30
0
41
1
10
-6.92784789138969
20
0.470525557036069
30
0
41
1
10
-6.93431043459861
20
0.468687677725654
30
0
41
1
10
-6.9432963611988
20
0.465259768495429
30
0
41
1
10
-6.94617531050903
20
0.464004555023422
30
0
41
1
10
-6.95163771381635
20
0.461207412587328
30
0
41
1
10
-6.95423460303806
20
0.459654605417683
30
0
41
1
10
-6.96127333728381
20
0.454550304275358
30
0
41
1
10
-6.96505057587058
20
0.450546752278512
30
0
41
1
10
-6.96837681670823
20
0.443136098555243
30
0
41
1
10
-6.96904305703399
20
0.440519738407147
30
0
41
1
10
-6.96942508964193
20
0.434972492094005
30
0
41
1
10
-6.96912327074105
20
0.432023475756551
30
0
41
1
10
-6.96761586971718
20
0.426116302508717
30
0
41
1
10
-6.96640667044278
20
0.423099880063631
30
0
41
1
10
-6.9632594025644
20
0.417097475848209
30
0
41
1
10
-6.96135311381423
20
0.41415595474092
30
0
41
1
10
-6.95487075366256
20
0.405468539491409
30
0
41
1
10
-6.94950896079734
20
0.399840471978024
30
0
41
1
10
-6.94370199058531
20
0.394519052844345
30
0
0
SPLINE
5
17A
100
AcDbEntity
8
1
62
256
6
ByLayer
370
18
48
1
60
0
100
AcDbSpline
70
4
71
3
72
8
73
4
40
0
40
0
40
0
40
0
40
1
40
1
40
1
40
1
41
1
10
-3.02046224885069
20
-0.249980947161674
30
0
41
1
10
-4.1359861011274
20
-0.107222523982614
30
0
41
1
10
-5.23174171602679
20
0.111228400779481
30
0
41
1
10
-6.31056345909118
20
0.394519052838035
30
0
0
SPLINE
5
17B
100
AcDbEntity
8
1
62
256
6
ByLayer
370
18
48
1
60
0
100
AcDbSpline
70
4
71
3
72
14
73
10
40
0
40
0
40
0
40
0
40
0.25
40
0.25
40
0.5
40
0.5
40
0.75
40
0.75
40
1
40
1
40
1
40
1
41
1
10
-1.73594520006452
20
-0.324980947161805
30
0
41
1
10
-1.84314979610454
20
-0.324980947161777
30
0
41
1
10
-1.95042328219981
20
-0.323449254272589
30
0
41
1
10
-2.16478964220232
20
-0.317513647984981
30
0
41
1
10
-2.27190023278158
20
-0.31310074243703
30
0
41
1
10
-2.48598486060513
20
-0.301152741664794
30
0
41
1
10
-2.5929587792904
20
-0.293621089038169
30
0
41
1
10
-2.80678930238935
20
-0.274859400504965
30
0
41
1
10
-2.91364525025708
20
-0.263650781524092
30
0
41
1
10
-3.02046224885069
20
-0.249980947161674
30
0
0
SPLINE
5
17C
100
AcDbEntity
8
1
62
256
6
ByLayer
370
18
48
1
60
0
100
AcDbSpline
70
4
71
3
72
14
73
10
40
0
40
0
40
0
40
0
40
0.25
40
0.25
40
0.5
40
0.5
40
0.75
40
0.75
40
1
40
1
40
1
40
1
41
1
10
3.02046224885069
20
-0.249980947161873
30
0
41
1
10
2.91367618098349
20
-0.263646823185127
30
0
41
1
10
2.80666688413962
20
-0.274872902970912
30
0
41
1
10
2.59260836335665
20
-0.293649067375725
30
0
41
1
10
2.48557990191409
20
-0.301179376033105
30
0
41
1
10
2.27148283436821
20
-0.313119988055348
30
0
41
1
10
2.16441448633978
20
-0.317526654577222
30
0
41
1
10
1.95022075456774
20
-0.323452236129214
30
0
41
1
10
1.84309474173762
20
-0.324980947161691
30
0
41
1
10
1.73594520006452
20
-0.324980947161691
30
0
0
SPLINE
5
17D
100
AcDbEntity
8
1
62
256
6
ByLayer
370
18
48
1
60
0
100
AcDbSpline
70
4
71
3
72
8
73
4
40
0
40
0
40
0
40
0
40
1
40
1
40
1
40
1
41
1
10
6.31056345909118
20
0.394519052838035
30
0
41
1
10
5.23174171602679
20
0.111228400779481
30
0
41
1
10
4.1359861011274
20
-0.107222523982614
30
0
41
1
10
3.02046224885069
20
-0.249980947161674
30
0
0
SPLINE
5
17E
100
AcDbEntity
8
1
62
256
6
ByLayer
370
18
48
1
60
0
100
AcDbSpline
70
4
71
3
72
40
73
36
40
0
40
0
40
0
40
0
40
0.0312500000000087
40
0.0312500000000087
40
0.0625000000000174
40
0.0625000000000174
40
0.0781250000000198
40
0.0781250000000198
40
0.0937500000000222
40
0.0937500000000222
40
0.109375000000025
40
0.109375000000025
40
0.125000000000027
40
0.125000000000027
40
0.156250000000026
40
0.156250000000026
40
0.187500000000024
40
0.187500000000024
40
0.218750000000023
40
0.218750000000023
40
0.250000000000021
40
0.250000000000021
40
0.312500000000021
40
0.312500000000021
40
0.375000000000021
40
0.375000000000021
40
0.437500000000021
40
0.437500000000021
40
0.50000000000002
40
0.50000000000002
40
0.625000000000015
40
0.625000000000015
40
0.750000000000009
40
0.750000000000009
40
1
40
1
40
1
40
1
41
1
10
6.94370199057298
20
0.394519052838319
30
0
41
1
10
6.94949560394613
20
0.39982823196766
30
0
41
1
10
6.9547696385205
20
0.405342643436654
30
0
41
1
10
6.96353664392529
20
0.417072710650359
30
0
41
1
10
6.96690761888635
20
0.423224118274902
30
0
41
1
10
6.96915785814377
20
0.432219602519865
30
0
41
1
10
6.96943324881519
20
0.435114089853443
30
0
41
1
10
6.96901235433305
20
0.440690505253485
30
0
41
1
10
6.96829725749961
20
0.443380727673969
30
0
41
1
10
6.9660284372105
20
0.448294122549783
30
0
41
1
10
6.96446307291583
20
0.450572101252163
30
0
41
1
10
6.96069380192048
20
0.454727700184236
30
0
41
1
10
6.95851683438016
20
0.456587871636742
30
0
41
1
10
6.9513232003797
20
0.461676155240184
30
0
41
1
10
6.94560309325294
20
0.464430091165326
30
0
41
1
10
6.93346671813322
20
0.468952428293051
30
0
41
1
10
6.92700114264716
20
0.470750396595264
30
0
41
1
10
6.91354439935401
20
0.473737864933412
30
0
41
1
10
6.90651936764425
20
0.47492561812976
30
0
41
1
10
6.8922792992789
20
0.476824350812876
30
0
41
1
10
6.88505053830161
20
0.477539240813599
30
0
41
1
10
6.86312052932414
20
0.479163283900618
30
0
41
1
10
6.84817943934439
20
0.479560419705763
30
0
41
1
10
6.81787500488093
20
0.479471186456607
30
0
41
1
10
6.80250792684535
20
0.478976540973378
30
0
41
1
10
6.77145110599577
20
0.477324643893013
30
0
41
1
10
6.7557261014864
20
0.476161098836997
30
0
41
1
10
6.72426466292015
20
0.473326678573329
30
0
41
1
10
6.70850783880189
20
0.471655016990979
30
0
41
1
10
6.66117064223556
20
0.466019194826799
30
0
41
1
10
6.62952417807892
20
0.461442125692656
30
0
41
1
10
6.56608797546158
20
0.451051827023463
30
0
41
1
10
6.53429778488416
20
0.445232963789806
30
0
41
1
10
6.43873436581833
20
0.426175341576084
30
0
41
1
10
6.37477160274292
20
0.411379638935813
30
0
41
1
10
6.31056345909113
20
0.394519052838518
30
0
0
SPLINE
5
17F
100
AcDbEntity
8
1
62
256
6
ByLayer
370
18
48
1
60
0
100
AcDbSpline
70
4
71
3
72
8
73
4
40
0
40
0
40
0
40
0
40
1
40
1
40
1
40
1
41
1
10
6.2229258812701
20
-0.249980947141125
30
0
41
1
10
6.46649386217231
20
-0.0379233125618441
30
0
41
1
10
6.70648353684354
20
0.177135671773783
30
0
41
1
10
6.94370199057298
20
0.394519052838319
30
0
0
SPLINE
5
180
100
AcDbEntity
8
1
62
256
6
ByLayer
370
18
48
1
60
0
100
AcDbSpline
70
4
71
3
72
30
73
26
40
0
40
0
40
0
40
0
40
0.249999999999997
40
0.249999999999997
40
0.37499999999999
40
0.37499999999999
40
0.499999999999983
40
0.499999999999983
40
0.562499999999977
40
0.562499999999977
40
0.62499999999997
40
0.62499999999997
40
0.687499999999964
40
0.687499999999964
40
0.749999999999957
40
0.749999999999957
40
0.781249999999963
40
0.781249999999963
40
0.812499999999968
40
0.812499999999968
40
0.874999999999979
40
0.874999999999979
40
0.937499999999989
40
0.937499999999989
40
1
40
1
40
1
40
1
41
1
10
6.32610759209325
20
-0.324980947161663
30
0
41
1
10
6.30895523289027
20
-0.324980947161663
30
0
41
1
10
6.29208157702351
20
-0.324377259675799
30
0
41
1
10
6.26750018480016
20
-0.321930725538721
30
0
41
1
10
6.25939445407607
20
-0.320848040210734
30
0
41
1
10
6.24372854904976
20
-0.31792809148601
30
0
41
1
10
6.2362068230992
20
-0.316109021782722
30
0
41
1
10
6.2256865724155
20
-0.312508448027302
30
0
41
1
10
6.22230861856275
20
-0.311160963692004
30
0
41
1
10
6.21591426295655
20
-0.308054038889253
30
0
41
1
10
6.21287035292437
20
-0.30627486682053
30
0
41
1
10
6.20751976611061
20
-0.302231168235778
30
0
41
1
10
6.20518386142254
20
-0.299949113688825
30
0
41
1
10
6.20160828920962
20
-0.294772273174488
30
0
41
1
10
6.2004140800575
20
-0.291948296582604
30
0
41
1
10
6.19971056995726
20
-0.287281667244486
30
0
41
1
10
6.19966320953691
20
-0.285643710974028
30
0
41
1
10
6.19995012421148
20
-0.282353947498052
30
0
41
1
10
6.20027976527979
20
-0.280687054084183
30
0
41
1
10
6.20179147637555
20
-0.275624633340158
30
0
41
1
10
6.20351609927599
20
-0.272168749535723
30
0
41
1
10
6.20785466491733
20
-0.265522644781726
30
0
41
1
10
6.21051007557585
20
-0.262245767396166
30
0
41
1
10
6.21636758997769
20
-0.255939059647659
30
0
41
1
10
6.21955595240865
20
-0.252914908876164
30
0
41
1
10
6.22292588125003
20
-0.249980947131121
30
0
0
SPLINE
5
181
100
AcDbEntity
8
1
62
256
6
ByLayer
370
18
48
1
60
0
100
AcDbSpline
70
4
71
3
72
8
73
4
40
0
40
0
40
0
40
0
40
1
40
1
40
1
40
1
41
1
10
7.81377042360418
20
0.474999999999994
30
0
41
1
10
7.41022395361117
20
0.204971331217308
30
0
41
1
10
7.00588166662232
20
-0.0618153720883186
30
0
41
1
10
6.60065048818424
20
-0.32498094716172
30
0
0
SPLINE
5
182
100
AcDbEntity
8
1
62
256
6
ByLayer
370
18
48
1
60
0
100
AcDbSpline
70
4
71
3
72
8
73
4
40
0
40
0
40
0
40
0
40
1
40
1
40
1
40
1
41
1
10
7.93710604868386
20
0.675000000000011
30
0
41
1
10
7.89599665707922
20
0.608329227881853
30
0
41
1
10
7.85488481363828
20
0.541662508489168
30
0
41
1
10
7.81377042360421
20
0.474999999999994
30
0
0
SPLINE
5
183
100
AcDbEntity
8
1
62
256
6
ByLayer
370
18
48
1
60
0
100
AcDbSpline
70
4
71
3
72
8
73
4
40
0
40
0
40
0
40
0
40
1
40
1
40
1
40
1
41
1
10
-14.5615187733781
20
0.236518773378123
30
0
41
1
10
-14.7076620247758
20
0.382662024775783
30
0
41
1
10
-14.8538226741322
20
0.528822674132243
30
0
41
1
10
-15
20
0.675000000000011
30
0
0
SPLINE
5
184
100
AcDbEntity
8
1
62
256
6
ByLayer
370
18
48
1
60
0
100
AcDbSpline
70
4
71
3
72
22
73
18
40
0
40
0
40
0
40
0
40
0.0624999999999998
40
0.0624999999999998
40
0.125
40
0.125
40
0.25
40
0.25
40
0.375000000000001
40
0.375000000000001
40
0.500000000000001
40
0.500000000000001
40
0.625000000000001
40
0.625000000000001
40
0.75
40
0.75
40
1
40
1
40
1
40
1
41
1
10
-15
20
0.875000000001506
30
0
41
1
10
-15
20
0.880589068055571
30
0
41
1
10
-15
20
0.88618611265801
30
0
41
1
10
-15
20
0.897396313717934
30
0
41
1
10
-15
20
0.903041140446447
30
0
41
1
10
-15
20
0.919714084930661
30
0
41
1
10
-15
20
0.930486799286513
30
0
41
1
10
-15
20
0.951449148566496
30
0
41
1
10
-15
20
0.961697793674887
30
0
41
1
10
-15
20
0.981393856273371
30
0
41
1
10
-15
20
0.99078891893015
30
0
41
1
10
-15
20
1.00885793975522
30
0
41
1
10
-15
20
1.0175308391909
30
0
41
1
10
-15
20
1.03427897453579
30
0
41
1
10
-15
20
1.04235433752584
30
0
41
1
10
-15
20
1.06551265539923
30
0
41
1
10
-15
20
1.07967512164055
30
0
41
1
10
-15
20
1.09294494718759
30
0
0
SPLINE
5
185
100
AcDbEntity
8
1
62
256
6
ByLayer
370
18
48
1
60
0
100
AcDbSpline
70
4
71
3
72
18
73
14
40
0
40
0
40
0
40
0
40
0.249999999999998
40
0.249999999999998
40
0.374999999999997
40
0.374999999999997
40
0.499999999999996
40
0.499999999999996
40
0.749999999999993
40
0.749999999999993
40
0.874999999999997
40
0.874999999999997
40
1
40
1
40
1
40
1
41
1
10
9.37125442462684
20
0.874999999999858
30
0
41
1
10
9.37125442462684
20
0.904694818135255
30
0
41
1
10
9.37285807557865
20
0.934194699485403
30
0
41
1
10
9.37768818945207
20
0.978149787155473
30
0
41
1
10
9.37971768419911
20
0.992823834800475
30
0
41
1
10
9.38455354037072
20
1.02167884394626
30
0
41
1
10
9.38735060736522
20
1.03583546547085
30
0
41
1
10
9.39684924666639
20
1.07751409954727
30
0
41
1
10
9.40464959280698
20
1.10425107210796
30
0
41
1
10
9.41859288853709
20
1.14275413634832
30
0
41
1
10
9.42363987862907
20
1.15536388660846
30
0
41
1
10
9.43430393517235
20
1.17956393427204
30
0
41
1
10
9.43993646329213
20
1.19120677842275
30
0
41
1
10
9.44586314547914
20
1.20240209734692
30
0
0
SPLINE
5
186
100
AcDbEntity
8
1
62
256
6
ByLayer
370
18
48
1
60
0
100
AcDbSpline
70
4
71
3
72
26
73
22
40
0
40
0
40
0
40
0
40
0.125
40
0.125
40
0.15625
40
0.15625
40
0.1875
40
0.1875
40
0.25
40
0.25
40
0.5
40
0.5
40
0.625
40
0.625
40
0.75
40
0.75
40
0.875
40
0.875
40
0.9375
40
0.9375
40
1
40
1
40
1
40
1
41
1
10
3.82720524665191
20
1.375
30
0
41
1
10
3.66784017059436
20
1.375
30
0
41
1
10
3.50851321889621
20
1.37094450465955
30
0
41
1
10
3.3093884139609
20
1.36227063710794
30
0
41
1
10
3.26956516787257
20
1.36035344049768
30
0
41
1
10
3.18992183086647
20
1.35618341463495
30
0
41
1
10
3.1498673134349
20
1.35391738932401
30
0
41
1
10
3.02996429579406
20
1.34666632694675
30
0
41
1
10
2.95008484346241
20
1.34121480212659
30
0
41
1
10
2.55092030470416
20
1.31138613870661
30
0
41
1
10
2.23233478291988
20
1.27928046028188
30
0
41
1
10
1.75474950260408
20
1.22788495741705
30
0
41
1
10
1.59560357042369
20
1.21021000714069
30
0
41
1
10
1.27722899968975
20
1.17577381700173
30
0
41
1
10
1.11800182548021
20
1.15899639959054
30
0
41
1
10
0.799204148954971
20
1.12923453082303
30
0
41
1
10
0.639631382539051
20
1.11627509243578
30
0
41
1
10
0.399749988067498
20
1.10260550904388
30
0
41
1
10
0.31969693270085
20
1.09901890502678
30
0
41
1
10
0.159774363699597
20
1.09418805527122
30
0
41
1
10
0.0798615061981423
20
1.09294494717704
30
0
41
1
10
0
20
1.09294494717704
30
0
0
SPLINE
5
187
100
AcDbEntity
8
1
62
256
6
ByLayer
370
18
48
1
60
0
100
AcDbSpline
70
4
71
3
72
16
73
12
40
0
40
0
40
0
40
0
40
0.125
40
0.125
40
0.25
40
0.25
40
0.5
40
0.5
40
0.75
40
0.75
40
1
40
1
40
1
40
1
41
1
10
8.18325005084313
20
1.375
30
0
41
1
10
8.23647446522827
20
1.37500000000023
30
0
41
1
10
8.28967629332496
20
1.37382406147052
30
0
41
1
10
8.39581505821266
20
1.36943560360865
30
0
41
1
10
8.44879059323313
20
1.36622218099544
30
0
41
1
10
8.60746747125017
20
1.35386984907743
30
0
41
1
10
8.71292130173919
20
1.34204292581458
30
0
41
1
10
8.92327148440828
20
1.31233480150524
30
0
41
1
10
9.02816810069336
20
1.29445646866972
30
0
41
1
10
9.23743204999249
20
1.25295172653057
30
0
41
1
10
9.34180310420962
20
1.22936572991566
30
0
41
1
10
9.44586314547902
20
1.20240209734683
30
0
0
SPLINE
5
188
100
AcDbEntity
8
1
62
256
6
ByLayer
370
18
48
1
60
0
100
AcDbSpline
70
4
71
3
72
24
73
20
40
0
40
0
40
0
40
0
40
0.125000000000006
40
0.125000000000006
40
0.187500000000006
40
0.187500000000006
40
0.250000000000007
40
0.250000000000007
40
0.375000000000006
40
0.375000000000006
40
0.500000000000005
40
0.500000000000005
40
0.625000000000004
40
0.625000000000004
40
0.750000000000002
40
0.750000000000002
40
0.875000000000001
40
0.875000000000001
40
1
40
1
40
1
40
1
41
1
10
21.5579366989262
20
10.2025635205896
30
0
41
1
10
21.5808896664351
20
10.2841453379583
30
0
41
1
10
21.6102348531368
20
10.3630169577413
30
0
41
1
10
21.6635725803927
20
10.4773728804905
30
0
41
1
10
21.6829128187971
20
10.5148296843477
30
0
41
1
10
21.7247621644385
20
10.5883997429127
30
0
41
1
10
21.7473004776322
20
10.6245561206402
30
0
41
1
10
21.819652250655
20
10.7306698868345
30
0
41
1
10
21.8731764170692
20
10.7968574264479
30
0
41
1
10
21.9905645778913
20
10.9203287768726
30
0
41
1
10
22.0544262751098
20
10.9776145658166
30
0
41
1
10
22.1930867178138
20
11.082768142581
30
0
41
1
10
22.2660489323262
20
11.1292354288766
30
0
41
1
10
22.418939162511
20
11.2101607245857
30
0
41
1
10
22.49888595914
20
11.2446365026708
30
0
41
1
10
22.6661858090059
20
11.3009254870657
30
0
41
1
10
22.7511664971177
20
11.3219369895094
30
0
41
1
10
22.9236480294158
20
11.3501397634769
30
0
41
1
10
23.0111579399703
20
11.3573355623172
30
0
41
1
10
23.0999999999999
20
11.3572829538191
30
0
0
SPLINE
5
189
100
AcDbEntity
8
1
62
256
6
ByLayer
370
18
48
1
60
0
100
AcDbSpline
70
4
71
3
72
16
73
12
40
0
40
0
40
0
40
0
40
0.249999999999988
40
0.249999999999988
40
0.374999999999987
40
0.374999999999987
40
0.499999999999986
40
0.499999999999986
40
0.749999999999993
40
0.749999999999993
40
1
40
1
40
1
40
1
41
1
10
21.5872988184424
20
10.2468763319896
30
0
41
1
10
21.573372522757
20
10.2064956746118
30
0
41
1
10
21.5609005663905
20
10.1650922593536
30
0
41
1
10
21.5445671053558
20
10.1013514544928
30
0
41
1
10
21.5395188227116
20
10.0798312316341
30
0
41
1
10
21.5302544185292
20
10.0362177641951
30
0
41
1
10
21.5260230783808
20
10.0140247558696
30
0
41
1
10
21.5147973173386
20
9.94748125426173
30
0
41
1
10
21.50923679158
20
9.90311595164209
30
0
41
1
10
21.5018379790127
20
9.81439113767701
30
0
41
1
10
21.4999999999999
20
9.77003152631789
30
0
41
1
10
21.4999999999999
20
9.72568628647531
30
0
0
SPLINE
5
18A
100
AcDbEntity
8
1
62
256
6
ByLayer
370
18
48
1
60
0
100
AcDbSpline
70
4
71
3
72
18
73
14
40
0
40
0
40
0
40
0
40
0.249999999999994
40
0.249999999999994
40
0.499999999999989
40
0.499999999999989
40
0.624999999999992
40
0.624999999999992
40
0.749999999999994
40
0.749999999999994
40
0.874999999999997
40
0.874999999999997
40
1
40
1
40
1
40
1
41
1
10
8.97509300113904
20
-0.269594177821347
30
0
41
1
10
9.01152644313692
20
-0.276266358807106
30
0
41
1
10
9.04786915185497
20
-0.282718617451991
30
0
41
1
10
9.12036847898457
20
-0.294911325240093
30
0
41
1
10
9.15652522117634
20
-0.300657493979827
30
0
41
1
10
9.21061352336176
20
-0.308394804813759
30
0
41
1
10
9.2286184412612
20
-0.310825062109671
30
0
41
1
10
9.26457702835458
20
-0.315286220540855
30
0
41
1
10
9.28248929533831
20
-0.317312073862979
30
0
41
1
10
9.31797101305719
20
-0.320786465321106
30
0
41
1
10
9.33556537132938
20
-0.322240606437305
30
0
41
1
10
9.37037734087886
20
-0.324333802126603
30
0
41
1
10
9.38759768040057
20
-0.324980947161663
30
0
41
1
10
9.40454881002665
20
-0.324980947161663
30
0
0
SPLINE
5
18B
100
AcDbEntity
8
1
62
256
6
ByLayer
370
18
48
1
60
0
100
AcDbSpline
70
4
71
3
72
8
73
4
40
0
40
0
40
0
40
0
40
1
40
1
40
1
40
1
41
1
10
15.2430820962789
20
0.129903810567669
30
0
41
1
10
15.4272614047868
20
0.311558795576531
30
0
41
1
10
15.6113958293856
20
0.493259035271478
30
0
41
1
10
15.7954898626159
20
0.674999999999983
30
0
0
SPLINE
5
18C
100
AcDbEntity
8
1
62
256
6
ByLayer
370
18
48
1
60
0
100
AcDbSpline
70
4
71
3
72
8
73
4
40
0
40
0
40
0
40
0
40
1
40
1
40
1
40
1
41
1
10
14.8184692127086
20
-0.249980947161674
30
0
41
1
10
14.9604945734528
20
-0.123759749017154
30
0
41
1
10
15.1020216400389
20
0.0028773178347024
30
0
41
1
10
15.2430820962789
20
0.129903810567669
30
0
0
SPLINE
5
18D
100
AcDbEntity
8
1
62
256
6
ByLayer
370
18
48
1
60
0
100
AcDbSpline
70
4
71
3
72
18
73
14
40
0
40
0
40
0
40
0
40
0.124999999999999
40
0.124999999999999
40
0.249999999999998
40
0.249999999999998
40
0.500000000000002
40
0.500000000000002
40
0.625000000000001
40
0.625000000000001
40
0.750000000000001
40
0.750000000000001
40
1
40
1
40
1
40
1
41
1
10
14.7171680292953
20
-0.32498094716172
30
0
41
1
10
14.7186893510728
20
-0.32498094716172
30
0
41
1
10
14.7207746365131
20
-0.324388699392443
30
0
41
1
10
14.7259716490943
20
-0.322125675212874
30
0
41
1
10
14.729075461519
20
-0.320451985953838
30
0
41
1
10
14.7393963271011
20
-0.314194627055087
30
0
41
1
10
14.7478183865456
20
-0.308259492032192
30
0
41
1
10
14.7614560038651
20
-0.29790260373386
30
0
41
1
10
14.7661922846909
20
-0.294192871663853
30
0
41
1
10
14.7760027492335
20
-0.286317935978389
30
0
41
1
10
14.7810985572145
20
-0.282134384874752
30
0
41
1
10
14.7967015141747
20
-0.269079983040143
30
0
41
1
10
14.8074408879534
20
-0.25978207251589
30
0
41
1
10
14.8184692127086
20
-0.249980947161674
30
0
0
SPLINE
5
18E
100
AcDbEntity
8
1
62
256
6
ByLayer
370
18
48
1
60
0
100
AcDbSpline
70
4
71
3
72
12
73
8
40
0
40
0
40
0
40
0
40
0.358938353212408
40
0.358938353212408
40
0.717876706424815
40
0.717876706424815
40
1
40
1
40
1
40
1
41
1
10
9.13284665391035
20
-0.324980947161691
30
0
41
1
10
9.14372986087079
20
-0.324980947161691
30
0
41
1
10
9.15494813398627
20
-0.324297936900479
30
0
41
1
10
9.17785494090333
20
-0.321962244275824
30
0
41
1
10
9.18954659679824
20
-0.320303380455783
30
0
41
1
10
9.21076689725155
20
-0.316635418411352
30
0
41
1
10
9.22018631298099
20
-0.314781589375542
30
0
41
1
10
9.22962551724973
20
-0.312730672053618
30
0
0
LINE
5
7D
100
AcDbEntity
8
81
62
256
6
ByLayer
370
18
48
1
60
0
100
AcDbLine
10
38.1
20
14
30
0
11
43.1
21
14
31
0
39
0
210
0
220
0
230
1
0
LINE
5
7E
100
AcDbEntity
8
80
62
256
6
ByLayer
370
18
48
1
60
0
100
AcDbLine
10
0
20
0
30
0
11
0
21
-5
31
0
39
0
210
0
220
0
230
1
0
LINE
5
7F
100
AcDbEntity
8
1
62
256
6
ByLayer
370
18
48
1
60
0
100
AcDbLine
10
16
20
0.675
30
0
11
16
21
0.875
31
0
39
0
210
0
220
0
230
1
0
LINE
5
80
100
AcDbEntity
8
1
62
256
6
ByLayer
370
18
48
1
60
0
100
AcDbLine
10
35.951573
20
13.928927
30
0
11
36.709011
21
13.937806
31
0
39
0
210
0
220
0
230
1
0
LINE
5
81
100
AcDbEntity
8
1
62
256
6
ByLayer
370
18
48
1
60
0
100
AcDbLine
10
36.709011
20
11.063226
30
0
11
36.709011
21
13.937806
31
0
39
0
210
0
220
0
230
1
0
LINE
5
82
100
AcDbEntity
8
1
62
256
6
ByLayer
370
13
48
1
60
0
100
AcDbLine
10
34.497706
20
12.284148
30
0
11
31.777881
21
12.284148
31
0
39
0
210
0
220
0
230
1
0
LINE
5
83
100
AcDbEntity
8
1
62
256
6
ByLayer
370
13
48
1
60
0
100
AcDbLine
10
35.28134
20
12.485033
30
0
11
31.849782
21
12.485033
31
0
39
0
210
0
220
0
230
1
0
LINE
5
84
100
AcDbEntity
8
1
62
256
6
ByLayer
370
13
48
1
60
0
100
AcDbLine
10
31.745693
20
12.678684
30
0
11
34.497706
21
12.678684
31
0
39
0
210
0
220
0
230
1
0
LINE
5
85
100
AcDbEntity
8
1
62
256
6
ByLayer
370
13
48
1
60
0
100
AcDbLine
10
31.771433
20
12.280483
30
0
11
34.444414
21
12.280483
31
0
39
0
210
0
220
0
230
1
0
LINE
5
86
100
AcDbEntity
8
1
62
256
6
ByLayer
370
13
48
1
60
0
100
AcDbLine
10
31.739512
20
12.681857
30
0
11
34.444414
21
12.681857
31
0
39
0
210
0
220
0
230
1
0
LINE
5
87
100
AcDbEntity
8
1
62
256
6
ByLayer
370
13
48
1
60
0
100
AcDbLine
10
31.677082
20
12.226963
30
0
11
33.736252
21
12.226963
31
0
39
0
210
0
220
0
230
1
0
LINE
5
88
100
AcDbEntity
8
1
62
256
6
ByLayer
370
13
48
1
60
0
100
AcDbLine
10
31.656827
20
12.72884
30
0
11
33.736252
21
12.72884
31
0
39
0
210
0
220
0
230
1
0
LINE
5
89
100
AcDbEntity
8
1
62
256
6
ByLayer
370
13
48
1
60
0
100
AcDbLine
10
31.638741
20
12.107204
30
0
11
33.124167
21
12.107204
31
0
39
0
210
0
220
0
230
1
0
LINE
5
8A
100
AcDbEntity
8
1
62
256
6
ByLayer
370
13
48
1
60
0
100
AcDbLine
10
31.872487
20
11.444212
30
0
11
31.46718
21
11.444212
31
0
39
0
210
0
220
0
230
1
0
LINE
5
8B
100
AcDbEntity
8
1
62
256
6
ByLayer
370
13
48
1
60
0
100
AcDbLine
10
31.480028
20
11.493868
30
0
11
31.92005
21
11.493868
31
0
39
0
210
0
220
0
230
1
0
LINE
5
8C
100
AcDbEntity
8
1
62
256
6
ByLayer
370
13
48
1
60
0
100
AcDbLine
10
31.620685
20
12.842948
30
0
11
33.124167
21
12.842948
31
0
39
0
210
0
220
0
230
1
0
LINE
5
8D
100
AcDbEntity
8
1
62
256
6
ByLayer
370
13
48
1
60
0
100
AcDbLine
10
31.92005
20
13.445168
30
0
11
31.429412
21
13.445168
31
0
39
0
210
0
220
0
230
1
0
LINE
5
8E
100
AcDbEntity
8
1
62
256
6
ByLayer
370
18
48
1
60
0
100
AcDbLine
10
24.327513
20
11.319693
30
0
11
24.327513
21
11.35656
31
0
39
0
210
0
220
0
230
1
0
LINE
5
8F
100
AcDbEntity
8
1
62
256
6
ByLayer
370
13
48
1
60
0
100
AcDbLine
10
31.413776
20
13.494385
30
0
11
31.872487
21
13.494385
31
0
39
0
210
0
220
0
230
1
0
LINE
5
90
100
AcDbEntity
8
1
62
256
6
ByLayer
370
18
48
1
60
0
100
AcDbLine
10
34.572465
20
13.661556
30
0
11
35.519669
21
13.904522
31
0
39
0
210
0
220
0
230
1
0
LINE
5
91
100
AcDbEntity
8
1
62
256
6
ByLayer
370
18
48
1
60
0
100
AcDbLine
10
31.872487
20
13.494385
30
0
11
31.872487
21
13.618905
31
0
39
0
210
0
220
0
230
1
0
LINE
5
92
100
AcDbEntity
8
1
62
256
6
ByLayer
370
18
48
1
60
0
100
AcDbLine
10
33.124167
20
12.842948
30
0
11
31.92005
21
13.445168
31
0
39
0
210
0
220
0
230
1
0
LINE
5
93
100
AcDbEntity
8
1
62
256
6
ByLayer
370
18
48
1
60
0
100
AcDbLine
10
34.497706
20
12.678684
30
0
11
34.444414
21
12.681857
31
0
39
0
210
0
220
0
230
1
0
LINE
5
94
100
AcDbEntity
8
1
62
256
6
ByLayer
370
18
48
1
60
0
100
AcDbLine
10
34.444414
20
12.280483
30
0
11
34.497706
21
12.284148
31
0
39
0
210
0
220
0
230
1
0
LINE
5
95
100
AcDbEntity
8
1
62
256
6
ByLayer
370
18
48
1
60
0
100
AcDbLine
10
31.92005
20
11.493868
30
0
11
33.124167
21
12.107204
31
0
39
0
210
0
220
0
230
1
0
LINE
5
96
100
AcDbEntity
8
1
62
256
6
ByLayer
370
18
48
1
60
0
100
AcDbLine
10
31.872487
20
11.319693
30
0
11
31.872487
21
11.444212
31
0
39
0
210
0
220
0
230
1
0
LINE
5
97
100
AcDbEntity
8
1
62
256
6
ByLayer
370
18
48
1
60
0
100
AcDbLine
10
35.951573
20
11.047326
30
0
11
35.951573
21
13.928927
31
0
39
0
210
0
220
0
230
1
0
LINE
5
98
100
AcDbEntity
8
1
62
256
6
ByLayer
370
18
48
1
60
0
100
AcDbLine
10
35.558733
20
13.910387
30
0
11
35.951573
21
13.928927
31
0
39
0
210
0
220
0
230
1
0
LINE
5
99
100
AcDbEntity
8
1
62
256
6
ByLayer
370
18
48
1
60
0
100
AcDbLine
10
34.328061
20
13.630239
30
0
11
31.872487
21
13.618905
31
0
39
0
210
0
220
0
230
1
0
LINE
5
9A
100
AcDbEntity
8
1
62
256
6
ByLayer
370
13
48
1
60
0
100
AcDbLine
10
34.328061
20
13.630239
30
0
11
34.473955
21
13.641537
31
0
39
0
210
0
220
0
230
1
0
LINE
5
9B
100
AcDbEntity
8
1
62
256
6
ByLayer
370
18
48
1
60
0
100
AcDbLine
10
31.872487
20
13.618905
30
0
11
31.374165
21
13.618905
31
0
39
0
210
0
220
0
230
1
0
LINE
5
9C
100
AcDbEntity
8
1
62
256
6
ByLayer
370
18
48
1
60
0
100
AcDbLine
10
35.519669
20
11.067744
30
0
11
34.572465
21
11.301966
31
0
39
0
210
0
220
0
230
1
0
LINE
5
9D
100
AcDbEntity
8
1
62
256
6
ByLayer
370
18
48
1
60
0
100
AcDbLine
10
38.09999
20
13.803221
30
0
11
38.09999
21
11.197811
31
0
39
0
210
0
220
0
230
1
0
LINE
5
9E
100
AcDbEntity
8
1
62
256
6
ByLayer
370
18
48
1
60
0
100
AcDbLine
10
36.709011
20
13.937806
30
0
11
37.655796
21
13.995694
31
0
39
0
210
0
220
0
230
1
0
LINE
5
9F
100
AcDbEntity
8
1
62
256
6
ByLayer
370
18
48
1
60
0
100
AcDbLine
10
37.655796
20
11.005338
30
0
11
36.709011
21
11.063226
31
0
39
0
210
0
220
0
230
1
0
LINE
5
A0
100
AcDbEntity
8
1
62
256
6
ByLayer
370
18
48
1
60
0
100
AcDbLine
10
36.709011
20
11.063226
30
0
11
35.951573
21
11.047326
31
0
39
0
210
0
220
0
230
1
0
LINE
5
A1
100
AcDbEntity
8
1
62
256
6
ByLayer
370
18
48
1
60
0
100
AcDbLine
10
35.951573
20
11.047326
30
0
11
35.558733
21
11.06224
31
0
39
0
210
0
220
0
230
1
0
LINE
5
A2
100
AcDbEntity
8
1
62
256
6
ByLayer
370
18
48
1
60
0
100
AcDbLine
10
31.872487
20
11.319693
30
0
11
34.328061
21
11.331027
31
0
39
0
210
0
220
0
230
1
0
LINE
5
A3
100
AcDbEntity
8
1
62
256
6
ByLayer
370
18
48
1
60
0
100
AcDbLine
10
24.327513
20
11.319693
30
0
11
31.872487
21
11.319693
31
0
39
0
210
0
220
0
230
1
0
LINE
5
A4
100
AcDbEntity
8
1
62
256
6
ByLayer
370
18
48
1
60
0
100
AcDbLine
10
24.327513
20
11.319693
30
0
11
22.909726
21
11.326237
31
0
39
0
210
0
220
0
230
1
0
LINE
5
A5
100
AcDbEntity
8
1
62
256
6
ByLayer
370
18
48
1
60
0
100
AcDbLine
10
6.60048
20
-0.324981
30
0
11
9.132847
21
-0.324981
31
0
39
0
210
0
220
0
230
1
0
LINE
5
A6
100
AcDbEntity
8
1
62
256
6
ByLayer
370
18
48
1
60
0
100
AcDbLine
10
9.404549
20
-0.324981
30
0
11
9.476736
21
-0.324981
31
0
39
0
210
0
220
0
230
1
0
LINE
5
A7
100
AcDbEntity
8
1
62
256
6
ByLayer
370
18
48
1
60
0
100
AcDbLine
10
31.996861
20
13.770302
30
0
11
31.999046
21
14.002369
31
0
39
0
210
0
220
0
230
1
0
LINE
5
A8
100
AcDbEntity
8
1
62
256
6
ByLayer
370
18
48
1
60
0
100
AcDbLine
10
37.3
20
13.973937
30
0
11
37.3
21
13.995277
31
0
39
0
210
0
220
0
230
1
0
LINE
5
A9
100
AcDbEntity
8
1
62
256
6
ByLayer
370
18
48
1
60
0
100
AcDbLine
10
32.91527
20
13.770313
30
0
11
32.917388
21
13.995277
31
0
39
0
210
0
220
0
230
1
0
LINE
5
AA
100
AcDbEntity
8
1
62
256
6
ByLayer
370
18
48
1
60
0
100
AcDbLine
10
6.714371
20
-0.25
30
0
11
9.530813
21
-0.25
31
0
39
0
210
0
220
0
230
1
0
LINE
5
AB
100
AcDbEntity
8
1
62
256
6
ByLayer
370
18
48
1
60
0
100
AcDbLine
10
9.57055
20
-0.324981
30
0
11
14.717168
21
-0.324981
31
0
39
0
210
0
220
0
230
1
0
LINE
5
AC
100
AcDbEntity
8
1
62
256
6
ByLayer
370
13
48
1
60
0
100
AcDbLine
10
6.71446
20
-0.249981
30
0
11
14.818469
21
-0.249981
31
0
39
0
210
0
220
0
230
1
0
LINE
5
AD
100
AcDbEntity
8
1
62
256
6
ByLayer
370
18
48
1
60
0
100
AcDbLine
10
15.243082
20
0.129904
30
0
11
7.290539
21
0.129904
31
0
39
0
210
0
220
0
230
1
0
LINE
5
AE
100
AcDbEntity
8
1
62
256
6
ByLayer
370
18
48
1
60
0
100
AcDbLine
10
13.375003
20
15.750517
30
0
11
18.032984
21
20.408498
31
0
39
0
210
0
220
0
230
1
0
LINE
5
AF
100
AcDbEntity
8
1
62
256
6
ByLayer
370
18
48
1
60
0
100
AcDbLine
10
27.978927
20
14.002369
30
0
11
31.999046
21
14.002369
31
0
39
0
210
0
220
0
230
1
0
LINE
5
B0
100
AcDbEntity
8
1
62
256
6
ByLayer
370
18
48
1
60
0
100
AcDbLine
10
32.917388
20
13.995277
30
0
11
37.3
21
13.995277
31
0
39
0
210
0
220
0
230
1
0
LINE
5
B1
100
AcDbEntity
8
1
62
256
6
ByLayer
370
18
48
1
60
0
100
AcDbLine
10
37.3
20
14.883405
30
0
11
37.3
21
13.995277
31
0
39
0
210
0
220
0
230
1
0
LINE
5
B2
100
AcDbEntity
8
1
62
256
6
ByLayer
370
18
48
1
60
0
100
AcDbLine
10
31.346008
20
13.702416
30
0
11
31.357615
21
13.671231
31
0
39
0
210
0
220
0
230
1
0
LINE
5
B3
100
AcDbEntity
8
1
62
256
6
ByLayer
370
18
48
1
60
0
100
AcDbLine
10
-14.075019
20
-0.249981
30
0
11
-14.000019
21
-0.324981
31
0
39
0
210
0
220
0
230
1
0
LINE
5
B4
100
AcDbEntity
8
1
62
256
6
ByLayer
370
18
48
1
60
0
100
AcDbLine
10
-14.000019
20
-0.324981
30
0
11
-13.791283
21
-0.324981
31
0
39
0
210
0
220
0
230
1
0
LINE
5
B5
100
AcDbEntity
8
1
62
256
6
ByLayer
370
18
48
1
60
0
100
AcDbLine
10
-11.023511
20
-0.324981
30
0
11
-10.810081
21
-0.324981
31
0
39
0
210
0
220
0
230
1
0
LINE
5
B6
100
AcDbEntity
8
1
62
256
6
ByLayer
370
18
48
1
60
0
100
AcDbLine
10
-10.247062
20
-0.324981
30
0
11
-9.769771
21
-0.324981
31
0
39
0
210
0
220
0
230
1
0
LINE
5
B7
100
AcDbEntity
8
1
62
256
6
ByLayer
370
18
48
1
60
0
100
AcDbLine
10
-14.559331
20
0.234331
30
0
11
-14.075019
21
-0.249981
31
0
39
0
210
0
220
0
230
1
0
LINE
5
B8
100
AcDbEntity
8
1
62
256
6
ByLayer
370
13
48
1
60
0
100
AcDbLine
10
-14.075019
20
-0.249981
30
0
11
-13.927309
21
-0.249981
31
0
39
0
210
0
220
0
230
1
0
LINE
5
B9
100
AcDbEntity
8
1
62
256
6
ByLayer
370
18
48
1
60
0
100
AcDbLine
10
-13.703327
20
-0.324981
30
0
11
-13.048061
21
-0.324981
31
0
39
0
210
0
220
0
230
1
0
LINE
5
BA
100
AcDbEntity
8
1
62
256
6
ByLayer
370
18
48
1
60
0
100
AcDbLine
10
-11.287197
20
-0.324981
30
0
11
-11.132078
21
-0.324981
31
0
39
0
210
0
220
0
230
1
0
LINE
5
BB
100
AcDbEntity
8
1
62
256
6
ByLayer
370
13
48
1
60
0
100
AcDbLine
10
-13.72716
20
-0.249981
30
0
11
-13.206552
21
-0.249981
31
0
39
0
210
0
220
0
230
1
0
LINE
5
BC
100
AcDbEntity
8
1
62
256
6
ByLayer
370
13
48
1
60
0
100
AcDbLine
10
-14.265575
20
0.394519
30
0
11
-14.125544
21
0.394519
31
0
39
0
210
0
220
0
230
1
0
LINE
5
BD
100
AcDbEntity
8
1
62
256
6
ByLayer
370
18
48
1
60
0
100
AcDbLine
10
-12.9317
20
-0.324981
30
0
11
-12.074956
21
-0.324981
31
0
39
0
210
0
220
0
230
1
0
LINE
5
BE
100
AcDbEntity
8
1
62
256
6
ByLayer
370
13
48
1
60
0
100
AcDbLine
10
-12.941904
20
-0.249981
30
0
11
-12.261918
21
-0.249981
31
0
39
0
210
0
220
0
230
1
0
LINE
5
BF
100
AcDbEntity
8
1
62
256
6
ByLayer
370
13
48
1
60
0
100
AcDbLine
10
-13.470275
20
0.394519
30
0
11
-13.288685
21
0.394519
31
0
39
0
210
0
220
0
230
1
0
LINE
5
C0
100
AcDbEntity
8
1
62
256
6
ByLayer
370
18
48
1
60
0
100
AcDbLine
10
-11.923781
20
-0.324981
30
0
11
-11.287177
21
-0.324981
31
0
39
0
210
0
220
0
230
1
0
LINE
5
C1
100
AcDbEntity
8
1
62
256
6
ByLayer
370
13
48
1
60
0
100
AcDbLine
10
-11.918509
20
-0.249981
30
0
11
-11.153931
21
-0.249981
31
0
39
0
210
0
220
0
230
1
0
LINE
5
C2
100
AcDbEntity
8
1
62
256
6
ByLayer
370
13
48
1
60
0
100
AcDbLine
10
-12.44548
20
0.394519
30
0
11
-12.212601
21
0.394519
31
0
39
0
210
0
220
0
230
1
0
LINE
5
C3
100
AcDbEntity
8
1
62
256
6
ByLayer
370
13
48
1
60
0
100
AcDbLine
10
23.1
20
12.681874
30
0
11
23.1
21
11.357283
31
0
39
0
210
0
220
0
230
1
0
LINE
5
C4
100
AcDbEntity
8
1
62
256
6
ByLayer
370
18
48
1
60
0
100
AcDbLine
10
-10.612458
20
-0.324981
30
0
11
-10.247044
21
-0.324981
31
0
39
0
210
0
220
0
230
1
0
LINE
5
C5
100
AcDbEntity
8
1
62
256
6
ByLayer
370
13
48
1
60
0
100
AcDbLine
10
-10.588147
20
-0.249981
30
0
11
-9.966378
21
-0.249981
31
0
39
0
210
0
220
0
230
1
0
LINE
5
C6
100
AcDbEntity
8
1
62
256
6
ByLayer
370
18
48
1
60
0
100
AcDbLine
10
-11.023467
20
-0.324981
30
0
11
-11.132078
21
-0.324981
31
0
39
0
210
0
220
0
230
1
0
LINE
5
C7
100
AcDbEntity
8
1
62
256
6
ByLayer
370
18
48
1
60
0
100
AcDbLine
10
-9.404549
20
-0.324981
30
0
11
-9.769771
21
-0.324981
31
0
39
0
210
0
220
0
230
1
0
LINE
5
C8
100
AcDbEntity
8
1
62
256
6
ByLayer
370
13
48
1
60
0
100
AcDbLine
10
-11.127967
20
0.394519
30
0
11
-10.826145
21
0.394519
31
0
39
0
210
0
220
0
230
1
0
LINE
5
C9
100
AcDbEntity
8
1
62
256
6
ByLayer
370
18
48
1
60
0
100
AcDbLine
10
-8.864082
20
-0.324981
30
0
11
-6.742374
21
-0.324981
31
0
39
0
210
0
220
0
230
1
0
LINE
5
CA
100
AcDbEntity
8
1
62
256
6
ByLayer
370
13
48
1
60
0
100
AcDbLine
10
-8.812878
20
-0.249981
30
0
11
-7.153883
21
-0.249981
31
0
39
0
210
0
220
0
230
1
0
LINE
5
CB
100
AcDbEntity
8
1
62
256
6
ByLayer
370
18
48
1
60
0
100
AcDbLine
10
10.51676
20
13.375514
30
0
11
10.388566
21
13.375514
31
0
39
0
210
0
220
0
230
1
0
LINE
5
CC
100
AcDbEntity
8
1
62
256
6
ByLayer
370
18
48
1
60
0
100
AcDbLine
10
13.375
20
15.750514
30
0
11
18.71473
21
15.750514
31
0
39
0
210
0
220
0
230
1
0
LINE
5
CD
100
AcDbEntity
8
1
62
256
6
ByLayer
370
18
48
1
60
0
100
AcDbLine
10
18.71473
20
1.375
30
0
11
10.593748
21
1.375
31
0
39
0
210
0
220
0
230
1
0
LINE
5
CE
100
AcDbEntity
8
1
62
256
6
ByLayer
370
18
48
1
60
0
100
AcDbLine
10
13.375
20
15.750514
30
0
11
12
21
14.375514
31
0
39
0
210
0
220
0
230
1
0
LINE
5
CF
100
AcDbEntity
8
1
62
256
6
ByLayer
370
18
48
1
60
0
100
AcDbLine
10
18.71473
20
15.750514
30
0
11
19.517258
21
15.750514
31
0
39
0
210
0
220
0
230
1
0
LINE
5
D0
100
AcDbEntity
8
1
62
256
6
ByLayer
370
18
48
1
60
0
100
AcDbLine
10
18.71473
20
10.15166
30
0
11
18.71473
21
15.750514
31
0
39
0
210
0
220
0
230
1
0
LINE
5
D1
100
AcDbEntity
8
1
62
256
6
ByLayer
370
18
48
1
60
0
100
AcDbLine
10
18.71473
20
1.375
30
0
11
18.71473
21
2.848855
31
0
39
0
210
0
220
0
230
1
0
LINE
5
D2
100
AcDbEntity
8
1
62
256
6
ByLayer
370
18
48
1
60
0
100
AcDbLine
10
18.71473
20
1.375
30
0
11
19.941932
21
1.375
31
0
39
0
210
0
220
0
230
1
0
LINE
5
D3
100
AcDbEntity
8
1
62
256
6
ByLayer
370
18
48
1
60
0
100
AcDbLine
10
21.5
20
2.682374
30
0
11
19.941932
21
1.375
31
0
39
0
210
0
220
0
230
1
0
LINE
5
D4
100
AcDbEntity
8
1
62
256
6
ByLayer
370
18
48
1
60
0
100
AcDbLine
10
21.5
20
2.682374
30
0
11
21.5
21
11.439745
31
0
39
0
210
0
220
0
230
1
0
LINE
5
D5
100
AcDbEntity
8
1
62
256
6
ByLayer
370
18
48
1
60
0
100
AcDbLine
10
28.35
20
13.96093
30
0
11
28.35
21
11.662932
31
0
39
0
210
0
220
0
230
1
0
LINE
5
D6
100
AcDbEntity
8
1
62
256
6
ByLayer
370
18
48
1
60
0
100
AcDbLine
10
10.388566
20
13.375514
30
0
11
9.445832
21
13.375514
31
0
39
0
210
0
220
0
230
1
0
LINE
5
D7
100
AcDbEntity
8
1
62
256
6
ByLayer
370
18
48
1
60
0
100
AcDbLine
10
10.163081
20
0.675
30
0
11
9.371207
21
0.675
31
0
39
0
210
0
220
0
230
1
0
LINE
5
D8
100
AcDbEntity
8
1
62
256
6
ByLayer
370
18
48
1
60
0
100
AcDbLine
10
10.163081
20
0.675
30
0
11
10.163081
21
0.875
31
0
39
0
210
0
220
0
230
1
0
LINE
5
D9
100
AcDbEntity
8
1
62
256
6
ByLayer
370
18
48
1
60
0
100
AcDbLine
10
10.388566
20
13.375514
30
0
11
10.388566
21
1.357539
31
0
39
0
210
0
220
0
230
1
0
LINE
5
DA
100
AcDbEntity
8
1
62
256
6
ByLayer
370
13
48
1
60
0
100
AcDbLine
10
-9.395388
20
0.394519
30
0
11
-8.986697
21
0.394519
31
0
39
0
210
0
220
0
230
1
0
LINE
5
DB
100
AcDbEntity
8
1
62
256
6
ByLayer
370
18
48
1
60
0
100
AcDbLine
10
-6.326108
20
-0.324981
30
0
11
-1.735923
21
-0.324981
31
0
39
0
210
0
220
0
230
1
0
LINE
5
DC
100
AcDbEntity
8
1
62
256
6
ByLayer
370
18
48
1
60
0
100
AcDbLine
10
1.735923
20
-0.324981
30
0
11
6.326108
21
-0.324981
31
0
39
0
210
0
220
0
230
1
0
LINE
5
DD
100
AcDbEntity
8
1
62
256
6
ByLayer
370
13
48
1
60
0
100
AcDbLine
10
-6.222926
20
-0.249981
30
0
11
-3.020453
21
-0.249981
31
0
39
0
210
0
220
0
230
1
0
LINE
5
DE
100
AcDbEntity
8
1
62
256
6
ByLayer
370
13
48
1
60
0
100
AcDbLine
10
3.020453
20
-0.249981
30
0
11
6.222926
21
-0.249981
31
0
39
0
210
0
220
0
230
1
0
LINE
5
DF
100
AcDbEntity
8
1
62
256
6
ByLayer
370
13
48
1
60
0
100
AcDbLine
10
-6.943702
20
0.394519
30
0
11
-6.310523
21
0.394519
31
0
39
0
210
0
220
0
230
1
0
LINE
5
E0
100
AcDbEntity
8
1
62
256
6
ByLayer
370
13
48
1
60
0
100
AcDbLine
10
6.310523
20
0.394519
30
0
11
6.943702
21
0.394519
31
0
39
0
210
0
220
0
230
1
0
LINE
5
E1
100
AcDbEntity
8
1
62
256
6
ByLayer
370
13
48
1
60
0
100
AcDbLine
10
-1.912242
20
0.394519
30
0
11
1.912242
21
0.394519
31
0
39
0
210
0
220
0
230
1
0
LINE
5
E2
100
AcDbEntity
8
1
62
256
6
ByLayer
370
18
48
1
60
0
100
AcDbLine
10
-13.703327
20
-0.324981
30
0
11
-13.791289
21
-0.324981
31
0
39
0
210
0
220
0
230
1
0
LINE
5
E3
100
AcDbEntity
8
1
62
256
6
ByLayer
370
18
48
1
60
0
100
AcDbLine
10
-12.9317
20
-0.324981
30
0
11
-13.048064
21
-0.324981
31
0
39
0
210
0
220
0
230
1
0
LINE
5
E4
100
AcDbEntity
8
1
62
256
6
ByLayer
370
18
48
1
60
0
100
AcDbLine
10
-11.923781
20
-0.324981
30
0
11
-12.074944
21
-0.324981
31
0
39
0
210
0
220
0
230
1
0
LINE
5
E5
100
AcDbEntity
8
1
62
256
6
ByLayer
370
18
48
1
60
0
100
AcDbLine
10
-10.612458
20
-0.324981
30
0
11
-10.810022
21
-0.324981
31
0
39
0
210
0
220
0
230
1
0
LINE
5
E6
100
AcDbEntity
8
1
62
256
6
ByLayer
370
18
48
1
60
0
100
AcDbLine
10
-8.864082
20
-0.324981
30
0
11
-9.132847
21
-0.324981
31
0
39
0
210
0
220
0
230
1
0
LINE
5
E7
100
AcDbEntity
8
1
62
256
6
ByLayer
370
18
48
1
60
0
100
AcDbLine
10
-6.326108
20
-0.324981
30
0
11
-6.742492
21
-0.324981
31
0
39
0
210
0
220
0
230
1
0
LINE
5
E8
100
AcDbEntity
8
1
62
256
6
ByLayer
370
18
48
1
60
0
100
AcDbLine
10
1.735945
20
-0.324981
30
0
11
-1.735945
21
-0.324981
31
0
39
0
210
0
220
0
230
1
0
LINE
5
E9
100
AcDbEntity
8
1
62
256
6
ByLayer
370
18
48
1
60
0
100
AcDbLine
10
6.60065
20
-0.324981
30
0
11
6.326108
21
-0.324981
31
0
39
0
210
0
220
0
230
1
0
LINE
5
EA
100
AcDbEntity
8
1
62
256
6
ByLayer
370
18
48
1
60
0
100
AcDbLine
10
-15
20
0.675
30
0
11
-15
21
0.875
31
0
39
0
210
0
220
0
230
1
0
LINE
5
EB
100
AcDbEntity
8
1
62
256
6
ByLayer
370
18
48
1
60
0
100
AcDbLine
10
-15
20
0.675
30
0
11
7.937106
21
0.675
31
0
39
0
210
0
220
0
230
1
0
LINE
5
EC
100
AcDbEntity
8
1
62
256
6
ByLayer
370
18
48
1
60
0
100
AcDbLine
10
7.937106
20
0.675
30
0
11
9.371254
21
0.675
31
0
39
0
210
0
220
0
230
1
0
LINE
5
ED
100
AcDbEntity
8
1
62
256
6
ByLayer
370
18
48
1
60
0
100
AcDbLine
10
9.371254
20
0.875
30
0
11
9.371254
21
0.675
31
0
39
0
210
0
220
0
230
1
0
LINE
5
EE
100
AcDbEntity
8
1
62
256
6
ByLayer
370
18
48
1
60
0
100
AcDbLine
10
0
20
13.375514
30
0
11
-7.724486
21
13.375514
31
0
39
0
210
0
220
0
230
1
0
LINE
5
EF
100
AcDbEntity
8
1
62
256
6
ByLayer
370
18
48
1
60
0
100
AcDbLine
10
-7.724486
20
13.375514
30
0
11
-15
21
6.1
31
0
39
0
210
0
220
0
230
1
0
LINE
5
F0
100
AcDbEntity
8
1
62
256
6
ByLayer
370
18
48
1
60
0
100
AcDbLine
10
-15
20
6.1
30
0
11
-15
21
1.092945
31
0
39
0
210
0
220
0
230
1
0
LINE
5
F1
100
AcDbEntity
8
1
62
256
6
ByLayer
370
13
48
1
60
0
100
AcDbLine
10
0
20
13.375514
30
0
11
0
21
1.092945
31
0
39
0
210
0
220
0
230
1
0
LINE
5
F2
100
AcDbEntity
8
1
62
256
6
ByLayer
370
18
48
1
60
0
100
AcDbLine
10
6.461
20
1.375
30
0
11
3.827205
21
1.375
31
0
39
0
210
0
220
0
230
1
0
LINE
5
F3
100
AcDbEntity
8
1
62
256
6
ByLayer
370
18
48
1
60
0
100
AcDbLine
10
6.461
20
13.375514
30
0
11
0
21
13.375514
31
0
39
0
210
0
220
0
230
1
0
LINE
5
F4
100
AcDbEntity
8
1
62
256
6
ByLayer
370
13
48
1
60
0
100
AcDbLine
10
9.371254
20
0.875
30
0
11
-15
21
0.875
31
0
39
0
210
0
220
0
230
1
0
LINE
5
F5
100
AcDbEntity
8
1
62
256
6
ByLayer
370
18
48
1
60
0
100
AcDbLine
10
0
20
1.092945
30
0
11
-15
21
1.092945
31
0
39
0
210
0
220
0
230
1
0
LINE
5
F6
100
AcDbEntity
8
1
62
256
6
ByLayer
370
18
48
1
60
0
100
AcDbLine
10
6.461
20
13.375514
30
0
11
6.461
21
1.375
31
0
39
0
210
0
220
0
230
1
0
LINE
5
F7
100
AcDbEntity
8
1
62
256
6
ByLayer
370
18
48
1
60
0
100
AcDbLine
10
8.18325
20
1.375
30
0
11
6.461
21
1.375
31
0
39
0
210
0
220
0
230
1
0
LINE
5
F8
100
AcDbEntity
8
1
62
256
6
ByLayer
370
18
48
1
60
0
100
AcDbLine
10
9.445863
20
1.202402
30
0
11
9.445863
21
13.375514
31
0
39
0
210
0
220
0
230
1
0
LINE
5
F9
100
AcDbEntity
8
1
62
256
6
ByLayer
370
18
48
1
60
0
100
AcDbLine
10
9.445863
20
13.375514
30
0
11
6.461
21
13.375514
31
0
39
0
210
0
220
0
230
1
0
LINE
5
FA
100
AcDbEntity
8
1
62
256
6
ByLayer
370
18
48
1
60
0
100
AcDbLine
10
16
20
0.675
30
0
11
10.163081
21
0.675
31
0
39
0
210
0
220
0
230
1
0
LINE
5
FB
100
AcDbEntity
8
1
62
256
6
ByLayer
370
13
48
1
60
0
100
AcDbLine
10
16
20
0.875
30
0
11
10.163081
21
0.875
31
0
39
0
210
0
220
0
230
1
0
LINE
5
FC
100
AcDbEntity
8
1
62
256
6
ByLayer
370
18
48
1
60
0
100
AcDbLine
10
30.38269
20
20.744466
30
0
11
20.366086
21
20.744466
31
0
39
0
210
0
220
0
230
1
0
MTEXT
5
18F
100
AcDbEntity
8
SK6
62
256
6
ByLayer
370
18
48
1
60
0
100
AcDbMText
10
-20.7645
20
-46.345134
30
0
210
0
220
0
230
1
1
\W0.7805;C2A-SL32-LGG15B-054GB
40
3.5
41
0
44
1.084337
50
0
71
7
72
5
7
iso_b_vert
0
DIMENSION
5
194
100
AcDbEntity
8
2
62
256
6
ByLayer
370
18
48
1
60
0
100
AcDbDimension
2
_U0
10
38.1
20
-19.75
30
0
11
19.05
21
-19.75
31
0
70
32
71
1
72
1
41
1
210
0
220
0
230
1
3
Standard
100
AcDbAlignedDimension
13
0
23
0
33
0
14
38.1
24
14
34
0
50
0
100
AcDbRotatedDimension
1001
ACAD
1000
DSTYLE
1002
{
1070
   371
1070
    13
1070
   372
1070
    13
1070
   170
1070
     0
1070
   144
1040
1.0
1070
   277
1070
     2
1070
   284
1070
     8
1070
   278
1070
    46
1070
   146
1040
1.0
1070
   345
1005
16
1070
   347
1005
16
1070
   346
1005
16
1070
   344
1005
0
1070
   343
1005
0
1070
   172
1070
     1
1070
    76
1070
     0
1070
    75
1070
     0
1070
   282
1070
     0
1070
   281
1070
     0
1070
    71
1070
     0
1070
    74
1070
     0
1070
   279
1070
     0
1070
   173
1070
     1
1070
   340
1005
190
1070
   271
1070
     2
1070
   272
1070
     2
1070
    77
1070
     1
1070
    73
1070
     1
1070
   171
1070
     3
1070
   274
1070
     4
1070
   177
1070
     2
1070
   176
1070
     2
1070
   178
1070
     2
1070
    78
1070
     8
1070
    48
1040
-0.1
1070
    41
1040
3.5
1070
   147
1040
1.75
1070
    42
1040
1.5875
1070
    44
1040
2.0
1070
   140
1040
3.5
1002
}
1001
ACAD_DSTYLE_DIM_LINETYPE
1070
   380
1005
16
1001
ACAD_DSTYLE_DIM_EXT1_LINETYPE
1070
   381
1005
16
1001
ACAD_DSTYLE_DIM_EXT2_LINETYPE
1070
   382
1005
16
0
DIMENSION
5
1AE
100
AcDbEntity
8
2
62
256
6
ByLayer
370
18
48
1
60
0
100
AcDbDimension
2
_U1
10
38.1
20
-11.75
30
0
11
30.6
21
-11.75
31
0
70
32
71
1
72
1
41
1
210
0
220
0
230
1
3
Standard
100
AcDbAlignedDimension
13
23.1
23
11.325514
33
0
14
38.1
24
14
34
0
50
0
100
AcDbRotatedDimension
1001
ACAD
1000
DSTYLE
1002
{
1070
   371
1070
    13
1070
   372
1070
    13
1070
   170
1070
     0
1070
   144
1040
1.0
1070
   277
1070
     2
1070
   284
1070
     8
1070
   278
1070
    46
1070
   146
1040
1.0
1070
   345
1005
16
1070
   347
1005
16
1070
   346
1005
16
1070
   344
1005
0
1070
   343
1005
0
1070
   172
1070
     1
1070
    76
1070
     0
1070
    75
1070
     0
1070
   282
1070
     0
1070
   281
1070
     0
1070
    71
1070
     0
1070
    74
1070
     0
1070
   279
1070
     0
1070
   173
1070
     1
1070
   340
1005
190
1070
   271
1070
     2
1070
   272
1070
     2
1070
    77
1070
     1
1070
    73
1070
     1
1070
   171
1070
     3
1070
   274
1070
     4
1070
   177
1070
     2
1070
   176
1070
     2
1070
   178
1070
     2
1070
    78
1070
     8
1070
    48
1040
-0.1
1070
    41
1040
3.5
1070
   147
1040
1.75
1070
    42
1040
1.5875
1070
    44
1040
2.0
1070
   140
1040
3.5
1002
}
1001
ACAD_DSTYLE_DIM_LINETYPE
1070
   380
1005
16
1001
ACAD_DSTYLE_DIM_EXT1_LINETYPE
1070
   381
1005
16
1001
ACAD_DSTYLE_DIM_EXT2_LINETYPE
1070
   382
1005
16
0
DIMENSION
5
1C7
100
AcDbEntity
8
2
62
256
6
ByLayer
370
18
48
1
60
0
100
AcDbDimension
2
_U2
10
62.85
20
0
30
0
11
62.85
21
7
31
0
70
32
71
1
72
1
41
1
210
0
220
0
230
1
3
Standard
100
AcDbAlignedDimension
13
38.1
23
14
33
0
14
0
24
0
34
0
50
90
100
AcDbRotatedDimension
1001
ACAD
1000
DSTYLE
1002
{
1070
   371
1070
    13
1070
   372
1070
    13
1070
   170
1070
     0
1070
   144
1040
1.0
1070
   277
1070
     2
1070
   284
1070
     8
1070
   278
1070
    46
1070
   146
1040
1.0
1070
   345
1005
16
1070
   347
1005
16
1070
   346
1005
16
1070
   344
1005
0
1070
   343
1005
0
1070
   172
1070
     1
1070
    76
1070
     0
1070
    75
1070
     0
1070
   282
1070
     0
1070
   281
1070
     0
1070
    71
1070
     0
1070
    74
1070
     0
1070
   279
1070
     0
1070
   173
1070
     1
1070
   340
1005
190
1070
   271
1070
     2
1070
   272
1070
     2
1070
    77
1070
     1
1070
    73
1070
     0
1070
   171
1070
     3
1070
   274
1070
     4
1070
   177
1070
     2
1070
   176
1070
     2
1070
   178
1070
     2
1070
    78
1070
     8
1070
    48
1040
-0.1
1070
    41
1040
3.5
1070
   147
1040
1.75
1070
    42
1040
1.5875
1070
    44
1040
2.0
1070
   140
1040
3.5
1002
}
1001
ACAD_DSTYLE_DIM_LINETYPE
1070
   380
1005
16
1001
ACAD_DSTYLE_DIM_EXT1_LINETYPE
1070
   381
1005
16
1001
ACAD_DSTYLE_DIM_EXT2_LINETYPE
1070
   382
1005
16
0
DIMENSION
5
1E0
100
AcDbEntity
8
2
62
256
6
ByLayer
370
18
48
1
60
0
100
AcDbDimension
2
_U3
10
49.85
20
11
30
0
11
49.85
21
12.5
31
0
70
32
71
1
72
1
41
1
210
0
220
0
230
1
3
Standard
100
AcDbAlignedDimension
13
38.1
23
14
33
0
14
38.1
24
11
34
0
50
90
100
AcDbRotatedDimension
1001
ACAD
1000
DSTYLE
1002
{
1070
   371
1070
    13
1070
   372
1070
    13
1070
   170
1070
     0
1070
   144
1040
1.0
1070
   277
1070
     2
1070
   284
1070
     8
1070
   278
1070
    46
1070
   146
1040
1.0
1070
   345
1005
16
1070
   347
1005
16
1070
   346
1005
16
1070
   344
1005
0
1070
   343
1005
0
1070
   172
1070
     1
1070
    76
1070
     0
1070
    75
1070
     0
1070
   282
1070
     0
1070
   281
1070
     0
1070
    71
1070
     0
1070
    74
1070
     0
1070
   279
1070
     0
1070
   173
1070
     1
1070
   340
1005
190
1070
   271
1070
     2
1070
   272
1070
     2
1070
    77
1070
     1
1070
    73
1070
     0
1070
   171
1070
     3
1070
   274
1070
     4
1070
   177
1070
     2
1070
   176
1070
     2
1070
   178
1070
     2
1070
    78
1070
     8
1070
    48
1040
-0.1
1070
    41
1040
3.5
1070
   147
1040
1.75
1070
    42
1040
1.5875
1070
    44
1040
2.0
1070
   140
1040
3.5
1002
}
1001
ACAD_DSTYLE_DIM_LINETYPE
1070
   380
1005
16
1001
ACAD_DSTYLE_DIM_EXT1_LINETYPE
1070
   381
1005
16
1001
ACAD_DSTYLE_DIM_EXT2_LINETYPE
1070
   382
1005
16
0
ENDSEC
0
SECTION
2
OBJECTS
0
DICTIONARY
5
266
330
0
100
AcDbDictionary
280
0
281
1
3
ACAD_GROUP
350
267
3
ACAD_MLINESTYLE
350
268
0
DICTIONARY
5
267
330
0
100
AcDbDictionary
280
0
281
1
0
DICTIONARY
5
268
330
0
100
AcDbDictionary
280
0
281
1
3
Standard
350
18
0
MLINESTYLE
5
18
330
268
100
AcDbMlineStyle
2
Standard
70
0
3

62
256
51
90
52
90
71
2
49
-0.5
62
256
6
ByLayer
49
0.5
62
256
6
ByLayer
0
RASTERVARIABLES
5
257
330

100
AcDbRasterVariables
90
0
70
1
71
1
72
1
0
ENDSEC
0
EOF
