0
SECTION
2
HEADER
9
$ACADVER
1
AC1015
9
$DWGCODEPAGE
3
ANSI_1252
9
$HANDSEED
5
277
9
$ANGBASE
50
0
9
$ANGDIR
70
0
9
$ATTMODE
70
1
9
$AUNITS
70
0
9
$AUPREC
70
0
9
$CECOLOR
62
256
9
$CELTSCALE
40
1
9
$CELTYPE
6
ByLayer
9
$CELWEIGHT
370
18
9
$CLAYER
8
0
9
$CMLJUST
70
0
9
$CMLSCALE
40
1
9
$CMLSTYLE
2
Standard
9
$DIMSTYLE
2
Standard
9
$TEXTSIZE
40
0.2
9
$TEXTSTYLE
7
Standard
9
$LUNITS
70
2
9
$LUPREC
70
4
9
$EXTNAMES
290
1
9
$INSUNITS
70
4
9
$LTSCALE
40
1
9
$LWDISPLAY
290
1
9
$PDMODE
70
0
9
$PDSIZE
40
0
9
$PLINEGEN
70
0
0
ENDSEC
0
SECTION
2
CLASSES
0
CLASS
1
RASTERVARIABLES
2
AcDbRasterVariables
3
ISM
90
0
280
0
281
0
0
ENDSEC
0
SECTION
2
TABLES
0
TABLE
2
VPORT
5
26d
100
AcDbSymbolTable
0
VPORT
5
1
100
AcDbSymbolTableRecord
100
AcDbViewportTableRecord
2
*Active
70
0
10
0
20
0
11
1
21
1
12
-1
22
1
13
0
23
0
14
0.5
24
0.5
15
10
25
10
16
0
26
0
36
1
17
0
27
0
37
0
0
ENDTAB
0
TABLE
2
LTYPE
5
26e
100
AcDbSymbolTable
0
LTYPE
5
14
100
AcDbSymbolTableRecord
100
AcDbLinetypeTableRecord
70
0
2
ByBlock
3

72
65
73
0
40
0
0
LTYPE
5
15
100
AcDbSymbolTableRecord
100
AcDbLinetypeTableRecord
70
0
2
ByLayer
3

72
65
73
0
40
0
0
LTYPE
5
16
100
AcDbSymbolTableRecord
100
AcDbLinetypeTableRecord
70
0
2
Continuous
3
Solid line
72
65
73
0
40
0
0
LTYPE
5
6E
100
AcDbSymbolTableRecord
100
AcDbLinetypeTableRecord
70
0
2
CENTER
3
____ _ ____ _ ____ _ ____
72
65
73
4
40
47.5
49
22
74
0
49
-8.5
74
0
49
8.5
74
0
49
-8.5
74
0
0
LTYPE
5
6F
100
AcDbSymbolTableRecord
100
AcDbLinetypeTableRecord
70
0
2
DASHED
3
__ __ __ __ __ __ __ __ __
72
65
73
2
40
25.72
49
12.86
74
0
49
-12.86
74
0
0
ENDTAB
0
TABLE
2
LAYER
5
26f
100
AcDbSymbolTable
0
LAYER
5
10
100
AcDbSymbolTableRecord
100
AcDbLayerTableRecord
2
0
70
0
62
7
6
Continuous
290
1
370
-3
390
0
0
LAYER
5
71
100
AcDbSymbolTableRecord
100
AcDbLayerTableRecord
2
81
70
0
62
-3
6
Continuous
290
1
370
-3
390
0
0
LAYER
5
73
100
AcDbSymbolTableRecord
100
AcDbLayerTableRecord
2
80
70
0
62
-6
6
Continuous
290
1
370
-3
390
0
0
LAYER
5
75
100
AcDbSymbolTableRecord
100
AcDbLayerTableRecord
2
1
70
0
62
4
6
Continuous
290
1
370
-3
390
0
0
LAYER
5
19B
100
AcDbSymbolTableRecord
100
AcDbLayerTableRecord
2
Defpoints
70
0
62
7
6
Continuous
290
0
370
-3
390
0
0
LAYER
5
1A8
100
AcDbSymbolTableRecord
100
AcDbLayerTableRecord
2
2
70
0
62
7
6
Continuous
290
1
370
-3
390
0
0
LAYER
5
25c
100
AcDbSymbolTableRecord
100
AcDbLayerTableRecord
2
SK6
70
0
62
5
6
Continuous
290
1
370
-3
390
0
0
ENDTAB
0
TABLE
2
STYLE
5
270
100
AcDbSymbolTable
0
STYLE
5
11
100
AcDbSymbolTableRecord
100
AcDbTextStyleTableRecord
2
Standard
3
txt
70
0
71
0
40
0
41
1
42
0
50
0
0
STYLE
5
194
100
AcDbSymbolTableRecord
100
AcDbTextStyleTableRecord
2
iso_b_vert
3
simplex.shx
70
0
71
0
40
0
41
1
42
0
50
0
0
STYLE
5
195
100
AcDbSymbolTableRecord
100
AcDbTextStyleTableRecord
2
DWGDirectTextStyle
3
simplex
70
0
71
0
40
0
41
1
42
0
50
0
0
ENDTAB
0
TABLE
2
DIMSTYLE
5
271
100
AcDbSymbolTable
100
AcDbDimStyleTable
0
DIMSTYLE
105
27
100
AcDbSymbolTableRecord
100
AcDbDimStyleTableRecord
2
Standard
70
0
3
<>
41
0.18
42
0.0625
44
0.18
140
0.18
147
0.09
73
0
74
0
77
1
271
2
275
0
278
52
280
0
340
11
0
ENDTAB
0
TABLE
2
VIEW
5
272
100
AcDbSymbolTable
0
ENDTAB
0
TABLE
2
UCS
5
273
100
AcDbSymbolTable
0
ENDTAB
0
TABLE
2
APPID
5
274
100
AcDbSymbolTable
0
APPID
5
12
100
AcDbSymbolTableRecord
100
AcDbRegAppTableRecord
2
ACAD
70
0
0
APPID
5
197
100
AcDbSymbolTableRecord
100
AcDbRegAppTableRecord
2
ACAD_DSTYLE_DIMBREAK
70
0
0
APPID
5
21B
100
AcDbSymbolTableRecord
100
AcDbRegAppTableRecord
2
ACAD_DSTYLE_DIM_LINETYPE
70
0
0
APPID
5
21C
100
AcDbSymbolTableRecord
100
AcDbRegAppTableRecord
2
ACAD_DSTYLE_DIM_EXT1_LINETYPE
70
0
0
APPID
5
21D
100
AcDbSymbolTableRecord
100
AcDbRegAppTableRecord
2
ACAD_DSTYLE_DIM_EXT2_LINETYPE
70
0
0
APPID
5
258
100
AcDbSymbolTableRecord
100
AcDbRegAppTableRecord
2
ACAD_MLEADERVER
70
0
0
ENDTAB
0
TABLE
2
BLOCK_RECORD
5
275
100
AcDbSymbolTable
0
BLOCK_RECORD
5
1F
100
AcDbSymbolTableRecord
100
AcDbBlockTableRecord
2
*Model_Space
340
0
70
0
0
BLOCK_RECORD
5
1B
100
AcDbSymbolTableRecord
100
AcDbBlockTableRecord
2
*Paper_Space
340
0
70
0
0
BLOCK_RECORD
5
23
100
AcDbSymbolTableRecord
100
AcDbBlockTableRecord
2
*Paper_Space0
340
0
70
0
0
BLOCK_RECORD
5
19C
100
AcDbSymbolTableRecord
100
AcDbBlockTableRecord
2
*D1
340
0
70
0
0
BLOCK_RECORD
5
1A9
100
AcDbSymbolTableRecord
100
AcDbBlockTableRecord
2
_U0
340
0
70
0
0
BLOCK_RECORD
5
1B5
100
AcDbSymbolTableRecord
100
AcDbBlockTableRecord
2
*D3
340
0
70
0
0
BLOCK_RECORD
5
1C2
100
AcDbSymbolTableRecord
100
AcDbBlockTableRecord
2
_U1
340
0
70
0
0
BLOCK_RECORD
5
1CE
100
AcDbSymbolTableRecord
100
AcDbBlockTableRecord
2
*D5
340
0
70
0
0
BLOCK_RECORD
5
1DB
100
AcDbSymbolTableRecord
100
AcDbBlockTableRecord
2
_U2
340
0
70
0
0
BLOCK_RECORD
5
1E7
100
AcDbSymbolTableRecord
100
AcDbBlockTableRecord
2
*D7
340
0
70
0
0
BLOCK_RECORD
5
1F4
100
AcDbSymbolTableRecord
100
AcDbBlockTableRecord
2
_U3
340
0
70
0
0
ENDTAB
0
ENDSEC
0
SECTION
2
BLOCKS
0
BLOCK
5
20
100
AcDbEntity
8
0
100
AcDbBlockBegin
2
*Model_Space
70
0
10
0
20
0
30
0
3
*Model_Space
0
ENDBLK
5
21
100
AcDbEntity
8
0
100
AcDbBlockEnd
0
BLOCK
5
1C
100
AcDbEntity
8
0
100
AcDbBlockBegin
2
*Paper_Space
70
0
10
0
20
0
30
0
3
*Paper_Space
0
ENDBLK
5
1D
100
AcDbEntity
8
0
100
AcDbBlockEnd
0
BLOCK
5
24
100
AcDbEntity
8
0
100
AcDbBlockBegin
2
*Paper_Space0
70
0
10
0
20
0
30
0
3
*Paper_Space0
0
ENDBLK
5
25
100
AcDbEntity
8
0
100
AcDbBlockEnd
0
BLOCK
5
19D
100
AcDbEntity
8
0
100
AcDbBlockBegin
2
*D1
70
1
10
0
20
0
30
0
3
*D1
0
LINE
5
19F
100
AcDbEntity
8
0
62
256
6
ByLayer
370
-2
48
1
60
0
100
AcDbLine
10
0
20
-1.5875
30
0
11
0
21
-21.75
31
0
39
0
210
0
220
0
230
1
0
LINE
5
1A0
100
AcDbEntity
8
0
62
256
6
ByLayer
370
-2
48
1
60
0
100
AcDbLine
10
34.35
20
12.4125
30
0
11
34.35
21
-21.75
31
0
39
0
210
0
220
0
230
1
0
LINE
5
1A1
100
AcDbEntity
8
0
62
256
6
ByLayer
370
-2
48
1
60
0
100
AcDbLine
10
3.5
20
-19.75
30
0
11
30.85
21
-19.75
31
0
39
0
210
0
220
0
230
1
0
SOLID
5
1A2
100
AcDbEntity
8
0
62
256
6
ByLayer
370
-1
48
1
60
0
100
AcDbTrace
10
3.5
20
-19.166667
30
0
11
3.5
21
-20.333333
31
0
12
0
22
-19.75
32
0
13
0
23
-19.75
33
0
39
0
210
0
220
0
230
1
0
SOLID
5
1A3
100
AcDbEntity
8
0
62
256
6
ByLayer
370
-1
48
1
60
0
100
AcDbTrace
10
30.85
20
-20.333333
30
0
11
30.85
21
-19.166667
31
0
12
34.35
22
-19.75
32
0
13
34.35
23
-19.75
33
0
39
0
210
0
220
0
230
1
0
MTEXT
5
1A4
100
AcDbEntity
8
0
62
256
6
ByLayer
370
18
48
1
60
0
100
AcDbMText
10
17.175
20
-12.75
30
0
210
0
220
0
230
1
1
\A1;34.35
40
3.5
41
0
44
1
50
0
71
5
72
5
7
iso_b_vert
0
POINT
5
1A5
100
AcDbEntity
8
Defpoints
62
0
6
ByLayer
370
-1
48
1
60
0
100
AcDbPoint
10
0
20
0
30
0
39
0
210
0
220
0
230
1
50
360
0
POINT
5
1A6
100
AcDbEntity
8
Defpoints
62
0
6
ByLayer
370
-1
48
1
60
0
100
AcDbPoint
10
34.35
20
14
30
0
39
0
210
0
220
0
230
1
50
360
0
POINT
5
1A7
100
AcDbEntity
8
Defpoints
62
0
6
ByLayer
370
-1
48
1
60
0
100
AcDbPoint
10
34.35
20
-19.75
30
0
39
0
210
0
220
0
230
1
50
360
0
ENDBLK
5
19E
100
AcDbEntity
8
0
100
AcDbBlockEnd
0
BLOCK
5
1B0
100
AcDbEntity
8
0
100
AcDbBlockBegin
2
_U0
70
0
10
0
20
0
30
0
3
_U0
0
MTEXT
5
1AA
100
AcDbEntity
8
2
62
256
6
ByLayer
370
18
48
1
60
0
100
AcDbMText
10
11.761301
20
-18.717366
30
0
210
0
220
0
230
1
1
\W0.7694;34.35
40
3.5
41
0
44
1.084337
50
0
71
7
72
5
7
iso_b_vert
0
LINE
5
1AB
100
AcDbEntity
8
2
62
256
6
ByLayer
370
13
48
1
60
0
100
AcDbLine
10
0
20
-1.5875
30
0
11
0
21
-21.75
31
0
39
0
210
0
220
0
230
1
0
LINE
5
1AC
100
AcDbEntity
8
2
62
256
6
ByLayer
370
13
48
1
60
0
100
AcDbLine
10
34.35
20
12.4125
30
0
11
34.35
21
-21.75
31
0
39
0
210
0
220
0
230
1
0
LINE
5
1AD
100
AcDbEntity
8
2
62
256
6
ByLayer
370
13
48
1
60
0
100
AcDbLine
10
0
20
-19.75
30
0
11
34.35
21
-19.75
31
0
39
0
210
0
220
0
230
1
0
SOLID
5
1AE
100
AcDbEntity
8
2
62
256
6
ByLayer
370
18
48
1
60
0
100
AcDbTrace
10
0
20
-19.75
30
0
11
3.499998
21
-19.289216
31
0
12
3.500002
22
-20.210784
32
0
13
3.500002
23
-20.210784
33
0
39
0
210
0
220
0
230
1
0
SOLID
5
1AF
100
AcDbEntity
8
2
62
256
6
ByLayer
370
18
48
1
60
0
100
AcDbTrace
10
34.35
20
-19.75
30
0
11
30.850002
21
-20.210784
31
0
12
30.849998
22
-19.289216
32
0
13
30.849998
23
-19.289216
33
0
39
0
210
0
220
0
230
1
0
ENDBLK
5
1B1
100
AcDbEntity
8
0
100
AcDbBlockEnd
0
BLOCK
5
1B6
100
AcDbEntity
8
0
100
AcDbBlockBegin
2
*D3
70
1
10
0
20
0
30
0
3
*D3
0
LINE
5
1B8
100
AcDbEntity
8
0
62
256
6
ByLayer
370
-2
48
1
60
0
100
AcDbLine
10
22.35
20
10.163992
30
0
11
22.35
21
-13.75
31
0
39
0
210
0
220
0
230
1
0
LINE
5
1B9
100
AcDbEntity
8
0
62
256
6
ByLayer
370
-2
48
1
60
0
100
AcDbLine
10
34.35
20
12.4125
30
0
11
34.35
21
-13.75
31
0
39
0
210
0
220
0
230
1
0
LINE
5
1BA
100
AcDbEntity
8
0
62
256
6
ByLayer
370
-2
48
1
60
0
100
AcDbLine
10
18.85
20
-11.75
30
0
11
15.35
21
-11.75
31
0
39
0
210
0
220
0
230
1
0
LINE
5
1BB
100
AcDbEntity
8
0
62
256
6
ByLayer
370
-2
48
1
60
0
100
AcDbLine
10
37.85
20
-11.75
30
0
11
41.35
21
-11.75
31
0
39
0
210
0
220
0
230
1
0
SOLID
5
1BC
100
AcDbEntity
8
0
62
256
6
ByLayer
370
-1
48
1
60
0
100
AcDbTrace
10
18.85
20
-12.333333
30
0
11
18.85
21
-11.166667
31
0
12
22.35
22
-11.75
32
0
13
22.35
23
-11.75
33
0
39
0
210
0
220
0
230
1
0
SOLID
5
1BD
100
AcDbEntity
8
0
62
256
6
ByLayer
370
-1
48
1
60
0
100
AcDbTrace
10
37.85
20
-11.166667
30
0
11
37.85
21
-12.333333
31
0
12
34.35
22
-11.75
32
0
13
34.35
23
-11.75
33
0
39
0
210
0
220
0
230
1
0
MTEXT
5
1BE
100
AcDbEntity
8
0
62
256
6
ByLayer
370
18
48
1
60
0
100
AcDbMText
10
28.35
20
-4.75
30
0
210
0
220
0
230
1
1
\A1;12
40
3.5
41
0
44
1
50
0
71
5
72
5
7
iso_b_vert
0
POINT
5
1BF
100
AcDbEntity
8
Defpoints
62
0
6
ByLayer
370
-1
48
1
60
0
100
AcDbPoint
10
22.35
20
11.751492
30
0
39
0
210
0
220
0
230
1
50
360
0
POINT
5
1C0
100
AcDbEntity
8
Defpoints
62
0
6
ByLayer
370
-1
48
1
60
0
100
AcDbPoint
10
34.35
20
14
30
0
39
0
210
0
220
0
230
1
50
360
0
POINT
5
1C1
100
AcDbEntity
8
Defpoints
62
0
6
ByLayer
370
-1
48
1
60
0
100
AcDbPoint
10
34.35
20
-11.75
30
0
39
0
210
0
220
0
230
1
50
360
0
ENDBLK
5
1B7
100
AcDbEntity
8
0
100
AcDbBlockEnd
0
BLOCK
5
1C9
100
AcDbEntity
8
0
100
AcDbBlockBegin
2
_U1
70
0
10
0
20
0
30
0
3
_U1
0
MTEXT
5
1C3
100
AcDbEntity
8
2
62
256
6
ByLayer
370
18
48
1
60
0
100
AcDbMText
10
26.882467
20
-10.717366
30
0
210
0
220
0
230
1
1
\W0.5321;12
40
3.5
41
0
44
1.084337
50
0
71
7
72
5
7
iso_b_vert
0
LINE
5
1C4
100
AcDbEntity
8
2
62
256
6
ByLayer
370
13
48
1
60
0
100
AcDbLine
10
22.35
20
10.163992
30
0
11
22.35
21
-13.75
31
0
39
0
210
0
220
0
230
1
0
LINE
5
1C5
100
AcDbEntity
8
2
62
256
6
ByLayer
370
13
48
1
60
0
100
AcDbLine
10
34.35
20
12.4125
30
0
11
34.35
21
-13.75
31
0
39
0
210
0
220
0
230
1
0
LINE
5
1C6
100
AcDbEntity
8
2
62
256
6
ByLayer
370
13
48
1
60
0
100
AcDbLine
10
22.35
20
-11.75
30
0
11
34.35
21
-11.75
31
0
39
0
210
0
220
0
230
1
0
SOLID
5
1C7
100
AcDbEntity
8
2
62
256
6
ByLayer
370
18
48
1
60
0
100
AcDbTrace
10
22.35
20
-11.75
30
0
11
25.849998
21
-11.289216
31
0
12
25.850002
22
-12.210784
32
0
13
25.850002
23
-12.210784
33
0
39
0
210
0
220
0
230
1
0
SOLID
5
1C8
100
AcDbEntity
8
2
62
256
6
ByLayer
370
18
48
1
60
0
100
AcDbTrace
10
34.35
20
-11.75
30
0
11
30.850002
21
-12.210784
31
0
12
30.849998
22
-11.289216
32
0
13
30.849998
23
-11.289216
33
0
39
0
210
0
220
0
230
1
0
ENDBLK
5
1CA
100
AcDbEntity
8
0
100
AcDbBlockEnd
0
BLOCK
5
1CF
100
AcDbEntity
8
0
100
AcDbBlockBegin
2
*D5
70
1
10
0
20
0
30
0
3
*D5
0
LINE
5
1D1
100
AcDbEntity
8
0
62
256
6
ByLayer
370
-2
48
1
60
0
100
AcDbLine
10
35.9375
20
14
30
0
11
61.1
21
14
31
0
39
0
210
0
220
0
230
1
0
LINE
5
1D2
100
AcDbEntity
8
0
62
256
6
ByLayer
370
-2
48
1
60
0
100
AcDbLine
10
1.5875
20
0
30
0
11
61.1
21
0
31
0
39
0
210
0
220
0
230
1
0
LINE
5
1D3
100
AcDbEntity
8
0
62
256
6
ByLayer
370
-2
48
1
60
0
100
AcDbLine
10
59.1
20
17.5
30
0
11
59.1
21
21
31
0
39
0
210
0
220
0
230
1
0
LINE
5
1D4
100
AcDbEntity
8
0
62
256
6
ByLayer
370
-2
48
1
60
0
100
AcDbLine
10
59.1
20
-3.5
30
0
11
59.1
21
-7
31
0
39
0
210
0
220
0
230
1
0
SOLID
5
1D5
100
AcDbEntity
8
0
62
256
6
ByLayer
370
-1
48
1
60
0
100
AcDbTrace
10
58.516667
20
17.5
30
0
11
59.683333
21
17.5
31
0
12
59.1
22
14
32
0
13
59.1
23
14
33
0
39
0
210
0
220
0
230
1
0
SOLID
5
1D6
100
AcDbEntity
8
0
62
256
6
ByLayer
370
-1
48
1
60
0
100
AcDbTrace
10
59.683333
20
-3.5
30
0
11
58.516667
21
-3.5
31
0
12
59.1
22
0
32
0
13
59.1
23
0
33
0
39
0
210
0
220
0
230
1
0
MTEXT
5
1D7
100
AcDbEntity
8
0
62
256
6
ByLayer
370
18
48
1
60
0
100
AcDbMText
10
52.1
20
7
30
0
210
0
220
0
230
1
1
\A1;14
40
3.5
41
0
44
1
50
90
71
5
72
5
7
iso_b_vert
0
POINT
5
1D8
100
AcDbEntity
8
Defpoints
62
0
6
ByLayer
370
-1
48
1
60
0
100
AcDbPoint
10
34.35
20
14
30
0
39
0
210
0
220
0
230
1
50
360
0
POINT
5
1D9
100
AcDbEntity
8
Defpoints
62
0
6
ByLayer
370
-1
48
1
60
0
100
AcDbPoint
10
0
20
0
30
0
39
0
210
0
220
0
230
1
50
360
0
POINT
5
1DA
100
AcDbEntity
8
Defpoints
62
0
6
ByLayer
370
-1
48
1
60
0
100
AcDbPoint
10
59.1
20
0
30
0
39
0
210
0
220
0
230
1
50
360
0
ENDBLK
5
1D0
100
AcDbEntity
8
0
100
AcDbBlockEnd
0
BLOCK
5
1E2
100
AcDbEntity
8
0
100
AcDbBlockBegin
2
_U2
70
0
10
0
20
0
30
0
3
_U2
0
MTEXT
5
1DC
100
AcDbEntity
8
2
62
256
6
ByLayer
370
18
48
1
60
0
100
AcDbMText
10
58.410366
20
5.3202
30
0
210
0
220
0
230
1
1
\W0.5785;14
40
3.5
41
0
44
1.084337
50
90
71
7
72
5
7
iso_b_vert
0
LINE
5
1DD
100
AcDbEntity
8
2
62
256
6
ByLayer
370
13
48
1
60
0
100
AcDbLine
10
35.9375
20
14
30
0
11
61.1
21
14
31
0
39
0
210
0
220
0
230
1
0
LINE
5
1DE
100
AcDbEntity
8
2
62
256
6
ByLayer
370
13
48
1
60
0
100
AcDbLine
10
1.5875
20
0
30
0
11
61.1
21
0
31
0
39
0
210
0
220
0
230
1
0
LINE
5
1DF
100
AcDbEntity
8
2
62
256
6
ByLayer
370
13
48
1
60
0
100
AcDbLine
10
59.1
20
14
30
0
11
59.1
21
0
31
0
39
0
210
0
220
0
230
1
0
SOLID
5
1E0
100
AcDbEntity
8
2
62
256
6
ByLayer
370
18
48
1
60
0
100
AcDbTrace
10
59.1
20
14
30
0
11
59.560784
21
10.500002
31
0
12
58.639216
22
10.499998
32
0
13
58.639216
23
10.499998
33
0
39
0
210
0
220
0
230
1
0
SOLID
5
1E1
100
AcDbEntity
8
2
62
256
6
ByLayer
370
18
48
1
60
0
100
AcDbTrace
10
59.1
20
0
30
0
11
58.639216
21
3.499998
31
0
12
59.560784
22
3.500002
32
0
13
59.560784
23
3.500002
33
0
39
0
210
0
220
0
230
1
0
ENDBLK
5
1E3
100
AcDbEntity
8
0
100
AcDbBlockEnd
0
BLOCK
5
1E8
100
AcDbEntity
8
0
100
AcDbBlockBegin
2
*D7
70
1
10
0
20
0
30
0
3
*D7
0
LINE
5
1EA
100
AcDbEntity
8
0
62
256
6
ByLayer
370
-2
48
1
60
0
100
AcDbLine
10
35.9375
20
14
30
0
11
48.1
21
14
31
0
39
0
210
0
220
0
230
1
0
LINE
5
1EB
100
AcDbEntity
8
0
62
256
6
ByLayer
370
-2
48
1
60
0
100
AcDbLine
10
35.9375
20
11.5
30
0
11
48.1
21
11.5
31
0
39
0
210
0
220
0
230
1
0
LINE
5
1EC
100
AcDbEntity
8
0
62
256
6
ByLayer
370
-2
48
1
60
0
100
AcDbLine
10
46.1
20
17.5
30
0
11
46.1
21
21
31
0
39
0
210
0
220
0
230
1
0
LINE
5
1ED
100
AcDbEntity
8
0
62
256
6
ByLayer
370
-2
48
1
60
0
100
AcDbLine
10
46.1
20
8
30
0
11
46.1
21
4.5
31
0
39
0
210
0
220
0
230
1
0
SOLID
5
1EE
100
AcDbEntity
8
0
62
256
6
ByLayer
370
-1
48
1
60
0
100
AcDbTrace
10
45.516667
20
17.5
30
0
11
46.683333
21
17.5
31
0
12
46.1
22
14
32
0
13
46.1
23
14
33
0
39
0
210
0
220
0
230
1
0
SOLID
5
1EF
100
AcDbEntity
8
0
62
256
6
ByLayer
370
-1
48
1
60
0
100
AcDbTrace
10
46.683333
20
8
30
0
11
45.516667
21
8
31
0
12
46.1
22
11.5
32
0
13
46.1
23
11.5
33
0
39
0
210
0
220
0
230
1
0
MTEXT
5
1F0
100
AcDbEntity
8
0
62
256
6
ByLayer
370
18
48
1
60
0
100
AcDbMText
10
39.1
20
12.75
30
0
210
0
220
0
230
1
1
\A1;2.5
40
3.5
41
0
44
1
50
90
71
5
72
5
7
iso_b_vert
0
POINT
5
1F1
100
AcDbEntity
8
Defpoints
62
0
6
ByLayer
370
-1
48
1
60
0
100
AcDbPoint
10
34.35
20
14
30
0
39
0
210
0
220
0
230
1
50
360
0
POINT
5
1F2
100
AcDbEntity
8
Defpoints
62
0
6
ByLayer
370
-1
48
1
60
0
100
AcDbPoint
10
34.35
20
11.5
30
0
39
0
210
0
220
0
230
1
50
360
0
POINT
5
1F3
100
AcDbEntity
8
Defpoints
62
0
6
ByLayer
370
-1
48
1
60
0
100
AcDbPoint
10
46.1
20
11.5
30
0
39
0
210
0
220
0
230
1
50
360
0
ENDBLK
5
1E9
100
AcDbEntity
8
0
100
AcDbBlockEnd
0
BLOCK
5
1FB
100
AcDbEntity
8
0
100
AcDbBlockBegin
2
_U3
70
0
10
0
20
0
30
0
3
_U3
0
MTEXT
5
1F5
100
AcDbEntity
8
2
62
256
6
ByLayer
370
18
48
1
60
0
100
AcDbMText
10
45.410366
20
10.108034
30
0
210
0
220
0
230
1
1
\W0.7121;2.5
40
3.5
41
0
44
1.084337
50
90
71
7
72
5
7
iso_b_vert
0
LINE
5
1F6
100
AcDbEntity
8
2
62
256
6
ByLayer
370
13
48
1
60
0
100
AcDbLine
10
35.9375
20
14
30
0
11
48.1
21
14
31
0
39
0
210
0
220
0
230
1
0
LINE
5
1F7
100
AcDbEntity
8
2
62
256
6
ByLayer
370
13
48
1
60
0
100
AcDbLine
10
35.9375
20
11.5
30
0
11
48.1
21
11.5
31
0
39
0
210
0
220
0
230
1
0
LINE
5
1F8
100
AcDbEntity
8
2
62
256
6
ByLayer
370
13
48
1
60
0
100
AcDbLine
10
46.1
20
22.75
30
0
11
46.1
21
2.75
31
0
39
0
210
0
220
0
230
1
0
SOLID
5
1F9
100
AcDbEntity
8
2
62
256
6
ByLayer
370
18
48
1
60
0
100
AcDbTrace
10
46.1
20
14
30
0
11
45.639216
21
17.499998
31
0
12
46.560784
22
17.500002
32
0
13
46.560784
23
17.500002
33
0
39
0
210
0
220
0
230
1
0
SOLID
5
1FA
100
AcDbEntity
8
2
62
256
6
ByLayer
370
18
48
1
60
0
100
AcDbTrace
10
46.1
20
11.5
30
0
11
46.560784
21
8.000002
31
0
12
45.639216
22
7.999998
32
0
13
45.639216
23
7.999998
33
0
39
0
210
0
220
0
230
1
0
ENDBLK
5
1FC
100
AcDbEntity
8
0
100
AcDbBlockEnd
0
ENDSEC
0
SECTION
2
ENTITIES
0
ARC
5
FD
100
AcDbEntity
8
1
62
256
6
ByLayer
370
18
48
1
60
0
100
AcDbCircle
39
0
10
16.5
20
0.875
30
0
40
0.5
210
0
220
0
230
1
100
AcDbArc
50
90
51
180
0
ARC
5
FE
100
AcDbEntity
8
1
62
256
6
ByLayer
370
18
48
1
60
0
100
AcDbCircle
39
0
10
22.35
20
10.151492
30
0
40
1.6
210
0
220
0
230
1
100
AcDbArc
50
158.193708
51
174.159718
0
ARC
5
FF
100
AcDbEntity
8
1
62
256
6
ByLayer
370
18
48
1
60
0
100
AcDbCircle
39
0
10
16
20
6.000896
30
0
40
1.416
210
0
220
0
230
1
100
AcDbArc
50
186.192438
51
240.190711
0
ARC
5
100
100
AcDbEntity
8
1
62
256
6
ByLayer
370
18
48
1
60
0
100
AcDbCircle
39
0
10
16
20
6.000896
30
0
40
1.416
210
0
220
0
230
1
100
AcDbArc
50
240.190711
51
299.809289
0
ARC
5
101
100
AcDbEntity
8
1
62
256
6
ByLayer
370
18
48
1
60
0
100
AcDbCircle
39
0
10
16
20
6.000896
30
0
40
1.416
210
0
220
0
230
1
100
AcDbArc
50
6.192438
51
60.190711
0
ARC
5
102
100
AcDbEntity
8
1
62
256
6
ByLayer
370
18
48
1
60
0
100
AcDbCircle
39
0
10
16
20
6.000896
30
0
40
1.416
210
0
220
0
230
1
100
AcDbArc
50
60.190711
51
119.809289
0
ARC
5
103
100
AcDbEntity
8
1
62
256
6
ByLayer
370
18
48
1
60
0
100
AcDbCircle
39
0
10
16
20
6.000896
30
0
40
1.416
210
0
220
0
230
1
100
AcDbArc
50
299.809289
51
353.807562
0
ARC
5
104
100
AcDbEntity
8
1
62
256
6
ByLayer
370
18
48
1
60
0
100
AcDbCircle
39
0
10
16
20
6.000896
30
0
40
1.416
210
0
220
0
230
1
100
AcDbArc
50
119.809289
51
173.807562
0
ARC
5
105
100
AcDbEntity
8
1
62
256
6
ByLayer
370
18
48
1
60
0
100
AcDbCircle
39
0
10
16
20
6.000896
30
0
40
1.416
210
0
220
0
230
1
100
AcDbArc
50
353.807562
51
6.192438
0
ARC
5
108
100
AcDbEntity
8
1
62
256
6
ByLayer
370
18
48
1
60
0
100
AcDbCircle
39
0
10
16
20
6.000896
30
0
40
1.9685
210
0
220
0
230
1
100
AcDbArc
50
30.381422
51
90
0
ARC
5
109
100
AcDbEntity
8
1
62
256
6
ByLayer
370
18
48
1
60
0
100
AcDbCircle
39
0
10
16
20
6.000896
30
0
40
1.9685
210
0
220
0
230
1
100
AcDbArc
50
329.618578
51
30.381422
0
ARC
5
10A
100
AcDbEntity
8
1
62
256
6
ByLayer
370
18
48
1
60
0
100
AcDbCircle
39
0
10
16
20
6.000896
30
0
40
1.9685
210
0
220
0
230
1
100
AcDbArc
50
270
51
329.618578
0
ARC
5
10B
100
AcDbEntity
8
1
62
256
6
ByLayer
370
18
48
1
60
0
100
AcDbCircle
39
0
10
16
20
6.000896
30
0
40
1.9685
210
0
220
0
230
1
100
AcDbArc
50
210.381422
51
270
0
ARC
5
10C
100
AcDbEntity
8
1
62
256
6
ByLayer
370
18
48
1
60
0
100
AcDbCircle
39
0
10
16
20
6.000896
30
0
40
1.9685
210
0
220
0
230
1
100
AcDbArc
50
90
51
149.618578
0
ARC
5
10D
100
AcDbEntity
8
1
62
256
6
ByLayer
370
18
48
1
60
0
100
AcDbCircle
39
0
10
16
20
6.000896
30
0
40
1.416
210
0
220
0
230
1
100
AcDbArc
50
173.807562
51
186.192438
0
ARC
5
10E
100
AcDbEntity
8
1
62
256
6
ByLayer
370
18
48
1
60
0
100
AcDbCircle
39
0
10
16
20
6.000896
30
0
40
1.9685
210
0
220
0
230
1
100
AcDbArc
50
149.618578
51
210.381422
0
ARC
5
10F
100
AcDbEntity
8
1
62
256
6
ByLayer
370
18
48
1
60
0
100
AcDbCircle
39
0
10
10.51676
20
15.051492
30
0
40
1.6
210
0
220
0
230
1
100
AcDbArc
50
307.9174
51
337.975687
0
ARC
5
111
100
AcDbEntity
8
1
62
256
6
ByLayer
370
18
48
1
60
0
100
AcDbCircle
39
0
10
10.51676
20
15.051492
30
0
40
1.60000000000166
210
0
220
0
230
1
100
AcDbArc
50
270
51
307.9174
0
ARC
5
112
100
AcDbEntity
8
1
62
256
6
ByLayer
370
18
48
1
60
0
100
AcDbCircle
39
0
10
6.75
20
0.309519
30
0
40
0.169999999999983
210
0
220
0
230
1
100
AcDbArc
50
30
51
109.392304
0
CIRCLE
5
106
100
AcDbEntity
8
1
62
256
6
ByLayer
370
18
48
1
60
0
100
AcDbCircle
10
16
20
6.000896
30
0
40
3.5
39
0
210
0
220
0
230
1
0
CIRCLE
5
107
100
AcDbEntity
8
1
62
256
6
ByLayer
370
18
48
1
60
0
100
AcDbCircle
10
16
20
6.000896
30
0
40
3
39
0
210
0
220
0
230
1
0
CIRCLE
5
110
100
AcDbEntity
8
1
62
256
6
ByLayer
370
18
48
1
60
0
100
AcDbCircle
10
16
20
6.000896
30
0
40
3.8
39
0
210
0
220
0
230
1
0
ELLIPSE
5
113
100
AcDbEntity
8
1
62
256
6
ByLayer
370
18
48
1
60
0
100
AcDbEllipse
10
297.156349
20
46.896095
30
0
11
643.410907704366
21
9.47258101956132
31
0
210
0
220
0
230
1
40
0.049365
41
-2.00270423109273
42
-2.00113368239892
0
ELLIPSE
5
114
100
AcDbEntity
8
1
62
256
6
ByLayer
370
18
48
1
60
0
100
AcDbEllipse
10
-554.200083
20
41.105921
30
0
11
-2371.23280273865
21
8.32430625934177
31
0
210
0
220
0
230
1
40
0.011871
41
1.81644340083014
42
1.81872932686583
0
ELLIPSE
5
115
100
AcDbEntity
8
1
62
256
6
ByLayer
370
18
48
1
60
0
100
AcDbEllipse
10
28.66796
20
41.001492
30
0
11
-3.7177841373598E-14
21
29.2500000013534
31
0
210
0
220
0
230
1
40
0.684138
41
2.93688002665343
42
3.10058747185675
0
ELLIPSE
5
116
100
AcDbEntity
8
1
62
256
6
ByLayer
370
18
48
1
60
0
100
AcDbEllipse
10
28.66796
20
46.701492
30
0
11
-4.18806794192805E-14
21
32.9499999949051
31
0
210
0
220
0
230
1
40
0.684138
41
2.96014000903131
42
3.10104665673194
0
ELLIPSE
5
117
100
AcDbEntity
8
1
62
256
6
ByLayer
370
18
48
1
60
0
100
AcDbEllipse
10
30.539011
20
46.701492
30
0
11
-4.18806794353898E-14
21
32.9500000075792
31
0
210
0
220
0
230
1
40
0.998806
41
2.8522933380772
42
2.96014000906385
0
ELLIPSE
5
118
100
AcDbEntity
8
1
62
256
6
ByLayer
370
18
48
1
60
0
100
AcDbEllipse
10
30.539011
20
41.001492
30
0
11
-3.71778414175332E-14
21
29.2500000359198
31
0
210
0
220
0
230
1
40
0.998806
41
2.85748517810158
42
2.9368800267616
0
ELLIPSE
5
119
100
AcDbEntity
8
1
62
256
6
ByLayer
370
18
48
1
60
0
100
AcDbEllipse
10
-75.613735
20
46.701474
30
0
11
148.929911949739
21
1.22030356692727E-05
31
0
210
0
220
0
230
1
40
0.221245
41
-0.884496737033314
42
-0.875824187760499
0
ELLIPSE
5
11A
100
AcDbEntity
8
1
62
256
6
ByLayer
370
18
48
1
60
0
100
AcDbEllipse
10
38.825359
20
46.701492
30
0
11
-4.18806794257932E-14
21
32.950000000029
31
0
210
0
220
0
230
1
40
0.57735
41
2.44662032238729
42
2.86060499749881
0
ELLIPSE
5
11B
100
AcDbEntity
8
1
62
256
6
ByLayer
370
18
48
1
60
0
100
AcDbEllipse
10
31.044849
20
14.514349
30
0
11
0.909123199384738
21
0.0412059730592944
31
0
210
0
220
0
230
1
40
0.87781
41
-1.61056206688455
42
-1.3349183059223
0
ELLIPSE
5
11C
100
AcDbEntity
8
1
62
256
6
ByLayer
370
18
48
1
60
0
100
AcDbEllipse
10
29.757075
20
13.577519
30
0
11
0.705692636706973
21
0.00767325974622795
31
0
210
0
220
0
230
1
40
0.212279
41
3.13928447062734
42
-2.80792495557998
0
ELLIPSE
5
11D
100
AcDbEntity
8
1
62
256
6
ByLayer
370
18
48
1
60
0
100
AcDbEllipse
10
30.731595
20
13.146663
30
0
11
0.940923515412064
21
0.0102310129863447
31
0
210
0
220
0
230
1
40
0.212279
41
-2.80792495554282
42
-1.98948643404888
0
ELLIPSE
5
11E
100
AcDbEntity
8
1
62
256
6
ByLayer
370
18
48
1
60
0
100
AcDbEllipse
10
34.156648
20
14.826466
30
0
11
9.40923514274491
21
0.102310128219853
31
0
210
0
220
0
230
1
40
0.212279
41
-1.98948643369879
42
-1.92217035973679
0
ELLIPSE
5
11F
100
AcDbEntity
8
1
62
256
6
ByLayer
370
18
48
1
60
0
100
AcDbEllipse
10
30.644794
20
12.712344
30
0
11
0.98796969117689
21
0.0107425636347584
31
0
210
0
220
0
230
1
40
0.212279
41
-0.00230818296123514
42
1.21942229343512
0
ELLIPSE
5
120
100
AcDbEntity
8
1
62
256
6
ByLayer
370
18
48
1
60
0
100
AcDbEllipse
10
30.644794
20
12.712344
30
0
11
0.987969691176564
21
0.010742563634912
31
0
210
0
220
0
230
1
40
0.212279
41
-1.22403865935786
42
-0.00230818296125283
0
ELLIPSE
5
121
100
AcDbEntity
8
1
62
256
6
ByLayer
370
18
48
1
60
0
100
AcDbEllipse
10
34.156648
20
10.671151
30
0
11
9.4092351647236
21
0.10231012858121
31
0
210
0
220
0
230
1
40
0.212279
41
1.91755399460911
42
1.98487006843169
0
ELLIPSE
5
122
100
AcDbEntity
8
1
62
256
6
ByLayer
370
18
48
1
60
0
100
AcDbEllipse
10
30.731595
20
12.279828
30
0
11
0.940923515407599
21
0.0102310129854562
31
0
210
0
220
0
230
1
40
0.212279
41
1.98487006812327
42
2.80330858961975
0
ELLIPSE
5
123
100
AcDbEntity
8
1
62
256
6
ByLayer
370
18
48
1
60
0
100
AcDbEllipse
10
29.757075
20
11.828734
30
0
11
0.705692636590624
21
0.00767325973854541
31
0
210
0
220
0
230
1
40
0.212279
41
2.80330858962848
42
3.13928447062889
0
ELLIPSE
5
124
100
AcDbEntity
8
1
62
256
6
ByLayer
370
18
48
1
60
0
100
AcDbEllipse
10
30.265997
20
13.357635
30
0
11
0.0287266374613777
21
0.124996193690967
31
0
210
0
220
0
230
1
40
0.97698
41
0
42
6.28318530717959
0
ELLIPSE
5
125
100
AcDbEntity
8
1
62
256
6
ByLayer
370
18
48
1
60
0
100
AcDbEllipse
10
31.044849
20
10.918647
30
0
11
0.909123199460019
21
0.0412059730579874
31
0
210
0
220
0
230
1
40
0.87781
41
1.25538682577446
42
1.53103058671423
0
POINT
5
70
100
AcDbEntity
8
81
62
256
6
ByLayer
370
18
48
1
60
0
100
AcDbPoint
10
34.35
20
14
30
0
39
0
210
0
220
0
230
1
50
360
0
POINT
5
72
100
AcDbEntity
8
80
62
256
6
ByLayer
370
18
48
1
60
0
100
AcDbPoint
10
0
20
0
30
0
39
0
210
0
220
0
230
1
50
360
0
POINT
5
74
100
AcDbEntity
8
1
62
256
6
ByLayer
370
18
48
1
60
1
100
AcDbPoint
10
0
20
0
30
0
39
0
210
0
220
0
230
1
50
360
0
POINT
5
76
100
AcDbEntity
8
1
62
256
6
ByLayer
370
18
48
1
60
1
100
AcDbPoint
10
34.35
20
14
30
0
39
0
210
0
220
0
230
1
50
360
0
POINT
5
77
100
AcDbEntity
8
1
62
256
6
ByLayer
370
18
48
1
60
1
100
AcDbPoint
10
22.35
20
11.751492
30
0
39
0
210
0
220
0
230
1
50
360
0
POINT
5
78
100
AcDbEntity
8
1
62
256
6
ByLayer
370
18
48
1
60
1
100
AcDbPoint
10
34.35
20
14
30
0
39
0
210
0
220
0
230
1
50
360
0
POINT
5
79
100
AcDbEntity
8
1
62
256
6
ByLayer
370
18
48
1
60
1
100
AcDbPoint
10
34.35
20
14
30
0
39
0
210
0
220
0
230
1
50
360
0
POINT
5
7A
100
AcDbEntity
8
1
62
256
6
ByLayer
370
18
48
1
60
1
100
AcDbPoint
10
0
20
0
30
0
39
0
210
0
220
0
230
1
50
360
0
POINT
5
7B
100
AcDbEntity
8
1
62
256
6
ByLayer
370
18
48
1
60
1
100
AcDbPoint
10
34.35
20
14
30
0
39
0
210
0
220
0
230
1
50
360
0
POINT
5
7C
100
AcDbEntity
8
1
62
256
6
ByLayer
370
18
48
1
60
1
100
AcDbPoint
10
34.35
20
11.5
30
0
39
0
210
0
220
0
230
1
50
360
0
SPLINE
5
126
100
AcDbEntity
8
1
62
256
6
ByLayer
370
18
48
1
60
0
100
AcDbSpline
70
4
71
3
72
26
73
22
40
0
40
0
40
0
40
0
40
0.125000000000005
40
0.125000000000005
40
0.250000000000011
40
0.250000000000011
40
0.312500000000011
40
0.312500000000011
40
0.375000000000012
40
0.375000000000012
40
0.500000000000014
40
0.500000000000014
40
0.625000000000015
40
0.625000000000015
40
0.687500000000016
40
0.687500000000016
40
0.750000000000016
40
0.750000000000016
40
0.875000000000008
40
0.875000000000008
40
1
40
1
40
1
40
1
41
1
10
17.6981810583397
20
5.00531957765742
30
0
41
1
10
17.7078773843925
20
5.02185884992306
30
0
41
1
10
17.7162535215022
20
5.03953514362897
30
0
41
1
10
17.7295595786642
20
5.07541542068228
30
0
41
1
10
17.7345944066091
20
5.09374242414194
30
0
41
1
10
17.7397618393487
20
5.12180050670801
30
0
41
1
10
17.7410855560763
20
5.1312877790356
30
0
41
1
10
17.7428910435849
20
5.15010179633589
30
0
41
1
10
17.7433822395918
20
5.15946119423143
30
0
41
1
10
17.7436738504503
20
5.18740052067852
30
0
41
1
10
17.7422999770456
20
5.20584257420001
30
0
41
1
10
17.7364877820916
20
5.24235351387824
30
0
41
1
10
17.7321145827702
20
5.25999023355962
30
0
41
1
10
17.7235862009395
20
5.28546656963312
30
0
41
1
10
17.7204121015596
20
5.29380186307009
30
0
41
1
10
17.7134150504967
20
5.31016250430235
30
0
41
1
10
17.7095794595059
20
5.31821127003721
30
0
41
1
10
17.6971899927032
20
5.34172498408023
30
0
41
1
10
17.6878477254942
20
5.35641502603829
30
0
41
1
10
17.6671882258998
20
5.38396698557022
30
0
41
1
10
17.6558697837771
20
5.39682793144553
30
0
41
1
10
17.6435826280887
20
5.40877876308539
30
0
0
SPLINE
5
127
100
AcDbEntity
8
1
62
256
6
ByLayer
370
18
48
1
60
0
100
AcDbSpline
70
4
71
3
72
24
73
20
40
0
40
0
40
0
40
0
40
0.25
40
0.25
40
0.312500000000001
40
0.312500000000001
40
0.375000000000002
40
0.375000000000002
40
0.500000000000003
40
0.500000000000003
40
0.625000000000003
40
0.625000000000003
40
0.750000000000004
40
0.750000000000004
40
0.812500000000002
40
0.812500000000002
40
0.875000000000001
40
0.875000000000001
40
1
40
1
40
1
40
1
41
1
10
17.6435826280887
20
6.59301417141978
30
0
41
1
10
17.6682160283364
20
6.61697330618961
30
0
41
1
10
17.6889860656026
20
6.64448316806684
30
0
41
1
10
17.7096028295653
20
6.68362971416889
30
0
41
1
10
17.7134630024728
20
6.69173252701626
30
0
41
1
10
17.7204795949881
20
6.7081590775494
30
0
41
1
10
17.7236526577386
20
6.71650911045364
30
0
41
1
10
17.7321592799226
20
6.74196827488166
30
0
41
1
10
17.7364877102339
20
6.75948352393692
30
0
41
1
10
17.742260457299
20
6.79565785607261
30
0
41
1
10
17.7436815532398
20
6.81449659180967
30
0
41
1
10
17.7432740045799
20
6.8518525254174
30
0
41
1
10
17.7414960807987
20
6.87050718308481
30
0
41
1
10
17.7363694553523
20
6.89844612038908
30
0
41
1
10
17.7342485297392
20
6.90775190896849
30
0
41
1
10
17.7291364205699
20
6.92634744829789
30
0
41
1
10
17.7261658131643
20
6.93554891051659
30
0
41
1
10
17.7161353784251
20
6.96253563862101
30
0
41
1
10
17.7079277944069
20
6.9798480989266
30
0
41
1
10
17.6981810583397
20
6.99647335684776
30
0
0
SPLINE
5
128
100
AcDbEntity
8
1
62
256
6
ByLayer
370
18
48
1
60
0
100
AcDbSpline
70
4
71
3
72
18
73
14
40
0
40
0
40
0
40
0
40
0.249999999999985
40
0.249999999999985
40
0.374999999999979
40
0.374999999999979
40
0.437499999999977
40
0.437499999999977
40
0.499999999999974
40
0.499999999999974
40
0.749999999999987
40
0.749999999999987
40
1
40
1
40
1
40
1
41
1
10
17.4077379362997
20
5.84815517387614
30
0
41
1
10
17.416097023435
20
5.80373018439496
30
0
41
1
10
17.4278059238629
20
5.76136773956944
30
0
41
1
10
17.4497852995845
20
5.70040886931278
30
0
41
1
10
17.4578539822307
20
5.68052365439965
30
0
41
1
10
17.4710409062467
20
5.65131132100925
30
0
41
1
10
17.4756174744469
20
5.64167662379552
30
0
41
1
10
17.4851307090047
20
5.62260859164343
30
0
41
1
10
17.4900791241438
20
5.61315443742816
30
0
41
1
10
17.5155498531434
20
5.56668767537505
30
0
41
1
10
17.5382169974672
20
5.53206312339762
30
0
41
1
10
17.5877505294596
20
5.46718949194286
30
0
41
1
10
17.6146213965619
20
5.43694726772839
30
0
41
1
10
17.6435826280887
20
5.40877876308539
30
0
0
SPLINE
5
129
100
AcDbEntity
8
1
62
256
6
ByLayer
370
18
48
1
60
0
100
AcDbSpline
70
4
71
3
72
17
73
13
40
0
40
0
40
0
40
0
40
0.24999999999999
40
0.24999999999999
40
0.499999999999981
40
0.499999999999981
40
0.562499999999984
40
0.562499999999984
40
0.624999999999988
40
0.749999999999991
40
0.749999999999991
40
1
40
1
40
1
40
1
41
1
10
17.6435826280887
20
6.59301417141978
30
0
41
1
10
17.614624603631
20
6.56484878606202
30
0
41
1
10
17.5877690589035
20
6.53462222511715
30
0
41
1
10
17.5382802616329
20
6.46981814386541
30
0
41
1
10
17.515642707813
20
6.4352471623861
30
0
41
1
10
17.4902105226123
20
6.38888497910887
30
0
41
1
10
17.4852575520368
20
6.37943117706357
30
0
41
1
10
17.4757163583553
20
6.36032174336583
30
0
41
1
10
17.4619501115273
20
6.33135850420035
30
0
41
1
10
17.4498230334514
20
6.30148274399554
30
0
41
1
10
17.4278090763267
20
6.24044585517407
30
0
41
1
10
17.4160955020355
20
6.19805466451939
30
0
41
1
10
17.4077379362997
20
6.15363776062907
30
0
0
SPLINE
5
12A
100
AcDbEntity
8
1
62
256
6
ByLayer
370
18
48
1
60
0
100
AcDbSpline
70
4
71
3
72
26
73
22
40
0
40
0
40
0
40
0
40
0.250000000000094
40
0.250000000000094
40
0.312500000000098
40
0.312500000000098
40
0.375000000000102
40
0.375000000000102
40
0.500000000000089
40
0.500000000000089
40
0.562500000000071
40
0.562500000000071
40
0.625000000000052
40
0.625000000000052
40
0.750000000000035
40
0.750000000000035
40
0.812500000000025
40
0.812500000000025
40
0.875000000000016
40
0.875000000000016
40
1
40
1
40
1
40
1
41
1
10
17.3281523379785
20
4.85344543366773
30
0
41
1
10
17.360696315837
20
4.84473243586262
30
0
41
1
10
17.3942863582019
20
4.84095732878927
30
0
41
1
10
17.4375938417866
20
4.84298514786479
30
0
41
1
10
17.4463591330926
20
4.84374180348345
30
0
41
1
10
17.4637445703592
20
4.84594858758379
30
0
41
1
10
17.4723858038621
20
4.84739672018731
30
0
41
1
10
17.4981510924759
20
4.85277879670164
30
0
41
1
10
17.5151178713699
20
4.85774322526095
30
0
41
1
10
17.5402189508799
20
4.86738733008627
30
0
41
1
10
17.5485275367999
20
4.87096994514476
30
0
41
1
10
17.5650182011032
20
4.87891784236902
30
0
41
1
10
17.5731385487694
20
4.88325729196467
30
0
41
1
10
17.5968027600686
20
4.89720123539917
30
0
41
1
10
17.6117865990375
20
4.90778703819925
30
0
41
1
10
17.6330303889943
20
4.92566028812647
30
0
41
1
10
17.6399053342585
20
4.93195210225659
30
0
41
1
10
17.653221554735
20
4.94523651269921
30
0
41
1
10
17.6596544992719
20
4.95222948849934
30
0
41
1
10
17.6778475580836
20
4.97379271083904
30
0
41
1
10
17.6886683543617
20
4.98909351427869
30
0
41
1
10
17.6981810583397
20
5.00531957765742
30
0
0
SPLINE
5
12B
100
AcDbEntity
8
1
62
256
6
ByLayer
370
18
48
1
60
0
100
AcDbSpline
70
4
71
3
72
26
73
22
40
0
40
0
40
0
40
0
40
0.124999999999985
40
0.124999999999985
40
0.249999999999971
40
0.249999999999971
40
0.312499999999975
40
0.312499999999975
40
0.37499999999998
40
0.37499999999998
40
0.500000000000003
40
0.500000000000003
40
0.562500000000004
40
0.562500000000004
40
0.625000000000005
40
0.625000000000005
40
0.750000000000003
40
0.750000000000003
40
0.875000000000002
40
0.875000000000002
40
1
40
1
40
1
40
1
41
1
10
15.9999999999999
20
4.0323964672526
30
0
41
1
10
16.0187420838796
20
4.0323964672526
30
0
41
1
10
16.0377900241209
20
4.03403367174801
30
0
41
1
10
16.0746705458543
20
4.04041118656966
30
0
41
1
10
16.0926468374792
20
4.04512367558709
30
0
41
1
10
16.1189272305607
20
4.05443108114943
30
0
41
1
10
16.1276136105629
20
4.05792894215725
30
0
41
1
10
16.1444825476159
20
4.06556233701656
30
0
41
1
10
16.1526773955157
20
4.06969736798771
30
0
41
1
10
16.1765732518194
20
4.08301413783687
30
0
41
1
10
16.1915899369245
20
4.09310190475924
30
0
41
1
10
16.2127755394083
20
4.10999176016637
30
0
41
1
10
16.219591918569
20
4.11590384986815
30
0
41
1
10
16.2325595895106
20
4.12809909540971
30
0
41
1
10
16.2387403827711
20
4.13440517046723
30
0
41
1
10
16.2564090822012
20
4.15392011447679
30
0
41
1
10
16.267028270971
20
4.16772233959054
30
0
41
1
10
16.286001380946
20
4.19685093401267
30
0
41
1
10
16.2941811588045
20
4.21191917306635
30
0
41
1
10
16.3080220198238
20
4.24277871955269
30
0
41
1
10
16.3137019836553
20
4.2586015777645
30
0
41
1
10
16.3181619695467
20
4.27480102710828
30
0
0
SPLINE
5
12C
100
AcDbEntity
8
1
62
256
6
ByLayer
370
18
48
1
60
0
100
AcDbSpline
70
4
71
3
72
34
73
30
40
0
40
0
40
0
40
0
40
0.124999999999999
40
0.124999999999999
40
0.187499999999999
40
0.187499999999999
40
0.218749999999999
40
0.218749999999999
40
0.249999999999999
40
0.249999999999999
40
0.375000000000019
40
0.375000000000019
40
0.406250000000021
40
0.406250000000021
40
0.437500000000023
40
0.500000000000019
40
0.562500000000016
40
0.562500000000016
40
0.625000000000013
40
0.625000000000013
40
0.687500000000009
40
0.687500000000009
40
0.750000000000006
40
0.750000000000006
40
0.875000000000004
40
0.875000000000004
40
0.937500000000002
40
0.937500000000002
40
1
40
1
40
1
40
1
41
1
10
17.3281523379785
20
4.85344543366773
30
0
41
1
10
17.2791605406676
20
4.86656200547387
30
0
41
1
10
17.2290549015809
20
4.87519428314323
30
0
41
1
10
17.1518976275392
20
4.88110442765233
30
0
41
1
10
17.1258420498825
20
4.88189299088828
30
0
41
1
10
17.0861721053906
20
4.8811659578927
30
0
41
1
10
17.0728201914696
20
4.8806022680993
30
0
41
1
10
17.0460462641005
20
4.87881234414047
30
0
41
1
10
17.0326678100598
20
4.87759056572548
30
0
41
1
10
16.9658054580945
20
4.86982975130707
30
0
41
1
10
16.9124105635001
20
4.85840661897302
30
0
41
1
10
16.8455886245495
20
4.83666381751638
30
0
41
1
10
16.8322038067759
20
4.8319273222063
30
0
41
1
10
16.8058521630065
20
4.82183181880575
30
0
41
1
10
16.76679400704
20
4.80570618192203
30
0
41
1
10
16.7040137931597
20
4.77397210389429
30
0
41
1
10
16.6562753174226
20
4.74336566360998
30
0
41
1
10
16.6098302684516
20
4.71004677480343
30
0
41
1
10
16.5878136047355
20
4.69243214730366
30
0
41
1
10
16.5460507829754
20
4.65545044847792
30
0
41
1
10
16.5262970086681
20
4.63607691692317
30
0
41
1
10
16.4889396946712
20
4.59561156215048
30
0
41
1
10
16.4712931406014
20
4.57443694436114
30
0
41
1
10
16.4226269571247
20
4.50991226138257
30
0
41
1
10
16.3953601516258
20
4.46512331242161
30
0
41
1
10
16.3612075572779
20
4.39532726222413
30
0
41
1
10
16.3509341260476
20
4.37154562198998
30
0
41
1
10
16.3327806188032
20
4.32350531224932
30
0
41
1
10
16.3248979334756
20
4.29926722702535
30
0
41
1
10
16.3181619695467
20
4.27480102710828
30
0
0
SPLINE
5
12D
100
AcDbEntity
8
1
62
256
6
ByLayer
370
18
48
1
60
0
100
AcDbSpline
70
4
71
3
72
26
73
22
40
0
40
0
40
0
40
0
40
0.25000000000001
40
0.25000000000001
40
0.312500000000002
40
0.312500000000002
40
0.374999999999993
40
0.374999999999993
40
0.499999999999976
40
0.499999999999976
40
0.562499999999968
40
0.562499999999968
40
0.62499999999996
40
0.62499999999996
40
0.749999999999965
40
0.749999999999965
40
0.812499999999968
40
0.812499999999968
40
0.874999999999971
40
0.874999999999971
40
1
40
1
40
1
40
1
41
1
10
16.3181619695467
20
7.72699190739692
30
0
41
1
10
16.3092192305468
20
7.75947350060162
30
0
41
1
10
16.295487632259
20
7.79036015698449
30
0
41
1
10
16.2718353388289
20
7.8266949845744
30
0
41
1
10
16.266749506773
20
7.83387392467677
30
0
41
1
10
16.2560530091762
20
7.84775586181311
30
0
41
1
10
16.2504333990711
20
7.85447806169952
30
0
41
1
10
16.2327595033492
20
7.87398319356163
30
0
41
1
10
16.2198957841167
20
7.88610927588906
30
0
41
1
10
16.1988810548678
20
7.90288587400178
30
0
41
1
10
16.191588310609
20
7.90824158444582
30
0
41
1
10
16.1763916134437
20
7.91844803328897
30
0
41
1
10
16.1685411707112
20
7.92325858015687
30
0
41
1
10
16.144543772838
20
7.93662096019111
30
0
41
1
10
16.1278334996495
20
7.94419337129733
30
0
41
1
10
16.1016705104133
20
7.95348044710394
30
0
41
1
10
16.0927656700964
20
7.9562291988353
30
0
41
1
10
16.0745707697432
20
7.96099816135649
30
0
41
1
10
16.0652845989498
20
7.96301099275712
30
0
41
1
10
16.0374812768525
20
7.96780005096599
30
0
41
1
10
16.0188089532899
20
7.96939646725261
30
0
41
1
10
15.9999999999999
20
7.96939646725261
30
0
0
SPLINE
5
12E
100
AcDbEntity
8
1
62
256
6
ByLayer
370
18
48
1
60
0
100
AcDbSpline
70
4
71
3
72
34
73
30
40
0
40
0
40
0
40
0
40
0.124999999999983
40
0.124999999999983
40
0.187499999999978
40
0.187499999999978
40
0.218749999999975
40
0.218749999999975
40
0.249999999999972
40
0.249999999999972
40
0.374999999999964
40
0.374999999999964
40
0.406249999999964
40
0.406249999999964
40
0.437499999999963
40
0.499999999999968
40
0.562499999999972
40
0.562499999999972
40
0.624999999999977
40
0.624999999999977
40
0.687499999999981
40
0.687499999999981
40
0.749999999999986
40
0.749999999999986
40
0.874999999999994
40
0.874999999999994
40
0.937499999999997
40
0.937499999999997
40
1
40
1
40
1
40
1
41
1
10
16.3181619695467
20
7.72699190739692
30
0
41
1
10
16.3316243955842
20
7.67809401983695
30
0
41
1
10
16.3495186520745
20
7.63050319394833
30
0
41
1
10
16.3834427074955
20
7.56095225374315
30
0
41
1
10
16.3959401462235
20
7.53807586814935
30
0
41
1
10
16.4166305781721
20
7.50422118982232
30
0
41
1
10
16.4238696464603
20
7.49298787849509
30
0
41
1
10
16.4389547957833
20
7.47079587097781
30
0
41
1
10
16.4467750039594
20
7.45987249689867
30
0
41
1
10
16.487285990491
20
7.40611690207714
30
0
41
1
10
16.5241451570224
20
7.36583161210689
30
0
41
1
10
16.5766976577682
20
7.31918232277241
30
0
41
1
10
16.5875531522007
20
7.31003104117997
30
0
41
1
10
16.6095897675601
20
7.29240390866346
30
0
41
1
10
16.6432548145304
20
7.26686491601808
30
0
41
1
10
16.7023824438309
20
7.22875546439857
30
0
41
1
10
16.7529298677764
20
7.20305187617026
30
0
41
1
10
16.8051631063883
20
7.17983592995523
30
0
41
1
10
16.831493866305
20
7.16975131610761
30
0
41
1
10
16.884518869914
20
7.1524271055753
30
0
41
1
10
16.9112225356446
20
7.14518420713674
30
0
41
1
10
16.9650247101003
20
7.13342240267269
30
0
41
1
10
16.9922163970769
20
7.12890826309143
30
0
41
1
10
17.0724935208943
20
7.11955865271722
30
0
41
1
10
17.1249222467064
20
7.11868838039857
30
0
41
1
10
17.2024065588861
20
7.12452533520533
30
0
41
1
10
17.2281182805366
20
7.12769033664654
30
0
41
1
10
17.2787427947223
20
7.13632629288253
30
0
41
1
10
17.3036391509599
20
7.14178458632168
30
0
41
1
10
17.3281523379785
20
7.14834750083747
30
0
0
SPLINE
5
12F
100
AcDbEntity
8
1
62
256
6
ByLayer
370
18
48
1
60
0
100
AcDbSpline
70
4
71
3
72
24
73
20
40
0
40
0
40
0
40
0
40
0.0625000000000026
40
0.0625000000000026
40
0.125000000000005
40
0.125000000000005
40
0.249999999999995
40
0.249999999999995
40
0.312499999999998
40
0.312499999999998
40
0.375000000000001
40
0.375000000000001
40
0.500000000000005
40
0.500000000000005
40
0.625000000000009
40
0.625000000000009
40
0.750000000000013
40
0.750000000000013
40
1
40
1
40
1
40
1
41
1
10
17.6981810583397
20
6.99647335684776
30
0
41
1
10
17.693431857917
20
7.00457418992693
30
0
41
1
10
17.6882914332964
20
7.0125438064492
30
0
41
1
10
17.6773571171086
20
7.02798714470219
30
0
41
1
10
17.6716028102466
20
7.03541165891349
30
0
41
1
10
17.6535100226023
20
7.05682602232358
30
0
41
1
10
17.6403472862544
20
7.06996258524404
30
0
41
1
10
17.618967603802
20
7.08797115455664
30
0
41
1
10
17.6115507477031
20
7.09369609658367
30
0
41
1
10
17.5964652538517
20
7.10436189156863
30
0
41
1
10
17.5887628485982
20
7.10933354709121
30
0
41
1
10
17.565197035516
20
7.12320622223785
30
0
41
1
10
17.5488778339609
20
7.13107152905729
30
0
41
1
10
17.5150549986529
20
7.14408105609223
30
0
41
1
10
17.4979892291143
20
7.14905727854665
30
0
41
1
10
17.4636214369299
20
7.15621756966928
30
0
41
1
10
17.4462594678657
20
7.15840356409288
30
0
41
1
10
17.3941907780312
20
7.16083700803517
30
0
41
1
10
17.3606172483433
20
7.15703932990584
30
0
41
1
10
17.3281523379785
20
7.14834750083747
30
0
0
SPLINE
5
130
100
AcDbEntity
8
1
62
256
6
ByLayer
370
18
48
1
60
0
100
AcDbSpline
70
4
71
3
72
34
73
30
40
0
40
0
40
0
40
0
40
0.125
40
0.125
40
0.187499999999999
40
0.187499999999999
40
0.218749999999999
40
0.218749999999999
40
0.249999999999999
40
0.249999999999999
40
0.375
40
0.375
40
0.406249999999999
40
0.406249999999999
40
0.437499999999999
40
0.499999999999999
40
0.5625
40
0.5625
40
0.625
40
0.625
40
0.6875
40
0.6875
40
0.75
40
0.75
40
0.875000000000001
40
0.875000000000001
40
0.937500000000001
40
0.937500000000001
40
1
40
1
40
1
40
1
41
1
10
15.6818380304531
20
4.27480102710828
30
0
41
1
10
15.6683756044157
20
4.32369891466823
30
0
41
1
10
15.6504813479253
20
4.37128974055685
30
0
41
1
10
15.6165572925043
20
4.44084068076202
30
0
41
1
10
15.6040598537763
20
4.46371706635586
30
0
41
1
10
15.5833694218277
20
4.49757174468289
30
0
41
1
10
15.5761303535395
20
4.50880505601009
30
0
41
1
10
15.5610452042166
20
4.53099706352737
30
0
41
1
10
15.5532249960404
20
4.54192043760654
30
0
41
1
10
15.5127140095088
20
4.59567603242803
30
0
41
1
10
15.4758548429774
20
4.63596132239829
30
0
41
1
10
15.4233023422317
20
4.6826106117328
30
0
41
1
10
15.4124468477991
20
4.69176189332521
30
0
41
1
10
15.3904102324397
20
4.70938902584174
30
0
41
1
10
15.3567451854694
20
4.73492801848712
30
0
41
1
10
15.2976175561689
20
4.7730374701066
30
0
41
1
10
15.2470701322234
20
4.79874105833494
30
0
41
1
10
15.1948368936115
20
4.82195700454994
30
0
41
1
10
15.1685061336948
20
4.83204161839757
30
0
41
1
10
15.1154811300858
20
4.8493658289299
30
0
41
1
10
15.0887774643552
20
4.85660872736847
30
0
41
1
10
15.0349752898996
20
4.86837053183248
30
0
41
1
10
15.0077836029229
20
4.87288467141374
30
0
41
1
10
14.9275064791056
20
4.88223428178796
30
0
41
1
10
14.8750777532934
20
4.88310455410661
30
0
41
1
10
14.7975934411138
20
4.87726759929987
30
0
41
1
10
14.7718817194632
20
4.87410259785867
30
0
41
1
10
14.7212572052776
20
4.86546664162265
30
0
41
1
10
14.6963608490399
20
4.86000834818353
30
0
41
1
10
14.6718476620213
20
4.85344543366773
30
0
0
SPLINE
5
131
100
AcDbEntity
8
1
62
256
6
ByLayer
370
18
48
1
60
0
100
AcDbSpline
70
4
71
3
72
24
73
20
40
0
40
0
40
0
40
0
40
0.0624999999999936
40
0.0624999999999936
40
0.124999999999987
40
0.124999999999987
40
0.249999999999981
40
0.249999999999981
40
0.312499999999978
40
0.312499999999978
40
0.374999999999974
40
0.374999999999974
40
0.49999999999998
40
0.49999999999998
40
0.624999999999986
40
0.624999999999986
40
0.749999999999992
40
0.749999999999992
40
1
40
1
40
1
40
1
41
1
10
14.3018189416601
20
5.00531957765742
30
0
41
1
10
14.3065681420828
20
4.99721874457825
30
0
41
1
10
14.3117085667034
20
4.989249128056
30
0
41
1
10
14.3226428828912
20
4.97380578980298
30
0
41
1
10
14.3283971897532
20
4.96638127559169
30
0
41
1
10
14.3464899773975
20
4.94496691218163
30
0
41
1
10
14.3596527137454
20
4.93183034926116
30
0
41
1
10
14.3810323961979
20
4.91382177994853
30
0
41
1
10
14.3884492522967
20
4.90809683792153
30
0
41
1
10
14.4035347461481
20
4.89743104293655
30
0
41
1
10
14.4112371514017
20
4.89245938741399
30
0
41
1
10
14.4348029644839
20
4.87858671226735
30
0
41
1
10
14.4511221660389
20
4.87072140544791
30
0
41
1
10
14.4849450013469
20
4.85771187841294
30
0
41
1
10
14.5020107708856
20
4.85273565595853
30
0
41
1
10
14.5363785630699
20
4.8455753648359
30
0
41
1
10
14.5537405321341
20
4.84338937041233
30
0
41
1
10
14.6058092219686
20
4.84095592647003
30
0
41
1
10
14.6393827516565
20
4.84475360459933
30
0
41
1
10
14.6718476620213
20
4.85344543366773
30
0
0
SPLINE
5
132
100
AcDbEntity
8
1
62
256
6
ByLayer
370
18
48
1
60
0
100
AcDbSpline
70
4
71
3
72
26
73
22
40
0
40
0
40
0
40
0
40
0.250000000000019
40
0.250000000000019
40
0.312500000000025
40
0.312500000000025
40
0.375000000000032
40
0.375000000000032
40
0.500000000000045
40
0.500000000000045
40
0.562500000000044
40
0.562500000000044
40
0.625000000000044
40
0.625000000000044
40
0.750000000000023
40
0.750000000000023
40
0.812500000000012
40
0.812500000000012
40
0.875000000000001
40
0.875000000000001
40
1
40
1
40
1
40
1
41
1
10
15.6818380304531
20
4.27480102710828
30
0
41
1
10
15.690780769453
20
4.24231943390356
30
0
41
1
10
15.7045123677409
20
4.21143277752071
30
0
41
1
10
15.7281646611709
20
4.1750979499308
30
0
41
1
10
15.7332504932268
20
4.16791900982844
30
0
41
1
10
15.7439469908236
20
4.15403707269206
30
0
41
1
10
15.7495666009288
20
4.14731487280568
30
0
41
1
10
15.7672404966506
20
4.12780974094355
30
0
41
1
10
15.7801042158831
20
4.11568365861615
30
0
41
1
10
15.801118945132
20
4.09890706050339
30
0
41
1
10
15.8084116893908
20
4.09355135005939
30
0
41
1
10
15.8236083865561
20
4.08334490121621
30
0
41
1
10
15.8314588292886
20
4.07853435434831
30
0
41
1
10
15.8554562271618
20
4.06517197431407
30
0
41
1
10
15.8721665003503
20
4.05759956320787
30
0
41
1
10
15.8983294895865
20
4.04831248740123
30
0
41
1
10
15.9072343299034
20
4.0455637356699
30
0
41
1
10
15.9254292302566
20
4.04079477314869
30
0
41
1
10
15.93471540105
20
4.03878194174806
30
0
41
1
10
15.9625187231473
20
4.03399288353921
30
0
41
1
10
15.9811910467099
20
4.0323964672526
30
0
41
1
10
15.9999999999999
20
4.0323964672526
30
0
0
SPLINE
5
133
100
AcDbEntity
8
1
62
256
6
ByLayer
370
18
48
1
60
0
100
AcDbSpline
70
4
71
3
72
26
73
22
40
0
40
0
40
0
40
0
40
0.249999999999981
40
0.249999999999981
40
0.312499999999983
40
0.312499999999983
40
0.374999999999985
40
0.374999999999985
40
0.499999999999988
40
0.499999999999988
40
0.562499999999992
40
0.562499999999992
40
0.624999999999996
40
0.624999999999996
40
0.749999999999999
40
0.749999999999999
40
0.8125
40
0.8125
40
0.875000000000002
40
0.875000000000002
40
1
40
1
40
1
40
1
41
1
10
14.6718476620213
20
7.14834750083747
30
0
41
1
10
14.6393036841629
20
7.15706049864255
30
0
41
1
10
14.6057136417979
20
7.1608356057159
30
0
41
1
10
14.5624061582132
20
7.15880778664041
30
0
41
1
10
14.5536408669072
20
7.15805113102175
30
0
41
1
10
14.5362554296407
20
7.15584434692141
30
0
41
1
10
14.5276141961378
20
7.15439621431787
30
0
41
1
10
14.5018489075239
20
7.14901413780353
30
0
41
1
10
14.4848821286299
20
7.14404970924426
30
0
41
1
10
14.45978104912
20
7.1344056044189
30
0
41
1
10
14.4514724631999
20
7.13082298936041
30
0
41
1
10
14.4349817988966
20
7.12287509213618
30
0
41
1
10
14.4268614512304
20
7.11853564254054
30
0
41
1
10
14.4031972399312
20
7.10459169910604
30
0
41
1
10
14.3882134009623
20
7.09400589630593
30
0
41
1
10
14.3669696110055
20
7.07613264637874
30
0
41
1
10
14.3600946657413
20
7.06984083224862
30
0
41
1
10
14.3467784452648
20
7.05655642180599
30
0
41
1
10
14.3403455007279
20
7.04956344600586
30
0
41
1
10
14.3221524419162
20
7.02800022366614
30
0
41
1
10
14.3113316456381
20
7.01269942022648
30
0
41
1
10
14.3018189416601
20
6.99647335684776
30
0
0
SPLINE
5
134
100
AcDbEntity
8
1
62
256
6
ByLayer
370
18
48
1
60
0
100
AcDbSpline
70
4
71
3
72
34
73
30
40
0
40
0
40
0
40
0
40
0.124999999999989
40
0.124999999999989
40
0.187499999999981
40
0.187499999999981
40
0.218749999999978
40
0.218749999999978
40
0.249999999999974
40
0.249999999999974
40
0.37499999999997
40
0.37499999999997
40
0.40624999999997
40
0.40624999999997
40
0.43749999999997
40
0.499999999999973
40
0.562499999999976
40
0.562499999999976
40
0.624999999999979
40
0.624999999999979
40
0.687499999999982
40
0.687499999999982
40
0.749999999999985
40
0.749999999999985
40
0.874999999999993
40
0.874999999999993
40
0.937499999999997
40
0.937499999999997
40
1
40
1
40
1
40
1
41
1
10
14.6718476620213
20
7.14834750083747
30
0
41
1
10
14.7208394593322
20
7.13523092903134
30
0
41
1
10
14.7709450984189
20
7.12659865136195
30
0
41
1
10
14.8481023724606
20
7.12068850685284
30
0
41
1
10
14.8741579501173
20
7.1198999436169
30
0
41
1
10
14.9138278946092
20
7.1206269766125
30
0
41
1
10
14.9271798085302
20
7.12119066640588
30
0
41
1
10
14.9539537358993
20
7.1229805903647
30
0
41
1
10
14.96733218994
20
7.12420236877972
30
0
41
1
10
15.0341945419054
20
7.13196318319811
30
0
41
1
10
15.0875894364997
20
7.14338631553215
30
0
41
1
10
15.1544113754503
20
7.16512911698879
30
0
41
1
10
15.1677961932239
20
7.16986561229888
30
0
41
1
10
15.1941478369933
20
7.17996111569943
30
0
41
1
10
15.2332059929598
20
7.19608675258314
30
0
41
1
10
15.29598606662
20
7.22782110758368
30
0
41
1
10
15.3437246825772
20
7.25842727089523
30
0
41
1
10
15.3901697315482
20
7.29174615970175
30
0
41
1
10
15.4121863952643
20
7.30936078720154
30
0
41
1
10
15.4539492170244
20
7.34634248602728
30
0
41
1
10
15.4737029913317
20
7.365716017582
30
0
41
1
10
15.5110603053287
20
7.40618137235472
30
0
41
1
10
15.5287068593985
20
7.42735599014406
30
0
41
1
10
15.5773730428751
20
7.49188067312261
30
0
41
1
10
15.604639848374
20
7.53666962208356
30
0
41
1
10
15.6387924427219
20
7.60646567228108
30
0
41
1
10
15.6490658739522
20
7.63024731251522
30
0
41
1
10
15.6672193811967
20
7.67828762225585
30
0
41
1
10
15.6751020665242
20
7.70252570747985
30
0
41
1
10
15.6818380304531
20
7.72699190739692
30
0
0
SPLINE
5
135
100
AcDbEntity
8
1
62
256
6
ByLayer
370
18
48
1
60
0
100
AcDbSpline
70
4
71
3
72
26
73
22
40
0
40
0
40
0
40
0
40
0.124999999999983
40
0.124999999999983
40
0.249999999999966
40
0.249999999999966
40
0.312499999999967
40
0.312499999999967
40
0.374999999999968
40
0.374999999999968
40
0.499999999999987
40
0.499999999999987
40
0.562499999999987
40
0.562499999999987
40
0.624999999999986
40
0.624999999999986
40
0.749999999999985
40
0.749999999999985
40
0.874999999999992
40
0.874999999999992
40
1
40
1
40
1
40
1
41
1
10
15.9999999999999
20
7.96939646725261
30
0
41
1
10
15.9812579161202
20
7.96939646725261
30
0
41
1
10
15.9622099758789
20
7.9677592627572
30
0
41
1
10
15.9253294541455
20
7.96138174793555
30
0
41
1
10
15.9073531625206
20
7.95666925891808
30
0
41
1
10
15.8810727694391
20
7.94736185335574
30
0
41
1
10
15.872386389437
20
7.94386399234793
30
0
41
1
10
15.8555174523839
20
7.93623059748865
30
0
41
1
10
15.8473226044841
20
7.93209556651746
30
0
41
1
10
15.8234267481804
20
7.91877879666834
30
0
41
1
10
15.8084100630754
20
7.90869102974594
30
0
41
1
10
15.7872244605915
20
7.89180117433881
30
0
41
1
10
15.7804080814308
20
7.88588908463703
30
0
41
1
10
15.7674404104892
20
7.87369383909547
30
0
41
1
10
15.7612596172287
20
7.86738776403797
30
0
41
1
10
15.7435909177986
20
7.84787282002839
30
0
41
1
10
15.7329717290288
20
7.83407059491466
30
0
41
1
10
15.7139986190538
20
7.80494200049253
30
0
41
1
10
15.7058188411953
20
7.78987376143883
30
0
41
1
10
15.691977980176
20
7.75901421495252
30
0
41
1
10
15.6862980163445
20
7.74319135674071
30
0
41
1
10
15.6818380304531
20
7.72699190739692
30
0
0
SPLINE
5
136
100
AcDbEntity
8
1
62
256
6
ByLayer
370
18
48
1
60
0
100
AcDbSpline
70
4
71
3
72
26
73
22
40
0
40
0
40
0
40
0
40
0.124999999999992
40
0.124999999999992
40
0.249999999999984
40
0.249999999999984
40
0.312499999999982
40
0.312499999999982
40
0.374999999999981
40
0.374999999999981
40
0.499999999999978
40
0.499999999999978
40
0.624999999999975
40
0.624999999999975
40
0.687499999999975
40
0.687499999999975
40
0.749999999999974
40
0.749999999999974
40
0.874999999999987
40
0.874999999999987
40
1
40
1
40
1
40
1
41
1
10
14.3018189416601
20
6.99647335684776
30
0
41
1
10
14.2921226156073
20
6.97993408458214
30
0
41
1
10
14.2837464784976
20
6.96225779087624
30
0
41
1
10
14.2704404213357
20
6.9263775138229
30
0
41
1
10
14.2654055933908
20
6.90805051036327
30
0
41
1
10
14.2602381606511
20
6.87999242779716
30
0
41
1
10
14.2589144439235
20
6.87050515546957
30
0
41
1
10
14.2571089564149
20
6.85169113816931
30
0
41
1
10
14.256617760408
20
6.84233174027375
30
0
41
1
10
14.2563261495495
20
6.81439241382668
30
0
41
1
10
14.2577000229542
20
6.79595036030517
30
0
41
1
10
14.2635122179082
20
6.75943942062696
30
0
41
1
10
14.2678854172296
20
6.74180270094558
30
0
41
1
10
14.2764137990603
20
6.71632636487206
30
0
41
1
10
14.2795878984402
20
6.70799107143512
30
0
41
1
10
14.2865849495031
20
6.69163043020285
30
0
41
1
10
14.2904205404939
20
6.68358166446799
30
0
41
1
10
14.3028100072966
20
6.66006795042495
30
0
41
1
10
14.3121522745056
20
6.64537790846688
30
0
41
1
10
14.3328117741
20
6.61782594893498
30
0
41
1
10
14.3441302162227
20
6.60496500305968
30
0
41
1
10
14.3564173719111
20
6.59301417141978
30
0
0
SPLINE
5
137
100
AcDbEntity
8
1
62
256
6
ByLayer
370
18
48
1
60
0
100
AcDbSpline
70
4
71
3
72
17
73
13
40
0
40
0
40
0
40
0
40
0.249999999999998
40
0.249999999999998
40
0.499999999999997
40
0.499999999999997
40
0.562499999999999
40
0.562499999999999
40
0.625000000000002
40
0.750000000000004
40
0.750000000000004
40
1
40
1
40
1
40
1
41
1
10
14.3564173719111
20
5.40877876308539
30
0
41
1
10
14.3853753963688
20
5.43694414844313
30
0
41
1
10
14.4122309410962
20
5.46717070938794
30
0
41
1
10
14.4617197383667
20
5.53197479063959
30
0
41
1
10
14.4843572921867
20
5.56654577211881
30
0
41
1
10
14.5097894773874
20
5.61290795539597
30
0
41
1
10
14.5147424479629
20
5.62236175744127
30
0
41
1
10
14.5242836416443
20
5.64147119113895
30
0
41
1
10
14.5380498884724
20
5.6704344303044
30
0
41
1
10
14.5501769665482
20
5.70031019050921
30
0
41
1
10
14.572190923673
20
5.76134707933076
30
0
41
1
10
14.5839044979643
20
5.80373826998556
30
0
41
1
10
14.5922620637001
20
5.84815517387614
30
0
0
SPLINE
5
138
100
AcDbEntity
8
1
62
256
6
ByLayer
370
18
48
1
60
0
100
AcDbSpline
70
4
71
3
72
18
73
14
40
0
40
0
40
0
40
0
40
0.250000000000016
40
0.250000000000016
40
0.37500000000002
40
0.37500000000002
40
0.437500000000018
40
0.437500000000018
40
0.500000000000017
40
0.500000000000017
40
0.750000000000008
40
0.750000000000008
40
1
40
1
40
1
40
1
41
1
10
14.5922620637001
20
6.15363776062907
30
0
41
1
10
14.5839029765648
20
6.19806275010993
30
0
41
1
10
14.572194076137
20
6.24042519493543
30
0
41
1
10
14.5502147004153
20
6.30138406519222
30
0
41
1
10
14.5421460177692
20
6.32126928010544
30
0
41
1
10
14.5289590937531
20
6.35048161349604
30
0
41
1
10
14.5243825255529
20
6.36011631070983
30
0
41
1
10
14.514869290995
20
6.37918434286206
30
0
41
1
10
14.5099208758558
20
6.38863849707741
30
0
41
1
10
14.4844501468563
20
6.4351052591303
30
0
41
1
10
14.4617830025326
20
6.46972981110761
30
0
41
1
10
14.4122494705402
20
6.53460344256229
30
0
41
1
10
14.385378603438
20
6.56484566677676
30
0
41
1
10
14.3564173719111
20
6.59301417141978
30
0
0
SPLINE
5
139
100
AcDbEntity
8
1
62
256
6
ByLayer
370
18
48
1
60
0
100
AcDbSpline
70
4
71
3
72
24
73
20
40
0
40
0
40
0
40
0
40
0.249999999999998
40
0.249999999999998
40
0.312499999999997
40
0.312499999999997
40
0.374999999999995
40
0.374999999999995
40
0.499999999999997
40
0.499999999999997
40
0.624999999999999
40
0.624999999999999
40
0.750000000000001
40
0.750000000000001
40
0.812500000000002
40
0.812500000000002
40
0.875000000000003
40
0.875000000000003
40
1
40
1
40
1
40
1
41
1
10
14.3564173719111
20
5.40877876308539
30
0
41
1
10
14.3317839716634
20
5.38481962831557
30
0
41
1
10
14.3110139343972
20
5.35730976643833
30
0
41
1
10
14.2903971704345
20
5.31816322033632
30
0
41
1
10
14.2865369975271
20
5.31006040748892
30
0
41
1
10
14.2795204050117
20
5.29363385695578
30
0
41
1
10
14.2763473422612
20
5.28528382405153
30
0
41
1
10
14.2678407200772
20
5.25982465962352
30
0
41
1
10
14.2635122897659
20
5.24230941056825
30
0
41
1
10
14.2577395427008
20
5.2061350784326
30
0
41
1
10
14.2563184467601
20
5.18729634269553
30
0
41
1
10
14.2567259954199
20
5.1499404090878
30
0
41
1
10
14.2585039192012
20
5.13128575142036
30
0
41
1
10
14.2636305446475
20
5.10334681411612
30
0
41
1
10
14.2657514702607
20
5.09404102553671
30
0
41
1
10
14.2708635794299
20
5.07544548620729
30
0
41
1
10
14.2738341868355
20
5.06624402398862
30
0
41
1
10
14.2838646215748
20
5.0392572958842
30
0
41
1
10
14.292072205593
20
5.02194483557861
30
0
41
1
10
14.3018189416601
20
5.00531957765742
30
0
0
SPLINE
5
13A
100
AcDbEntity
8
1
62
256
6
ByLayer
370
18
48
1
60
0
100
AcDbSpline
70
4
71
3
72
26
73
22
40
0
40
0
40
0
40
0
40
0.24999999999997
40
0.24999999999997
40
0.374999999999961
40
0.374999999999961
40
0.499999999999952
40
0.499999999999952
40
0.56249999999996
40
0.56249999999996
40
0.624999999999967
40
0.624999999999967
40
0.687499999999975
40
0.687499999999975
40
0.749999999999982
40
0.749999999999982
40
0.812499999999989
40
0.812499999999989
40
0.874999999999997
40
0.874999999999997
40
1
40
1
40
1
40
1
41
1
10
-9.76977062535724
20
-0.324980947162374
30
0
41
1
10
-9.78371394300035
20
-0.324980947162402
30
0
41
1
10
-9.79721633044178
20
-0.324252951409051
30
0
41
1
10
-9.81586925133837
20
-0.321208544080719
30
0
41
1
10
-9.82185023943691
20
-0.319858473911921
30
0
41
1
10
-9.83297200704673
20
-0.316164973903966
30
0
41
1
10
-9.83800393203232
20
-0.313865133235225
30
0
41
1
10
-9.84436713160872
20
-0.309378419529168
30
0
41
1
10
-9.84629792389461
20
-0.307691692329087
30
0
41
1
10
-9.8495443648355
20
-0.303975286250051
30
0
41
1
10
-9.85087263754846
20
-0.301941955794433
30
0
41
1
10
-9.85283128801603
20
-0.297457432910107
30
0
41
1
10
-9.85343991278366
20
-0.295033554344172
30
0
41
1
10
-9.85385630319131
20
-0.289942785349297
30
0
41
1
10
-9.85367136975525
20
-0.287249769995128
30
0
41
1
10
-9.85250595826933
20
-0.281606923074406
30
0
41
1
10
-9.85154717061477
20
-0.278746080497257
30
0
41
1
10
-9.84899139102964
20
-0.272956798029725
30
0
41
1
10
-9.84737849564674
20
-0.270005548215636
30
0
41
1
10
-9.84181586539495
20
-0.261242606835367
30
0
41
1
10
-9.83720772401574
20
-0.255558778474636
30
0
41
1
10
-9.83200555996575
20
-0.249980947161674
30
0
0
SPLINE
5
13B
100
AcDbEntity
8
1
62
256
6
ByLayer
370
18
48
1
60
0
100
AcDbSpline
70
4
71
3
72
8
73
4
40
0
40
0
40
0
40
0
40
1
40
1
40
1
40
1
41
1
10
8.97509300114021
20
-0.269594177820636
30
0
41
1
10
8.97048024229872
20
-0.263188796058728
30
0
41
1
10
8.96535566342396
20
-0.256648768658465
30
0
41
1
10
8.95982040671319
20
-0.249999999999829
30
0
0
SPLINE
5
13C
100
AcDbEntity
8
1
62
256
6
ByLayer
370
18
48
1
60
0
100
AcDbSpline
70
4
71
3
72
8
73
4
40
0
40
0
40
0
40
0
40
1
40
1
40
1
40
1
41
1
10
8.97509300113904
20
-0.269594177821347
30
0
41
1
10
8.96602634583104
20
-0.263052313104737
30
0
41
1
10
8.95695689263579
20
-0.256520867363747
30
0
41
1
10
8.94788459874798
20
-0.25
30
0
0
SPLINE
5
13D
100
AcDbEntity
8
1
62
256
6
ByLayer
370
18
48
1
60
0
100
AcDbSpline
70
4
71
3
72
20
73
16
40
0
40
0
40
0
40
0
40
0.125000000000003
40
0.125000000000003
40
0.250000000000005
40
0.250000000000005
40
0.375000000000008
40
0.375000000000008
40
0.500000000000011
40
0.500000000000011
40
0.625000000000014
40
0.625000000000014
40
0.750000000000016
40
0.750000000000016
40
1
40
1
40
1
40
1
41
1
10
9.5070945452878
20
-0.324980947161691
30
0
41
1
10
9.50446684643606
20
-0.324980947161691
30
0
41
1
10
9.50120547788177
20
-0.324325438354265
30
0
41
1
10
9.49383752136632
20
-0.321978904858042
30
0
41
1
10
9.48970604367264
20
-0.320287538788818
30
0
41
1
10
9.48067606109115
20
-0.316017460644701
30
0
41
1
10
9.47584069438224
20
-0.313466776029827
30
0
41
1
10
9.4657554788725
20
-0.307741778715837
30
0
41
1
10
9.46048600059484
20
-0.304557321014272
30
0
41
1
10
9.44955246765531
20
-0.297627228915957
30
0
41
1
10
9.44387251607549
20
-0.293868908437645
30
0
41
1
10
9.43240356571505
20
-0.286013315481341
30
0
41
1
10
9.42658457612515
20
-0.281897606492322
30
0
41
1
10
9.40890440191322
20
-0.269050270820657
30
0
41
1
10
9.39682270649575
20
-0.259824535101188
30
0
41
1
10
9.3844789550599
20
-0.25
30
0
0
SPLINE
5
13E
100
AcDbEntity
8
1
62
256
6
ByLayer
370
18
48
1
60
0
100
AcDbSpline
70
4
71
2
72
6
73
3
40
0
40
0
40
0
40
1
40
1
40
1
41
1
10
9.57062122153147
20
-0.324980947161691
30
0
41
1
10
9.53999786148736
20
-0.324980947161691
30
0
41
1
10
9.50723215695228
20
-0.324980947161691
30
0
0
SPLINE
5
13F
100
AcDbEntity
8
1
62
256
6
ByLayer
370
18
48
1
60
0
100
AcDbSpline
70
4
71
3
72
22
73
18
40
0
40
0
40
0
40
0
40
0.125
40
0.125
40
0.25
40
0.25
40
0.375
40
0.375
40
0.5
40
0.5
40
0.625
40
0.625
40
0.75
40
0.75
40
0.875
40
0.875
40
1
40
1
40
1
40
1
41
1
10
9.53081289439862
20
-0.249999999999943
30
0
41
1
10
9.53505931314226
20
-0.254861141173507
30
0
41
1
10
9.53914014588514
20
-0.259653435704053
30
0
41
1
10
9.5469222663894
20
-0.26908108225922
30
0
41
1
10
9.55063275024946
20
-0.273730195609943
30
0
41
1
10
9.55744018536603
20
-0.282630010692884
30
0
41
1
10
9.56055905507199
20
-0.28690587896952
30
0
41
1
10
9.56613810398775
20
-0.295057128232287
30
0
41
1
10
9.56861585716385
20
-0.298965833156615
30
0
41
1
10
9.57263907119452
20
-0.306067076874996
30
0
41
1
10
9.5741997112676
20
-0.309275100347463
30
0
41
1
10
9.57631860575586
20
-0.314932710155148
30
0
41
1
10
9.57685514810564
20
-0.317350053736362
30
0
41
1
10
9.57683167984811
20
-0.321175545408039
30
0
41
1
10
9.57628182451117
20
-0.322618634072569
30
0
41
1
10
9.57410536556662
20
-0.32453310272399
30
0
41
1
10
9.57251449079982
20
-0.324980699935452
30
0
41
1
10
9.57048139756094
20
-0.324980947060027
30
0
0
SPLINE
5
140
100
AcDbEntity
8
1
62
256
6
ByLayer
370
18
48
1
60
0
100
AcDbSpline
70
4
71
3
72
8
73
4
40
0
40
0
40
0
40
0
40
1
40
1
40
1
40
1
41
1
10
27.9642373556418
20
12.447898839738
30
0
41
1
10
27.9254893617773
20
12.2238938235789
30
0
41
1
10
27.8866633361714
20
11.9999312938031
30
0
41
1
10
27.8476335210329
20
11.7760797224656
30
0
0
SPLINE
5
141
100
AcDbEntity
8
1
62
256
6
ByLayer
370
18
48
1
60
0
100
AcDbSpline
70
4
71
3
72
8
73
4
40
0
40
0
40
0
40
0
40
1
40
1
40
1
40
1
41
1
10
28.0510403690611
20
12.5162795144877
30
0
41
1
10
28.022117036558
20
12.4934421220437
30
0
41
1
10
27.9931845518933
20
12.4706411827183
30
0
41
1
10
27.9642373556418
20
12.447898839738
30
0
0
SPLINE
5
142
100
AcDbEntity
8
1
62
256
6
ByLayer
370
18
48
1
60
0
100
AcDbSpline
70
4
71
3
72
18
73
14
40
0
40
0
40
0
40
0
40
0.249999999999999
40
0.249999999999999
40
0.499999999999999
40
0.499999999999999
40
0.625
40
0.625
40
0.75
40
0.75
40
0.875
40
0.875
40
1
40
1
40
1
40
1
41
1
10
28.0510403690611
20
12.5162795144877
30
0
41
1
10
28.0587308042105
20
12.5223517568738
30
0
41
1
10
28.0658178180447
20
12.5302946793767
30
0
41
1
10
28.0786429399428
20
12.5499502133961
30
0
41
1
10
28.0840882132799
20
12.5612006507662
30
0
41
1
10
28.0908077926227
20
12.5802064872148
30
0
41
1
10
28.0927865932255
20
12.5868789718466
30
0
41
1
10
28.0961166271631
20
12.6005022963245
30
0
41
1
10
28.0974872240176
20
12.6075048000361
30
0
41
1
10
28.0996334564215
20
12.621895458052
30
0
41
1
10
28.1004086565829
20
12.6293311234226
30
0
41
1
10
28.1013039292239
20
12.6441811136172
30
0
41
1
10
28.1014336725201
20
12.6516339100242
30
0
41
1
10
28.1012431316259
20
12.6591147168601
30
0
0
SPLINE
5
143
100
AcDbEntity
8
1
62
256
6
ByLayer
370
18
48
1
60
0
100
AcDbSpline
70
4
71
2
72
6
73
3
40
0
40
0
40
0
40
1
40
1
40
1
41
0.500000222447518
10
28.0987559516352
20
12.7566915392286
30
0
41
0.499999777552482
10
28.1000002065731
20
12.707913072043
30
0
41
0.500000222447518
10
28.1012431316259
20
12.6591147168602
30
0
0
SPLINE
5
144
100
AcDbEntity
8
1
62
256
6
ByLayer
370
18
48
1
60
0
100
AcDbSpline
70
4
71
3
72
18
73
14
40
0
40
0
40
0
40
0
40
0.249999999999988
40
0.249999999999988
40
0.499999999999976
40
0.499999999999976
40
0.624999999999982
40
0.624999999999982
40
0.749999999999988
40
0.749999999999988
40
0.874999999999994
40
0.874999999999994
40
1
40
1
40
1
40
1
41
1
10
28.041376059658
20
12.891835794553
30
0
41
1
10
28.0493733427032
20
12.8868790885388
30
0
41
1
10
28.0568402393072
20
12.8799869820586
30
0
41
1
10
28.0706356032715
20
12.8622514816254
30
0
41
1
10
28.0766440310748
20
12.8518251377954
30
0
41
1
10
28.0843213668032
20
12.8338452345479
30
0
41
1
10
28.0866337452907
20
12.8274872901491
30
0
41
1
10
28.0906535310997
20
12.8143820398994
30
0
41
1
10
28.0923809809962
20
12.8075898980674
30
0
41
1
10
28.0952617027469
20
12.7935187011849
30
0
41
1
10
28.0964148153004
20
12.7861983918797
30
0
41
1
10
28.0980598357544
20
12.7715376423708
30
0
41
1
10
28.0985658154682
20
12.7641454383438
30
0
41
1
10
28.0987559516351
20
12.7566915392325
30
0
0
SPLINE
5
145
100
AcDbEntity
8
1
62
256
6
ByLayer
370
18
48
1
60
0
100
AcDbSpline
70
4
71
3
72
8
73
4
40
0
40
0
40
0
40
0
40
1
40
1
40
1
40
1
41
1
10
27.9511225528036
20
12.9475589240096
30
0
41
1
10
27.9812218090603
20
12.9290594471693
30
0
41
1
10
28.0113041900323
20
12.9104743016798
30
0
41
1
10
28.041376059658
20
12.891835794553
30
0
0
SPLINE
5
146
100
AcDbEntity
8
1
62
256
6
ByLayer
370
18
48
1
60
0
100
AcDbSpline
70
4
71
3
72
10
73
6
40
0
40
0
40
0
40
0
40
0.5
40
0.5
40
1
40
1
40
1
40
1
41
1
10
27.7542082474677
20
13.7785731532544
30
0
41
1
10
27.7879212385408
20
13.6407361104811
30
0
41
1
10
27.8209786680218
20
13.5024111558833
30
0
41
1
10
27.886469088359
20
13.2252964986115
30
0
41
1
10
27.9188874551059
20
13.0864959117186
30
0
41
1
10
27.9511225528036
20
12.9475589240096
30
0
0
SPLINE
5
147
100
AcDbEntity
8
1
62
256
6
ByLayer
370
18
48
1
60
0
100
AcDbSpline
70
4
71
3
72
9
73
5
40
0
40
0
40
0
40
0
40
0.5
40
1
40
1
40
1
40
1
41
1
10
27.8476335210329
20
11.7760797224657
30
0
41
1
10
27.8086187818554
20
11.7755223769678
30
0
41
1
10
27.7293568241348
20
11.7747195663299
30
0
41
1
10
27.6477247524843
20
11.7744746902064
30
0
41
1
10
27.6062854149494
20
11.7744956353562
30
0
0
SPLINE
5
148
100
AcDbEntity
8
1
62
256
6
ByLayer
370
18
48
1
60
0
100
AcDbSpline
70
4
71
3
72
33
73
29
40
0
40
0
40
0
40
0
40
0.125000000000011
40
0.125000000000011
40
0.156250000000013
40
0.156250000000013
40
0.187500000000016
40
0.250000000000021
40
0.312500000000026
40
0.312500000000026
40
0.343750000000026
40
0.343750000000026
40
0.375000000000026
40
0.375000000000026
40
0.500000000000023
40
0.500000000000023
40
0.562500000000018
40
0.562500000000018
40
0.625000000000014
40
0.68750000000001
40
0.68750000000001
40
0.750000000000006
40
0.750000000000006
40
0.875000000000003
40
0.875000000000003
40
0.937500000000001
40
0.937500000000001
40
1
40
1
40
1
40
1
41
1
10
12.8743931895837
20
0.875
30
0
41
1
10
12.8743931895837
20
0.9119291045198
30
0
41
1
10
12.8794166588817
20
0.948157876998181
30
0
41
1
10
12.8917163039401
20
0.992604539189131
30
0
41
1
10
12.8944918395589
20
1.00147748308368
30
0
41
1
10
12.9005550841204
20
1.01886329493186
30
0
41
1
10
12.9104466229476
20
1.04451432712909
30
0
41
1
10
12.9307140827301
20
1.08523595296856
30
0
41
1
10
12.9506977621895
20
1.11578952076343
30
0
41
1
10
12.9670530170849
20
1.1379705701118
30
0
41
1
10
12.9727491446756
20
1.14525948701882
30
0
41
1
10
12.9844669616694
20
1.15944256801211
30
0
41
1
10
12.9904975709265
20
1.16635112462259
30
0
41
1
10
13.0214681581815
20
1.20002264290204
30
0
41
1
10
13.0488332134675
20
1.22420116600384
30
0
41
1
10
13.0933561836411
20
1.25676518217227
30
0
41
1
10
13.108732590805
20
1.26695217746487
30
0
41
1
10
13.1400859458402
20
1.28581753274065
30
0
41
1
10
13.1721559234838
20
1.30326075744057
30
0
41
1
10
13.2055809856095
20
1.31801483020482
30
0
41
1
10
13.2396646341427
20
1.33146194466767
30
0
41
1
10
13.257099225376
20
1.33754842509776
30
0
41
1
10
13.3096981260768
20
1.35365706376118
30
0
41
1
10
13.3452639692152
20
1.36161320008426
30
0
41
1
10
13.3993183784813
20
1.3696191365934
30
0
41
1
10
13.4174549214815
20
1.37162862195186
30
0
41
1
10
13.4539664395077
20
1.37432026026082
30
0
41
1
10
13.4724111728782
20
1.375
30
0
41
1
10
13.4907375632321
20
1.375
30
0
0
SPLINE
5
149
100
AcDbEntity
8
1
62
256
6
ByLayer
370
18
48
1
60
0
100
AcDbSpline
70
4
71
3
72
10
73
6
40
0
40
0
40
0
40
0
40
0.5
40
0.5
40
1
40
1
40
1
40
1
41
1
10
20.8708512425571
20
10.7636278906766
30
0
41
1
10
20.8659297134722
20
10.7478807083085
30
0
41
1
10
20.8590270995712
20
10.7321342960745
30
0
41
1
10
20.8424763307771
20
10.700642538918
30
0
41
1
10
20.8328329828189
20
10.6848970607373
30
0
41
1
10
20.822715723538
20
10.6691520710791
30
0
0
SPLINE
5
14A
100
AcDbEntity
8
1
62
256
6
ByLayer
370
18
48
1
60
0
100
AcDbSpline
70
4
71
3
72
24
73
20
40
0
40
0
40
0
40
0
40
0.0625000000000018
40
0.0625000000000018
40
0.125000000000004
40
0.125000000000004
40
0.250000000000006
40
0.250000000000006
40
0.375000000000007
40
0.375000000000007
40
0.437500000000007
40
0.437500000000007
40
0.500000000000007
40
0.500000000000007
40
0.625000000000005
40
0.625000000000005
40
0.750000000000003
40
0.750000000000003
40
1
40
1
40
1
40
1
41
1
10
21.1502329966406
20
12.7319040811165
30
0
41
1
10
21.1724945800478
20
12.7510823094474
30
0
41
1
10
21.1952209521849
20
12.7689854302369
30
0
41
1
10
21.2415280140857
20
12.8024479255533
30
0
41
1
10
21.2651371957571
20
12.8180237899562
30
0
41
1
10
21.3369770684816
20
12.8613640050253
30
0
41
1
10
21.3857044764143
20
12.8854763164856
30
0
41
1
10
21.484538726619
20
12.9257944132224
30
0
41
1
10
21.534647644696
20
12.9419883005735
30
0
41
1
10
21.6107157496495
20
12.9610934883715
30
0
41
1
10
21.6362232475022
20
12.9665937421252
30
0
41
1
10
21.6875257315369
20
12.9759464481102
30
0
41
1
10
21.7133844417099
20
12.9798051783216
30
0
41
1
10
21.7908281646534
20
12.9889550290232
30
0
41
1
10
21.8422448460403
20
12.9918494212297
30
0
41
1
10
21.9447093990785
20
12.9920739471576
30
0
41
1
10
21.9957569715471
20
12.9893995670892
30
0
41
1
10
22.1483991320614
20
12.9738244897694
30
0
41
1
10
22.2494978496648
20
12.9534425601942
30
0
41
1
10
22.3499999999999
20
12.9240601781807
30
0
0
SPLINE
5
14B
100
AcDbEntity
8
1
62
256
6
ByLayer
370
18
48
1
60
0
100
AcDbSpline
70
4
71
3
72
22
73
18
40
0
40
0
40
0
40
0
40
0.0625000000000013
40
0.0625000000000013
40
0.125000000000002
40
0.125000000000002
40
0.250000000000002
40
0.250000000000002
40
0.500000000000005
40
0.500000000000005
40
0.562500000000003
40
0.562500000000003
40
0.625000000000001
40
0.625000000000001
40
0.750000000000001
40
0.750000000000001
40
1
40
1
40
1
40
1
41
1
10
20.7499999999999
20
11.6184615112001
30
0
41
1
10
20.7499999999999
20
11.6436314477391
30
0
41
1
10
20.7505384990997
20
11.6688531753572
30
0
41
1
10
20.7527084850587
20
11.7194017505746
30
0
41
1
10
20.7543462929334
20
11.7447872475454
30
0
41
1
10
20.7608731064942
20
11.8204873429059
30
0
41
1
10
20.7673646266981
20
11.8704366810819
30
0
41
1
10
20.7930953354102
20
12.0187723541167
30
0
41
1
10
20.8185403948345
20
12.1156585013303
30
0
41
1
10
20.8609336436386
20
12.2342069356326
30
0
41
1
10
20.8699456772206
20
12.2577876839718
30
0
41
1
10
20.8890590382591
20
12.3046858581876
30
0
41
1
10
20.8991782864463
20
12.3280361165238
30
0
41
1
10
20.9308867415244
20
12.3970031658887
30
0
41
1
10
20.9539030145135
20
12.4417508271513
30
0
41
1
10
21.0284869574659
20
12.5723661281175
30
0
41
1
10
21.0855422832137
20
12.6546371953371
30
0
41
1
10
21.1502329966409
20
12.7319040811157
30
0
0
SPLINE
5
14C
100
AcDbEntity
8
1
62
256
6
ByLayer
370
18
48
1
60
0
100
AcDbSpline
70
4
71
3
72
20
73
16
40
0
40
0
40
0
40
0
40
0.125
40
0.125
40
0.25
40
0.25
40
0.375
40
0.375
40
0.5
40
0.5
40
0.625
40
0.625
40
0.75
40
0.75
40
1
40
1
40
1
40
1
41
1
10
-11.1320782392769
20
-0.324980947161748
30
0
41
1
10
-11.1352153779729
20
-0.324980947161748
30
0
41
1
10
-11.1379995581218
20
-0.324581483697585
30
0
41
1
10
-11.1425602599156
20
-0.322880500925265
30
0
41
1
10
-11.1443698180766
20
-0.321572915063968
30
0
41
1
10
-11.1468471997408
20
-0.317947268097811
30
0
41
1
10
-11.1474895806123
20
-0.31567755487319
30
0
41
1
10
-11.1475787917377
20
-0.310212274884577
30
0
41
1
10
-11.1470034342433
20
-0.306969162786601
30
0
41
1
10
-11.1447268949469
20
-0.29985100455238
30
0
41
1
10
-11.143039567215
20
-0.295963435139441
30
0
41
1
10
-11.1386768192221
20
-0.287590116805859
30
0
41
1
10
-11.1360204266698
20
-0.283150106968293
30
0
41
1
10
-11.1270564922387
20
-0.269508992532735
30
0
41
1
10
-11.1195900715259
20
-0.259735651200032
30
0
41
1
10
-11.1114500273988
20
-0.249980947154313
30
0
0
SPLINE
5
14D
100
AcDbEntity
8
1
62
256
6
ByLayer
370
18
48
1
60
0
100
AcDbSpline
70
4
71
3
72
16
73
12
40
0
40
0
40
0
40
0
40
0.0991241039971953
40
0.0991241039971953
40
0.324343077997897
40
0.324343077997897
40
0.549562051998598
40
0.549562051998598
40
0.774781025999299
40
0.774781025999299
40
1
40
1
40
1
40
1
41
1
10
-10.9369189903114
20
-0.296247252500905
30
0
41
1
10
-10.9401655207036
20
-0.297843114269938
30
0
41
1
10
-10.9433966326854
20
-0.299396040292578
30
0
41
1
10
-10.9539161602598
20
-0.304330463663064
30
0
41
1
10
-10.9611695861205
20
-0.307534381850928
30
0
41
1
10
-10.9751929157508
20
-0.313258941423413
30
0
41
1
10
-10.9819859246727
20
-0.315793026802652
30
0
41
1
10
-10.9950506921146
20
-0.320074036858045
30
0
41
1
10
-11.0013242982397
20
-0.321823931556139
30
0
41
1
10
-11.0131968590635
20
-0.324294057072933
30
0
41
1
10
-11.0186481431831
20
-0.324980947167972
30
0
41
1
10
-11.0234674519049
20
-0.324980947168172
30
0
0
SPLINE
5
14E
100
AcDbEntity
8
1
62
256
6
ByLayer
370
18
48
1
60
0
100
AcDbSpline
70
4
71
3
72
14
73
10
40
0
40
0
40
0
40
0
40
0.0894598291488378
40
0.0894598291488378
40
0.392973219432558
40
0.392973219432558
40
0.696486609716279
40
0.696486609716279
40
1
40
1
40
1
40
1
41
1
10
-9.23069302613837
20
-0.311032527846209
30
0
41
1
10
-9.23599680282237
20
-0.311723378500574
30
0
41
1
10
-9.24129838173869
20
-0.312398183522873
30
0
41
1
10
-9.26457702802512
20
-0.315286220502173
30
0
41
1
10
-9.28248929514561
20
-0.317312073842714
30
0
41
1
10
-9.31797101298199
20
-0.320786465315109
30
0
41
1
10
-9.33556537129778
20
-0.322240606435287
30
0
41
1
10
-9.37037734089569
20
-0.324333802127739
30
0
41
1
10
-9.38759768042249
20
-0.324980947161663
30
0
41
1
10
-9.40454881002677
20
-0.324980947161663
30
0
0
SPLINE
5
14F
100
AcDbEntity
8
1
62
256
6
ByLayer
370
18
48
1
60
0
100
AcDbSpline
70
4
71
3
72
8
73
4
40
0
40
0
40
0
40
0
40
1
40
1
40
1
40
1
41
1
10
-9.96637832280624
20
-0.249980947161504
30
0
41
1
10
-9.86535047201168
20
-0.208886956077919
30
0
41
1
10
-9.76333499207149
20
-0.169915419792972
30
0
41
1
10
-9.660217605339
20
-0.133311925570581
30
0
0
SPLINE
5
150
100
AcDbEntity
8
1
62
256
6
ByLayer
370
18
48
1
60
0
100
AcDbSpline
70
4
71
3
72
16
73
12
40
0
40
0
40
0
40
0
40
0.125000000000008
40
0.125000000000008
40
0.250000000000016
40
0.250000000000016
40
0.500000000000011
40
0.500000000000011
40
0.750000000000005
40
0.750000000000005
40
1
40
1
40
1
40
1
41
1
10
-10.2470436468637
20
-0.324980947161663
30
0
41
1
10
-10.2368176996361
20
-0.324980947160697
30
0
41
1
10
-10.2261105645492
20
-0.324200732781947
30
0
41
1
10
-10.2040252939894
20
-0.321595212906118
30
0
41
1
10
-10.1925916480194
20
-0.319751268507474
30
0
41
1
10
-10.1578378552941
20
-0.313070425791182
30
0
41
1
10
-10.1343736234426
20
-0.307193150124277
30
0
41
1
10
-10.0870307140286
20
-0.293653557543223
30
0
41
1
10
-10.0631479963767
20
-0.285965246733184
30
0
41
1
10
-10.0150264157267
20
-0.269095229194733
30
0
41
1
10
-9.99078675577486
20
-0.259909297798572
30
0
41
1
10
-9.96637832280616
20
-0.249980947161674
30
0
0
SPLINE
5
151
100
AcDbEntity
8
1
62
256
6
ByLayer
370
18
48
1
60
0
100
AcDbSpline
70
4
71
3
72
8
73
4
40
0
40
0
40
0
40
0
40
1
40
1
40
1
40
1
41
1
10
-11.1539311130555
20
-0.249980947161646
30
0
41
1
10
-11.1370643731008
20
-0.237366129676531
30
0
41
1
10
-11.120166047202
20
-0.224786456048179
30
0
41
1
10
-11.103235063126
20
-0.212243119288502
30
0
0
SPLINE
5
152
100
AcDbEntity
8
1
62
256
6
ByLayer
370
18
48
1
60
0
100
AcDbSpline
70
4
71
3
72
20
73
16
40
0
40
0
40
0
40
0
40
0.125000000000004
40
0.125000000000004
40
0.250000000000008
40
0.250000000000008
40
0.375000000000012
40
0.375000000000012
40
0.500000000000016
40
0.500000000000016
40
0.750000000000008
40
0.750000000000008
40
0.875000000000004
40
0.875000000000004
40
1
40
1
40
1
40
1
41
1
10
-11.2871772280887
20
-0.324980947161919
30
0
41
1
10
-11.2841126650964
20
-0.324980947161919
30
0
41
1
10
-11.2804336330612
20
-0.324326717375243
30
0
41
1
10
-11.2720438166112
20
-0.321927033528368
30
0
41
1
10
-11.2673785357809
20
-0.320189385940665
30
0
41
1
10
-11.2574809997012
20
-0.315925042907423
30
0
41
1
10
-11.2522175048208
20
-0.313387918152586
30
0
41
1
10
-11.2411564914624
20
-0.307626792034881
30
0
41
1
10
-11.2353751890956
20
-0.30440847513853
30
0
41
1
10
-11.2177208346944
20
-0.294078861253268
30
0
41
1
10
-11.2054148194759
20
-0.286238759708993
30
0
41
1
10
-11.1863183862468
20
-0.273317667880235
30
0
41
1
10
-11.1798450150413
20
-0.268812423928665
30
0
41
1
10
-11.1669160865667
20
-0.259584653592867
30
0
41
1
10
-11.1604321264514
20
-0.25484312549068
30
0
41
1
10
-11.1539311130558
20
-0.249980947163749
30
0
0
SPLINE
5
153
100
AcDbEntity
8
1
62
256
6
ByLayer
370
18
48
1
60
0
100
AcDbSpline
70
4
71
3
72
8
73
4
40
0
40
0
40
0
40
0
40
1
40
1
40
1
40
1
41
1
10
7.66170677248482
20
0.0571915503033154
30
0
41
1
10
7.51573715139969
20
-0.0383503367262961
30
0
41
1
10
7.36963604651288
20
-0.133446128104225
30
0
41
1
10
7.22339810906743
20
-0.228077676673365
30
0
0
SPLINE
5
154
100
AcDbEntity
8
1
62
256
6
ByLayer
370
18
48
1
60
0
100
AcDbSpline
70
4
71
3
72
30
73
26
40
0
40
0
40
0
40
0
40
0.250000000000027
40
0.250000000000027
40
0.37500000000004
40
0.37500000000004
40
0.500000000000053
40
0.500000000000053
40
0.562500000000056
40
0.562500000000056
40
0.625000000000058
40
0.625000000000058
40
0.68750000000006
40
0.68750000000006
40
0.750000000000063
40
0.750000000000063
40
0.781250000000056
40
0.781250000000056
40
0.812500000000049
40
0.812500000000049
40
0.875000000000032
40
0.875000000000032
40
0.937500000000016
40
0.937500000000016
40
1
40
1
40
1
40
1
41
1
10
6.32610759209368
20
-0.324980947161663
30
0
41
1
10
6.30895523289064
20
-0.324980947161691
30
0
41
1
10
6.29208157702385
20
-0.324377259675828
30
0
41
1
10
6.26750018480044
20
-0.321930725538749
30
0
41
1
10
6.25939445407633
20
-0.320848040210791
30
0
41
1
10
6.24372854904996
20
-0.317928091486039
30
0
41
1
10
6.23620682309937
20
-0.316109021782779
30
0
41
1
10
6.22568657241564
20
-0.312508448027359
30
0
41
1
10
6.22230861856289
20
-0.31116096369206
30
0
41
1
10
6.21591426295666
20
-0.30805403888931
30
0
41
1
10
6.21287035292448
20
-0.306274866820615
30
0
41
1
10
6.20751976611069
20
-0.302231168235863
30
0
41
1
10
6.20518386142263
20
-0.29994911368891
30
0
41
1
10
6.20160828920964
20
-0.294772273174573
30
0
41
1
10
6.20041408005753
20
-0.29194829658266
30
0
41
1
10
6.19971056995726
20
-0.287281667244571
30
0
41
1
10
6.19966320953691
20
-0.285643710974114
30
0
41
1
10
6.19995012421148
20
-0.282353947498109
30
0
41
1
10
6.20027976527976
20
-0.28068705408424
30
0
41
1
10
6.20179147637552
20
-0.275624633340215
30
0
41
1
10
6.20351609927596
20
-0.27216874953578
30
0
41
1
10
6.20785466491731
20
-0.265522644781754
30
0
41
1
10
6.21051007557583
20
-0.262245767396195
30
0
41
1
10
6.21636758997769
20
-0.255939059647687
30
0
41
1
10
6.21955595240865
20
-0.252914908876164
30
0
41
1
10
6.22292588125003
20
-0.249980947131121
30
0
0
SPLINE
5
155
100
AcDbEntity
8
1
62
256
6
ByLayer
370
18
48
1
60
0
100
AcDbSpline
70
4
71
3
72
15
73
11
40
0
40
0
40
0
40
0
40
0.25
40
0.5
40
0.5
40
0.75
40
0.75
40
0.875
40
0.875
40
1
40
1
40
1
40
1
41
1
10
7.15410175340969
20
-0.249980947161959
30
0
41
1
10
7.11949744310726
20
-0.260869494537161
30
0
41
1
10
7.05032073642869
20
-0.280391315152514
30
0
41
1
10
6.9811820376791
20
-0.295791497294829
30
0
41
1
10
6.91206326724409
20
-0.308963148688235
30
0
41
1
10
6.87739853285686
20
-0.314456710978931
30
0
41
1
10
6.82619211327409
20
-0.320424309897248
30
0
41
1
10
6.80923657125001
20
-0.32203588721319
30
0
41
1
10
6.77561600085537
20
-0.3243108537296
30
0
41
1
10
6.75894873884985
20
-0.324980947161606
30
0
41
1
10
6.74249188881706
20
-0.324980947161663
30
0
0
SPLINE
5
156
100
AcDbEntity
8
1
62
256
6
ByLayer
370
18
48
1
60
0
100
AcDbSpline
70
4
71
3
72
8
73
4
40
0
40
0
40
0
40
0
40
1
40
1
40
1
40
1
41
1
10
7.22339810906746
20
-0.228077676673365
30
0
41
1
10
7.20031272400735
20
-0.235407347541752
30
0
41
1
10
7.17721396297489
20
-0.242708489291658
30
0
41
1
10
7.15410175340969
20
-0.249980947161674
30
0
0
SPLINE
5
157
100
AcDbEntity
8
1
62
256
6
ByLayer
370
18
48
1
60
0
100
AcDbSpline
70
4
71
3
72
8
73
4
40
0
40
0
40
0
40
0
40
1
40
1
40
1
40
1
41
1
10
6.2229258812701
20
-0.249980947141125
30
0
41
1
10
6.45609245419718
20
-0.0469790922391837
30
0
41
1
10
6.68597808660454
20
0.158774693155436
30
0
41
1
10
6.91329588661299
20
0.366682280557882
30
0
0
SPLINE
5
158
100
AcDbEntity
8
1
62
256
6
ByLayer
370
18
48
1
60
0
100
AcDbSpline
70
4
71
3
72
81
73
77
40
0
40
0
40
0
40
0
40
0.0078124999999994
40
0.0078124999999994
40
0.0117187499999991
40
0.0117187499999991
40
0.0156249999999986
40
0.0156249999999986
40
0.017578124999998
40
0.017578124999998
40
0.0195312499999974
40
0.0195312499999974
40
0.0214843749999968
40
0.0214843749999968
40
0.0234374999999963
40
0.0234374999999963
40
0.0273437499999967
40
0.0273437499999967
40
0.0312499999999971
40
0.0312499999999971
40
0.0390624999999972
40
0.0390624999999972
40
0.0468749999999974
40
0.0468749999999974
40
0.0624999999999972
40
0.0624999999999972
40
0.0937499999999967
40
0.0937499999999967
40
0.124999999999996
40
0.124999999999996
40
0.187499999999995
40
0.187499999999995
40
0.249999999999994
40
0.249999999999994
40
0.312499999999993
40
0.312499999999993
40
0.374999999999992
40
0.374999999999992
40
0.49999999999999
40
0.624999999999987
40
0.624999999999987
40
0.749999999999985
40
0.749999999999985
40
0.812499999999984
40
0.812499999999984
40
0.874999999999984
40
0.874999999999984
40
0.906249999999983
40
0.906249999999983
40
0.937499999999982
40
0.937499999999982
40
0.953124999999982
40
0.953124999999982
40
0.960937499999982
40
0.960937499999982
40
0.968749999999982
40
0.968749999999982
40
0.972656249999982
40
0.972656249999982
40
0.976562499999981
40
0.976562499999981
40
0.978515624999981
40
0.978515624999981
40
0.980468749999981
40
0.980468749999981
40
0.981445312499981
40
0.981445312499981
40
0.982421874999982
40
0.982421874999982
40
0.984374999999984
40
0.984374999999984
40
0.988281249999988
40
0.988281249999988
40
0.992187499999992
40
0.992187499999992
40
1
40
1
40
1
40
1
41
1
10
1.91224221527571
20
0.394519052843151
30
0
41
1
10
1.92260027365083
20
0.397470382277817
30
0
41
1
10
1.93283786110658
20
0.400656000617431
30
0
41
1
10
1.94779456186367
20
0.406204007763847
30
0
41
1
10
1.95271325741348
20
0.40818209795799
30
0
41
1
10
1.9622975569514
20
0.412623793809473
30
0
41
1
10
1.96692460319247
20
0.415043395047576
30
0
41
1
10
1.97308244679573
20
0.419356299912778
30
0
41
1
10
1.97498510374808
20
0.420901794091236
30
0
41
1
10
1.97814356823213
20
0.424317649885751
30
0
41
1
10
1.97937553127721
20
0.426188446353933
30
0
41
1
10
1.9804197424285
20
0.430094718808817
30
0
41
1
10
1.98016767343341
20
0.43208488231366
30
0
41
1
10
1.97833650493848
20
0.43566091557463
30
0
41
1
10
1.97684146809391
20
0.437229800282552
30
0
41
1
10
1.9715521129832
20
0.441419320218728
30
0
41
1
10
1.96714261473943
20
0.443496857369723
30
0
41
1
10
1.95788625907511
20
0.447126197110236
30
0
41
1
10
1.95306542600488
20
0.448616583755722
30
0
41
1
10
1.93832423326475
20
0.452621312482336
30
0
41
1
10
1.92812264321626
20
0.454664943117876
30
0
41
1
10
1.90740435871624
20
0.458233151164734
30
0
41
1
10
1.89692280726311
20
0.459723906732506
30
0
41
1
10
1.86538741092397
20
0.463682824017241
30
0
41
1
10
1.84417449210787
20
0.465656248769307
30
0
41
1
10
1.78025703058967
20
0.470645781454891
30
0
41
1
10
1.73725264988963
20
0.472719601202726
30
0
41
1
10
1.65098443404148
20
0.475886802092418
30
0
41
1
10
1.6077869137431
20
0.4769254973817
30
0
41
1
10
1.47807229819924
20
0.479177404442254
30
0
41
1
10
1.39143454900767
20
0.479542216888063
30
0
41
1
10
1.21796857575407
20
0.479493958295478
30
0
41
1
10
1.13113690460139
20
0.479041949024122
30
0
41
1
10
0.957329148831604
20
0.477882761325304
30
0
41
1
10
0.870323792927252
20
0.477166899227512
30
0
41
1
10
0.696349175854493
20
0.475776693033907
30
0
41
1
10
0.609388405753919
20
0.475099760634464
30
0
41
1
10
0.348574051787637
20
0.473386319949782
30
0
41
1
10
0.0010003507703686
20
0.47200367055919
30
0
41
1
10
-0.346258593410312
20
0.473375275194542
30
0
41
1
10
-0.693339956070815
20
0.475647183276322
30
0
41
1
10
-0.866793441191277
20
0.477269893009009
30
0
41
1
10
-1.12678156308041
20
0.479017268009557
30
0
41
1
10
-1.21341185681214
20
0.479476207823097
30
0
41
1
10
-1.38658196181328
20
0.479556475236905
30
0
41
1
10
-1.47312342215656
20
0.479215768728096
30
0
41
1
10
-1.60282241164069
20
0.477033463499424
30
0
41
1
10
-1.64603636785412
20
0.476023509055096
30
0
41
1
10
-1.732404440539
20
0.472937703046796
30
0
41
1
10
-1.77556093947172
20
0.470916772337659
30
0
41
1
10
-1.84020397899081
20
0.466007269746626
30
0
41
1
10
-1.86179262627243
20
0.464054865240968
30
0
41
1
10
-1.89394318274029
20
0.460129304204259
30
0
41
1
10
-1.90457892025236
20
0.458657307765151
30
0
41
1
10
-1.92557687187252
20
0.455151548859845
30
0
41
1
10
-1.93595107519374
20
0.453143056337922
30
0
41
1
10
-1.95106731633362
20
0.449203062644955
30
0
41
1
10
-1.9560684346626
20
0.447721193247531
30
0
41
1
10
-1.96555805505966
20
0.444199414509029
30
0
41
1
10
-1.97009904328232
20
0.442195860936522
30
0
41
1
10
-1.97581374795774
20
0.438152979130393
30
0
41
1
10
-1.97748212350464
20
0.436651382667094
30
0
41
1
10
-1.97980883341094
20
0.43315604020998
30
0
41
1
10
-1.98037246688429
20
0.431176687394242
30
0
41
1
10
-1.97997556416402
20
0.428196550109362
30
0
41
1
10
-1.97964165466868
20
0.427187280234875
30
0
41
1
10
-1.97867307625052
20
0.425265399837997
30
0
41
1
10
-1.9780408753785
20
0.424340153169766
30
0
41
1
10
-1.97580369573168
20
0.421646658948987
30
0
41
1
10
-1.97395171242516
20
0.420048670860723
30
0
41
1
10
-1.96785173654939
20
0.415569664711171
30
0
41
1
10
-1.96318270865211
20
0.413077560163487
30
0
41
1
10
-1.95359149055577
20
0.40855281328524
30
0
41
1
10
-1.94859288445005
20
0.40651666926243
30
0
41
1
10
-1.93328703299295
20
0.400792642800013
30
0
41
1
10
-1.92282156572341
20
0.397533435195697
30
0
41
1
10
-1.91224221525877
20
0.394519052838319
30
0
0
SPLINE
5
159
100
AcDbEntity
8
1
62
256
6
ByLayer
370
18
48
1
60
0
100
AcDbSpline
70
4
71
3
72
17
73
13
40
0
40
0
40
0
40
0
40
0.25
40
0.25
40
0.5
40
0.5
40
0.5625
40
0.5625
40
0.625
40
0.75
40
0.75
40
1
40
1
40
1
40
1
41
1
10
-1.91224221525877
20
0.394519052838319
30
0
41
1
10
-1.60176192357355
20
0.306053667681027
30
0
41
1
10
-1.28776911723094
20
0.236983023929383
30
0
41
1
10
-0.651754427740201
20
0.143175179431694
30
0
41
1
10
-0.329727668873488
20
0.118464900509594
30
0
41
1
10
0.0783629119482896
20
0.118261377257454
30
0
41
1
10
0.160394283176998
20
0.119762754673957
30
0
41
1
10
0.323519502227185
20
0.12580696443888
30
0
41
1
10
0.567279119098799
20
0.139418800322716
30
0
41
1
10
0.808326323249844
20
0.166313521538967
30
0
41
1
10
1.2870147226069
20
0.236782441218338
30
0
41
1
10
1.6015977775435
20
0.306006897427324
30
0
41
1
10
1.91224221527673
20
0.394519052843435
30
0
0
SPLINE
5
15A
100
AcDbEntity
8
1
62
256
6
ByLayer
370
18
48
1
60
0
100
AcDbSpline
70
4
71
3
72
8
73
4
40
0
40
0
40
0
40
0
40
1
40
1
40
1
40
1
41
1
10
-13.9273497265336
20
-0.249980947161674
30
0
41
1
10
-14.140018401876
20
-0.0890594833153955
30
0
41
1
10
-14.3513710386801
20
0.0731431542574796
30
0
41
1
10
-14.5615187733782
20
0.23651877337818
30
0
0
SPLINE
5
15B
100
AcDbEntity
8
1
62
256
6
ByLayer
370
18
48
1
60
0
100
AcDbSpline
70
4
71
3
72
16
73
12
40
0
40
0
40
0
40
0
40
0.125000000000005
40
0.125000000000005
40
0.250000000000011
40
0.250000000000011
40
0.500000000000007
40
0.500000000000007
40
0.750000000000004
40
0.750000000000004
40
1
40
1
40
1
40
1
41
1
10
-13.7912890092361
20
-0.324980947163652
30
0
41
1
10
-13.7947211231747
20
-0.324980947163453
30
0
41
1
10
-13.7987038822678
20
-0.3243439697697
30
0
41
1
10
-13.8075818891419
20
-0.322012470654755
30
0
41
1
10
-13.8124983254929
20
-0.320301845067462
30
0
41
1
10
-13.8279050504171
20
-0.314006523917868
30
0
41
1
10
-13.8392323105369
20
-0.308231113448897
30
0
41
1
10
-13.8632846302391
20
-0.294416067556767
30
0
41
1
10
-13.8756867854771
20
-0.286560850671492
30
0
41
1
10
-13.9010856072335
20
-0.269365680292793
30
0
41
1
10
-13.9141383585476
20
-0.259977683504246
30
0
41
1
10
-13.9273497265336
20
-0.249980947161674
30
0
0
SPLINE
5
15C
100
AcDbEntity
8
1
62
256
6
ByLayer
370
18
48
1
60
0
100
AcDbSpline
70
4
71
3
72
22
73
18
40
0
40
0
40
0
40
0
40
0.125
40
0.125
40
0.25
40
0.25
40
0.375
40
0.375
40
0.5
40
0.5
40
0.625
40
0.625
40
0.75
40
0.75
40
0.875
40
0.875
40
1
40
1
40
1
40
1
41
1
10
-13.7271595028412
20
-0.249980947161504
30
0
41
1
10
-13.7230711169545
20
-0.254870580017553
30
0
41
1
10
-13.719197862038
20
-0.259701365260099
30
0
41
1
10
-13.711950430119
20
-0.269226009096116
30
0
41
1
10
-13.7085556247414
20
-0.273950228042338
30
0
41
1
10
-13.7024739620712
20
-0.283086608544551
30
0
41
1
10
-13.699812285762
20
-0.287456554264992
30
0
41
1
10
-13.6953495169543
20
-0.295745119604987
30
0
41
1
10
-13.6935353207013
20
-0.299707252978664
30
0
41
1
10
-13.6910284293275
20
-0.306819145366916
30
0
41
1
10
-13.6903199496591
20
-0.309978932734424
30
0
41
1
10
-13.6900300661806
20
-0.31547687530076
30
0
41
1
10
-13.690469285274
20
-0.317827037319773
30
0
41
1
10
-13.6924447562857
20
-0.321476351282854
30
0
41
1
10
-13.6939679064125
20
-0.322810804878514
30
0
41
1
10
-13.6980030233289
20
-0.32457223002757
30
0
41
1
10
-13.7004864228397
20
-0.32498094716172
30
0
41
1
10
-13.7033273915928
20
-0.32498094716172
30
0
0
SPLINE
5
15D
100
AcDbEntity
8
1
62
256
6
ByLayer
370
18
48
1
60
0
100
AcDbSpline
70
4
71
3
72
8
73
4
40
0
40
0
40
0
40
0
40
1
40
1
40
1
40
1
41
1
10
-14.2655750866984
20
0.394519052838319
30
0
41
1
10
-14.0862027304346
20
0.179623374600055
30
0
41
1
10
-13.9067347108406
20
-0.035212365746446
30
0
41
1
10
-13.7271595028412
20
-0.249980947161504
30
0
0
SPLINE
5
15E
100
AcDbEntity
8
1
62
256
6
ByLayer
370
18
48
1
60
0
100
AcDbSpline
70
4
71
3
72
36
73
32
40
0
40
0
40
0
40
0
40
0.125000000000005
40
0.125000000000005
40
0.25000000000001
40
0.25000000000001
40
0.312500000000011
40
0.312500000000011
40
0.375000000000012
40
0.375000000000012
40
0.437500000000013
40
0.437500000000013
40
0.500000000000014
40
0.500000000000014
40
0.562500000000015
40
0.562500000000015
40
0.625000000000017
40
0.625000000000017
40
0.687500000000018
40
0.687500000000018
40
0.750000000000019
40
0.750000000000019
40
0.781250000000016
40
0.781250000000016
40
0.812500000000014
40
0.812500000000014
40
0.875000000000009
40
0.875000000000009
40
0.937500000000005
40
0.937500000000005
40
1
40
1
40
1
40
1
41
1
10
-14.1255646241437
20
0.394519052838348
30
0
41
1
10
-14.1394710770359
20
0.404489622046128
30
0
41
1
10
-14.1531891256639
20
0.413867112124933
30
0
41
1
10
-14.1802225014732
20
0.431373754650593
30
0
41
1
10
-14.1935390957799
20
0.439506751248615
30
0
41
1
10
-14.2131449243124
20
0.450573991117722
30
0
41
1
10
-14.2196336197054
20
0.454078795623701
30
0
41
1
10
-14.2322228540822
20
0.460520725310033
30
0
41
1
10
-14.2383514182247
20
0.463474796430233
30
0
41
1
10
-14.2502293710657
20
0.468773718754022
30
0
41
1
10
-14.2559794178474
20
0.471119640285877
30
0
41
1
10
-14.2670211051816
20
0.475074458444681
30
0
41
1
10
-14.2722259261514
20
0.476650936816839
30
0
41
1
10
-14.2818410972795
20
0.478850703577962
30
0
41
1
10
-14.2862625152793
20
0.479479731271681
30
0
41
1
10
-14.2941373580524
20
0.4795548484297
30
0
41
1
10
-14.2974997750462
20
0.478992735534973
30
0
41
1
10
-14.3028010571971
20
0.476498487128254
30
0
41
1
10
-14.3047638284419
20
0.474520523657986
30
0
41
1
10
-14.3069086232189
20
0.469181053338957
30
0
41
1
10
-14.3071284482325
20
0.465834428936034
30
0
41
1
10
-14.3061330482862
20
0.459758935437492
30
0
41
1
10
-14.3055769996615
20
0.457562174581426
30
0
41
1
10
-14.3040654324165
20
0.452948725894231
30
0
41
1
10
-14.303108097956
20
0.450518030421819
30
0
41
1
10
-14.2996681948549
20
0.442875980593413
30
0
41
1
10
-14.2965819676909
20
0.437266289211095
30
0
41
1
10
-14.2893548863108
20
0.4256951480927
30
0
41
1
10
-14.2851987194409
20
0.41968620333094
30
0
41
1
10
-14.275978382755
20
0.407293077501066
30
0
41
1
10
-14.2709152318049
20
0.400916772801736
30
0
41
1
10
-14.2655750866984
20
0.394519052838319
30
0
0
SPLINE
5
15F
100
AcDbEntity
8
1
62
256
6
ByLayer
370
18
48
1
60
0
100
AcDbSpline
70
4
71
3
72
8
73
4
40
0
40
0
40
0
40
0
40
1
40
1
40
1
40
1
41
1
10
-13.2065548385552
20
-0.249980947161674
30
0
41
1
10
-13.5156891436444
20
-0.0381396122572539
30
0
41
1
10
-13.8219161595784
20
0.176810910131763
30
0
41
1
10
-14.1255646241437
20
0.394519052838319
30
0
0
SPLINE
5
160
100
AcDbEntity
8
1
62
256
6
ByLayer
370
18
48
1
60
0
100
AcDbSpline
70
4
71
3
72
18
73
14
40
0
40
0
40
0
40
0
40
0.124999999999999
40
0.124999999999999
40
0.249999999999998
40
0.249999999999998
40
0.499999999999996
40
0.499999999999996
40
0.624999999999998
40
0.624999999999998
40
0.75
40
0.75
40
1
40
1
40
1
40
1
41
1
10
-13.0480635116142
20
-0.324980947169223
30
0
41
1
10
-13.0526835673824
20
-0.324980947168598
30
0
41
1
10
-13.0578276924747
20
-0.324325815519529
30
0
41
1
10
-13.0689460777358
20
-0.321974818101211
30
0
41
1
10
-13.0749605537727
20
-0.320259096726829
30
0
41
1
10
-13.0935302985871
20
-0.313958174179788
30
0
41
1
10
-13.1067398789887
20
-0.308231131630805
30
0
41
1
10
-13.1274676194249
20
-0.297960016390789
30
0
41
1
10
-13.1345354389663
20
-0.29424506725934
30
0
41
1
10
-13.1486989674189
20
-0.286431559643603
30
0
41
1
10
-13.1558285169502
20
-0.282316542817881
30
0
41
1
10
-13.1773484039918
20
-0.269403809868607
30
0
41
1
10
-13.1918683483694
20
-0.260045199607333
30
0
41
1
10
-13.2065548385552
20
-0.249980947161674
30
0
0
SPLINE
5
161
100
AcDbEntity
8
1
62
256
6
ByLayer
370
18
48
1
60
0
100
AcDbSpline
70
4
71
3
72
23
73
19
40
0
40
0
40
0
40
0
40
0.125000000000008
40
0.125000000000008
40
0.250000000000015
40
0.250000000000015
40
0.375000000000023
40
0.375000000000023
40
0.437500000000027
40
0.437500000000027
40
0.500000000000031
40
0.625000000000023
40
0.625000000000023
40
0.750000000000015
40
0.750000000000015
40
0.875000000000008
40
0.875000000000008
40
1
40
1
40
1
40
1
41
1
10
-12.9419043311969
20
-0.249980947161362
30
0
41
1
10
-12.9378497028419
20
-0.254925918244197
30
0
41
1
10
-12.9340500009027
20
-0.259832030827425
30
0
41
1
10
-12.9270609615909
20
-0.26955094003489
30
0
41
1
10
-12.9238503710631
20
-0.274403028467333
30
0
41
1
10
-12.9183740783399
20
-0.283688995222491
30
0
41
1
10
-12.9160876840443
20
-0.288143993684315
30
0
41
1
10
-12.9134525305583
20
-0.294494826399216
30
0
41
1
10
-12.9127048890145
20
-0.296567433923769
30
0
41
1
10
-12.9115299156306
20
-0.300494947426302
30
0
41
1
10
-12.9102338827602
20
-0.306085646339653
30
0
41
1
10
-12.9103315847485
20
-0.310777985080392
30
0
41
1
10
-12.9117605960215
20
-0.316192959110282
30
0
41
1
10
-12.9130939065335
20
-0.318369971001488
30
0
41
1
10
-12.9168431622451
20
-0.321793174571241
30
0
41
1
10
-12.9192871440886
20
-0.32303667882033
30
0
41
1
10
-12.9249370215665
20
-0.324620114170159
30
0
41
1
10
-12.9281546626962
20
-0.324980947161777
30
0
41
1
10
-12.9317003032968
20
-0.324980947161777
30
0
0
SPLINE
5
162
100
AcDbEntity
8
1
62
256
6
ByLayer
370
18
48
1
60
0
100
AcDbSpline
70
4
71
3
72
8
73
4
40
0
40
0
40
0
40
0
40
1
40
1
40
1
40
1
41
1
10
-13.4702748862137
20
0.394519052838319
30
0
41
1
10
-13.2941699218972
20
0.179674312264069
30
0
41
1
10
-13.1180471579123
20
-0.0351594867746314
30
0
41
1
10
-12.941904331197
20
-0.249980947161362
30
0
0
SPLINE
5
163
100
AcDbEntity
8
1
62
256
6
ByLayer
370
18
48
1
60
0
100
AcDbSpline
70
4
71
3
72
38
73
34
40
0
40
0
40
0
40
0
40
0.124999999999995
40
0.124999999999995
40
0.249999999999991
40
0.249999999999991
40
0.374999999999986
40
0.374999999999986
40
0.437499999999984
40
0.437499999999984
40
0.499999999999981
40
0.499999999999981
40
0.562499999999979
40
0.562499999999979
40
0.593749999999979
40
0.593749999999979
40
0.624999999999979
40
0.624999999999979
40
0.687499999999965
40
0.687499999999965
40
0.718749999999965
40
0.718749999999965
40
0.749999999999964
40
0.749999999999964
40
0.812499999999975
40
0.812499999999975
40
0.84374999999998
40
0.84374999999998
40
0.874999999999986
40
0.874999999999986
40
0.937499999999993
40
0.937499999999993
40
1
40
1
40
1
40
1
41
1
10
-13.2887133686798
20
0.394519052838319
30
0
41
1
10
-13.3038332306426
20
0.4042879581867
30
0
41
1
10
-13.3188052716474
20
0.413449436874572
30
0
41
1
10
-13.3484408250735
20
0.430527273477082
30
0
41
1
10
-13.3631049887933
20
0.438446193463477
30
0
41
1
10
-13.3920697914073
20
0.452832519259857
30
0
41
1
10
-13.4064644692924
20
0.459334429025461
30
0
41
1
10
-13.4269699921963
20
0.467341554080946
30
0
41
1
10
-13.433645567981
20
0.469730324423097
30
0
41
1
10
-13.4466202325066
20
0.473845750572934
30
0
41
1
10
-13.4529523427325
20
0.475578705664162
30
0
41
1
10
-13.4648977094209
20
0.478164746212002
30
0
41
1
10
-13.470530542591
20
0.479028435196653
30
0
41
1
10
-13.4783549901368
20
0.479532351315839
30
0
41
1
10
-13.4808583852177
20
0.479567589455002
30
0
41
1
10
-13.4856250849188
20
0.47933332242323
30
0
41
1
10
-13.4878873439799
20
0.479061483870908
30
0
41
1
10
-13.4941255566638
20
0.477748652573382
30
0
41
1
10
-13.4976100463298
20
0.476217282345146
30
0
41
1
10
-13.5015835740844
20
0.472696292951213
30
0
41
1
10
-13.5026851457819
20
0.471320945690934
30
0
41
1
10
-13.5043739139206
20
0.468214962997223
30
0
41
1
10
-13.5049704660338
20
0.466476927786175
30
0
41
1
10
-13.5059946892605
20
0.460690215559282
30
0
41
1
10
-13.5056210814371
20
0.455977741753941
30
0
41
1
10
-13.503532127041
20
0.448145570507194
30
0
41
1
10
-13.5025893474109
20
0.445402644548608
30
0
41
1
10
-13.5002379631945
20
0.439666430659713
30
0
41
1
10
-13.4988176392413
20
0.436652706244104
30
0
41
1
10
-13.4939949832354
20
0.427453269472068
30
0
41
1
10
-13.4900398258229
20
0.421090866571319
30
0
41
1
10
-13.4809501781441
20
0.407998820378509
30
0
41
1
10
-13.4757943146983
20
0.401252651663839
30
0
41
1
10
-13.4702748862137
20
0.394519052838319
30
0
0
SPLINE
5
164
100
AcDbEntity
8
1
62
256
6
ByLayer
370
18
48
1
60
0
100
AcDbSpline
70
4
71
3
72
8
73
4
40
0
40
0
40
0
40
0
40
1
40
1
40
1
40
1
41
1
10
-12.2619374897427
20
-0.249980947161674
30
0
41
1
10
-12.6077628641245
20
-0.0394093519147987
30
0
41
1
10
-12.9498764087536
20
0.175597332640279
30
0
41
1
10
-13.2887133686798
20
0.394519052838319
30
0
0
SPLINE
5
165
100
AcDbEntity
8
1
62
256
6
ByLayer
370
18
48
1
60
0
100
AcDbSpline
70
4
71
3
72
18
73
14
40
0
40
0
40
0
40
0
40
0.125000000000005
40
0.125000000000005
40
0.25000000000001
40
0.25000000000001
40
0.500000000000005
40
0.500000000000005
40
0.624999999999999
40
0.624999999999999
40
0.749999999999994
40
0.749999999999994
40
1
40
1
40
1
40
1
41
1
10
-12.0749439034001
20
-0.324980947161691
30
0
41
1
10
-12.081008255091
20
-0.324980947161094
30
0
41
1
10
-12.0875370462495
20
-0.324314999120048
30
0
41
1
10
-12.1012908516913
20
-0.321980394436167
30
0
41
1
10
-12.1085189695399
20
-0.320307354028273
30
0
41
1
10
-12.1310821815718
20
-0.314018794774086
30
0
41
1
10
-12.1466956039985
20
-0.308331973172642
30
0
41
1
10
-12.1707074902565
20
-0.298228829183756
30
0
41
1
10
-12.1788139447434
20
-0.294590398040555
30
0
41
1
10
-12.1952158399689
20
-0.286815352002606
30
0
41
1
10
-12.2035319977382
20
-0.282666955587643
30
0
41
1
10
-12.2284787618341
20
-0.26964953894975
30
0
41
1
10
-12.245175409905
20
-0.260187306071572
30
0
41
1
10
-12.2619374897427
20
-0.249980947161674
30
0
0
SPLINE
5
166
100
AcDbEntity
8
1
62
256
6
ByLayer
370
18
48
1
60
0
100
AcDbSpline
70
4
71
3
72
24
73
20
40
0
40
0
40
0
40
0
40
0.125000000000027
40
0.125000000000027
40
0.250000000000054
40
0.250000000000054
40
0.312500000000057
40
0.312500000000057
40
0.37500000000006
40
0.37500000000006
40
0.500000000000048
40
0.500000000000048
40
0.625000000000036
40
0.625000000000036
40
0.750000000000024
40
0.750000000000024
40
0.875000000000012
40
0.875000000000012
40
1
40
1
40
1
40
1
41
1
10
-11.9185094462045
20
-0.249980947160964
30
0
41
1
10
-11.9143984087425
20
-0.255008549371979
30
0
41
1
10
-11.9105940690077
20
-0.260025649179823
30
0
41
1
10
-11.9037537286027
20
-0.270033424617793
30
0
41
1
10
-11.9007316163328
20
-0.275018276597791
30
0
41
1
10
-11.8970946969525
20
-0.282167946486851
30
0
41
1
10
-11.8960240148196
20
-0.284507876358191
30
0
41
1
10
-11.8941940114109
20
-0.289092391428142
30
0
41
1
10
-11.8934309418024
20
-0.291353045960363
30
0
41
1
10
-11.8916984067637
20
-0.297837448784492
30
0
41
1
10
-11.891274090198
20
-0.301756712238841
30
0
41
1
10
-11.8919008982491
20
-0.30877759856898
30
0
41
1
10
-11.8929836812651
20
-0.311879900363635
30
0
41
1
10
-11.8964381114454
20
-0.31696313099431
30
0
41
1
10
-11.8988364705386
20
-0.3190154121788
30
0
41
1
10
-11.9046064730613
20
-0.322151899954548
30
0
41
1
10
-11.9079485979119
20
-0.323240679223716
30
0
41
1
10
-11.9153564824701
20
-0.32465661851694
30
0
41
1
10
-11.9194457489922
20
-0.324980947161691
30
0
41
1
10
-11.9237814416148
20
-0.324980947161691
30
0
0
SPLINE
5
167
100
AcDbEntity
8
1
62
256
6
ByLayer
370
18
48
1
60
0
100
AcDbSpline
70
4
71
3
72
8
73
4
40
0
40
0
40
0
40
0
40
1
40
1
40
1
40
1
41
1
10
-12.4454802424852
20
0.394519052838319
30
0
41
1
10
-12.2698302504261
20
0.179681463779445
30
0
41
1
10
-12.0941736247425
20
-0.0351520577178803
30
0
41
1
10
-11.9185094462047
20
-0.249980947160964
30
0
0
SPLINE
5
168
100
AcDbEntity
8
1
62
256
6
ByLayer
370
18
48
1
60
0
100
AcDbSpline
70
4
71
3
72
34
73
30
40
0
40
0
40
0
40
0
40
0.124999999999997
40
0.124999999999997
40
0.249999999999993
40
0.249999999999993
40
0.37499999999999
40
0.37499999999999
40
0.437499999999995
40
0.437499999999995
40
0.5
40
0.5
40
0.625000000000012
40
0.625000000000012
40
0.687500000000014
40
0.687500000000014
40
0.718750000000013
40
0.718750000000013
40
0.750000000000012
40
0.750000000000012
40
0.812500000000013
40
0.812500000000013
40
0.875000000000014
40
0.875000000000014
40
0.90625000000001
40
0.90625000000001
40
0.937500000000007
40
0.937500000000007
40
1
40
1
40
1
40
1
41
1
10
-12.21262584537
20
0.394519052838319
30
0
41
1
10
-12.2293879167132
20
0.404069856331262
30
0
41
1
10
-12.2460474242468
20
0.413010889696807
30
0
41
1
10
-12.2791555920721
20
0.42966862177019
30
0
41
1
10
-12.2956045495882
20
0.437386982382037
30
0
41
1
10
-12.3282608368064
20
0.451436957631131
30
0
41
1
10
-12.3445735365322
20
0.457805604881315
30
0
41
1
10
-12.3682424193965
20
0.465816634568256
30
0
41
1
10
-12.3760079072084
20
0.46823433620375
30
0
41
1
10
-12.3912507161594
20
0.47248177544077
30
0
41
1
10
-12.3987563531804
20
0.474318017873884
30
0
41
1
10
-12.4205497597282
20
0.478701530894455
30
0
41
1
10
-12.4339597259438
20
0.480156666608053
30
0
41
1
10
-12.4514152534257
20
0.478821439948945
30
0
41
1
10
-12.4568329303758
20
0.477746501187454
30
0
41
1
10
-12.4636450953421
20
0.47495820558143
30
0
41
1
10
-12.4657065335108
20
0.473834537101368
30
0
41
1
10
-12.4693513853986
20
0.471142526978696
30
0
41
1
10
-12.4709433497243
20
0.469557994706776
30
0
41
1
10
-12.4747761141799
20
0.464180222176765
30
0
41
1
10
-12.4761223246412
20
0.459769092372454
30
0
41
1
10
-12.4760958204851
20
0.449081203462839
30
0
41
1
10
-12.4747089449443
20
0.443053990405275
30
0
41
1
10
-12.470827460083
20
0.433240182207101
30
0
41
1
10
-12.4692288824021
20
0.429837099363681
30
0
41
1
10
-12.4655825007594
20
0.422985527209846
30
0
41
1
10
-12.4635248995896
20
0.419510621874565
30
0
41
1
10
-12.4567374379799
20
0.408956814071246
30
0
41
1
10
-12.4513585152093
20
0.401708771010675
30
0
41
1
10
-12.4454802424852
20
0.394519052838319
30
0
0
SPLINE
5
169
100
AcDbEntity
8
1
62
256
6
ByLayer
370
18
48
1
60
0
100
AcDbSpline
70
4
71
3
72
8
73
4
40
0
40
0
40
0
40
0
40
1
40
1
40
1
40
1
41
1
10
-11.0361737618139
20
-0.249980947161674
30
0
41
1
10
-11.4329616463351
20
-0.0414960685943413
30
0
41
1
10
-11.8249154221808
20
0.173606852417663
30
0
41
1
10
-12.21262584537
20
0.394519052838319
30
0
0
SPLINE
5
16A
100
AcDbEntity
8
1
62
256
6
ByLayer
370
18
48
1
60
0
100
AcDbSpline
70
4
71
3
72
18
73
14
40
0
40
0
40
0
40
0
40
0.124999999999992
40
0.124999999999992
40
0.249999999999983
40
0.249999999999983
40
0.499999999999982
40
0.499999999999982
40
0.62499999999998
40
0.62499999999998
40
0.749999999999979
40
0.749999999999979
40
1
40
1
40
1
40
1
41
1
10
-10.8100221617362
20
-0.324980947161663
30
0
41
1
10
-10.8180111708273
20
-0.324980947160952
30
0
41
1
10
-10.8264247732998
20
-0.324303802427465
30
0
41
1
10
-10.8438730220196
20
-0.321952441620653
30
0
41
1
10
-10.8529592725556
20
-0.320261231068514
30
0
41
1
10
-10.8805796347571
20
-0.314041022539698
30
0
41
1
10
-10.8994387758157
20
-0.308419743129093
30
0
41
1
10
-10.9282051094205
20
-0.298394950509135
30
0
41
1
10
-10.9378759446479
20
-0.294780090670855
30
0
41
1
10
-10.9573700935551
20
-0.28704319003694
30
0
41
1
10
-10.9672176050399
20
-0.282909900397783
30
0
41
1
10
-10.9967579988524
20
-0.269872232720218
30
0
41
1
10
-11.0164600587408
20
-0.260339148990965
30
0
41
1
10
-11.0361737618139
20
-0.249980947161674
30
0
0
SPLINE
5
16B
100
AcDbEntity
8
1
62
256
6
ByLayer
370
18
48
1
60
0
100
AcDbSpline
70
4
71
3
72
22
73
18
40
0
40
0
40
0
40
0
40
0.125
40
0.125
40
0.25
40
0.25
40
0.375
40
0.375
40
0.5
40
0.5
40
0.625
40
0.625
40
0.75
40
0.75
40
0.875
40
0.875
40
1
40
1
40
1
40
1
41
1
10
-10.588146538497
20
-0.249980947159855
30
0
41
1
10
-10.5838159736942
20
-0.255144731035841
30
0
41
1
10
-10.5798645746344
20
-0.260343891665031
30
0
41
1
10
-10.5729850896279
20
-0.270837848524849
30
0
41
1
10
-10.5701679829123
20
-0.275969703602755
30
0
41
1
10
-10.5660666715437
20
-0.285914845664877
30
0
41
1
10
-10.5647901952416
20
-0.290809930744814
30
0
41
1
10
-10.5642045954565
20
-0.299573635406659
30
0
41
1
10
-10.5648541823852
20
-0.303528393936148
30
0
41
1
10
-10.5679631001511
20
-0.310436416643625
30
0
41
1
10
-10.5703512144502
20
-0.313281206585032
30
0
41
1
10
-10.5764671398953
20
-0.317988035234322
30
0
41
1
10
-10.5801191826617
20
-0.319788199103243
30
0
41
1
10
-10.588214010157
20
-0.322533301974147
30
0
41
1
10
-10.5926877142223
20
-0.323486343691656
30
0
41
1
10
-10.6022321565405
20
-0.32471243842005
30
0
41
1
10
-10.6072496942068
20
-0.324980947163254
30
0
41
1
10
-10.6124575382184
20
-0.324980947163198
30
0
0
SPLINE
5
16C
100
AcDbEntity
8
1
62
256
6
ByLayer
370
18
48
1
60
0
100
AcDbSpline
70
4
71
3
72
8
73
4
40
0
40
0
40
0
40
0
40
1
40
1
40
1
40
1
41
1
10
-11.1279670839745
20
0.394519052838319
30
0
41
1
10
-10.9481691234914
20
0.179596378150762
30
0
41
1
10
-10.7682360652239
20
-0.0352414300963915
30
0
41
1
10
-10.5881465384974
20
-0.249980947159912
30
0
0
SPLINE
5
16D
100
AcDbEntity
8
1
62
256
6
ByLayer
370
18
48
1
60
0
100
AcDbSpline
70
4
71
3
72
39
73
35
40
0
40
0
40
0
40
0
40
0.125000000000014
40
0.125000000000014
40
0.250000000000029
40
0.250000000000029
40
0.375000000000043
40
0.375000000000043
40
0.437500000000046
40
0.437500000000046
40
0.500000000000049
40
0.500000000000049
40
0.562500000000052
40
0.562500000000052
40
0.625000000000055
40
0.625000000000055
40
0.687500000000059
40
0.687500000000059
40
0.718750000000053
40
0.718750000000053
40
0.750000000000048
40
0.781250000000043
40
0.781250000000043
40
0.812500000000037
40
0.812500000000037
40
0.843750000000032
40
0.843750000000032
40
0.875000000000027
40
0.875000000000027
40
0.906250000000022
40
0.906250000000022
40
0.937500000000016
40
0.937500000000016
40
1
40
1
40
1
40
1
41
1
10
-10.8261977204866
20
0.394519052838319
30
0
41
1
10
-10.8453613808028
20
0.403822742416708
30
0
41
1
10
-10.8644350163225
20
0.412508030361977
30
0
41
1
10
-10.9024018906364
20
0.428670682946205
30
0
41
1
10
-10.9212952504409
20
0.436148777585913
30
0
41
1
10
-10.958882884293
20
0.449784789803459
30
0
41
1
10
-10.9775778122249
20
0.455947419880573
30
0
41
1
10
-11.0054357249662
20
0.463959959019945
30
0
41
1
10
-11.0147120130597
20
0.466427265972556
30
0
41
1
10
-11.0329270751786
20
0.47080817215442
30
0
41
1
10
-11.0418937770116
20
0.472731225930374
30
0
41
1
10
-11.0594969792525
20
0.475947166332247
30
0
41
1
10
-11.0681342039558
20
0.477241484467243
30
0
41
1
10
-11.0849977650711
20
0.479041057890981
30
0
41
1
10
-11.0932713386151
20
0.479548725267819
30
0
41
1
10
-11.1090219945275
20
0.479486703751746
30
0
41
1
10
-11.1164767895555
20
0.478927144527404
30
0
41
1
10
-11.1267820133678
20
0.476978430843047
30
0
41
1
10
-11.1300670569308
20
0.476138633700827
30
0
41
1
10
-11.1361417146117
20
0.474049581821959
30
0
41
1
10
-11.1417564108312
20
0.471545769909596
30
0
41
1
10
-11.1462927930953
20
0.468066856897167
30
0
41
1
10
-11.1501654640366
20
0.463986118035706
30
0
41
1
10
-11.1517438299298
20
0.461655824862362
30
0
41
1
10
-11.1540017219895
20
0.456500109917954
30
0
41
1
10
-11.1547000127545
20
0.453656662833254
30
0
41
1
10
-11.1551425423024
20
0.447385299333632
30
0
41
1
10
-11.1548792054188
20
0.444063384204014
30
0
41
1
10
-11.1534486470362
20
0.43707126200934
30
0
41
1
10
-11.1522661294609
20
0.433367252098947
30
0
41
1
10
-11.1491042633321
20
0.425789142768139
30
0
41
1
10
-11.147148000852
20
0.421949799605244
30
0
41
1
10
-11.1403381258876
20
0.410305290730918
30
0
41
1
10
-11.1344994067131
20
0.402327507790147
30
0
41
1
10
-11.1279670839746
20
0.394519052838319
30
0
0
SPLINE
5
16E
100
AcDbEntity
8
1
62
256
6
ByLayer
370
18
48
1
60
0
100
AcDbSpline
70
4
71
3
72
8
73
4
40
0
40
0
40
0
40
0
40
1
40
1
40
1
40
1
41
1
10
-9.42014604979883
20
-0.249980947161674
30
0
41
1
10
-9.89509800998098
20
-0.045403532794694
30
0
41
1
10
-10.3635024894917
20
0.169886976943701
30
0
41
1
10
-10.8261977204866
20
0.394519052838319
30
0
0
SPLINE
5
16F
100
AcDbEntity
8
1
62
256
6
ByLayer
370
18
48
1
60
0
100
AcDbSpline
70
4
71
3
72
18
73
14
40
0
40
0
40
0
40
0
40
0.125
40
0.125
40
0.25
40
0.25
40
0.375
40
0.375
40
0.5
40
0.5
40
0.75
40
0.75
40
1
40
1
40
1
40
1
41
1
10
-9.13284665392271
20
-0.324980947161691
30
0
41
1
10
-9.1437298608829
20
-0.324980947161151
30
0
41
1
10
-9.154948133998
20
-0.324297936899598
30
0
41
1
10
-9.17785494091433
20
-0.321962244274403
30
0
41
1
10
-9.18954659680881
20
-0.320303380454163
30
0
41
1
10
-9.21330961472532
20
-0.316195905728222
30
0
41
1
10
-9.22532162877246
20
-0.313754324838612
30
0
41
1
10
-9.24935609579742
20
-0.308270592014935
30
0
41
1
10
-9.26141348776238
20
-0.305221378626044
30
0
41
1
10
-9.29769042100247
20
-0.295264739422492
30
0
41
1
10
-9.3220131721886
20
-0.287558568041931
30
0
41
1
10
-9.3709080164588
20
-0.270230194328264
30
0
41
1
10
-9.39555423460408
20
-0.260573449959651
30
0
41
1
10
-9.42014604979883
20
-0.249980947161674
30
0
0
SPLINE
5
170
100
AcDbEntity
8
1
62
256
6
ByLayer
370
18
48
1
60
0
100
AcDbSpline
70
4
71
3
72
28
73
24
40
0
40
0
40
0
40
0
40
0.062499999999997
40
0.062499999999997
40
0.124999999999994
40
0.124999999999994
40
0.187499999999991
40
0.187499999999991
40
0.249999999999988
40
0.249999999999988
40
0.312499999999985
40
0.312499999999985
40
0.374999999999982
40
0.374999999999982
40
0.437499999999979
40
0.437499999999979
40
0.499999999999976
40
0.499999999999976
40
0.624999999999982
40
0.624999999999982
40
0.749999999999988
40
0.749999999999988
40
1
40
1
40
1
40
1
41
1
10
-8.81287846405201
20
-0.249980947155791
30
0
41
1
10
-8.81042372701617
20
-0.25268050799562
30
0
41
1
10
-8.80809426650328
20
-0.255412160239644
30
0
41
1
10
-8.80374131425188
20
-0.260953956620313
30
0
41
1
10
-8.80171509926663
20
-0.263772010194657
30
0
41
1
10
-8.79813432448748
20
-0.269361345622173
30
0
41
1
10
-8.79656638697136
20
-0.272147870695989
30
0
41
1
10
-8.79395351452456
20
-0.277701759323776
30
0
41
1
10
-8.79290203059387
20
-0.280494627087478
30
0
41
1
10
-8.79146539182062
20
-0.285933125165428
30
0
41
1
10
-8.79108275102192
20
-0.288549776175699
30
0
41
1
10
-8.79100712746296
20
-0.293571945582585
30
0
41
1
10
-8.79132427301084
20
-0.295998566424203
30
0
41
1
10
-8.79261865796582
20
-0.30047339121117
30
0
41
1
10
-8.79358803963603
20
-0.302536520574051
30
0
41
1
10
-8.79609940480199
20
-0.306352422583785
30
0
41
1
10
-8.79764866346818
20
-0.308104402530773
30
0
41
1
10
-8.80288537420074
20
-0.312803317823807
30
0
41
1
10
-8.80719346932878
20
-0.315274284744561
30
0
41
1
10
-8.81692618508802
20
-0.319278475547179
30
0
41
1
10
-8.82221699514491
20
-0.32075719148483
30
0
41
1
10
-8.83894481110525
20
-0.324132477893784
30
0
41
1
10
-8.85129538935948
20
-0.32498094716226
30
0
41
1
10
-8.86408179867618
20
-0.324980947162231
30
0
0
SPLINE
5
171
100
AcDbEntity
8
1
62
256
6
ByLayer
370
18
48
1
60
0
100
AcDbSpline
70
4
71
3
72
8
73
4
40
0
40
0
40
0
40
0
40
1
40
1
40
1
40
1
41
1
10
-9.3953884633876
20
0.394519052838319
30
0
41
1
10
-9.20190632438599
20
0.179219444300429
30
0
41
1
10
-9.0077785167926
20
-0.0356424895419991
30
0
41
1
10
-8.81287846405294
20
-0.249980947156075
30
0
0
SPLINE
5
172
100
AcDbEntity
8
1
62
256
6
ByLayer
370
18
48
1
60
0
100
AcDbSpline
70
4
71
3
72
38
73
34
40
0
40
0
40
0
40
0
40
0.249999999999999
40
0.249999999999999
40
0.375000000000004
40
0.375000000000004
40
0.500000000000009
40
0.500000000000009
40
0.562500000000015
40
0.562500000000015
40
0.625000000000022
40
0.625000000000022
40
0.687500000000028
40
0.687500000000028
40
0.750000000000034
40
0.750000000000034
40
0.781250000000037
40
0.781250000000037
40
0.81250000000004
40
0.81250000000004
40
0.843750000000043
40
0.843750000000043
40
0.859375000000042
40
0.859375000000042
40
0.87500000000004
40
0.87500000000004
40
0.90625000000003
40
0.90625000000003
40
0.93750000000002
40
0.93750000000002
40
0.96875000000001
40
0.96875000000001
40
1
40
1
40
1
40
1
41
1
10
-8.98692851463423
20
0.394519052838433
30
0
41
1
10
-9.03326195647878
20
0.412493674837833
30
0
41
1
10
-9.07924677772215
20
0.428095750861701
30
0
41
1
10
-9.14767753970108
20
0.447892731526878
30
0
41
1
10
-9.17039514074557
20
0.453877630445248
30
0
41
1
10
-9.21561276810894
20
0.464384190703157
30
0
41
1
10
-9.23811409009988
20
0.468915971092088
30
0
41
1
10
-9.27164840317903
20
0.474201921571563
30
0
41
1
10
-9.28280754864187
20
0.475708447562795
30
0
41
1
10
-9.30470496885985
20
0.478037327116795
30
0
41
1
10
-9.31547973767195
20
0.478868132934792
30
0
41
1
10
-9.33658051127526
20
0.479660016760334
30
0
41
1
10
-9.34696068021995
20
0.479621526876542
30
0
41
1
10
-9.36677891891844
20
0.478317730661246
30
0
41
1
10
-9.37622144042925
20
0.477070148566497
30
0
41
1
10
-9.3893009796476
20
0.473801534714227
30
0
41
1
10
-9.39349606281391
20
0.472464916766313
30
0
41
1
10
-9.40121470148262
20
0.469229096419326
30
0
41
1
10
-9.40475722197041
20
0.467329854200074
30
0
41
1
10
-9.41101084625686
20
0.462790271628421
30
0
41
1
10
-9.41370522919763
20
0.460142637892375
30
0
41
1
10
-9.41676860092079
20
0.455629436905042
30
0
41
1
10
-9.41763416504909
20
0.454029340103233
30
0
41
1
10
-9.41901882100981
20
0.450615689000983
30
0
41
1
10
-9.41953665683758
20
0.448791861472614
30
0
41
1
10
-9.42048798744298
20
0.44314609700092
30
0
41
1
10
-9.42034760074219
20
0.439106172816139
30
0
41
1
10
-9.41852742540985
20
0.430476184279087
30
0
41
1
10
-9.41685123823549
20
0.425966268108198
30
0
41
1
10
-9.41232312472627
20
0.416909228814092
30
0
41
1
10
-9.40943685546671
20
0.41229412988929
30
0
41
1
10
-9.40294265258265
20
0.403307302163142
30
0
41
1
10
-9.39931252043962
20
0.398885595145714
30
0
41
1
10
-9.39538846339337
20
0.394519052837154
30
0
0
SPLINE
5
173
100
AcDbEntity
8
1
62
256
6
ByLayer
370
18
48
1
60
0
100
AcDbSpline
70
4
71
3
72
8
73
4
40
0
40
0
40
0
40
0
40
1
40
1
40
1
40
1
41
1
10
-7.15410175340969
20
-0.249980947161674
30
0
41
1
10
-7.77427580892314
20
-0.0548377836275904
30
0
41
1
10
-8.38478343725899
20
0.160922546217108
30
0
41
1
10
-8.98692851463423
20
0.394519052838319
30
0
0
SPLINE
5
174
100
AcDbEntity
8
1
62
256
6
ByLayer
370
18
48
1
60
0
100
AcDbSpline
70
4
71
3
72
17
73
13
40
0
40
0
40
0
40
0
40
0.124999999999999
40
0.124999999999999
40
0.249999999999998
40
0.249999999999998
40
0.374999999999998
40
0.374999999999998
40
0.499999999999997
40
0.499999999999997
40
0.749999999999998
40
1
40
1
40
1
40
1
41
1
10
-6.74249188881706
20
-0.324980947161663
30
0
41
1
10
-6.75895378391422
20
-0.324980947161606
30
0
41
1
10
-6.77560867949245
20
-0.324310745266985
30
0
41
1
10
-6.8091790679558
20
-0.322040380930361
30
0
41
1
10
-6.82609666353446
20
-0.320433354681313
30
0
41
1
10
-6.8601373246226
20
-0.316470394553619
30
0
41
1
10
-6.87726105822415
20
-0.314112278634411
30
0
41
1
10
-6.91168423969094
20
-0.308745403149373
30
0
41
1
10
-6.92901200463669
20
-0.305730156657234
30
0
41
1
10
-6.98098651916527
20
-0.295834974764006
30
0
41
1
10
-7.05026156071182
20
-0.280409342926959
30
0
41
1
10
-7.11949273474031
20
-0.260870976065661
30
0
41
1
10
-7.15410175340969
20
-0.249980947161816
30
0
0
SPLINE
5
175
100
AcDbEntity
8
1
62
256
6
ByLayer
370
18
48
1
60
0
100
AcDbSpline
70
4
71
3
72
28
73
24
40
0
40
0
40
0
40
0
40
0.062499999999995
40
0.062499999999995
40
0.12499999999999
40
0.12499999999999
40
0.187499999999985
40
0.187499999999985
40
0.24999999999998
40
0.24999999999998
40
0.312499999999975
40
0.312499999999975
40
0.37499999999997
40
0.37499999999997
40
0.437499999999965
40
0.437499999999965
40
0.49999999999996
40
0.49999999999996
40
0.624999999999973
40
0.624999999999973
40
0.749999999999986
40
0.749999999999986
40
1
40
1
40
1
40
1
41
1
10
-6.22292588127033
20
-0.249980947140926
30
0
41
1
10
-6.21958846278596
20
-0.252886604389005
30
0
41
1
10
-6.21643658084921
20
-0.255874781662328
30
0
41
1
10
-6.21065250989122
20
-0.262082766471451
30
0
41
1
10
-6.207990592399
20
-0.2653416497362
30
0
41
1
10
-6.20359999834162
20
-0.272014335422256
30
0
41
1
10
-6.20188043678121
20
-0.275412687019326
30
0
41
1
10
-6.19979992398481
20
-0.282212586931138
30
0
41
1
10
-6.19947715640618
20
-0.28548395366056
30
0
41
1
10
-6.20034973300682
20
-0.291754064168174
30
0
41
1
10
-6.20153703134241
20
-0.294630037775562
30
0
41
1
10
-6.20507139005918
20
-0.299823372219692
30
0
41
1
10
-6.20738715966209
20
-0.302109007415282
30
0
41
1
10
-6.21267351534175
20
-0.306146729630456
30
0
41
1
10
-6.21568609914928
20
-0.30792918985594
30
0
41
1
10
-6.22210698144596
20
-0.311076075105206
30
0
41
1
10
-6.22550351037808
20
-0.312439632077854
30
0
41
1
10
-6.23609002146546
20
-0.316080959786603
30
0
41
1
10
-6.24369435696349
20
-0.317921804204616
30
0
41
1
10
-6.25943326740065
20
-0.320855188810668
30
0
41
1
10
-6.26749588937008
20
-0.3219300952467
30
0
41
1
10
-6.29206351344519
20
-0.324375867069932
30
0
41
1
10
-6.30894164051708
20
-0.324980947161691
30
0
41
1
10
-6.32610759209365
20
-0.324980947161663
30
0
0
SPLINE
5
176
100
AcDbEntity
8
1
62
256
6
ByLayer
370
18
48
1
60
0
100
AcDbSpline
70
4
71
3
72
8
73
4
40
0
40
0
40
0
40
0
40
1
40
1
40
1
40
1
41
1
10
-6.94370199058156
20
0.394519052846164
30
0
41
1
10
-6.70648353684933
20
0.177135671778956
30
0
41
1
10
-6.46649386217527
20
-0.0379233125592862
30
0
41
1
10
-6.2229258812701
20
-0.249980947141125
30
0
0
SPLINE
5
177
100
AcDbEntity
8
1
62
256
6
ByLayer
370
18
48
1
60
0
100
AcDbSpline
70
4
71
3
72
38
73
34
40
0
40
0
40
0
40
0
40
0.250000000000004
40
0.250000000000004
40
0.375000000000005
40
0.375000000000005
40
0.500000000000006
40
0.500000000000006
40
0.625000000000007
40
0.625000000000007
40
0.687500000000008
40
0.687500000000008
40
0.750000000000009
40
0.750000000000009
40
0.812500000000009
40
0.812500000000009
40
0.843750000000011
40
0.843750000000011
40
0.859375000000012
40
0.859375000000012
40
0.875000000000012
40
0.875000000000012
40
0.906250000000009
40
0.906250000000009
40
0.921875000000008
40
0.921875000000008
40
0.937500000000006
40
0.937500000000006
40
0.953125000000005
40
0.953125000000005
40
0.968750000000003
40
0.968750000000003
40
1
40
1
40
1
40
1
41
1
10
-6.31056345909113
20
0.394519052838348
30
0
41
1
10
-6.37481328661519
20
0.411390584813802
30
0
41
1
10
-6.4389694704841
20
0.426235064493312
30
0
41
1
10
-6.53505244750031
20
0.445376954980162
30
0
41
1
10
-6.56705479948485
20
0.45122594227513
30
0
41
1
10
-6.63100511187719
20
0.461668317288456
30
0
41
1
10
-6.66283482363753
20
0.466246113725987
30
0
41
1
10
-6.72600609435827
20
0.473707937007589
30
0
41
1
10
-6.75736948054711
20
0.476614959194904
30
0
41
1
10
-6.80391672915488
20
0.479030439617617
30
0
41
1
10
-6.8192776629011
20
0.479502300680395
30
0
41
1
10
-6.84957718699221
20
0.479534942910078
30
0
41
1
10
-6.86452894473786
20
0.479103966091572
30
0
41
1
10
-6.89376528285266
20
0.476844350448005
30
0
41
1
10
-6.90791400682033
20
0.4750543513058
30
0
41
1
10
-6.92784789138969
20
0.470525557036069
30
0
41
1
10
-6.93431043459861
20
0.468687677725654
30
0
41
1
10
-6.9432963611988
20
0.465259768495429
30
0
41
1
10
-6.94617531050903
20
0.464004555023422
30
0
41
1
10
-6.95163771381635
20
0.461207412587328
30
0
41
1
10
-6.95423460303806
20
0.459654605417683
30
0
41
1
10
-6.96127333728384
20
0.454550304275358
30
0
41
1
10
-6.96505057587058
20
0.450546752278512
30
0
41
1
10
-6.96837681670823
20
0.443136098555243
30
0
41
1
10
-6.96904305703399
20
0.440519738407147
30
0
41
1
10
-6.96942508964193
20
0.434972492094005
30
0
41
1
10
-6.96912327074105
20
0.432023475756551
30
0
41
1
10
-6.96761586971718
20
0.426116302508717
30
0
41
1
10
-6.96640667044278
20
0.423099880063631
30
0
41
1
10
-6.9632594025644
20
0.417097475848209
30
0
41
1
10
-6.96135311381423
20
0.41415595474092
30
0
41
1
10
-6.95487075366256
20
0.405468539491409
30
0
41
1
10
-6.94950896079734
20
0.399840471978024
30
0
41
1
10
-6.94370199058531
20
0.394519052844345
30
0
0
SPLINE
5
178
100
AcDbEntity
8
1
62
256
6
ByLayer
370
18
48
1
60
0
100
AcDbSpline
70
4
71
3
72
8
73
4
40
0
40
0
40
0
40
0
40
1
40
1
40
1
40
1
41
1
10
-3.02046224885069
20
-0.249980947161674
30
0
41
1
10
-4.1359861011274
20
-0.107222523982614
30
0
41
1
10
-5.23174171602679
20
0.111228400779481
30
0
41
1
10
-6.31056345909118
20
0.394519052838035
30
0
0
SPLINE
5
179
100
AcDbEntity
8
1
62
256
6
ByLayer
370
18
48
1
60
0
100
AcDbSpline
70
4
71
3
72
14
73
10
40
0
40
0
40
0
40
0
40
0.25
40
0.25
40
0.5
40
0.5
40
0.75
40
0.75
40
1
40
1
40
1
40
1
41
1
10
-1.73594520006446
20
-0.324980947161805
30
0
41
1
10
-1.84314979610451
20
-0.324980947161777
30
0
41
1
10
-1.95042328219975
20
-0.323449254272589
30
0
41
1
10
-2.16478964220229
20
-0.317513647984981
30
0
41
1
10
-2.27190023278155
20
-0.31310074243703
30
0
41
1
10
-2.48598486060513
20
-0.301152741664794
30
0
41
1
10
-2.59295877929037
20
-0.293621089038197
30
0
41
1
10
-2.80678930238935
20
-0.274859400504965
30
0
41
1
10
-2.91364525025708
20
-0.263650781524092
30
0
41
1
10
-3.02046224885069
20
-0.249980947161674
30
0
0
SPLINE
5
17A
100
AcDbEntity
8
1
62
256
6
ByLayer
370
18
48
1
60
0
100
AcDbSpline
70
4
71
3
72
14
73
10
40
0
40
0
40
0
40
0
40
0.25
40
0.25
40
0.5
40
0.5
40
0.75
40
0.75
40
1
40
1
40
1
40
1
41
1
10
3.02046224885069
20
-0.249980947161873
30
0
41
1
10
2.91367618098349
20
-0.263646823185127
30
0
41
1
10
2.80666688413962
20
-0.274872902970941
30
0
41
1
10
2.59260836335662
20
-0.293649067375753
30
0
41
1
10
2.48557990191409
20
-0.301179376033105
30
0
41
1
10
2.27148283436819
20
-0.313119988055348
30
0
41
1
10
2.16441448633975
20
-0.317526654577222
30
0
41
1
10
1.95022075456768
20
-0.323452236129242
30
0
41
1
10
1.84309474173756
20
-0.324980947161691
30
0
41
1
10
1.73594520006446
20
-0.324980947161691
30
0
0
SPLINE
5
17B
100
AcDbEntity
8
1
62
256
6
ByLayer
370
18
48
1
60
0
100
AcDbSpline
70
4
71
3
72
8
73
4
40
0
40
0
40
0
40
0
40
1
40
1
40
1
40
1
41
1
10
6.31056345909118
20
0.394519052838035
30
0
41
1
10
5.23174171602679
20
0.111228400779481
30
0
41
1
10
4.1359861011274
20
-0.107222523982614
30
0
41
1
10
3.02046224885069
20
-0.249980947161674
30
0
0
SPLINE
5
17C
100
AcDbEntity
8
1
62
256
6
ByLayer
370
18
48
1
60
0
100
AcDbSpline
70
4
71
3
72
12
73
8
40
0
40
0
40
0
40
0
40
0.250000000000002
40
0.250000000000002
40
0.500000000000003
40
0.500000000000003
40
1
40
1
40
1
40
1
41
1
10
6.69355414558757
20
0.469874487793419
30
0
41
1
10
6.66192879807258
20
0.466123694387676
30
0
41
1
10
6.63021453037217
20
0.461547007167866
30
0
41
1
10
6.56664196959386
20
0.451150599919458
30
0
41
1
10
6.53478321563196
20
0.445325136400498
30
0
41
1
10
6.43901320844608
20
0.42624012702143
30
0
41
1
10
6.37491154801668
20
0.411416387535041
30
0
41
1
10
6.31056345909113
20
0.394519052838518
30
0
0
SPLINE
5
17D
100
AcDbEntity
8
1
62
256
6
ByLayer
370
18
48
1
60
0
100
AcDbSpline
70
4
71
3
72
8
73
4
40
0
40
0
40
0
40
0
40
1
40
1
40
1
40
1
41
1
10
-14.5615187733782
20
0.23651877337818
30
0
41
1
10
-14.7076620247758
20
0.382662024775812
30
0
41
1
10
-14.8538226741323
20
0.528822674132243
30
0
41
1
10
-15
20
0.675000000000011
30
0
0
SPLINE
5
17E
100
AcDbEntity
8
1
62
256
6
ByLayer
370
18
48
1
60
0
100
AcDbSpline
70
4
71
3
72
22
73
18
40
0
40
0
40
0
40
0
40
0.0624999999999996
40
0.0624999999999996
40
0.124999999999999
40
0.124999999999999
40
0.249999999999999
40
0.249999999999999
40
0.312499999999998
40
0.312499999999998
40
0.374999999999998
40
0.374999999999998
40
0.499999999999998
40
0.499999999999998
40
0.749999999999999
40
0.749999999999999
40
1
40
1
40
1
40
1
41
1
10
-15
20
0.875
30
0
41
1
10
-15
20
0.880620876397472
30
0
41
1
10
-15
20
0.886248502296212
30
0
41
1
10
-15
20
0.897517369012405
30
0
41
1
10
-15
20
0.903183190877087
30
0
41
1
10
-15
20
0.919902945426429
30
0
41
1
10
-15
20
0.93074710848316
30
0
41
1
10
-15
20
0.946619433588097
30
0
41
1
10
-15
20
0.951866836091625
30
0
41
1
10
-15
20
0.962103565316255
30
0
41
1
10
-15
20
0.967094449797713
30
0
41
1
10
-15
20
0.981731538104299
30
0
41
1
10
-15
20
0.991044286251395
30
0
41
1
10
-15
20
1.01791729711607
30
0
41
1
10
-15
20
1.03444293233795
30
0
41
1
10
-15
20
1.06545060727757
30
0
41
1
10
-15
20
1.07965053538228
30
0
41
1
10
-15
20
1.09294494718202
30
0
0
SPLINE
5
17F
100
AcDbEntity
8
1
62
256
6
ByLayer
370
18
48
1
60
0
100
AcDbSpline
70
4
71
3
72
22
73
18
40
0
40
0
40
0
40
0
40
0.0625
40
0.0625
40
0.125
40
0.125
40
0.25
40
0.25
40
0.375
40
0.375
40
0.5
40
0.5
40
0.75
40
0.75
40
0.875
40
0.875
40
1
40
1
40
1
40
1
41
1
10
0
20
1.09294494717704
30
0
41
1
10
0.0800981858163823
20
1.09294494717704
30
0
41
1
10
0.160192273740733
20
1.09419651621937
30
0
41
1
10
0.320142907991937
20
1.09903656234118
30
0
41
1
10
0.400036825752977
20
1.10262062605742
30
0
41
1
10
0.63951591598709
20
1.11627097285654
30
0
41
1
10
0.79890021114312
20
1.12920987497057
30
0
41
1
10
1.11739966174162
20
1.15893647544138
30
0
41
1
10
1.27651661638507
20
1.17569844456722
30
0
41
1
10
1.59468850096661
20
1.21010935876763
30
0
41
1
10
1.75374232379846
20
1.22777413586678
30
0
41
1
10
2.23101742109108
20
1.27914353384719
30
0
41
1
10
2.54935154345188
20
1.31123438852549
30
0
41
1
10
3.02771547473608
20
1.3470330625843
30
0
41
1
10
3.18731269091254
20
1.3569271163081
30
0
41
1
10
3.50691374383487
20
1.37090040104084
30
0
41
1
10
3.66691615628494
20
1.375
30
0
41
1
10
3.82720524665191
20
1.375
30
0
0
SPLINE
5
180
100
AcDbEntity
8
1
62
256
6
ByLayer
370
18
48
1
60
0
100
AcDbSpline
70
4
71
3
72
36
73
32
40
0
40
0
40
0
40
0
40
0.015625
40
0.015625
40
0.03125
40
0.0468749999999999
40
0.0468749999999999
40
0.0624999999999999
40
0.0624999999999999
40
0.0937500000000012
40
0.0937500000000012
40
0.125000000000002
40
0.125000000000002
40
0.187500000000003
40
0.187500000000003
40
0.250000000000004
40
0.250000000000004
40
0.312500000000005
40
0.312500000000005
40
0.375000000000006
40
0.375000000000006
40
0.437500000000007
40
0.437500000000007
40
0.500000000000008
40
0.500000000000008
40
0.625000000000006
40
0.625000000000006
40
0.750000000000004
40
0.750000000000004
40
0.875000000000002
40
1
40
1
40
1
40
1
41
1
10
6.28692511341191
20
0.875
30
0
41
1
10
6.28692511341191
20
0.882604738711734
30
0
41
1
10
6.28659181926761
20
0.890221303335579
30
0
41
1
10
6.28529878112244
20
0.905200659380711
30
0
41
1
10
6.28338436121007
20
0.919965165121482
30
0
41
1
10
6.28031897384224
20
0.934331709864324
30
0
41
1
10
6.27671608012759
20
0.94851240524963
30
0
41
1
10
6.27463448705674
20
0.955538523591201
30
0
41
1
10
6.26776409544962
20
0.97599022310547
30
0
41
1
10
6.26234094343337
20
0.988892714979499
30
0
41
1
10
6.25019256882362
20
1.01356696832292
30
0
41
1
10
6.24341774994141
20
1.0253965852018
30
0
41
1
10
6.2220927945335
20
1.0586464102856
30
0
41
1
10
6.2064492360029
20
1.07820358178006
30
0
41
1
10
6.17343124954459
20
1.11415272387578
30
0
41
1
10
6.15603466070399
20
1.13050416932751
30
0
41
1
10
6.11997342660433
20
1.16088819474336
30
0
41
1
10
6.10126991883112
20
1.17492347154465
30
0
41
1
10
6.0633445389584
20
1.20084976284721
30
0
41
1
10
6.04405910226902
20
1.21279182818839
30
0
41
1
10
6.00497094691747
20
1.23503942362348
30
0
41
1
10
5.98513863305402
20
1.2453521816652
30
0
41
1
10
5.94539286456799
20
1.26442358161205
30
0
41
1
10
5.92543547435591
20
1.27320779090198
30
0
41
1
10
5.86534650163654
20
1.29763245146549
30
0
41
1
10
5.8250003489855
20
1.31136478351678
30
0
41
1
10
5.74383976703228
20
1.3346651791725
30
0
41
1
10
5.70302395949392
20
1.34422098646362
30
0
41
1
10
5.62096446549188
20
1.35952757958401
30
0
41
1
10
5.53847623485493
20
1.37102152384281
30
0
41
1
10
5.45514288141209
20
1.37500000000048
30
0
41
1
10
5.41325251264055
20
1.375
30
0
0
SPLINE
5
181
100
AcDbEntity
8
1
62
256
6
ByLayer
370
18
48
1
60
0
100
AcDbSpline
70
4
71
3
72
8
73
4
40
0
40
0
40
0
40
0
40
1
40
1
40
1
40
1
41
1
10
6.69355414558757
20
0.469874487793419
30
0
41
1
10
6.55731573944584
20
0.535539348463317
30
0
41
1
10
6.42178857203643
20
0.603976268668788
30
0
41
1
10
6.28692511341183
20
0.675000000000011
30
0
0
SPLINE
5
182
100
AcDbEntity
8
1
62
256
6
ByLayer
370
18
48
1
60
0
100
AcDbSpline
70
4
71
3
72
8
73
4
40
0
40
0
40
0
40
0
40
1
40
1
40
1
40
1
41
1
10
7.66170677249707
20
0.0571915503148546
30
0
41
1
10
7.40963484275738
20
0.150215232757461
30
0
41
1
10
7.16026746261528
20
0.253779922263902
30
0
41
1
10
6.91329588661299
20
0.366682280557825
30
0
0
SPLINE
5
183
100
AcDbEntity
8
1
62
256
6
ByLayer
370
18
48
1
60
0
100
AcDbSpline
70
4
71
3
72
30
73
26
40
0
40
0
40
0
40
0
40
0.125000000000004
40
0.125000000000004
40
0.187500000000004
40
0.187500000000004
40
0.250000000000004
40
0.250000000000004
40
0.375000000000004
40
0.375000000000004
40
0.437500000000002
40
0.46875
40
0.46875
40
0.499999999999998
40
0.499999999999998
40
0.624999999999992
40
0.624999999999992
40
0.687499999999989
40
0.718749999999988
40
0.718749999999988
40
0.749999999999986
40
0.749999999999986
40
0.874999999999993
40
0.874999999999993
40
1
40
1
40
1
40
1
41
1
10
20.822715723538
20
10.6691520710791
30
0
41
1
10
20.847768304749
20
10.7482681632429
30
0
41
1
10
20.8788630607066
20
10.8247009552159
30
0
41
1
10
20.9343837757677
20
10.9354072088138
30
0
41
1
10
20.9543773309459
20
10.9716490792978
30
0
41
1
10
20.9973904274698
20
11.0427889946398
30
0
41
1
10
21.0205047631203
20
11.0778069886865
30
0
41
1
10
21.09350725458
20
11.1793854096886
30
0
41
1
10
21.1471561976599
20
11.242794132343
30
0
41
1
10
21.2350142584809
20
11.3315165433858
30
0
41
1
10
21.2807979598904
20
11.3742727165954
30
0
41
1
10
21.3294267679084
20
11.4145667345012
30
0
41
1
10
21.3624911538249
20
11.4408710738286
30
0
41
1
10
21.3793763667551
20
11.4537651093029
30
0
41
1
10
21.4647352399982
20
11.5162988099343
30
0
41
1
10
21.536394420928
20
11.5605174603617
30
0
41
1
10
21.6488516646301
20
11.6182873923651
30
0
41
1
10
21.7063282844439
20
11.6450227195316
30
0
41
1
10
21.7657140955477
20
11.6684695223062
30
0
41
1
10
21.8057370083697
20
11.6833559762836
30
0
41
1
10
21.8260089536336
20
11.6904413012861
30
0
41
1
10
21.9278976053391
20
11.723781451748
30
0
41
1
10
22.010636919903
20
11.7437057710382
30
0
41
1
10
22.178500847941
20
11.7704515020418
30
0
41
1
10
22.2636251916731
20
11.7772743955006
30
0
41
1
10
22.3499999999999
20
11.7772282454434
30
0
0
SPLINE
5
184
100
AcDbEntity
8
1
62
256
6
ByLayer
370
18
48
1
60
0
100
AcDbSpline
70
4
71
3
72
18
73
14
40
0
40
0
40
0
40
0
40
0.250000000000006
40
0.250000000000006
40
0.500000000000012
40
0.500000000000012
40
0.625000000000009
40
0.625000000000009
40
0.750000000000006
40
0.750000000000006
40
0.875000000000003
40
0.875000000000003
40
1
40
1
40
1
40
1
41
1
10
8.97509300113904
20
-0.269594177821347
30
0
41
1
10
9.01152644313692
20
-0.276266358807106
30
0
41
1
10
9.04786915185497
20
-0.282718617451991
30
0
41
1
10
9.12036847898457
20
-0.294911325240093
30
0
41
1
10
9.15652522117631
20
-0.300657493979827
30
0
41
1
10
9.21061352336176
20
-0.308394804813759
30
0
41
1
10
9.2286184412612
20
-0.310825062109671
30
0
41
1
10
9.26457702835458
20
-0.315286220540855
30
0
41
1
10
9.28248929533834
20
-0.317312073862979
30
0
41
1
10
9.31797101305719
20
-0.320786465321106
30
0
41
1
10
9.33556537132938
20
-0.322240606437305
30
0
41
1
10
9.37037734087883
20
-0.324333802126603
30
0
41
1
10
9.38759768040057
20
-0.324980947161663
30
0
41
1
10
9.40454881002665
20
-0.324980947161663
30
0
0
SPLINE
5
185
100
AcDbEntity
8
1
62
256
6
ByLayer
370
18
48
1
60
0
100
AcDbSpline
70
4
71
3
72
8
73
4
40
0
40
0
40
0
40
0
40
1
40
1
40
1
40
1
41
1
10
15.2430820962789
20
0.129903810567669
30
0
41
1
10
15.4272614047534
20
0.311558795543561
30
0
41
1
10
15.6113958293534
20
0.493259035239646
30
0
41
1
10
15.7954898626159
20
0.675000000000011
30
0
0
SPLINE
5
186
100
AcDbEntity
8
1
62
256
6
ByLayer
370
18
48
1
60
0
100
AcDbSpline
70
4
71
3
72
8
73
4
40
0
40
0
40
0
40
0
40
1
40
1
40
1
40
1
41
1
10
14.8184692127086
20
-0.249980947161674
30
0
41
1
10
14.9604945734528
20
-0.123759749017154
30
0
41
1
10
15.1020216400389
20
0.0028773178347024
30
0
41
1
10
15.2430820962789
20
0.129903810567669
30
0
0
SPLINE
5
187
100
AcDbEntity
8
1
62
256
6
ByLayer
370
18
48
1
60
0
100
AcDbSpline
70
4
71
3
72
18
73
14
40
0
40
0
40
0
40
0
40
0.125000000000001
40
0.125000000000001
40
0.250000000000001
40
0.250000000000001
40
0.500000000000003
40
0.500000000000003
40
0.625000000000006
40
0.625000000000006
40
0.750000000000009
40
0.750000000000009
40
1
40
1
40
1
40
1
41
1
10
14.7171680292953
20
-0.324980947161748
30
0
41
1
10
14.7186893510728
20
-0.324980947161748
30
0
41
1
10
14.7207746365131
20
-0.324388699392443
30
0
41
1
10
14.7259716490943
20
-0.322125675212902
30
0
41
1
10
14.729075461519
20
-0.320451985953838
30
0
41
1
10
14.7393963271011
20
-0.314194627055087
30
0
41
1
10
14.7478183865456
20
-0.308259492032221
30
0
41
1
10
14.7614560038651
20
-0.29790260373386
30
0
41
1
10
14.7661922846909
20
-0.294192871663853
30
0
41
1
10
14.7760027492335
20
-0.286317935978389
30
0
41
1
10
14.7810985572145
20
-0.282134384874752
30
0
41
1
10
14.7967015141747
20
-0.269079983040143
30
0
41
1
10
14.8074408879534
20
-0.25978207251589
30
0
41
1
10
14.8184692127086
20
-0.249980947161674
30
0
0
SPLINE
5
188
100
AcDbEntity
8
1
62
256
6
ByLayer
370
18
48
1
60
0
100
AcDbSpline
70
4
71
3
72
12
73
8
40
0
40
0
40
0
40
0
40
0.358938353212628
40
0.358938353212628
40
0.717876706425257
40
0.717876706425257
40
1
40
1
40
1
40
1
41
1
10
9.13284665391035
20
-0.324980947161691
30
0
41
1
10
9.14372986087076
20
-0.324980947161691
30
0
41
1
10
9.15494813398624
20
-0.324297936900479
30
0
41
1
10
9.17785494090333
20
-0.321962244275824
30
0
41
1
10
9.18954659679824
20
-0.320303380455783
30
0
41
1
10
9.21076689725155
20
-0.316635418411295
30
0
41
1
10
9.22018631298096
20
-0.314781589375542
30
0
41
1
10
9.22962551724967
20
-0.312730672053647
30
0
0
SPLINE
5
189
100
AcDbEntity
8
1
62
256
6
ByLayer
370
18
48
1
60
0
100
AcDbSpline
70
4
71
3
72
8
73
4
40
0
40
0
40
0
40
0
40
1
40
1
40
1
40
1
41
1
10
20.8795409432033
20
10.8151505766414
30
0
41
1
10
20.8768206153312
20
10.8087960798895
30
0
41
1
10
20.8741400371221
20
10.8024210434658
30
0
41
1
10
20.8714993316322
20
10.7960254037839
30
0
0
SPLINE
5
18A
100
AcDbEntity
8
1
62
256
6
ByLayer
370
18
48
1
60
0
100
AcDbSpline
70
4
71
3
72
8
73
4
40
0
40
0
40
0
40
0
40
1
40
1
40
1
40
1
41
1
10
31.8624323856589
20
13.8913822077334
30
0
41
1
10
31.8490608709804
20
13.8906753340791
30
0
41
1
10
31.8357630337701
20
13.8886323566489
30
0
41
1
10
31.822759092824
20
13.8852671535594
30
0
0
SPLINE
5
18B
100
AcDbEntity
8
1
62
256
6
ByLayer
370
18
48
1
60
0
100
AcDbSpline
70
4
71
3
72
8
73
4
40
0
40
0
40
0
40
0
40
1
40
1
40
1
40
1
41
1
10
26.7499999999999
20
13.9720351346495
30
0
41
1
10
27.8583333364493
20
13.9720381073614
30
0
41
1
10
28.9666666713861
20
13.9720431391371
30
0
41
1
10
30.0749999999999
20
13.972050230289
30
0
0
SPLINE
5
18C
100
AcDbEntity
8
1
62
256
6
ByLayer
370
18
48
1
60
0
100
AcDbSpline
70
4
71
3
72
8
73
4
40
0
40
0
40
0
40
0
40
1
40
1
40
1
40
1
41
1
10
26.0949880000017
20
13.9720336175518
30
0
41
1
10
26.3133253614127
20
13.9720340433377
30
0
41
1
10
26.5316626879534
20
13.972034549037
30
0
41
1
10
26.7499999999999
20
13.9720351346495
30
0
0
SPLINE
5
18D
100
AcDbEntity
8
1
62
256
6
ByLayer
370
18
48
1
60
0
100
AcDbSpline
70
4
71
3
72
8
73
4
40
0
40
0
40
0
40
0
40
1
40
1
40
1
40
1
41
1
10
31.8227590928254
20
11.5638836608958
30
0
41
1
10
31.8357631246236
20
11.5607884848391
30
0
41
1
10
31.8490607875046
20
11.5590216836188
30
0
41
1
10
31.8624323856722
20
11.5585924892276
30
0
0
SPLINE
5
18E
100
AcDbEntity
8
1
62
256
6
ByLayer
370
18
48
1
60
0
100
AcDbSpline
70
4
71
2
72
6
73
3
40
0
40
0
40
0
40
1
40
1
40
1
41
1.03186391735993
10
34.3499999999999
20
13.8029050717331
30
0
41
0.729637973226922
10
34.3499999999999
20
14.0026662992014
30
0
41
1.03186391735993
10
34.1499999999999
20
14.0026662992014
30
0
0
SPLINE
5
18F
100
AcDbEntity
8
1
62
256
6
ByLayer
370
18
48
1
60
0
100
AcDbSpline
70
4
71
2
72
6
73
3
40
0
40
0
40
0
40
1
40
1
40
1
41
1.03186391735993
10
34.1499999999999
20
14.0026662992014
30
0
41
1.03138264657361
10
34.0277889468056
20
14.0026662992014
30
0
41
1.03186391735993
10
33.9058058418605
20
13.9952144000669
30
0
0
SPLINE
5
190
100
AcDbEntity
8
1
62
256
6
ByLayer
370
18
48
1
60
0
100
AcDbSpline
70
4
71
2
72
6
73
3
40
0
40
0
40
0
40
1
40
1
40
1
41
1.03186391735993
10
34.1499999999999
20
11.5003183574448
30
0
41
0.729637973226922
10
34.3499999999999
20
11.5003183574448
30
0
41
1.03186391735993
10
34.3499999999999
20
11.7000795849131
30
0
0
SPLINE
5
191
100
AcDbEntity
8
1
62
256
6
ByLayer
370
18
48
1
60
0
100
AcDbSpline
70
4
71
2
72
6
73
3
40
0
40
0
40
0
40
1
40
1
40
1
41
1.03186391735993
10
33.9058058418605
20
11.5077702565793
30
0
41
1.03138264657361
10
34.0277889468056
20
11.5003183574448
30
0
41
1.03186391735993
10
34.1499999999999
20
11.5003183574448
30
0
0
SPLINE
5
192
100
AcDbEntity
8
1
62
256
6
ByLayer
370
18
48
1
60
0
100
AcDbSpline
70
4
71
3
72
8
73
4
40
0
40
0
40
0
40
0
40
1
40
1
40
1
40
1
41
1
10
33.5270759998781
20
13.9720789756275
30
0
41
1
10
32.3763852790071
20
13.9720671742399
30
0
41
1
10
31.225693406949
20
13.9720575924621
30
0
41
1
10
30.0749999999999
20
13.972050230289
30
0
0
LINE
5
7D
100
AcDbEntity
8
81
62
256
6
ByLayer
370
18
48
1
60
0
100
AcDbLine
10
34.35
20
14
30
0
11
39.35
21
14
31
0
39
0
210
0
220
0
230
1
0
LINE
5
7E
100
AcDbEntity
8
80
62
256
6
ByLayer
370
18
48
1
60
0
100
AcDbLine
10
0
20
0
30
0
11
0
21
-5
31
0
39
0
210
0
220
0
230
1
0
LINE
5
7F
100
AcDbEntity
8
1
62
256
6
ByLayer
370
18
48
1
60
0
100
AcDbLine
10
16
20
0.675
30
0
11
16
21
0.875
31
0
39
0
210
0
220
0
230
1
0
LINE
5
80
100
AcDbEntity
8
1
62
256
6
ByLayer
370
18
48
1
60
0
100
AcDbLine
10
6.742324
20
-0.324981
30
0
11
9.132847
21
-0.324981
31
0
39
0
210
0
220
0
230
1
0
LINE
5
81
100
AcDbEntity
8
1
62
256
6
ByLayer
370
18
48
1
60
0
100
AcDbLine
10
33.55
20
13.973466
30
0
11
33.55
21
14.07809
31
0
39
0
210
0
220
0
230
1
0
LINE
5
82
100
AcDbEntity
8
1
62
256
6
ByLayer
370
18
48
1
60
0
100
AcDbLine
10
28.245415
20
13.972032
30
0
11
28.246475
21
14.085421
31
0
39
0
210
0
220
0
230
1
0
LINE
5
83
100
AcDbEntity
8
1
62
256
6
ByLayer
370
18
48
1
60
0
100
AcDbLine
10
29.163834
20
13.972032
30
0
11
29.164826
21
14.07809
31
0
39
0
210
0
220
0
230
1
0
LINE
5
84
100
AcDbEntity
8
1
62
256
6
ByLayer
370
18
48
1
60
0
100
AcDbLine
10
9.404549
20
-0.324981
30
0
11
9.476736
21
-0.324981
31
0
39
0
210
0
220
0
230
1
0
LINE
5
85
100
AcDbEntity
8
1
62
256
6
ByLayer
370
18
48
1
60
0
100
AcDbLine
10
9.57055
20
-0.324981
30
0
11
14.717168
21
-0.324981
31
0
39
0
210
0
220
0
230
1
0
LINE
5
86
100
AcDbEntity
8
1
62
256
6
ByLayer
370
18
48
1
60
0
100
AcDbLine
10
7.189383
20
-0.25
30
0
11
9.530813
21
-0.25
31
0
39
0
210
0
220
0
230
1
0
LINE
5
87
100
AcDbEntity
8
1
62
256
6
ByLayer
370
13
48
1
60
0
100
AcDbLine
10
7.154174
20
-0.249981
30
0
11
14.818469
21
-0.249981
31
0
39
0
210
0
220
0
230
1
0
LINE
5
88
100
AcDbEntity
8
1
62
256
6
ByLayer
370
18
48
1
60
0
100
AcDbLine
10
15.243082
20
0.129904
30
0
11
7.713428
21
0.129904
31
0
39
0
210
0
220
0
230
1
0
LINE
5
89
100
AcDbEntity
8
1
62
256
6
ByLayer
370
18
48
1
60
0
100
AcDbLine
10
12.66933
20
15.120822
30
0
11
18.76001
21
21.211502
31
0
39
0
210
0
220
0
230
1
0
LINE
5
8A
100
AcDbEntity
8
1
62
256
6
ByLayer
370
18
48
1
60
0
100
AcDbLine
10
25.46678
20
14.085421
30
0
11
28.246475
21
14.085421
31
0
39
0
210
0
220
0
230
1
0
LINE
5
8B
100
AcDbEntity
8
1
62
256
6
ByLayer
370
18
48
1
60
0
100
AcDbLine
10
29.164826
20
14.07809
30
0
11
33.55
21
14.07809
31
0
39
0
210
0
220
0
230
1
0
LINE
5
8C
100
AcDbEntity
8
1
62
256
6
ByLayer
370
18
48
1
60
0
100
AcDbLine
10
33.55
20
15.043725
30
0
11
33.55
21
14.07809
31
0
39
0
210
0
220
0
230
1
0
LINE
5
8D
100
AcDbEntity
8
1
62
256
6
ByLayer
370
18
48
1
60
0
100
AcDbLine
10
-14.075019
20
-0.249981
30
0
11
-14.000019
21
-0.324981
31
0
39
0
210
0
220
0
230
1
0
LINE
5
8E
100
AcDbEntity
8
1
62
256
6
ByLayer
370
18
48
1
60
0
100
AcDbLine
10
-14.000019
20
-0.324981
30
0
11
-13.791283
21
-0.324981
31
0
39
0
210
0
220
0
230
1
0
LINE
5
8F
100
AcDbEntity
8
1
62
256
6
ByLayer
370
18
48
1
60
0
100
AcDbLine
10
-11.023511
20
-0.324981
30
0
11
-10.810081
21
-0.324981
31
0
39
0
210
0
220
0
230
1
0
LINE
5
90
100
AcDbEntity
8
1
62
256
6
ByLayer
370
18
48
1
60
0
100
AcDbLine
10
-10.247062
20
-0.324981
30
0
11
-9.769771
21
-0.324981
31
0
39
0
210
0
220
0
230
1
0
LINE
5
91
100
AcDbEntity
8
1
62
256
6
ByLayer
370
18
48
1
60
0
100
AcDbLine
10
-14.559331
20
0.234331
30
0
11
-14.075019
21
-0.249981
31
0
39
0
210
0
220
0
230
1
0
LINE
5
92
100
AcDbEntity
8
1
62
256
6
ByLayer
370
13
48
1
60
0
100
AcDbLine
10
-14.075019
20
-0.249981
30
0
11
-13.927309
21
-0.249981
31
0
39
0
210
0
220
0
230
1
0
LINE
5
93
100
AcDbEntity
8
1
62
256
6
ByLayer
370
18
48
1
60
0
100
AcDbLine
10
-13.703327
20
-0.324981
30
0
11
-13.048061
21
-0.324981
31
0
39
0
210
0
220
0
230
1
0
LINE
5
94
100
AcDbEntity
8
1
62
256
6
ByLayer
370
18
48
1
60
0
100
AcDbLine
10
-11.287197
20
-0.324981
30
0
11
-11.132078
21
-0.324981
31
0
39
0
210
0
220
0
230
1
0
LINE
5
95
100
AcDbEntity
8
1
62
256
6
ByLayer
370
13
48
1
60
0
100
AcDbLine
10
-13.72716
20
-0.249981
30
0
11
-13.206552
21
-0.249981
31
0
39
0
210
0
220
0
230
1
0
LINE
5
96
100
AcDbEntity
8
1
62
256
6
ByLayer
370
13
48
1
60
0
100
AcDbLine
10
-14.265575
20
0.394519
30
0
11
-14.125544
21
0.394519
31
0
39
0
210
0
220
0
230
1
0
LINE
5
97
100
AcDbEntity
8
1
62
256
6
ByLayer
370
18
48
1
60
0
100
AcDbLine
10
-12.9317
20
-0.324981
30
0
11
-12.074956
21
-0.324981
31
0
39
0
210
0
220
0
230
1
0
LINE
5
98
100
AcDbEntity
8
1
62
256
6
ByLayer
370
13
48
1
60
0
100
AcDbLine
10
-12.941904
20
-0.249981
30
0
11
-12.261918
21
-0.249981
31
0
39
0
210
0
220
0
230
1
0
LINE
5
99
100
AcDbEntity
8
1
62
256
6
ByLayer
370
13
48
1
60
0
100
AcDbLine
10
-13.470275
20
0.394519
30
0
11
-13.288685
21
0.394519
31
0
39
0
210
0
220
0
230
1
0
LINE
5
9A
100
AcDbEntity
8
1
62
256
6
ByLayer
370
18
48
1
60
0
100
AcDbLine
10
-11.923781
20
-0.324981
30
0
11
-11.287177
21
-0.324981
31
0
39
0
210
0
220
0
230
1
0
LINE
5
9B
100
AcDbEntity
8
1
62
256
6
ByLayer
370
18
48
1
60
0
100
AcDbLine
10
12.874393
20
0.675
30
0
11
11.5
21
0.675
31
0
39
0
210
0
220
0
230
1
0
LINE
5
9C
100
AcDbEntity
8
1
62
256
6
ByLayer
370
18
48
1
60
0
100
AcDbLine
10
12.874393
20
0.875
30
0
11
12.874393
21
0.675
31
0
39
0
210
0
220
0
230
1
0
LINE
5
9D
100
AcDbEntity
8
1
62
256
6
ByLayer
370
18
48
1
60
0
100
AcDbLine
10
19.370254
20
1.375
30
0
11
13.490738
21
1.375
31
0
39
0
210
0
220
0
230
1
0
LINE
5
9E
100
AcDbEntity
8
1
62
256
6
ByLayer
370
18
48
1
60
0
100
AcDbLine
10
20.75
20
2.532744
30
0
11
19.370254
21
1.375
31
0
39
0
210
0
220
0
230
1
0
LINE
5
9F
100
AcDbEntity
8
1
62
256
6
ByLayer
370
18
48
1
60
0
100
AcDbLine
10
20.75
20
11.618462
30
0
11
20.75
21
2.532744
31
0
39
0
210
0
220
0
230
1
0
LINE
5
A0
100
AcDbEntity
8
1
62
256
6
ByLayer
370
18
48
1
60
0
100
AcDbLine
10
12.66927
20
15.120762
30
0
11
21.150233
21
15.120762
31
0
39
0
210
0
220
0
230
1
0
LINE
5
A1
100
AcDbEntity
8
1
62
256
6
ByLayer
370
18
48
1
60
0
100
AcDbLine
10
12.66927
20
15.120762
30
0
11
12
21
14.451492
31
0
39
0
210
0
220
0
230
1
0
LINE
5
A2
100
AcDbEntity
8
1
62
256
6
ByLayer
370
18
48
1
60
0
100
AcDbLine
10
21.150233
20
12.731904
30
0
11
21.150233
21
15.120762
31
0
39
0
210
0
220
0
230
1
0
LINE
5
A3
100
AcDbEntity
8
1
62
256
6
ByLayer
370
18
48
1
60
0
100
AcDbLine
10
24.6
20
14.292446
30
0
11
24.6
21
12.362249
31
0
39
0
210
0
220
0
230
1
0
LINE
5
A4
100
AcDbEntity
8
1
62
256
6
ByLayer
370
13
48
1
60
0
100
AcDbLine
10
22.35
20
12.92406
30
0
11
22.35
21
11.777228
31
0
39
0
210
0
220
0
230
1
0
LINE
5
A5
100
AcDbEntity
8
1
62
256
6
ByLayer
370
13
48
1
60
0
100
AcDbLine
10
-11.918509
20
-0.249981
30
0
11
-11.153931
21
-0.249981
31
0
39
0
210
0
220
0
230
1
0
LINE
5
A6
100
AcDbEntity
8
1
62
256
6
ByLayer
370
13
48
1
60
0
100
AcDbLine
10
-12.44548
20
0.394519
30
0
11
-12.212601
21
0.394519
31
0
39
0
210
0
220
0
230
1
0
LINE
5
A7
100
AcDbEntity
8
1
62
256
6
ByLayer
370
18
48
1
60
0
100
AcDbLine
10
-10.612458
20
-0.324981
30
0
11
-10.247044
21
-0.324981
31
0
39
0
210
0
220
0
230
1
0
LINE
5
A8
100
AcDbEntity
8
1
62
256
6
ByLayer
370
18
48
1
60
0
100
AcDbLine
10
9.875896
20
13.451492
30
0
11
9.16572
21
13.451492
31
0
39
0
210
0
220
0
230
1
0
LINE
5
A9
100
AcDbEntity
8
1
62
256
6
ByLayer
370
18
48
1
60
0
100
AcDbLine
10
9.875896
20
0.675
30
0
11
9.16572
21
0.675
31
0
39
0
210
0
220
0
230
1
0
LINE
5
AA
100
AcDbEntity
8
1
62
256
6
ByLayer
370
18
48
1
60
0
100
AcDbLine
10
10.51676
20
13.451492
30
0
11
9.875896
21
13.451492
31
0
39
0
210
0
220
0
230
1
0
LINE
5
AB
100
AcDbEntity
8
1
62
256
6
ByLayer
370
18
48
1
60
0
100
AcDbLine
10
11.5
20
0.675
30
0
11
9.875896
21
0.675
31
0
39
0
210
0
220
0
230
1
0
LINE
5
AC
100
AcDbEntity
8
1
62
256
6
ByLayer
370
18
48
1
60
0
100
AcDbLine
10
9.875896
20
13.451492
30
0
11
9.875896
21
0.675
31
0
39
0
210
0
220
0
230
1
0
LINE
5
AD
100
AcDbEntity
8
1
62
256
6
ByLayer
370
18
48
1
60
0
100
AcDbLine
10
11.5
20
13.789256
30
0
11
11.5
21
0.675
31
0
39
0
210
0
220
0
230
1
0
LINE
5
AE
100
AcDbEntity
8
1
62
256
6
ByLayer
370
13
48
1
60
0
100
AcDbLine
10
-10.588147
20
-0.249981
30
0
11
-9.966378
21
-0.249981
31
0
39
0
210
0
220
0
230
1
0
LINE
5
AF
100
AcDbEntity
8
1
62
256
6
ByLayer
370
18
48
1
60
0
100
AcDbLine
10
-11.023467
20
-0.324981
30
0
11
-11.132078
21
-0.324981
31
0
39
0
210
0
220
0
230
1
0
LINE
5
B0
100
AcDbEntity
8
1
62
256
6
ByLayer
370
18
48
1
60
0
100
AcDbLine
10
-9.404549
20
-0.324981
30
0
11
-9.769771
21
-0.324981
31
0
39
0
210
0
220
0
230
1
0
LINE
5
B1
100
AcDbEntity
8
1
62
256
6
ByLayer
370
13
48
1
60
0
100
AcDbLine
10
-11.127967
20
0.394519
30
0
11
-10.826097
21
0.394519
31
0
39
0
210
0
220
0
230
1
0
LINE
5
B2
100
AcDbEntity
8
1
62
256
6
ByLayer
370
18
48
1
60
0
100
AcDbLine
10
-8.864082
20
-0.324981
30
0
11
-6.742347
21
-0.324981
31
0
39
0
210
0
220
0
230
1
0
LINE
5
B3
100
AcDbEntity
8
1
62
256
6
ByLayer
370
13
48
1
60
0
100
AcDbLine
10
-8.812878
20
-0.249981
30
0
11
-7.153914
21
-0.249981
31
0
39
0
210
0
220
0
230
1
0
LINE
5
B4
100
AcDbEntity
8
1
62
256
6
ByLayer
370
13
48
1
60
0
100
AcDbLine
10
-9.395388
20
0.394519
30
0
11
-8.986711
21
0.394519
31
0
39
0
210
0
220
0
230
1
0
LINE
5
B5
100
AcDbEntity
8
1
62
256
6
ByLayer
370
18
48
1
60
0
100
AcDbLine
10
-6.326108
20
-0.324981
30
0
11
-1.735923
21
-0.324981
31
0
39
0
210
0
220
0
230
1
0
LINE
5
B6
100
AcDbEntity
8
1
62
256
6
ByLayer
370
18
48
1
60
0
100
AcDbLine
10
1.735923
20
-0.324981
30
0
11
6.326108
21
-0.324981
31
0
39
0
210
0
220
0
230
1
0
LINE
5
B7
100
AcDbEntity
8
1
62
256
6
ByLayer
370
18
48
1
60
0
100
AcDbLine
10
6.742492
20
-0.324981
30
0
11
6.326108
21
-0.324981
31
0
39
0
210
0
220
0
230
1
0
LINE
5
B8
100
AcDbEntity
8
1
62
256
6
ByLayer
370
13
48
1
60
0
100
AcDbLine
10
-6.222926
20
-0.249981
30
0
11
-3.020453
21
-0.249981
31
0
39
0
210
0
220
0
230
1
0
LINE
5
B9
100
AcDbEntity
8
1
62
256
6
ByLayer
370
13
48
1
60
0
100
AcDbLine
10
3.020453
20
-0.249981
30
0
11
6.222926
21
-0.249981
31
0
39
0
210
0
220
0
230
1
0
LINE
5
BA
100
AcDbEntity
8
1
62
256
6
ByLayer
370
13
48
1
60
0
100
AcDbLine
10
-6.943702
20
0.394519
30
0
11
-6.31048
21
0.394519
31
0
39
0
210
0
220
0
230
1
0
LINE
5
BB
100
AcDbEntity
8
1
62
256
6
ByLayer
370
13
48
1
60
0
100
AcDbLine
10
6.310499
20
0.394519
30
0
11
6.897224
21
0.394519
31
0
39
0
210
0
220
0
230
1
0
LINE
5
BC
100
AcDbEntity
8
1
62
256
6
ByLayer
370
13
48
1
60
0
100
AcDbLine
10
-1.912242
20
0.394519
30
0
11
1.912242
21
0.394519
31
0
39
0
210
0
220
0
230
1
0
LINE
5
BD
100
AcDbEntity
8
1
62
256
6
ByLayer
370
18
48
1
60
0
100
AcDbLine
10
-15
20
0.675
30
0
11
-15
21
0.875
31
0
39
0
210
0
220
0
230
1
0
LINE
5
BE
100
AcDbEntity
8
1
62
256
6
ByLayer
370
18
48
1
60
0
100
AcDbLine
10
-13.703327
20
-0.324981
30
0
11
-13.791289
21
-0.324981
31
0
39
0
210
0
220
0
230
1
0
LINE
5
BF
100
AcDbEntity
8
1
62
256
6
ByLayer
370
18
48
1
60
0
100
AcDbLine
10
-12.9317
20
-0.324981
30
0
11
-13.048064
21
-0.324981
31
0
39
0
210
0
220
0
230
1
0
LINE
5
C0
100
AcDbEntity
8
1
62
256
6
ByLayer
370
18
48
1
60
0
100
AcDbLine
10
-11.923781
20
-0.324981
30
0
11
-12.074944
21
-0.324981
31
0
39
0
210
0
220
0
230
1
0
LINE
5
C1
100
AcDbEntity
8
1
62
256
6
ByLayer
370
18
48
1
60
0
100
AcDbLine
10
-10.612458
20
-0.324981
30
0
11
-10.810022
21
-0.324981
31
0
39
0
210
0
220
0
230
1
0
LINE
5
C2
100
AcDbEntity
8
1
62
256
6
ByLayer
370
18
48
1
60
0
100
AcDbLine
10
-8.864082
20
-0.324981
30
0
11
-9.132847
21
-0.324981
31
0
39
0
210
0
220
0
230
1
0
LINE
5
C3
100
AcDbEntity
8
1
62
256
6
ByLayer
370
18
48
1
60
0
100
AcDbLine
10
-6.326108
20
-0.324981
30
0
11
-6.742492
21
-0.324981
31
0
39
0
210
0
220
0
230
1
0
LINE
5
C4
100
AcDbEntity
8
1
62
256
6
ByLayer
370
18
48
1
60
0
100
AcDbLine
10
1.735945
20
-0.324981
30
0
11
-1.735945
21
-0.324981
31
0
39
0
210
0
220
0
230
1
0
LINE
5
C5
100
AcDbEntity
8
1
62
256
6
ByLayer
370
18
48
1
60
0
100
AcDbLine
10
-15
20
0.675
30
0
11
6.286925
21
0.675
31
0
39
0
210
0
220
0
230
1
0
LINE
5
C6
100
AcDbEntity
8
1
62
256
6
ByLayer
370
18
48
1
60
0
100
AcDbLine
10
4.95
20
13.451492
30
0
11
0
21
13.451492
31
0
39
0
210
0
220
0
230
1
0
LINE
5
C7
100
AcDbEntity
8
1
62
256
6
ByLayer
370
18
48
1
60
0
100
AcDbLine
10
4.95
20
1.375
30
0
11
3.827205
21
1.375
31
0
39
0
210
0
220
0
230
1
0
LINE
5
C8
100
AcDbEntity
8
1
62
256
6
ByLayer
370
18
48
1
60
0
100
AcDbLine
10
0
20
13.451492
30
0
11
-7.648508
21
13.451492
31
0
39
0
210
0
220
0
230
1
0
LINE
5
C9
100
AcDbEntity
8
1
62
256
6
ByLayer
370
18
48
1
60
0
100
AcDbLine
10
-7.648508
20
13.451492
30
0
11
-15
21
6.1
31
0
39
0
210
0
220
0
230
1
0
LINE
5
CA
100
AcDbEntity
8
1
62
256
6
ByLayer
370
18
48
1
60
0
100
AcDbLine
10
-15
20
6.1
30
0
11
-15
21
1.092945
31
0
39
0
210
0
220
0
230
1
0
LINE
5
CB
100
AcDbEntity
8
1
62
256
6
ByLayer
370
13
48
1
60
0
100
AcDbLine
10
0
20
13.451492
30
0
11
0
21
1.092945
31
0
39
0
210
0
220
0
230
1
0
LINE
5
CC
100
AcDbEntity
8
1
62
256
6
ByLayer
370
13
48
1
60
0
100
AcDbLine
10
6.286925
20
0.875
30
0
11
-15
21
0.875
31
0
39
0
210
0
220
0
230
1
0
LINE
5
CD
100
AcDbEntity
8
1
62
256
6
ByLayer
370
18
48
1
60
0
100
AcDbLine
10
0
20
1.092945
30
0
11
-15
21
1.092945
31
0
39
0
210
0
220
0
230
1
0
LINE
5
CE
100
AcDbEntity
8
1
62
256
6
ByLayer
370
18
48
1
60
0
100
AcDbLine
10
9.165721
20
13.451492
30
0
11
4.95
21
13.451492
31
0
39
0
210
0
220
0
230
1
0
LINE
5
CF
100
AcDbEntity
8
1
62
256
6
ByLayer
370
18
48
1
60
0
100
AcDbLine
10
4.95
20
13.451492
30
0
11
4.95
21
1.375
31
0
39
0
210
0
220
0
230
1
0
LINE
5
D0
100
AcDbEntity
8
1
62
256
6
ByLayer
370
18
48
1
60
0
100
AcDbLine
10
5.413253
20
1.375
30
0
11
4.95
21
1.375
31
0
39
0
210
0
220
0
230
1
0
LINE
5
D1
100
AcDbEntity
8
1
62
256
6
ByLayer
370
18
48
1
60
0
100
AcDbLine
10
6.286925
20
0.675
30
0
11
6.286925
21
0.875
31
0
39
0
210
0
220
0
230
1
0
LINE
5
D2
100
AcDbEntity
8
1
62
256
6
ByLayer
370
18
48
1
60
0
100
AcDbLine
10
6.897224
20
0.394519
30
0
11
6.913296
21
0.366682
31
0
39
0
210
0
220
0
230
1
0
LINE
5
D3
100
AcDbEntity
8
1
62
256
6
ByLayer
370
18
48
1
60
0
100
AcDbLine
10
7.958424
20
0.475
30
0
11
7.661707
21
0.057192
31
0
39
0
210
0
220
0
230
1
0
LINE
5
D4
100
AcDbEntity
8
1
62
256
6
ByLayer
370
18
48
1
60
0
100
AcDbLine
10
7.958424
20
0.675
30
0
11
7.958424
21
0.475
31
0
39
0
210
0
220
0
230
1
0
LINE
5
D5
100
AcDbEntity
8
1
62
256
6
ByLayer
370
18
48
1
60
0
100
AcDbLine
10
9.165721
20
0.675
30
0
11
7.958424
21
0.675
31
0
39
0
210
0
220
0
230
1
0
LINE
5
D6
100
AcDbEntity
8
1
62
256
6
ByLayer
370
18
48
1
60
0
100
AcDbLine
10
9.165721
20
0.675
30
0
11
9.165721
21
13.451492
31
0
39
0
210
0
220
0
230
1
0
LINE
5
D7
100
AcDbEntity
8
1
62
256
6
ByLayer
370
18
48
1
60
0
100
AcDbLine
10
16
20
0.675
30
0
11
12.874393
21
0.675
31
0
39
0
210
0
220
0
230
1
0
LINE
5
D8
100
AcDbEntity
8
1
62
256
6
ByLayer
370
13
48
1
60
0
100
AcDbLine
10
16
20
0.875
30
0
11
12.874393
21
0.875
31
0
39
0
210
0
220
0
230
1
0
LINE
5
D9
100
AcDbEntity
8
1
62
256
6
ByLayer
370
18
48
1
60
0
100
AcDbLine
10
26.643268
20
21.393539
30
0
11
19.755627
21
21.393539
31
0
39
0
210
0
220
0
230
1
0
LINE
5
DA
100
AcDbEntity
8
1
62
256
6
ByLayer
370
18
48
1
60
0
100
AcDbLine
10
32.983187
20
13.938852
30
0
11
32.199374
21
13.909194
31
0
39
0
210
0
220
0
230
1
0
LINE
5
DB
100
AcDbEntity
8
1
62
256
6
ByLayer
370
18
48
1
60
0
100
AcDbLine
10
32.983187
20
11.564133
30
0
11
32.983187
21
13.938852
31
0
39
0
210
0
220
0
230
1
0
LINE
5
DC
100
AcDbEntity
8
1
62
256
6
ByLayer
370
13
48
1
60
0
100
AcDbLine
10
30.9827
20
12.518753
30
0
11
28.053119
21
12.518753
31
0
39
0
210
0
220
0
230
1
0
LINE
5
DD
100
AcDbEntity
8
1
62
256
6
ByLayer
370
13
48
1
60
0
100
AcDbLine
10
31.632766
20
12.722603
30
0
11
28.099487
21
12.722603
31
0
39
0
210
0
220
0
230
1
0
LINE
5
DE
100
AcDbEntity
8
1
62
256
6
ByLayer
370
13
48
1
60
0
100
AcDbLine
10
28.007105
20
12.912953
30
0
11
30.9827
21
12.912953
31
0
39
0
210
0
220
0
230
1
0
LINE
5
DF
100
AcDbEntity
8
1
62
256
6
ByLayer
370
13
48
1
60
0
100
AcDbLine
10
28.049232
20
12.514878
30
0
11
30.938491
21
12.514878
31
0
39
0
210
0
220
0
230
1
0
LINE
5
E0
100
AcDbEntity
8
1
62
256
6
ByLayer
370
13
48
1
60
0
100
AcDbLine
10
28.002289
20
12.91591
30
0
11
30.938491
21
12.91591
31
0
39
0
210
0
220
0
230
1
0
LINE
5
E1
100
AcDbEntity
8
1
62
256
6
ByLayer
370
13
48
1
60
0
100
AcDbLine
10
27.977625
20
12.458569
30
0
11
30.351033
21
12.458569
31
0
39
0
210
0
220
0
230
1
0
LINE
5
E2
100
AcDbEntity
8
1
62
256
6
ByLayer
370
13
48
1
60
0
100
AcDbLine
10
27.947994
20
12.960019
30
0
11
30.351033
21
12.960019
31
0
39
0
210
0
220
0
230
1
0
LINE
5
E3
100
AcDbEntity
8
1
62
256
6
ByLayer
370
13
48
1
60
0
100
AcDbLine
10
27.944835
20
12.336463
30
0
11
29.843277
21
12.336463
31
0
39
0
210
0
220
0
230
1
0
LINE
5
E4
100
AcDbEntity
8
1
62
256
6
ByLayer
370
13
48
1
60
0
100
AcDbLine
10
27.863997
20
11.871211
30
0
11
29.090837
21
11.871211
31
0
39
0
210
0
220
0
230
1
0
LINE
5
E5
100
AcDbEntity
8
1
62
256
6
ByLayer
370
13
48
1
60
0
100
AcDbLine
10
29.051381
20
11.821406
30
0
11
27.855467
21
11.821406
31
0
39
0
210
0
220
0
230
1
0
LINE
5
E6
100
AcDbEntity
8
1
62
256
6
ByLayer
370
13
48
1
60
0
100
AcDbLine
10
27.92166
20
13.07158
30
0
11
29.843277
21
13.07158
31
0
39
0
210
0
220
0
230
1
0
LINE
5
E7
100
AcDbEntity
8
1
62
256
6
ByLayer
370
13
48
1
60
0
100
AcDbLine
10
29.090837
20
13.521207
30
0
11
27.815107
21
13.521207
31
0
39
0
210
0
220
0
230
1
0
LINE
5
E8
100
AcDbEntity
8
1
62
256
6
ByLayer
370
18
48
1
60
0
100
AcDbLine
10
32.199374
20
13.909194
30
0
11
31.862432
21
13.891382
31
0
39
0
210
0
220
0
230
1
0
LINE
5
E9
100
AcDbEntity
8
1
62
256
6
ByLayer
370
18
48
1
60
0
100
AcDbLine
10
31.822759
20
13.885267
30
0
11
31.292478
21
13.748039
31
0
39
0
210
0
220
0
230
1
0
LINE
5
EA
100
AcDbEntity
8
1
62
256
6
ByLayer
370
18
48
1
60
0
100
AcDbLine
10
29.090837
20
13.521207
30
0
11
29.843277
21
13.07158
31
0
39
0
210
0
220
0
230
1
0
LINE
5
EB
100
AcDbEntity
8
1
62
256
6
ByLayer
370
18
48
1
60
0
100
AcDbLine
10
30.938491
20
12.91591
30
0
11
30.9827
21
12.912953
31
0
39
0
210
0
220
0
230
1
0
LINE
5
EC
100
AcDbEntity
8
1
62
256
6
ByLayer
370
18
48
1
60
0
100
AcDbLine
10
30.9827
20
12.518753
30
0
11
30.938491
21
12.514878
31
0
39
0
210
0
220
0
230
1
0
LINE
5
ED
100
AcDbEntity
8
1
62
256
6
ByLayer
370
18
48
1
60
0
100
AcDbLine
10
29.843277
20
12.336463
30
0
11
29.090837
21
11.871211
31
0
39
0
210
0
220
0
230
1
0
LINE
5
EE
100
AcDbEntity
8
1
62
256
6
ByLayer
370
18
48
1
60
0
100
AcDbLine
10
29.051381
20
11.821406
30
0
11
29.051381
21
11.696993
31
0
39
0
210
0
220
0
230
1
0
LINE
5
EF
100
AcDbEntity
8
1
62
256
6
ByLayer
370
18
48
1
60
0
100
AcDbLine
10
32.199374
20
11.547778
30
0
11
32.199374
21
13.909194
31
0
39
0
210
0
220
0
230
1
0
LINE
5
F0
100
AcDbEntity
8
1
62
256
6
ByLayer
370
18
48
1
60
0
100
AcDbLine
10
29.051381
20
13.694605
30
0
11
29.051381
21
13.570192
31
0
39
0
210
0
220
0
230
1
0
LINE
5
F1
100
AcDbEntity
8
1
62
256
6
ByLayer
370
13
48
1
60
0
100
AcDbLine
10
27.803458
20
13.570192
30
0
11
29.051381
21
13.570192
31
0
39
0
210
0
220
0
230
1
0
LINE
5
F2
100
AcDbEntity
8
1
62
256
6
ByLayer
370
18
48
1
60
0
100
AcDbLine
10
29.051381
20
13.694605
30
0
11
27.774074
21
13.694605
31
0
39
0
210
0
220
0
230
1
0
LINE
5
F3
100
AcDbEntity
8
1
62
256
6
ByLayer
370
18
48
1
60
0
100
AcDbLine
10
29.051381
20
13.694605
30
0
11
31.044849
21
13.715304
31
0
39
0
210
0
220
0
230
1
0
LINE
5
F4
100
AcDbEntity
8
1
62
256
6
ByLayer
370
13
48
1
60
0
100
AcDbLine
10
31.044849
20
13.715304
30
0
11
31.319177
21
13.754948
31
0
39
0
210
0
220
0
230
1
0
LINE
5
F5
100
AcDbEntity
8
1
62
256
6
ByLayer
370
18
48
1
60
0
100
AcDbLine
10
31.292478
20
11.690099
30
0
11
31.822759
21
11.563884
31
0
39
0
210
0
220
0
230
1
0
LINE
5
F6
100
AcDbEntity
8
1
62
256
6
ByLayer
370
18
48
1
60
0
100
AcDbLine
10
34.35
20
11.70008
30
0
11
34.35
21
13.802905
31
0
39
0
210
0
220
0
230
1
0
LINE
5
F7
100
AcDbEntity
8
1
62
256
6
ByLayer
370
18
48
1
60
0
100
AcDbLine
10
33.905806
20
13.995214
30
0
11
32.983187
21
13.938852
31
0
39
0
210
0
220
0
230
1
0
LINE
5
F8
100
AcDbEntity
8
1
62
256
6
ByLayer
370
18
48
1
60
0
100
AcDbLine
10
31.862432
20
11.558592
30
0
11
32.199374
21
11.547778
31
0
39
0
210
0
220
0
230
1
0
LINE
5
F9
100
AcDbEntity
8
1
62
256
6
ByLayer
370
18
48
1
60
0
100
AcDbLine
10
32.983187
20
11.564133
30
0
11
33.905806
21
11.50777
31
0
39
0
210
0
220
0
230
1
0
LINE
5
FA
100
AcDbEntity
8
1
62
256
6
ByLayer
370
18
48
1
60
0
100
AcDbLine
10
32.199374
20
11.547778
30
0
11
32.983187
21
11.564133
31
0
39
0
210
0
220
0
230
1
0
LINE
5
FB
100
AcDbEntity
8
1
62
256
6
ByLayer
370
18
48
1
60
0
100
AcDbLine
10
31.044849
20
11.717692
30
0
11
29.051381
21
11.696993
31
0
39
0
210
0
220
0
230
1
0
LINE
5
FC
100
AcDbEntity
8
1
62
256
6
ByLayer
370
18
48
1
60
0
100
AcDbLine
10
21.861207
20
11.696993
30
0
11
29.051381
21
11.696993
31
0
39
0
210
0
220
0
230
1
0
MTEXT
5
193
100
AcDbEntity
8
SK6
62
256
6
ByLayer
370
18
48
1
60
0
100
AcDbMText
10
-22.6395
20
-46.020597
30
0
210
0
220
0
230
1
1
\W0.7806;C2A-SL32-LGF12B-054GB
40
3.5
41
0
44
1.084337
50
0
71
7
72
5
7
iso_b_vert
0
DIMENSION
5
198
100
AcDbEntity
8
2
62
256
6
ByLayer
370
18
48
1
60
0
100
AcDbDimension
2
_U0
10
34.35
20
-19.75
30
0
11
17.175
21
-19.75
31
0
70
32
71
1
72
1
41
1
210
0
220
0
230
1
3
Standard
100
AcDbAlignedDimension
13
0
23
0
33
0
14
34.35
24
14
34
0
50
0
100
AcDbRotatedDimension
1001
ACAD
1000
DSTYLE
1002
{
1070
   371
1070
    13
1070
   372
1070
    13
1070
   170
1070
     0
1070
   144
1040
1.0
1070
   277
1070
     2
1070
   284
1070
     8
1070
   278
1070
    46
1070
   146
1040
1.0
1070
   345
1005
16
1070
   347
1005
16
1070
   346
1005
16
1070
   344
1005
0
1070
   343
1005
0
1070
   172
1070
     1
1070
    76
1070
     0
1070
    75
1070
     0
1070
   282
1070
     0
1070
   281
1070
     0
1070
    71
1070
     0
1070
    74
1070
     0
1070
   279
1070
     0
1070
   173
1070
     1
1070
   340
1005
194
1070
   271
1070
     2
1070
   272
1070
     2
1070
    77
1070
     1
1070
    73
1070
     1
1070
   171
1070
     3
1070
   274
1070
     4
1070
   177
1070
     2
1070
   176
1070
     2
1070
   178
1070
     2
1070
    78
1070
     8
1070
    48
1040
-0.1
1070
    41
1040
3.5
1070
   147
1040
1.75
1070
    42
1040
1.5875
1070
    44
1040
2.0
1070
   140
1040
3.5
1002
}
1001
ACAD_DSTYLE_DIM_LINETYPE
1070
   380
1005
16
1001
ACAD_DSTYLE_DIM_EXT1_LINETYPE
1070
   381
1005
16
1001
ACAD_DSTYLE_DIM_EXT2_LINETYPE
1070
   382
1005
16
0
DIMENSION
5
1B2
100
AcDbEntity
8
2
62
256
6
ByLayer
370
18
48
1
60
0
100
AcDbDimension
2
_U1
10
34.35
20
-11.75
30
0
11
28.35
21
-11.75
31
0
70
32
71
1
72
1
41
1
210
0
220
0
230
1
3
Standard
100
AcDbAlignedDimension
13
22.35
23
11.751492
33
0
14
34.35
24
14
34
0
50
0
100
AcDbRotatedDimension
1001
ACAD
1000
DSTYLE
1002
{
1070
   371
1070
    13
1070
   372
1070
    13
1070
   170
1070
     0
1070
   144
1040
1.0
1070
   277
1070
     2
1070
   284
1070
     8
1070
   278
1070
    46
1070
   146
1040
1.0
1070
   345
1005
16
1070
   347
1005
16
1070
   346
1005
16
1070
   344
1005
0
1070
   343
1005
0
1070
   172
1070
     1
1070
    76
1070
     0
1070
    75
1070
     0
1070
   282
1070
     0
1070
   281
1070
     0
1070
    71
1070
     0
1070
    74
1070
     0
1070
   279
1070
     0
1070
   173
1070
     1
1070
   340
1005
194
1070
   271
1070
     2
1070
   272
1070
     2
1070
    77
1070
     1
1070
    73
1070
     1
1070
   171
1070
     3
1070
   274
1070
     4
1070
   177
1070
     2
1070
   176
1070
     2
1070
   178
1070
     2
1070
    78
1070
     8
1070
    48
1040
-0.1
1070
    41
1040
3.5
1070
   147
1040
1.75
1070
    42
1040
1.5875
1070
    44
1040
2.0
1070
   140
1040
3.5
1002
}
1001
ACAD_DSTYLE_DIM_LINETYPE
1070
   380
1005
16
1001
ACAD_DSTYLE_DIM_EXT1_LINETYPE
1070
   381
1005
16
1001
ACAD_DSTYLE_DIM_EXT2_LINETYPE
1070
   382
1005
16
0
DIMENSION
5
1CB
100
AcDbEntity
8
2
62
256
6
ByLayer
370
18
48
1
60
0
100
AcDbDimension
2
_U2
10
59.1
20
0
30
0
11
59.1
21
7
31
0
70
32
71
1
72
1
41
1
210
0
220
0
230
1
3
Standard
100
AcDbAlignedDimension
13
34.35
23
14
33
0
14
0
24
0
34
0
50
90
100
AcDbRotatedDimension
1001
ACAD
1000
DSTYLE
1002
{
1070
   371
1070
    13
1070
   372
1070
    13
1070
   170
1070
     0
1070
   144
1040
1.0
1070
   277
1070
     2
1070
   284
1070
     8
1070
   278
1070
    46
1070
   146
1040
1.0
1070
   345
1005
16
1070
   347
1005
16
1070
   346
1005
16
1070
   344
1005
0
1070
   343
1005
0
1070
   172
1070
     1
1070
    76
1070
     0
1070
    75
1070
     0
1070
   282
1070
     0
1070
   281
1070
     0
1070
    71
1070
     0
1070
    74
1070
     0
1070
   279
1070
     0
1070
   173
1070
     1
1070
   340
1005
194
1070
   271
1070
     2
1070
   272
1070
     2
1070
    77
1070
     1
1070
    73
1070
     0
1070
   171
1070
     3
1070
   274
1070
     4
1070
   177
1070
     2
1070
   176
1070
     2
1070
   178
1070
     2
1070
    78
1070
     8
1070
    48
1040
-0.1
1070
    41
1040
3.5
1070
   147
1040
1.75
1070
    42
1040
1.5875
1070
    44
1040
2.0
1070
   140
1040
3.5
1002
}
1001
ACAD_DSTYLE_DIM_LINETYPE
1070
   380
1005
16
1001
ACAD_DSTYLE_DIM_EXT1_LINETYPE
1070
   381
1005
16
1001
ACAD_DSTYLE_DIM_EXT2_LINETYPE
1070
   382
1005
16
0
DIMENSION
5
1E4
100
AcDbEntity
8
2
62
256
6
ByLayer
370
18
48
1
60
0
100
AcDbDimension
2
_U3
10
46.1
20
11.5
30
0
11
46.1
21
12.75
31
0
70
32
71
1
72
1
41
1
210
0
220
0
230
1
3
Standard
100
AcDbAlignedDimension
13
34.35
23
14
33
0
14
34.35
24
11.5
34
0
50
90
100
AcDbRotatedDimension
1001
ACAD
1000
DSTYLE
1002
{
1070
   371
1070
    13
1070
   372
1070
    13
1070
   170
1070
     0
1070
   144
1040
1.0
1070
   277
1070
     2
1070
   284
1070
     8
1070
   278
1070
    46
1070
   146
1040
1.0
1070
   345
1005
16
1070
   347
1005
16
1070
   346
1005
16
1070
   344
1005
0
1070
   343
1005
0
1070
   172
1070
     1
1070
    76
1070
     0
1070
    75
1070
     0
1070
   282
1070
     0
1070
   281
1070
     0
1070
    71
1070
     0
1070
    74
1070
     0
1070
   279
1070
     0
1070
   173
1070
     1
1070
   340
1005
194
1070
   271
1070
     2
1070
   272
1070
     2
1070
    77
1070
     1
1070
    73
1070
     0
1070
   171
1070
     3
1070
   274
1070
     4
1070
   177
1070
     2
1070
   176
1070
     2
1070
   178
1070
     2
1070
    78
1070
     8
1070
    48
1040
-0.1
1070
    41
1040
3.5
1070
   147
1040
1.75
1070
    42
1040
1.5875
1070
    44
1040
2.0
1070
   140
1040
3.5
1002
}
1001
ACAD_DSTYLE_DIM_LINETYPE
1070
   380
1005
16
1001
ACAD_DSTYLE_DIM_EXT1_LINETYPE
1070
   381
1005
16
1001
ACAD_DSTYLE_DIM_EXT2_LINETYPE
1070
   382
1005
16
0
ENDSEC
0
SECTION
2
OBJECTS
0
DICTIONARY
5
26a
330
0
100
AcDbDictionary
280
0
281
1
3
ACAD_GROUP
350
26b
3
ACAD_MLINESTYLE
350
26c
0
DICTIONARY
5
26b
330
0
100
AcDbDictionary
280
0
281
1
0
DICTIONARY
5
26c
330
0
100
AcDbDictionary
280
0
281
1
3
Standard
350
18
0
MLINESTYLE
5
18
330
26c
100
AcDbMlineStyle
2
Standard
70
0
3

62
256
51
90
52
90
71
2
49
-0.5
62
256
6
ByLayer
49
0.5
62
256
6
ByLayer
0
RASTERVARIABLES
5
25b
330

100
AcDbRasterVariables
90
0
70
1
71
1
72
1
0
ENDSEC
0
EOF
