0
SECTION
2
HEADER
9
$ACADVER
1
AC1015
9
$DWGCODEPAGE
3
ANSI_1252
9
$HANDSEED
5
27c
9
$ANGBASE
50
0
9
$ANGDIR
70
0
9
$ATTMODE
70
1
9
$AUNITS
70
0
9
$AUPREC
70
0
9
$CECOLOR
62
256
9
$CELTSCALE
40
1
9
$CELTYPE
6
ByLayer
9
$CELWEIGHT
370
18
9
$CLAYER
8
0
9
$CMLJUST
70
0
9
$CMLSCALE
40
1
9
$CMLSTYLE
2
Standard
9
$DIMSTYLE
2
Standard
9
$TEXTSIZE
40
0.2
9
$TEXTSTYLE
7
Standard
9
$LUNITS
70
2
9
$LUPREC
70
4
9
$EXTNAMES
290
1
9
$INSUNITS
70
4
9
$LTSCALE
40
1
9
$LWDISPLAY
290
1
9
$PDMODE
70
0
9
$PDSIZE
40
0
9
$PLINEGEN
70
0
0
ENDSEC
0
SECTION
2
CLASSES
0
CLASS
1
RASTERVARIABLES
2
AcDbRasterVariables
3
ISM
90
0
280
0
281
0
0
ENDSEC
0
SECTION
2
TABLES
0
TABLE
2
VPORT
5
272
100
AcDbSymbolTable
0
VPORT
5
1
100
AcDbSymbolTableRecord
100
AcDbViewportTableRecord
2
*Active
70
0
10
0
20
0
11
1
21
1
12
-1
22
1
13
0
23
0
14
0.5
24
0.5
15
10
25
10
16
0
26
0
36
1
17
0
27
0
37
0
0
ENDTAB
0
TABLE
2
LTYPE
5
273
100
AcDbSymbolTable
0
LTYPE
5
14
100
AcDbSymbolTableRecord
100
AcDbLinetypeTableRecord
70
0
2
ByBlock
3

72
65
73
0
40
0
0
LTYPE
5
15
100
AcDbSymbolTableRecord
100
AcDbLinetypeTableRecord
70
0
2
ByLayer
3

72
65
73
0
40
0
0
LTYPE
5
16
100
AcDbSymbolTableRecord
100
AcDbLinetypeTableRecord
70
0
2
Continuous
3
Solid line
72
65
73
0
40
0
0
LTYPE
5
6E
100
AcDbSymbolTableRecord
100
AcDbLinetypeTableRecord
70
0
2
CENTER
3
____ _ ____ _ ____ _ ____
72
65
73
4
40
47.5
49
22
74
0
49
-8.5
74
0
49
8.5
74
0
49
-8.5
74
0
0
LTYPE
5
6F
100
AcDbSymbolTableRecord
100
AcDbLinetypeTableRecord
70
0
2
DASHED
3
__ __ __ __ __ __ __ __ __
72
65
73
2
40
25.72
49
12.86
74
0
49
-12.86
74
0
0
ENDTAB
0
TABLE
2
LAYER
5
274
100
AcDbSymbolTable
0
LAYER
5
10
100
AcDbSymbolTableRecord
100
AcDbLayerTableRecord
2
0
70
0
62
7
6
Continuous
290
1
370
-3
390
0
0
LAYER
5
71
100
AcDbSymbolTableRecord
100
AcDbLayerTableRecord
2
81
70
0
62
-3
6
Continuous
290
1
370
-3
390
0
0
LAYER
5
73
100
AcDbSymbolTableRecord
100
AcDbLayerTableRecord
2
80
70
0
62
-6
6
Continuous
290
1
370
-3
390
0
0
LAYER
5
75
100
AcDbSymbolTableRecord
100
AcDbLayerTableRecord
2
1
70
0
62
4
6
Continuous
290
1
370
-3
390
0
0
LAYER
5
1A0
100
AcDbSymbolTableRecord
100
AcDbLayerTableRecord
2
Defpoints
70
0
62
7
6
Continuous
290
0
370
-3
390
0
0
LAYER
5
1AD
100
AcDbSymbolTableRecord
100
AcDbLayerTableRecord
2
2
70
0
62
7
6
Continuous
290
1
370
-3
390
0
0
LAYER
5
261
100
AcDbSymbolTableRecord
100
AcDbLayerTableRecord
2
SK6
70
0
62
5
6
Continuous
290
1
370
-3
390
0
0
ENDTAB
0
TABLE
2
STYLE
5
275
100
AcDbSymbolTable
0
STYLE
5
11
100
AcDbSymbolTableRecord
100
AcDbTextStyleTableRecord
2
Standard
3
txt
70
0
71
0
40
0
41
1
42
0
50
0
0
STYLE
5
199
100
AcDbSymbolTableRecord
100
AcDbTextStyleTableRecord
2
iso_b_vert
3
simplex.shx
70
0
71
0
40
0
41
1
42
0
50
0
0
STYLE
5
19A
100
AcDbSymbolTableRecord
100
AcDbTextStyleTableRecord
2
DWGDirectTextStyle
3
simplex
70
0
71
0
40
0
41
1
42
0
50
0
0
ENDTAB
0
TABLE
2
DIMSTYLE
5
276
100
AcDbSymbolTable
100
AcDbDimStyleTable
0
DIMSTYLE
105
27
100
AcDbSymbolTableRecord
100
AcDbDimStyleTableRecord
2
Standard
70
0
3
<>
41
0.18
42
0.0625
44
0.18
140
0.18
147
0.09
73
0
74
0
77
1
271
2
275
0
278
52
280
0
340
11
0
ENDTAB
0
TABLE
2
VIEW
5
277
100
AcDbSymbolTable
0
ENDTAB
0
TABLE
2
UCS
5
278
100
AcDbSymbolTable
0
ENDTAB
0
TABLE
2
APPID
5
279
100
AcDbSymbolTable
0
APPID
5
12
100
AcDbSymbolTableRecord
100
AcDbRegAppTableRecord
2
ACAD
70
0
0
APPID
5
19C
100
AcDbSymbolTableRecord
100
AcDbRegAppTableRecord
2
ACAD_DSTYLE_DIMBREAK
70
0
0
APPID
5
220
100
AcDbSymbolTableRecord
100
AcDbRegAppTableRecord
2
ACAD_DSTYLE_DIM_LINETYPE
70
0
0
APPID
5
221
100
AcDbSymbolTableRecord
100
AcDbRegAppTableRecord
2
ACAD_DSTYLE_DIM_EXT1_LINETYPE
70
0
0
APPID
5
222
100
AcDbSymbolTableRecord
100
AcDbRegAppTableRecord
2
ACAD_DSTYLE_DIM_EXT2_LINETYPE
70
0
0
APPID
5
25D
100
AcDbSymbolTableRecord
100
AcDbRegAppTableRecord
2
ACAD_MLEADERVER
70
0
0
ENDTAB
0
TABLE
2
BLOCK_RECORD
5
27a
100
AcDbSymbolTable
0
BLOCK_RECORD
5
1F
100
AcDbSymbolTableRecord
100
AcDbBlockTableRecord
2
*Model_Space
340
0
70
0
0
BLOCK_RECORD
5
1B
100
AcDbSymbolTableRecord
100
AcDbBlockTableRecord
2
*Paper_Space
340
0
70
0
0
BLOCK_RECORD
5
23
100
AcDbSymbolTableRecord
100
AcDbBlockTableRecord
2
*Paper_Space0
340
0
70
0
0
BLOCK_RECORD
5
1A1
100
AcDbSymbolTableRecord
100
AcDbBlockTableRecord
2
*D1
340
0
70
0
0
BLOCK_RECORD
5
1AE
100
AcDbSymbolTableRecord
100
AcDbBlockTableRecord
2
_U0
340
0
70
0
0
BLOCK_RECORD
5
1BA
100
AcDbSymbolTableRecord
100
AcDbBlockTableRecord
2
*D3
340
0
70
0
0
BLOCK_RECORD
5
1C7
100
AcDbSymbolTableRecord
100
AcDbBlockTableRecord
2
_U1
340
0
70
0
0
BLOCK_RECORD
5
1D3
100
AcDbSymbolTableRecord
100
AcDbBlockTableRecord
2
*D5
340
0
70
0
0
BLOCK_RECORD
5
1E0
100
AcDbSymbolTableRecord
100
AcDbBlockTableRecord
2
_U2
340
0
70
0
0
BLOCK_RECORD
5
1EC
100
AcDbSymbolTableRecord
100
AcDbBlockTableRecord
2
*D7
340
0
70
0
0
BLOCK_RECORD
5
1F9
100
AcDbSymbolTableRecord
100
AcDbBlockTableRecord
2
_U3
340
0
70
0
0
ENDTAB
0
ENDSEC
0
SECTION
2
BLOCKS
0
BLOCK
5
20
100
AcDbEntity
8
0
100
AcDbBlockBegin
2
*Model_Space
70
0
10
0
20
0
30
0
3
*Model_Space
0
ENDBLK
5
21
100
AcDbEntity
8
0
100
AcDbBlockEnd
0
BLOCK
5
1C
100
AcDbEntity
8
0
100
AcDbBlockBegin
2
*Paper_Space
70
0
10
0
20
0
30
0
3
*Paper_Space
0
ENDBLK
5
1D
100
AcDbEntity
8
0
100
AcDbBlockEnd
0
BLOCK
5
24
100
AcDbEntity
8
0
100
AcDbBlockBegin
2
*Paper_Space0
70
0
10
0
20
0
30
0
3
*Paper_Space0
0
ENDBLK
5
25
100
AcDbEntity
8
0
100
AcDbBlockEnd
0
BLOCK
5
1A2
100
AcDbEntity
8
0
100
AcDbBlockBegin
2
*D1
70
1
10
0
20
0
30
0
3
*D1
0
LINE
5
1A4
100
AcDbEntity
8
0
62
256
6
ByLayer
370
-2
48
1
60
0
100
AcDbLine
10
0
20
-1.5875
30
0
11
0
21
-21.75
31
0
39
0
210
0
220
0
230
1
0
LINE
5
1A5
100
AcDbEntity
8
0
62
256
6
ByLayer
370
-2
48
1
60
0
100
AcDbLine
10
34.35
20
12.4125
30
0
11
34.35
21
-21.75
31
0
39
0
210
0
220
0
230
1
0
LINE
5
1A6
100
AcDbEntity
8
0
62
256
6
ByLayer
370
-2
48
1
60
0
100
AcDbLine
10
3.5
20
-19.75
30
0
11
30.85
21
-19.75
31
0
39
0
210
0
220
0
230
1
0
SOLID
5
1A7
100
AcDbEntity
8
0
62
256
6
ByLayer
370
-1
48
1
60
0
100
AcDbTrace
10
3.5
20
-19.166667
30
0
11
3.5
21
-20.333333
31
0
12
0
22
-19.75
32
0
13
0
23
-19.75
33
0
39
0
210
0
220
0
230
1
0
SOLID
5
1A8
100
AcDbEntity
8
0
62
256
6
ByLayer
370
-1
48
1
60
0
100
AcDbTrace
10
30.85
20
-20.333333
30
0
11
30.85
21
-19.166667
31
0
12
34.35
22
-19.75
32
0
13
34.35
23
-19.75
33
0
39
0
210
0
220
0
230
1
0
MTEXT
5
1A9
100
AcDbEntity
8
0
62
256
6
ByLayer
370
18
48
1
60
0
100
AcDbMText
10
17.175
20
-12.75
30
0
210
0
220
0
230
1
1
\A1;34.35
40
3.5
41
0
44
1
50
0
71
5
72
5
7
iso_b_vert
0
POINT
5
1AA
100
AcDbEntity
8
Defpoints
62
0
6
ByLayer
370
-1
48
1
60
0
100
AcDbPoint
10
0
20
0
30
0
39
0
210
0
220
0
230
1
50
360
0
POINT
5
1AB
100
AcDbEntity
8
Defpoints
62
0
6
ByLayer
370
-1
48
1
60
0
100
AcDbPoint
10
34.35
20
14
30
0
39
0
210
0
220
0
230
1
50
360
0
POINT
5
1AC
100
AcDbEntity
8
Defpoints
62
0
6
ByLayer
370
-1
48
1
60
0
100
AcDbPoint
10
34.35
20
-19.75
30
0
39
0
210
0
220
0
230
1
50
360
0
ENDBLK
5
1A3
100
AcDbEntity
8
0
100
AcDbBlockEnd
0
BLOCK
5
1B5
100
AcDbEntity
8
0
100
AcDbBlockBegin
2
_U0
70
0
10
0
20
0
30
0
3
_U0
0
MTEXT
5
1AF
100
AcDbEntity
8
2
62
256
6
ByLayer
370
18
48
1
60
0
100
AcDbMText
10
11.761301
20
-18.717366
30
0
210
0
220
0
230
1
1
\W0.7694;34.35
40
3.5
41
0
44
1.084337
50
0
71
7
72
5
7
iso_b_vert
0
LINE
5
1B0
100
AcDbEntity
8
2
62
256
6
ByLayer
370
13
48
1
60
0
100
AcDbLine
10
0
20
-1.5875
30
0
11
0
21
-21.75
31
0
39
0
210
0
220
0
230
1
0
LINE
5
1B1
100
AcDbEntity
8
2
62
256
6
ByLayer
370
13
48
1
60
0
100
AcDbLine
10
34.35
20
12.4125
30
0
11
34.35
21
-21.75
31
0
39
0
210
0
220
0
230
1
0
LINE
5
1B2
100
AcDbEntity
8
2
62
256
6
ByLayer
370
13
48
1
60
0
100
AcDbLine
10
0
20
-19.75
30
0
11
34.35
21
-19.75
31
0
39
0
210
0
220
0
230
1
0
SOLID
5
1B3
100
AcDbEntity
8
2
62
256
6
ByLayer
370
18
48
1
60
0
100
AcDbTrace
10
0
20
-19.75
30
0
11
3.499998
21
-19.289216
31
0
12
3.500002
22
-20.210784
32
0
13
3.500002
23
-20.210784
33
0
39
0
210
0
220
0
230
1
0
SOLID
5
1B4
100
AcDbEntity
8
2
62
256
6
ByLayer
370
18
48
1
60
0
100
AcDbTrace
10
34.35
20
-19.75
30
0
11
30.850002
21
-20.210784
31
0
12
30.849998
22
-19.289216
32
0
13
30.849998
23
-19.289216
33
0
39
0
210
0
220
0
230
1
0
ENDBLK
5
1B6
100
AcDbEntity
8
0
100
AcDbBlockEnd
0
BLOCK
5
1BB
100
AcDbEntity
8
0
100
AcDbBlockBegin
2
*D3
70
1
10
0
20
0
30
0
3
*D3
0
LINE
5
1BD
100
AcDbEntity
8
0
62
256
6
ByLayer
370
-2
48
1
60
0
100
AcDbLine
10
22.35
20
10.166184
30
0
11
22.35
21
-13.75
31
0
39
0
210
0
220
0
230
1
0
LINE
5
1BE
100
AcDbEntity
8
0
62
256
6
ByLayer
370
-2
48
1
60
0
100
AcDbLine
10
34.35
20
12.4125
30
0
11
34.35
21
-13.75
31
0
39
0
210
0
220
0
230
1
0
LINE
5
1BF
100
AcDbEntity
8
0
62
256
6
ByLayer
370
-2
48
1
60
0
100
AcDbLine
10
18.85
20
-11.75
30
0
11
15.35
21
-11.75
31
0
39
0
210
0
220
0
230
1
0
LINE
5
1C0
100
AcDbEntity
8
0
62
256
6
ByLayer
370
-2
48
1
60
0
100
AcDbLine
10
37.85
20
-11.75
30
0
11
41.35
21
-11.75
31
0
39
0
210
0
220
0
230
1
0
SOLID
5
1C1
100
AcDbEntity
8
0
62
256
6
ByLayer
370
-1
48
1
60
0
100
AcDbTrace
10
18.85
20
-12.333333
30
0
11
18.85
21
-11.166667
31
0
12
22.35
22
-11.75
32
0
13
22.35
23
-11.75
33
0
39
0
210
0
220
0
230
1
0
SOLID
5
1C2
100
AcDbEntity
8
0
62
256
6
ByLayer
370
-1
48
1
60
0
100
AcDbTrace
10
37.85
20
-11.166667
30
0
11
37.85
21
-12.333333
31
0
12
34.35
22
-11.75
32
0
13
34.35
23
-11.75
33
0
39
0
210
0
220
0
230
1
0
MTEXT
5
1C3
100
AcDbEntity
8
0
62
256
6
ByLayer
370
18
48
1
60
0
100
AcDbMText
10
28.35
20
-4.75
30
0
210
0
220
0
230
1
1
\A1;12
40
3.5
41
0
44
1
50
0
71
5
72
5
7
iso_b_vert
0
POINT
5
1C4
100
AcDbEntity
8
Defpoints
62
0
6
ByLayer
370
-1
48
1
60
0
100
AcDbPoint
10
22.35
20
11.753684
30
0
39
0
210
0
220
0
230
1
50
360
0
POINT
5
1C5
100
AcDbEntity
8
Defpoints
62
0
6
ByLayer
370
-1
48
1
60
0
100
AcDbPoint
10
34.35
20
14
30
0
39
0
210
0
220
0
230
1
50
360
0
POINT
5
1C6
100
AcDbEntity
8
Defpoints
62
0
6
ByLayer
370
-1
48
1
60
0
100
AcDbPoint
10
34.35
20
-11.75
30
0
39
0
210
0
220
0
230
1
50
360
0
ENDBLK
5
1BC
100
AcDbEntity
8
0
100
AcDbBlockEnd
0
BLOCK
5
1CE
100
AcDbEntity
8
0
100
AcDbBlockBegin
2
_U1
70
0
10
0
20
0
30
0
3
_U1
0
MTEXT
5
1C8
100
AcDbEntity
8
2
62
256
6
ByLayer
370
18
48
1
60
0
100
AcDbMText
10
26.882467
20
-10.717366
30
0
210
0
220
0
230
1
1
\W0.5321;12
40
3.5
41
0
44
1.084337
50
0
71
7
72
5
7
iso_b_vert
0
LINE
5
1C9
100
AcDbEntity
8
2
62
256
6
ByLayer
370
13
48
1
60
0
100
AcDbLine
10
22.35
20
10.166184
30
0
11
22.35
21
-13.75
31
0
39
0
210
0
220
0
230
1
0
LINE
5
1CA
100
AcDbEntity
8
2
62
256
6
ByLayer
370
13
48
1
60
0
100
AcDbLine
10
34.35
20
12.4125
30
0
11
34.35
21
-13.75
31
0
39
0
210
0
220
0
230
1
0
LINE
5
1CB
100
AcDbEntity
8
2
62
256
6
ByLayer
370
13
48
1
60
0
100
AcDbLine
10
22.35
20
-11.75
30
0
11
34.35
21
-11.75
31
0
39
0
210
0
220
0
230
1
0
SOLID
5
1CC
100
AcDbEntity
8
2
62
256
6
ByLayer
370
18
48
1
60
0
100
AcDbTrace
10
22.35
20
-11.75
30
0
11
25.849998
21
-11.289216
31
0
12
25.850002
22
-12.210784
32
0
13
25.850002
23
-12.210784
33
0
39
0
210
0
220
0
230
1
0
SOLID
5
1CD
100
AcDbEntity
8
2
62
256
6
ByLayer
370
18
48
1
60
0
100
AcDbTrace
10
34.35
20
-11.75
30
0
11
30.850002
21
-12.210784
31
0
12
30.849998
22
-11.289216
32
0
13
30.849998
23
-11.289216
33
0
39
0
210
0
220
0
230
1
0
ENDBLK
5
1CF
100
AcDbEntity
8
0
100
AcDbBlockEnd
0
BLOCK
5
1D4
100
AcDbEntity
8
0
100
AcDbBlockBegin
2
*D5
70
1
10
0
20
0
30
0
3
*D5
0
LINE
5
1D6
100
AcDbEntity
8
0
62
256
6
ByLayer
370
-2
48
1
60
0
100
AcDbLine
10
35.9375
20
14
30
0
11
61.1
21
14
31
0
39
0
210
0
220
0
230
1
0
LINE
5
1D7
100
AcDbEntity
8
0
62
256
6
ByLayer
370
-2
48
1
60
0
100
AcDbLine
10
1.5875
20
0
30
0
11
61.1
21
0
31
0
39
0
210
0
220
0
230
1
0
LINE
5
1D8
100
AcDbEntity
8
0
62
256
6
ByLayer
370
-2
48
1
60
0
100
AcDbLine
10
59.1
20
17.5
30
0
11
59.1
21
21
31
0
39
0
210
0
220
0
230
1
0
LINE
5
1D9
100
AcDbEntity
8
0
62
256
6
ByLayer
370
-2
48
1
60
0
100
AcDbLine
10
59.1
20
-3.5
30
0
11
59.1
21
-7
31
0
39
0
210
0
220
0
230
1
0
SOLID
5
1DA
100
AcDbEntity
8
0
62
256
6
ByLayer
370
-1
48
1
60
0
100
AcDbTrace
10
58.516667
20
17.5
30
0
11
59.683333
21
17.5
31
0
12
59.1
22
14
32
0
13
59.1
23
14
33
0
39
0
210
0
220
0
230
1
0
SOLID
5
1DB
100
AcDbEntity
8
0
62
256
6
ByLayer
370
-1
48
1
60
0
100
AcDbTrace
10
59.683333
20
-3.5
30
0
11
58.516667
21
-3.5
31
0
12
59.1
22
0
32
0
13
59.1
23
0
33
0
39
0
210
0
220
0
230
1
0
MTEXT
5
1DC
100
AcDbEntity
8
0
62
256
6
ByLayer
370
18
48
1
60
0
100
AcDbMText
10
52.1
20
7
30
0
210
0
220
0
230
1
1
\A1;14
40
3.5
41
0
44
1
50
90
71
5
72
5
7
iso_b_vert
0
POINT
5
1DD
100
AcDbEntity
8
Defpoints
62
0
6
ByLayer
370
-1
48
1
60
0
100
AcDbPoint
10
34.35
20
14
30
0
39
0
210
0
220
0
230
1
50
360
0
POINT
5
1DE
100
AcDbEntity
8
Defpoints
62
0
6
ByLayer
370
-1
48
1
60
0
100
AcDbPoint
10
0
20
0
30
0
39
0
210
0
220
0
230
1
50
360
0
POINT
5
1DF
100
AcDbEntity
8
Defpoints
62
0
6
ByLayer
370
-1
48
1
60
0
100
AcDbPoint
10
59.1
20
0
30
0
39
0
210
0
220
0
230
1
50
360
0
ENDBLK
5
1D5
100
AcDbEntity
8
0
100
AcDbBlockEnd
0
BLOCK
5
1E7
100
AcDbEntity
8
0
100
AcDbBlockBegin
2
_U2
70
0
10
0
20
0
30
0
3
_U2
0
MTEXT
5
1E1
100
AcDbEntity
8
2
62
256
6
ByLayer
370
18
48
1
60
0
100
AcDbMText
10
58.410366
20
5.3202
30
0
210
0
220
0
230
1
1
\W0.5785;14
40
3.5
41
0
44
1.084337
50
90
71
7
72
5
7
iso_b_vert
0
LINE
5
1E2
100
AcDbEntity
8
2
62
256
6
ByLayer
370
13
48
1
60
0
100
AcDbLine
10
35.9375
20
14
30
0
11
61.1
21
14
31
0
39
0
210
0
220
0
230
1
0
LINE
5
1E3
100
AcDbEntity
8
2
62
256
6
ByLayer
370
13
48
1
60
0
100
AcDbLine
10
1.5875
20
0
30
0
11
61.1
21
0
31
0
39
0
210
0
220
0
230
1
0
LINE
5
1E4
100
AcDbEntity
8
2
62
256
6
ByLayer
370
13
48
1
60
0
100
AcDbLine
10
59.1
20
14
30
0
11
59.1
21
0
31
0
39
0
210
0
220
0
230
1
0
SOLID
5
1E5
100
AcDbEntity
8
2
62
256
6
ByLayer
370
18
48
1
60
0
100
AcDbTrace
10
59.1
20
14
30
0
11
59.560784
21
10.500002
31
0
12
58.639216
22
10.499998
32
0
13
58.639216
23
10.499998
33
0
39
0
210
0
220
0
230
1
0
SOLID
5
1E6
100
AcDbEntity
8
2
62
256
6
ByLayer
370
18
48
1
60
0
100
AcDbTrace
10
59.1
20
0
30
0
11
58.639216
21
3.499998
31
0
12
59.560784
22
3.500002
32
0
13
59.560784
23
3.500002
33
0
39
0
210
0
220
0
230
1
0
ENDBLK
5
1E8
100
AcDbEntity
8
0
100
AcDbBlockEnd
0
BLOCK
5
1ED
100
AcDbEntity
8
0
100
AcDbBlockBegin
2
*D7
70
1
10
0
20
0
30
0
3
*D7
0
LINE
5
1EF
100
AcDbEntity
8
0
62
256
6
ByLayer
370
-2
48
1
60
0
100
AcDbLine
10
35.9375
20
14
30
0
11
48.1
21
14
31
0
39
0
210
0
220
0
230
1
0
LINE
5
1F0
100
AcDbEntity
8
0
62
256
6
ByLayer
370
-2
48
1
60
0
100
AcDbLine
10
35.9375
20
11.5
30
0
11
48.1
21
11.5
31
0
39
0
210
0
220
0
230
1
0
LINE
5
1F1
100
AcDbEntity
8
0
62
256
6
ByLayer
370
-2
48
1
60
0
100
AcDbLine
10
46.1
20
17.5
30
0
11
46.1
21
21
31
0
39
0
210
0
220
0
230
1
0
LINE
5
1F2
100
AcDbEntity
8
0
62
256
6
ByLayer
370
-2
48
1
60
0
100
AcDbLine
10
46.1
20
8
30
0
11
46.1
21
4.5
31
0
39
0
210
0
220
0
230
1
0
SOLID
5
1F3
100
AcDbEntity
8
0
62
256
6
ByLayer
370
-1
48
1
60
0
100
AcDbTrace
10
45.516667
20
17.5
30
0
11
46.683333
21
17.5
31
0
12
46.1
22
14
32
0
13
46.1
23
14
33
0
39
0
210
0
220
0
230
1
0
SOLID
5
1F4
100
AcDbEntity
8
0
62
256
6
ByLayer
370
-1
48
1
60
0
100
AcDbTrace
10
46.683333
20
8
30
0
11
45.516667
21
8
31
0
12
46.1
22
11.5
32
0
13
46.1
23
11.5
33
0
39
0
210
0
220
0
230
1
0
MTEXT
5
1F5
100
AcDbEntity
8
0
62
256
6
ByLayer
370
18
48
1
60
0
100
AcDbMText
10
39.1
20
12.75
30
0
210
0
220
0
230
1
1
\A1;2.5
40
3.5
41
0
44
1
50
90
71
5
72
5
7
iso_b_vert
0
POINT
5
1F6
100
AcDbEntity
8
Defpoints
62
0
6
ByLayer
370
-1
48
1
60
0
100
AcDbPoint
10
34.35
20
14
30
0
39
0
210
0
220
0
230
1
50
360
0
POINT
5
1F7
100
AcDbEntity
8
Defpoints
62
0
6
ByLayer
370
-1
48
1
60
0
100
AcDbPoint
10
34.35
20
11.5
30
0
39
0
210
0
220
0
230
1
50
360
0
POINT
5
1F8
100
AcDbEntity
8
Defpoints
62
0
6
ByLayer
370
-1
48
1
60
0
100
AcDbPoint
10
46.1
20
11.5
30
0
39
0
210
0
220
0
230
1
50
360
0
ENDBLK
5
1EE
100
AcDbEntity
8
0
100
AcDbBlockEnd
0
BLOCK
5
200
100
AcDbEntity
8
0
100
AcDbBlockBegin
2
_U3
70
0
10
0
20
0
30
0
3
_U3
0
MTEXT
5
1FA
100
AcDbEntity
8
2
62
256
6
ByLayer
370
18
48
1
60
0
100
AcDbMText
10
45.410366
20
10.108034
30
0
210
0
220
0
230
1
1
\W0.7121;2.5
40
3.5
41
0
44
1.084337
50
90
71
7
72
5
7
iso_b_vert
0
LINE
5
1FB
100
AcDbEntity
8
2
62
256
6
ByLayer
370
13
48
1
60
0
100
AcDbLine
10
35.9375
20
14
30
0
11
48.1
21
14
31
0
39
0
210
0
220
0
230
1
0
LINE
5
1FC
100
AcDbEntity
8
2
62
256
6
ByLayer
370
13
48
1
60
0
100
AcDbLine
10
35.9375
20
11.5
30
0
11
48.1
21
11.5
31
0
39
0
210
0
220
0
230
1
0
LINE
5
1FD
100
AcDbEntity
8
2
62
256
6
ByLayer
370
13
48
1
60
0
100
AcDbLine
10
46.1
20
22.75
30
0
11
46.1
21
2.75
31
0
39
0
210
0
220
0
230
1
0
SOLID
5
1FE
100
AcDbEntity
8
2
62
256
6
ByLayer
370
18
48
1
60
0
100
AcDbTrace
10
46.1
20
14
30
0
11
45.639216
21
17.499998
31
0
12
46.560784
22
17.500002
32
0
13
46.560784
23
17.500002
33
0
39
0
210
0
220
0
230
1
0
SOLID
5
1FF
100
AcDbEntity
8
2
62
256
6
ByLayer
370
18
48
1
60
0
100
AcDbTrace
10
46.1
20
11.5
30
0
11
46.560784
21
8.000002
31
0
12
45.639216
22
7.999998
32
0
13
45.639216
23
7.999998
33
0
39
0
210
0
220
0
230
1
0
ENDBLK
5
201
100
AcDbEntity
8
0
100
AcDbBlockEnd
0
ENDSEC
0
SECTION
2
ENTITIES
0
ARC
5
100
100
AcDbEntity
8
1
62
256
6
ByLayer
370
18
48
1
60
0
100
AcDbCircle
39
0
10
16.5
20
0.875
30
0
40
0.5
210
0
220
0
230
1
100
AcDbArc
50
90
51
180
0
ARC
5
101
100
AcDbEntity
8
1
62
256
6
ByLayer
370
18
48
1
60
0
100
AcDbCircle
39
0
10
22.35
20
10.153684
30
0
40
1.6
210
0
220
0
230
1
100
AcDbArc
50
158.486233
51
174.23584
0
ARC
5
102
100
AcDbEntity
8
1
62
256
6
ByLayer
370
18
48
1
60
0
100
AcDbCircle
39
0
10
10.51676
20
15.053684
30
0
40
1.6
210
0
220
0
230
1
100
AcDbArc
50
307.9174
51
337.975687
0
ARC
5
104
100
AcDbEntity
8
1
62
256
6
ByLayer
370
18
48
1
60
0
100
AcDbCircle
39
0
10
10.51676
20
15.053684
30
0
40
1.59999999999998
210
0
220
0
230
1
100
AcDbArc
50
270
51
307.9174
0
ARC
5
105
100
AcDbEntity
8
1
62
256
6
ByLayer
370
18
48
1
60
0
100
AcDbCircle
39
0
10
6.75
20
0.309519
30
0
40
0.169999999999991
210
0
220
0
230
1
100
AcDbArc
50
30
51
109.392304
0
ARC
5
106
100
AcDbEntity
8
1
62
256
6
ByLayer
370
18
48
1
60
0
100
AcDbCircle
39
0
10
16
20
6.002217
30
0
40
1.416
210
0
220
0
230
1
100
AcDbArc
50
186.192438
51
240.190711
0
ARC
5
107
100
AcDbEntity
8
1
62
256
6
ByLayer
370
18
48
1
60
0
100
AcDbCircle
39
0
10
16
20
6.002217
30
0
40
1.416
210
0
220
0
230
1
100
AcDbArc
50
299.809289
51
353.807562
0
ARC
5
108
100
AcDbEntity
8
1
62
256
6
ByLayer
370
18
48
1
60
0
100
AcDbCircle
39
0
10
16
20
6.002217
30
0
40
1.416
210
0
220
0
230
1
100
AcDbArc
50
6.192438
51
60.190711
0
ARC
5
109
100
AcDbEntity
8
1
62
256
6
ByLayer
370
18
48
1
60
0
100
AcDbCircle
39
0
10
16
20
6.002217
30
0
40
1.416
210
0
220
0
230
1
100
AcDbArc
50
60.190711
51
119.809289
0
ARC
5
10A
100
AcDbEntity
8
1
62
256
6
ByLayer
370
18
48
1
60
0
100
AcDbCircle
39
0
10
16
20
6.002217
30
0
40
1.416
210
0
220
0
230
1
100
AcDbArc
50
119.809289
51
173.807562
0
ARC
5
10B
100
AcDbEntity
8
1
62
256
6
ByLayer
370
18
48
1
60
0
100
AcDbCircle
39
0
10
16
20
6.002217
30
0
40
1.416
210
0
220
0
230
1
100
AcDbArc
50
240.190711
51
299.809289
0
ARC
5
10C
100
AcDbEntity
8
1
62
256
6
ByLayer
370
18
48
1
60
0
100
AcDbCircle
39
0
10
16
20
6.002217
30
0
40
1.9685
210
0
220
0
230
1
100
AcDbArc
50
270
51
329.618578
0
ARC
5
10D
100
AcDbEntity
8
1
62
256
6
ByLayer
370
18
48
1
60
0
100
AcDbCircle
39
0
10
16
20
6.002217
30
0
40
1.9685
210
0
220
0
230
1
100
AcDbArc
50
329.618578
51
30.381422
0
ARC
5
10E
100
AcDbEntity
8
1
62
256
6
ByLayer
370
18
48
1
60
0
100
AcDbCircle
39
0
10
16
20
6.002217
30
0
40
1.416
210
0
220
0
230
1
100
AcDbArc
50
353.807562
51
6.192438
0
ARC
5
10F
100
AcDbEntity
8
1
62
256
6
ByLayer
370
18
48
1
60
0
100
AcDbCircle
39
0
10
16
20
6.002217
30
0
40
1.9685
210
0
220
0
230
1
100
AcDbArc
50
210.381422
51
270
0
ARC
5
110
100
AcDbEntity
8
1
62
256
6
ByLayer
370
18
48
1
60
0
100
AcDbCircle
39
0
10
16
20
6.002217
30
0
40
1.9685
210
0
220
0
230
1
100
AcDbArc
50
30.381422
51
90
0
ARC
5
113
100
AcDbEntity
8
1
62
256
6
ByLayer
370
18
48
1
60
0
100
AcDbCircle
39
0
10
16
20
6.002217
30
0
40
1.416
210
0
220
0
230
1
100
AcDbArc
50
173.807562
51
186.192438
0
ARC
5
114
100
AcDbEntity
8
1
62
256
6
ByLayer
370
18
48
1
60
0
100
AcDbCircle
39
0
10
16
20
6.002217
30
0
40
1.9685
210
0
220
0
230
1
100
AcDbArc
50
149.618578
51
210.381422
0
ARC
5
115
100
AcDbEntity
8
1
62
256
6
ByLayer
370
18
48
1
60
0
100
AcDbCircle
39
0
10
16
20
6.002217
30
0
40
1.9685
210
0
220
0
230
1
100
AcDbArc
50
90
51
149.618578
0
CIRCLE
5
103
100
AcDbEntity
8
1
62
256
6
ByLayer
370
18
48
1
60
0
100
AcDbCircle
10
16
20
6.002217
30
0
40
3.8
39
0
210
0
220
0
230
1
0
CIRCLE
5
111
100
AcDbEntity
8
1
62
256
6
ByLayer
370
18
48
1
60
0
100
AcDbCircle
10
16
20
6.002217
30
0
40
3.5
39
0
210
0
220
0
230
1
0
CIRCLE
5
112
100
AcDbEntity
8
1
62
256
6
ByLayer
370
18
48
1
60
0
100
AcDbCircle
10
16
20
6.002217
30
0
40
3
39
0
210
0
220
0
230
1
0
ELLIPSE
5
116
100
AcDbEntity
8
1
62
256
6
ByLayer
370
18
48
1
60
0
100
AcDbEllipse
10
243.824124
20
39.742641
30
0
11
505.411825148287
21
6.69954741359827
31
0
210
0
220
0
230
1
40
0.049683
41
-2.01211792029161
42
-2.01010993014766
0
ELLIPSE
5
117
100
AcDbEntity
8
1
62
256
6
ByLayer
370
18
48
1
60
0
100
AcDbEllipse
10
-348.252971
20
34.003386
30
0
11
-1800.3404447109
21
5.70372646221348
31
0
210
0
220
0
230
1
40
0.011946
41
1.77816804317643
42
1.78115239326258
0
ELLIPSE
5
118
100
AcDbEntity
8
1
62
256
6
ByLayer
370
18
48
1
60
0
100
AcDbEllipse
10
28.641772
20
34.003684
30
0
11
-2.8280580188128E-14
21
22.2499999994207
31
0
210
0
220
0
230
1
40
0.68252
41
2.87219592130137
42
3.09065486449001
0
ELLIPSE
5
119
100
AcDbEntity
8
1
62
256
6
ByLayer
370
18
48
1
60
0
100
AcDbEllipse
10
28.641772
20
39.703684
30
0
11
-3.29834182428886E-14
21
25.9500000001147
31
0
210
0
220
0
230
1
40
0.68252
41
2.91136229475529
42
3.08979033020123
0
ELLIPSE
5
11A
100
AcDbEntity
8
1
62
256
6
ByLayer
370
18
48
1
60
0
100
AcDbEllipse
10
30.504384
20
34.003684
30
0
11
-2.82805801790989E-14
21
22.249999992317
31
0
210
0
220
0
230
1
40
0.997053
41
2.7651952248172
42
2.87219592126729
0
ELLIPSE
5
11B
100
AcDbEntity
8
1
62
256
6
ByLayer
370
18
48
1
60
0
100
AcDbEllipse
10
30.504384
20
39.703684
30
0
11
-3.29834182411992E-14
21
25.9499999987855
31
0
210
0
220
0
230
1
40
0.997053
41
2.77224382185728
42
2.91136229475035
0
ELLIPSE
5
11C
100
AcDbEntity
8
1
62
256
6
ByLayer
370
18
48
1
60
0
100
AcDbEllipse
10
38.841341
20
39.703684
30
0
11
-3.29834182426654E-14
21
25.9499999999391
31
0
210
0
220
0
230
1
40
0.57735
41
2.42258335896992
42
2.78063084667316
0
ELLIPSE
5
11D
100
AcDbEntity
8
1
62
256
6
ByLayer
370
18
48
1
60
0
100
AcDbEllipse
10
31.044849
20
14.49342
30
0
11
0.908128424458427
21
0.0637471230002635
31
0
210
0
220
0
230
1
40
0.875679
41
-1.63218839804593
42
-1.35654463708831
0
ELLIPSE
5
11E
100
AcDbEntity
8
1
62
256
6
ByLayer
370
18
48
1
60
0
100
AcDbEllipse
10
29.757075
20
13.550583
30
0
11
0.70568989905362
21
0.0120487921904499
31
0
210
0
220
0
230
1
40
0.211871
41
3.13797522913565
42
-2.80923419701111
0
ELLIPSE
5
11F
100
AcDbEntity
8
1
62
256
6
ByLayer
370
18
48
1
60
0
100
AcDbEllipse
10
30.731595
20
13.126274
30
0
11
0.940919865538186
21
0.0160650562616242
31
0
210
0
220
0
230
1
40
0.211871
41
-2.80923419703572
42
-1.99079567554003
0
ELLIPSE
5
120
100
AcDbEntity
8
1
62
256
6
ByLayer
370
18
48
1
60
0
100
AcDbEllipse
10
34.156648
20
14.82348
30
0
11
9.40919877479027
21
0.16065058084764
31
0
210
0
220
0
230
1
40
0.211871
41
-1.99079567938296
42
-1.92347960624372
0
ELLIPSE
5
121
100
AcDbEntity
8
1
62
256
6
ByLayer
370
18
48
1
60
0
100
AcDbEllipse
10
30.644794
20
12.692202
30
0
11
0.987965858812807
21
0.0168683090742867
31
0
210
0
220
0
230
1
40
0.211871
41
-0.0036174244548344
42
1.21811305194157
0
ELLIPSE
5
122
100
AcDbEntity
8
1
62
256
6
ByLayer
370
18
48
1
60
0
100
AcDbEllipse
10
30.644794
20
12.692202
30
0
11
0.98796585881369
21
0.0168683090743062
31
0
210
0
220
0
230
1
40
0.211871
41
-1.22534790085062
42
-0.00361742445487359
0
ELLIPSE
5
123
100
AcDbEntity
8
1
62
256
6
ByLayer
370
18
48
1
60
0
100
AcDbEllipse
10
34.156648
20
10.67546
30
0
11
9.40919860915191
21
0.160650567986942
31
0
210
0
220
0
230
1
40
0.211871
41
1.91624475099145
42
1.98356082517252
0
ELLIPSE
5
124
100
AcDbEntity
8
1
62
256
6
ByLayer
370
18
48
1
60
0
100
AcDbEllipse
10
30.731595
20
12.26096
30
0
11
0.940919865534198
21
0.0160650562616498
31
0
210
0
220
0
230
1
40
0.211871
41
1.98356082662769
42
2.80199934812591
0
ELLIPSE
5
125
100
AcDbEntity
8
1
62
256
6
ByLayer
370
18
48
1
60
0
100
AcDbEllipse
10
29.757075
20
11.804868
30
0
11
0.705689899109741
21
0.0120487921968693
31
0
210
0
220
0
230
1
40
0.211871
41
2.80199934811519
42
3.1379752291344
0
ELLIPSE
5
126
100
AcDbEntity
8
1
62
256
6
ByLayer
370
18
48
1
60
0
100
AcDbEllipse
10
30.265997
20
13.334109
30
0
11
0.0435421662706001
21
0.120637257485118
31
0
210
0
220
0
230
1
40
0.975265
41
0
42
6.28318530717959
0
ELLIPSE
5
127
100
AcDbEntity
8
1
62
256
6
ByLayer
370
18
48
1
60
0
100
AcDbEllipse
10
31.044849
20
10.90403
30
0
11
0.908128424435369
21
0.0637471228790185
31
0
210
0
220
0
230
1
40
0.875679
41
1.23376049472551
42
1.50940425569191
0
POINT
5
70
100
AcDbEntity
8
81
62
256
6
ByLayer
370
18
48
1
60
0
100
AcDbPoint
10
34.35
20
14
30
0
39
0
210
0
220
0
230
1
50
360
0
POINT
5
72
100
AcDbEntity
8
80
62
256
6
ByLayer
370
18
48
1
60
0
100
AcDbPoint
10
0
20
0
30
0
39
0
210
0
220
0
230
1
50
360
0
POINT
5
74
100
AcDbEntity
8
1
62
256
6
ByLayer
370
18
48
1
60
1
100
AcDbPoint
10
0
20
0
30
0
39
0
210
0
220
0
230
1
50
360
0
POINT
5
76
100
AcDbEntity
8
1
62
256
6
ByLayer
370
18
48
1
60
1
100
AcDbPoint
10
34.35
20
14
30
0
39
0
210
0
220
0
230
1
50
360
0
POINT
5
77
100
AcDbEntity
8
1
62
256
6
ByLayer
370
18
48
1
60
1
100
AcDbPoint
10
22.35
20
11.753684
30
0
39
0
210
0
220
0
230
1
50
360
0
POINT
5
78
100
AcDbEntity
8
1
62
256
6
ByLayer
370
18
48
1
60
1
100
AcDbPoint
10
34.35
20
14
30
0
39
0
210
0
220
0
230
1
50
360
0
POINT
5
79
100
AcDbEntity
8
1
62
256
6
ByLayer
370
18
48
1
60
1
100
AcDbPoint
10
34.35
20
14
30
0
39
0
210
0
220
0
230
1
50
360
0
POINT
5
7A
100
AcDbEntity
8
1
62
256
6
ByLayer
370
18
48
1
60
1
100
AcDbPoint
10
0
20
0
30
0
39
0
210
0
220
0
230
1
50
360
0
POINT
5
7B
100
AcDbEntity
8
1
62
256
6
ByLayer
370
18
48
1
60
1
100
AcDbPoint
10
34.35
20
14
30
0
39
0
210
0
220
0
230
1
50
360
0
POINT
5
7C
100
AcDbEntity
8
1
62
256
6
ByLayer
370
18
48
1
60
1
100
AcDbPoint
10
34.35
20
11.5
30
0
39
0
210
0
220
0
230
1
50
360
0
SPLINE
5
128
100
AcDbEntity
8
1
62
256
6
ByLayer
370
18
48
1
60
0
100
AcDbSpline
70
4
71
3
72
26
73
22
40
0
40
0
40
0
40
0
40
0.250000000000023
40
0.250000000000023
40
0.375000000000024
40
0.375000000000024
40
0.500000000000025
40
0.500000000000025
40
0.562500000000021
40
0.562500000000021
40
0.625000000000016
40
0.625000000000016
40
0.687500000000012
40
0.687500000000012
40
0.750000000000007
40
0.750000000000007
40
0.812500000000003
40
0.812500000000003
40
0.874999999999998
40
0.874999999999998
40
1
40
1
40
1
40
1
41
1
10
-9.76977062535715
20
-0.324980947162374
30
0
41
1
10
-9.78371394300027
20
-0.324980947162402
30
0
41
1
10
-9.7972163304417
20
-0.324252951409079
30
0
41
1
10
-9.81586925133831
20
-0.321208544080747
30
0
41
1
10
-9.82185023943686
20
-0.319858473911921
30
0
41
1
10
-9.83297200704669
20
-0.316164973903966
30
0
41
1
10
-9.83800393203229
20
-0.313865133235225
30
0
41
1
10
-9.84436713160871
20
-0.309378419529196
30
0
41
1
10
-9.8462979238946
20
-0.307691692329087
30
0
41
1
10
-9.84954436483548
20
-0.303975286250079
30
0
41
1
10
-9.85087263754845
20
-0.301941955794462
30
0
41
1
10
-9.85283128801603
20
-0.297457432910107
30
0
41
1
10
-9.85343991278366
20
-0.295033554344201
30
0
41
1
10
-9.85385630319131
20
-0.289942785349325
30
0
41
1
10
-9.85367136975526
20
-0.287249769995157
30
0
41
1
10
-9.85250595826935
20
-0.281606923074406
30
0
41
1
10
-9.85154717061477
20
-0.278746080497285
30
0
41
1
10
-9.84899139102964
20
-0.272956798029725
30
0
41
1
10
-9.84737849564674
20
-0.270005548215664
30
0
41
1
10
-9.84181586539495
20
-0.261242606835367
30
0
41
1
10
-9.83720772401574
20
-0.255558778474636
30
0
41
1
10
-9.83200555996575
20
-0.249980947161674
30
0
0
SPLINE
5
129
100
AcDbEntity
8
1
62
256
6
ByLayer
370
18
48
1
60
0
100
AcDbSpline
70
4
71
3
72
8
73
4
40
0
40
0
40
0
40
0
40
1
40
1
40
1
40
1
41
1
10
8.97509300114021
20
-0.269594177820636
30
0
41
1
10
8.97048024229872
20
-0.263188796058728
30
0
41
1
10
8.96535566342396
20
-0.256648768658465
30
0
41
1
10
8.95982040671319
20
-0.249999999999829
30
0
0
SPLINE
5
12A
100
AcDbEntity
8
1
62
256
6
ByLayer
370
18
48
1
60
0
100
AcDbSpline
70
4
71
3
72
8
73
4
40
0
40
0
40
0
40
0
40
1
40
1
40
1
40
1
41
1
10
8.97509300113904
20
-0.269594177821347
30
0
41
1
10
8.96602634583104
20
-0.263052313104737
30
0
41
1
10
8.95695689263579
20
-0.256520867363747
30
0
41
1
10
8.94788459874798
20
-0.25
30
0
0
SPLINE
5
12B
100
AcDbEntity
8
1
62
256
6
ByLayer
370
18
48
1
60
0
100
AcDbSpline
70
4
71
3
72
20
73
16
40
0
40
0
40
0
40
0
40
0.125000000000002
40
0.125000000000002
40
0.250000000000004
40
0.250000000000004
40
0.375000000000006
40
0.375000000000006
40
0.500000000000008
40
0.500000000000008
40
0.62500000000001
40
0.62500000000001
40
0.750000000000012
40
0.750000000000012
40
1
40
1
40
1
40
1
41
1
10
9.50709454528783
20
-0.324980947161691
30
0
41
1
10
9.50446684643609
20
-0.324980947161691
30
0
41
1
10
9.50120547788177
20
-0.324325438354265
30
0
41
1
10
9.49383752136634
20
-0.321978904858042
30
0
41
1
10
9.48970604367264
20
-0.320287538788847
30
0
41
1
10
9.48067606109117
20
-0.316017460644701
30
0
41
1
10
9.47584069438224
20
-0.313466776029827
30
0
41
1
10
9.4657554788725
20
-0.307741778715837
30
0
41
1
10
9.46048600059484
20
-0.304557321014272
30
0
41
1
10
9.44955246765534
20
-0.297627228915957
30
0
41
1
10
9.44387251607549
20
-0.293868908437645
30
0
41
1
10
9.43240356571505
20
-0.286013315481369
30
0
41
1
10
9.42658457612515
20
-0.281897606492322
30
0
41
1
10
9.40890440191322
20
-0.269050270820657
30
0
41
1
10
9.39682270649575
20
-0.259824535101188
30
0
41
1
10
9.3844789550599
20
-0.25
30
0
0
SPLINE
5
12C
100
AcDbEntity
8
1
62
256
6
ByLayer
370
18
48
1
60
0
100
AcDbSpline
70
4
71
2
72
6
73
3
40
0
40
0
40
0
40
1
40
1
40
1
41
1
10
9.57062122153147
20
-0.324980947161691
30
0
41
1
10
9.53999786148736
20
-0.324980947161691
30
0
41
1
10
9.50723215695228
20
-0.324980947161691
30
0
0
SPLINE
5
12D
100
AcDbEntity
8
1
62
256
6
ByLayer
370
18
48
1
60
0
100
AcDbSpline
70
4
71
3
72
22
73
18
40
0
40
0
40
0
40
0
40
0.125
40
0.125
40
0.25
40
0.25
40
0.375
40
0.375
40
0.5
40
0.5
40
0.625
40
0.625
40
0.75
40
0.75
40
0.875
40
0.875
40
1
40
1
40
1
40
1
41
1
10
9.53081289439862
20
-0.249999999999943
30
0
41
1
10
9.53505931314226
20
-0.254861141173507
30
0
41
1
10
9.53914014588517
20
-0.259653435704053
30
0
41
1
10
9.54692226638943
20
-0.26908108225922
30
0
41
1
10
9.55063275024946
20
-0.273730195609943
30
0
41
1
10
9.55744018536603
20
-0.282630010692912
30
0
41
1
10
9.56055905507202
20
-0.28690587896952
30
0
41
1
10
9.56613810398775
20
-0.295057128232287
30
0
41
1
10
9.56861585716385
20
-0.298965833156615
30
0
41
1
10
9.57263907119452
20
-0.306067076874996
30
0
41
1
10
9.5741997112676
20
-0.309275100347463
30
0
41
1
10
9.57631860575586
20
-0.314932710155148
30
0
41
1
10
9.57685514810564
20
-0.317350053736391
30
0
41
1
10
9.57683167984814
20
-0.321175545408039
30
0
41
1
10
9.57628182451117
20
-0.322618634072569
30
0
41
1
10
9.57410536556662
20
-0.32453310272399
30
0
41
1
10
9.57251449079982
20
-0.324980699935452
30
0
41
1
10
9.57048139756094
20
-0.324980947060055
30
0
0
SPLINE
5
12E
100
AcDbEntity
8
1
62
256
6
ByLayer
370
18
48
1
60
0
100
AcDbSpline
70
4
71
3
72
8
73
4
40
0
40
0
40
0
40
0
40
1
40
1
40
1
40
1
41
1
10
27.9683971232938
20
12.4196512477096
30
0
41
1
10
27.9351563898402
20
12.2072633533338
30
0
41
1
10
27.9018898945166
20
11.9948881626686
30
0
41
1
10
27.8685617081455
20
11.7825433931338
30
0
0
SPLINE
5
12F
100
AcDbEntity
8
1
62
256
6
ByLayer
370
18
48
1
60
0
100
AcDbSpline
70
4
71
3
72
8
73
4
40
0
40
0
40
0
40
0
40
1
40
1
40
1
40
1
41
1
10
28.0539453105005
20
12.4915803400181
30
0
41
1
10
28.0254393417742
20
12.4675661832957
30
0
41
1
10
27.9969249796706
20
12.4435834529552
30
0
41
1
10
27.9683971232938
20
12.4196512477096
30
0
0
SPLINE
5
130
100
AcDbEntity
8
1
62
256
6
ByLayer
370
18
48
1
60
0
100
AcDbSpline
70
4
71
3
72
18
73
14
40
0
40
0
40
0
40
0
40
0.125
40
0.125
40
0.25
40
0.25
40
0.374999999999999
40
0.374999999999999
40
0.499999999999999
40
0.499999999999999
40
0.75
40
0.75
40
1
40
1
40
1
40
1
41
1
10
28.0539453105004
20
12.491580340018
30
0
41
1
10
28.0577219467388
20
12.4947618749233
30
0
41
1
10
28.0613547253068
20
12.4984187486812
30
0
41
1
10
28.0683272835782
20
12.5067006318803
30
0
41
1
10
28.0716856294439
20
12.5113646901189
30
0
41
1
10
28.0778890992135
20
12.5213921860964
30
0
41
1
10
28.0807593147768
20
12.5267769817904
30
0
41
1
10
28.0860386094576
20
12.5382856200055
30
0
41
1
10
28.0884631119069
20
12.5444575607243
30
0
41
1
10
28.0948887009398
20
12.5638012801159
30
0
41
1
10
28.0980079717717
20
12.5775524861013
30
0
41
1
10
28.1018838201768
20
12.6067905006343
30
0
41
1
10
28.1025438218003
20
12.6216062364288
30
0
41
1
10
28.101949235954
20
12.6364833421752
30
0
0
SPLINE
5
131
100
AcDbEntity
8
1
62
256
6
ByLayer
370
18
48
1
60
0
100
AcDbSpline
70
4
71
2
72
6
73
3
40
0
40
0
40
0
40
1
40
1
40
1
41
0.500000422292407
10
28.098048516262
20
12.7339701194467
30
0
41
0.499999577707593
10
28.1000005116432
20
12.6852422856032
30
0
41
0.500000422292407
10
28.101949235954
20
12.6364833421752
30
0
0
SPLINE
5
132
100
AcDbEntity
8
1
62
256
6
ByLayer
370
18
48
1
60
0
100
AcDbSpline
70
4
71
3
72
20
73
16
40
0
40
0
40
0
40
0
40
0.250000000000001
40
0.250000000000001
40
0.375000000000001
40
0.375000000000001
40
0.500000000000001
40
0.500000000000001
40
0.625
40
0.625
40
0.75
40
0.75
40
0.875
40
0.875
40
1
40
1
40
1
40
1
41
1
10
28.0387905495692
20
12.8667806509817
30
0
41
1
10
28.0468846174432
20
12.8621299332385
30
0
41
1
10
28.0544510661775
20
12.8555045054125
30
0
41
1
10
28.0648932763511
20
12.8427289870207
30
0
41
1
10
28.0682297728277
20
12.8379678129641
30
0
41
1
10
28.0743894988627
20
12.8277654102817
30
0
41
1
10
28.0772426120535
20
12.8222919256423
30
0
41
1
10
28.0824918789155
20
12.8105947092758
30
0
41
1
10
28.0849039160191
20
12.8043145587817
30
0
41
1
10
28.0891257310303
20
12.791319809802
30
0
41
1
10
28.0909467866023
20
12.7845969531826
30
0
41
1
10
28.0940146199791
20
12.7707044967662
30
0
41
1
10
28.0952669301267
20
12.7634896447407
30
0
41
1
10
28.0971384234082
20
12.7487953541843
30
0
41
1
10
28.0977507151963
20
12.7414041538696
30
0
41
1
10
28.098048516262
20
12.7339701194464
30
0
0
SPLINE
5
133
100
AcDbEntity
8
1
62
256
6
ByLayer
370
18
48
1
60
0
100
AcDbSpline
70
4
71
3
72
8
73
4
40
0
40
0
40
0
40
0
40
1
40
1
40
1
40
1
41
1
10
27.9478374611828
20
12.9188113763239
30
0
41
1
10
27.978169874225
20
12.9015486446042
30
0
41
1
10
28.0084854564056
20
12.884193457086
30
0
41
1
10
28.0387905495692
20
12.8667806509817
30
0
0
SPLINE
5
134
100
AcDbEntity
8
1
62
256
6
ByLayer
370
18
48
1
60
0
100
AcDbSpline
70
4
71
3
72
10
73
6
40
0
40
0
40
0
40
0
40
0.5
40
0.5
40
1
40
1
40
1
40
1
41
1
10
27.7246910032216
20
13.7884944364496
30
0
41
1
10
27.7633046414197
20
13.6446978581972
30
0
41
1
10
27.8008404400165
20
13.5000295002467
30
0
41
1
10
27.8749727862178
20
13.2099330980756
30
0
41
1
10
27.91153889482
20
13.0644804341396
30
0
41
1
10
27.9478374611831
20
12.9188113763244
30
0
0
SPLINE
5
135
100
AcDbEntity
8
1
62
256
6
ByLayer
370
18
48
1
60
0
100
AcDbSpline
70
4
71
3
72
10
73
6
40
0
40
0
40
0
40
0
40
0.5
40
0.5
40
1
40
1
40
1
40
1
41
1
10
27.8685617081454
20
11.7825433931338
30
0
41
1
10
27.8262479787115
20
11.7817412825733
30
0
41
1
10
27.783150878003
20
11.781166380474
30
0
41
1
10
27.6956699584041
20
11.7804162649333
30
0
41
1
10
27.6512512176183
20
11.7802405183335
30
0
41
1
10
27.6061189331315
20
11.780268390439
30
0
0
SPLINE
5
136
100
AcDbEntity
8
1
62
256
6
ByLayer
370
18
48
1
60
0
100
AcDbSpline
70
4
71
3
72
33
73
29
40
0
40
0
40
0
40
0
40
0.125000000000011
40
0.125000000000011
40
0.156250000000013
40
0.156250000000013
40
0.187500000000016
40
0.250000000000021
40
0.312500000000026
40
0.312500000000026
40
0.343750000000026
40
0.343750000000026
40
0.375000000000026
40
0.375000000000026
40
0.500000000000023
40
0.500000000000023
40
0.562500000000018
40
0.562500000000018
40
0.625000000000014
40
0.68750000000001
40
0.68750000000001
40
0.750000000000006
40
0.750000000000006
40
0.875000000000003
40
0.875000000000003
40
0.937500000000001
40
0.937500000000001
40
1
40
1
40
1
40
1
41
1
10
12.8743931895837
20
0.875
30
0
41
1
10
12.8743931895837
20
0.9119291045198
30
0
41
1
10
12.8794166588817
20
0.948157876998181
30
0
41
1
10
12.8917163039401
20
0.992604539189131
30
0
41
1
10
12.8944918395589
20
1.00147748308368
30
0
41
1
10
12.9005550841204
20
1.01886329493186
30
0
41
1
10
12.9104466229476
20
1.04451432712909
30
0
41
1
10
12.9307140827301
20
1.08523595296856
30
0
41
1
10
12.9506977621895
20
1.11578952076343
30
0
41
1
10
12.9670530170849
20
1.1379705701118
30
0
41
1
10
12.9727491446756
20
1.14525948701882
30
0
41
1
10
12.9844669616694
20
1.15944256801211
30
0
41
1
10
12.9904975709265
20
1.16635112462259
30
0
41
1
10
13.0214681581815
20
1.20002264290204
30
0
41
1
10
13.0488332134675
20
1.22420116600384
30
0
41
1
10
13.0933561836411
20
1.25676518217227
30
0
41
1
10
13.108732590805
20
1.26695217746487
30
0
41
1
10
13.1400859458402
20
1.28581753274065
30
0
41
1
10
13.1721559234838
20
1.30326075744057
30
0
41
1
10
13.2055809856095
20
1.31801483020482
30
0
41
1
10
13.2396646341427
20
1.33146194466767
30
0
41
1
10
13.257099225376
20
1.33754842509776
30
0
41
1
10
13.3096981260768
20
1.35365706376118
30
0
41
1
10
13.3452639692152
20
1.36161320008426
30
0
41
1
10
13.3993183784813
20
1.3696191365934
30
0
41
1
10
13.4174549214815
20
1.37162862195186
30
0
41
1
10
13.4539664395077
20
1.37432026026082
30
0
41
1
10
13.4724111728782
20
1.375
30
0
41
1
10
13.4907375632321
20
1.375
30
0
0
SPLINE
5
137
100
AcDbEntity
8
1
62
256
6
ByLayer
370
18
48
1
60
0
100
AcDbSpline
70
4
71
3
72
10
73
6
40
0
40
0
40
0
40
0
40
0.376545574290798
40
0.376545574290798
40
1
40
1
40
1
40
1
41
1
10
20.861448445555
20
10.7403964021013
30
0
41
1
10
20.8558113724231
20
10.7260991776047
30
0
41
1
10
20.8495403818736
20
10.7118023543064
30
0
41
1
10
20.8318076278813
20
10.6738347671994
30
0
41
1
10
20.8196470165715
20
10.6501664242254
30
0
41
1
10
20.807753049517
20
10.6264974255901
30
0
0
SPLINE
5
138
100
AcDbEntity
8
1
62
256
6
ByLayer
370
18
48
1
60
0
100
AcDbSpline
70
4
71
3
72
22
73
18
40
0
40
0
40
0
40
0
40
0.249999999999995
40
0.249999999999995
40
0.312499999999994
40
0.312499999999994
40
0.374999999999993
40
0.374999999999993
40
0.499999999999991
40
0.499999999999991
40
0.749999999999988
40
0.749999999999988
40
0.81249999999999
40
0.81249999999999
40
0.874999999999992
40
0.874999999999992
40
1
40
1
40
1
40
1
41
1
10
20.75
20
12.0842292307294
30
0
41
1
10
20.75
20
12.1854444709358
30
0
41
1
10
20.7580503355203
20
12.2863077011619
30
0
41
1
10
20.7783612804767
20
12.411938632494
30
0
41
1
10
20.7829395468225
20
12.4370422526973
30
0
41
1
10
20.7931482504146
20
12.4872034857471
30
0
41
1
10
20.7987643866804
20
12.5121814885683
30
0
41
1
10
20.8170443016371
20
12.586414197104
30
0
41
1
10
20.8311692358327
20
12.6351316136555
30
0
41
1
10
20.8792780627303
20
12.7790028967521
30
0
41
1
10
20.9189488536182
20
12.8718945432791
30
0
41
1
10
20.9784525317307
20
12.9840648880121
30
0
41
1
10
20.9908527901792
20
13.006300249245
30
0
41
1
10
21.0166789346452
20
13.0503629821281
30
0
41
1
10
21.0301376166482
20
13.0722379279527
30
0
41
1
10
21.0717054755793
20
13.1366332863938
30
0
41
1
10
21.1010748294807
20
13.1780675201459
30
0
41
1
10
21.1320879813893
20
13.218018069065
30
0
0
SPLINE
5
139
100
AcDbEntity
8
1
62
256
6
ByLayer
370
18
48
1
60
0
100
AcDbSpline
70
4
71
3
72
28
73
24
40
0
40
0
40
0
40
0
40
0.125000000000007
40
0.125000000000007
40
0.156250000000009
40
0.156250000000009
40
0.187500000000012
40
0.187500000000012
40
0.250000000000015
40
0.250000000000015
40
0.375000000000024
40
0.375000000000024
40
0.437500000000027
40
0.437500000000027
40
0.468750000000028
40
0.468750000000028
40
0.500000000000029
40
0.500000000000029
40
0.625000000000022
40
0.625000000000022
40
0.750000000000014
40
0.750000000000014
40
1
40
1
40
1
40
1
41
1
10
21.1320879813883
20
13.2180180690679
30
0
41
1
10
21.1776443063493
20
13.2560398039138
30
0
41
1
10
21.2252084694406
20
13.2880146017989
30
0
41
1
10
21.2867747203446
20
13.3216253314755
30
0
41
1
10
21.2992033091566
20
13.3280304937362
30
0
41
1
10
21.3241145927899
20
13.340152597507
30
0
41
1
10
21.3366152990877
20
13.3458799798283
30
0
41
1
10
21.3742450606661
20
13.3621170259482
30
0
41
1
10
21.3995015039803
20
13.3716834744132
30
0
41
1
10
21.4757310450856
20
13.3969752923183
30
0
41
1
10
21.5271618703089
20
13.4093115244823
30
0
41
1
10
21.6050871976478
20
13.4220472840561
30
0
41
1
10
21.6311928601566
20
13.4253258847164
30
0
41
1
10
21.670535146368
20
13.4288829368848
30
0
41
1
10
21.683697843082
20
13.4298423756241
30
0
41
1
10
21.7099716800001
20
13.4313143004922
30
0
41
1
10
21.7230847365578
20
13.4318277646628
30
0
41
1
10
21.7885364280123
20
13.433335912811
30
0
41
1
10
21.8405363196461
20
13.4311720141302
30
0
41
1
10
21.943922808905
20
13.4211256091048
30
0
41
1
10
21.9953087710092
20
13.4132371768982
30
0
41
1
10
22.1486497576142
20
13.3819547686444
30
0
41
1
10
22.2497960602979
20
13.3510199350043
30
0
41
1
10
22.35
20
13.3112981181326
30
0
0
SPLINE
5
13A
100
AcDbEntity
8
1
62
256
6
ByLayer
370
18
48
1
60
0
100
AcDbSpline
70
4
71
3
72
20
73
16
40
0
40
0
40
0
40
0
40
0.125
40
0.125
40
0.25
40
0.25
40
0.375
40
0.375
40
0.5
40
0.5
40
0.625
40
0.625
40
0.75
40
0.75
40
1
40
1
40
1
40
1
41
1
10
-11.1320782392769
20
-0.324980947161748
30
0
41
1
10
-11.1352153779729
20
-0.324980947161748
30
0
41
1
10
-11.1379995581218
20
-0.324581483697585
30
0
41
1
10
-11.1425602599156
20
-0.322880500925294
30
0
41
1
10
-11.1443698180766
20
-0.321572915063996
30
0
41
1
10
-11.1468471997408
20
-0.317947268097811
30
0
41
1
10
-11.1474895806123
20
-0.315677554873219
30
0
41
1
10
-11.1475787917377
20
-0.310212274884577
30
0
41
1
10
-11.1470034342433
20
-0.306969162786629
30
0
41
1
10
-11.1447268949469
20
-0.29985100455238
30
0
41
1
10
-11.143039567215
20
-0.295963435139441
30
0
41
1
10
-11.1386768192221
20
-0.287590116805887
30
0
41
1
10
-11.1360204266698
20
-0.283150106968293
30
0
41
1
10
-11.1270564922387
20
-0.269508992532735
30
0
41
1
10
-11.1195900715259
20
-0.259735651200032
30
0
41
1
10
-11.1114500273989
20
-0.249980947154313
30
0
0
SPLINE
5
13B
100
AcDbEntity
8
1
62
256
6
ByLayer
370
18
48
1
60
0
100
AcDbSpline
70
4
71
3
72
16
73
12
40
0
40
0
40
0
40
0
40
0.0991241039948334
40
0.0991241039948334
40
0.324343077996125
40
0.324343077996125
40
0.549562051997417
40
0.549562051997417
40
0.774781025998708
40
0.774781025998708
40
1
40
1
40
1
40
1
41
1
10
-10.9369189903117
20
-0.296247252501104
30
0
41
1
10
-10.9401655207037
20
-0.29784311427008
30
0
41
1
10
-10.9433966326855
20
-0.299396040292663
30
0
41
1
10
-10.9539161602598
20
-0.304330463663092
30
0
41
1
10
-10.9611695861205
20
-0.307534381850928
30
0
41
1
10
-10.9751929157508
20
-0.313258941423442
30
0
41
1
10
-10.9819859246727
20
-0.31579302680268
30
0
41
1
10
-10.9950506921146
20
-0.320074036858045
30
0
41
1
10
-11.0013242982397
20
-0.321823931556139
30
0
41
1
10
-11.0131968590635
20
-0.324294057072933
30
0
41
1
10
-11.0186481431831
20
-0.324980947168001
30
0
41
1
10
-11.0234674519049
20
-0.324980947168172
30
0
0
SPLINE
5
13C
100
AcDbEntity
8
1
62
256
6
ByLayer
370
18
48
1
60
0
100
AcDbSpline
70
4
71
3
72
14
73
10
40
0
40
0
40
0
40
0
40
0.0894598291324609
40
0.0894598291324609
40
0.392973219421641
40
0.392973219421641
40
0.69648660971082
40
0.69648660971082
40
1
40
1
40
1
40
1
41
1
10
-9.23069302614158
20
-0.311032527846606
30
0
41
1
10
-9.23599680282453
20
-0.311723378500829
30
0
41
1
10
-9.24129838173977
20
-0.312398183523015
30
0
41
1
10
-9.26457702802514
20
-0.315286220502173
30
0
41
1
10
-9.28248929514561
20
-0.317312073842714
30
0
41
1
10
-9.31797101298201
20
-0.320786465315109
30
0
41
1
10
-9.33556537129778
20
-0.322240606435287
30
0
41
1
10
-9.37037734089571
20
-0.324333802127739
30
0
41
1
10
-9.38759768042252
20
-0.324980947161663
30
0
41
1
10
-9.4045488100268
20
-0.324980947161663
30
0
0
SPLINE
5
13D
100
AcDbEntity
8
1
62
256
6
ByLayer
370
18
48
1
60
0
100
AcDbSpline
70
4
71
3
72
8
73
4
40
0
40
0
40
0
40
0
40
1
40
1
40
1
40
1
41
1
10
-9.96637832280624
20
-0.249980947161504
30
0
41
1
10
-9.86535047201168
20
-0.208886956077947
30
0
41
1
10
-9.76333499207149
20
-0.169915419793
30
0
41
1
10
-9.660217605339
20
-0.133311925570638
30
0
0
SPLINE
5
13E
100
AcDbEntity
8
1
62
256
6
ByLayer
370
18
48
1
60
0
100
AcDbSpline
70
4
71
3
72
16
73
12
40
0
40
0
40
0
40
0
40
0.125000000000008
40
0.125000000000008
40
0.250000000000016
40
0.250000000000016
40
0.500000000000011
40
0.500000000000011
40
0.750000000000005
40
0.750000000000005
40
1
40
1
40
1
40
1
41
1
10
-10.2470436468637
20
-0.324980947161663
30
0
41
1
10
-10.2368176996361
20
-0.324980947160697
30
0
41
1
10
-10.2261105645492
20
-0.324200732781947
30
0
41
1
10
-10.2040252939894
20
-0.321595212906118
30
0
41
1
10
-10.1925916480194
20
-0.319751268507474
30
0
41
1
10
-10.1578378552941
20
-0.313070425791182
30
0
41
1
10
-10.1343736234426
20
-0.307193150124277
30
0
41
1
10
-10.0870307140286
20
-0.293653557543223
30
0
41
1
10
-10.0631479963767
20
-0.285965246733184
30
0
41
1
10
-10.0150264157267
20
-0.269095229194733
30
0
41
1
10
-9.99078675577486
20
-0.259909297798572
30
0
41
1
10
-9.96637832280616
20
-0.249980947161674
30
0
0
SPLINE
5
13F
100
AcDbEntity
8
1
62
256
6
ByLayer
370
18
48
1
60
0
100
AcDbSpline
70
4
71
3
72
8
73
4
40
0
40
0
40
0
40
0
40
1
40
1
40
1
40
1
41
1
10
-11.1539311130555
20
-0.249980947161646
30
0
41
1
10
-11.1370643731008
20
-0.237366129676531
30
0
41
1
10
-11.120166047202
20
-0.224786456048207
30
0
41
1
10
-11.103235063126
20
-0.212243119288502
30
0
0
SPLINE
5
140
100
AcDbEntity
8
1
62
256
6
ByLayer
370
18
48
1
60
0
100
AcDbSpline
70
4
71
3
72
20
73
16
40
0
40
0
40
0
40
0
40
0.125
40
0.125
40
0.25
40
0.25
40
0.375
40
0.375
40
0.500000000000001
40
0.500000000000001
40
0.749999999999986
40
0.749999999999986
40
0.874999999999993
40
0.874999999999993
40
1
40
1
40
1
40
1
41
1
10
-11.2871772280887
20
-0.324980947161947
30
0
41
1
10
-11.2841126650964
20
-0.324980947161919
30
0
41
1
10
-11.2804336330612
20
-0.324326717375243
30
0
41
1
10
-11.2720438166112
20
-0.321927033528368
30
0
41
1
10
-11.2673785357809
20
-0.320189385940665
30
0
41
1
10
-11.2574809997012
20
-0.315925042907423
30
0
41
1
10
-11.2522175048208
20
-0.313387918152586
30
0
41
1
10
-11.2411564914624
20
-0.307626792034881
30
0
41
1
10
-11.2353751890956
20
-0.30440847513853
30
0
41
1
10
-11.2177208346944
20
-0.294078861253268
30
0
41
1
10
-11.205414819476
20
-0.286238759708993
30
0
41
1
10
-11.1863183862468
20
-0.273317667880235
30
0
41
1
10
-11.1798450150413
20
-0.268812423928693
30
0
41
1
10
-11.1669160865667
20
-0.259584653592867
30
0
41
1
10
-11.1604321264514
20
-0.25484312549068
30
0
41
1
10
-11.1539311130558
20
-0.249980947163749
30
0
0
SPLINE
5
141
100
AcDbEntity
8
1
62
256
6
ByLayer
370
18
48
1
60
0
100
AcDbSpline
70
4
71
3
72
8
73
4
40
0
40
0
40
0
40
0
40
1
40
1
40
1
40
1
41
1
10
7.66170677248471
20
0.0571915503032017
30
0
41
1
10
7.51573715139966
20
-0.0383503367263529
30
0
41
1
10
7.36963604651291
20
-0.133446128104225
30
0
41
1
10
7.22339810906752
20
-0.228077676673337
30
0
0
SPLINE
5
142
100
AcDbEntity
8
1
62
256
6
ByLayer
370
18
48
1
60
0
100
AcDbSpline
70
4
71
3
72
30
73
26
40
0
40
0
40
0
40
0
40
0.25
40
0.25
40
0.374999999999994
40
0.374999999999994
40
0.499999999999988
40
0.499999999999988
40
0.562499999999988
40
0.562499999999988
40
0.624999999999988
40
0.624999999999988
40
0.687499999999988
40
0.687499999999988
40
0.749999999999988
40
0.749999999999988
40
0.781249999999989
40
0.781249999999989
40
0.81249999999999
40
0.81249999999999
40
0.874999999999993
40
0.874999999999993
40
0.937499999999997
40
0.937499999999997
40
1
40
1
40
1
40
1
41
1
10
6.32610759209322
20
-0.324980947161663
30
0
41
1
10
6.30895523289024
20
-0.324980947161663
30
0
41
1
10
6.29208157702348
20
-0.324377259675799
30
0
41
1
10
6.26750018480016
20
-0.321930725538721
30
0
41
1
10
6.25939445407604
20
-0.320848040210734
30
0
41
1
10
6.24372854904974
20
-0.31792809148601
30
0
41
1
10
6.23620682309917
20
-0.316109021782722
30
0
41
1
10
6.22568657241547
20
-0.312508448027302
30
0
41
1
10
6.22230861856275
20
-0.311160963692004
30
0
41
1
10
6.21591426295652
20
-0.308054038889253
30
0
41
1
10
6.21287035292437
20
-0.30627486682053
30
0
41
1
10
6.20751976611061
20
-0.302231168235778
30
0
41
1
10
6.20518386142254
20
-0.299949113688825
30
0
41
1
10
6.20160828920962
20
-0.294772273174488
30
0
41
1
10
6.2004140800575
20
-0.291948296582575
30
0
41
1
10
6.19971056995726
20
-0.287281667244486
30
0
41
1
10
6.19966320953691
20
-0.285643710974028
30
0
41
1
10
6.19995012421148
20
-0.282353947498052
30
0
41
1
10
6.20027976527979
20
-0.280687054084183
30
0
41
1
10
6.20179147637555
20
-0.275624633340158
30
0
41
1
10
6.20351609927599
20
-0.272168749535723
30
0
41
1
10
6.20785466491733
20
-0.265522644781726
30
0
41
1
10
6.21051007557585
20
-0.262245767396166
30
0
41
1
10
6.21636758997769
20
-0.255939059647659
30
0
41
1
10
6.21955595240865
20
-0.252914908876164
30
0
41
1
10
6.22292588125003
20
-0.249980947131121
30
0
0
SPLINE
5
143
100
AcDbEntity
8
1
62
256
6
ByLayer
370
18
48
1
60
0
100
AcDbSpline
70
4
71
3
72
15
73
11
40
0
40
0
40
0
40
0
40
0.25
40
0.5
40
0.5
40
0.75
40
0.75
40
0.875
40
0.875
40
1
40
1
40
1
40
1
41
1
10
7.15410175340969
20
-0.249980947161959
30
0
41
1
10
7.11949744310726
20
-0.260869494537161
30
0
41
1
10
7.05032073642866
20
-0.280391315152514
30
0
41
1
10
6.9811820376791
20
-0.295791497294829
30
0
41
1
10
6.91206326724409
20
-0.308963148688235
30
0
41
1
10
6.87739853285686
20
-0.314456710978931
30
0
41
1
10
6.82619211327406
20
-0.320424309897248
30
0
41
1
10
6.80923657124998
20
-0.32203588721319
30
0
41
1
10
6.77561600085534
20
-0.3243108537296
30
0
41
1
10
6.75894873884982
20
-0.324980947161606
30
0
41
1
10
6.74249188881706
20
-0.324980947161663
30
0
0
SPLINE
5
144
100
AcDbEntity
8
1
62
256
6
ByLayer
370
18
48
1
60
0
100
AcDbSpline
70
4
71
3
72
8
73
4
40
0
40
0
40
0
40
0
40
1
40
1
40
1
40
1
41
1
10
7.22339810906752
20
-0.228077676673337
30
0
41
1
10
7.20031272400738
20
-0.235407347541752
30
0
41
1
10
7.17721396297492
20
-0.24270848929163
30
0
41
1
10
7.15410175340969
20
-0.249980947161674
30
0
0
SPLINE
5
145
100
AcDbEntity
8
1
62
256
6
ByLayer
370
18
48
1
60
0
100
AcDbSpline
70
4
71
3
72
8
73
4
40
0
40
0
40
0
40
0
40
1
40
1
40
1
40
1
41
1
10
6.2229258812701
20
-0.249980947141125
30
0
41
1
10
6.45609245419718
20
-0.0469790922391837
30
0
41
1
10
6.68597808660454
20
0.158774693155436
30
0
41
1
10
6.91329588661299
20
0.366682280557882
30
0
0
SPLINE
5
146
100
AcDbEntity
8
1
62
256
6
ByLayer
370
18
48
1
60
0
100
AcDbSpline
70
4
71
3
72
81
73
77
40
0
40
0
40
0
40
0
40
0.0078124999999966
40
0.0078124999999966
40
0.011718749999995
40
0.011718749999995
40
0.0156249999999936
40
0.0156249999999936
40
0.0175781249999932
40
0.0175781249999932
40
0.0195312499999929
40
0.0195312499999929
40
0.0214843749999926
40
0.0214843749999926
40
0.0234374999999922
40
0.0234374999999922
40
0.0273437499999917
40
0.0273437499999917
40
0.0312499999999912
40
0.0312499999999912
40
0.0390624999999913
40
0.0390624999999913
40
0.0468749999999913
40
0.0468749999999913
40
0.0624999999999916
40
0.0624999999999916
40
0.0937499999999916
40
0.0937499999999916
40
0.124999999999992
40
0.124999999999992
40
0.187499999999992
40
0.187499999999992
40
0.249999999999992
40
0.249999999999992
40
0.312499999999992
40
0.312499999999992
40
0.374999999999992
40
0.374999999999992
40
0.499999999999993
40
0.624999999999993
40
0.624999999999993
40
0.749999999999993
40
0.749999999999993
40
0.812499999999994
40
0.812499999999994
40
0.874999999999994
40
0.874999999999994
40
0.906249999999994
40
0.906249999999994
40
0.937499999999994
40
0.937499999999994
40
0.953124999999994
40
0.953124999999994
40
0.960937499999994
40
0.960937499999994
40
0.968749999999994
40
0.968749999999994
40
0.972656249999994
40
0.972656249999994
40
0.976562499999994
40
0.976562499999994
40
0.978515624999994
40
0.978515624999994
40
0.980468749999994
40
0.980468749999994
40
0.981445312499995
40
0.981445312499995
40
0.982421874999996
40
0.982421874999996
40
0.984374999999997
40
0.984374999999997
40
0.988281249999998
40
0.988281249999998
40
0.992187499999999
40
0.992187499999999
40
1
40
1
40
1
40
1
41
1
10
1.91224221527577
20
0.39451905284318
30
0
41
1
10
1.92260027365086
20
0.397470382277845
30
0
41
1
10
1.93283786110663
20
0.400656000617459
30
0
41
1
10
1.94779456186376
20
0.406204007763876
30
0
41
1
10
1.95271325741356
20
0.408182097958019
30
0
41
1
10
1.96229755695148
20
0.412623793809502
30
0
41
1
10
1.96692460319255
20
0.415043395047604
30
0
41
1
10
1.97308244679581
20
0.419356299912835
30
0
41
1
10
1.97498510374817
20
0.420901794091293
30
0
41
1
10
1.97814356823218
20
0.424317649885836
30
0
41
1
10
1.97937553127724
20
0.426188446354047
30
0
41
1
10
1.9804197424285
20
0.430094718808903
30
0
41
1
10
1.98016767343336
20
0.432084882313745
30
0
41
1
10
1.9783365049384
20
0.435660915574715
30
0
41
1
10
1.97684146809385
20
0.437229800282637
30
0
41
1
10
1.97155211298312
20
0.441419320218785
30
0
41
1
10
1.96714261473934
20
0.443496857369752
30
0
41
1
10
1.957886259075
20
0.447126197110265
30
0
41
1
10
1.9530654260048
20
0.448616583755751
30
0
41
1
10
1.93832423326464
20
0.452621312482364
30
0
41
1
10
1.92812264321614
20
0.454664943117905
30
0
41
1
10
1.90740435871612
20
0.458233151164734
30
0
41
1
10
1.896922807263
20
0.459723906732535
30
0
41
1
10
1.86538741092383
20
0.463682824017269
30
0
41
1
10
1.84417449210775
20
0.465656248769307
30
0
41
1
10
1.78025703058955
20
0.47064578145492
30
0
41
1
10
1.73725264988951
20
0.472719601202726
30
0
41
1
10
1.65098443404136
20
0.475886802092418
30
0
41
1
10
1.60778691374301
20
0.476925497381728
30
0
41
1
10
1.47807229819915
20
0.479177404442254
30
0
41
1
10
1.39143454900756
20
0.479542216888063
30
0
41
1
10
1.21796857575396
20
0.479493958295478
30
0
41
1
10
1.13113690460131
20
0.479041949024122
30
0
41
1
10
0.957329148831519
20
0.477882761325304
30
0
41
1
10
0.870323792927167
20
0.477166899227512
30
0
41
1
10
0.696349175854408
20
0.475776693033907
30
0
41
1
10
0.609388405753833
20
0.475099760634464
30
0
41
1
10
0.34857405178758
20
0.473386319949782
30
0
41
1
10
0.0010003507703402
20
0.47200367055919
30
0
41
1
10
-0.346258593410312
20
0.473375275194542
30
0
41
1
10
-0.693339956070815
20
0.475647183276322
30
0
41
1
10
-0.866793441191248
20
0.477269893009009
30
0
41
1
10
-1.12678156308039
20
0.479017268009557
30
0
41
1
10
-1.21341185681212
20
0.479476207823097
30
0
41
1
10
-1.38658196181325
20
0.479556475236905
30
0
41
1
10
-1.47312342215651
20
0.479215768728096
30
0
41
1
10
-1.60282241164063
20
0.477033463499424
30
0
41
1
10
-1.64603636785407
20
0.476023509055125
30
0
41
1
10
-1.73240444053894
20
0.472937703046796
30
0
41
1
10
-1.77556093947166
20
0.470916772337659
30
0
41
1
10
-1.84020397899076
20
0.466007269746626
30
0
41
1
10
-1.86179262627238
20
0.464054865240968
30
0
41
1
10
-1.89394318274023
20
0.460129304204259
30
0
41
1
10
-1.9045789202523
20
0.458657307765151
30
0
41
1
10
-1.92557687187247
20
0.455151548859874
30
0
41
1
10
-1.93595107519369
20
0.45314305633795
30
0
41
1
10
-1.95106731633356
20
0.449203062644983
30
0
41
1
10
-1.95606843466254
20
0.44772119324756
30
0
41
1
10
-1.9655580550596
20
0.444199414509057
30
0
41
1
10
-1.97009904328226
20
0.442195860936522
30
0
41
1
10
-1.97581374795769
20
0.438152979130422
30
0
41
1
10
-1.97748212350464
20
0.436651382667122
30
0
41
1
10
-1.97980883341094
20
0.433156040210008
30
0
41
1
10
-1.98037246688429
20
0.43117668739427
30
0
41
1
10
-1.97997556416402
20
0.428196550109391
30
0
41
1
10
-1.97964165466874
20
0.427187280234904
30
0
41
1
10
-1.97867307625054
20
0.425265399838054
30
0
41
1
10
-1.97804087537853
20
0.424340153169822
30
0
41
1
10
-1.97580369573171
20
0.421646658949015
30
0
41
1
10
-1.97395171242519
20
0.420048670860751
30
0
41
1
10
-1.96785173654942
20
0.415569664711199
30
0
41
1
10
-1.96318270865214
20
0.413077560163515
30
0
41
1
10
-1.95359149055579
20
0.408552813285269
30
0
41
1
10
-1.94859288445008
20
0.406516669262459
30
0
41
1
10
-1.93328703299298
20
0.400792642800013
30
0
41
1
10
-1.92282156572341
20
0.397533435195697
30
0
41
1
10
-1.91224221525877
20
0.394519052838348
30
0
0
SPLINE
5
147
100
AcDbEntity
8
1
62
256
6
ByLayer
370
18
48
1
60
0
100
AcDbSpline
70
4
71
3
72
17
73
13
40
0
40
0
40
0
40
0
40
0.25
40
0.25
40
0.5
40
0.5
40
0.5625
40
0.5625
40
0.625
40
0.75
40
0.75
40
1
40
1
40
1
40
1
41
1
10
-1.91224221525877
20
0.394519052838348
30
0
41
1
10
-1.60176192357355
20
0.306053667681027
30
0
41
1
10
-1.28776911723094
20
0.236983023929383
30
0
41
1
10
-0.651754427740201
20
0.143175179431694
30
0
41
1
10
-0.329727668873488
20
0.118464900509594
30
0
41
1
10
0.078362911948318
20
0.118261377257454
30
0
41
1
10
0.160394283177027
20
0.119762754673957
30
0
41
1
10
0.323519502227214
20
0.12580696443888
30
0
41
1
10
0.567279119098828
20
0.139418800322744
30
0
41
1
10
0.808326323249872
20
0.166313521538967
30
0
41
1
10
1.28701472260693
20
0.236782441218367
30
0
41
1
10
1.60159777754353
20
0.306006897427324
30
0
41
1
10
1.91224221527679
20
0.394519052843464
30
0
0
SPLINE
5
148
100
AcDbEntity
8
1
62
256
6
ByLayer
370
18
48
1
60
0
100
AcDbSpline
70
4
71
3
72
8
73
4
40
0
40
0
40
0
40
0
40
1
40
1
40
1
40
1
41
1
10
-13.9273497265336
20
-0.249980947161674
30
0
41
1
10
-14.1400184018759
20
-0.0890594833153955
30
0
41
1
10
-14.3513710386801
20
0.0731431542574512
30
0
41
1
10
-14.5615187733782
20
0.236518773378151
30
0
0
SPLINE
5
149
100
AcDbEntity
8
1
62
256
6
ByLayer
370
18
48
1
60
0
100
AcDbSpline
70
4
71
3
72
16
73
12
40
0
40
0
40
0
40
0
40
0.124999999999998
40
0.124999999999998
40
0.249999999999996
40
0.249999999999996
40
0.499999999999997
40
0.499999999999997
40
0.749999999999999
40
0.749999999999999
40
1
40
1
40
1
40
1
41
1
10
-13.7912890092361
20
-0.324980947163652
30
0
41
1
10
-13.7947211231747
20
-0.324980947163453
30
0
41
1
10
-13.7987038822678
20
-0.324343969769728
30
0
41
1
10
-13.8075818891419
20
-0.322012470654755
30
0
41
1
10
-13.8124983254929
20
-0.320301845067462
30
0
41
1
10
-13.8279050504171
20
-0.314006523917897
30
0
41
1
10
-13.8392323105369
20
-0.308231113448897
30
0
41
1
10
-13.8632846302391
20
-0.294416067556767
30
0
41
1
10
-13.8756867854771
20
-0.286560850671492
30
0
41
1
10
-13.9010856072335
20
-0.269365680292793
30
0
41
1
10
-13.9141383585476
20
-0.259977683504246
30
0
41
1
10
-13.9273497265336
20
-0.249980947161674
30
0
0
SPLINE
5
14A
100
AcDbEntity
8
1
62
256
6
ByLayer
370
18
48
1
60
0
100
AcDbSpline
70
4
71
3
72
22
73
18
40
0
40
0
40
0
40
0
40
0.125
40
0.125
40
0.25
40
0.25
40
0.375
40
0.375
40
0.5
40
0.5
40
0.625
40
0.625
40
0.75
40
0.75
40
0.875
40
0.875
40
1
40
1
40
1
40
1
41
1
10
-13.7271595028412
20
-0.249980947161504
30
0
41
1
10
-13.7230711169545
20
-0.254870580017553
30
0
41
1
10
-13.719197862038
20
-0.259701365260099
30
0
41
1
10
-13.711950430119
20
-0.269226009096144
30
0
41
1
10
-13.7085556247414
20
-0.273950228042338
30
0
41
1
10
-13.7024739620711
20
-0.283086608544579
30
0
41
1
10
-13.699812285762
20
-0.28745655426502
30
0
41
1
10
-13.6953495169543
20
-0.295745119605016
30
0
41
1
10
-13.6935353207012
20
-0.299707252978664
30
0
41
1
10
-13.6910284293275
20
-0.306819145366916
30
0
41
1
10
-13.6903199496591
20
-0.309978932734452
30
0
41
1
10
-13.6900300661805
20
-0.315476875300789
30
0
41
1
10
-13.6904692852739
20
-0.317827037319773
30
0
41
1
10
-13.6924447562857
20
-0.321476351282882
30
0
41
1
10
-13.6939679064125
20
-0.322810804878514
30
0
41
1
10
-13.6980030233289
20
-0.324572230027599
30
0
41
1
10
-13.7004864228397
20
-0.324980947161748
30
0
41
1
10
-13.7033273915927
20
-0.324980947161748
30
0
0
SPLINE
5
14B
100
AcDbEntity
8
1
62
256
6
ByLayer
370
18
48
1
60
0
100
AcDbSpline
70
4
71
3
72
8
73
4
40
0
40
0
40
0
40
0
40
1
40
1
40
1
40
1
41
1
10
-14.2655750866984
20
0.394519052838319
30
0
41
1
10
-14.0862027304346
20
0.179623374600055
30
0
41
1
10
-13.9067347108406
20
-0.035212365746446
30
0
41
1
10
-13.7271595028412
20
-0.249980947161504
30
0
0
SPLINE
5
14C
100
AcDbEntity
8
1
62
256
6
ByLayer
370
18
48
1
60
0
100
AcDbSpline
70
4
71
3
72
36
73
32
40
0
40
0
40
0
40
0
40
0.125000000000002
40
0.125000000000002
40
0.250000000000005
40
0.250000000000005
40
0.312500000000005
40
0.312500000000005
40
0.375000000000004
40
0.375000000000004
40
0.437500000000004
40
0.437500000000004
40
0.500000000000003
40
0.500000000000003
40
0.562500000000003
40
0.562500000000003
40
0.625000000000003
40
0.625000000000003
40
0.687500000000002
40
0.687500000000002
40
0.750000000000002
40
0.750000000000002
40
0.781250000000002
40
0.781250000000002
40
0.812500000000001
40
0.812500000000001
40
0.875000000000001
40
0.875000000000001
40
0.937500000000001
40
0.937500000000001
40
1
40
1
40
1
40
1
41
1
10
-14.1255646241437
20
0.394519052838348
30
0
41
1
10
-14.1394710770359
20
0.404489622046128
30
0
41
1
10
-14.1531891256639
20
0.413867112124933
30
0
41
1
10
-14.1802225014732
20
0.431373754650593
30
0
41
1
10
-14.1935390957799
20
0.439506751248615
30
0
41
1
10
-14.2131449243124
20
0.450573991117722
30
0
41
1
10
-14.2196336197054
20
0.454078795623701
30
0
41
1
10
-14.2322228540822
20
0.460520725310033
30
0
41
1
10
-14.2383514182247
20
0.463474796430233
30
0
41
1
10
-14.2502293710657
20
0.468773718754022
30
0
41
1
10
-14.2559794178474
20
0.471119640285877
30
0
41
1
10
-14.2670211051816
20
0.475074458444681
30
0
41
1
10
-14.2722259261514
20
0.476650936816839
30
0
41
1
10
-14.2818410972795
20
0.478850703577962
30
0
41
1
10
-14.2862625152793
20
0.479479731271681
30
0
41
1
10
-14.2941373580524
20
0.4795548484297
30
0
41
1
10
-14.2974997750462
20
0.478992735534973
30
0
41
1
10
-14.3028010571971
20
0.476498487128254
30
0
41
1
10
-14.3047638284419
20
0.474520523657986
30
0
41
1
10
-14.3069086232189
20
0.469181053338957
30
0
41
1
10
-14.3071284482325
20
0.465834428936034
30
0
41
1
10
-14.3061330482862
20
0.459758935437492
30
0
41
1
10
-14.3055769996615
20
0.457562174581426
30
0
41
1
10
-14.3040654324165
20
0.452948725894231
30
0
41
1
10
-14.303108097956
20
0.450518030421819
30
0
41
1
10
-14.2996681948549
20
0.442875980593413
30
0
41
1
10
-14.2965819676909
20
0.437266289211095
30
0
41
1
10
-14.2893548863108
20
0.4256951480927
30
0
41
1
10
-14.2851987194409
20
0.41968620333094
30
0
41
1
10
-14.275978382755
20
0.407293077501066
30
0
41
1
10
-14.2709152318049
20
0.400916772801736
30
0
41
1
10
-14.2655750866984
20
0.394519052838319
30
0
0
SPLINE
5
14D
100
AcDbEntity
8
1
62
256
6
ByLayer
370
18
48
1
60
0
100
AcDbSpline
70
4
71
3
72
8
73
4
40
0
40
0
40
0
40
0
40
1
40
1
40
1
40
1
41
1
10
-13.2065548385552
20
-0.249980947161674
30
0
41
1
10
-13.5156891436444
20
-0.0381396122572539
30
0
41
1
10
-13.8219161595784
20
0.176810910131763
30
0
41
1
10
-14.1255646241437
20
0.394519052838319
30
0
0
SPLINE
5
14E
100
AcDbEntity
8
1
62
256
6
ByLayer
370
18
48
1
60
0
100
AcDbSpline
70
4
71
3
72
18
73
14
40
0
40
0
40
0
40
0
40
0.125000000000003
40
0.125000000000003
40
0.250000000000006
40
0.250000000000006
40
0.500000000000004
40
0.500000000000004
40
0.625000000000003
40
0.625000000000003
40
0.750000000000002
40
0.750000000000002
40
1
40
1
40
1
40
1
41
1
10
-13.0480635116142
20
-0.324980947169223
30
0
41
1
10
-13.0526835673824
20
-0.324980947168598
30
0
41
1
10
-13.0578276924747
20
-0.324325815519529
30
0
41
1
10
-13.0689460777358
20
-0.321974818101211
30
0
41
1
10
-13.0749605537727
20
-0.320259096726829
30
0
41
1
10
-13.0935302985871
20
-0.313958174179788
30
0
41
1
10
-13.1067398789887
20
-0.308231131630805
30
0
41
1
10
-13.1274676194249
20
-0.297960016390789
30
0
41
1
10
-13.1345354389663
20
-0.29424506725934
30
0
41
1
10
-13.1486989674189
20
-0.286431559643603
30
0
41
1
10
-13.1558285169502
20
-0.282316542817881
30
0
41
1
10
-13.1773484039918
20
-0.269403809868607
30
0
41
1
10
-13.1918683483694
20
-0.260045199607333
30
0
41
1
10
-13.2065548385552
20
-0.249980947161674
30
0
0
SPLINE
5
14F
100
AcDbEntity
8
1
62
256
6
ByLayer
370
18
48
1
60
0
100
AcDbSpline
70
4
71
3
72
23
73
19
40
0
40
0
40
0
40
0
40
0.124999999999992
40
0.124999999999992
40
0.249999999999984
40
0.249999999999984
40
0.374999999999976
40
0.374999999999976
40
0.437499999999972
40
0.437499999999972
40
0.499999999999967
40
0.624999999999975
40
0.624999999999975
40
0.749999999999984
40
0.749999999999984
40
0.874999999999992
40
0.874999999999992
40
1
40
1
40
1
40
1
41
1
10
-12.9419043311969
20
-0.249980947161362
30
0
41
1
10
-12.9378497028419
20
-0.254925918244197
30
0
41
1
10
-12.9340500009027
20
-0.259832030827397
30
0
41
1
10
-12.9270609615909
20
-0.26955094003489
30
0
41
1
10
-12.9238503710631
20
-0.274403028467305
30
0
41
1
10
-12.9183740783399
20
-0.283688995222491
30
0
41
1
10
-12.9160876840443
20
-0.288143993684287
30
0
41
1
10
-12.9134525305583
20
-0.294494826399216
30
0
41
1
10
-12.9127048890145
20
-0.296567433923769
30
0
41
1
10
-12.9115299156306
20
-0.300494947426273
30
0
41
1
10
-12.9102338827602
20
-0.306085646339625
30
0
41
1
10
-12.9103315847485
20
-0.310777985080392
30
0
41
1
10
-12.9117605960215
20
-0.316192959110282
30
0
41
1
10
-12.9130939065335
20
-0.318369971001488
30
0
41
1
10
-12.9168431622451
20
-0.321793174571212
30
0
41
1
10
-12.9192871440886
20
-0.323036678820301
30
0
41
1
10
-12.9249370215665
20
-0.324620114170159
30
0
41
1
10
-12.9281546626962
20
-0.324980947161777
30
0
41
1
10
-12.9317003032968
20
-0.324980947161777
30
0
0
SPLINE
5
150
100
AcDbEntity
8
1
62
256
6
ByLayer
370
18
48
1
60
0
100
AcDbSpline
70
4
71
3
72
8
73
4
40
0
40
0
40
0
40
0
40
1
40
1
40
1
40
1
41
1
10
-13.4702748862137
20
0.394519052838319
30
0
41
1
10
-13.2941699218972
20
0.179674312264069
30
0
41
1
10
-13.1180471579123
20
-0.0351594867746314
30
0
41
1
10
-12.941904331197
20
-0.249980947161362
30
0
0
SPLINE
5
151
100
AcDbEntity
8
1
62
256
6
ByLayer
370
18
48
1
60
0
100
AcDbSpline
70
4
71
3
72
38
73
34
40
0
40
0
40
0
40
0
40
0.124999999999987
40
0.124999999999987
40
0.249999999999975
40
0.249999999999975
40
0.374999999999963
40
0.374999999999963
40
0.437499999999956
40
0.437499999999956
40
0.49999999999995
40
0.49999999999995
40
0.562499999999944
40
0.562499999999944
40
0.593749999999949
40
0.593749999999949
40
0.624999999999954
40
0.624999999999954
40
0.687499999999958
40
0.687499999999958
40
0.718749999999968
40
0.718749999999968
40
0.749999999999977
40
0.749999999999977
40
0.812499999999984
40
0.812499999999984
40
0.843749999999988
40
0.843749999999988
40
0.874999999999992
40
0.874999999999992
40
0.937499999999996
40
0.937499999999996
40
1
40
1
40
1
40
1
41
1
10
-13.2887133686798
20
0.394519052838348
30
0
41
1
10
-13.3038332306426
20
0.4042879581867
30
0
41
1
10
-13.3188052716474
20
0.413449436874572
30
0
41
1
10
-13.3484408250735
20
0.430527273477111
30
0
41
1
10
-13.3631049887933
20
0.438446193463477
30
0
41
1
10
-13.3920697914073
20
0.452832519259857
30
0
41
1
10
-13.4064644692924
20
0.459334429025461
30
0
41
1
10
-13.4269699921963
20
0.467341554080946
30
0
41
1
10
-13.433645567981
20
0.469730324423097
30
0
41
1
10
-13.4466202325066
20
0.473845750572934
30
0
41
1
10
-13.4529523427325
20
0.475578705664162
30
0
41
1
10
-13.4648977094209
20
0.478164746212002
30
0
41
1
10
-13.470530542591
20
0.479028435196653
30
0
41
1
10
-13.4783549901368
20
0.479532351315839
30
0
41
1
10
-13.4808583852177
20
0.479567589455002
30
0
41
1
10
-13.4856250849188
20
0.47933332242323
30
0
41
1
10
-13.4878873439799
20
0.479061483870908
30
0
41
1
10
-13.4941255566638
20
0.477748652573382
30
0
41
1
10
-13.4976100463298
20
0.476217282345146
30
0
41
1
10
-13.5015835740844
20
0.472696292951213
30
0
41
1
10
-13.5026851457819
20
0.471320945690934
30
0
41
1
10
-13.5043739139206
20
0.468214962997223
30
0
41
1
10
-13.5049704660338
20
0.466476927786175
30
0
41
1
10
-13.5059946892605
20
0.460690215559282
30
0
41
1
10
-13.5056210814371
20
0.455977741753941
30
0
41
1
10
-13.503532127041
20
0.448145570507194
30
0
41
1
10
-13.5025893474109
20
0.445402644548608
30
0
41
1
10
-13.5002379631945
20
0.439666430659713
30
0
41
1
10
-13.4988176392413
20
0.436652706244104
30
0
41
1
10
-13.4939949832354
20
0.427453269472068
30
0
41
1
10
-13.4900398258229
20
0.421090866571319
30
0
41
1
10
-13.4809501781441
20
0.407998820378509
30
0
41
1
10
-13.4757943146983
20
0.401252651663839
30
0
41
1
10
-13.4702748862137
20
0.394519052838319
30
0
0
SPLINE
5
152
100
AcDbEntity
8
1
62
256
6
ByLayer
370
18
48
1
60
0
100
AcDbSpline
70
4
71
3
72
8
73
4
40
0
40
0
40
0
40
0
40
1
40
1
40
1
40
1
41
1
10
-12.2619374897427
20
-0.249980947161674
30
0
41
1
10
-12.6077628641245
20
-0.0394093519147987
30
0
41
1
10
-12.9498764087536
20
0.175597332640279
30
0
41
1
10
-13.2887133686798
20
0.394519052838319
30
0
0
SPLINE
5
153
100
AcDbEntity
8
1
62
256
6
ByLayer
370
18
48
1
60
0
100
AcDbSpline
70
4
71
3
72
18
73
14
40
0
40
0
40
0
40
0
40
0.124999999999996
40
0.124999999999996
40
0.249999999999992
40
0.249999999999992
40
0.499999999999997
40
0.499999999999997
40
0.625
40
0.625
40
0.750000000000003
40
0.750000000000003
40
1
40
1
40
1
40
1
41
1
10
-12.0749439034001
20
-0.324980947161691
30
0
41
1
10
-12.081008255091
20
-0.324980947161094
30
0
41
1
10
-12.0875370462495
20
-0.324314999120077
30
0
41
1
10
-12.1012908516913
20
-0.321980394436167
30
0
41
1
10
-12.1085189695399
20
-0.320307354028273
30
0
41
1
10
-12.1310821815718
20
-0.314018794774086
30
0
41
1
10
-12.1466956039985
20
-0.308331973172642
30
0
41
1
10
-12.1707074902565
20
-0.298228829183785
30
0
41
1
10
-12.1788139447434
20
-0.294590398040555
30
0
41
1
10
-12.1952158399689
20
-0.286815352002634
30
0
41
1
10
-12.2035319977382
20
-0.282666955587643
30
0
41
1
10
-12.2284787618341
20
-0.26964953894975
30
0
41
1
10
-12.245175409905
20
-0.260187306071572
30
0
41
1
10
-12.2619374897427
20
-0.249980947161674
30
0
0
SPLINE
5
154
100
AcDbEntity
8
1
62
256
6
ByLayer
370
18
48
1
60
0
100
AcDbSpline
70
4
71
3
72
24
73
20
40
0
40
0
40
0
40
0
40
0.124999999999993
40
0.124999999999993
40
0.249999999999985
40
0.249999999999985
40
0.312499999999977
40
0.312499999999977
40
0.374999999999968
40
0.374999999999968
40
0.499999999999975
40
0.499999999999975
40
0.624999999999981
40
0.624999999999981
40
0.749999999999987
40
0.749999999999987
40
0.874999999999994
40
0.874999999999994
40
1
40
1
40
1
40
1
41
1
10
-11.9185094462044
20
-0.249980947160964
30
0
41
1
10
-11.9143984087425
20
-0.255008549371979
30
0
41
1
10
-11.9105940690077
20
-0.260025649179823
30
0
41
1
10
-11.9037537286026
20
-0.270033424617793
30
0
41
1
10
-11.9007316163328
20
-0.275018276597791
30
0
41
1
10
-11.8970946969525
20
-0.282167946486851
30
0
41
1
10
-11.8960240148196
20
-0.284507876358191
30
0
41
1
10
-11.8941940114109
20
-0.289092391428142
30
0
41
1
10
-11.8934309418024
20
-0.291353045960363
30
0
41
1
10
-11.8916984067636
20
-0.297837448784492
30
0
41
1
10
-11.8912740901979
20
-0.30175671223887
30
0
41
1
10
-11.8919008982491
20
-0.30877759856898
30
0
41
1
10
-11.8929836812651
20
-0.311879900363635
30
0
41
1
10
-11.8964381114454
20
-0.316963130994338
30
0
41
1
10
-11.8988364705386
20
-0.319015412178828
30
0
41
1
10
-11.9046064730613
20
-0.322151899954548
30
0
41
1
10
-11.9079485979118
20
-0.323240679223744
30
0
41
1
10
-11.9153564824701
20
-0.324656618516968
30
0
41
1
10
-11.9194457489922
20
-0.32498094716172
30
0
41
1
10
-11.9237814416148
20
-0.32498094716172
30
0
0
SPLINE
5
155
100
AcDbEntity
8
1
62
256
6
ByLayer
370
18
48
1
60
0
100
AcDbSpline
70
4
71
3
72
8
73
4
40
0
40
0
40
0
40
0
40
1
40
1
40
1
40
1
41
1
10
-12.4454802424852
20
0.394519052838319
30
0
41
1
10
-12.2698302504261
20
0.179681463779445
30
0
41
1
10
-12.0941736247425
20
-0.0351520577178803
30
0
41
1
10
-11.9185094462047
20
-0.249980947160964
30
0
0
SPLINE
5
156
100
AcDbEntity
8
1
62
256
6
ByLayer
370
18
48
1
60
0
100
AcDbSpline
70
4
71
3
72
34
73
30
40
0
40
0
40
0
40
0
40
0.124999999999996
40
0.124999999999996
40
0.249999999999993
40
0.249999999999993
40
0.374999999999989
40
0.374999999999989
40
0.437499999999988
40
0.437499999999988
40
0.499999999999987
40
0.499999999999987
40
0.624999999999986
40
0.624999999999986
40
0.687499999999989
40
0.687499999999989
40
0.718749999999993
40
0.718749999999993
40
0.749999999999996
40
0.749999999999996
40
0.812500000000001
40
0.812500000000001
40
0.875000000000006
40
0.875000000000006
40
0.906250000000004
40
0.906250000000004
40
0.937500000000003
40
0.937500000000003
40
1
40
1
40
1
40
1
41
1
10
-12.21262584537
20
0.394519052838319
30
0
41
1
10
-12.2293879167132
20
0.404069856331262
30
0
41
1
10
-12.2460474242468
20
0.413010889696807
30
0
41
1
10
-12.2791555920721
20
0.42966862177019
30
0
41
1
10
-12.2956045495882
20
0.437386982382037
30
0
41
1
10
-12.3282608368064
20
0.451436957631131
30
0
41
1
10
-12.3445735365322
20
0.457805604881315
30
0
41
1
10
-12.3682424193965
20
0.465816634568256
30
0
41
1
10
-12.3760079072084
20
0.46823433620375
30
0
41
1
10
-12.3912507161594
20
0.47248177544077
30
0
41
1
10
-12.3987563531804
20
0.474318017873884
30
0
41
1
10
-12.4205497597282
20
0.478701530894455
30
0
41
1
10
-12.4339597259438
20
0.480156666608053
30
0
41
1
10
-12.4514152534257
20
0.478821439948945
30
0
41
1
10
-12.4568329303758
20
0.477746501187454
30
0
41
1
10
-12.4636450953421
20
0.47495820558143
30
0
41
1
10
-12.4657065335108
20
0.473834537101368
30
0
41
1
10
-12.4693513853986
20
0.471142526978696
30
0
41
1
10
-12.4709433497243
20
0.469557994706776
30
0
41
1
10
-12.4747761141799
20
0.464180222176765
30
0
41
1
10
-12.4761223246412
20
0.459769092372454
30
0
41
1
10
-12.4760958204851
20
0.449081203462839
30
0
41
1
10
-12.4747089449443
20
0.443053990405275
30
0
41
1
10
-12.470827460083
20
0.433240182207101
30
0
41
1
10
-12.4692288824021
20
0.429837099363681
30
0
41
1
10
-12.4655825007594
20
0.422985527209846
30
0
41
1
10
-12.4635248995896
20
0.419510621874593
30
0
41
1
10
-12.4567374379799
20
0.408956814071246
30
0
41
1
10
-12.4513585152093
20
0.401708771010675
30
0
41
1
10
-12.4454802424852
20
0.394519052838319
30
0
0
SPLINE
5
157
100
AcDbEntity
8
1
62
256
6
ByLayer
370
18
48
1
60
0
100
AcDbSpline
70
4
71
3
72
8
73
4
40
0
40
0
40
0
40
0
40
1
40
1
40
1
40
1
41
1
10
-11.0361737618139
20
-0.249980947161674
30
0
41
1
10
-11.4329616463351
20
-0.0414960685943413
30
0
41
1
10
-11.8249154221808
20
0.173606852417663
30
0
41
1
10
-12.21262584537
20
0.394519052838319
30
0
0
SPLINE
5
158
100
AcDbEntity
8
1
62
256
6
ByLayer
370
18
48
1
60
0
100
AcDbSpline
70
4
71
3
72
18
73
14
40
0
40
0
40
0
40
0
40
0.124999999999995
40
0.124999999999995
40
0.24999999999999
40
0.24999999999999
40
0.499999999999991
40
0.499999999999991
40
0.624999999999992
40
0.624999999999992
40
0.749999999999992
40
0.749999999999992
40
1
40
1
40
1
40
1
41
1
10
-10.8100221617362
20
-0.324980947161663
30
0
41
1
10
-10.8180111708273
20
-0.324980947160952
30
0
41
1
10
-10.8264247732998
20
-0.324303802427465
30
0
41
1
10
-10.8438730220196
20
-0.321952441620653
30
0
41
1
10
-10.8529592725556
20
-0.320261231068514
30
0
41
1
10
-10.8805796347571
20
-0.314041022539698
30
0
41
1
10
-10.8994387758156
20
-0.308419743129093
30
0
41
1
10
-10.9282051094205
20
-0.298394950509135
30
0
41
1
10
-10.9378759446479
20
-0.294780090670855
30
0
41
1
10
-10.9573700935551
20
-0.28704319003694
30
0
41
1
10
-10.9672176050399
20
-0.282909900397783
30
0
41
1
10
-10.9967579988524
20
-0.269872232720218
30
0
41
1
10
-11.0164600587408
20
-0.260339148990965
30
0
41
1
10
-11.0361737618139
20
-0.249980947161674
30
0
0
SPLINE
5
159
100
AcDbEntity
8
1
62
256
6
ByLayer
370
18
48
1
60
0
100
AcDbSpline
70
4
71
3
72
22
73
18
40
0
40
0
40
0
40
0
40
0.125
40
0.125
40
0.25
40
0.25
40
0.375
40
0.375
40
0.5
40
0.5
40
0.625
40
0.625
40
0.75
40
0.75
40
0.875
40
0.875
40
1
40
1
40
1
40
1
41
1
10
-10.588146538497
20
-0.249980947159827
30
0
41
1
10
-10.5838159736942
20
-0.255144731035813
30
0
41
1
10
-10.5798645746344
20
-0.260343891665002
30
0
41
1
10
-10.572985089628
20
-0.27083784852482
30
0
41
1
10
-10.5701679829123
20
-0.275969703602755
30
0
41
1
10
-10.5660666715437
20
-0.285914845664848
30
0
41
1
10
-10.5647901952416
20
-0.290809930744786
30
0
41
1
10
-10.5642045954565
20
-0.299573635406631
30
0
41
1
10
-10.5648541823852
20
-0.303528393936119
30
0
41
1
10
-10.5679631001511
20
-0.310436416643597
30
0
41
1
10
-10.5703512144501
20
-0.313281206584975
30
0
41
1
10
-10.5764671398953
20
-0.317988035234265
30
0
41
1
10
-10.5801191826616
20
-0.319788199103215
30
0
41
1
10
-10.5882140101569
20
-0.322533301974119
30
0
41
1
10
-10.5926877142222
20
-0.323486343691656
30
0
41
1
10
-10.6022321565404
20
-0.32471243842005
30
0
41
1
10
-10.6072496942067
20
-0.324980947163254
30
0
41
1
10
-10.6124575382183
20
-0.324980947163198
30
0
0
SPLINE
5
15A
100
AcDbEntity
8
1
62
256
6
ByLayer
370
18
48
1
60
0
100
AcDbSpline
70
4
71
3
72
8
73
4
40
0
40
0
40
0
40
0
40
1
40
1
40
1
40
1
41
1
10
-11.1279670839745
20
0.394519052838319
30
0
41
1
10
-10.9481691234914
20
0.179596378150791
30
0
41
1
10
-10.7682360652239
20
-0.0352414300963915
30
0
41
1
10
-10.5881465384974
20
-0.249980947159912
30
0
0
SPLINE
5
15B
100
AcDbEntity
8
1
62
256
6
ByLayer
370
18
48
1
60
0
100
AcDbSpline
70
4
71
3
72
39
73
35
40
0
40
0
40
0
40
0
40
0.125000000000014
40
0.125000000000014
40
0.250000000000029
40
0.250000000000029
40
0.375000000000043
40
0.375000000000043
40
0.437500000000046
40
0.437500000000046
40
0.500000000000049
40
0.500000000000049
40
0.562500000000052
40
0.562500000000052
40
0.625000000000055
40
0.625000000000055
40
0.687500000000058
40
0.687500000000058
40
0.718750000000053
40
0.718750000000053
40
0.750000000000048
40
0.781250000000043
40
0.781250000000043
40
0.812500000000037
40
0.812500000000037
40
0.843750000000032
40
0.843750000000032
40
0.875000000000027
40
0.875000000000027
40
0.906250000000021
40
0.906250000000021
40
0.937500000000016
40
0.937500000000016
40
1
40
1
40
1
40
1
41
1
10
-10.8261977204866
20
0.394519052838319
30
0
41
1
10
-10.8453613808028
20
0.403822742416708
30
0
41
1
10
-10.8644350163225
20
0.412508030361977
30
0
41
1
10
-10.9024018906364
20
0.428670682946205
30
0
41
1
10
-10.9212952504409
20
0.436148777585913
30
0
41
1
10
-10.958882884293
20
0.449784789803459
30
0
41
1
10
-10.9775778122249
20
0.455947419880573
30
0
41
1
10
-11.0054357249662
20
0.463959959019945
30
0
41
1
10
-11.0147120130597
20
0.466427265972556
30
0
41
1
10
-11.0329270751786
20
0.47080817215442
30
0
41
1
10
-11.0418937770116
20
0.472731225930374
30
0
41
1
10
-11.0594969792525
20
0.475947166332247
30
0
41
1
10
-11.0681342039558
20
0.477241484467243
30
0
41
1
10
-11.0849977650711
20
0.479041057890981
30
0
41
1
10
-11.0932713386151
20
0.479548725267819
30
0
41
1
10
-11.1090219945275
20
0.479486703751746
30
0
41
1
10
-11.1164767895555
20
0.478927144527404
30
0
41
1
10
-11.1267820133678
20
0.476978430843047
30
0
41
1
10
-11.1300670569308
20
0.476138633700827
30
0
41
1
10
-11.1361417146117
20
0.474049581821959
30
0
41
1
10
-11.1417564108312
20
0.471545769909596
30
0
41
1
10
-11.1462927930953
20
0.468066856897167
30
0
41
1
10
-11.1501654640366
20
0.463986118035706
30
0
41
1
10
-11.1517438299298
20
0.461655824862362
30
0
41
1
10
-11.1540017219895
20
0.456500109917954
30
0
41
1
10
-11.1547000127545
20
0.453656662833254
30
0
41
1
10
-11.1551425423024
20
0.447385299333632
30
0
41
1
10
-11.1548792054188
20
0.444063384204014
30
0
41
1
10
-11.1534486470362
20
0.43707126200934
30
0
41
1
10
-11.1522661294609
20
0.433367252098947
30
0
41
1
10
-11.1491042633321
20
0.425789142768139
30
0
41
1
10
-11.147148000852
20
0.421949799605244
30
0
41
1
10
-11.1403381258876
20
0.410305290730918
30
0
41
1
10
-11.1344994067131
20
0.402327507790147
30
0
41
1
10
-11.1279670839746
20
0.394519052838319
30
0
0
SPLINE
5
15C
100
AcDbEntity
8
1
62
256
6
ByLayer
370
18
48
1
60
0
100
AcDbSpline
70
4
71
3
72
8
73
4
40
0
40
0
40
0
40
0
40
1
40
1
40
1
40
1
41
1
10
-9.42014604979883
20
-0.249980947161674
30
0
41
1
10
-9.89509800998097
20
-0.045403532794694
30
0
41
1
10
-10.3635024894917
20
0.169886976943701
30
0
41
1
10
-10.8261977204866
20
0.394519052838319
30
0
0
SPLINE
5
15D
100
AcDbEntity
8
1
62
256
6
ByLayer
370
18
48
1
60
0
100
AcDbSpline
70
4
71
3
72
18
73
14
40
0
40
0
40
0
40
0
40
0.125000000000001
40
0.125000000000001
40
0.250000000000003
40
0.250000000000003
40
0.375000000000005
40
0.375000000000005
40
0.500000000000006
40
0.500000000000006
40
0.750000000000003
40
0.750000000000003
40
1
40
1
40
1
40
1
41
1
10
-9.13284665392268
20
-0.324980947161691
30
0
41
1
10
-9.14372986088287
20
-0.32498094716118
30
0
41
1
10
-9.154948133998
20
-0.324297936899598
30
0
41
1
10
-9.17785494091433
20
-0.321962244274403
30
0
41
1
10
-9.18954659680881
20
-0.320303380454163
30
0
41
1
10
-9.21330961472532
20
-0.31619590572825
30
0
41
1
10
-9.22532162877246
20
-0.313754324838612
30
0
41
1
10
-9.2493560957974
20
-0.308270592014935
30
0
41
1
10
-9.26141348776238
20
-0.305221378626044
30
0
41
1
10
-9.29769042100244
20
-0.295264739422492
30
0
41
1
10
-9.3220131721886
20
-0.287558568041959
30
0
41
1
10
-9.3709080164588
20
-0.270230194328264
30
0
41
1
10
-9.39555423460408
20
-0.260573449959651
30
0
41
1
10
-9.42014604979883
20
-0.249980947161674
30
0
0
SPLINE
5
15E
100
AcDbEntity
8
1
62
256
6
ByLayer
370
18
48
1
60
0
100
AcDbSpline
70
4
71
3
72
28
73
24
40
0
40
0
40
0
40
0
40
0.0625000000000031
40
0.0625000000000031
40
0.125000000000006
40
0.125000000000006
40
0.187500000000009
40
0.187500000000009
40
0.250000000000012
40
0.250000000000012
40
0.312500000000015
40
0.312500000000015
40
0.375000000000019
40
0.375000000000019
40
0.437500000000022
40
0.437500000000022
40
0.500000000000025
40
0.500000000000025
40
0.625000000000019
40
0.625000000000019
40
0.750000000000012
40
0.750000000000012
40
1
40
1
40
1
40
1
41
1
10
-8.81287846405198
20
-0.249980947155791
30
0
41
1
10
-8.81042372701617
20
-0.25268050799562
30
0
41
1
10
-8.80809426650325
20
-0.255412160239644
30
0
41
1
10
-8.80374131425188
20
-0.260953956620313
30
0
41
1
10
-8.8017150992666
20
-0.263772010194657
30
0
41
1
10
-8.79813432448748
20
-0.269361345622173
30
0
41
1
10
-8.79656638697134
20
-0.272147870695989
30
0
41
1
10
-8.79395351452453
20
-0.277701759323776
30
0
41
1
10
-8.79290203059387
20
-0.280494627087478
30
0
41
1
10
-8.79146539182059
20
-0.285933125165428
30
0
41
1
10
-8.79108275102192
20
-0.288549776175699
30
0
41
1
10
-8.79100712746293
20
-0.293571945582585
30
0
41
1
10
-8.79132427301082
20
-0.295998566424203
30
0
41
1
10
-8.79261865796579
20
-0.30047339121117
30
0
41
1
10
-8.79358803963603
20
-0.302536520574051
30
0
41
1
10
-8.79609940480199
20
-0.306352422583814
30
0
41
1
10
-8.79764866346815
20
-0.308104402530773
30
0
41
1
10
-8.80288537420071
20
-0.312803317823807
30
0
41
1
10
-8.80719346932875
20
-0.315274284744561
30
0
41
1
10
-8.81692618508802
20
-0.319278475547208
30
0
41
1
10
-8.82221699514488
20
-0.320757191484859
30
0
41
1
10
-8.83894481110522
20
-0.324132477893784
30
0
41
1
10
-8.85129538935945
20
-0.324980947162288
30
0
41
1
10
-8.86408179867615
20
-0.32498094716226
30
0
0
SPLINE
5
15F
100
AcDbEntity
8
1
62
256
6
ByLayer
370
18
48
1
60
0
100
AcDbSpline
70
4
71
3
72
8
73
4
40
0
40
0
40
0
40
0
40
1
40
1
40
1
40
1
41
1
10
-9.3953884633876
20
0.394519052838319
30
0
41
1
10
-9.20190632438599
20
0.179219444300429
30
0
41
1
10
-9.0077785167926
20
-0.0356424895420275
30
0
41
1
10
-8.81287846405294
20
-0.249980947156075
30
0
0
SPLINE
5
160
100
AcDbEntity
8
1
62
256
6
ByLayer
370
18
48
1
60
0
100
AcDbSpline
70
4
71
3
72
38
73
34
40
0
40
0
40
0
40
0
40
0.250000000000003
40
0.250000000000003
40
0.37500000000001
40
0.37500000000001
40
0.500000000000017
40
0.500000000000017
40
0.562500000000022
40
0.562500000000022
40
0.625000000000027
40
0.625000000000027
40
0.687500000000032
40
0.687500000000032
40
0.750000000000037
40
0.750000000000037
40
0.78125000000004
40
0.78125000000004
40
0.812500000000042
40
0.812500000000042
40
0.843750000000045
40
0.843750000000045
40
0.859375000000043
40
0.859375000000043
40
0.875000000000041
40
0.875000000000041
40
0.906250000000031
40
0.906250000000031
40
0.93750000000002
40
0.93750000000002
40
0.96875000000001
40
0.96875000000001
40
1
40
1
40
1
40
1
41
1
10
-8.98692851463423
20
0.394519052838433
30
0
41
1
10
-9.03326195647881
20
0.412493674837833
30
0
41
1
10
-9.07924677772215
20
0.428095750861701
30
0
41
1
10
-9.14767753970108
20
0.447892731526878
30
0
41
1
10
-9.17039514074557
20
0.453877630445248
30
0
41
1
10
-9.21561276810894
20
0.464384190703157
30
0
41
1
10
-9.23811409009988
20
0.468915971092088
30
0
41
1
10
-9.27164840317903
20
0.474201921571563
30
0
41
1
10
-9.28280754864187
20
0.475708447562795
30
0
41
1
10
-9.30470496885985
20
0.478037327116795
30
0
41
1
10
-9.31547973767195
20
0.478868132934792
30
0
41
1
10
-9.33658051127526
20
0.479660016760334
30
0
41
1
10
-9.34696068021995
20
0.479621526876542
30
0
41
1
10
-9.36677891891844
20
0.478317730661246
30
0
41
1
10
-9.37622144042925
20
0.477070148566497
30
0
41
1
10
-9.3893009796476
20
0.473801534714227
30
0
41
1
10
-9.39349606281391
20
0.472464916766313
30
0
41
1
10
-9.40121470148264
20
0.469229096419326
30
0
41
1
10
-9.40475722197041
20
0.467329854200074
30
0
41
1
10
-9.41101084625686
20
0.462790271628421
30
0
41
1
10
-9.41370522919763
20
0.460142637892375
30
0
41
1
10
-9.41676860092079
20
0.455629436905042
30
0
41
1
10
-9.41763416504909
20
0.454029340103233
30
0
41
1
10
-9.41901882100981
20
0.450615689000983
30
0
41
1
10
-9.41953665683758
20
0.448791861472614
30
0
41
1
10
-9.42048798744298
20
0.44314609700092
30
0
41
1
10
-9.42034760074219
20
0.439106172816139
30
0
41
1
10
-9.41852742540985
20
0.430476184279087
30
0
41
1
10
-9.41685123823549
20
0.425966268108198
30
0
41
1
10
-9.41232312472627
20
0.416909228814092
30
0
41
1
10
-9.40943685546671
20
0.41229412988929
30
0
41
1
10
-9.40294265258265
20
0.403307302163142
30
0
41
1
10
-9.39931252043962
20
0.398885595145714
30
0
41
1
10
-9.39538846339337
20
0.394519052837154
30
0
0
SPLINE
5
161
100
AcDbEntity
8
1
62
256
6
ByLayer
370
18
48
1
60
0
100
AcDbSpline
70
4
71
3
72
8
73
4
40
0
40
0
40
0
40
0
40
1
40
1
40
1
40
1
41
1
10
-7.15410175340969
20
-0.249980947161674
30
0
41
1
10
-7.77427580892314
20
-0.0548377836275904
30
0
41
1
10
-8.38478343725899
20
0.160922546217108
30
0
41
1
10
-8.98692851463423
20
0.394519052838319
30
0
0
SPLINE
5
162
100
AcDbEntity
8
1
62
256
6
ByLayer
370
18
48
1
60
0
100
AcDbSpline
70
4
71
3
72
17
73
13
40
0
40
0
40
0
40
0
40
0.124999999999998
40
0.124999999999998
40
0.249999999999996
40
0.249999999999996
40
0.374999999999993
40
0.374999999999993
40
0.499999999999991
40
0.499999999999991
40
0.749999999999996
40
1
40
1
40
1
40
1
41
1
10
-6.74249188881706
20
-0.324980947161663
30
0
41
1
10
-6.75895378391419
20
-0.324980947161606
30
0
41
1
10
-6.77560867949242
20
-0.324310745266985
30
0
41
1
10
-6.8091790679558
20
-0.322040380930361
30
0
41
1
10
-6.82609666353446
20
-0.320433354681313
30
0
41
1
10
-6.8601373246226
20
-0.316470394553619
30
0
41
1
10
-6.87726105822412
20
-0.314112278634411
30
0
41
1
10
-6.91168423969091
20
-0.308745403149373
30
0
41
1
10
-6.92901200463669
20
-0.305730156657234
30
0
41
1
10
-6.98098651916527
20
-0.295834974764006
30
0
41
1
10
-7.05026156071182
20
-0.280409342926959
30
0
41
1
10
-7.11949273474031
20
-0.260870976065661
30
0
41
1
10
-7.15410175340969
20
-0.249980947161816
30
0
0
SPLINE
5
163
100
AcDbEntity
8
1
62
256
6
ByLayer
370
18
48
1
60
0
100
AcDbSpline
70
4
71
3
72
28
73
24
40
0
40
0
40
0
40
0
40
0.0625000000000022
40
0.0625000000000022
40
0.125000000000004
40
0.125000000000004
40
0.187500000000006
40
0.187500000000006
40
0.250000000000009
40
0.250000000000009
40
0.312500000000011
40
0.312500000000011
40
0.375000000000013
40
0.375000000000013
40
0.437500000000015
40
0.437500000000015
40
0.500000000000017
40
0.500000000000017
40
0.625000000000013
40
0.625000000000013
40
0.750000000000009
40
0.750000000000009
40
1
40
1
40
1
40
1
41
1
10
-6.22292588127033
20
-0.249980947140926
30
0
41
1
10
-6.21958846278596
20
-0.252886604389005
30
0
41
1
10
-6.21643658084923
20
-0.2558747816623
30
0
41
1
10
-6.21065250989122
20
-0.262082766471423
30
0
41
1
10
-6.20799059239903
20
-0.265341649736172
30
0
41
1
10
-6.20359999834165
20
-0.272014335422199
30
0
41
1
10
-6.20188043678124
20
-0.275412687019269
30
0
41
1
10
-6.19979992398484
20
-0.282212586931053
30
0
41
1
10
-6.19947715640618
20
-0.285483953660503
30
0
41
1
10
-6.20034973300679
20
-0.291754064168089
30
0
41
1
10
-6.20153703134235
20
-0.294630037775505
30
0
41
1
10
-6.20507139005912
20
-0.299823372219606
30
0
41
1
10
-6.20738715966201
20
-0.302109007415197
30
0
41
1
10
-6.21267351534163
20
-0.30614672963037
30
0
41
1
10
-6.21568609914914
20
-0.307929189855884
30
0
41
1
10
-6.22210698144582
20
-0.31107607510512
30
0
41
1
10
-6.22550351037791
20
-0.312439632077798
30
0
41
1
10
-6.23609002146526
20
-0.316080959786547
30
0
41
1
10
-6.24369435696323
20
-0.317921804204559
30
0
41
1
10
-6.2594332674004
20
-0.320855188810611
30
0
41
1
10
-6.2674958893698
20
-0.321930095246671
30
0
41
1
10
-6.29206351344482
20
-0.324375867069932
30
0
41
1
10
-6.30894164051668
20
-0.324980947161663
30
0
41
1
10
-6.32610759209322
20
-0.324980947161663
30
0
0
SPLINE
5
164
100
AcDbEntity
8
1
62
256
6
ByLayer
370
18
48
1
60
0
100
AcDbSpline
70
4
71
3
72
8
73
4
40
0
40
0
40
0
40
0
40
1
40
1
40
1
40
1
41
1
10
-6.94370199056442
20
0.394519052830475
30
0
41
1
10
-6.70648353683777
20
0.17713567176861
30
0
41
1
10
-6.46649386216939
20
-0.0379233125644021
30
0
41
1
10
-6.2229258812701
20
-0.249980947141125
30
0
0
SPLINE
5
165
100
AcDbEntity
8
1
62
256
6
ByLayer
370
18
48
1
60
0
100
AcDbSpline
70
4
71
3
72
38
73
34
40
0
40
0
40
0
40
0
40
0.250000000000001
40
0.250000000000001
40
0.375000000000001
40
0.375000000000001
40
0.500000000000002
40
0.500000000000002
40
0.625000000000002
40
0.625000000000002
40
0.687500000000001
40
0.687500000000001
40
0.75
40
0.75
40
0.812499999999999
40
0.812499999999999
40
0.843749999999999
40
0.843749999999999
40
0.859374999999996
40
0.859374999999996
40
0.874999999999994
40
0.874999999999994
40
0.906249999999991
40
0.906249999999991
40
0.921874999999992
40
0.921874999999992
40
0.937499999999993
40
0.937499999999993
40
0.953124999999994
40
0.953124999999994
40
0.968749999999995
40
0.968749999999995
40
1
40
1
40
1
40
1
41
1
10
-6.31056345909113
20
0.394519052838348
30
0
41
1
10
-6.37481328661716
20
0.411390584814342
30
0
41
1
10
-6.43896947048802
20
0.426235064494222
30
0
41
1
10
-6.53505244750718
20
0.44537695498147
30
0
41
1
10
-6.56705479949272
20
0.451225942276523
30
0
41
1
10
-6.63100511188702
20
0.461668317289963
30
0
41
1
10
-6.66283482364827
20
0.466246113727465
30
0
41
1
10
-6.72600609437083
20
0.473707937008868
30
0
41
1
10
-6.75736948056058
20
0.476614959196013
30
0
41
1
10
-6.8039167291696
20
0.479030439618185
30
0
41
1
10
-6.81927766291614
20
0.479502300680736
30
0
41
1
10
-6.8495771870079
20
0.479534942909794
30
0
41
1
10
-6.86452894475394
20
0.479103966090861
30
0
41
1
10
-6.89376528286891
20
0.476844350446214
30
0
41
1
10
-6.90791400683659
20
0.475054351303299
30
0
41
1
10
-6.92784789140543
20
0.470525557031891
30
0
41
1
10
-6.9343104346141
20
0.468687677720766
30
0
41
1
10
-6.94329636121341
20
0.465259768489347
30
0
41
1
10
-6.9461753105233
20
0.464004555016857
30
0
41
1
10
-6.9516377138298
20
0.461207412579711
30
0
41
1
10
-6.95423460305094
20
0.459654605409497
30
0
41
1
10
-6.96127333729441
20
0.454550304265439
30
0
41
1
10
-6.96505057587959
20
0.450546752266519
30
0
41
1
10
-6.96837681671261
20
0.44313609854143
30
0
41
1
10
-6.96904305703674
20
0.440519738392709
30
0
41
1
10
-6.96942508964125
20
0.434972492078259
30
0
41
1
10
-6.96912327073855
20
0.432023475740436
30
0
41
1
10
-6.96761586971135
20
0.426116302492147
30
0
41
1
10
-6.96640667043525
20
0.423099880046607
30
0
41
1
10
-6.96325940255426
20
0.417097475831469
30
0
41
1
10
-6.96135311380292
20
0.414155954724294
30
0
41
1
10
-6.95487075364812
20
0.405468539475009
30
0
41
1
10
-6.9495089607814
20
0.399840471962022
30
0
41
1
10
-6.94370199056817
20
0.394519052828656
30
0
0
SPLINE
5
166
100
AcDbEntity
8
1
62
256
6
ByLayer
370
18
48
1
60
0
100
AcDbSpline
70
4
71
3
72
8
73
4
40
0
40
0
40
0
40
0
40
1
40
1
40
1
40
1
41
1
10
-3.02046224885072
20
-0.249980947161674
30
0
41
1
10
-4.1359861011274
20
-0.107222523982614
30
0
41
1
10
-5.23174171602679
20
0.111228400779481
30
0
41
1
10
-6.31056345909118
20
0.394519052838035
30
0
0
SPLINE
5
167
100
AcDbEntity
8
1
62
256
6
ByLayer
370
18
48
1
60
0
100
AcDbSpline
70
4
71
3
72
14
73
10
40
0
40
0
40
0
40
0
40
0.25
40
0.25
40
0.5
40
0.5
40
0.75
40
0.75
40
1
40
1
40
1
40
1
41
1
10
-1.73594520006438
20
-0.324980947161805
30
0
41
1
10
-1.84314979610443
20
-0.324980947161805
30
0
41
1
10
-1.95042328219969
20
-0.323449254272617
30
0
41
1
10
-2.16478964220224
20
-0.317513647984981
30
0
41
1
10
-2.27190023278152
20
-0.313100742437058
30
0
41
1
10
-2.4859848606051
20
-0.301152741664794
30
0
41
1
10
-2.59295877929037
20
-0.293621089038197
30
0
41
1
10
-2.80678930238935
20
-0.274859400504965
30
0
41
1
10
-2.91364525025708
20
-0.263650781524092
30
0
41
1
10
-3.02046224885072
20
-0.249980947161674
30
0
0
SPLINE
5
168
100
AcDbEntity
8
1
62
256
6
ByLayer
370
18
48
1
60
0
100
AcDbSpline
70
4
71
3
72
14
73
10
40
0
40
0
40
0
40
0
40
0.25
40
0.25
40
0.5
40
0.5
40
0.75
40
0.75
40
1
40
1
40
1
40
1
41
1
10
3.02046224885072
20
-0.249980947161873
30
0
41
1
10
2.91367618098349
20
-0.263646823185127
30
0
41
1
10
2.80666688413962
20
-0.274872902970941
30
0
41
1
10
2.59260836335662
20
-0.293649067375753
30
0
41
1
10
2.48557990191407
20
-0.301179376033105
30
0
41
1
10
2.27148283436816
20
-0.313119988055377
30
0
41
1
10
2.1644144863397
20
-0.317526654577222
30
0
41
1
10
1.95022075456762
20
-0.323452236129242
30
0
41
1
10
1.8430947417375
20
-0.324980947161691
30
0
41
1
10
1.73594520006438
20
-0.324980947161691
30
0
0
SPLINE
5
169
100
AcDbEntity
8
1
62
256
6
ByLayer
370
18
48
1
60
0
100
AcDbSpline
70
4
71
3
72
8
73
4
40
0
40
0
40
0
40
0
40
1
40
1
40
1
40
1
41
1
10
6.31056345909118
20
0.394519052838035
30
0
41
1
10
5.23174171602679
20
0.111228400779481
30
0
41
1
10
4.1359861011274
20
-0.107222523982614
30
0
41
1
10
3.02046224885072
20
-0.249980947161674
30
0
0
SPLINE
5
16A
100
AcDbEntity
8
1
62
256
6
ByLayer
370
18
48
1
60
0
100
AcDbSpline
70
4
71
3
72
12
73
8
40
0
40
0
40
0
40
0
40
0.25
40
0.25
40
0.5
40
0.5
40
1
40
1
40
1
40
1
41
1
10
6.69355414558757
20
0.469874487793419
30
0
41
1
10
6.66192879807258
20
0.466123694387676
30
0
41
1
10
6.63021453037217
20
0.461547007167866
30
0
41
1
10
6.56664196959386
20
0.451150599919458
30
0
41
1
10
6.53478321563193
20
0.445325136400498
30
0
41
1
10
6.43901320844608
20
0.42624012702143
30
0
41
1
10
6.37491154801668
20
0.411416387535041
30
0
41
1
10
6.31056345909113
20
0.394519052838518
30
0
0
SPLINE
5
16B
100
AcDbEntity
8
1
62
256
6
ByLayer
370
18
48
1
60
0
100
AcDbSpline
70
4
71
3
72
8
73
4
40
0
40
0
40
0
40
0
40
1
40
1
40
1
40
1
41
1
10
-14.5615187733782
20
0.236518773378151
30
0
41
1
10
-14.7076620247758
20
0.382662024775783
30
0
41
1
10
-14.8538226741323
20
0.528822674132243
30
0
41
1
10
-15
20
0.675000000000011
30
0
0
SPLINE
5
16C
100
AcDbEntity
8
1
62
256
6
ByLayer
370
18
48
1
60
0
100
AcDbSpline
70
4
71
3
72
22
73
18
40
0
40
0
40
0
40
0
40
0.0624999999999996
40
0.0624999999999996
40
0.124999999999999
40
0.124999999999999
40
0.249999999999999
40
0.249999999999999
40
0.312499999999998
40
0.312499999999998
40
0.374999999999998
40
0.374999999999998
40
0.499999999999998
40
0.499999999999998
40
0.749999999999999
40
0.749999999999999
40
1
40
1
40
1
40
1
41
1
10
-15
20
0.875
30
0
41
1
10
-15
20
0.880620876397472
30
0
41
1
10
-15
20
0.886248502296212
30
0
41
1
10
-15
20
0.897517369012405
30
0
41
1
10
-15
20
0.903183190877087
30
0
41
1
10
-15
20
0.919902945426429
30
0
41
1
10
-15
20
0.93074710848316
30
0
41
1
10
-15
20
0.946619433588097
30
0
41
1
10
-15
20
0.951866836091625
30
0
41
1
10
-15
20
0.962103565316255
30
0
41
1
10
-15
20
0.967094449797713
30
0
41
1
10
-15
20
0.981731538104299
30
0
41
1
10
-15
20
0.991044286251395
30
0
41
1
10
-15
20
1.01791729711607
30
0
41
1
10
-15
20
1.03444293233795
30
0
41
1
10
-15
20
1.06545060727757
30
0
41
1
10
-15
20
1.07965053538228
30
0
41
1
10
-15
20
1.09294494718202
30
0
0
SPLINE
5
16D
100
AcDbEntity
8
1
62
256
6
ByLayer
370
18
48
1
60
0
100
AcDbSpline
70
4
71
3
72
22
73
18
40
0
40
0
40
0
40
0
40
0.0625
40
0.0625
40
0.125
40
0.125
40
0.25
40
0.25
40
0.375
40
0.375
40
0.5
40
0.5
40
0.75
40
0.75
40
0.875
40
0.875
40
1
40
1
40
1
40
1
41
1
10
0
20
1.09294494717704
30
0
41
1
10
0.0800981858163823
20
1.09294494717704
30
0
41
1
10
0.160192273740733
20
1.09419651621937
30
0
41
1
10
0.320142907991937
20
1.09903656234118
30
0
41
1
10
0.400036825752977
20
1.10262062605742
30
0
41
1
10
0.63951591598709
20
1.11627097285654
30
0
41
1
10
0.79890021114312
20
1.12920987497057
30
0
41
1
10
1.11739966174162
20
1.15893647544138
30
0
41
1
10
1.27651661638507
20
1.17569844456722
30
0
41
1
10
1.59468850096661
20
1.21010935876763
30
0
41
1
10
1.75374232379846
20
1.22777413586678
30
0
41
1
10
2.23101742109108
20
1.27914353384719
30
0
41
1
10
2.54935154345188
20
1.31123438852549
30
0
41
1
10
3.02771547473608
20
1.3470330625843
30
0
41
1
10
3.18731269091254
20
1.3569271163081
30
0
41
1
10
3.50691374383487
20
1.37090040104084
30
0
41
1
10
3.66691615628494
20
1.375
30
0
41
1
10
3.82720524665191
20
1.375
30
0
0
SPLINE
5
16E
100
AcDbEntity
8
1
62
256
6
ByLayer
370
18
48
1
60
0
100
AcDbSpline
70
4
71
3
72
36
73
32
40
0
40
0
40
0
40
0
40
0.0156250000000003
40
0.0156250000000003
40
0.0312500000000007
40
0.046875000000001
40
0.046875000000001
40
0.0625000000000012
40
0.0625000000000012
40
0.0937500000000017
40
0.0937500000000017
40
0.125000000000002
40
0.125000000000002
40
0.187500000000003
40
0.187500000000003
40
0.250000000000004
40
0.250000000000004
40
0.312500000000005
40
0.312500000000005
40
0.375000000000006
40
0.375000000000006
40
0.437500000000007
40
0.437500000000007
40
0.500000000000008
40
0.500000000000008
40
0.625000000000006
40
0.625000000000006
40
0.750000000000004
40
0.750000000000004
40
0.875000000000002
40
1
40
1
40
1
40
1
41
1
10
6.28692511341191
20
0.875
30
0
41
1
10
6.28692511341191
20
0.882604738711734
30
0
41
1
10
6.28659181926761
20
0.890221303335579
30
0
41
1
10
6.28529878112244
20
0.905200659380711
30
0
41
1
10
6.28338442152568
20
0.919965185976338
30
0
41
1
10
6.28031897384224
20
0.934331709864324
30
0
41
1
10
6.27671608012759
20
0.94851240524963
30
0
41
1
10
6.27463448705674
20
0.955538523591201
30
0
41
1
10
6.26776409544962
20
0.97599022310547
30
0
41
1
10
6.26234094343337
20
0.988892714979499
30
0
41
1
10
6.25019256882359
20
1.01356696832289
30
0
41
1
10
6.24341774994141
20
1.02539658520178
30
0
41
1
10
6.2220927945335
20
1.0586464102856
30
0
41
1
10
6.2064492360029
20
1.07820358178006
30
0
41
1
10
6.17343124954459
20
1.11415272387578
30
0
41
1
10
6.15603466070399
20
1.13050416932748
30
0
41
1
10
6.11997342660433
20
1.16088819474336
30
0
41
1
10
6.10126991883115
20
1.17492347154462
30
0
41
1
10
6.0633445389584
20
1.20084976284721
30
0
41
1
10
6.04405910226905
20
1.21279182818839
30
0
41
1
10
6.0049709469175
20
1.23503942362348
30
0
41
1
10
5.98513863305402
20
1.24535218166517
30
0
41
1
10
5.94539286456802
20
1.26442358161205
30
0
41
1
10
5.92543547435594
20
1.27320779090195
30
0
41
1
10
5.86534650163659
20
1.29763245146549
30
0
41
1
10
5.82500034898555
20
1.31136478351678
30
0
41
1
10
5.74383976703231
20
1.3346651791725
30
0
41
1
10
5.70302395949395
20
1.34422098646362
30
0
41
1
10
5.62096446549194
20
1.35952757958398
30
0
41
1
10
5.53847623485498
20
1.37102152384281
30
0
41
1
10
5.45514288141214
20
1.37500000000048
30
0
41
1
10
5.41325251264061
20
1.375
30
0
0
SPLINE
5
16F
100
AcDbEntity
8
1
62
256
6
ByLayer
370
18
48
1
60
0
100
AcDbSpline
70
4
71
3
72
8
73
4
40
0
40
0
40
0
40
0
40
1
40
1
40
1
40
1
41
1
10
6.69355414558757
20
0.469874487793419
30
0
41
1
10
6.55731573944584
20
0.535539348463317
30
0
41
1
10
6.42178857203643
20
0.603976268668788
30
0
41
1
10
6.28692511341183
20
0.674999999999983
30
0
0
SPLINE
5
170
100
AcDbEntity
8
1
62
256
6
ByLayer
370
18
48
1
60
0
100
AcDbSpline
70
4
71
3
72
8
73
4
40
0
40
0
40
0
40
0
40
1
40
1
40
1
40
1
41
1
10
7.66170677249707
20
0.0571915503148546
30
0
41
1
10
7.40963484275738
20
0.150215232757461
30
0
41
1
10
7.16026746261528
20
0.253779922263902
30
0
41
1
10
6.91329588661299
20
0.366682280557825
30
0
0
SPLINE
5
171
100
AcDbEntity
8
1
62
256
6
ByLayer
370
18
48
1
60
0
100
AcDbSpline
70
4
71
3
72
31
73
27
40
0
40
0
40
0
40
0
40
0.124999999999998
40
0.124999999999998
40
0.187499999999997
40
0.218749999999998
40
0.218749999999998
40
0.249999999999998
40
0.249999999999998
40
0.374999999999998
40
0.374999999999998
40
0.437499999999996
40
0.468749999999995
40
0.468749999999995
40
0.499999999999994
40
0.499999999999994
40
0.624999999999994
40
0.624999999999994
40
0.687499999999994
40
0.718749999999996
40
0.718749999999996
40
0.749999999999998
40
0.749999999999998
40
0.874999999999999
40
0.874999999999999
40
1
40
1
40
1
40
1
41
1
10
20.8077530495162
20
10.6264974255863
30
0
41
1
10
20.8308256159666
20
10.7087941774925
30
0
41
1
10
20.8603740751716
20
10.7883223880438
30
0
41
1
10
20.9141292380316
20
10.9035821796332
30
0
41
1
10
20.9433767451432
20
10.9601988966267
30
0
41
1
10
20.9762324449904
20
11.0152730570672
30
0
41
1
10
20.9989516094958
20
11.0516405834195
30
0
41
1
10
21.0107438426141
20
11.069685498736
30
0
41
1
10
21.0713264763136
20
11.1583709520619
30
0
41
1
10
21.1250929109878
20
11.2247125175292
30
0
41
1
10
21.2135056553115
20
11.3174775486203
30
0
41
1
10
21.2596624626853
20
11.362164837013
30
0
41
1
10
21.3087976127226
20
11.4042634891247
30
0
41
1
10
21.3422284873196
20
11.4317433541053
30
0
41
1
10
21.3593159257338
20
11.4452168454599
30
0
41
1
10
21.4460366998686
20
11.5107618548521
30
0
41
1
10
21.5189580548196
20
11.5570380897294
30
0
41
1
10
21.6335154827936
20
11.6174590323576
30
0
41
1
10
21.692094601535
20
11.6454097589603
30
0
41
1
10
21.7526569178193
20
11.6699142353524
30
0
41
1
10
21.7934804044853
20
11.6854709940174
30
0
41
1
10
21.8141435812839
20
11.6928689952412
30
0
41
1
10
21.9183037444541
20
11.7277703899384
30
0
41
1
10
22.0029066626559
20
11.7485990713792
30
0
41
1
10
22.174576366173
20
11.7765484135941
30
0
41
1
10
22.2616429543477
20
11.7836701711828
30
0
41
1
10
22.35
20
11.783612313574
30
0
0
SPLINE
5
172
100
AcDbEntity
8
1
62
256
6
ByLayer
370
18
48
1
60
0
100
AcDbSpline
70
4
71
3
72
18
73
14
40
0
40
0
40
0
40
0
40
0.250000000000006
40
0.250000000000006
40
0.500000000000012
40
0.500000000000012
40
0.625000000000009
40
0.625000000000009
40
0.750000000000006
40
0.750000000000006
40
0.875000000000003
40
0.875000000000003
40
1
40
1
40
1
40
1
41
1
10
8.97509300113904
20
-0.269594177821347
30
0
41
1
10
9.01152644313692
20
-0.276266358807106
30
0
41
1
10
9.04786915185497
20
-0.282718617451991
30
0
41
1
10
9.12036847898457
20
-0.294911325240093
30
0
41
1
10
9.15652522117631
20
-0.300657493979827
30
0
41
1
10
9.21061352336176
20
-0.308394804813759
30
0
41
1
10
9.2286184412612
20
-0.310825062109671
30
0
41
1
10
9.26457702835458
20
-0.315286220540855
30
0
41
1
10
9.28248929533834
20
-0.317312073862979
30
0
41
1
10
9.31797101305719
20
-0.320786465321106
30
0
41
1
10
9.33556537132938
20
-0.322240606437305
30
0
41
1
10
9.37037734087883
20
-0.324333802126603
30
0
41
1
10
9.38759768040057
20
-0.324980947161663
30
0
41
1
10
9.40454881002665
20
-0.324980947161663
30
0
0
SPLINE
5
173
100
AcDbEntity
8
1
62
256
6
ByLayer
370
18
48
1
60
0
100
AcDbSpline
70
4
71
3
72
8
73
4
40
0
40
0
40
0
40
0
40
1
40
1
40
1
40
1
41
1
10
15.2430820962789
20
0.129903810567669
30
0
41
1
10
15.4272614047534
20
0.311558795543561
30
0
41
1
10
15.6113958293534
20
0.493259035239646
30
0
41
1
10
15.7954898626159
20
0.674999999999983
30
0
0
SPLINE
5
174
100
AcDbEntity
8
1
62
256
6
ByLayer
370
18
48
1
60
0
100
AcDbSpline
70
4
71
3
72
8
73
4
40
0
40
0
40
0
40
0
40
1
40
1
40
1
40
1
41
1
10
14.8184692127086
20
-0.249980947161674
30
0
41
1
10
14.9604945734528
20
-0.123759749017154
30
0
41
1
10
15.1020216400389
20
0.0028773178347024
30
0
41
1
10
15.2430820962789
20
0.129903810567669
30
0
0
SPLINE
5
175
100
AcDbEntity
8
1
62
256
6
ByLayer
370
18
48
1
60
0
100
AcDbSpline
70
4
71
3
72
18
73
14
40
0
40
0
40
0
40
0
40
0.124999999999997
40
0.124999999999997
40
0.249999999999994
40
0.249999999999994
40
0.499999999999976
40
0.499999999999976
40
0.624999999999977
40
0.624999999999977
40
0.749999999999979
40
0.749999999999979
40
1
40
1
40
1
40
1
41
1
10
14.7171680292953
20
-0.324980947161748
30
0
41
1
10
14.7186893510728
20
-0.324980947161748
30
0
41
1
10
14.7207746365131
20
-0.324388699392472
30
0
41
1
10
14.7259716490942
20
-0.322125675212902
30
0
41
1
10
14.729075461519
20
-0.320451985953838
30
0
41
1
10
14.7393963271011
20
-0.314194627055087
30
0
41
1
10
14.7478183865456
20
-0.308259492032221
30
0
41
1
10
14.7614560038651
20
-0.297902603733888
30
0
41
1
10
14.7661922846909
20
-0.294192871663853
30
0
41
1
10
14.7760027492335
20
-0.286317935978389
30
0
41
1
10
14.7810985572145
20
-0.28213438487478
30
0
41
1
10
14.7967015141747
20
-0.269079983040143
30
0
41
1
10
14.8074408879534
20
-0.25978207251589
30
0
41
1
10
14.8184692127086
20
-0.249980947161674
30
0
0
SPLINE
5
176
100
AcDbEntity
8
1
62
256
6
ByLayer
370
18
48
1
60
0
100
AcDbSpline
70
4
71
3
72
12
73
8
40
0
40
0
40
0
40
0
40
0.358938353212457
40
0.358938353212457
40
0.717876706424914
40
0.717876706424914
40
1
40
1
40
1
40
1
41
1
10
9.13284665391032
20
-0.324980947161691
30
0
41
1
10
9.14372986087076
20
-0.324980947161691
30
0
41
1
10
9.15494813398621
20
-0.324297936900507
30
0
41
1
10
9.1778549409033
20
-0.321962244275824
30
0
41
1
10
9.18954659679824
20
-0.320303380455783
30
0
41
1
10
9.21076689725157
20
-0.316635418411323
30
0
41
1
10
9.22018631298096
20
-0.314781589375514
30
0
41
1
10
9.2296255172497
20
-0.31273067205359
30
0
0
SPLINE
5
177
100
AcDbEntity
8
1
62
256
6
ByLayer
370
13
48
1
60
0
100
AcDbSpline
70
4
71
3
72
14
73
10
40
0
40
0
40
0
40
0
40
0.394147840816279
40
0.394147840816279
40
0.788295681632558
40
0.788295681632558
40
0.985369602040681
40
0.985369602040681
40
1
40
1
40
1
40
1
41
1
10
31.6379696656282
20
13.8303920746726
30
0
41
1
10
31.6493831170833
20
13.8329824609855
30
0
41
1
10
31.6614389618912
20
13.8355533660984
30
0
41
1
10
31.6874406091094
20
13.840637861531
30
0
41
1
10
31.701371748778
20
13.8431536351085
30
0
41
1
10
31.724587992279
20
13.8468515140185
30
0
41
1
10
31.7327008541315
20
13.848068340247
30
0
41
1
10
31.7419750528587
20
13.8493518906999
30
0
41
1
10
31.7426189089842
20
13.8494404869962
30
0
41
1
10
31.743265788736
20
13.8495289686903
30
0
0
SPLINE
5
178
100
AcDbEntity
8
1
62
256
6
ByLayer
370
18
48
1
60
0
100
AcDbSpline
70
4
71
3
72
8
73
4
40
0
40
0
40
0
40
0
40
1
40
1
40
1
40
1
41
1
10
26.75
20
14.0989763597606
30
0
41
1
10
27.8583333364494
20
14.0989810284329
30
0
41
1
10
28.9666666713862
20
14.0989889308845
30
0
41
1
10
30.075
20
14.099000067606
30
0
0
SPLINE
5
179
100
AcDbEntity
8
1
62
256
6
ByLayer
370
18
48
1
60
0
100
AcDbSpline
70
4
71
3
72
8
73
4
40
0
40
0
40
0
40
0
40
1
40
1
40
1
40
1
41
1
10
25.8354880000055
20
14.0989732414706
30
0
41
1
10
26.1403253985607
20
14.0989740362537
30
0
41
1
10
26.4451627134071
20
14.0989750756836
30
0
41
1
10
26.75
20
14.0989763597606
30
0
0
SPLINE
5
17A
100
AcDbEntity
8
1
62
256
6
ByLayer
370
18
48
1
60
0
100
AcDbSpline
70
4
71
3
72
8
73
4
40
0
40
0
40
0
40
0
40
1
40
1
40
1
40
1
41
1
10
31.8624323856591
20
13.8764050120913
30
0
41
1
10
31.8490608709805
20
13.8756199255128
30
0
41
1
10
31.8357630337702
20
13.8735015184561
30
0
41
1
10
31.8227590928241
20
13.87006495322
30
0
0
SPLINE
5
17B
100
AcDbEntity
8
1
62
256
6
ByLayer
370
18
48
1
60
0
100
AcDbSpline
70
4
71
3
72
8
73
4
40
0
40
0
40
0
40
0
40
1
40
1
40
1
40
1
41
1
10
31.8227590928255
20
11.5527566049802
30
0
41
1
10
31.8357631246237
20
11.5497441326823
30
0
41
1
10
31.8490607875047
20
11.5480594480463
30
0
41
1
10
31.8624323856723
20
11.5477104614213
30
0
0
SPLINE
5
17C
100
AcDbEntity
8
1
62
256
6
ByLayer
370
18
48
1
60
0
100
AcDbSpline
70
4
71
2
72
6
73
3
40
0
40
0
40
0
40
1
40
1
40
1
41
1.03186391735993
10
34.35
20
13.8032510681187
30
0
41
0.729637973226922
10
34.3500000000001
20
14.0026616185641
30
0
41
1.03186391735993
10
34.15
20
14.0026616185641
30
0
0
SPLINE
5
17D
100
AcDbEntity
8
1
62
256
6
ByLayer
370
18
48
1
60
0
100
AcDbSpline
70
4
71
2
72
6
73
3
40
0
40
0
40
0
40
1
40
1
40
1
41
1.03186391735993
10
34.15
20
14.0026616185641
30
0
41
1.03138264657361
10
34.0277889468057
20
14.0026616185641
30
0
41
1.03186391735993
10
33.9058058418606
20
13.9952228010964
30
0
0
SPLINE
5
17E
100
AcDbEntity
8
1
62
256
6
ByLayer
370
18
48
1
60
0
100
AcDbSpline
70
4
71
2
72
6
73
3
40
0
40
0
40
0
40
1
40
1
40
1
41
1.03186391735993
10
34.15
20
11.5047065008686
30
0
41
0.729637973226922
10
34.35
20
11.5047065008686
30
0
41
1.03186391735993
10
34.35
20
11.7041170513139
30
0
0
SPLINE
5
17F
100
AcDbEntity
8
1
62
256
6
ByLayer
370
18
48
1
60
0
100
AcDbSpline
70
4
71
2
72
6
73
3
40
0
40
0
40
0
40
1
40
1
40
1
41
1.03186391735993
10
33.9058058418606
20
11.5121453183363
30
0
41
1.03138264657361
10
34.0277889468057
20
11.5047065008686
30
0
41
1.03186391735993
10
34.15
20
11.5047065008686
30
0
0
SPLINE
5
180
100
AcDbEntity
8
1
62
256
6
ByLayer
370
18
48
1
60
0
100
AcDbSpline
70
4
71
3
72
12
73
8
40
0
40
0
40
0
40
0
40
0.345423737111763
40
0.345423737111763
40
0.690847474223526
40
0.690847474223526
40
1
40
1
40
1
40
1
41
1
10
34
20
14.0685011267605
30
0
41
1
10
34.0096206279675
20
14.0629631879644
30
0
41
1
10
34.0186546228749
20
14.0567047951747
30
0
41
1
10
34.0355927513882
20
14.0428004076541
30
0
41
1
10
34.0435262850192
20
14.0351203465764
30
0
41
1
10
34.0573216874845
20
14.0193305537538
30
0
41
1
10
34.0632205913684
20
14.0114888504637
30
0
41
1
10
34.0685009887573
20
14.0032616719255
30
0
0
SPLINE
5
181
100
AcDbEntity
8
1
62
256
6
ByLayer
370
18
48
1
60
0
100
AcDbSpline
70
4
71
3
72
8
73
4
40
0
40
0
40
0
40
0
40
1
40
1
40
1
40
1
41
1
10
33.7
20
14.0990480239644
30
0
41
1
10
32.4916680629812
20
14.0990281946099
30
0
41
1
10
31.2833348777489
20
14.0990122091602
30
0
41
1
10
30.075
20
14.099000067606
30
0
0
SPLINE
5
182
100
AcDbEntity
8
1
62
256
6
ByLayer
370
18
48
1
60
0
100
AcDbSpline
70
4
71
3
72
12
73
8
40
0
40
0
40
0
40
0
40
0.499999999999906
40
0.499999999999906
40
0.749999999999953
40
0.749999999999953
40
1
40
1
40
1
40
1
41
1
10
33.9
20
14.0962046632363
30
0
41
1
10
33.9173132819008
20
14.0959088902914
30
0
41
1
10
33.9343800045425
20
14.0934596175482
30
0
41
1
10
33.9597045107154
20
14.0865024262511
30
0
41
1
10
33.9681195083247
20
14.0836104970799
30
0
41
1
10
33.9843938468679
20
14.0768289523967
30
0
41
1
10
33.9923104323062
20
14.0729274859776
30
0
41
1
10
34.0000000000005
20
14.0685011267625
30
0
0
SPLINE
5
183
100
AcDbEntity
8
1
62
256
6
ByLayer
370
18
48
1
60
0
100
AcDbSpline
70
4
71
3
72
8
73
4
40
0
40
0
40
0
40
0
40
1
40
1
40
1
40
1
41
1
10
33.7000000000001
20
14.0990480239644
30
0
41
1
10
33.7676876561706
20
14.099049134754
30
0
41
1
10
33.8335352706742
20
14.0973401191731
30
0
41
1
10
33.9
20
14.0962046632363
30
0
0
SPLINE
5
184
100
AcDbEntity
8
1
62
256
6
ByLayer
370
18
48
1
60
0
100
AcDbSpline
70
4
71
3
72
26
73
22
40
0
40
0
40
0
40
0
40
0.250000000000002
40
0.250000000000002
40
0.312500000000004
40
0.312500000000004
40
0.375000000000006
40
0.375000000000006
40
0.500000000000032
40
0.500000000000032
40
0.562500000000036
40
0.562500000000036
40
0.62500000000004
40
0.62500000000004
40
0.75000000000003
40
0.75000000000003
40
0.812500000000022
40
0.812500000000022
40
0.875000000000015
40
0.875000000000015
40
1
40
1
40
1
40
1
41
1
10
17.3281523379786
20
4.85476593620422
30
0
41
1
10
17.3606963158371
20
4.84605293839911
30
0
41
1
10
17.394286358202
20
4.84227783132576
30
0
41
1
10
17.4375938417867
20
4.84430565040128
30
0
41
1
10
17.4463591330927
20
4.84506230601994
30
0
41
1
10
17.4637445703593
20
4.84726909012028
30
0
41
1
10
17.4723858038622
20
4.84871722272379
30
0
41
1
10
17.498151092476
20
4.85409929923813
30
0
41
1
10
17.51511787137
20
4.85906372779743
30
0
41
1
10
17.54021895088
20
4.86870783262276
30
0
41
1
10
17.5485275368
20
4.87229044768128
30
0
41
1
10
17.5650182011033
20
4.88023834490551
30
0
41
1
10
17.5731385487695
20
4.88457779450115
30
0
41
1
10
17.5968027600687
20
4.89852173793565
30
0
41
1
10
17.6117865990377
20
4.90910754073573
30
0
41
1
10
17.6330303889944
20
4.92698079066295
30
0
41
1
10
17.6399053342587
20
4.93327260479307
30
0
41
1
10
17.6532215547351
20
4.9465570152357
30
0
41
1
10
17.659654499272
20
4.95354999103583
30
0
41
1
10
17.6778475580838
20
4.97511321337552
30
0
41
1
10
17.6886683543619
20
4.99041401681518
30
0
41
1
10
17.6981810583398
20
5.0066400801939
30
0
0
SPLINE
5
185
100
AcDbEntity
8
1
62
256
6
ByLayer
370
18
48
1
60
0
100
AcDbSpline
70
4
71
3
72
34
73
30
40
0
40
0
40
0
40
0
40
0.124999999999983
40
0.124999999999983
40
0.187499999999975
40
0.187499999999975
40
0.218749999999971
40
0.218749999999971
40
0.249999999999967
40
0.249999999999967
40
0.37499999999995
40
0.37499999999995
40
0.406249999999949
40
0.406249999999949
40
0.437499999999949
40
0.499999999999955
40
0.562499999999961
40
0.562499999999961
40
0.624999999999967
40
0.624999999999967
40
0.687499999999973
40
0.687499999999973
40
0.74999999999998
40
0.74999999999998
40
0.874999999999988
40
0.874999999999988
40
0.937499999999994
40
0.937499999999994
40
1
40
1
40
1
40
1
41
1
10
17.3281523379786
20
4.85476593620422
30
0
41
1
10
17.2791605406677
20
4.86788250801035
30
0
41
1
10
17.229054901581
20
4.87651478567975
30
0
41
1
10
17.1518976275393
20
4.88242493018885
30
0
41
1
10
17.1258420498826
20
4.88321349342476
30
0
41
1
10
17.0861721053907
20
4.88248646042919
30
0
41
1
10
17.0728201914697
20
4.88192277063581
30
0
41
1
10
17.0460462641006
20
4.88013284667696
30
0
41
1
10
17.0326678100599
20
4.87891106826194
30
0
41
1
10
16.9658054580946
20
4.87115025384355
30
0
41
1
10
16.9124105635002
20
4.85972712150951
30
0
41
1
10
16.8455886245496
20
4.83798432005287
30
0
41
1
10
16.8322038067761
20
4.83324782474278
30
0
41
1
10
16.8058521630066
20
4.82315232134223
30
0
41
1
10
16.7667940070402
20
4.80702668445852
30
0
41
1
10
16.7040139333799
20
4.77529232945801
30
0
41
1
10
16.6562753174227
20
4.74468616614647
30
0
41
1
10
16.6098302684517
20
4.71136727733992
30
0
41
1
10
16.5878136047357
20
4.69375264984015
30
0
41
1
10
16.5460507829755
20
4.65677095101441
30
0
41
1
10
16.5262970086682
20
4.63739741945966
30
0
41
1
10
16.4889396946713
20
4.59693206468697
30
0
41
1
10
16.4712931406015
20
4.57575744689763
30
0
41
1
10
16.4226269571249
20
4.51123276391905
30
0
41
1
10
16.3953601516259
20
4.4664438149581
30
0
41
1
10
16.3612075572781
20
4.39664776476061
30
0
41
1
10
16.3509341260478
20
4.37286612452647
30
0
41
1
10
16.3327806188033
20
4.32482581478581
30
0
41
1
10
16.3248979334757
20
4.30058772956181
30
0
41
1
10
16.3181619695469
20
4.27612152964477
30
0
0
SPLINE
5
186
100
AcDbEntity
8
1
62
256
6
ByLayer
370
18
48
1
60
0
100
AcDbSpline
70
4
71
3
72
26
73
22
40
0
40
0
40
0
40
0
40
0.125000000000025
40
0.125000000000025
40
0.25000000000005
40
0.25000000000005
40
0.312500000000053
40
0.312500000000053
40
0.375000000000056
40
0.375000000000056
40
0.500000000000036
40
0.500000000000036
40
0.562500000000033
40
0.562500000000033
40
0.62500000000003
40
0.62500000000003
40
0.75000000000002
40
0.75000000000002
40
0.87500000000001
40
0.87500000000001
40
1
40
1
40
1
40
1
41
1
10
16
20
4.03371696978908
30
0
41
1
10
16.0187420838797
20
4.03371696978908
30
0
41
1
10
16.037790024121
20
4.03535417428449
30
0
41
1
10
16.0746705458544
20
4.04173168910614
30
0
41
1
10
16.0926468374794
20
4.04644417812358
30
0
41
1
10
16.1189272305608
20
4.05575158368592
30
0
41
1
10
16.127613610563
20
4.05924944469373
30
0
41
1
10
16.144482547616
20
4.06688283955305
30
0
41
1
10
16.1526773955159
20
4.0710178705242
30
0
41
1
10
16.1765732518195
20
4.08433464037336
30
0
41
1
10
16.1915899369246
20
4.09442240729572
30
0
41
1
10
16.2127755394084
20
4.11131226270288
30
0
41
1
10
16.2195919185691
20
4.11722435240463
30
0
41
1
10
16.2325595895107
20
4.1294195979462
30
0
41
1
10
16.2387403827712
20
4.13572567300372
30
0
41
1
10
16.2564090822013
20
4.15524061701328
30
0
41
1
10
16.2670282709711
20
4.16904284212703
30
0
41
1
10
16.2860013809462
20
4.19817143654916
30
0
41
1
10
16.2941811588046
20
4.21323967560284
30
0
41
1
10
16.308022019824
20
4.24409922208918
30
0
41
1
10
16.3137019836554
20
4.25992208030098
30
0
41
1
10
16.3181619695469
20
4.27612152964477
30
0
0
SPLINE
5
187
100
AcDbEntity
8
1
62
256
6
ByLayer
370
18
48
1
60
0
100
AcDbSpline
70
4
71
3
72
18
73
14
40
0
40
0
40
0
40
0
40
0.250000000000007
40
0.250000000000007
40
0.375000000000006
40
0.375000000000006
40
0.437500000000006
40
0.437500000000006
40
0.500000000000006
40
0.500000000000006
40
0.750000000000003
40
0.750000000000003
40
1
40
1
40
1
40
1
41
1
10
17.4077379362998
20
5.84947567641262
30
0
41
1
10
17.4160970234352
20
5.80505068693145
30
0
41
1
10
17.4278059238631
20
5.76268824210592
30
0
41
1
10
17.4497852995847
20
5.70172937184927
30
0
41
1
10
17.4578539822308
20
5.68184415693614
30
0
41
1
10
17.4710409062468
20
5.65263182354573
30
0
41
1
10
17.475617474447
20
5.64299712633201
30
0
41
1
10
17.4851307090048
20
5.62392909417991
30
0
41
1
10
17.4900791241439
20
5.61447493996465
30
0
41
1
10
17.5155498531435
20
5.56800817791154
30
0
41
1
10
17.5382169974673
20
5.53338362593414
30
0
41
1
10
17.5877505294598
20
5.46850999447935
30
0
41
1
10
17.614621396562
20
5.43826777026487
30
0
41
1
10
17.6435826280888
20
5.41009926562188
30
0
0
SPLINE
5
188
100
AcDbEntity
8
1
62
256
6
ByLayer
370
18
48
1
60
0
100
AcDbSpline
70
4
71
3
72
26
73
22
40
0
40
0
40
0
40
0
40
0.124999999999997
40
0.124999999999997
40
0.249999999999994
40
0.249999999999994
40
0.312499999999995
40
0.312499999999995
40
0.374999999999995
40
0.374999999999995
40
0.499999999999996
40
0.499999999999996
40
0.624999999999997
40
0.624999999999997
40
0.687499999999997
40
0.687499999999997
40
0.749999999999998
40
0.749999999999998
40
0.874999999999999
40
0.874999999999999
40
1
40
1
40
1
40
1
41
1
10
17.6981810583398
20
5.0066400801939
30
0
41
1
10
17.7078773843926
20
5.02317935245955
30
0
41
1
10
17.7162535215023
20
5.04085564616545
30
0
41
1
10
17.7295595786643
20
5.07673592321876
30
0
41
1
10
17.7345944066092
20
5.09506292667842
30
0
41
1
10
17.7397618393488
20
5.1231210092445
30
0
41
1
10
17.7410855560765
20
5.13260828157209
30
0
41
1
10
17.7428910435851
20
5.15142229887238
30
0
41
1
10
17.7433822395919
20
5.16078169676791
30
0
41
1
10
17.7436738504504
20
5.18872102321501
30
0
41
1
10
17.7422999770457
20
5.20716307673649
30
0
41
1
10
17.7364877820917
20
5.24367401641473
30
0
41
1
10
17.7321145827703
20
5.26131073609611
30
0
41
1
10
17.7235862009396
20
5.2867870721696
30
0
41
1
10
17.7204121015597
20
5.29512236560657
30
0
41
1
10
17.7134150504968
20
5.31148300683884
30
0
41
1
10
17.709579459506
20
5.3195317725737
30
0
41
1
10
17.6971899927034
20
5.34304548661672
30
0
41
1
10
17.6878477254944
20
5.35773552857478
30
0
41
1
10
17.6671882258999
20
5.38528748810671
30
0
41
1
10
17.6558697837773
20
5.39814843398202
30
0
41
1
10
17.6435826280888
20
5.41009926562188
30
0
0
SPLINE
5
189
100
AcDbEntity
8
1
62
256
6
ByLayer
370
18
48
1
60
0
100
AcDbSpline
70
4
71
3
72
24
73
20
40
0
40
0
40
0
40
0
40
0.249999999999983
40
0.249999999999983
40
0.31249999999998
40
0.31249999999998
40
0.374999999999977
40
0.374999999999977
40
0.499999999999982
40
0.499999999999982
40
0.624999999999988
40
0.624999999999988
40
0.749999999999994
40
0.749999999999994
40
0.812499999999999
40
0.812499999999999
40
0.875000000000003
40
0.875000000000003
40
1
40
1
40
1
40
1
41
1
10
17.6435826280888
20
6.59433467395627
30
0
41
1
10
17.6682160283365
20
6.61829380872609
30
0
41
1
10
17.6889860656027
20
6.64580367060333
30
0
41
1
10
17.7096028295654
20
6.68495021670537
30
0
41
1
10
17.7134630024729
20
6.69305302955274
30
0
41
1
10
17.7204795949883
20
6.70947958008588
30
0
41
1
10
17.7236526577387
20
6.71782961299013
30
0
41
1
10
17.7321592799227
20
6.74328877741814
30
0
41
1
10
17.736487710234
20
6.76080402647341
30
0
41
1
10
17.7422604572992
20
6.79697835860909
30
0
41
1
10
17.7436815532399
20
6.81581709434616
30
0
41
1
10
17.74327400458
20
6.85317302795389
30
0
41
1
10
17.7414960807988
20
6.8718276856213
30
0
41
1
10
17.7363694553524
20
6.89976662292557
30
0
41
1
10
17.7342485297393
20
6.90907241150498
30
0
41
1
10
17.72913642057
20
6.92766795083438
30
0
41
1
10
17.7261658131644
20
6.93686941305307
30
0
41
1
10
17.7161353784252
20
6.96385614115749
30
0
41
1
10
17.707927794407
20
6.98116860146308
30
0
41
1
10
17.6981810583398
20
6.99779385938425
30
0
0
SPLINE
5
18A
100
AcDbEntity
8
1
62
256
6
ByLayer
370
18
48
1
60
0
100
AcDbSpline
70
4
71
3
72
17
73
13
40
0
40
0
40
0
40
0
40
0.25000000000001
40
0.25000000000001
40
0.500000000000021
40
0.500000000000021
40
0.562500000000021
40
0.562500000000021
40
0.625000000000021
40
0.750000000000018
40
0.750000000000018
40
1
40
1
40
1
40
1
41
1
10
17.6435826280888
20
6.59433467395627
30
0
41
1
10
17.6146246036311
20
6.5661692885985
30
0
41
1
10
17.5877690589036
20
6.53594272765363
30
0
41
1
10
17.538280261633
20
6.4711386464019
30
0
41
1
10
17.5156427078131
20
6.43656766492259
30
0
41
1
10
17.4902105226124
20
6.39020548164535
30
0
41
1
10
17.4852575520369
20
6.38075167960002
30
0
41
1
10
17.4757163583554
20
6.36164224590232
30
0
41
1
10
17.4619501115274
20
6.33267900673684
30
0
41
1
10
17.4498230334515
20
6.30280324653202
30
0
41
1
10
17.4278090763268
20
6.24176635771056
30
0
41
1
10
17.4160955020356
20
6.19937516705588
30
0
41
1
10
17.4077379362998
20
6.15495826316555
30
0
0
SPLINE
5
18B
100
AcDbEntity
8
1
62
256
6
ByLayer
370
18
48
1
60
0
100
AcDbSpline
70
4
71
3
72
24
73
20
40
0
40
0
40
0
40
0
40
0.0624999999999936
40
0.0624999999999936
40
0.124999999999987
40
0.124999999999987
40
0.249999999999981
40
0.249999999999981
40
0.312499999999978
40
0.312499999999978
40
0.374999999999974
40
0.374999999999974
40
0.49999999999998
40
0.49999999999998
40
0.624999999999986
40
0.624999999999986
40
0.749999999999992
40
0.749999999999992
40
1
40
1
40
1
40
1
41
1
10
14.3018189416603
20
5.0066400801939
30
0
41
1
10
14.306568142083
20
4.99853924711474
30
0
41
1
10
14.3117085667035
20
4.99056963059249
30
0
41
1
10
14.3226428828914
20
4.97512629233947
30
0
41
1
10
14.3283971897533
20
4.96770177812817
30
0
41
1
10
14.3464899773977
20
4.94628741471811
30
0
41
1
10
14.3596527137455
20
4.93315085179765
30
0
41
1
10
14.381032396198
20
4.91514228248502
30
0
41
1
10
14.3884492522968
20
4.90941734045802
30
0
41
1
10
14.4035347461482
20
4.89875154547303
30
0
41
1
10
14.4112371514018
20
4.89377988995048
30
0
41
1
10
14.434802964484
20
4.87990721480384
30
0
41
1
10
14.451122166039
20
4.8720419079844
30
0
41
1
10
14.484945001347
20
4.85903238094943
30
0
41
1
10
14.5020107708857
20
4.85405615849501
30
0
41
1
10
14.53637856307
20
4.84689586737238
30
0
41
1
10
14.5537405321342
20
4.84470987294881
30
0
41
1
10
14.6058092219687
20
4.84227642900652
30
0
41
1
10
14.6393827516566
20
4.84607410713582
30
0
41
1
10
14.6718476620214
20
4.85476593620422
30
0
0
SPLINE
5
18C
100
AcDbEntity
8
1
62
256
6
ByLayer
370
18
48
1
60
0
100
AcDbSpline
70
4
71
3
72
34
73
30
40
0
40
0
40
0
40
0
40
0.125
40
0.125
40
0.187499999999999
40
0.187499999999999
40
0.218749999999999
40
0.218749999999999
40
0.249999999999999
40
0.249999999999999
40
0.375
40
0.375
40
0.406249999999999
40
0.406249999999999
40
0.437499999999999
40
0.499999999999999
40
0.5625
40
0.5625
40
0.625
40
0.625
40
0.6875
40
0.6875
40
0.75
40
0.75
40
0.875000000000001
40
0.875000000000001
40
0.937500000000001
40
0.937500000000001
40
1
40
1
40
1
40
1
41
1
10
15.6818380304532
20
4.27612152964477
30
0
41
1
10
15.6683756044158
20
4.32501941720472
30
0
41
1
10
15.6504813479254
20
4.37261024309333
30
0
41
1
10
15.6165572925044
20
4.44216118329851
30
0
41
1
10
15.6040598537764
20
4.46503756889234
30
0
41
1
10
15.5833694218278
20
4.49889224721937
30
0
41
1
10
15.5761303535396
20
4.51012555854658
30
0
41
1
10
15.5610452042167
20
4.53231756606385
30
0
41
1
10
15.5532249960406
20
4.54324094014302
30
0
41
1
10
15.5127140095089
20
4.59699653496452
30
0
41
1
10
15.4758548429775
20
4.63728182493477
30
0
41
1
10
15.4233023422318
20
4.68393111426929
30
0
41
1
10
15.4124468477992
20
4.69308239586169
30
0
41
1
10
15.3904102324398
20
4.71070952837823
30
0
41
1
10
15.3567451854695
20
4.73624852102361
30
0
41
1
10
15.2976175561691
20
4.77435797264309
30
0
41
1
10
15.2470701322235
20
4.80006156087143
30
0
41
1
10
15.1948368936117
20
4.82327750708643
30
0
41
1
10
15.168506133695
20
4.83336212093405
30
0
41
1
10
15.1154811300859
20
4.85068633146639
30
0
41
1
10
15.0887774643553
20
4.85792922990495
30
0
41
1
10
15.0349752898997
20
4.86969103436897
30
0
41
1
10
15.007783602923
20
4.87420517395023
30
0
41
1
10
14.9275064791057
20
4.88355478432445
30
0
41
1
10
14.8750777532936
20
4.8844250566431
30
0
41
1
10
14.7975934411139
20
4.87858810183636
30
0
41
1
10
14.7718817194633
20
4.87542310039515
30
0
41
1
10
14.7212572052777
20
4.86678714415913
30
0
41
1
10
14.69636084904
20
4.86132885072001
30
0
41
1
10
14.6718476620214
20
4.85476593620422
30
0
0
SPLINE
5
18D
100
AcDbEntity
8
1
62
256
6
ByLayer
370
18
48
1
60
0
100
AcDbSpline
70
4
71
3
72
26
73
22
40
0
40
0
40
0
40
0
40
0.250000000000029
40
0.250000000000029
40
0.312500000000026
40
0.312500000000026
40
0.375000000000024
40
0.375000000000024
40
0.500000000000018
40
0.500000000000018
40
0.562500000000018
40
0.562500000000018
40
0.625000000000017
40
0.625000000000017
40
0.750000000000035
40
0.750000000000035
40
0.812500000000032
40
0.812500000000032
40
0.875000000000029
40
0.875000000000029
40
1
40
1
40
1
40
1
41
1
10
15.6818380304532
20
4.27612152964477
30
0
41
1
10
15.6907807694531
20
4.24363993644008
30
0
41
1
10
15.704512367741
20
4.2127532800572
30
0
41
1
10
15.728164661171
20
4.17641845246729
30
0
41
1
10
15.7332504932269
20
4.16923951236492
30
0
41
1
10
15.7439469908237
20
4.15535757522855
30
0
41
1
10
15.7495666009289
20
4.14863537534217
30
0
41
1
10
15.7672404966507
20
4.12913024348006
30
0
41
1
10
15.7801042158832
20
4.11700416115264
30
0
41
1
10
15.8011189451321
20
4.10022756303988
30
0
41
1
10
15.8084116893909
20
4.09487185259587
30
0
41
1
10
15.8236083865562
20
4.08466540375269
30
0
41
1
10
15.8314588292888
20
4.07985485688479
30
0
41
1
10
15.8554562271619
20
4.06649247685056
30
0
41
1
10
15.8721665003504
20
4.05892006574436
30
0
41
1
10
15.8983294895866
20
4.04963298993772
30
0
41
1
10
15.9072343299036
20
4.04688423820639
30
0
41
1
10
15.9254292302567
20
4.04211527568518
30
0
41
1
10
15.9347154010501
20
4.04010244428454
30
0
41
1
10
15.9625187231475
20
4.0353133860757
30
0
41
1
10
15.98119104671
20
4.03371696978908
30
0
41
1
10
16
20
4.03371696978908
30
0
0
SPLINE
5
18E
100
AcDbEntity
8
1
62
256
6
ByLayer
370
18
48
1
60
0
100
AcDbSpline
70
4
71
3
72
26
73
22
40
0
40
0
40
0
40
0
40
0.250000000000044
40
0.250000000000044
40
0.312500000000056
40
0.312500000000056
40
0.375000000000068
40
0.375000000000068
40
0.500000000000091
40
0.500000000000091
40
0.562500000000094
40
0.562500000000094
40
0.625000000000097
40
0.625000000000097
40
0.750000000000086
40
0.750000000000086
40
0.81250000000007
40
0.81250000000007
40
0.875000000000054
40
0.875000000000054
40
1
40
1
40
1
40
1
41
1
10
16.3181619695469
20
7.72831240993341
30
0
41
1
10
16.3092192305469
20
7.7607940031381
30
0
41
1
10
16.2954876322591
20
7.79168065952098
30
0
41
1
10
16.2718353388291
20
7.82801548711089
30
0
41
1
10
16.2667495067731
20
7.83519442721325
30
0
41
1
10
16.2560530091764
20
7.8490763643496
30
0
41
1
10
16.2504333990712
20
7.85579856423601
30
0
41
1
10
16.2327595033493
20
7.87530369609811
30
0
41
1
10
16.2198957841169
20
7.88742977842554
30
0
41
1
10
16.198881054868
20
7.90420637653827
30
0
41
1
10
16.1915883106091
20
7.90956208698231
30
0
41
1
10
16.1763916134439
20
7.91976853582545
30
0
41
1
10
16.1685411707113
20
7.92457908269336
30
0
41
1
10
16.1445437728381
20
7.93794146272759
30
0
41
1
10
16.1278334996496
20
7.94551387383382
30
0
41
1
10
16.1016705104134
20
7.95480094964043
30
0
41
1
10
16.0927656700965
20
7.95754970137179
30
0
41
1
10
16.0745707697433
20
7.96231866389297
30
0
41
1
10
16.0652845989499
20
7.96433149529361
30
0
41
1
10
16.0374812768526
20
7.96912055350248
30
0
41
1
10
16.0188089532901
20
7.97071696978909
30
0
41
1
10
16
20
7.97071696978909
30
0
0
SPLINE
5
18F
100
AcDbEntity
8
1
62
256
6
ByLayer
370
18
48
1
60
0
100
AcDbSpline
70
4
71
3
72
34
73
30
40
0
40
0
40
0
40
0
40
0.125000000000002
40
0.125000000000002
40
0.187500000000004
40
0.187500000000004
40
0.218750000000004
40
0.218750000000004
40
0.250000000000005
40
0.250000000000005
40
0.37500000000001
40
0.37500000000001
40
0.406250000000013
40
0.406250000000013
40
0.437500000000016
40
0.500000000000015
40
0.562500000000013
40
0.562500000000013
40
0.625000000000012
40
0.625000000000012
40
0.687500000000011
40
0.687500000000011
40
0.750000000000009
40
0.750000000000009
40
0.875000000000005
40
0.875000000000005
40
0.937500000000003
40
0.937500000000003
40
1
40
1
40
1
40
1
41
1
10
16.3181619695469
20
7.72831240993341
30
0
41
1
10
16.3316243955843
20
7.67941452237343
30
0
41
1
10
16.3495186520746
20
7.63182369648482
30
0
41
1
10
16.3834427074956
20
7.56227275627964
30
0
41
1
10
16.3959401462236
20
7.53939637068584
30
0
41
1
10
16.4166305781722
20
7.5055416923588
30
0
41
1
10
16.4238696464605
20
7.49430838103157
30
0
41
1
10
16.4389547957834
20
7.4721163735143
30
0
41
1
10
16.4467750039595
20
7.46119299943516
30
0
41
1
10
16.4872859904911
20
7.40743740461363
30
0
41
1
10
16.5241451570225
20
7.36715211464337
30
0
41
1
10
16.5766976577683
20
7.32050282530889
30
0
41
1
10
16.5875531522008
20
7.31135154371646
30
0
41
1
10
16.6095897675602
20
7.29372441119995
30
0
41
1
10
16.6432548145305
20
7.26818541855457
30
0
41
1
10
16.7023826118536
20
7.23007622798178
30
0
41
1
10
16.7529298677765
20
7.20437237870675
30
0
41
1
10
16.8051631063884
20
7.18115643249172
30
0
41
1
10
16.8314938663051
20
7.17107181864409
30
0
41
1
10
16.8845188699141
20
7.15374760811179
30
0
41
1
10
16.9112225356448
20
7.14650470967322
30
0
41
1
10
16.9650247101004
20
7.13474290520918
30
0
41
1
10
16.992216397077
20
7.13022876562792
30
0
41
1
10
17.0724935208944
20
7.12087915525373
30
0
41
1
10
17.1249222467065
20
7.12000888293505
30
0
41
1
10
17.2024065588862
20
7.12584583774182
30
0
41
1
10
17.2281182805367
20
7.129010839183
30
0
41
1
10
17.2787427947224
20
7.13764679541902
30
0
41
1
10
17.30363915096
20
7.14310508885816
30
0
41
1
10
17.3281523379786
20
7.14966800337396
30
0
0
SPLINE
5
190
100
AcDbEntity
8
1
62
256
6
ByLayer
370
18
48
1
60
0
100
AcDbSpline
70
4
71
3
72
24
73
20
40
0
40
0
40
0
40
0
40
0.0624999999999795
40
0.0624999999999795
40
0.124999999999959
40
0.124999999999959
40
0.249999999999932
40
0.249999999999932
40
0.312499999999927
40
0.312499999999927
40
0.374999999999922
40
0.374999999999922
40
0.499999999999934
40
0.499999999999934
40
0.624999999999947
40
0.624999999999947
40
0.749999999999959
40
0.749999999999959
40
1
40
1
40
1
40
1
41
1
10
17.6981810583398
20
6.99779385938425
30
0
41
1
10
17.6934318579171
20
7.00589469246341
30
0
41
1
10
17.6882914332965
20
7.01386430898569
30
0
41
1
10
17.6773571171087
20
7.02930764723868
30
0
41
1
10
17.6716028102467
20
7.03673216144998
30
0
41
1
10
17.6535100226024
20
7.05814652486006
30
0
41
1
10
17.6403472862545
20
7.07128308778053
30
0
41
1
10
17.6189676038021
20
7.08929165709313
30
0
41
1
10
17.6115507477032
20
7.09501659912016
30
0
41
1
10
17.5964652538518
20
7.10568239410512
30
0
41
1
10
17.5887628485983
20
7.1106540496277
30
0
41
1
10
17.5651970355161
20
7.12452672477434
30
0
41
1
10
17.548877833961
20
7.13239203159378
30
0
41
1
10
17.515054998653
20
7.14540155862872
30
0
41
1
10
17.4979892291144
20
7.15037778108314
30
0
41
1
10
17.4636214369301
20
7.15753807220577
30
0
41
1
10
17.4462594678658
20
7.15972406662937
30
0
41
1
10
17.3941907780313
20
7.16215751057166
30
0
41
1
10
17.3606172483434
20
7.15835983244233
30
0
41
1
10
17.3281523379786
20
7.14966800337396
30
0
0
SPLINE
5
191
100
AcDbEntity
8
1
62
256
6
ByLayer
370
18
48
1
60
0
100
AcDbSpline
70
4
71
3
72
26
73
22
40
0
40
0
40
0
40
0
40
0.124999999999992
40
0.124999999999992
40
0.249999999999984
40
0.249999999999984
40
0.312499999999982
40
0.312499999999982
40
0.374999999999981
40
0.374999999999981
40
0.499999999999978
40
0.499999999999978
40
0.624999999999975
40
0.624999999999975
40
0.687499999999975
40
0.687499999999975
40
0.749999999999974
40
0.749999999999974
40
0.874999999999987
40
0.874999999999987
40
1
40
1
40
1
40
1
41
1
10
14.3018189416603
20
6.99779385938425
30
0
41
1
10
14.2921226156074
20
6.98125458711863
30
0
41
1
10
14.2837464784977
20
6.96357829341272
30
0
41
1
10
14.2704404213358
20
6.92769801635939
30
0
41
1
10
14.2654055933909
20
6.90937101289975
30
0
41
1
10
14.2602381606512
20
6.88131293033365
30
0
41
1
10
14.2589144439236
20
6.87182565800606
30
0
41
1
10
14.257108956415
20
6.8530116407058
30
0
41
1
10
14.2566177604081
20
6.84365224281024
30
0
41
1
10
14.2563261495496
20
6.81571291636317
30
0
41
1
10
14.2577000229544
20
6.79727086284166
30
0
41
1
10
14.2635122179084
20
6.76075992316345
30
0
41
1
10
14.2678854172298
20
6.74312320348207
30
0
41
1
10
14.2764137990604
20
6.71764686740855
30
0
41
1
10
14.2795878984404
20
6.7093115739716
30
0
41
1
10
14.2865849495032
20
6.69295093273934
30
0
41
1
10
14.2904205404941
20
6.68490216700448
30
0
41
1
10
14.3028100072967
20
6.66138845296143
30
0
41
1
10
14.3121522745057
20
6.64669841100337
30
0
41
1
10
14.3328117741002
20
6.61914645147144
30
0
41
1
10
14.3441302162228
20
6.60628550559616
30
0
41
1
10
14.3564173719113
20
6.59433467395627
30
0
0
SPLINE
5
192
100
AcDbEntity
8
1
62
256
6
ByLayer
370
18
48
1
60
0
100
AcDbSpline
70
4
71
3
72
17
73
13
40
0
40
0
40
0
40
0
40
0.249999999999998
40
0.249999999999998
40
0.499999999999997
40
0.499999999999997
40
0.562499999999999
40
0.562499999999999
40
0.625000000000002
40
0.750000000000004
40
0.750000000000004
40
1
40
1
40
1
40
1
41
1
10
14.3564173719113
20
5.41009926562188
30
0
41
1
10
14.3853753963689
20
5.43826465097962
30
0
41
1
10
14.4122309410963
20
5.46849121192443
30
0
41
1
10
14.4617197383669
20
5.53329529317608
30
0
41
1
10
14.4843572921868
20
5.5678662746553
30
0
41
1
10
14.5097894773875
20
5.61422845793246
30
0
41
1
10
14.514742447963
20
5.62368225997773
30
0
41
1
10
14.5242836416444
20
5.64279169367543
30
0
41
1
10
14.5380498884724
20
5.67175493284088
30
0
41
1
10
14.5501769665483
20
5.7016306930457
30
0
41
1
10
14.5721909236731
20
5.76266758186725
30
0
41
1
10
14.5839044979644
20
5.80505877252205
30
0
41
1
10
14.5922620637002
20
5.84947567641262
30
0
0
SPLINE
5
193
100
AcDbEntity
8
1
62
256
6
ByLayer
370
18
48
1
60
0
100
AcDbSpline
70
4
71
3
72
18
73
14
40
0
40
0
40
0
40
0
40
0.250000000000016
40
0.250000000000016
40
0.37500000000002
40
0.37500000000002
40
0.437500000000018
40
0.437500000000018
40
0.500000000000017
40
0.500000000000017
40
0.750000000000008
40
0.750000000000008
40
1
40
1
40
1
40
1
41
1
10
14.5922620637002
20
6.15495826316555
30
0
41
1
10
14.5839029765649
20
6.19938325264641
30
0
41
1
10
14.5721940761371
20
6.24174569747191
30
0
41
1
10
14.5502147004154
20
6.30270456772871
30
0
41
1
10
14.5421460177693
20
6.32258978264193
30
0
41
1
10
14.5289590937532
20
6.35180211603253
30
0
41
1
10
14.524382525553
20
6.36143681324631
30
0
41
1
10
14.5148692909951
20
6.38050484539855
30
0
41
1
10
14.509920875856
20
6.3899589996139
30
0
41
1
10
14.4844501468564
20
6.43642576166678
30
0
41
1
10
14.4617830025327
20
6.4710503136441
30
0
41
1
10
14.4122494705403
20
6.53592394509877
30
0
41
1
10
14.3853786034381
20
6.56616616931325
30
0
41
1
10
14.3564173719113
20
6.59433467395627
30
0
0
SPLINE
5
194
100
AcDbEntity
8
1
62
256
6
ByLayer
370
18
48
1
60
0
100
AcDbSpline
70
4
71
3
72
24
73
20
40
0
40
0
40
0
40
0
40
0.249999999999998
40
0.249999999999998
40
0.312499999999997
40
0.312499999999997
40
0.374999999999995
40
0.374999999999995
40
0.499999999999997
40
0.499999999999997
40
0.624999999999999
40
0.624999999999999
40
0.750000000000001
40
0.750000000000001
40
0.812500000000002
40
0.812500000000002
40
0.875000000000003
40
0.875000000000003
40
1
40
1
40
1
40
1
41
1
10
14.3564173719113
20
5.41009926562188
30
0
41
1
10
14.3317839716635
20
5.38614013085206
30
0
41
1
10
14.3110139343973
20
5.35863026897482
30
0
41
1
10
14.2903971704346
20
5.3194837228728
30
0
41
1
10
14.2865369975272
20
5.31138091002541
30
0
41
1
10
14.2795204050118
20
5.29495435949227
30
0
41
1
10
14.2763473422613
20
5.28660432658802
30
0
41
1
10
14.2678407200774
20
5.26114516216001
30
0
41
1
10
14.2635122897661
20
5.24362991310474
30
0
41
1
10
14.2577395427009
20
5.20745558096908
30
0
41
1
10
14.2563184467602
20
5.18861684523202
30
0
41
1
10
14.25672599542
20
5.15126091162429
30
0
41
1
10
14.2585039192013
20
5.13260625395685
30
0
41
1
10
14.2636305446476
20
5.10466731665261
30
0
41
1
10
14.2657514702608
20
5.0953615280732
30
0
41
1
10
14.27086357943
20
5.07676598874377
30
0
41
1
10
14.2738341868356
20
5.0675645265251
30
0
41
1
10
14.2838646215749
20
5.04057779842069
30
0
41
1
10
14.2920722055931
20
5.0232653381151
30
0
41
1
10
14.3018189416603
20
5.0066400801939
30
0
0
SPLINE
5
195
100
AcDbEntity
8
1
62
256
6
ByLayer
370
18
48
1
60
0
100
AcDbSpline
70
4
71
3
72
26
73
22
40
0
40
0
40
0
40
0
40
0.249999999999981
40
0.249999999999981
40
0.312499999999983
40
0.312499999999983
40
0.374999999999985
40
0.374999999999985
40
0.499999999999988
40
0.499999999999988
40
0.562499999999992
40
0.562499999999992
40
0.624999999999996
40
0.624999999999996
40
0.749999999999999
40
0.749999999999999
40
0.8125
40
0.8125
40
0.875000000000002
40
0.875000000000002
40
1
40
1
40
1
40
1
41
1
10
14.6718476620214
20
7.14966800337396
30
0
41
1
10
14.639303684163
20
7.15838100117904
30
0
41
1
10
14.6057136417981
20
7.16215610825239
30
0
41
1
10
14.5624061582133
20
7.1601282891769
30
0
41
1
10
14.5536408669074
20
7.15937163355824
30
0
41
1
10
14.5362554296408
20
7.1571648494579
30
0
41
1
10
14.5276141961379
20
7.15571671685436
30
0
41
1
10
14.501848907524
20
7.15033464034002
30
0
41
1
10
14.48488212863
20
7.14537021178074
30
0
41
1
10
14.4597810491201
20
7.13572610695539
30
0
41
1
10
14.4514724632
20
7.1321434918969
30
0
41
1
10
14.4349817988967
20
7.12419559467267
30
0
41
1
10
14.4268614512305
20
7.11985614507702
30
0
41
1
10
14.4031972399313
20
7.1059122016425
30
0
41
1
10
14.3882134009624
20
7.09532639884242
30
0
41
1
10
14.3669696110057
20
7.07745314891523
30
0
41
1
10
14.3600946657414
20
7.0711613347851
30
0
41
1
10
14.346778445265
20
7.05787692434248
30
0
41
1
10
14.340345500728
20
7.05088394854235
30
0
41
1
10
14.3221524419163
20
7.02932072620263
30
0
41
1
10
14.3113316456382
20
7.01401992276297
30
0
41
1
10
14.3018189416603
20
6.99779385938425
30
0
0
SPLINE
5
196
100
AcDbEntity
8
1
62
256
6
ByLayer
370
18
48
1
60
0
100
AcDbSpline
70
4
71
3
72
34
73
30
40
0
40
0
40
0
40
0
40
0.124999999999988
40
0.124999999999988
40
0.18749999999998
40
0.18749999999998
40
0.218749999999976
40
0.218749999999976
40
0.249999999999973
40
0.249999999999973
40
0.374999999999968
40
0.374999999999968
40
0.406249999999968
40
0.406249999999968
40
0.437499999999967
40
0.49999999999997
40
0.562499999999972
40
0.562499999999972
40
0.624999999999975
40
0.624999999999975
40
0.687499999999978
40
0.687499999999978
40
0.74999999999998
40
0.74999999999998
40
0.874999999999988
40
0.874999999999988
40
0.937499999999994
40
0.937499999999994
40
1
40
1
40
1
40
1
41
1
10
14.6718476620214
20
7.14966800337396
30
0
41
1
10
14.7208394593323
20
7.13655143156782
30
0
41
1
10
14.7709450984191
20
7.12791915389843
30
0
41
1
10
14.8481023724607
20
7.12200900938933
30
0
41
1
10
14.8741579501174
20
7.12122044615339
30
0
41
1
10
14.9138278946093
20
7.12194747914899
30
0
41
1
10
14.9271798085304
20
7.12251116894237
30
0
41
1
10
14.9539537358994
20
7.12430109290119
30
0
41
1
10
14.9673321899401
20
7.12552287131621
30
0
41
1
10
15.0341945419055
20
7.1332836857346
30
0
41
1
10
15.0875894364998
20
7.14470681806864
30
0
41
1
10
15.1544113754504
20
7.16644961952528
30
0
41
1
10
15.167796193224
20
7.17118611483536
30
0
41
1
10
15.1941478369934
20
7.18128161823591
30
0
41
1
10
15.2332059929599
20
7.19740725511963
30
0
41
1
10
15.2959860666201
20
7.22914161012017
30
0
41
1
10
15.3437246825773
20
7.25974777343171
30
0
41
1
10
15.3901697315483
20
7.29306666223823
30
0
41
1
10
15.4121863952644
20
7.31068128973803
30
0
41
1
10
15.4539492170246
20
7.34766298856377
30
0
41
1
10
15.4737029913318
20
7.36703652011849
30
0
41
1
10
15.5110603053288
20
7.40750187489121
30
0
41
1
10
15.5287068593986
20
7.42867649268055
30
0
41
1
10
15.5773730428752
20
7.49320117565912
30
0
41
1
10
15.6046398483741
20
7.53799012462005
30
0
41
1
10
15.638792442722
20
7.60778617481756
30
0
41
1
10
15.6490658739523
20
7.63156781505171
30
0
41
1
10
15.6672193811968
20
7.67960812479234
30
0
41
1
10
15.6751020665243
20
7.70384621001634
30
0
41
1
10
15.6818380304532
20
7.72831240993341
30
0
0
SPLINE
5
197
100
AcDbEntity
8
1
62
256
6
ByLayer
370
18
48
1
60
0
100
AcDbSpline
70
4
71
3
72
26
73
22
40
0
40
0
40
0
40
0
40
0.125000000000023
40
0.125000000000023
40
0.250000000000045
40
0.250000000000045
40
0.312500000000044
40
0.312500000000044
40
0.375000000000044
40
0.375000000000044
40
0.500000000000021
40
0.500000000000021
40
0.562500000000016
40
0.562500000000016
40
0.625000000000011
40
0.625000000000011
40
0.750000000000002
40
0.750000000000002
40
0.875000000000001
40
0.875000000000001
40
1
40
1
40
1
40
1
41
1
10
16
20
7.97071696978909
30
0
41
1
10
15.9812579161203
20
7.97071696978909
30
0
41
1
10
15.962209975879
20
7.96907976529369
30
0
41
1
10
15.9253294541457
20
7.96270225047201
30
0
41
1
10
15.9073531625207
20
7.95798976145457
30
0
41
1
10
15.8810727694392
20
7.94868235589226
30
0
41
1
10
15.8723863894371
20
7.94518449488441
30
0
41
1
10
15.855517452384
20
7.93755110002513
30
0
41
1
10
15.8473226044842
20
7.93341606905395
30
0
41
1
10
15.8234267481805
20
7.92009929920482
30
0
41
1
10
15.8084100630755
20
7.91001153228243
30
0
41
1
10
15.7872244605916
20
7.8931216768753
30
0
41
1
10
15.780408081431
20
7.88720958717352
30
0
41
1
10
15.7674404104893
20
7.87501434163195
30
0
41
1
10
15.7612596172288
20
7.86870826657446
30
0
41
1
10
15.7435909177987
20
7.84919332256487
30
0
41
1
10
15.732971729029
20
7.83539109745115
30
0
41
1
10
15.7139986190539
20
7.80626250302902
30
0
41
1
10
15.7058188411955
20
7.79119426397531
30
0
41
1
10
15.6919779801761
20
7.760334717489
30
0
41
1
10
15.6862980163446
20
7.7445118592772
30
0
41
1
10
15.6818380304532
20
7.72831240993341
30
0
0
LINE
5
7D
100
AcDbEntity
8
81
62
256
6
ByLayer
370
18
48
1
60
0
100
AcDbLine
10
34.35
20
14
30
0
11
39.35
21
14
31
0
39
0
210
0
220
0
230
1
0
LINE
5
7E
100
AcDbEntity
8
80
62
256
6
ByLayer
370
18
48
1
60
0
100
AcDbLine
10
0
20
0
30
0
11
0
21
-5
31
0
39
0
210
0
220
0
230
1
0
LINE
5
7F
100
AcDbEntity
8
1
62
256
6
ByLayer
370
18
48
1
60
0
100
AcDbLine
10
16
20
0.675
30
0
11
16
21
0.875
31
0
39
0
210
0
220
0
230
1
0
LINE
5
80
100
AcDbEntity
8
1
62
256
6
ByLayer
370
18
48
1
60
0
100
AcDbLine
10
6.742324
20
-0.324981
30
0
11
9.132847
21
-0.324981
31
0
39
0
210
0
220
0
230
1
0
LINE
5
81
100
AcDbEntity
8
1
62
256
6
ByLayer
370
18
48
1
60
0
100
AcDbLine
10
28.245389
20
14.098982
30
0
11
28.246107
21
14.176329
31
0
39
0
210
0
220
0
230
1
0
LINE
5
82
100
AcDbEntity
8
1
62
256
6
ByLayer
370
18
48
1
60
0
100
AcDbLine
10
33.55
20
14.099045
30
0
11
33.55
21
14.167008
31
0
39
0
210
0
220
0
230
1
0
LINE
5
83
100
AcDbEntity
8
1
62
256
6
ByLayer
370
18
48
1
60
0
100
AcDbLine
10
29.163821
20
14.09898
30
0
11
29.164452
21
14.167008
31
0
39
0
210
0
220
0
230
1
0
LINE
5
84
100
AcDbEntity
8
1
62
256
6
ByLayer
370
18
48
1
60
0
100
AcDbLine
10
9.404549
20
-0.324981
30
0
11
9.476736
21
-0.324981
31
0
39
0
210
0
220
0
230
1
0
LINE
5
85
100
AcDbEntity
8
1
62
256
6
ByLayer
370
18
48
1
60
0
100
AcDbLine
10
9.57055
20
-0.324981
30
0
11
14.717168
21
-0.324981
31
0
39
0
210
0
220
0
230
1
0
LINE
5
86
100
AcDbEntity
8
1
62
256
6
ByLayer
370
18
48
1
60
0
100
AcDbLine
10
7.189383
20
-0.25
30
0
11
9.530813
21
-0.25
31
0
39
0
210
0
220
0
230
1
0
LINE
5
87
100
AcDbEntity
8
1
62
256
6
ByLayer
370
13
48
1
60
0
100
AcDbLine
10
7.154174
20
-0.249981
30
0
11
14.818469
21
-0.249981
31
0
39
0
210
0
220
0
230
1
0
LINE
5
88
100
AcDbEntity
8
1
62
256
6
ByLayer
370
18
48
1
60
0
100
AcDbLine
10
15.243082
20
0.129904
30
0
11
7.713428
21
0.129904
31
0
39
0
210
0
220
0
230
1
0
LINE
5
89
100
AcDbEntity
8
1
62
256
6
ByLayer
370
18
48
1
60
0
100
AcDbLine
10
13.050048
20
15.503732
30
0
11
17.723699
21
20.177383
31
0
39
0
210
0
220
0
230
1
0
LINE
5
8A
100
AcDbEntity
8
1
62
256
6
ByLayer
370
18
48
1
60
0
100
AcDbLine
10
25.458217
20
14.176329
30
0
11
28.246107
21
14.176329
31
0
39
0
210
0
220
0
230
1
0
LINE
5
8B
100
AcDbEntity
8
1
62
256
6
ByLayer
370
18
48
1
60
0
100
AcDbLine
10
29.164452
20
14.167008
30
0
11
33.55
21
14.167008
31
0
39
0
210
0
220
0
230
1
0
LINE
5
8C
100
AcDbEntity
8
1
62
256
6
ByLayer
370
18
48
1
60
0
100
AcDbLine
10
33.55
20
15.425965
30
0
11
33.55
21
14.167008
31
0
39
0
210
0
220
0
230
1
0
LINE
5
8D
100
AcDbEntity
8
1
62
256
6
ByLayer
370
18
48
1
60
0
100
AcDbLine
10
28.973446
20
20.177383
30
0
11
17.723699
21
20.177383
31
0
39
0
210
0
220
0
230
1
0
LINE
5
8E
100
AcDbEntity
8
1
62
256
6
ByLayer
370
18
48
1
60
0
100
AcDbLine
10
-14.075019
20
-0.249981
30
0
11
-14.000019
21
-0.324981
31
0
39
0
210
0
220
0
230
1
0
LINE
5
8F
100
AcDbEntity
8
1
62
256
6
ByLayer
370
18
48
1
60
0
100
AcDbLine
10
-14.000019
20
-0.324981
30
0
11
-13.791283
21
-0.324981
31
0
39
0
210
0
220
0
230
1
0
LINE
5
90
100
AcDbEntity
8
1
62
256
6
ByLayer
370
18
48
1
60
0
100
AcDbLine
10
-11.023511
20
-0.324981
30
0
11
-10.810081
21
-0.324981
31
0
39
0
210
0
220
0
230
1
0
LINE
5
91
100
AcDbEntity
8
1
62
256
6
ByLayer
370
18
48
1
60
0
100
AcDbLine
10
-10.247062
20
-0.324981
30
0
11
-9.769771
21
-0.324981
31
0
39
0
210
0
220
0
230
1
0
LINE
5
92
100
AcDbEntity
8
1
62
256
6
ByLayer
370
18
48
1
60
0
100
AcDbLine
10
-14.559331
20
0.234331
30
0
11
-14.075019
21
-0.249981
31
0
39
0
210
0
220
0
230
1
0
LINE
5
93
100
AcDbEntity
8
1
62
256
6
ByLayer
370
13
48
1
60
0
100
AcDbLine
10
-14.075019
20
-0.249981
30
0
11
-13.927309
21
-0.249981
31
0
39
0
210
0
220
0
230
1
0
LINE
5
94
100
AcDbEntity
8
1
62
256
6
ByLayer
370
18
48
1
60
0
100
AcDbLine
10
-13.703327
20
-0.324981
30
0
11
-13.048061
21
-0.324981
31
0
39
0
210
0
220
0
230
1
0
LINE
5
95
100
AcDbEntity
8
1
62
256
6
ByLayer
370
18
48
1
60
0
100
AcDbLine
10
-11.287197
20
-0.324981
30
0
11
-11.132078
21
-0.324981
31
0
39
0
210
0
220
0
230
1
0
LINE
5
96
100
AcDbEntity
8
1
62
256
6
ByLayer
370
13
48
1
60
0
100
AcDbLine
10
-13.72716
20
-0.249981
30
0
11
-13.206552
21
-0.249981
31
0
39
0
210
0
220
0
230
1
0
LINE
5
97
100
AcDbEntity
8
1
62
256
6
ByLayer
370
13
48
1
60
0
100
AcDbLine
10
-11.153955
20
-0.249981
30
0
11
-11.11145
21
-0.249981
31
0
39
0
210
0
220
0
230
1
0
LINE
5
98
100
AcDbEntity
8
1
62
256
6
ByLayer
370
13
48
1
60
0
100
AcDbLine
10
-14.265575
20
0.394519
30
0
11
-14.125544
21
0.394519
31
0
39
0
210
0
220
0
230
1
0
LINE
5
99
100
AcDbEntity
8
1
62
256
6
ByLayer
370
18
48
1
60
0
100
AcDbLine
10
-12.9317
20
-0.324981
30
0
11
-12.074956
21
-0.324981
31
0
39
0
210
0
220
0
230
1
0
LINE
5
9A
100
AcDbEntity
8
1
62
256
6
ByLayer
370
13
48
1
60
0
100
AcDbLine
10
-12.941904
20
-0.249981
30
0
11
-12.261918
21
-0.249981
31
0
39
0
210
0
220
0
230
1
0
LINE
5
9B
100
AcDbEntity
8
1
62
256
6
ByLayer
370
13
48
1
60
0
100
AcDbLine
10
-13.470275
20
0.394519
30
0
11
-13.288685
21
0.394519
31
0
39
0
210
0
220
0
230
1
0
LINE
5
9C
100
AcDbEntity
8
1
62
256
6
ByLayer
370
18
48
1
60
0
100
AcDbLine
10
-11.923781
20
-0.324981
30
0
11
-11.287177
21
-0.324981
31
0
39
0
210
0
220
0
230
1
0
LINE
5
9D
100
AcDbEntity
8
1
62
256
6
ByLayer
370
18
48
1
60
0
100
AcDbLine
10
12.874393
20
0.675
30
0
11
11.5
21
0.675
31
0
39
0
210
0
220
0
230
1
0
LINE
5
9E
100
AcDbEntity
8
1
62
256
6
ByLayer
370
18
48
1
60
0
100
AcDbLine
10
13.05
20
15.503684
30
0
11
21.132088
21
15.503684
31
0
39
0
210
0
220
0
230
1
0
LINE
5
9F
100
AcDbEntity
8
1
62
256
6
ByLayer
370
18
48
1
60
0
100
AcDbLine
10
12.874393
20
0.875
30
0
11
12.874393
21
0.675
31
0
39
0
210
0
220
0
230
1
0
LINE
5
A0
100
AcDbEntity
8
1
62
256
6
ByLayer
370
18
48
1
60
0
100
AcDbLine
10
19.368681
20
1.375
30
0
11
13.490738
21
1.375
31
0
39
0
210
0
220
0
230
1
0
LINE
5
A1
100
AcDbEntity
8
1
62
256
6
ByLayer
370
18
48
1
60
0
100
AcDbLine
10
20.75
20
2.534065
30
0
11
19.368681
21
1.375
31
0
39
0
210
0
220
0
230
1
0
LINE
5
A2
100
AcDbEntity
8
1
62
256
6
ByLayer
370
18
48
1
60
0
100
AcDbLine
10
20.75
20
12.084229
30
0
11
20.75
21
2.534065
31
0
39
0
210
0
220
0
230
1
0
LINE
5
A3
100
AcDbEntity
8
1
62
256
6
ByLayer
370
18
48
1
60
0
100
AcDbLine
10
13.05
20
15.503684
30
0
11
12
21
14.453684
31
0
39
0
210
0
220
0
230
1
0
LINE
5
A4
100
AcDbEntity
8
1
62
256
6
ByLayer
370
13
48
1
60
0
100
AcDbLine
10
22.35
20
13.311298
30
0
11
22.35
21
11.783612
31
0
39
0
210
0
220
0
230
1
0
LINE
5
A5
100
AcDbEntity
8
1
62
256
6
ByLayer
370
18
48
1
60
0
100
AcDbLine
10
21.132088
20
15.503684
30
0
11
21.16383
21
15.503684
31
0
39
0
210
0
220
0
230
1
0
LINE
5
A6
100
AcDbEntity
8
1
62
256
6
ByLayer
370
18
48
1
60
0
100
AcDbLine
10
21.132088
20
13.218018
30
0
11
21.132088
21
15.503684
31
0
39
0
210
0
220
0
230
1
0
LINE
5
A7
100
AcDbEntity
8
1
62
256
6
ByLayer
370
18
48
1
60
0
100
AcDbLine
10
24.6
20
14.438405
30
0
11
24.6
21
12.556205
31
0
39
0
210
0
220
0
230
1
0
LINE
5
A8
100
AcDbEntity
8
1
62
256
6
ByLayer
370
13
48
1
60
0
100
AcDbLine
10
-11.918509
20
-0.249981
30
0
11
-11.153931
21
-0.249981
31
0
39
0
210
0
220
0
230
1
0
LINE
5
A9
100
AcDbEntity
8
1
62
256
6
ByLayer
370
13
48
1
60
0
100
AcDbLine
10
-12.44548
20
0.394519
30
0
11
-12.212601
21
0.394519
31
0
39
0
210
0
220
0
230
1
0
LINE
5
AA
100
AcDbEntity
8
1
62
256
6
ByLayer
370
18
48
1
60
0
100
AcDbLine
10
-10.612458
20
-0.324981
30
0
11
-10.247044
21
-0.324981
31
0
39
0
210
0
220
0
230
1
0
LINE
5
AB
100
AcDbEntity
8
1
62
256
6
ByLayer
370
18
48
1
60
0
100
AcDbLine
10
10.51676
20
13.453684
30
0
11
9.875896
21
13.453684
31
0
39
0
210
0
220
0
230
1
0
LINE
5
AC
100
AcDbEntity
8
1
62
256
6
ByLayer
370
18
48
1
60
0
100
AcDbLine
10
11.5
20
0.675
30
0
11
9.875896
21
0.675
31
0
39
0
210
0
220
0
230
1
0
LINE
5
AD
100
AcDbEntity
8
1
62
256
6
ByLayer
370
18
48
1
60
0
100
AcDbLine
10
11.5
20
13.791448
30
0
11
11.5
21
0.675
31
0
39
0
210
0
220
0
230
1
0
LINE
5
AE
100
AcDbEntity
8
1
62
256
6
ByLayer
370
18
48
1
60
0
100
AcDbLine
10
9.875896
20
13.453684
30
0
11
9.16572
21
13.453684
31
0
39
0
210
0
220
0
230
1
0
LINE
5
AF
100
AcDbEntity
8
1
62
256
6
ByLayer
370
18
48
1
60
0
100
AcDbLine
10
9.875896
20
0.675
30
0
11
9.16572
21
0.675
31
0
39
0
210
0
220
0
230
1
0
LINE
5
B0
100
AcDbEntity
8
1
62
256
6
ByLayer
370
18
48
1
60
0
100
AcDbLine
10
9.875896
20
13.453684
30
0
11
9.875896
21
0.675
31
0
39
0
210
0
220
0
230
1
0
LINE
5
B1
100
AcDbEntity
8
1
62
256
6
ByLayer
370
13
48
1
60
0
100
AcDbLine
10
-10.588147
20
-0.249981
30
0
11
-9.966378
21
-0.249981
31
0
39
0
210
0
220
0
230
1
0
LINE
5
B2
100
AcDbEntity
8
1
62
256
6
ByLayer
370
18
48
1
60
0
100
AcDbLine
10
-11.023467
20
-0.324981
30
0
11
-11.132078
21
-0.324981
31
0
39
0
210
0
220
0
230
1
0
LINE
5
B3
100
AcDbEntity
8
1
62
256
6
ByLayer
370
18
48
1
60
0
100
AcDbLine
10
-9.404549
20
-0.324981
30
0
11
-9.769771
21
-0.324981
31
0
39
0
210
0
220
0
230
1
0
LINE
5
B4
100
AcDbEntity
8
1
62
256
6
ByLayer
370
13
48
1
60
0
100
AcDbLine
10
-11.127967
20
0.394519
30
0
11
-10.826097
21
0.394519
31
0
39
0
210
0
220
0
230
1
0
LINE
5
B5
100
AcDbEntity
8
1
62
256
6
ByLayer
370
18
48
1
60
0
100
AcDbLine
10
-8.864082
20
-0.324981
30
0
11
-6.742347
21
-0.324981
31
0
39
0
210
0
220
0
230
1
0
LINE
5
B6
100
AcDbEntity
8
1
62
256
6
ByLayer
370
13
48
1
60
0
100
AcDbLine
10
-8.812878
20
-0.249981
30
0
11
-7.153914
21
-0.249981
31
0
39
0
210
0
220
0
230
1
0
LINE
5
B7
100
AcDbEntity
8
1
62
256
6
ByLayer
370
13
48
1
60
0
100
AcDbLine
10
-9.395388
20
0.394519
30
0
11
-8.986711
21
0.394519
31
0
39
0
210
0
220
0
230
1
0
LINE
5
B8
100
AcDbEntity
8
1
62
256
6
ByLayer
370
18
48
1
60
0
100
AcDbLine
10
-6.326108
20
-0.324981
30
0
11
-1.735923
21
-0.324981
31
0
39
0
210
0
220
0
230
1
0
LINE
5
B9
100
AcDbEntity
8
1
62
256
6
ByLayer
370
18
48
1
60
0
100
AcDbLine
10
1.735923
20
-0.324981
30
0
11
6.326108
21
-0.324981
31
0
39
0
210
0
220
0
230
1
0
LINE
5
BA
100
AcDbEntity
8
1
62
256
6
ByLayer
370
18
48
1
60
0
100
AcDbLine
10
6.742492
20
-0.324981
30
0
11
6.326108
21
-0.324981
31
0
39
0
210
0
220
0
230
1
0
LINE
5
BB
100
AcDbEntity
8
1
62
256
6
ByLayer
370
13
48
1
60
0
100
AcDbLine
10
-6.222926
20
-0.249981
30
0
11
-3.020453
21
-0.249981
31
0
39
0
210
0
220
0
230
1
0
LINE
5
BC
100
AcDbEntity
8
1
62
256
6
ByLayer
370
13
48
1
60
0
100
AcDbLine
10
3.020453
20
-0.249981
30
0
11
6.222926
21
-0.249981
31
0
39
0
210
0
220
0
230
1
0
LINE
5
BD
100
AcDbEntity
8
1
62
256
6
ByLayer
370
13
48
1
60
0
100
AcDbLine
10
-6.943702
20
0.394519
30
0
11
-6.31048
21
0.394519
31
0
39
0
210
0
220
0
230
1
0
LINE
5
BE
100
AcDbEntity
8
1
62
256
6
ByLayer
370
13
48
1
60
0
100
AcDbLine
10
6.310499
20
0.394519
30
0
11
6.897224
21
0.394519
31
0
39
0
210
0
220
0
230
1
0
LINE
5
BF
100
AcDbEntity
8
1
62
256
6
ByLayer
370
13
48
1
60
0
100
AcDbLine
10
-1.912242
20
0.394519
30
0
11
1.912242
21
0.394519
31
0
39
0
210
0
220
0
230
1
0
LINE
5
C0
100
AcDbEntity
8
1
62
256
6
ByLayer
370
18
48
1
60
0
100
AcDbLine
10
-13.703327
20
-0.324981
30
0
11
-13.791289
21
-0.324981
31
0
39
0
210
0
220
0
230
1
0
LINE
5
C1
100
AcDbEntity
8
1
62
256
6
ByLayer
370
18
48
1
60
0
100
AcDbLine
10
-12.9317
20
-0.324981
30
0
11
-13.048064
21
-0.324981
31
0
39
0
210
0
220
0
230
1
0
LINE
5
C2
100
AcDbEntity
8
1
62
256
6
ByLayer
370
18
48
1
60
0
100
AcDbLine
10
-11.923781
20
-0.324981
30
0
11
-12.074944
21
-0.324981
31
0
39
0
210
0
220
0
230
1
0
LINE
5
C3
100
AcDbEntity
8
1
62
256
6
ByLayer
370
18
48
1
60
0
100
AcDbLine
10
-10.612458
20
-0.324981
30
0
11
-10.810022
21
-0.324981
31
0
39
0
210
0
220
0
230
1
0
LINE
5
C4
100
AcDbEntity
8
1
62
256
6
ByLayer
370
18
48
1
60
0
100
AcDbLine
10
-8.864082
20
-0.324981
30
0
11
-9.132847
21
-0.324981
31
0
39
0
210
0
220
0
230
1
0
LINE
5
C5
100
AcDbEntity
8
1
62
256
6
ByLayer
370
18
48
1
60
0
100
AcDbLine
10
-6.326108
20
-0.324981
30
0
11
-6.742492
21
-0.324981
31
0
39
0
210
0
220
0
230
1
0
LINE
5
C6
100
AcDbEntity
8
1
62
256
6
ByLayer
370
18
48
1
60
0
100
AcDbLine
10
1.735945
20
-0.324981
30
0
11
-1.735945
21
-0.324981
31
0
39
0
210
0
220
0
230
1
0
LINE
5
C7
100
AcDbEntity
8
1
62
256
6
ByLayer
370
18
48
1
60
0
100
AcDbLine
10
-15
20
0.675
30
0
11
-15
21
0.875
31
0
39
0
210
0
220
0
230
1
0
LINE
5
C8
100
AcDbEntity
8
1
62
256
6
ByLayer
370
18
48
1
60
0
100
AcDbLine
10
-15
20
0.675
30
0
11
6.286925
21
0.675
31
0
39
0
210
0
220
0
230
1
0
LINE
5
C9
100
AcDbEntity
8
1
62
256
6
ByLayer
370
13
48
1
60
0
100
AcDbLine
10
6.286925
20
0.875
30
0
11
-15
21
0.875
31
0
39
0
210
0
220
0
230
1
0
LINE
5
CA
100
AcDbEntity
8
1
62
256
6
ByLayer
370
18
48
1
60
0
100
AcDbLine
10
0
20
13.453684
30
0
11
-7.646316
21
13.453684
31
0
39
0
210
0
220
0
230
1
0
LINE
5
CB
100
AcDbEntity
8
1
62
256
6
ByLayer
370
18
48
1
60
0
100
AcDbLine
10
-7.646316
20
13.453684
30
0
11
-15
21
6.1
31
0
39
0
210
0
220
0
230
1
0
LINE
5
CC
100
AcDbEntity
8
1
62
256
6
ByLayer
370
18
48
1
60
0
100
AcDbLine
10
-15
20
6.1
30
0
11
-15
21
1.092945
31
0
39
0
210
0
220
0
230
1
0
LINE
5
CD
100
AcDbEntity
8
1
62
256
6
ByLayer
370
18
48
1
60
0
100
AcDbLine
10
0
20
1.092945
30
0
11
-15
21
1.092945
31
0
39
0
210
0
220
0
230
1
0
LINE
5
CE
100
AcDbEntity
8
1
62
256
6
ByLayer
370
18
48
1
60
0
100
AcDbLine
10
4.95
20
13.453684
30
0
11
0
21
13.453684
31
0
39
0
210
0
220
0
230
1
0
LINE
5
CF
100
AcDbEntity
8
1
62
256
6
ByLayer
370
13
48
1
60
0
100
AcDbLine
10
0
20
13.453684
30
0
11
0
21
1.092945
31
0
39
0
210
0
220
0
230
1
0
LINE
5
D0
100
AcDbEntity
8
1
62
256
6
ByLayer
370
18
48
1
60
0
100
AcDbLine
10
4.95
20
1.375
30
0
11
3.827205
21
1.375
31
0
39
0
210
0
220
0
230
1
0
LINE
5
D1
100
AcDbEntity
8
1
62
256
6
ByLayer
370
18
48
1
60
0
100
AcDbLine
10
4.95
20
13.453684
30
0
11
4.95
21
1.375
31
0
39
0
210
0
220
0
230
1
0
LINE
5
D2
100
AcDbEntity
8
1
62
256
6
ByLayer
370
18
48
1
60
0
100
AcDbLine
10
5.413253
20
1.375
30
0
11
4.95
21
1.375
31
0
39
0
210
0
220
0
230
1
0
LINE
5
D3
100
AcDbEntity
8
1
62
256
6
ByLayer
370
18
48
1
60
0
100
AcDbLine
10
6.286925
20
0.675
30
0
11
6.286925
21
0.875
31
0
39
0
210
0
220
0
230
1
0
LINE
5
D4
100
AcDbEntity
8
1
62
256
6
ByLayer
370
18
48
1
60
0
100
AcDbLine
10
6.897224
20
0.394519
30
0
11
6.913296
21
0.366682
31
0
39
0
210
0
220
0
230
1
0
LINE
5
D5
100
AcDbEntity
8
1
62
256
6
ByLayer
370
18
48
1
60
0
100
AcDbLine
10
7.958424
20
0.475
30
0
11
7.661707
21
0.057192
31
0
39
0
210
0
220
0
230
1
0
LINE
5
D6
100
AcDbEntity
8
1
62
256
6
ByLayer
370
18
48
1
60
0
100
AcDbLine
10
7.958424
20
0.675
30
0
11
7.958424
21
0.475
31
0
39
0
210
0
220
0
230
1
0
LINE
5
D7
100
AcDbEntity
8
1
62
256
6
ByLayer
370
18
48
1
60
0
100
AcDbLine
10
9.165721
20
0.675
30
0
11
7.958424
21
0.675
31
0
39
0
210
0
220
0
230
1
0
LINE
5
D8
100
AcDbEntity
8
1
62
256
6
ByLayer
370
18
48
1
60
0
100
AcDbLine
10
9.165721
20
0.675
30
0
11
9.165721
21
13.453684
31
0
39
0
210
0
220
0
230
1
0
LINE
5
D9
100
AcDbEntity
8
1
62
256
6
ByLayer
370
18
48
1
60
0
100
AcDbLine
10
9.165721
20
13.453684
30
0
11
4.95
21
13.453684
31
0
39
0
210
0
220
0
230
1
0
LINE
5
DA
100
AcDbEntity
8
1
62
256
6
ByLayer
370
18
48
1
60
0
100
AcDbLine
10
16
20
0.675
30
0
11
12.874393
21
0.675
31
0
39
0
210
0
220
0
230
1
0
LINE
5
DB
100
AcDbEntity
8
1
62
256
6
ByLayer
370
13
48
1
60
0
100
AcDbLine
10
16
20
0.875
30
0
11
12.874393
21
0.875
31
0
39
0
210
0
220
0
230
1
0
LINE
5
DC
100
AcDbEntity
8
1
62
256
6
ByLayer
370
18
48
1
60
0
100
AcDbLine
10
33.905806
20
13.995223
30
0
11
32.983187
21
13.938959
31
0
39
0
210
0
220
0
230
1
0
LINE
5
DD
100
AcDbEntity
8
1
62
256
6
ByLayer
370
18
48
1
60
0
100
AcDbLine
10
32.983187
20
13.938959
30
0
11
32.199374
21
13.896188
31
0
39
0
210
0
220
0
230
1
0
LINE
5
DE
100
AcDbEntity
8
1
62
256
6
ByLayer
370
18
48
1
60
0
100
AcDbLine
10
32.983187
20
11.568409
30
0
11
32.983187
21
13.938959
31
0
39
0
210
0
220
0
230
1
0
LINE
5
DF
100
AcDbEntity
8
1
62
256
6
ByLayer
370
13
48
1
60
0
100
AcDbLine
10
30.9827
20
12.500958
30
0
11
28.062447
21
12.500958
31
0
39
0
210
0
220
0
230
1
0
LINE
5
E0
100
AcDbEntity
8
1
62
256
6
ByLayer
370
13
48
1
60
0
100
AcDbLine
10
31.632766
20
12.708313
30
0
11
28.099031
21
12.708313
31
0
39
0
210
0
220
0
230
1
0
LINE
5
E1
100
AcDbEntity
8
1
62
256
6
ByLayer
370
13
48
1
60
0
100
AcDbLine
10
27.990316
20
12.894466
30
0
11
30.9827
21
12.894466
31
0
39
0
210
0
220
0
230
1
0
LINE
5
E2
100
AcDbEntity
8
1
62
256
6
ByLayer
370
13
48
1
60
0
100
AcDbLine
10
28.058703
20
12.496827
30
0
11
30.938491
21
12.496827
31
0
39
0
210
0
220
0
230
1
0
LINE
5
E3
100
AcDbEntity
8
1
62
256
6
ByLayer
370
13
48
1
60
0
100
AcDbLine
10
27.985612
20
12.897155
30
0
11
30.938491
21
12.897155
31
0
39
0
210
0
220
0
230
1
0
LINE
5
E4
100
AcDbEntity
8
1
62
256
6
ByLayer
370
13
48
1
60
0
100
AcDbLine
10
27.989064
20
12.437127
30
0
11
30.351033
21
12.437127
31
0
39
0
210
0
220
0
230
1
0
LINE
5
E5
100
AcDbEntity
8
1
62
256
6
ByLayer
370
13
48
1
60
0
100
AcDbLine
10
27.942931
20
12.937696
30
0
11
30.351033
21
12.937696
31
0
39
0
210
0
220
0
230
1
0
LINE
5
E6
100
AcDbEntity
8
1
62
256
6
ByLayer
370
13
48
1
60
0
100
AcDbLine
10
27.951529
20
12.312218
30
0
11
29.843277
21
12.312218
31
0
39
0
210
0
220
0
230
1
0
LINE
5
E7
100
AcDbEntity
8
1
62
256
6
ByLayer
370
13
48
1
60
0
100
AcDbLine
10
27.878071
20
11.843311
30
0
11
29.090837
21
11.843311
31
0
39
0
210
0
220
0
230
1
0
LINE
5
E8
100
AcDbEntity
8
1
62
256
6
ByLayer
370
13
48
1
60
0
100
AcDbLine
10
29.051381
20
11.79336
30
0
11
27.870159
21
11.79336
31
0
39
0
210
0
220
0
230
1
0
LINE
5
E9
100
AcDbEntity
8
1
62
256
6
ByLayer
370
13
48
1
60
0
100
AcDbLine
10
27.915137
20
13.046044
30
0
11
29.843277
21
13.046044
31
0
39
0
210
0
220
0
230
1
0
LINE
5
EA
100
AcDbEntity
8
1
62
256
6
ByLayer
370
13
48
1
60
0
100
AcDbLine
10
29.090837
20
13.490411
30
0
11
27.801033
21
13.490411
31
0
39
0
210
0
220
0
230
1
0
LINE
5
EB
100
AcDbEntity
8
1
62
256
6
ByLayer
370
13
48
1
60
0
100
AcDbLine
10
31.044849
20
13.695778
30
0
11
31.63797
21
13.830392
31
0
39
0
210
0
220
0
230
1
0
LINE
5
EC
100
AcDbEntity
8
1
62
256
6
ByLayer
370
13
48
1
60
0
100
AcDbLine
10
33.9
20
13.994869
30
0
11
33.9
21
14.096205
31
0
39
0
210
0
220
0
230
1
0
LINE
5
ED
100
AcDbEntity
8
1
62
256
6
ByLayer
370
18
48
1
60
0
100
AcDbLine
10
32.199374
20
13.896188
30
0
11
31.862432
21
13.876405
31
0
39
0
210
0
220
0
230
1
0
LINE
5
EE
100
AcDbEntity
8
1
62
256
6
ByLayer
370
18
48
1
60
0
100
AcDbLine
10
31.822759
20
13.870065
30
0
11
31.292478
21
13.729927
31
0
39
0
210
0
220
0
230
1
0
LINE
5
EF
100
AcDbEntity
8
1
62
256
6
ByLayer
370
18
48
1
60
0
100
AcDbLine
10
29.051381
20
13.66327
30
0
11
31.044849
21
13.695778
31
0
39
0
210
0
220
0
230
1
0
LINE
5
F0
100
AcDbEntity
8
1
62
256
6
ByLayer
370
18
48
1
60
0
100
AcDbLine
10
29.090837
20
13.490411
30
0
11
29.843277
21
13.046044
31
0
39
0
210
0
220
0
230
1
0
LINE
5
F1
100
AcDbEntity
8
1
62
256
6
ByLayer
370
18
48
1
60
0
100
AcDbLine
10
30.938491
20
12.897155
30
0
11
30.9827
21
12.894466
31
0
39
0
210
0
220
0
230
1
0
LINE
5
F2
100
AcDbEntity
8
1
62
256
6
ByLayer
370
18
48
1
60
0
100
AcDbLine
10
30.9827
20
12.500958
30
0
11
30.938491
21
12.496827
31
0
39
0
210
0
220
0
230
1
0
LINE
5
F3
100
AcDbEntity
8
1
62
256
6
ByLayer
370
18
48
1
60
0
100
AcDbLine
10
29.843277
20
12.312218
30
0
11
29.090837
21
11.843311
31
0
39
0
210
0
220
0
230
1
0
LINE
5
F4
100
AcDbEntity
8
1
62
256
6
ByLayer
370
18
48
1
60
0
100
AcDbLine
10
29.051381
20
11.79336
30
0
11
29.051381
21
11.669165
31
0
39
0
210
0
220
0
230
1
0
LINE
5
F5
100
AcDbEntity
8
1
62
256
6
ByLayer
370
18
48
1
60
0
100
AcDbLine
10
32.199374
20
11.538917
30
0
11
32.199374
21
13.896188
31
0
39
0
210
0
220
0
230
1
0
LINE
5
F6
100
AcDbEntity
8
1
62
256
6
ByLayer
370
18
48
1
60
0
100
AcDbLine
10
29.051381
20
13.66327
30
0
11
29.051381
21
13.539075
31
0
39
0
210
0
220
0
230
1
0
LINE
5
F7
100
AcDbEntity
8
1
62
256
6
ByLayer
370
18
48
1
60
0
100
AcDbLine
10
29.051381
20
13.66327
30
0
11
27.756738
21
13.66327
31
0
39
0
210
0
220
0
230
1
0
LINE
5
F8
100
AcDbEntity
8
1
62
256
6
ByLayer
370
13
48
1
60
0
100
AcDbLine
10
27.788619
20
13.539075
30
0
11
29.051381
21
13.539075
31
0
39
0
210
0
220
0
230
1
0
LINE
5
F9
100
AcDbEntity
8
1
62
256
6
ByLayer
370
18
48
1
60
0
100
AcDbLine
10
31.292478
20
11.6756
30
0
11
31.822759
21
11.552757
31
0
39
0
210
0
220
0
230
1
0
LINE
5
FA
100
AcDbEntity
8
1
62
256
6
ByLayer
370
18
48
1
60
0
100
AcDbLine
10
34.35
20
11.704117
30
0
11
34.35
21
13.803251
31
0
39
0
210
0
220
0
230
1
0
LINE
5
FB
100
AcDbEntity
8
1
62
256
6
ByLayer
370
18
48
1
60
0
100
AcDbLine
10
31.862432
20
11.54771
30
0
11
32.199374
21
11.538917
31
0
39
0
210
0
220
0
230
1
0
LINE
5
FC
100
AcDbEntity
8
1
62
256
6
ByLayer
370
18
48
1
60
0
100
AcDbLine
10
32.983187
20
11.568409
30
0
11
33.905806
21
11.512145
31
0
39
0
210
0
220
0
230
1
0
LINE
5
FD
100
AcDbEntity
8
1
62
256
6
ByLayer
370
18
48
1
60
0
100
AcDbLine
10
32.199374
20
11.538917
30
0
11
32.983187
21
11.568409
31
0
39
0
210
0
220
0
230
1
0
LINE
5
FE
100
AcDbEntity
8
1
62
256
6
ByLayer
370
18
48
1
60
0
100
AcDbLine
10
31.044849
20
11.701673
30
0
11
29.051381
21
11.669165
31
0
39
0
210
0
220
0
230
1
0
LINE
5
FF
100
AcDbEntity
8
1
62
256
6
ByLayer
370
18
48
1
60
0
100
AcDbLine
10
21.775259
20
11.669165
30
0
11
29.051381
21
11.669165
31
0
39
0
210
0
220
0
230
1
0
MTEXT
5
198
100
AcDbEntity
8
SK6
62
256
6
ByLayer
370
18
48
1
60
0
100
AcDbMText
10
-22.6395
20
-46.628675
30
0
210
0
220
0
230
1
1
\W0.7806;C2A-SL32-LGF12B-040GB
40
3.5
41
0
44
1.084337
50
0
71
7
72
5
7
iso_b_vert
0
DIMENSION
5
19D
100
AcDbEntity
8
2
62
256
6
ByLayer
370
18
48
1
60
0
100
AcDbDimension
2
_U0
10
34.35
20
-19.75
30
0
11
17.175
21
-19.75
31
0
70
32
71
1
72
1
41
1
210
0
220
0
230
1
3
Standard
100
AcDbAlignedDimension
13
0
23
0
33
0
14
34.35
24
14
34
0
50
0
100
AcDbRotatedDimension
1001
ACAD
1000
DSTYLE
1002
{
1070
   371
1070
    13
1070
   372
1070
    13
1070
   170
1070
     0
1070
   144
1040
1.0
1070
   277
1070
     2
1070
   284
1070
     8
1070
   278
1070
    46
1070
   146
1040
1.0
1070
   345
1005
16
1070
   347
1005
16
1070
   346
1005
16
1070
   344
1005
0
1070
   343
1005
0
1070
   172
1070
     1
1070
    76
1070
     0
1070
    75
1070
     0
1070
   282
1070
     0
1070
   281
1070
     0
1070
    71
1070
     0
1070
    74
1070
     0
1070
   279
1070
     0
1070
   173
1070
     1
1070
   340
1005
199
1070
   271
1070
     2
1070
   272
1070
     2
1070
    77
1070
     1
1070
    73
1070
     1
1070
   171
1070
     3
1070
   274
1070
     4
1070
   177
1070
     2
1070
   176
1070
     2
1070
   178
1070
     2
1070
    78
1070
     8
1070
    48
1040
-0.1
1070
    41
1040
3.5
1070
   147
1040
1.75
1070
    42
1040
1.5875
1070
    44
1040
2.0
1070
   140
1040
3.5
1002
}
1001
ACAD_DSTYLE_DIM_LINETYPE
1070
   380
1005
16
1001
ACAD_DSTYLE_DIM_EXT1_LINETYPE
1070
   381
1005
16
1001
ACAD_DSTYLE_DIM_EXT2_LINETYPE
1070
   382
1005
16
0
DIMENSION
5
1B7
100
AcDbEntity
8
2
62
256
6
ByLayer
370
18
48
1
60
0
100
AcDbDimension
2
_U1
10
34.35
20
-11.75
30
0
11
28.35
21
-11.75
31
0
70
32
71
1
72
1
41
1
210
0
220
0
230
1
3
Standard
100
AcDbAlignedDimension
13
22.35
23
11.753684
33
0
14
34.35
24
14
34
0
50
0
100
AcDbRotatedDimension
1001
ACAD
1000
DSTYLE
1002
{
1070
   371
1070
    13
1070
   372
1070
    13
1070
   170
1070
     0
1070
   144
1040
1.0
1070
   277
1070
     2
1070
   284
1070
     8
1070
   278
1070
    46
1070
   146
1040
1.0
1070
   345
1005
16
1070
   347
1005
16
1070
   346
1005
16
1070
   344
1005
0
1070
   343
1005
0
1070
   172
1070
     1
1070
    76
1070
     0
1070
    75
1070
     0
1070
   282
1070
     0
1070
   281
1070
     0
1070
    71
1070
     0
1070
    74
1070
     0
1070
   279
1070
     0
1070
   173
1070
     1
1070
   340
1005
199
1070
   271
1070
     2
1070
   272
1070
     2
1070
    77
1070
     1
1070
    73
1070
     1
1070
   171
1070
     3
1070
   274
1070
     4
1070
   177
1070
     2
1070
   176
1070
     2
1070
   178
1070
     2
1070
    78
1070
     8
1070
    48
1040
-0.1
1070
    41
1040
3.5
1070
   147
1040
1.75
1070
    42
1040
1.5875
1070
    44
1040
2.0
1070
   140
1040
3.5
1002
}
1001
ACAD_DSTYLE_DIM_LINETYPE
1070
   380
1005
16
1001
ACAD_DSTYLE_DIM_EXT1_LINETYPE
1070
   381
1005
16
1001
ACAD_DSTYLE_DIM_EXT2_LINETYPE
1070
   382
1005
16
0
DIMENSION
5
1D0
100
AcDbEntity
8
2
62
256
6
ByLayer
370
18
48
1
60
0
100
AcDbDimension
2
_U2
10
59.1
20
0
30
0
11
59.1
21
7
31
0
70
32
71
1
72
1
41
1
210
0
220
0
230
1
3
Standard
100
AcDbAlignedDimension
13
34.35
23
14
33
0
14
0
24
0
34
0
50
90
100
AcDbRotatedDimension
1001
ACAD
1000
DSTYLE
1002
{
1070
   371
1070
    13
1070
   372
1070
    13
1070
   170
1070
     0
1070
   144
1040
1.0
1070
   277
1070
     2
1070
   284
1070
     8
1070
   278
1070
    46
1070
   146
1040
1.0
1070
   345
1005
16
1070
   347
1005
16
1070
   346
1005
16
1070
   344
1005
0
1070
   343
1005
0
1070
   172
1070
     1
1070
    76
1070
     0
1070
    75
1070
     0
1070
   282
1070
     0
1070
   281
1070
     0
1070
    71
1070
     0
1070
    74
1070
     0
1070
   279
1070
     0
1070
   173
1070
     1
1070
   340
1005
199
1070
   271
1070
     2
1070
   272
1070
     2
1070
    77
1070
     1
1070
    73
1070
     0
1070
   171
1070
     3
1070
   274
1070
     4
1070
   177
1070
     2
1070
   176
1070
     2
1070
   178
1070
     2
1070
    78
1070
     8
1070
    48
1040
-0.1
1070
    41
1040
3.5
1070
   147
1040
1.75
1070
    42
1040
1.5875
1070
    44
1040
2.0
1070
   140
1040
3.5
1002
}
1001
ACAD_DSTYLE_DIM_LINETYPE
1070
   380
1005
16
1001
ACAD_DSTYLE_DIM_EXT1_LINETYPE
1070
   381
1005
16
1001
ACAD_DSTYLE_DIM_EXT2_LINETYPE
1070
   382
1005
16
0
DIMENSION
5
1E9
100
AcDbEntity
8
2
62
256
6
ByLayer
370
18
48
1
60
0
100
AcDbDimension
2
_U3
10
46.1
20
11.5
30
0
11
46.1
21
12.75
31
0
70
32
71
1
72
1
41
1
210
0
220
0
230
1
3
Standard
100
AcDbAlignedDimension
13
34.35
23
14
33
0
14
34.35
24
11.5
34
0
50
90
100
AcDbRotatedDimension
1001
ACAD
1000
DSTYLE
1002
{
1070
   371
1070
    13
1070
   372
1070
    13
1070
   170
1070
     0
1070
   144
1040
1.0
1070
   277
1070
     2
1070
   284
1070
     8
1070
   278
1070
    46
1070
   146
1040
1.0
1070
   345
1005
16
1070
   347
1005
16
1070
   346
1005
16
1070
   344
1005
0
1070
   343
1005
0
1070
   172
1070
     1
1070
    76
1070
     0
1070
    75
1070
     0
1070
   282
1070
     0
1070
   281
1070
     0
1070
    71
1070
     0
1070
    74
1070
     0
1070
   279
1070
     0
1070
   173
1070
     1
1070
   340
1005
199
1070
   271
1070
     2
1070
   272
1070
     2
1070
    77
1070
     1
1070
    73
1070
     0
1070
   171
1070
     3
1070
   274
1070
     4
1070
   177
1070
     2
1070
   176
1070
     2
1070
   178
1070
     2
1070
    78
1070
     8
1070
    48
1040
-0.1
1070
    41
1040
3.5
1070
   147
1040
1.75
1070
    42
1040
1.5875
1070
    44
1040
2.0
1070
   140
1040
3.5
1002
}
1001
ACAD_DSTYLE_DIM_LINETYPE
1070
   380
1005
16
1001
ACAD_DSTYLE_DIM_EXT1_LINETYPE
1070
   381
1005
16
1001
ACAD_DSTYLE_DIM_EXT2_LINETYPE
1070
   382
1005
16
0
ENDSEC
0
SECTION
2
OBJECTS
0
DICTIONARY
5
26f
330
0
100
AcDbDictionary
280
0
281
1
3
ACAD_GROUP
350
270
3
ACAD_MLINESTYLE
350
271
0
DICTIONARY
5
270
330
0
100
AcDbDictionary
280
0
281
1
0
DICTIONARY
5
271
330
0
100
AcDbDictionary
280
0
281
1
3
Standard
350
18
0
MLINESTYLE
5
18
330
271
100
AcDbMlineStyle
2
Standard
70
0
3

62
256
51
90
52
90
71
2
49
-0.5
62
256
6
ByLayer
49
0.5
62
256
6
ByLayer
0
RASTERVARIABLES
5
260
330

100
AcDbRasterVariables
90
0
70
1
71
1
72
1
0
ENDSEC
0
EOF
