0
SECTION
2
HEADER
9
$ACADVER
1
AC1015
9
$DWGCODEPAGE
3
ANSI_1252
9
$HANDSEED
5
28c
9
$ANGBASE
50
0
9
$ANGDIR
70
0
9
$ATTMODE
70
1
9
$AUNITS
70
0
9
$AUPREC
70
0
9
$CECOLOR
62
256
9
$CELTSCALE
40
1
9
$CELTYPE
6
ByLayer
9
$CELWEIGHT
370
18
9
$CLAYER
8
0
9
$CMLJUST
70
0
9
$CMLSCALE
40
1
9
$CMLSTYLE
2
Standard
9
$DIMSTYLE
2
Standard
9
$TEXTSIZE
40
0.2
9
$TEXTSTYLE
7
Standard
9
$LUNITS
70
2
9
$LUPREC
70
4
9
$EXTNAMES
290
1
9
$INSUNITS
70
4
9
$LTSCALE
40
1
9
$LWDISPLAY
290
1
9
$PDMODE
70
0
9
$PDSIZE
40
0
9
$PLINEGEN
70
0
0
ENDSEC
0
SECTION
2
CLASSES
0
CLASS
1
RASTERVARIABLES
2
AcDbRasterVariables
3
ISM
90
0
280
0
281
0
0
ENDSEC
0
SECTION
2
TABLES
0
TABLE
2
VPORT
5
282
100
AcDbSymbolTable
0
VPORT
5
1
100
AcDbSymbolTableRecord
100
AcDbViewportTableRecord
2
*Active
70
0
10
0
20
0
11
1
21
1
12
-1
22
1
13
0
23
0
14
0.5
24
0.5
15
10
25
10
16
0
26
0
36
1
17
0
27
0
37
0
0
ENDTAB
0
TABLE
2
LTYPE
5
283
100
AcDbSymbolTable
0
LTYPE
5
14
100
AcDbSymbolTableRecord
100
AcDbLinetypeTableRecord
70
0
2
ByBlock
3

72
65
73
0
40
0
0
LTYPE
5
15
100
AcDbSymbolTableRecord
100
AcDbLinetypeTableRecord
70
0
2
ByLayer
3

72
65
73
0
40
0
0
LTYPE
5
16
100
AcDbSymbolTableRecord
100
AcDbLinetypeTableRecord
70
0
2
Continuous
3
Solid line
72
65
73
0
40
0
0
LTYPE
5
6E
100
AcDbSymbolTableRecord
100
AcDbLinetypeTableRecord
70
0
2
CENTER
3
____ _ ____ _ ____ _ ____
72
65
73
4
40
47.5
49
22
74
0
49
-8.5
74
0
49
8.5
74
0
49
-8.5
74
0
0
LTYPE
5
6F
100
AcDbSymbolTableRecord
100
AcDbLinetypeTableRecord
70
0
2
DASHED
3
__ __ __ __ __ __ __ __ __
72
65
73
2
40
25.72
49
12.86
74
0
49
-12.86
74
0
0
ENDTAB
0
TABLE
2
LAYER
5
284
100
AcDbSymbolTable
0
LAYER
5
10
100
AcDbSymbolTableRecord
100
AcDbLayerTableRecord
2
0
70
0
62
7
6
Continuous
290
1
370
-3
390
0
0
LAYER
5
71
100
AcDbSymbolTableRecord
100
AcDbLayerTableRecord
2
81
70
0
62
-3
6
Continuous
290
1
370
-3
390
0
0
LAYER
5
73
100
AcDbSymbolTableRecord
100
AcDbLayerTableRecord
2
80
70
0
62
-6
6
Continuous
290
1
370
-3
390
0
0
LAYER
5
75
100
AcDbSymbolTableRecord
100
AcDbLayerTableRecord
2
1
70
0
62
4
6
Continuous
290
1
370
-3
390
0
0
LAYER
5
1B2
100
AcDbSymbolTableRecord
100
AcDbLayerTableRecord
2
Defpoints
70
0
62
7
6
Continuous
290
0
370
-3
390
0
0
LAYER
5
1BF
100
AcDbSymbolTableRecord
100
AcDbLayerTableRecord
2
2
70
0
62
7
6
Continuous
290
1
370
-3
390
0
0
LAYER
5
271
100
AcDbSymbolTableRecord
100
AcDbLayerTableRecord
2
SK6
70
0
62
5
6
Continuous
290
1
370
-3
390
0
0
ENDTAB
0
TABLE
2
STYLE
5
285
100
AcDbSymbolTable
0
STYLE
5
11
100
AcDbSymbolTableRecord
100
AcDbTextStyleTableRecord
2
Standard
3
txt
70
0
71
0
40
0
41
1
42
0
50
0
0
STYLE
5
1AB
100
AcDbSymbolTableRecord
100
AcDbTextStyleTableRecord
2
iso_b_vert
3
simplex.shx
70
0
71
0
40
0
41
1
42
0
50
0
0
STYLE
5
1AC
100
AcDbSymbolTableRecord
100
AcDbTextStyleTableRecord
2
DWGDirectTextStyle
3
simplex
70
0
71
0
40
0
41
1
42
0
50
0
0
ENDTAB
0
TABLE
2
DIMSTYLE
5
286
100
AcDbSymbolTable
100
AcDbDimStyleTable
0
DIMSTYLE
105
27
100
AcDbSymbolTableRecord
100
AcDbDimStyleTableRecord
2
Standard
70
0
3
<>
41
0.18
42
0.0625
44
0.18
140
0.18
147
0.09
73
0
74
0
77
1
271
2
275
0
278
52
280
0
340
11
0
ENDTAB
0
TABLE
2
VIEW
5
287
100
AcDbSymbolTable
0
ENDTAB
0
TABLE
2
UCS
5
288
100
AcDbSymbolTable
0
ENDTAB
0
TABLE
2
APPID
5
289
100
AcDbSymbolTable
0
APPID
5
12
100
AcDbSymbolTableRecord
100
AcDbRegAppTableRecord
2
ACAD
70
0
0
APPID
5
1AE
100
AcDbSymbolTableRecord
100
AcDbRegAppTableRecord
2
ACAD_DSTYLE_DIMBREAK
70
0
0
APPID
5
230
100
AcDbSymbolTableRecord
100
AcDbRegAppTableRecord
2
ACAD_DSTYLE_DIM_LINETYPE
70
0
0
APPID
5
231
100
AcDbSymbolTableRecord
100
AcDbRegAppTableRecord
2
ACAD_DSTYLE_DIM_EXT1_LINETYPE
70
0
0
APPID
5
232
100
AcDbSymbolTableRecord
100
AcDbRegAppTableRecord
2
ACAD_DSTYLE_DIM_EXT2_LINETYPE
70
0
0
APPID
5
26D
100
AcDbSymbolTableRecord
100
AcDbRegAppTableRecord
2
ACAD_MLEADERVER
70
0
0
ENDTAB
0
TABLE
2
BLOCK_RECORD
5
28a
100
AcDbSymbolTable
0
BLOCK_RECORD
5
1F
100
AcDbSymbolTableRecord
100
AcDbBlockTableRecord
2
*Model_Space
340
0
70
0
0
BLOCK_RECORD
5
1B
100
AcDbSymbolTableRecord
100
AcDbBlockTableRecord
2
*Paper_Space
340
0
70
0
0
BLOCK_RECORD
5
23
100
AcDbSymbolTableRecord
100
AcDbBlockTableRecord
2
*Paper_Space0
340
0
70
0
0
BLOCK_RECORD
5
1B3
100
AcDbSymbolTableRecord
100
AcDbBlockTableRecord
2
*D1
340
0
70
0
0
BLOCK_RECORD
5
1C0
100
AcDbSymbolTableRecord
100
AcDbBlockTableRecord
2
_U0
340
0
70
0
0
BLOCK_RECORD
5
1CC
100
AcDbSymbolTableRecord
100
AcDbBlockTableRecord
2
*D3
340
0
70
0
0
BLOCK_RECORD
5
1D8
100
AcDbSymbolTableRecord
100
AcDbBlockTableRecord
2
_U1
340
0
70
0
0
BLOCK_RECORD
5
1E4
100
AcDbSymbolTableRecord
100
AcDbBlockTableRecord
2
*D5
340
0
70
0
0
BLOCK_RECORD
5
1F0
100
AcDbSymbolTableRecord
100
AcDbBlockTableRecord
2
_U2
340
0
70
0
0
BLOCK_RECORD
5
1FC
100
AcDbSymbolTableRecord
100
AcDbBlockTableRecord
2
*D7
340
0
70
0
0
BLOCK_RECORD
5
209
100
AcDbSymbolTableRecord
100
AcDbBlockTableRecord
2
_U3
340
0
70
0
0
ENDTAB
0
ENDSEC
0
SECTION
2
BLOCKS
0
BLOCK
5
20
100
AcDbEntity
8
0
100
AcDbBlockBegin
2
*Model_Space
70
0
10
0
20
0
30
0
3
*Model_Space
0
ENDBLK
5
21
100
AcDbEntity
8
0
100
AcDbBlockEnd
0
BLOCK
5
1C
100
AcDbEntity
8
0
100
AcDbBlockBegin
2
*Paper_Space
70
0
10
0
20
0
30
0
3
*Paper_Space
0
ENDBLK
5
1D
100
AcDbEntity
8
0
100
AcDbBlockEnd
0
BLOCK
5
24
100
AcDbEntity
8
0
100
AcDbBlockBegin
2
*Paper_Space0
70
0
10
0
20
0
30
0
3
*Paper_Space0
0
ENDBLK
5
25
100
AcDbEntity
8
0
100
AcDbBlockEnd
0
BLOCK
5
1B4
100
AcDbEntity
8
0
100
AcDbBlockBegin
2
*D1
70
1
10
0
20
0
30
0
3
*D1
0
LINE
5
1B6
100
AcDbEntity
8
0
62
256
6
ByLayer
370
-2
48
1
60
0
100
AcDbLine
10
0
20
1.5875
30
0
11
0
21
18.25
31
0
39
0
210
0
220
0
230
1
0
LINE
5
1B7
100
AcDbEntity
8
0
62
256
6
ByLayer
370
-2
48
1
60
0
100
AcDbLine
10
45.1
20
-16.4125
30
0
11
45.1
21
18.25
31
0
39
0
210
0
220
0
230
1
0
LINE
5
1B8
100
AcDbEntity
8
0
62
256
6
ByLayer
370
-2
48
1
60
0
100
AcDbLine
10
3.5
20
16.25
30
0
11
41.6
21
16.25
31
0
39
0
210
0
220
0
230
1
0
SOLID
5
1B9
100
AcDbEntity
8
0
62
256
6
ByLayer
370
-1
48
1
60
0
100
AcDbTrace
10
3.5
20
16.833333
30
0
11
3.5
21
15.666667
31
0
12
0
22
16.25
32
0
13
0
23
16.25
33
0
39
0
210
0
220
0
230
1
0
SOLID
5
1BA
100
AcDbEntity
8
0
62
256
6
ByLayer
370
-1
48
1
60
0
100
AcDbTrace
10
41.6
20
15.666667
30
0
11
41.6
21
16.833333
31
0
12
45.1
22
16.25
32
0
13
45.1
23
16.25
33
0
39
0
210
0
220
0
230
1
0
MTEXT
5
1BB
100
AcDbEntity
8
0
62
256
6
ByLayer
370
18
48
1
60
0
100
AcDbMText
10
22.55
20
23.25
30
0
210
0
220
0
230
1
1
\A1;45.1
40
3.5
41
0
44
1
50
0
71
5
72
5
7
iso_b_vert
0
POINT
5
1BC
100
AcDbEntity
8
Defpoints
62
0
6
ByLayer
370
-1
48
1
60
0
100
AcDbPoint
10
0
20
0
30
0
39
0
210
0
220
0
230
1
50
360
0
POINT
5
1BD
100
AcDbEntity
8
Defpoints
62
0
6
ByLayer
370
-1
48
1
60
0
100
AcDbPoint
10
45.1
20
-18
30
0
39
0
210
0
220
0
230
1
50
360
0
POINT
5
1BE
100
AcDbEntity
8
Defpoints
62
0
6
ByLayer
370
-1
48
1
60
0
100
AcDbPoint
10
45.1
20
16.25
30
0
39
0
210
0
220
0
230
1
50
360
0
ENDBLK
5
1B5
100
AcDbEntity
8
0
100
AcDbBlockEnd
0
BLOCK
5
1C7
100
AcDbEntity
8
0
100
AcDbBlockBegin
2
_U0
70
0
10
0
20
0
30
0
3
_U0
0
MTEXT
5
1C1
100
AcDbEntity
8
2
62
256
6
ByLayer
370
18
48
1
60
0
100
AcDbMText
10
18.881467
20
17.282634
30
0
210
0
220
0
230
1
1
\W0.7531;45.1
40
3.5
41
0
44
1.084337
50
0
71
7
72
5
7
iso_b_vert
0
LINE
5
1C2
100
AcDbEntity
8
2
62
256
6
ByLayer
370
13
48
1
60
0
100
AcDbLine
10
0
20
1.5875
30
0
11
0
21
18.25
31
0
39
0
210
0
220
0
230
1
0
LINE
5
1C3
100
AcDbEntity
8
2
62
256
6
ByLayer
370
13
48
1
60
0
100
AcDbLine
10
45.1
20
-16.4125
30
0
11
45.1
21
18.25
31
0
39
0
210
0
220
0
230
1
0
LINE
5
1C4
100
AcDbEntity
8
2
62
256
6
ByLayer
370
13
48
1
60
0
100
AcDbLine
10
0
20
16.25
30
0
11
45.1
21
16.25
31
0
39
0
210
0
220
0
230
1
0
SOLID
5
1C5
100
AcDbEntity
8
2
62
256
6
ByLayer
370
18
48
1
60
0
100
AcDbTrace
10
0
20
16.25
30
0
11
3.499998
21
16.710784
31
0
12
3.500002
22
15.789216
32
0
13
3.500002
23
15.789216
33
0
39
0
210
0
220
0
230
1
0
SOLID
5
1C6
100
AcDbEntity
8
2
62
256
6
ByLayer
370
18
48
1
60
0
100
AcDbTrace
10
45.1
20
16.25
30
0
11
41.600002
21
15.789216
31
0
12
41.599998
22
16.710784
32
0
13
41.599998
23
16.710784
33
0
39
0
210
0
220
0
230
1
0
ENDBLK
5
1C8
100
AcDbEntity
8
0
100
AcDbBlockEnd
0
BLOCK
5
1CD
100
AcDbEntity
8
0
100
AcDbBlockBegin
2
*D3
70
1
10
0
20
0
30
0
3
*D3
0
LINE
5
1CF
100
AcDbEntity
8
0
62
256
6
ByLayer
370
-2
48
1
60
0
100
AcDbLine
10
27.1
20
-10.7375
30
0
11
27.1
21
10.25
31
0
39
0
210
0
220
0
230
1
0
LINE
5
1D0
100
AcDbEntity
8
0
62
256
6
ByLayer
370
-2
48
1
60
0
100
AcDbLine
10
45.1
20
-16.4125
30
0
11
45.1
21
10.25
31
0
39
0
210
0
220
0
230
1
0
LINE
5
1D1
100
AcDbEntity
8
0
62
256
6
ByLayer
370
-2
48
1
60
0
100
AcDbLine
10
30.6
20
8.25
30
0
11
41.6
21
8.25
31
0
39
0
210
0
220
0
230
1
0
SOLID
5
1D2
100
AcDbEntity
8
0
62
256
6
ByLayer
370
-1
48
1
60
0
100
AcDbTrace
10
30.6
20
8.833333
30
0
11
30.6
21
7.666667
31
0
12
27.1
22
8.25
32
0
13
27.1
23
8.25
33
0
39
0
210
0
220
0
230
1
0
SOLID
5
1D3
100
AcDbEntity
8
0
62
256
6
ByLayer
370
-1
48
1
60
0
100
AcDbTrace
10
41.6
20
7.666667
30
0
11
41.6
21
8.833333
31
0
12
45.1
22
8.25
32
0
13
45.1
23
8.25
33
0
39
0
210
0
220
0
230
1
0
MTEXT
5
1D4
100
AcDbEntity
8
0
62
256
6
ByLayer
370
18
48
1
60
0
100
AcDbMText
10
36.1
20
15.25
30
0
210
0
220
0
230
1
1
\A1;18
40
3.5
41
0
44
1
50
0
71
5
72
5
7
iso_b_vert
0
POINT
5
1D5
100
AcDbEntity
8
Defpoints
62
0
6
ByLayer
370
-1
48
1
60
0
100
AcDbPoint
10
27.1
20
-12.325
30
0
39
0
210
0
220
0
230
1
50
360
0
POINT
5
1D6
100
AcDbEntity
8
Defpoints
62
0
6
ByLayer
370
-1
48
1
60
0
100
AcDbPoint
10
45.1
20
-18
30
0
39
0
210
0
220
0
230
1
50
360
0
POINT
5
1D7
100
AcDbEntity
8
Defpoints
62
0
6
ByLayer
370
-1
48
1
60
0
100
AcDbPoint
10
45.1
20
8.25
30
0
39
0
210
0
220
0
230
1
50
360
0
ENDBLK
5
1CE
100
AcDbEntity
8
0
100
AcDbBlockEnd
0
BLOCK
5
1DF
100
AcDbEntity
8
0
100
AcDbBlockBegin
2
_U1
70
0
10
0
20
0
30
0
3
_U1
0
MTEXT
5
1D9
100
AcDbEntity
8
2
62
256
6
ByLayer
370
18
48
1
60
0
100
AcDbMText
10
34.632467
20
9.282634
30
0
210
0
220
0
230
1
1
\W0.5321;18
40
3.5
41
0
44
1.084337
50
0
71
7
72
5
7
iso_b_vert
0
LINE
5
1DA
100
AcDbEntity
8
2
62
256
6
ByLayer
370
13
48
1
60
0
100
AcDbLine
10
27.1
20
-10.7375
30
0
11
27.1
21
10.25
31
0
39
0
210
0
220
0
230
1
0
LINE
5
1DB
100
AcDbEntity
8
2
62
256
6
ByLayer
370
13
48
1
60
0
100
AcDbLine
10
45.1
20
-16.4125
30
0
11
45.1
21
10.25
31
0
39
0
210
0
220
0
230
1
0
LINE
5
1DC
100
AcDbEntity
8
2
62
256
6
ByLayer
370
13
48
1
60
0
100
AcDbLine
10
27.1
20
8.25
30
0
11
45.1
21
8.25
31
0
39
0
210
0
220
0
230
1
0
SOLID
5
1DD
100
AcDbEntity
8
2
62
256
6
ByLayer
370
18
48
1
60
0
100
AcDbTrace
10
27.1
20
8.25
30
0
11
30.599998
21
8.710784
31
0
12
30.600002
22
7.789216
32
0
13
30.600002
23
7.789216
33
0
39
0
210
0
220
0
230
1
0
SOLID
5
1DE
100
AcDbEntity
8
2
62
256
6
ByLayer
370
18
48
1
60
0
100
AcDbTrace
10
45.1
20
8.25
30
0
11
41.600002
21
7.789216
31
0
12
41.599998
22
8.710784
32
0
13
41.599998
23
8.710784
33
0
39
0
210
0
220
0
230
1
0
ENDBLK
5
1E0
100
AcDbEntity
8
0
100
AcDbBlockEnd
0
BLOCK
5
1E5
100
AcDbEntity
8
0
100
AcDbBlockBegin
2
*D5
70
1
10
0
20
0
30
0
3
*D5
0
LINE
5
1E7
100
AcDbEntity
8
0
62
256
6
ByLayer
370
-2
48
1
60
0
100
AcDbLine
10
46.6875
20
-18
30
0
11
71.85
21
-18
31
0
39
0
210
0
220
0
230
1
0
LINE
5
1E8
100
AcDbEntity
8
0
62
256
6
ByLayer
370
-2
48
1
60
0
100
AcDbLine
10
1.5875
20
0
30
0
11
71.85
21
0
31
0
39
0
210
0
220
0
230
1
0
LINE
5
1E9
100
AcDbEntity
8
0
62
256
6
ByLayer
370
-2
48
1
60
0
100
AcDbLine
10
69.85
20
-14.5
30
0
11
69.85
21
-3.5
31
0
39
0
210
0
220
0
230
1
0
SOLID
5
1EA
100
AcDbEntity
8
0
62
256
6
ByLayer
370
-1
48
1
60
0
100
AcDbTrace
10
69.266667
20
-14.5
30
0
11
70.433333
21
-14.5
31
0
12
69.85
22
-18
32
0
13
69.85
23
-18
33
0
39
0
210
0
220
0
230
1
0
SOLID
5
1EB
100
AcDbEntity
8
0
62
256
6
ByLayer
370
-1
48
1
60
0
100
AcDbTrace
10
70.433333
20
-3.5
30
0
11
69.266667
21
-3.5
31
0
12
69.85
22
0
32
0
13
69.85
23
0
33
0
39
0
210
0
220
0
230
1
0
MTEXT
5
1EC
100
AcDbEntity
8
0
62
256
6
ByLayer
370
18
48
1
60
0
100
AcDbMText
10
62.85
20
-9
30
0
210
0
220
0
230
1
1
\A1;18
40
3.5
41
0
44
1
50
90
71
5
72
5
7
iso_b_vert
0
POINT
5
1ED
100
AcDbEntity
8
Defpoints
62
0
6
ByLayer
370
-1
48
1
60
0
100
AcDbPoint
10
45.1
20
-18
30
0
39
0
210
0
220
0
230
1
50
360
0
POINT
5
1EE
100
AcDbEntity
8
Defpoints
62
0
6
ByLayer
370
-1
48
1
60
0
100
AcDbPoint
10
0
20
0
30
0
39
0
210
0
220
0
230
1
50
360
0
POINT
5
1EF
100
AcDbEntity
8
Defpoints
62
0
6
ByLayer
370
-1
48
1
60
0
100
AcDbPoint
10
69.85
20
0
30
0
39
0
210
0
220
0
230
1
50
360
0
ENDBLK
5
1E6
100
AcDbEntity
8
0
100
AcDbBlockEnd
0
BLOCK
5
1F7
100
AcDbEntity
8
0
100
AcDbBlockBegin
2
_U2
70
0
10
0
20
0
30
0
3
_U2
0
MTEXT
5
1F1
100
AcDbEntity
8
2
62
256
6
ByLayer
370
18
48
1
60
0
100
AcDbMText
10
69.160366
20
-10.495533
30
0
210
0
220
0
230
1
1
\W0.5321;18
40
3.5
41
0
44
1.084337
50
90
71
7
72
5
7
iso_b_vert
0
LINE
5
1F2
100
AcDbEntity
8
2
62
256
6
ByLayer
370
13
48
1
60
0
100
AcDbLine
10
46.6875
20
-18
30
0
11
71.85
21
-18
31
0
39
0
210
0
220
0
230
1
0
LINE
5
1F3
100
AcDbEntity
8
2
62
256
6
ByLayer
370
13
48
1
60
0
100
AcDbLine
10
1.5875
20
0
30
0
11
71.85
21
0
31
0
39
0
210
0
220
0
230
1
0
LINE
5
1F4
100
AcDbEntity
8
2
62
256
6
ByLayer
370
13
48
1
60
0
100
AcDbLine
10
69.85
20
-18
30
0
11
69.85
21
0
31
0
39
0
210
0
220
0
230
1
0
SOLID
5
1F5
100
AcDbEntity
8
2
62
256
6
ByLayer
370
18
48
1
60
0
100
AcDbTrace
10
69.85
20
-18
30
0
11
69.389216
21
-14.500002
31
0
12
70.310784
22
-14.499998
32
0
13
70.310784
23
-14.499998
33
0
39
0
210
0
220
0
230
1
0
SOLID
5
1F6
100
AcDbEntity
8
2
62
256
6
ByLayer
370
18
48
1
60
0
100
AcDbTrace
10
69.85
20
0
30
0
11
70.310784
21
-3.499998
31
0
12
69.389216
22
-3.500002
32
0
13
69.389216
23
-3.500002
33
0
39
0
210
0
220
0
230
1
0
ENDBLK
5
1F8
100
AcDbEntity
8
0
100
AcDbBlockEnd
0
BLOCK
5
1FD
100
AcDbEntity
8
0
100
AcDbBlockBegin
2
*D7
70
1
10
0
20
0
30
0
3
*D7
0
LINE
5
1FF
100
AcDbEntity
8
0
62
256
6
ByLayer
370
-2
48
1
60
0
100
AcDbLine
10
46.6875
20
-18
30
0
11
58.85
21
-18
31
0
39
0
210
0
220
0
230
1
0
LINE
5
200
100
AcDbEntity
8
0
62
256
6
ByLayer
370
-2
48
1
60
0
100
AcDbLine
10
46.6875
20
-12
30
0
11
58.85
21
-12
31
0
39
0
210
0
220
0
230
1
0
LINE
5
201
100
AcDbEntity
8
0
62
256
6
ByLayer
370
-2
48
1
60
0
100
AcDbLine
10
56.85
20
-21.5
30
0
11
56.85
21
-25
31
0
39
0
210
0
220
0
230
1
0
LINE
5
202
100
AcDbEntity
8
0
62
256
6
ByLayer
370
-2
48
1
60
0
100
AcDbLine
10
56.85
20
-8.5
30
0
11
56.85
21
-5
31
0
39
0
210
0
220
0
230
1
0
SOLID
5
203
100
AcDbEntity
8
0
62
256
6
ByLayer
370
-1
48
1
60
0
100
AcDbTrace
10
57.433333
20
-21.5
30
0
11
56.266667
21
-21.5
31
0
12
56.85
22
-18
32
0
13
56.85
23
-18
33
0
39
0
210
0
220
0
230
1
0
SOLID
5
204
100
AcDbEntity
8
0
62
256
6
ByLayer
370
-1
48
1
60
0
100
AcDbTrace
10
56.266667
20
-8.5
30
0
11
57.433333
21
-8.5
31
0
12
56.85
22
-12
32
0
13
56.85
23
-12
33
0
39
0
210
0
220
0
230
1
0
MTEXT
5
205
100
AcDbEntity
8
0
62
256
6
ByLayer
370
18
48
1
60
0
100
AcDbMText
10
49.85
20
-15
30
0
210
0
220
0
230
1
1
\A1;6
40
3.5
41
0
44
1
50
90
71
5
72
5
7
iso_b_vert
0
POINT
5
206
100
AcDbEntity
8
Defpoints
62
0
6
ByLayer
370
-1
48
1
60
0
100
AcDbPoint
10
45.1
20
-18
30
0
39
0
210
0
220
0
230
1
50
360
0
POINT
5
207
100
AcDbEntity
8
Defpoints
62
0
6
ByLayer
370
-1
48
1
60
0
100
AcDbPoint
10
45.1
20
-12
30
0
39
0
210
0
220
0
230
1
50
360
0
POINT
5
208
100
AcDbEntity
8
Defpoints
62
0
6
ByLayer
370
-1
48
1
60
0
100
AcDbPoint
10
56.85
20
-12
30
0
39
0
210
0
220
0
230
1
50
360
0
ENDBLK
5
1FE
100
AcDbEntity
8
0
100
AcDbBlockEnd
0
BLOCK
5
210
100
AcDbEntity
8
0
100
AcDbBlockBegin
2
_U3
70
0
10
0
20
0
30
0
3
_U3
0
MTEXT
5
20A
100
AcDbEntity
8
2
62
256
6
ByLayer
370
18
48
1
60
0
100
AcDbMText
10
56.160366
20
-15.625233
30
0
210
0
220
0
230
1
1
\W0.5404;6
40
3.5
41
0
44
1.084337
50
90
71
7
72
5
7
iso_b_vert
0
LINE
5
20B
100
AcDbEntity
8
2
62
256
6
ByLayer
370
13
48
1
60
0
100
AcDbLine
10
46.6875
20
-18
30
0
11
58.85
21
-18
31
0
39
0
210
0
220
0
230
1
0
LINE
5
20C
100
AcDbEntity
8
2
62
256
6
ByLayer
370
13
48
1
60
0
100
AcDbLine
10
46.6875
20
-12
30
0
11
58.85
21
-12
31
0
39
0
210
0
220
0
230
1
0
LINE
5
20D
100
AcDbEntity
8
2
62
256
6
ByLayer
370
13
48
1
60
0
100
AcDbLine
10
56.85
20
-26.75
30
0
11
56.85
21
-3.25
31
0
39
0
210
0
220
0
230
1
0
SOLID
5
20E
100
AcDbEntity
8
2
62
256
6
ByLayer
370
18
48
1
60
0
100
AcDbTrace
10
56.85
20
-18
30
0
11
57.310784
21
-21.499998
31
0
12
56.389216
22
-21.500002
32
0
13
56.389216
23
-21.500002
33
0
39
0
210
0
220
0
230
1
0
SOLID
5
20F
100
AcDbEntity
8
2
62
256
6
ByLayer
370
18
48
1
60
0
100
AcDbTrace
10
56.85
20
-12
30
0
11
56.389216
21
-8.500002
31
0
12
57.310784
22
-8.499998
32
0
13
57.310784
23
-8.499998
33
0
39
0
210
0
220
0
230
1
0
ENDBLK
5
211
100
AcDbEntity
8
0
100
AcDbBlockEnd
0
ENDSEC
0
SECTION
2
ENTITIES
0
ARC
5
10E
100
AcDbEntity
8
1
62
256
6
ByLayer
370
18
48
1
60
0
100
AcDbCircle
39
0
10
20.5
20
-0.875
30
0
40
0.5
210
0
220
0
230
1
100
AcDbArc
50
180
51
270
0
ARC
5
10F
100
AcDbEntity
8
1
62
256
6
ByLayer
370
18
48
1
60
0
100
AcDbCircle
39
0
10
20
20
-6.65
30
0
40
1.416
210
0
220
0
230
1
100
AcDbArc
50
186.192438
51
240.190711
0
ARC
5
110
100
AcDbEntity
8
1
62
256
6
ByLayer
370
18
48
1
60
0
100
AcDbCircle
39
0
10
20
20
-6.65
30
0
40
1.416
210
0
220
0
230
1
100
AcDbArc
50
119.809289
51
173.807562
0
ARC
5
111
100
AcDbEntity
8
1
62
256
6
ByLayer
370
18
48
1
60
0
100
AcDbCircle
39
0
10
20
20
-6.65
30
0
40
1.416
210
0
220
0
230
1
100
AcDbArc
50
299.809289
51
353.807562
0
ARC
5
112
100
AcDbEntity
8
1
62
256
6
ByLayer
370
18
48
1
60
0
100
AcDbCircle
39
0
10
20
20
-6.65
30
0
40
1.416
210
0
220
0
230
1
100
AcDbArc
50
240.190711
51
299.809289
0
ARC
5
113
100
AcDbEntity
8
1
62
256
6
ByLayer
370
18
48
1
60
0
100
AcDbCircle
39
0
10
20
20
-6.65
30
0
40
1.416
210
0
220
0
230
1
100
AcDbArc
50
6.192438
51
60.190711
0
ARC
5
114
100
AcDbEntity
8
1
62
256
6
ByLayer
370
18
48
1
60
0
100
AcDbCircle
39
0
10
20
20
-6.65
30
0
40
1.416
210
0
220
0
230
1
100
AcDbArc
50
60.190711
51
119.809289
0
ARC
5
115
100
AcDbEntity
8
1
62
256
6
ByLayer
370
18
48
1
60
0
100
AcDbCircle
39
0
10
20
20
-6.65
30
0
40
1.9685
210
0
220
0
230
1
100
AcDbArc
50
149.618578
51
210.381422
0
ARC
5
116
100
AcDbEntity
8
1
62
256
6
ByLayer
370
18
48
1
60
0
100
AcDbCircle
39
0
10
20
20
-6.65
30
0
40
1.416
210
0
220
0
230
1
100
AcDbArc
50
173.807562
51
186.192438
0
ARC
5
119
100
AcDbEntity
8
1
62
256
6
ByLayer
370
18
48
1
60
0
100
AcDbCircle
39
0
10
20
20
-6.65
30
0
40
1.416
210
0
220
0
230
1
100
AcDbArc
50
353.807562
51
6.192438
0
ARC
5
11A
100
AcDbEntity
8
1
62
256
6
ByLayer
370
18
48
1
60
0
100
AcDbCircle
39
0
10
20
20
-6.65
30
0
40
1.9685
210
0
220
0
230
1
100
AcDbArc
50
329.618578
51
30.381422
0
ARC
5
11B
100
AcDbEntity
8
1
62
256
6
ByLayer
370
18
48
1
60
0
100
AcDbCircle
39
0
10
20
20
-6.65
30
0
40
1.9685
210
0
220
0
230
1
100
AcDbArc
50
90
51
149.618578
0
ARC
5
11C
100
AcDbEntity
8
1
62
256
6
ByLayer
370
18
48
1
60
0
100
AcDbCircle
39
0
10
20
20
-6.65
30
0
40
1.9685
210
0
220
0
230
1
100
AcDbArc
50
210.381422
51
270
0
ARC
5
11D
100
AcDbEntity
8
1
62
256
6
ByLayer
370
18
48
1
60
0
100
AcDbCircle
39
0
10
20
20
-6.65
30
0
40
1.9685
210
0
220
0
230
1
100
AcDbArc
50
30.381422
51
90
0
ARC
5
11E
100
AcDbEntity
8
1
62
256
6
ByLayer
370
18
48
1
60
0
100
AcDbCircle
39
0
10
20
20
-6.65
30
0
40
1.9685
210
0
220
0
230
1
100
AcDbArc
50
270
51
329.618578
0
ARC
5
11F
100
AcDbEntity
8
1
62
256
6
ByLayer
370
18
48
1
60
0
100
AcDbCircle
39
0
10
44.7
20
-12.383126
30
0
40
0.4
210
0
220
0
230
1
100
AcDbArc
50
0
51
93.332999
0
ARC
5
120
100
AcDbEntity
8
1
62
256
6
ByLayer
370
18
48
1
60
0
100
AcDbCircle
39
0
10
44.7
20
-17.616874
30
0
40
0.4
210
0
220
0
230
1
100
AcDbArc
50
266.667001
51
0
0
ARC
5
121
100
AcDbEntity
8
1
62
256
6
ByLayer
370
18
48
1
60
0
100
AcDbCircle
39
0
10
20.5
20
-17.616874
30
0
40
0.4
210
0
220
0
230
1
100
AcDbArc
50
180
51
273.332999
0
ARC
5
122
100
AcDbEntity
8
1
62
256
6
ByLayer
370
18
48
1
60
0
100
AcDbCircle
39
0
10
20
20
-6.65
30
0
40
4.55
210
0
220
0
230
1
100
AcDbArc
50
287.715535
51
72.284465
0
ARC
5
123
100
AcDbEntity
8
1
62
256
6
ByLayer
370
18
48
1
60
0
100
AcDbCircle
39
0
10
20
20
-6.65
30
0
40
4.55
210
0
220
0
230
1
100
AcDbArc
50
72.284465
51
287.715535
0
CIRCLE
5
117
100
AcDbEntity
8
1
62
256
6
ByLayer
370
18
48
1
60
0
100
AcDbCircle
10
20
20
-6.65
30
0
40
4.25
39
0
210
0
220
0
230
1
0
CIRCLE
5
118
100
AcDbEntity
8
1
62
256
6
ByLayer
370
18
48
1
60
0
100
AcDbCircle
10
20
20
-6.65
30
0
40
3.75
39
0
210
0
220
0
230
1
0
ELLIPSE
5
124
100
AcDbEntity
8
1
62
256
6
ByLayer
370
18
48
1
60
0
100
AcDbEllipse
10
39.436487
20
-14.332701
30
0
11
0.433147587403798
21
0
31
0
210
0
220
0
230
1
40
0.230868
41
-2.96705972839656
42
-2.47750918245272
0
ELLIPSE
5
125
100
AcDbEntity
8
1
62
256
6
ByLayer
370
18
48
1
60
0
100
AcDbEllipse
10
39.436487
20
-15.667299
30
0
11
0.433147587403798
21
0
31
0
210
0
220
0
230
1
40
0.230868
41
2.47750918245272
42
2.96705972839656
0
ELLIPSE
5
126
100
AcDbEntity
8
1
62
256
6
ByLayer
370
18
48
1
60
0
100
AcDbEllipse
10
38.144631
20
-17.358749
30
0
11
-0.433147584554263
21
-6.00291135516052E-11
31
0
210
0
220
0
230
1
40
0.230868
41
-0.174552576912332
42
0
0
ELLIPSE
5
127
100
AcDbEntity
8
1
62
256
6
ByLayer
370
18
48
1
60
0
100
AcDbEllipse
10
38.144631
20
-12.641251
30
0
11
0.433147584554197
21
-6.10100967857357E-11
31
0
210
0
220
0
230
1
40
0.230868
41
3.14159265358979
42
-2.96704007667693
0
ELLIPSE
5
128
100
AcDbEntity
8
1
62
256
6
ByLayer
370
18
48
1
60
0
100
AcDbEllipse
10
49.305332
20
72.2
30
0
11
5.95468031178555E-14
21
-84.5250000017429
31
0
210
0
220
0
230
1
40
0.57735
41
-0.274354631565377
42
-0.106868791099537
0
ELLIPSE
5
129
100
AcDbEntity
8
1
62
256
6
ByLayer
370
18
48
1
60
0
100
AcDbEllipse
10
38.164609
20
72.199996
30
0
11
85.7385631112058
21
0
31
0
210
0
220
0
230
1
40
0.985846
41
-1.62406019653903
42
-1.59015761607917
0
ELLIPSE
5
12A
100
AcDbEntity
8
1
62
256
6
ByLayer
370
18
48
1
60
0
100
AcDbEllipse
10
38.962891
20
72.2
30
0
11
100.732972372279
21
0
31
0
210
0
220
0
230
1
40
0.8391
41
-1.68883597212543
42
-1.62406019530807
0
ELLIPSE
5
12B
100
AcDbEntity
8
1
62
256
6
ByLayer
370
18
48
1
60
0
100
AcDbEllipse
10
10.067574
20
0.174981
30
0
11
0.244102752793815
21
-0.135103450139026
31
0
210
0
220
0
230
1
40
0.266975
41
1.64495309012518
42
2.69215064132305
0
ELLIPSE
5
12C
100
AcDbEntity
8
1
62
256
6
ByLayer
370
18
48
1
60
0
100
AcDbEllipse
10
11.884652
20
32.000054
30
0
11
1474.88065378152
21
0
31
0
210
0
220
0
230
1
40
0.033681
41
-1.57709677027028
42
-1.57079642902965
0
ELLIPSE
5
12D
100
AcDbEntity
8
1
62
256
6
ByLayer
370
18
48
1
60
0
100
AcDbEllipse
10
-508.109503
20
32.022638
30
0
11
3854.11821312063
21
-8.6331747219505
31
0
210
0
220
0
230
1
40
0.012699
41
-1.43229118560519
42
-1.42898423710202
0
ELLIPSE
5
12E
100
AcDbEntity
8
1
62
256
6
ByLayer
370
18
48
1
60
0
100
AcDbEllipse
10
38.164609
20
32
30
0
11
50.3882073286964
21
0
31
0
210
0
220
0
230
1
40
0.985846
41
-1.66150951431776
42
-1.60359145234726
0
ELLIPSE
5
12F
100
AcDbEntity
8
1
62
256
6
ByLayer
370
18
48
1
60
0
100
AcDbEllipse
10
38.962891
20
32
30
0
11
59.2003597126853
21
0
31
0
210
0
220
0
230
1
40
0.8391
41
-1.87227241517173
42
-1.66150951435254
0
ELLIPSE
5
130
100
AcDbEntity
8
1
62
256
6
ByLayer
370
18
48
1
60
0
100
AcDbEllipse
10
0.772994
20
32
30
0
11
3.49954149056478E-14
21
-49.675000001367
31
0
210
0
220
0
230
1
40
0.923606
41
0.123826434892319
42
0.301476088375565
0
ELLIPSE
5
131
100
AcDbEntity
8
1
62
256
6
ByLayer
370
18
48
1
60
0
100
AcDbEllipse
10
-0.588273
20
32
30
0
11
3.49954149055251E-14
21
-49.6750000011929
31
0
210
0
220
0
230
1
40
0.923606
41
0.137602645714169
42
0.306051492826888
0
ELLIPSE
5
132
100
AcDbEntity
8
1
62
256
6
ByLayer
370
18
48
1
60
0
100
AcDbEllipse
10
28.2021
20
32
30
0
11
3.49954149203606E-14
21
-49.6750000222514
31
0
210
0
220
0
230
1
40
1
41
-0.413274685876849
42
-0.306051492777742
0
POINT
5
70
100
AcDbEntity
8
81
62
256
6
ByLayer
370
18
48
1
60
0
100
AcDbPoint
10
45.1
20
-18
30
0
39
0
210
0
220
0
230
1
50
360
0
POINT
5
72
100
AcDbEntity
8
80
62
256
6
ByLayer
370
18
48
1
60
0
100
AcDbPoint
10
0
20
0
30
0
39
0
210
0
220
0
230
1
50
360
0
POINT
5
74
100
AcDbEntity
8
1
62
256
6
ByLayer
370
18
48
1
60
1
100
AcDbPoint
10
0
20
0
30
0
39
0
210
0
220
0
230
1
50
360
0
POINT
5
76
100
AcDbEntity
8
1
62
256
6
ByLayer
370
18
48
1
60
1
100
AcDbPoint
10
45.1
20
-18
30
0
39
0
210
0
220
0
230
1
50
360
0
POINT
5
77
100
AcDbEntity
8
1
62
256
6
ByLayer
370
18
48
1
60
1
100
AcDbPoint
10
27.1
20
-12.325
30
0
39
0
210
0
220
0
230
1
50
360
0
POINT
5
78
100
AcDbEntity
8
1
62
256
6
ByLayer
370
18
48
1
60
1
100
AcDbPoint
10
45.1
20
-18
30
0
39
0
210
0
220
0
230
1
50
360
0
POINT
5
79
100
AcDbEntity
8
1
62
256
6
ByLayer
370
18
48
1
60
1
100
AcDbPoint
10
45.1
20
-18
30
0
39
0
210
0
220
0
230
1
50
360
0
POINT
5
7A
100
AcDbEntity
8
1
62
256
6
ByLayer
370
18
48
1
60
1
100
AcDbPoint
10
0
20
0
30
0
39
0
210
0
220
0
230
1
50
360
0
POINT
5
7B
100
AcDbEntity
8
1
62
256
6
ByLayer
370
18
48
1
60
1
100
AcDbPoint
10
45.1
20
-18
30
0
39
0
210
0
220
0
230
1
50
360
0
POINT
5
7C
100
AcDbEntity
8
1
62
256
6
ByLayer
370
18
48
1
60
1
100
AcDbPoint
10
45.1
20
-12
30
0
39
0
210
0
220
0
230
1
50
360
0
SPLINE
5
133
100
AcDbEntity
8
1
62
256
6
ByLayer
370
18
48
1
60
0
100
AcDbSpline
70
4
71
3
72
18
73
14
40
0
40
0
40
0
40
0
40
0.250000000000007
40
0.250000000000007
40
0.375000000000011
40
0.375000000000011
40
0.437500000000012
40
0.437500000000012
40
0.500000000000012
40
0.500000000000012
40
0.750000000000006
40
0.750000000000006
40
1
40
1
40
1
40
1
41
1
10
18.5922620637002
20
-6.49725870662354
30
0
41
1
10
18.5839029765648
20
-6.45283371714234
30
0
41
1
10
18.5721940761369
20
-6.41047127231678
30
0
41
1
10
18.5502147004153
20
-6.34951240206013
30
0
41
1
10
18.5421460177692
20
-6.329627187147
30
0
41
1
10
18.5289590937531
20
-6.30041485375656
30
0
41
1
10
18.524382525553
20
-6.29078015654287
30
0
41
1
10
18.5148692909952
20
-6.27171212439077
30
0
41
1
10
18.5099208758561
20
-6.26225797017554
30
0
41
1
10
18.4844501468565
20
-6.21579120812243
30
0
41
1
10
18.4617830025327
20
-6.18116665614502
30
0
41
1
10
18.4122494705403
20
-6.11629302469026
30
0
41
1
10
18.385378603438
20
-6.08605080047579
30
0
41
1
10
18.3564173719112
20
-6.05788229583283
30
0
0
SPLINE
5
134
100
AcDbEntity
8
1
62
256
6
ByLayer
370
18
48
1
60
0
100
AcDbSpline
70
4
71
3
72
24
73
20
40
0
40
0
40
0
40
0
40
0.124999999999984
40
0.124999999999984
40
0.187499999999983
40
0.187499999999983
40
0.249999999999981
40
0.249999999999981
40
0.37499999999998
40
0.37499999999998
40
0.499999999999979
40
0.499999999999979
40
0.624999999999978
40
0.624999999999978
40
0.687499999999975
40
0.687499999999975
40
0.749999999999972
40
0.749999999999972
40
1
40
1
40
1
40
1
41
1
10
18.3018189416602
20
-5.65442311040482
30
0
41
1
10
18.2920717429747
20
-5.67104915742607
30
0
41
1
10
18.2838642633101
20
-5.68836175118037
30
0
41
1
10
18.2738342365023
20
-5.71534744378729
30
0
41
1
10
18.2708640587043
20
-5.72454737111846
30
0
41
1
10
18.2657514504448
20
-5.74314453482737
30
0
41
1
10
18.2636304107339
20
-5.75245092056323
30
0
41
1
10
18.258503655387
20
-5.78039103411823
30
0
41
1
10
18.2567259261731
20
-5.79904565975622
30
0
41
1
10
18.2563184965416
20
-5.83639994194192
30
0
41
1
10
18.2577395219956
20
-5.85523892242639
30
0
41
1
10
18.2635127050969
20
-5.89141510492053
30
0
41
1
10
18.2678413753686
20
-5.90893047355297
30
0
41
1
10
18.2763479036088
20
-5.93438887681845
30
0
41
1
10
18.2795208606012
20
-5.94273849781305
30
0
41
1
10
18.28653701553
20
-5.95916394085114
30
0
41
1
10
18.2903971485727
20
-5.96726674459126
30
0
41
1
10
18.3110153586929
20
-6.00641587152057
30
0
41
1
10
18.3317858476265
20
-6.03392498567706
30
0
41
1
10
18.3564173719112
20
-6.05788229583283
30
0
0
SPLINE
5
135
100
AcDbEntity
8
1
62
256
6
ByLayer
370
18
48
1
60
0
100
AcDbSpline
70
4
71
3
72
24
73
20
40
0
40
0
40
0
40
0
40
0.250000000000009
40
0.250000000000009
40
0.312500000000001
40
0.312500000000001
40
0.374999999999993
40
0.374999999999993
40
0.499999999999993
40
0.499999999999993
40
0.624999999999992
40
0.624999999999992
40
0.749999999999992
40
0.749999999999992
40
0.812499999999991
40
0.812499999999991
40
0.874999999999989
40
0.874999999999989
40
1
40
1
40
1
40
1
41
1
10
18.3564173719112
20
-7.24211770416719
30
0
41
1
10
18.3317858476264
20
-7.26607501432295
30
0
41
1
10
18.3110153586929
20
-7.29358412847944
30
0
41
1
10
18.2903971485727
20
-7.33273325540875
30
0
41
1
10
18.28653701553
20
-7.34083605914887
30
0
41
1
10
18.2795208606012
20
-7.35726150218696
30
0
41
1
10
18.2763479036088
20
-7.36561112318157
30
0
41
1
10
18.2678413753686
20
-7.39106952644701
30
0
41
1
10
18.2635127050969
20
-7.40858489507948
30
0
41
1
10
18.2577395219956
20
-7.44476107757362
30
0
41
1
10
18.2563184965416
20
-7.46360005805809
30
0
41
1
10
18.2567259261731
20
-7.50095434024379
30
0
41
1
10
18.258503655387
20
-7.51960896588179
30
0
41
1
10
18.2636304107339
20
-7.54754907943678
30
0
41
1
10
18.2657514504448
20
-7.55685546517265
30
0
41
1
10
18.2708640587043
20
-7.57545262888155
30
0
41
1
10
18.2738342365023
20
-7.58465255621272
30
0
41
1
10
18.2838642633101
20
-7.61163824881965
30
0
41
1
10
18.2920717429747
20
-7.62895084257394
30
0
41
1
10
18.3018189416602
20
-7.64557688959519
30
0
0
SPLINE
5
136
100
AcDbEntity
8
1
62
256
6
ByLayer
370
18
48
1
60
0
100
AcDbSpline
70
4
71
3
72
17
73
13
40
0
40
0
40
0
40
0
40
0.249999999999991
40
0.249999999999991
40
0.499999999999982
40
0.499999999999982
40
0.562499999999982
40
0.562499999999982
40
0.624999999999982
40
0.749999999999986
40
0.749999999999986
40
1
40
1
40
1
40
1
41
1
10
18.3564173719112
20
-7.24211770416719
30
0
41
1
10
18.3853753963689
20
-7.21395231880945
30
0
41
1
10
18.4122309410964
20
-7.18372575786455
30
0
41
1
10
18.461719738367
20
-7.11892167661281
30
0
41
1
10
18.4843572921869
20
-7.08435069513351
30
0
41
1
10
18.5097894773876
20
-7.03798851185627
30
0
41
1
10
18.5147424479631
20
-7.02853470981097
30
0
41
1
10
18.5242836416446
20
-7.00942527611323
30
0
41
1
10
18.5380498884726
20
-6.98046203694776
30
0
41
1
10
18.5501769665485
20
-6.95058627674294
30
0
41
1
10
18.5721909236732
20
-6.88954938792148
30
0
41
1
10
18.5839044979644
20
-6.84715819726679
30
0
41
1
10
18.5922620637002
20
-6.80274129337647
30
0
0
SPLINE
5
137
100
AcDbEntity
8
1
62
256
6
ByLayer
370
18
48
1
60
0
100
AcDbSpline
70
4
71
3
72
17
73
13
40
0
40
0
40
0
40
0
40
0.250000000000009
40
0.250000000000009
40
0.500000000000019
40
0.500000000000019
40
0.56250000000002
40
0.56250000000002
40
0.625000000000021
40
0.750000000000016
40
0.750000000000016
40
1
40
1
40
1
40
1
41
1
10
21.6435826280888
20
-6.05788229583283
30
0
41
1
10
21.6146246036311
20
-6.08604768119054
30
0
41
1
10
21.5877690589037
20
-6.11627424213538
30
0
41
1
10
21.5382802616332
20
-6.181078323387
30
0
41
1
10
21.5156427078132
20
-6.21564930486622
30
0
41
1
10
21.4902105226126
20
-6.26201148814337
30
0
41
1
10
21.485257552037
20
-6.27146529018867
30
0
41
1
10
21.4757163583556
20
-6.29057472388635
30
0
41
1
10
21.4619501115276
20
-6.3195379630518
30
0
41
1
10
21.4498230334517
20
-6.34941372325662
30
0
41
1
10
21.4278090763269
20
-6.41045061207817
30
0
41
1
10
21.4160955020357
20
-6.45284180273296
30
0
41
1
10
21.4077379362998
20
-6.49725870662354
30
0
0
SPLINE
5
138
100
AcDbEntity
8
1
62
256
6
ByLayer
370
18
48
1
60
0
100
AcDbSpline
70
4
71
3
72
18
73
14
40
0
40
0
40
0
40
0
40
0.250000000000002
40
0.250000000000002
40
0.375000000000006
40
0.375000000000006
40
0.437500000000007
40
0.437500000000007
40
0.500000000000008
40
0.500000000000008
40
0.750000000000004
40
0.750000000000004
40
1
40
1
40
1
40
1
41
1
10
21.4077379362998
20
-6.80274129337647
30
0
41
1
10
21.4160970234351
20
-6.84716628285736
30
0
41
1
10
21.4278059238629
20
-6.88952872768283
30
0
41
1
10
21.4497852995846
20
-6.95048759793963
30
0
41
1
10
21.4578539822307
20
-6.97037281285284
30
0
41
1
10
21.4710409062469
20
-6.99958514624345
30
0
41
1
10
21.475617474447
20
-7.00921984345723
30
0
41
1
10
21.4851307090049
20
-7.02828787560946
30
0
41
1
10
21.490079124144
20
-7.03774202982481
30
0
41
1
10
21.5155498531436
20
-7.0842087918777
30
0
41
1
10
21.5382169974673
20
-7.11883334385502
30
0
41
1
10
21.5877505294597
20
-7.18370697530972
30
0
41
1
10
21.6146213965619
20
-7.21394919952419
30
0
41
1
10
21.6435826280888
20
-7.24211770416719
30
0
0
SPLINE
5
139
100
AcDbEntity
8
1
62
256
6
ByLayer
370
18
48
1
60
0
100
AcDbSpline
70
4
71
3
72
24
73
20
40
0
40
0
40
0
40
0
40
0.125000000000011
40
0.125000000000011
40
0.187500000000009
40
0.187500000000009
40
0.250000000000008
40
0.250000000000008
40
0.375000000000008
40
0.375000000000008
40
0.500000000000007
40
0.500000000000007
40
0.625000000000007
40
0.625000000000007
40
0.687499999999999
40
0.687499999999999
40
0.749999999999991
40
0.749999999999991
40
1
40
1
40
1
40
1
41
1
10
21.6981810583398
20
-7.64557688959519
30
0
41
1
10
21.7079282570253
20
-7.62895084257394
30
0
41
1
10
21.7161357366898
20
-7.61163824881965
30
0
41
1
10
21.7261657634977
20
-7.58465255621272
30
0
41
1
10
21.7291359412957
20
-7.57545262888155
30
0
41
1
10
21.7342485495551
20
-7.55685546517265
30
0
41
1
10
21.7363695892661
20
-7.54754907943678
30
0
41
1
10
21.741496344613
20
-7.51960896588179
30
0
41
1
10
21.7432740738269
20
-7.50095434024379
30
0
41
1
10
21.7436815034583
20
-7.46360005805809
30
0
41
1
10
21.7422604780044
20
-7.44476107757362
30
0
41
1
10
21.7364872949031
20
-7.40858489507951
30
0
41
1
10
21.7321586246314
20
-7.39106952644701
30
0
41
1
10
21.7236520963912
20
-7.36561112318157
30
0
41
1
10
21.7204791393988
20
-7.35726150218696
30
0
41
1
10
21.71346298447
20
-7.34083605914887
30
0
41
1
10
21.7096028514273
20
-7.33273325540875
30
0
41
1
10
21.6889846413071
20
-7.29358412847944
30
0
41
1
10
21.6682141523735
20
-7.26607501432295
30
0
41
1
10
21.6435826280888
20
-7.24211770416719
30
0
0
SPLINE
5
13A
100
AcDbEntity
8
1
62
256
6
ByLayer
370
18
48
1
60
0
100
AcDbSpline
70
4
71
3
72
24
73
20
40
0
40
0
40
0
40
0
40
0.249999999999985
40
0.249999999999985
40
0.31249999999998
40
0.31249999999998
40
0.374999999999975
40
0.374999999999975
40
0.499999999999981
40
0.499999999999981
40
0.624999999999987
40
0.624999999999987
40
0.749999999999994
40
0.749999999999994
40
0.812499999999996
40
0.812499999999996
40
0.874999999999998
40
0.874999999999998
40
1
40
1
40
1
40
1
41
1
10
21.6435826280888
20
-6.05788229583283
30
0
41
1
10
21.6682141523735
20
-6.03392498567706
30
0
41
1
10
21.6889846413071
20
-6.00641587152057
30
0
41
1
10
21.7096028514273
20
-5.96726674459126
30
0
41
1
10
21.71346298447
20
-5.95916394085114
30
0
41
1
10
21.7204791393988
20
-5.94273849781305
30
0
41
1
10
21.7236520963912
20
-5.93438887681845
30
0
41
1
10
21.7321586246314
20
-5.90893047355297
30
0
41
1
10
21.7364872949031
20
-5.89141510492053
30
0
41
1
10
21.7422604780044
20
-5.85523892242639
30
0
41
1
10
21.7436815034583
20
-5.83639994194192
30
0
41
1
10
21.7432740738269
20
-5.79904565975622
30
0
41
1
10
21.741496344613
20
-5.78039103411823
30
0
41
1
10
21.7363695892661
20
-5.75245092056323
30
0
41
1
10
21.7342485495551
20
-5.74314453482737
30
0
41
1
10
21.7291359412957
20
-5.72454737111846
30
0
41
1
10
21.7261657634977
20
-5.71534744378729
30
0
41
1
10
21.7161357366898
20
-5.68836175118037
30
0
41
1
10
21.7079282570253
20
-5.67104915742607
30
0
41
1
10
21.6981810583398
20
-5.65442311040482
30
0
0
SPLINE
5
13B
100
AcDbEntity
8
1
62
256
6
ByLayer
370
18
48
1
60
0
100
AcDbSpline
70
4
71
3
72
34
73
30
40
0
40
0
40
0
40
0
40
0.124999999999968
40
0.124999999999968
40
0.187499999999952
40
0.187499999999952
40
0.218749999999944
40
0.218749999999944
40
0.249999999999936
40
0.249999999999936
40
0.37499999999993
40
0.37499999999993
40
0.406249999999931
40
0.406249999999931
40
0.437499999999932
40
0.499999999999941
40
0.56249999999995
40
0.56249999999995
40
0.624999999999959
40
0.624999999999959
40
0.687499999999968
40
0.687499999999968
40
0.749999999999977
40
0.749999999999977
40
0.874999999999991
40
0.874999999999991
40
0.937499999999995
40
0.937499999999995
40
1
40
1
40
1
40
1
41
1
10
18.6718476620214
20
-5.50254896641513
30
0
41
1
10
18.7208394593323
20
-5.51566553822127
30
0
41
1
10
18.770945098419
20
-5.52429781589066
30
0
41
1
10
18.8481023724607
20
-5.53020796039976
30
0
41
1
10
18.8741579501174
20
-5.53099652363568
30
0
41
1
10
18.9138278946093
20
-5.53026949064011
30
0
41
1
10
18.9271798085303
20
-5.52970580084673
30
0
41
1
10
18.9539537358994
20
-5.52791587688787
30
0
41
1
10
18.9673321899401
20
-5.52669409847289
30
0
41
1
10
19.0341945419054
20
-5.5189332840545
30
0
41
1
10
19.0875894364998
20
-5.50751015172042
30
0
41
1
10
19.1544113754504
20
-5.48576735026379
30
0
41
1
10
19.167796193224
20
-5.48103085495373
30
0
41
1
10
19.1941478369934
20
-5.47093535155318
30
0
41
1
10
19.2332059929598
20
-5.45480971466944
30
0
41
1
10
19.2959862068402
20
-5.4230756366417
30
0
41
1
10
19.3437246825773
20
-5.39246919635738
30
0
41
1
10
19.3901697315483
20
-5.35915030755086
30
0
41
1
10
19.4121863952644
20
-5.34153568005107
30
0
41
1
10
19.4539492170245
20
-5.30455398122533
30
0
41
1
10
19.4737029913318
20
-5.28518044967061
30
0
41
1
10
19.5110603053287
20
-5.24471509489788
30
0
41
1
10
19.5287068593985
20
-5.22354047710854
30
0
41
1
10
19.5773730428751
20
-5.15901579412997
30
0
41
1
10
19.6046398483741
20
-5.11422684516901
30
0
41
1
10
19.638792442722
20
-5.04443079497153
30
0
41
1
10
19.6490658739522
20
-5.02064915473738
30
0
41
1
10
19.6672193811967
20
-4.97260884499676
30
0
41
1
10
19.6751020665243
20
-4.94837075977276
30
0
41
1
10
19.6818380304532
20
-4.92390455985569
30
0
0
SPLINE
5
13C
100
AcDbEntity
8
1
62
256
6
ByLayer
370
18
48
1
60
0
100
AcDbSpline
70
4
71
3
72
26
73
22
40
0
40
0
40
0
40
0
40
0.125000000000006
40
0.125000000000006
40
0.250000000000012
40
0.250000000000012
40
0.312500000000025
40
0.312500000000025
40
0.375000000000038
40
0.375000000000038
40
0.500000000000044
40
0.500000000000044
40
0.562500000000039
40
0.562500000000039
40
0.625000000000033
40
0.625000000000033
40
0.750000000000022
40
0.750000000000022
40
0.875000000000011
40
0.875000000000011
40
1
40
1
40
1
40
1
41
1
10
20
20
-4.6815
30
0
41
1
10
19.9812579161203
20
-4.6815
30
0
41
1
10
19.962209975879
20
-4.68313720449541
30
0
41
1
10
19.9253294541456
20
-4.68951471931706
30
0
41
1
10
19.9073531625207
20
-4.69422720833452
30
0
41
1
10
19.8810727694392
20
-4.70353461389684
30
0
41
1
10
19.8723863894371
20
-4.70703247490465
30
0
41
1
10
19.855517452384
20
-4.71466586976396
30
0
41
1
10
19.8473226044842
20
-4.71880090073512
30
0
41
1
10
19.8234267481805
20
-4.73211767058427
30
0
41
1
10
19.8084100630755
20
-4.74220543750667
30
0
41
1
10
19.7872244605916
20
-4.7590952929138
30
0
41
1
10
19.7804080814309
20
-4.76500738261558
30
0
41
1
10
19.7674404104893
20
-4.77720262815714
30
0
41
1
10
19.7612596172288
20
-4.78350870321464
30
0
41
1
10
19.7435909177987
20
-4.80302364722419
30
0
41
1
10
19.7329717290289
20
-4.81682587233794
30
0
41
1
10
19.7139986190539
20
-4.84595446676008
30
0
41
1
10
19.7058188411954
20
-4.86102270581375
30
0
41
1
10
19.6919779801761
20
-4.89188225230009
30
0
41
1
10
19.6862980163446
20
-4.9077051105119
30
0
41
1
10
19.6818380304532
20
-4.92390455985569
30
0
0
SPLINE
5
13D
100
AcDbEntity
8
1
62
256
6
ByLayer
370
18
48
1
60
0
100
AcDbSpline
70
4
71
3
72
24
73
20
40
0
40
0
40
0
40
0
40
0.062500000000007
40
0.062500000000007
40
0.125000000000014
40
0.125000000000014
40
0.25000000000001
40
0.25000000000001
40
0.312500000000009
40
0.312500000000009
40
0.375000000000009
40
0.375000000000009
40
0.500000000000008
40
0.500000000000008
40
0.625000000000007
40
0.625000000000007
40
0.750000000000006
40
0.750000000000006
40
1
40
1
40
1
40
1
41
1
10
18.3018189416602
20
-5.65442311040482
30
0
41
1
10
18.3065686621776
20
-5.64632139018687
30
0
41
1
10
18.3117102110135
20
-5.63835019077266
30
0
41
1
10
18.322644678414
20
-5.6229069342991
30
0
41
1
10
18.328399172225
20
-5.61548230486324
30
0
41
1
10
18.346492943595
20
-5.59406724837234
30
0
41
1
10
18.3596568946641
20
-5.5809297604749
30
0
41
1
10
18.3810396271602
20
-5.56291952202378
30
0
41
1
10
18.3884568790795
20
-5.55719464554414
30
0
41
1
10
18.4035429811598
20
-5.54652908650147
30
0
41
1
10
18.4112458314832
20
-5.54155746548531
30
0
41
1
10
18.4348134384497
20
-5.52768476963976
30
0
41
1
10
18.4511344439336
20
-5.51981928227153
30
0
41
1
10
18.4849623499584
20
-5.50680967244006
30
0
41
1
10
18.502026605104
20
-5.50183493909819
30
0
41
1
10
18.5363970022404
20
-5.49467600751669
30
0
41
1
10
18.553762941252
20
-5.49249069308141
30
0
41
1
10
18.60583055587
20
-5.49006078995396
30
0
41
1
10
18.6393960892915
20
-5.49386070823118
30
0
41
1
10
18.6718476620214
20
-5.50254896641513
30
0
0
SPLINE
5
13E
100
AcDbEntity
8
1
62
256
6
ByLayer
370
18
48
1
60
0
100
AcDbSpline
70
4
71
3
72
26
73
22
40
0
40
0
40
0
40
0
40
0.250000000000039
40
0.250000000000039
40
0.312500000000039
40
0.312500000000039
40
0.375000000000038
40
0.375000000000038
40
0.500000000000038
40
0.500000000000038
40
0.562500000000035
40
0.562500000000035
40
0.625000000000031
40
0.625000000000031
40
0.75000000000001
40
0.75000000000001
40
0.812500000000002
40
0.812500000000002
40
0.874999999999994
40
0.874999999999994
40
1
40
1
40
1
40
1
41
1
10
19.6818380304532
20
-8.37609544014433
30
0
41
1
10
19.6907807694531
20
-8.40857703334902
30
0
41
1
10
19.7045123677409
20
-8.43946368973189
30
0
41
1
10
19.728164661171
20
-8.47579851732181
30
0
41
1
10
19.7332504932269
20
-8.48297745742417
30
0
41
1
10
19.7439469908237
20
-8.49685939456052
30
0
41
1
10
19.7495666009289
20
-8.50358159444693
30
0
41
1
10
19.7672404966507
20
-8.52308672630903
30
0
41
1
10
19.7801042158832
20
-8.53521280863646
30
0
41
1
10
19.8011189451321
20
-8.55198940674919
30
0
41
1
10
19.8084116893909
20
-8.55734511719322
30
0
41
1
10
19.8236083865561
20
-8.5675515660364
30
0
41
1
10
19.8314588292887
20
-8.5723621129043
30
0
41
1
10
19.8554562271619
20
-8.58572449293851
30
0
41
1
10
19.8721665003504
20
-8.59329690404473
30
0
41
1
10
19.8983294895866
20
-8.60258397985135
30
0
41
1
10
19.9072343299035
20
-8.60533273158271
30
0
41
1
10
19.9254292302567
20
-8.61010169410392
30
0
41
1
10
19.9347154010501
20
-8.61211452550452
30
0
41
1
10
19.9625187231474
20
-8.61690358371339
30
0
41
1
10
19.98119104671
20
-8.61850000000001
30
0
41
1
10
20
20
-8.61850000000001
30
0
0
SPLINE
5
13F
100
AcDbEntity
8
1
62
256
6
ByLayer
370
18
48
1
60
0
100
AcDbSpline
70
4
71
3
72
34
73
30
40
0
40
0
40
0
40
0
40
0.124999999999999
40
0.124999999999999
40
0.187500000000001
40
0.187500000000001
40
0.218750000000004
40
0.218750000000004
40
0.250000000000007
40
0.250000000000007
40
0.375000000000015
40
0.375000000000015
40
0.406250000000017
40
0.406250000000017
40
0.437500000000019
40
0.500000000000016
40
0.562500000000013
40
0.562500000000013
40
0.625000000000011
40
0.625000000000011
40
0.687500000000009
40
0.687500000000009
40
0.750000000000007
40
0.750000000000007
40
0.875000000000003
40
0.875000000000003
40
0.937500000000001
40
0.937500000000001
40
1
40
1
40
1
40
1
41
1
10
19.6818380304532
20
-8.37609544014433
30
0
41
1
10
19.6683756044158
20
-8.32719755258438
30
0
41
1
10
19.6504813479254
20
-8.27960672669573
30
0
41
1
10
19.6165572925044
20
-8.21005578649056
30
0
41
1
10
19.6040598537764
20
-8.18717940089675
30
0
41
1
10
19.5833694218278
20
-8.15332472256972
30
0
41
1
10
19.5761303535396
20
-8.14209141124252
30
0
41
1
10
19.5610452042167
20
-8.11989940372521
30
0
41
1
10
19.5532249960405
20
-8.10897602964607
30
0
41
1
10
19.5127140095089
20
-8.05522043482458
30
0
41
1
10
19.4758548429775
20
-8.01493514485432
30
0
41
1
10
19.4233023422317
20
-7.96828585551981
30
0
41
1
10
19.4124468477992
20
-7.95913457392737
30
0
41
1
10
19.3904102324398
20
-7.94150744141086
30
0
41
1
10
19.3567451854695
20
-7.91596844876548
30
0
41
1
10
19.297617556169
20
-7.87785899714598
30
0
41
1
10
19.2470701322235
20
-7.85215540891767
30
0
41
1
10
19.1948368936116
20
-7.82893946270264
30
0
41
1
10
19.168506133695
20
-7.81885484885501
30
0
41
1
10
19.1154811300859
20
-7.8015306383227
30
0
41
1
10
19.0887774643553
20
-7.79428773988414
30
0
41
1
10
19.0349752898996
20
-7.7825259354201
30
0
41
1
10
19.007783602923
20
-7.77801179583886
30
0
41
1
10
18.9275064791057
20
-7.76866218546465
30
0
41
1
10
18.8750777532936
20
-7.767791913146
30
0
41
1
10
18.7975934411139
20
-7.77362886795274
30
0
41
1
10
18.7718817194633
20
-7.77679386939394
30
0
41
1
10
18.7212572052776
20
-7.78542982562996
30
0
41
1
10
18.69636084904
20
-7.79088811906908
30
0
41
1
10
18.6718476620214
20
-7.79745103358488
30
0
0
SPLINE
5
140
100
AcDbEntity
8
1
62
256
6
ByLayer
370
18
48
1
60
0
100
AcDbSpline
70
4
71
3
72
24
73
20
40
0
40
0
40
0
40
0
40
0.0625000000000078
40
0.0625000000000078
40
0.125000000000016
40
0.125000000000016
40
0.250000000000011
40
0.250000000000011
40
0.312500000000011
40
0.312500000000011
40
0.37500000000001
40
0.37500000000001
40
0.500000000000009
40
0.500000000000009
40
0.625000000000008
40
0.625000000000008
40
0.750000000000007
40
0.750000000000007
40
1
40
1
40
1
40
1
41
1
10
18.3018189416602
20
-7.64557688959519
30
0
41
1
10
18.3065686621776
20
-7.65367860981314
30
0
41
1
10
18.3117102110135
20
-7.66164980922736
30
0
41
1
10
18.322644678414
20
-7.67709306570092
30
0
41
1
10
18.3283991722251
20
-7.68451769513678
30
0
41
1
10
18.346492943595
20
-7.70593275162767
30
0
41
1
10
18.3596568946641
20
-7.71907023952511
30
0
41
1
10
18.3810396271602
20
-7.73708047797624
30
0
41
1
10
18.3884568790795
20
-7.74280535445587
30
0
41
1
10
18.4035429811598
20
-7.75347091349855
30
0
41
1
10
18.4112458314832
20
-7.7584425345147
30
0
41
1
10
18.4348134384497
20
-7.77231523036025
30
0
41
1
10
18.4511344439336
20
-7.78018071772848
30
0
41
1
10
18.4849623499584
20
-7.79319032755996
30
0
41
1
10
18.502026605104
20
-7.79816506090182
30
0
41
1
10
18.5363970022404
20
-7.80532399248332
30
0
41
1
10
18.553762941252
20
-7.8075093069186
30
0
41
1
10
18.60583055587
20
-7.80993921004605
30
0
41
1
10
18.6393960892915
20
-7.80613929176883
30
0
41
1
10
18.6718476620214
20
-7.79745103358488
30
0
0
SPLINE
5
141
100
AcDbEntity
8
1
62
256
6
ByLayer
370
18
48
1
60
0
100
AcDbSpline
70
4
71
3
72
34
73
30
40
0
40
0
40
0
40
0
40
0.124999999999994
40
0.124999999999994
40
0.187499999999993
40
0.187499999999993
40
0.218749999999993
40
0.218749999999993
40
0.249999999999993
40
0.249999999999993
40
0.374999999999997
40
0.374999999999997
40
0.40625
40
0.40625
40
0.437500000000002
40
0.500000000000002
40
0.562500000000001
40
0.562500000000001
40
0.625000000000001
40
0.625000000000001
40
0.687500000000001
40
0.687500000000001
40
0.75
40
0.75
40
0.874999999999999
40
0.874999999999999
40
0.9375
40
0.9375
40
1
40
1
40
1
40
1
41
1
10
20.3181619695468
20
-4.92390455985569
30
0
41
1
10
20.3316243955842
20
-4.97280244741563
30
0
41
1
10
20.3495186520746
20
-5.02039327330425
30
0
41
1
10
20.3834427074956
20
-5.08994421350943
30
0
41
1
10
20.3959401462236
20
-5.11282059910326
30
0
41
1
10
20.4166305781722
20
-5.14667527743029
30
0
41
1
10
20.4238696464604
20
-5.15790858875749
30
0
41
1
10
20.4389547957833
20
-5.1801005962748
30
0
41
1
10
20.4467750039595
20
-5.19102397035394
30
0
41
1
10
20.4872859904911
20
-5.24477956517543
30
0
41
1
10
20.5241451570225
20
-5.28506485514569
30
0
41
1
10
20.5766976577683
20
-5.3317141444802
30
0
41
1
10
20.5875531522008
20
-5.34086542607261
30
0
41
1
10
20.6095897675602
20
-5.35849255858915
30
0
41
1
10
20.6432548145305
20
-5.38403155123453
30
0
41
1
10
20.7023826118536
20
-5.42214074180731
30
0
41
1
10
20.7529298677765
20
-5.44784459108234
30
0
41
1
10
20.8051631063883
20
-5.47106053729738
30
0
41
1
10
20.831493866305
20
-5.481145151145
30
0
41
1
10
20.8845188699141
20
-5.49846936167731
30
0
41
1
10
20.9112225356447
20
-5.50571226011587
30
0
41
1
10
20.9650247101003
20
-5.51747406457991
30
0
41
1
10
20.992216397077
20
-5.52198820416115
30
0
41
1
10
21.0724935208943
20
-5.53133781453536
30
0
41
1
10
21.1249222467064
20
-5.53220808685404
30
0
41
1
10
21.2024065588861
20
-5.52637113204727
30
0
41
1
10
21.2281182805367
20
-5.52320613060607
30
0
41
1
10
21.2787427947224
20
-5.51457017437008
30
0
41
1
10
21.30363915096
20
-5.50911188093093
30
0
41
1
10
21.3281523379786
20
-5.50254896641513
30
0
0
SPLINE
5
142
100
AcDbEntity
8
1
62
256
6
ByLayer
370
18
48
1
60
0
100
AcDbSpline
70
4
71
3
72
24
73
20
40
0
40
0
40
0
40
0
40
0.0625000000000104
40
0.0625000000000104
40
0.125000000000021
40
0.125000000000021
40
0.250000000000021
40
0.250000000000021
40
0.31250000000002
40
0.31250000000002
40
0.375000000000018
40
0.375000000000018
40
0.500000000000016
40
0.500000000000016
40
0.625000000000013
40
0.625000000000013
40
0.75000000000001
40
0.75000000000001
40
1
40
1
40
1
40
1
41
1
10
21.6981810583398
20
-5.65442311040482
30
0
41
1
10
21.6934313378224
20
-5.64632139018687
30
0
41
1
10
21.6882897889865
20
-5.63835019077266
30
0
41
1
10
21.677355321586
20
-5.6229069342991
30
0
41
1
10
21.6716008277749
20
-5.61548230486324
30
0
41
1
10
21.653507056405
20
-5.59406724837234
30
0
41
1
10
21.6403431053359
20
-5.5809297604749
30
0
41
1
10
21.6189603728398
20
-5.56291952202378
30
0
41
1
10
21.6115431209205
20
-5.55719464554414
30
0
41
1
10
21.5964570188402
20
-5.54652908650147
30
0
41
1
10
21.5887541685168
20
-5.54155746548531
30
0
41
1
10
21.5651865615503
20
-5.52768476963976
30
0
41
1
10
21.5488655560664
20
-5.51981928227153
30
0
41
1
10
21.5150376500416
20
-5.50680967244006
30
0
41
1
10
21.497973394896
20
-5.50183493909819
30
0
41
1
10
21.4636029977596
20
-5.49467600751669
30
0
41
1
10
21.446237058748
20
-5.49249069308141
30
0
41
1
10
21.39416944413
20
-5.49006078995396
30
0
41
1
10
21.3606039107084
20
-5.49386070823118
30
0
41
1
10
21.3281523379786
20
-5.50254896641513
30
0
0
SPLINE
5
143
100
AcDbEntity
8
1
62
256
6
ByLayer
370
18
48
1
60
0
100
AcDbSpline
70
4
71
3
72
26
73
22
40
0
40
0
40
0
40
0
40
0.250000000000023
40
0.250000000000023
40
0.312500000000022
40
0.312500000000022
40
0.375000000000022
40
0.375000000000022
40
0.500000000000025
40
0.500000000000025
40
0.562500000000026
40
0.562500000000026
40
0.625000000000027
40
0.625000000000027
40
0.75000000000001
40
0.75000000000001
40
0.812500000000002
40
0.812500000000002
40
0.874999999999993
40
0.874999999999993
40
1
40
1
40
1
40
1
41
1
10
20.3181619695468
20
-4.92390455985569
30
0
41
1
10
20.3092192305469
20
-4.89142296665099
30
0
41
1
10
20.295487632259
20
-4.86053631026812
30
0
41
1
10
20.271835338829
20
-4.82420148267821
30
0
41
1
10
20.2667495067731
20
-4.81702254257584
30
0
41
1
10
20.2560530091763
20
-4.80314060543949
30
0
41
1
10
20.2504333990711
20
-4.79641840555308
30
0
41
1
10
20.2327595033493
20
-4.77691327369098
30
0
41
1
10
20.2198957841168
20
-4.76478719136355
30
0
41
1
10
20.1988810548679
20
-4.74801059325083
30
0
41
1
10
20.1915883106091
20
-4.74265488280679
30
0
41
1
10
20.1763916134439
20
-4.73244843396364
30
0
41
1
10
20.1685411707113
20
-4.72763788709571
30
0
41
1
10
20.1445437728381
20
-4.7142755070615
30
0
41
1
10
20.1278334996496
20
-4.70670309595528
30
0
41
1
10
20.1016705104134
20
-4.69741602014867
30
0
41
1
10
20.0927656700965
20
-4.69466726841731
30
0
41
1
10
20.0745707697433
20
-4.68989830589612
30
0
41
1
10
20.0652845989499
20
-4.68788547449549
30
0
41
1
10
20.0374812768526
20
-4.68309641628662
30
0
41
1
10
20.01880895329
20
-4.6815
30
0
41
1
10
20
20
-4.6815
30
0
0
SPLINE
5
144
100
AcDbEntity
8
1
62
256
6
ByLayer
370
18
48
1
60
0
100
AcDbSpline
70
4
71
3
72
34
73
30
40
0
40
0
40
0
40
0
40
0.124999999999969
40
0.124999999999969
40
0.187499999999954
40
0.187499999999954
40
0.218749999999946
40
0.218749999999946
40
0.249999999999939
40
0.249999999999939
40
0.374999999999933
40
0.374999999999933
40
0.406249999999935
40
0.406249999999935
40
0.437499999999937
40
0.499999999999947
40
0.562499999999956
40
0.562499999999956
40
0.624999999999965
40
0.624999999999965
40
0.687499999999974
40
0.687499999999974
40
0.749999999999984
40
0.749999999999984
40
0.874999999999995
40
0.874999999999995
40
0.937499999999997
40
0.937499999999997
40
1
40
1
40
1
40
1
41
1
10
21.3281523379786
20
-7.79745103358488
30
0
41
1
10
21.2791605406677
20
-7.78433446177874
30
0
41
1
10
21.229054901581
20
-7.77570218410935
30
0
41
1
10
21.1518976275393
20
-7.76979203960025
30
0
41
1
10
21.1258420498826
20
-7.76900347636433
30
0
41
1
10
21.0861721053907
20
-7.7697305093599
30
0
41
1
10
21.0728201914696
20
-7.77029419915328
30
0
41
1
10
21.0460462641006
20
-7.77208412311214
30
0
41
1
10
21.0326678100599
20
-7.77330590152712
30
0
41
1
10
20.9658054580945
20
-7.78106671594551
30
0
41
1
10
20.9124105635002
20
-7.79248984827959
30
0
41
1
10
20.8455886245496
20
-7.81423264973623
30
0
41
1
10
20.832203806776
20
-7.81896914504628
30
0
41
1
10
20.8058521630066
20
-7.82906464844686
30
0
41
1
10
20.7667940070401
20
-7.84519028533057
30
0
41
1
10
20.7040139333799
20
-7.87692464033108
30
0
41
1
10
20.6562753174227
20
-7.90753080364263
30
0
41
1
10
20.6098302684516
20
-7.94084969244918
30
0
41
1
10
20.5878136047356
20
-7.95846431994894
30
0
41
1
10
20.5460507829755
20
-7.99544601877469
30
0
41
1
10
20.5262970086682
20
-8.01481955032941
30
0
41
1
10
20.4889396946712
20
-8.05528490510213
30
0
41
1
10
20.4712931406015
20
-8.07645952289147
30
0
41
1
10
20.4226269571248
20
-8.14098420587004
30
0
41
1
10
20.3953601516259
20
-8.185773154831
30
0
41
1
10
20.3612075572781
20
-8.25556920502848
30
0
41
1
10
20.3509341260477
20
-8.27935084526263
30
0
41
1
10
20.3327806188032
20
-8.32739115500326
30
0
41
1
10
20.3248979334757
20
-8.35162924022725
30
0
41
1
10
20.3181619695468
20
-8.37609544014433
30
0
0
SPLINE
5
145
100
AcDbEntity
8
1
62
256
6
ByLayer
370
18
48
1
60
0
100
AcDbSpline
70
4
71
3
72
26
73
22
40
0
40
0
40
0
40
0
40
0.125000000000008
40
0.125000000000008
40
0.250000000000016
40
0.250000000000016
40
0.312500000000029
40
0.312500000000029
40
0.375000000000043
40
0.375000000000043
40
0.500000000000048
40
0.500000000000048
40
0.562500000000042
40
0.562500000000042
40
0.625000000000036
40
0.625000000000036
40
0.750000000000024
40
0.750000000000024
40
0.875000000000012
40
0.875000000000012
40
1
40
1
40
1
40
1
41
1
10
20
20
-8.61850000000001
30
0
41
1
10
20.0187420838797
20
-8.61850000000001
30
0
41
1
10
20.037790024121
20
-8.6168627955046
30
0
41
1
10
20.0746705458543
20
-8.61048528068295
30
0
41
1
10
20.0926468374794
20
-8.60577279166552
30
0
41
1
10
20.1189272305608
20
-8.59646538610318
30
0
41
1
10
20.127613610563
20
-8.59296752509536
30
0
41
1
10
20.144482547616
20
-8.58533413023605
30
0
41
1
10
20.1526773955158
20
-8.58119909926489
30
0
41
1
10
20.1765732518195
20
-8.56788232941574
30
0
41
1
10
20.1915899369245
20
-8.55779456249334
30
0
41
1
10
20.2127755394084
20
-8.54090470708621
30
0
41
1
10
20.2195919185691
20
-8.53499261738443
30
0
41
1
10
20.2325595895107
20
-8.52279737184287
30
0
41
1
10
20.2387403827712
20
-8.51649129678538
30
0
41
1
10
20.2564090822013
20
-8.49697635277582
30
0
41
1
10
20.2670282709711
20
-8.48317412766207
30
0
41
1
10
20.2860013809461
20
-8.45404553323993
30
0
41
1
10
20.2941811588046
20
-8.43897729418626
30
0
41
1
10
20.3080220198239
20
-8.40811774769992
30
0
41
1
10
20.3137019836554
20
-8.39229488948811
30
0
41
1
10
20.3181619695468
20
-8.37609544014433
30
0
0
SPLINE
5
146
100
AcDbEntity
8
1
62
256
6
ByLayer
370
18
48
1
60
0
100
AcDbSpline
70
4
71
3
72
24
73
20
40
0
40
0
40
0
40
0
40
0.0625000000000012
40
0.0625000000000012
40
0.125000000000002
40
0.125000000000002
40
0.250000000000004
40
0.250000000000004
40
0.312500000000003
40
0.312500000000003
40
0.375000000000002
40
0.375000000000002
40
0.500000000000003
40
0.500000000000003
40
0.625000000000003
40
0.625000000000003
40
0.750000000000004
40
0.750000000000004
40
1
40
1
40
1
40
1
41
1
10
21.6981810583398
20
-7.64557688959519
30
0
41
1
10
21.6934313378224
20
-7.65367860981314
30
0
41
1
10
21.6882897889865
20
-7.66164980922736
30
0
41
1
10
21.677355321586
20
-7.67709306570092
30
0
41
1
10
21.6716008277749
20
-7.68451769513678
30
0
41
1
10
21.653507056405
20
-7.70593275162767
30
0
41
1
10
21.6403431053359
20
-7.71907023952511
30
0
41
1
10
21.6189603728398
20
-7.73708047797624
30
0
41
1
10
21.6115431209205
20
-7.74280535445587
30
0
41
1
10
21.5964570188402
20
-7.75347091349855
30
0
41
1
10
21.5887541685168
20
-7.7584425345147
30
0
41
1
10
21.5651865615503
20
-7.77231523036025
30
0
41
1
10
21.5488655560664
20
-7.78018071772848
30
0
41
1
10
21.5150376500416
20
-7.79319032755996
30
0
41
1
10
21.497973394896
20
-7.79816506090182
30
0
41
1
10
21.4636029977596
20
-7.80532399248332
30
0
41
1
10
21.446237058748
20
-7.8075093069186
30
0
41
1
10
21.39416944413
20
-7.80993921004605
30
0
41
1
10
21.3606039107084
20
-7.80613929176883
30
0
41
1
10
21.3281523379786
20
-7.79745103358488
30
0
0
SPLINE
5
147
100
AcDbEntity
8
1
62
256
6
ByLayer
370
18
48
1
60
0
100
AcDbSpline
70
4
71
3
72
19
73
15
40
0
40
0
40
0
40
0
40
0.105598795309637
40
0.207133056768106
40
0.304606247524377
40
0.398022283830824
40
0.48738561546495
40
0.572701326119379
40
0.653975258965669
40
0.731214174678389
40
0.804425952125484
40
0.873619846082935
40
0.938806822394131
40
1
40
1
40
1
40
1
41
1
10
39.58236683062
20
-14.5169146481781
30
0
41
1
10
39.5761086181708
20
-14.5162950509147
30
0
41
1
10
39.563833074016
20
-14.515079704899
30
0
41
1
10
39.5458128004535
20
-14.5129917878763
30
0
41
1
10
39.528539119221
20
-14.5107692859052
30
0
41
1
10
39.5120140189838
20
-14.508406487872
30
0
41
1
10
39.4962369707864
20
-14.5059226125369
30
0
41
1
10
39.4812080910702
20
-14.5033301067006
30
0
41
1
10
39.4669272661601
20
-14.500642836653
30
0
41
1
10
39.4533946416573
20
-14.4978730398514
30
0
41
1
10
39.4406095573258
20
-14.4950353238248
30
0
41
1
10
39.4285740432231
20
-14.4921343681174
30
0
41
1
10
39.4172808603107
20
-14.4892065803664
30
0
41
1
10
39.4100347419719
20
-14.4871218545511
30
0
41
1
10
39.4065261768
20
-14.4861124318441
30
0
0
SPLINE
5
148
100
AcDbEntity
8
1
62
256
6
ByLayer
370
18
48
1
60
0
100
AcDbSpline
70
4
71
3
72
16
73
12
40
0
40
0
40
0
40
0
40
0.118227901208893
40
0.234676362797895
40
0.349345481218905
40
0.462235357483961
40
0.573346097457497
40
0.682677812172249
40
0.790230618171219
40
0.896004637878217
40
1
40
1
40
1
40
1
41
1
10
40.2702887043917
20
-14.5722653261451
30
0
41
1
10
40.2431521268268
20
-14.5704433162409
30
0
41
1
10
40.1892874023701
20
-14.5668267193723
30
0
41
1
10
40.109124713396
20
-14.5611121390679
30
0
41
1
10
40.0302034041844
20
-14.5552472925334
30
0
41
1
10
39.9525249527701
20
-14.5492180470503
30
0
41
1
10
39.8760890095594
20
-14.5430390245208
30
0
41
1
10
39.8008955277781
20
-14.5367190776925
30
0
41
1
10
39.7269450208379
20
-14.5302614208823
30
0
41
1
10
39.6542355274137
20
-14.5236960106469
30
0
41
1
10
39.6061872606909
20
-14.5191622883529
30
0
41
1
10
39.58236683059
20
-14.51691464817
30
0
0
SPLINE
5
149
100
AcDbEntity
8
1
62
256
6
ByLayer
370
18
48
1
60
0
100
AcDbSpline
70
4
71
2
72
10
73
7
40
0
40
0
40
0
40
0.5
40
0.5
40
0.75
40
0.75
40
1
40
1
40
1
41
1
10
40.2703211835004
20
-14.572267476262
30
0
41
1
10
40.5005090492969
20
-14.5875343736815
30
0
41
1
10
40.6813994958523
20
-14.6237416432629
30
0
41
1
10
40.7977168199743
20
-14.6470238717702
30
0
41
1
10
40.8815407125726
20
-14.6769810514917
30
0
41
1
10
41.0246417322624
20
-14.7281228301935
30
0
41
1
10
41.0499902265207
20
-14.789264413028
30
0
0
SPLINE
5
14A
100
AcDbEntity
8
1
62
256
6
ByLayer
370
18
48
1
60
0
100
AcDbSpline
70
4
71
2
72
6
73
3
40
0
40
0
40
0
40
1
40
1
40
1
41
1
10
41.0499902266708
20
-14.789264412942
30
0
41
1
10
41.0884919085572
20
-14.8844087349086
30
0
41
1
10
41.0886043049807
20
-14.9799999993024
30
0
0
SPLINE
5
14B
100
AcDbEntity
8
1
62
256
6
ByLayer
370
18
48
1
60
0
100
AcDbSpline
70
4
71
3
72
24
73
20
40
0
40
0
40
0
40
0
40
0.0615883759048378
40
0.122688254024692
40
0.18332629985169
40
0.243529792548003
40
0.303326606004201
40
0.362745186445336
40
0.421814526539177
40
0.480564136000288
40
0.539024008730868
40
0.597224586585083
40
0.655196719894218
40
0.712971624940736
40
0.770580838619306
40
0.828056170570644
40
0.885429653119919
40
0.942733489390628
40
1
40
1
40
1
40
1
41
1
10
41.04999022667
20
-15.210735587058
30
0
41
1
10
41.0514760409687
20
-15.2070098201942
30
0
41
1
10
41.0544358845988
20
-15.1995878379662
30
0
41
1
10
41.0585659721736
20
-15.1883783496833
30
0
41
1
10
41.0624450214134
20
-15.1771714868724
30
0
41
1
10
41.0660526456091
20
-15.16595887988
30
0
41
1
10
41.0693942359551
20
-15.1547431796984
30
0
41
1
10
41.0724683525928
20
-15.1435241178479
30
0
41
1
10
41.0752753669341
20
-15.1323022009938
30
0
41
1
10
41.0778151708743
20
-15.1210777311409
30
0
41
1
10
41.0800877810841
20
-15.1098510656213
30
0
41
1
10
41.0820931925112
20
-15.0986225480182
30
0
41
1
10
41.0838313661184
20
-15.0873925264579
30
0
41
1
10
41.0853024227051
20
-15.0761613486895
30
0
41
1
10
41.0865058842008
20
-15.064929363221
30
0
41
1
10
41.0874435045143
20
-15.0536969191887
30
0
41
1
10
41.0881087368338
20
-15.0424643651982
30
0
41
1
10
41.0885259471521
20
-15.031232053448
30
0
41
1
10
41.0885781913775
20
-15.0237432050217
30
0
41
1
10
41.08860430498
20
-15.0200000006976
30
0
0
SPLINE
5
14C
100
AcDbEntity
8
1
62
256
6
ByLayer
370
18
48
1
60
0
100
AcDbSpline
70
4
71
3
72
43
73
39
40
0
40
0
40
0
40
0
40
0.0409973406366469
40
0.0809092982715808
40
0.119736159842822
40
0.157478237047538
40
0.194135869264796
40
0.229709426921879
40
0.264199315386283
40
0.297605979485287
40
0.32992990877783
40
0.361171643733666
40
0.391331783012885
40
0.420410992088527
40
0.448410013519416
40
0.475329679265272
40
0.501170925548113
40
0.572592867093689
40
0.638080914696128
40
0.697670982799365
40
0.751410812475232
40
0.772779913618552
40
0.793234602755291
40
0.812782181749364
40
0.831431018019198
40
0.849190749344525
40
0.866072536338502
40
0.882089374987178
40
0.897256484840495
40
0.91159179213099
40
0.925116531009032
40
0.937855989439949
40
0.949840427402953
40
0.96110619050402
40
0.97169702597651
40
0.98166557083429
40
0.991074911407362
40
1
40
1
40
1
40
1
41
1
10
40.2703211835
20
-15.427732523738
30
0
41
1
10
40.2815955433722
20
-15.4269594666407
30
0
41
1
10
40.3038457803767
20
-15.4254338187256
30
0
41
1
10
40.3367474852616
20
-15.4228310595287
30
0
41
1
10
40.368734387051
20
-15.4200519476306
30
0
41
1
10
40.3998047803202
20
-15.4170870102301
30
0
41
1
10
40.4299591078148
20
-15.4139564894663
30
0
41
1
10
40.4591972610569
20
-15.4106726572971
30
0
41
1
10
40.4875192737298
20
-15.4072494639607
30
0
41
1
10
40.5149251441988
20
-15.4037000360555
30
0
41
1
10
40.5414148802485
20
-15.4000372922653
30
0
41
1
10
40.5669884910949
20
-15.3962737711221
30
0
41
1
10
40.5916459782106
20
-15.3924216377357
30
0
41
1
10
40.6153873786588
20
-15.3884927389845
30
0
41
1
10
40.638212610891
20
-15.3844983270722
30
0
41
1
10
40.6601220206573
20
-15.3804500062245
30
0
41
1
10
40.6937486984551
20
-15.3738926336811
30
0
41
1
10
40.7376602656581
20
-15.3644624374581
30
0
41
1
10
40.790314785579
20
-15.3514098214847
30
0
41
1
10
40.8378060332943
20
-15.3378403912217
30
0
41
1
10
40.8731644417988
20
-15.32617796038
30
0
41
1
10
40.8979490400554
20
-15.317027896295
30
0
41
1
10
40.9137384431464
20
-15.3108006967103
30
0
41
1
10
40.9286893772276
20
-15.3044920122776
30
0
41
1
10
40.9428019685624
20
-15.2981078739192
30
0
41
1
10
40.9560763753171
20
-15.2916544837686
30
0
41
1
10
40.9685127830692
20
-15.285137929982
30
0
41
1
10
40.9801114087742
20
-15.2785642357986
30
0
41
1
10
40.9908725094797
20
-15.2719393232201
30
0
41
1
10
41.0007963582658
20
-15.2652689783529
30
0
41
1
10
41.0098833178298
20
-15.258558848725
30
0
41
1
10
41.0181335453682
20
-15.2518142783929
30
0
41
1
10
41.0255478947299
20
-15.2450406620661
30
0
41
1
10
41.0321246317881
20
-15.238241999332
30
0
41
1
10
41.037870243827
20
-15.231425587599
30
0
41
1
10
41.0427620013418
20
-15.2245859033483
30
0
41
1
10
41.0468749657509
20
-15.2177598166444
30
0
41
1
10
41.0489702532908
20
-15.213035402863
30
0
41
1
10
41.04999022652
20
-15.210735586972
30
0
0
SPLINE
5
14D
100
AcDbEntity
8
1
62
256
6
ByLayer
370
18
48
1
60
0
100
AcDbSpline
70
4
71
2
72
6
73
3
40
0
40
0
40
0
40
1
40
1
40
1
41
1
10
40.2702887043921
20
-15.4277346738575
30
0
41
1
10
39.919552783945
20
-15.4509625305676
30
0
41
1
10
39.5823668305908
20
-15.48308535183
30
0
0
SPLINE
5
14E
100
AcDbEntity
8
1
62
256
6
ByLayer
370
18
48
1
60
0
100
AcDbSpline
70
4
71
2
72
6
73
3
40
0
40
0
40
0
40
1
40
1
40
1
41
1
10
39.5823668306203
20
-15.483085351822
30
0
41
1
10
39.4769907517283
20
-15.4931766319907
30
0
41
1
10
39.4065261768005
20
-15.513887568156
30
0
0
SPLINE
5
14F
100
AcDbEntity
8
1
62
256
6
ByLayer
370
18
48
1
60
0
100
AcDbSpline
70
4
71
3
72
10
73
6
40
0
40
0
40
0
40
0
40
0.5
40
0.5
40
1
40
1
40
1
40
1
41
1
10
11.0276281961116
20
0.28227754060643
30
0
41
1
10
11.024604110705
20
0.277167459287682
30
0
41
1
10
11.0210220935147
20
0.271804402679407
30
0
41
1
10
11.013193480974
20
0.261019280122355
30
0
41
1
10
11.0089152580003
20
0.255544143276097
30
0
41
1
10
11.0043341013017
20
0.249999999999773
30
0
0
SPLINE
5
150
100
AcDbEntity
8
1
62
256
6
ByLayer
370
18
48
1
60
0
100
AcDbSpline
70
4
71
3
72
8
73
4
40
0
40
0
40
0
40
0
40
1
40
1
40
1
40
1
41
1
10
10.9802416290831
20
0.25
30
0
41
1
10
10.9960440478665
20
0.260728153479562
30
0
41
1
10
11.0118395197766
20
0.271487560575792
30
0
41
1
10
11.0276281961116
20
0.282277540606458
30
0
0
SPLINE
5
151
100
AcDbEntity
8
1
62
256
6
ByLayer
370
18
48
1
60
0
100
AcDbSpline
70
4
71
3
72
16
73
12
40
0
40
0
40
0
40
0
40
0.125000000000004
40
0.125000000000004
40
0.250000000000008
40
0.250000000000008
40
0.500000000000005
40
0.500000000000005
40
0.750000000000003
40
0.750000000000003
40
1
40
1
40
1
40
1
41
1
10
11.4767455840037
20
0.324980947161691
30
0
41
1
10
11.4587165340475
20
0.324980947161691
30
0
41
1
10
11.4405128455448
20
0.324487662952038
30
0
41
1
10
11.403855529943
20
0.322876673905029
30
0
41
1
10
11.3854005138776
20
0.321753904772237
30
0
41
1
10
11.3297360724389
20
0.317725065648716
30
0
41
1
10
11.2921593820356
20
0.314163386023608
30
0
41
1
10
11.2167947747196
20
0.306145453798109
30
0
41
1
10
11.1790487078829
20
0.301684454692804
30
0
41
1
10
11.1034318228734
20
0.292282100096372
30
0
41
1
10
11.0655609699117
20
0.287336251186247
30
0
41
1
10
11.0276281961116
20
0.282277540606458
30
0
0
SPLINE
5
152
100
AcDbEntity
8
1
62
256
6
ByLayer
370
18
48
1
60
0
100
AcDbSpline
70
4
71
2
72
6
73
3
40
0
40
0
40
0
40
1
40
1
40
1
41
1
10
11.6225385935649
20
0.324980947161691
30
0
41
1
10
11.6623357600101
20
0.324980947161691
30
0
41
1
10
11.7003488338351
20
0.324980947161691
30
0
0
SPLINE
5
153
100
AcDbEntity
8
1
62
256
6
ByLayer
370
18
48
1
60
0
100
AcDbSpline
70
4
71
3
72
18
73
14
40
0
40
0
40
0
40
0
40
0.249999999999974
40
0.249999999999974
40
0.374999999999974
40
0.374999999999974
40
0.499999999999973
40
0.499999999999973
40
0.749999999999979
40
0.749999999999979
40
0.87499999999999
40
0.87499999999999
40
1
40
1
40
1
40
1
41
1
10
11.4891887427026
20
0.25
30
0
41
1
10
11.5022154752707
20
0.259874306686129
30
0
41
1
10
11.5150061950698
20
0.269118079601725
30
0
41
1
10
11.533800706262
20
0.281955461569027
30
0
41
1
10
11.5399996913608
20
0.286061631183884
30
0
41
1
10
11.5522495768641
20
0.293887591674519
30
0
41
1
10
11.5583323750177
20
0.297626089548913
30
0
41
1
10
11.576065685278
20
0.308011887553732
30
0
41
1
10
11.5871602352551
20
0.313833832995215
30
0
41
1
10
11.602269896615
20
0.320249995981385
30
0
41
1
10
11.6069612897688
20
0.321956226105357
30
0
41
1
10
11.6154439919953
20
0.324317343478441
30
0
41
1
10
11.6192703907151
20
0.324980947161663
30
0
41
1
10
11.6224972601399
20
0.324980947161663
30
0
0
SPLINE
5
154
100
AcDbEntity
8
1
62
256
6
ByLayer
370
18
48
1
60
0
100
AcDbSpline
70
4
71
3
72
20
73
16
40
0
40
0
40
0
40
0
40
0.125000000000002
40
0.125000000000002
40
0.250000000000003
40
0.250000000000003
40
0.375000000000005
40
0.375000000000005
40
0.500000000000007
40
0.500000000000007
40
0.625000000000008
40
0.625000000000008
40
0.75000000000001
40
0.75000000000001
40
1
40
1
40
1
40
1
41
1
10
11.7002715671113
20
0.324980947011881
30
0
41
1
10
11.7027276586107
20
0.32498065502682
30
0
41
1
10
11.7047744349767
20
0.324556906143442
30
0
41
1
10
11.7079143112223
20
0.322720644458258
30
0
41
1
10
11.7089593394717
20
0.321329216849307
30
0
41
1
10
11.7099565341409
20
0.317602526875618
30
0
41
1
10
11.709905560238
20
0.315233151109652
30
0
41
1
10
11.7086811012233
20
0.309627561895638
30
0
41
1
10
11.7075283622337
20
0.306433565607506
30
0
41
1
10
11.70423462607
20
0.299327912698914
30
0
41
1
10
11.7020757146846
20
0.295395783281549
30
0
41
1
10
11.6970181369881
20
0.287157299177181
30
0
41
1
10
11.6941070170369
20
0.282819409469283
30
0
41
1
10
11.6843676251665
20
0.269228281522629
30
0
41
1
10
11.6767867414207
20
0.259734549354079
30
0
41
1
10
11.6684781235838
20
0.249999999999915
30
0
0
SPLINE
5
155
100
AcDbEntity
8
1
62
256
6
ByLayer
370
18
48
1
60
0
100
AcDbSpline
70
4
71
3
72
12
73
8
40
0
40
0
40
0
40
0
40
0.20286827348357
40
0.20286827348357
40
0.601434136736917
40
0.601434136736917
40
1
40
1
40
1
40
1
41
1
10
37.9074577036325
20
-12.1912767208238
30
0
41
1
10
37.7404545692779
20
-12.1910843944718
30
0
41
1
10
37.5734514351649
20
-12.1908918580818
30
0
41
1
10
37.0783450100607
20
-12.1903204316568
30
0
41
1
10
36.7502417197616
20
-12.1899409408907
30
0
41
1
10
36.0940351410372
20
-12.1891803375116
30
0
41
1
10
35.7659318526099
20
-12.1887992248986
30
0
41
1
10
35.4378285651277
20
-12.1884173012254
30
0
0
SPLINE
5
156
100
AcDbEntity
8
1
62
256
6
ByLayer
370
18
48
1
60
0
100
AcDbSpline
70
4
71
2
72
6
73
3
40
0
40
0
40
0
40
1
40
1
40
1
41
1
10
12.1093895093787
20
0.324980947161691
30
0
41
1
10
12.1351086225604
20
0.324980947161691
30
0
41
1
10
12.1591777306887
20
0.324980947161691
30
0
0
SPLINE
5
157
100
AcDbEntity
8
1
62
256
6
ByLayer
370
18
48
1
60
0
100
AcDbSpline
70
4
71
3
72
20
73
16
40
0
40
0
40
0
40
0
40
0.249999999999989
40
0.249999999999989
40
0.374999999999991
40
0.374999999999991
40
0.499999999999993
40
0.499999999999993
40
0.624999999999994
40
0.624999999999994
40
0.749999999999996
40
0.749999999999996
40
0.874999999999998
40
0.874999999999998
40
1
40
1
40
1
40
1
41
1
10
11.9976433210011
20
0.25
30
0
41
1
10
12.009301763559
20
0.259787645928668
30
0
41
1
10
12.020666805848
20
0.269007950892956
30
0
41
1
10
12.0372126933245
20
0.281882103214599
30
0
41
1
10
12.0426436032128
20
0.286012629843469
30
0
41
1
10
12.0533120633888
20
0.293907347526101
30
0
41
1
10
12.0585602905132
20
0.29767751332821
30
0
41
1
10
12.0685783551001
20
0.304613503251545
30
0
41
1
10
12.0733790323531
20
0.307803069518741
30
0
41
1
10
12.0824979881206
20
0.31353891412266
30
0
41
1
10
12.0868485278645
20
0.316102421478263
30
0
41
1
10
12.0947757469597
20
0.320340999940072
30
0
41
1
10
12.0983483013897
20
0.322018168166267
30
0
41
1
10
12.1045810907115
20
0.324340880433709
30
0
41
1
10
12.107254044376
20
0.324981196953928
30
0
41
1
10
12.1092848975574
20
0.324980947087255
30
0
0
SPLINE
5
158
100
AcDbEntity
8
1
62
256
6
ByLayer
370
18
48
1
60
0
100
AcDbSpline
70
4
71
3
72
20
73
16
40
0
40
0
40
0
40
0
40
0.249999999999973
40
0.249999999999973
40
0.374999999999977
40
0.374999999999977
40
0.499999999999982
40
0.499999999999982
40
0.624999999999986
40
0.624999999999986
40
0.749999999999991
40
0.749999999999991
40
0.874999999999995
40
0.874999999999995
40
1
40
1
40
1
40
1
41
1
10
18.8729219314525
20
0.249980947161674
30
0
41
1
10
18.8622168298091
20
0.259753493246421
30
0
41
1
10
18.8518338885015
20
0.269034872976135
30
0
41
1
10
18.8368284752011
20
0.282081584144691
30
0
41
1
10
18.8319167921744
20
0.286286962265336
30
0
41
1
10
18.8225131770649
20
0.294190567740913
30
0
41
1
10
18.8179958139009
20
0.297911309070372
30
0
41
1
10
18.8093760264562
20
0.304831757523772
30
0
41
1
10
18.8052728850999
20
0.308032368047549
30
0
41
1
10
18.7975633120804
20
0.313808713729202
30
0
41
1
10
18.7940419579248
20
0.31632025809796
30
0
41
1
10
18.7877652228033
20
0.320483944021561
30
0
41
1
10
18.7849851214943
20
0.322149113157053
30
0
41
1
10
18.7804472864332
20
0.324397783309394
30
0
41
1
10
18.7787010242645
20
0.324980947161691
30
0
41
1
10
18.7775181327357
20
0.324980947161691
30
0
0
SPLINE
5
159
100
AcDbEntity
8
1
62
256
6
ByLayer
370
18
48
1
60
0
100
AcDbSpline
70
4
71
3
72
22
73
18
40
0
40
0
40
0
40
0
40
0.125
40
0.125
40
0.25
40
0.25
40
0.375
40
0.375
40
0.5
40
0.5
40
0.625
40
0.625
40
0.75
40
0.75
40
0.875
40
0.875
40
1
40
1
40
1
40
1
41
1
10
12.1591123242011
20
0.324980947096634
30
0
41
1
10
12.160748914312
20
0.324980744910022
30
0
41
1
10
12.1619178742491
20
0.32451233325267
30
0
41
1
10
12.1632184611248
20
0.322535308026602
30
0
41
1
10
12.1633272609604
20
0.321050353590891
30
0
41
1
10
12.1624968318173
20
0.317151650447101
30
0
41
1
10
12.1615434185313
20
0.314703920460204
30
0
41
1
10
12.1586618746924
20
0.309011980465471
30
0
41
1
10
12.1567559307757
20
0.305797443053109
30
0
41
1
10
12.1521174610557
20
0.298711369994777
30
0
41
1
10
12.1493691551654
20
0.294822935140644
30
0
41
1
10
12.1433230755429
20
0.286718169404963
30
0
41
1
10
12.1400065186708
20
0.282471564406677
30
0
41
1
10
12.1328661856318
20
0.273641363100268
30
0
41
1
10
12.1290217080621
20
0.269034144111373
30
0
41
1
10
12.1209776473745
20
0.259636419717196
30
0
41
1
10
12.1167868703034
20
0.254854742203293
30
0
41
1
10
12.112447912294
20
0.249999999999943
30
0
0
SPLINE
5
15A
100
AcDbEntity
8
1
62
256
6
ByLayer
370
18
48
1
60
0
100
AcDbSpline
70
4
71
3
72
8
73
4
40
0
40
0
40
0
40
0
40
1
40
1
40
1
40
1
41
1
10
19.2870625622058
20
-0.129903810567669
30
0
41
1
10
19.470320512806
20
-0.311580759097666
30
0
41
1
10
19.6535562001677
20
-0.493280087494554
30
0
41
1
10
19.8367714106908
20
-0.675000000000011
30
0
0
SPLINE
5
15B
100
AcDbEntity
8
1
62
256
6
ByLayer
370
18
48
1
60
0
100
AcDbSpline
70
4
71
3
72
8
73
4
40
0
40
0
40
0
40
0
40
1
40
1
40
1
40
1
41
1
10
19.2870625622058
20
-0.129903810567669
30
0
41
1
10
19.1493610312483
20
-0.0029941060164731
30
0
41
1
10
19.0113201534983
20
0.123639035795151
30
0
41
1
10
18.8729219314525
20
0.249980947161674
30
0
0
SPLINE
5
15C
100
AcDbEntity
8
1
62
256
6
ByLayer
370
18
48
1
60
0
100
AcDbSpline
70
4
71
3
72
41
73
37
40
0
40
0
40
0
40
0
40
0.0312499999999976
40
0.0312499999999976
40
0.0624999999999951
40
0.0624999999999951
40
0.12499999999999
40
0.12499999999999
40
0.24999999999998
40
0.24999999999998
40
0.281249999999977
40
0.281249999999977
40
0.312499999999974
40
0.312499999999974
40
0.374999999999971
40
0.437499999999967
40
0.437499999999967
40
0.468749999999966
40
0.468749999999966
40
0.499999999999965
40
0.499999999999965
40
0.624999999999966
40
0.624999999999966
40
0.656249999999968
40
0.656249999999968
40
0.68749999999997
40
0.68749999999997
40
0.749999999999975
40
0.749999999999975
40
0.874999999999987
40
0.874999999999987
40
0.906249999999991
40
0.906249999999991
40
0.937499999999994
40
0.937499999999994
40
1
40
1
40
1
40
1
41
1
10
27.0999999999998
20
-9.16378570961413
30
0
41
1
10
27.0733507184121
20
-9.16378570961413
30
0
41
1
10
27.0466392746555
20
-9.16309450923822
30
0
41
1
10
26.9930898221592
20
-9.16030479330664
30
0
41
1
10
26.96617675015
20
-9.15819620780812
30
0
41
1
10
26.8860741526606
20
-9.1498050668294
30
0
41
1
10
26.8333737407463
20
-9.14147199670825
30
0
41
1
10
26.6773082781852
20
-9.10852215583665
30
0
41
1
10
26.5759590656536
20
-9.0760326101823
30
0
41
1
10
26.4527233649318
20
-9.02194365876647
30
0
41
1
10
26.4283973995986
20
-9.01050824251493
30
0
41
1
10
26.3805635907333
20
-8.98651863441754
30
0
41
1
10
26.3570245645654
20
-8.97395080380386
30
0
41
1
10
26.2875199657921
20
-8.93456031247629
30
0
41
1
10
26.197808449209
20
-8.87754907591997
30
0
41
1
10
26.1139293682086
20
-8.81169334938019
30
0
41
1
10
26.0532377542292
20
-8.75893856887544
30
0
41
1
10
26.0333267037183
20
-8.74074109978935
30
0
41
1
10
25.9946027507289
20
-8.70354224971354
30
0
41
1
10
25.9757712361344
20
-8.68453020664171
30
0
41
1
10
25.8842044137116
20
-8.58745478454003
30
0
41
1
10
25.8191681796407
20
-8.50340270646291
30
0
41
1
10
25.7479305025522
20
-8.39051432592854
30
0
41
1
10
25.7341903594854
20
-8.3675419763604
30
0
41
1
10
25.7077376956754
20
-8.32079794459997
30
0
41
1
10
25.6950318978652
20
-8.29702922027894
30
0
41
1
10
25.6588437361712
20
-8.2252703663959
30
0
41
1
10
25.6371432792849
20
-8.17658488749115
30
0
41
1
10
25.5790835931708
20
-8.02807112506446
30
0
41
1
10
25.5497020107557
20
-7.92580786297793
30
0
41
1
10
25.5248548731105
20
-7.79383309593649
30
0
41
1
10
25.5204917545651
20
-7.76724988280048
30
0
41
1
10
25.5130370166542
20
-7.71410327711703
30
0
41
1
10
25.5099347554277
20
-7.68748647170898
30
0
41
1
10
25.5024882603314
20
-7.60750659407563
30
0
41
1
10
25.5
20
-7.5540143607343
30
0
41
1
10
25.5
20
-7.50034896410429
30
0
0
SPLINE
5
15D
100
AcDbEntity
8
1
62
256
6
ByLayer
370
18
48
1
60
0
100
AcDbSpline
70
4
71
3
72
16
73
12
40
0
40
0
40
0
40
0
40
0.25
40
0.25
40
0.499999999999999
40
0.499999999999999
40
0.749999999999998
40
0.749999999999998
40
0.874999999999999
40
0.874999999999999
40
1
40
1
40
1
40
1
41
1
10
36.8514981939755
20
-15.5
30
0
41
1
10
36.8329105656476
20
-15.6355611532312
30
0
41
1
10
36.814135846602
20
-15.7710723914249
30
0
41
1
10
36.7760095288354
20
-16.0419309994593
30
0
41
1
10
36.7566633186756
20
-16.1772802057706
30
0
41
1
10
36.717010479565
20
-16.4477068395736
30
0
41
1
10
36.6967217766361
20
-16.5827926889222
30
0
41
1
10
36.6649239987196
20
-16.7849768163495
30
0
41
1
10
36.6540927756056
20
-16.8522975546893
30
0
41
1
10
36.6317196037221
20
-16.9867123884819
30
0
41
1
10
36.6201852518523
20
-17.0538089065054
30
0
41
1
10
36.6080562954854
20
-17.1207158114502
30
0
0
SPLINE
5
15E
100
AcDbEntity
8
1
62
256
6
ByLayer
370
18
48
1
60
0
100
AcDbSpline
70
4
71
3
72
8
73
4
40
0
40
0
40
0
40
0
40
1
40
1
40
1
40
1
41
1
10
37.026777017215
20
-15.4159227623863
30
0
41
1
10
36.9684491786965
20
-15.4444004679184
30
0
41
1
10
36.9100586915477
20
-15.4725905278332
30
0
41
1
10
36.8514981939755
20
-15.5
30
0
0
SPLINE
5
15F
100
AcDbEntity
8
1
62
256
6
ByLayer
370
18
48
1
60
0
100
AcDbSpline
70
4
71
3
72
20
73
16
40
0
40
0
40
0
40
0
40
0.25000000000002
40
0.25000000000002
40
0.375000000000016
40
0.375000000000016
40
0.500000000000013
40
0.500000000000013
40
0.62500000000001
40
0.62500000000001
40
0.750000000000007
40
0.750000000000007
40
0.875000000000003
40
0.875000000000003
40
1
40
1
40
1
40
1
41
1
10
37.1
20
-15.2749688692685
30
0
41
1
10
37.1
20
-15.2906154703116
30
0
41
1
10
37.0982350113453
20
-15.3058406057954
30
0
41
1
10
37.0929847603154
20
-15.3280567882605
30
0
41
1
10
37.0908173665987
20
-15.3352332079604
30
0
41
1
10
37.0857488603431
20
-15.3489305808314
30
0
41
1
10
37.0828391293578
20
-15.3554880391187
30
0
41
1
10
37.0762608335801
20
-15.3680143889907
30
0
41
1
10
37.0726085184947
20
-15.3739345536149
30
0
41
1
10
37.0647934677856
20
-15.3848097611123
30
0
41
1
10
37.060605852187
20
-15.3898139083347
30
0
41
1
10
37.0516728607018
20
-15.3989590351323
30
0
41
1
10
37.0469169098256
20
-15.4030966578374
30
0
41
1
10
37.0371127047952
20
-15.4102776284608
30
0
41
1
10
37.032033507359
20
-15.4133563587229
30
0
41
1
10
37.026777017215
20
-15.4159227623863
30
0
0
SPLINE
5
160
100
AcDbEntity
8
1
62
256
6
ByLayer
370
18
48
1
60
0
100
AcDbSpline
70
4
71
3
72
20
73
16
40
0
40
0
40
0
40
0
40
0.250000000000011
40
0.250000000000011
40
0.375000000000009
40
0.375000000000009
40
0.500000000000007
40
0.500000000000007
40
0.625000000000005
40
0.625000000000005
40
0.750000000000004
40
0.750000000000004
40
0.875000000000002
40
0.875000000000002
40
1
40
1
40
1
40
1
41
1
10
37.0267770172148
20
-14.5840772376136
30
0
41
1
10
37.0372920567317
20
-14.5892110503285
30
0
41
1
10
37.0470416737057
20
-14.5963285347891
30
0
41
1
10
37.0604898085691
20
-14.6100532403169
30
0
41
1
10
37.06474386683
20
-14.6151282558026
30
0
41
1
10
37.0725589576124
20
-14.6259895274067
30
0
41
1
10
37.0761569548166
20
-14.6318114046973
30
0
41
1
10
37.0827177390073
20
-14.6442580087265
30
0
41
1
10
37.0856948951848
20
-14.6509378195401
30
0
41
1
10
37.0907898024679
20
-14.6646782892513
30
0
41
1
10
37.0929349500252
20
-14.671776578622
30
0
41
1
10
37.096418551245
20
-14.6864304464582
30
0
41
1
10
37.0977624626886
20
-14.6940447604527
30
0
41
1
10
37.0995500855061
20
-14.7094401787341
30
0
41
1
10
37.1000000000117
20
-14.7172027725805
30
0
41
1
10
37.1000000000118
20
-14.7250311307298
30
0
0
SPLINE
5
161
100
AcDbEntity
8
1
62
256
6
ByLayer
370
18
48
1
60
0
100
AcDbSpline
70
4
71
3
72
8
73
4
40
0
40
0
40
0
40
0
40
1
40
1
40
1
40
1
41
1
10
36.8514981939758
20
-14.5000000000001
30
0
41
1
10
36.9100751308116
20
-14.5274171666292
30
0
41
1
10
36.9684611811007
20
-14.5556053920781
30
0
41
1
10
37.0267770172148
20
-14.5840772376136
30
0
0
SPLINE
5
162
100
AcDbEntity
8
1
62
256
6
ByLayer
370
18
48
1
60
0
100
AcDbSpline
70
4
71
3
72
16
73
12
40
0
40
0
40
0
40
0
40
0.125000000000001
40
0.125000000000001
40
0.250000000000001
40
0.250000000000001
40
0.500000000000001
40
0.500000000000001
40
0.750000000000001
40
0.750000000000001
40
1
40
1
40
1
40
1
41
1
10
36.6080562954818
20
-12.8792841885507
30
0
41
1
10
36.620181430106
20
-12.9461700116335
30
0
41
1
10
36.6317134406143
20
-13.0132516560759
30
0
41
1
10
36.6540832491577
20
-13.1476441408856
30
0
41
1
10
36.6649134902812
20
-13.2149574761854
30
0
41
1
10
36.6967094716682
20
-13.4171268528291
30
0
41
1
10
36.7169976139487
20
-13.5522066047837
30
0
41
1
10
36.756656064137
20
-13.822669133928
30
0
41
1
10
36.7760047497563
20
-13.9580352974147
30
0
41
1
10
36.8141340793076
20
-14.2289148047192
30
0
41
1
10
36.8329096628704
20
-14.3644322627264
30
0
41
1
10
36.8514981939768
20
-14.4999999999972
30
0
0
SPLINE
5
163
100
AcDbEntity
8
1
62
256
6
ByLayer
370
18
48
1
60
0
100
AcDbSpline
70
4
71
3
72
12
73
8
40
0
40
0
40
0
40
0
40
0.440168363064885
40
0.440168363064885
40
0.720084181532443
40
0.720084181532443
40
1
40
1
40
1
40
1
41
1
10
-11.9100841610081
20
0.304203938282598
30
0
41
1
10
-11.9370513372836
20
0.309281617071207
30
0
41
1
10
-11.9639178530067
20
0.31375527917919
30
0
41
1
10
-12.0070405445916
20
0.319553049457142
30
0
41
1
10
-12.0236224935398
20
0.321432392161768
30
0
41
1
10
-12.0563145906413
20
0.324140031765523
30
0
41
1
10
-12.0724293033973
20
0.324980947161293
30
0
41
1
10
-12.0881936018054
20
0.324980947161663
30
0
0
SPLINE
5
164
100
AcDbEntity
8
1
62
256
6
ByLayer
370
18
48
1
60
0
100
AcDbSpline
70
4
71
3
72
30
73
26
40
0
40
0
40
0
40
0
40
0.124999999999998
40
0.124999999999998
40
0.187499999999999
40
0.187499999999999
40
0.25
40
0.312500000000002
40
0.312500000000002
40
0.375000000000003
40
0.375000000000003
40
0.500000000000009
40
0.500000000000009
40
0.56250000000001
40
0.56250000000001
40
0.625000000000012
40
0.625000000000012
40
0.75000000000001
40
0.75000000000001
40
0.812500000000008
40
0.812500000000008
40
0.875000000000005
40
0.937500000000003
40
0.937500000000003
40
1
40
1
40
1
40
1
41
1
10
14.272209428644
20
-1.375
30
0
41
1
10
14.2500924484084
20
-1.375
30
0
41
1
10
14.228053699137
20
-1.37184524071961
30
0
41
1
10
14.1951172651323
20
-1.3622058076956
30
0
41
1
10
14.1842805696398
20
-1.35819977622589
30
0
41
1
10
14.1630634368024
20
-1.34871346430882
30
0
41
1
10
14.1422433562508
20
-1.33773564577862
30
0
41
1
10
14.1222102940526
20
-1.32380143303922
30
0
41
1
10
14.1025786481296
20
-1.30835932058406
30
0
41
1
10
14.0929217374853
20
-1.29983613365201
30
0
41
1
10
14.0651466136046
20
-1.27248836972282
30
0
41
1
10
14.0480577833705
20
-1.25181459491549
30
0
41
1
10
14.0245361050739
20
-1.21719287109173
30
0
41
1
10
14.0170426658869
20
-1.20503309945985
30
0
41
1
10
14.002820854902
20
-1.1795100605984
30
0
41
1
10
13.9961964711147
20
-1.16633606881322
30
0
41
1
10
13.9777334498802
20
-1.12561858730163
30
0
41
1
10
13.9672917115965
20
-1.09689080860974
30
0
41
1
10
13.9544812855652
20
-1.0513810655664
30
0
41
1
10
13.9506889336861
20
-1.03576751393891
30
0
41
1
10
13.9442346739122
20
-1.00440493730767
30
0
41
1
10
13.9388591445105
20
-0.972745582927615
30
0
41
1
10
13.9356027931514
20
-0.940503205296352
30
0
41
1
10
13.9334176768782
20
-0.907966112001759
30
0
41
1
10
13.9328610188872
20
-0.891489880359217
30
0
41
1
10
13.9328610188872
20
-0.875
30
0
0
SPLINE
5
165
100
AcDbEntity
8
1
62
256
6
ByLayer
370
18
48
1
60
0
100
AcDbSpline
70
4
71
3
72
42
73
38
40
0
40
0
40
0
40
0
40
0.124999999999999
40
0.124999999999999
40
0.187499999999999
40
0.187499999999999
40
0.218749999999998
40
0.218749999999998
40
0.249999999999997
40
0.249999999999997
40
0.374999999999992
40
0.374999999999992
40
0.499999999999987
40
0.499999999999987
40
0.531249999999986
40
0.531249999999986
40
0.562499999999985
40
0.562499999999985
40
0.624999999999984
40
0.624999999999984
40
0.687499999999983
40
0.687499999999983
40
0.718749999999983
40
0.718749999999983
40
0.749999999999983
40
0.749999999999983
40
0.812499999999984
40
0.812499999999984
40
0.874999999999986
40
0.874999999999986
40
0.890624999999987
40
0.890624999999987
40
0.906249999999987
40
0.906249999999987
40
0.937499999999991
40
0.937499999999991
40
1
40
1
40
1
40
1
41
1
10
27.1
20
-11.7368248774316
30
0
41
1
10
27.004411301926
20
-11.7273128823707
30
0
41
1
10
26.909965420661
20
-11.7092407363527
30
0
41
1
10
26.7699709301418
20
-11.669591111532
30
0
41
1
10
26.7235867965312
20
-11.6542720413934
30
0
41
1
10
26.6544417039663
20
-11.6280642674724
30
0
41
1
10
26.6314652976462
20
-11.618789349873
30
0
41
1
10
26.5856594525195
20
-11.5991386697329
30
0
41
1
10
26.5628997749587
20
-11.5887912278961
30
0
41
1
10
26.4502757243222
20
-11.5346610084412
30
0
41
1
10
26.3634499360622
20
-11.4835649171444
30
0
41
1
10
26.1965422194771
20
-11.3653200829982
30
0
41
1
10
26.1164499651093
20
-11.2981959195987
30
0
41
1
10
26.0211479925252
20
-11.2028333368064
30
0
41
1
10
26.0023142396016
20
-11.1831640222106
30
0
41
1
10
25.9652293662072
20
-11.1426802529546
30
0
41
1
10
25.9470829985096
20
-11.1219814901903
30
0
41
1
10
25.8938519024977
20
-11.0584917274664
30
0
41
1
10
25.8599715220946
20
-11.0143114740442
30
0
41
1
10
25.7956102605304
20
-10.9220295371469
30
0
41
1
10
25.7651279219668
20
-10.8739295348316
30
0
41
1
10
25.7221922633608
20
-10.7985636589572
30
0
41
1
10
25.7083461900208
20
-10.7729043704418
30
0
41
1
10
25.6816430298538
20
-10.7204449661425
30
0
41
1
10
25.6687551513226
20
-10.6935699739096
30
0
41
1
10
25.6320800371879
20
-10.6120303262416
30
0
41
1
10
25.610166473102
20
-10.5562760653222
30
0
41
1
10
25.5717250684176
20
-10.4418066393713
30
0
41
1
10
25.5551942457276
20
-10.3830931138015
30
0
41
1
10
25.5382485600194
20
-10.3076572519964
30
0
41
1
10
25.5350460823552
20
-10.2924674600309
30
0
41
1
10
25.529026716936
20
-10.2618758906998
30
0
41
1
10
25.5262045370823
20
-10.2464409150706
30
0
41
1
10
25.5183861692793
20
-10.2001074066621
30
0
41
1
10
25.5140325891951
20
-10.1691792566442
30
0
41
1
10
25.5035533562287
20
-10.0762771220785
30
0
41
1
10
25.5
20
-10.0141858729086
30
0
41
1
10
25.5
20
-9.9519326350447
30
0
0
SPLINE
5
166
100
AcDbEntity
8
1
62
256
6
ByLayer
370
18
48
1
60
0
100
AcDbSpline
70
4
71
3
72
22
73
18
40
0
40
0
40
0
40
0
40
0.25
40
0.25
40
0.375
40
0.375
40
0.5
40
0.5
40
0.624999999999999
40
0.624999999999999
40
0.75
40
0.75
40
0.812500000000001
40
0.812500000000001
40
0.875000000000001
40
0.875000000000001
40
1
40
1
40
1
40
1
41
1
10
-19
20
-1.09294494717704
30
0
41
1
10
-19
20
-1.08016731983295
30
0
41
1
10
-19
20
-1.06647334031416
30
0
41
1
10
-19
20
-1.04387864715071
30
0
41
1
10
-19
20
-1.03599807149254
30
0
41
1
10
-19
20
-1.01958933386419
30
0
41
1
10
-19
20
-1.01103989558169
30
0
41
1
10
-19
20
-0.993066633922297
30
0
41
1
10
-19
20
-0.983590258656619
30
0
41
1
10
-19
20
-0.963962002739862
30
0
41
1
10
-19
20
-0.953779495961811
30
0
41
1
10
-19
20
-0.937818025288578
30
0
41
1
10
-19
20
-0.932382397268725
30
0
41
1
10
-19
20
-0.921249839664796
30
0
41
1
10
-19
20
-0.915526319994314
30
0
41
1
10
-19
20
-0.898334933247412
30
0
41
1
10
-19
20
-0.886739396505504
30
0
41
1
10
-19
20
-0.875000000000369
30
0
0
SPLINE
5
167
100
AcDbEntity
8
1
62
256
6
ByLayer
370
18
48
1
60
0
100
AcDbSpline
70
4
71
3
72
18
73
14
40
0
40
0
40
0
40
0
40
0.125000000000001
40
0.125000000000001
40
0.250000000000003
40
0.250000000000003
40
0.500000000000002
40
0.500000000000002
40
0.750000000000001
40
0.750000000000001
40
0.875000000000001
40
0.875000000000001
40
1
40
1
40
1
40
1
41
1
10
11.008951354588
20
-1.375
30
0
41
1
10
11.1024043261518
20
-1.375
30
0
41
1
10
11.1957087125228
20
-1.37255596513185
30
0
41
1
10
11.3820854841408
20
-1.36385177599385
30
0
41
1
10
11.4751574989197
20
-1.35758552800058
30
0
41
1
10
11.7540946265054
20
-1.33419896304537
30
0
41
1
10
11.939683050875
20
-1.31252747798851
30
0
41
1
10
12.3103884324468
20
-1.26142948077404
30
0
41
1
10
12.4955020109838
20
-1.23194739392957
30
0
41
1
10
12.7729840888848
20
-1.18462713747374
30
0
41
1
10
12.8654466157606
20
-1.16833559921224
30
0
41
1
10
13.0503435121645
20
-1.13528937061892
30
0
41
1
10
13.1427773011428
20
-1.11852513099282
30
0
41
1
10
13.2352225785401
20
-1.1019498610481
30
0
0
SPLINE
5
168
100
AcDbEntity
8
1
62
256
6
ByLayer
370
18
48
1
60
0
100
AcDbSpline
70
4
71
3
72
17
73
13
40
0
40
0
40
0
40
0
40
0.125000000000001
40
0.125000000000001
40
0.250000000000003
40
0.250000000000003
40
0.500000000000003
40
0.750000000000004
40
0.750000000000004
40
0.875000000000002
40
0.875000000000002
40
1
40
1
40
1
40
1
41
1
10
13.19825125937
20
-0.875000000000085
30
0
41
1
10
13.19825125937
20
-0.884788104788328
30
0
41
1
10
13.1984461533015
20
-0.894599019382014
30
0
41
1
10
13.1992333220498
20
-0.91426735684496
30
0
41
1
10
13.199828648195
20
-0.924150986363628
30
0
41
1
10
13.2021935309542
20
-0.953505971538249
30
0
41
1
10
13.2068854653385
20
-0.992047187488225
30
0
41
1
10
13.2145677418627
20
-1.02942479564717
30
0
41
1
10
13.2214653348583
20
-1.05701600373575
30
0
41
1
10
13.2239543142364
20
-1.06613922486676
30
0
41
1
10
13.2293203218475
20
-1.08423466879822
30
0
41
1
10
13.2321935483699
20
-1.09318855767597
30
0
41
1
10
13.235222578539
20
-1.1019498610386
30
0
0
SPLINE
5
169
100
AcDbEntity
8
1
62
256
6
ByLayer
370
18
48
1
60
0
100
AcDbSpline
70
4
71
3
72
29
73
25
40
0
40
0
40
0
40
0
40
0.0625
40
0.0625
40
0.125
40
0.125
40
0.25
40
0.25
40
0.375
40
0.375
40
0.5
40
0.5
40
0.749999999999999
40
0.749999999999999
40
0.874999999999999
40
0.874999999999999
40
0.937499999999999
40
0.937499999999999
40
0.953124999999999
40
0.960937499999999
40
0.960937499999999
40
0.968749999999999
40
0.968749999999999
40
1
40
1
40
1
40
1
41
1
10
0
20
-1.09294494717704
30
0
41
1
10
0.0890353225494209
20
-1.09294494717704
30
0
41
1
10
0.178116206561867
20
-1.09418171358328
30
0
41
1
10
0.356363876266812
20
-1.09898704843107
30
0
41
1
10
0.445564863653289
20
-1.10255357249485
30
0
41
1
10
0.713004743019667
20
-1.11615863515703
30
0
41
1
10
0.891013924382435
20
-1.12906901707234
30
0
41
1
10
1.24674643474305
20
-1.15875419576076
30
0
41
1
10
1.42447169103707
20
-1.17550293757336
30
0
41
1
10
1.77985535969111
20
-1.20990407890304
30
0
41
1
10
1.95751260839614
20
-1.22757220977638
30
0
41
1
10
2.49060296760774
20
-1.27897308159913
30
0
41
1
10
2.84615367628121
20
-1.3111160225001
30
0
41
1
10
3.38039235477672
20
-1.34699285937802
30
0
41
1
10
3.55862276249422
20
-1.35691250020776
30
0
41
1
10
3.82629208870634
20
-1.36741568963569
30
0
41
1
10
3.9155693592561
20
-1.37018454364463
30
0
41
1
10
4.02724641447105
20
-1.37255778395618
30
0
41
1
10
4.06075558069162
20
-1.37318797124104
30
0
41
1
10
4.09427422884423
20
-1.37368997305902
30
0
41
1
10
4.11662214905542
20
-1.37399551069433
30
0
41
1
10
4.12772677047062
20
-1.37413278892913
30
0
41
1
10
4.18311521228611
20
-1.37474466629501
30
0
41
1
10
4.22741708030421
20
-1.375
30
0
41
1
10
4.27170925976944
20
-1.375
30
0
0
SPLINE
5
16A
100
AcDbEntity
8
1
62
256
6
ByLayer
370
18
48
1
60
0
100
AcDbSpline
70
4
71
3
72
26
73
22
40
0
40
0
40
0
40
0
40
0.0312499999999996
40
0.0312499999999996
40
0.0624999999999991
40
0.124999999999999
40
0.124999999999999
40
0.249999999999999
40
0.374999999999999
40
0.499999999999999
40
0.499999999999999
40
0.624999999999999
40
0.624999999999999
40
0.656249999999999
40
0.656249999999999
40
0.687499999999999
40
0.687499999999999
40
0.75
40
0.75
40
0.875
40
1
40
1
40
1
40
1
41
1
10
-10.4325084157225
20
-14.6674915842775
30
0
41
1
10
-10.3354540358899
20
-14.6459218135644
30
0
41
1
10
-10.2377335465186
20
-14.624489436871
30
0
41
1
10
-10.0410261541515
20
-14.5819395758571
30
0
41
1
10
-9.74485201809735
20
-14.5187571446709
30
0
41
1
10
-9.44535208382023
20
-14.4575761663686
30
0
41
1
10
-8.84193784711887
20
-14.3380800910073
30
0
41
1
10
-8.02562418328154
20
-14.186394489887
30
0
41
1
10
-6.76580702849984
20
-13.9849426502632
30
0
41
1
10
-5.90199743488344
20
-13.8701527401134
30
0
41
1
10
-5.02587120092701
20
-13.7662140668962
30
0
41
1
10
-4.58165050953534
20
-13.7196696855745
30
0
41
1
10
-4.01834396133344
20
-13.6689865377934
30
0
41
1
10
-3.90528063635875
20
-13.6592249248508
30
0
41
1
10
-3.67833961863198
20
-13.6404702834803
30
0
41
1
10
-3.56441848219404
20
-13.6314747567854
30
0
41
1
10
-3.22261302110056
20
-13.6057547202494
30
0
41
1
10
-2.99431064673149
20
-13.5902642245469
30
0
41
1
10
-2.30810984008031
20
-13.5488352712072
30
0
41
1
10
-1.38972809685865
20
-13.507045574866
30
0
41
1
10
-0.46441715405885
20
-13.4928909281439
30
0
41
1
10
0
20
-13.4928909281439
30
0
0
SPLINE
5
16B
100
AcDbEntity
8
1
62
256
6
ByLayer
370
18
48
1
60
0
100
AcDbSpline
70
4
71
3
72
78
73
74
40
0
40
0
40
0
40
0
40
0.0078124999999999
40
0.0078124999999999
40
0.0156249999999998
40
0.0312499999999996
40
0.0312499999999996
40
0.0624999999999992
40
0.0937499999999988
40
0.124999999999998
40
0.124999999999998
40
0.132812499999998
40
0.132812499999998
40
0.140624999999998
40
0.156249999999998
40
0.156249999999998
40
0.187499999999997
40
0.218749999999996
40
0.249999999999995
40
0.249999999999995
40
0.257812499999995
40
0.257812499999995
40
0.265624999999994
40
0.281249999999994
40
0.281249999999994
40
0.312499999999993
40
0.343749999999993
40
0.374999999999992
40
0.374999999999992
40
0.382812499999992
40
0.382812499999992
40
0.390624999999992
40
0.406249999999993
40
0.406249999999993
40
0.437499999999994
40
0.468749999999995
40
0.499999999999997
40
0.499999999999997
40
0.507812499999997
40
0.507812499999997
40
0.515624999999997
40
0.531249999999996
40
0.531249999999996
40
0.562499999999996
40
0.593749999999996
40
0.624999999999996
40
0.624999999999996
40
0.640624999999996
40
0.640624999999996
40
0.656249999999996
40
0.656249999999996
40
0.687499999999996
40
0.718749999999997
40
0.749999999999997
40
0.749999999999997
40
0.757812499999997
40
0.757812499999997
40
0.765624999999997
40
0.765624999999997
40
0.781249999999997
40
0.781249999999997
40
0.812499999999998
40
0.843749999999998
40
0.874999999999999
40
0.874999999999999
40
0.890624999999999
40
0.890624999999999
40
0.898437499999999
40
0.898437499999999
40
0.906249999999999
40
0.937499999999999
40
0.96875
40
1
40
1
40
1
40
1
41
1
10
-7.68144678414198
20
-17.418553215858
30
0
41
1
10
-7.64762909941298
20
-17.4169452329092
30
0
41
1
10
-7.61389721777694
20
-17.4152888549251
30
0
41
1
10
-7.54679876229625
20
-17.4118859564843
30
0
41
1
10
-7.44686654154771
20
-17.4066551419847
30
0
41
1
10
-7.34905798656165
20
-17.4010392440341
30
0
41
1
10
-7.15622749029853
20
-17.3892754106294
30
0
41
1
10
-6.9065411758024
20
-17.3721738541881
30
0
41
1
10
-6.55393138669476
20
-17.3418871112866
30
0
41
1
10
-6.33355174249769
20
-17.3182672693349
30
0
41
1
10
-6.20053117802286
20
-17.3022970045299
30
0
41
1
10
-6.1741320007099
20
-17.2990383873091
30
0
41
1
10
-6.12199029187903
20
-17.2924191526864
30
0
41
1
10
-6.04477528421108
20
-17.2823396951039
30
0
41
1
10
-5.97052087193555
20
-17.271801137032
30
0
41
1
10
-5.82589535858943
20
-17.250090338701
30
0
41
1
10
-5.64340324571864
20
-17.2194542680247
30
0
41
1
10
-5.40017703432579
20
-17.1680345905693
30
0
41
1
10
-5.25844576333276
20
-17.1297885176054
30
0
41
1
10
-5.17640436800704
20
-17.1045229448668
30
0
41
1
10
-5.16030786786436
20
-17.0993961734836
30
0
41
1
10
-5.12890910369501
20
-17.0890476171046
30
0
41
1
10
-5.08296540675252
20
-17.0733718940789
30
0
41
1
10
-5.04044689632252
20
-17.057233238158
30
0
41
1
10
-4.95989947064845
20
-17.0243263848585
30
0
41
1
10
-4.86445989672367
20
-16.9787725395562
30
0
41
1
10
-4.75651902464753
20
-16.9051858253737
30
0
41
1
10
-4.70808472398721
20
-16.8524512276865
30
0
41
1
10
-4.68533361749212
20
-16.8182788938611
30
0
41
1
10
-4.68115776371766
20
-16.8113781146842
30
0
41
1
10
-4.67359674355541
20
-16.7975151386768
30
0
41
1
10
-4.66342681465829
20
-16.7766094860121
30
0
41
1
10
-4.65673305011512
20
-16.7553711458957
30
0
41
1
10
-4.6479022522974
20
-16.7124533646471
30
0
41
1
10
-4.64826350426239
20
-16.6540532695874
30
0
41
1
10
-4.68455835366788
20
-16.5629675660792
30
0
41
1
10
-4.73265105387458
20
-16.4999532385824
30
0
41
1
10
-4.77035316669108
20
-16.4598655605157
30
0
41
1
10
-4.7782861785023
20
-16.4518037023332
30
0
41
1
10
-4.79486401414013
20
-16.4356682038714
30
0
41
1
10
-4.82079986267686
20
-16.4114429826277
30
0
41
1
10
-4.84990999787092
20
-16.3871571789143
30
0
41
1
10
-4.91229760682469
20
-16.3385202983409
30
0
41
1
10
-5.00657938217787
20
-16.2734960399161
30
0
41
1
10
-5.18080984911293
20
-16.1757169954798
30
0
41
1
10
-5.3189769945788
20
-16.1105928619684
30
0
41
1
10
-5.43109083700659
20
-16.061873589998
30
0
41
1
10
-5.46996754732996
20
-16.0456205807816
30
0
41
1
10
-5.54995652746317
20
-16.0134360211508
30
0
41
1
10
-5.59110565380158
20
-15.997485560088
30
0
41
1
10
-5.7179706254035
20
-15.9500818285136
30
0
41
1
10
-5.89622535547034
20
-15.8880685945831
30
0
41
1
10
-6.19062665856271
20
-15.7990477738685
30
0
41
1
10
-6.40510620222415
20
-15.7427169621224
30
0
41
1
10
-6.54503636656476
20
-15.7085882448816
30
0
41
1
10
-6.57331697654683
20
-15.7018165299009
30
0
41
1
10
-6.63047432054704
20
-15.6883850475792
30
0
41
1
10
-6.65937395037581
20
-15.6817201154196
30
0
41
1
10
-6.7468245350924
20
-15.6619342471462
30
0
41
1
10
-6.80589999632085
20
-15.6490726605415
30
0
41
1
10
-6.98542052089881
20
-15.6114919954877
30
0
41
1
10
-7.23089084392754
20
-15.5640592481161
30
0
41
1
10
-7.61723300385754
20
-15.5013077933824
30
0
41
1
10
-7.88701583189653
20
-15.4654129858669
30
0
41
1
10
-8.09408507950234
20
-15.4408868411071
30
0
41
1
10
-8.16389798496908
20
-15.4331111041631
30
0
41
1
10
-8.2698313961472
20
-15.4220724807076
30
0
41
1
10
-8.30535304526049
20
-15.4184967530751
30
0
41
1
10
-8.37643340906976
20
-15.4115930602166
30
0
41
1
10
-8.55445577190537
20
-15.3949293090865
30
0
41
1
10
-8.87775850275723
20
-15.3702768506335
30
0
41
1
10
-9.31482965499637
20
-15.3488455433427
30
0
41
1
10
-9.61022485524055
20
-15.3423153551548
30
0
41
1
10
-9.75895062125788
20
-15.3410493787421
30
0
0
SPLINE
5
16C
100
AcDbEntity
8
1
62
256
6
ByLayer
370
18
48
1
60
0
100
AcDbSpline
70
4
71
3
72
79
73
75
40
0
40
0
40
0
40
0
40
0.0156524042399148
40
0.0156524042399148
40
0.0313048084798297
40
0.0313048084798297
40
0.0626096169596594
40
0.0626096169596594
40
0.125219233919319
40
0.125219233919319
40
0.140871638159234
40
0.140871638159234
40
0.156524042399148
40
0.156524042399148
40
0.187828850878978
40
0.187828850878978
40
0.250438467838637
40
0.250438467838637
40
0.258264669958594
40
0.258264669958594
40
0.266090872078552
40
0.281743276318467
40
0.281743276318467
40
0.313048084798296
40
0.344352893278126
40
0.344352893278126
40
0.36000529751804
40
0.36000529751804
40
0.375657701757955
40
0.375657701757955
40
0.438267318717614
40
0.438267318717614
40
0.469572127197444
40
0.469572127197444
40
0.477398329317401
40
0.477398329317401
40
0.485224531437358
40
0.485224531437358
40
0.500876935677273
40
0.500876935677273
40
0.563486552636932
40
0.563486552636932
40
0.594791361116762
40
0.594791361116762
40
0.602617563236719
40
0.602617563236719
40
0.610443765356676
40
0.626096169596591
40
0.626096169596591
40
0.68870578655625
40
0.68870578655625
40
0.704358190796165
40
0.704358190796165
40
0.720010595036079
40
0.720010595036079
40
0.751315403515909
40
0.751315403515909
40
0.813925020475567
40
0.813925020475567
40
0.821751222595524
40
0.821751222595524
40
0.829577424715482
40
0.829577424715482
40
0.845229828955396
40
0.845229828955396
40
0.876534637435226
40
0.876534637435226
40
0.939144254394884
40
0.939144254394884
40
0.954796658634798
40
0.954796658634798
40
0.970449062874713
40
0.970449062874713
40
1
40
1
40
1
40
1
41
1
10
2.5923114411882
20
-17.6740140630271
30
0
41
1
10
2.58596755924802
20
-17.6737631645055
30
0
41
1
10
2.57869255235235
20
-17.6734647421711
30
0
41
1
10
2.56224913957288
20
-17.6727736990882
30
0
41
1
10
2.55305370293075
20
-17.6723798910934
30
0
41
1
10
2.52285817255608
20
-17.6710714637247
30
0
41
1
10
2.49922884507308
20
-17.6700289694844
30
0
41
1
10
2.41813972627673
20
-17.6664502021168
30
0
41
1
10
2.35056398581585
20
-17.6634622372054
30
0
41
1
10
2.24886451077589
20
-17.6591672644478
30
0
41
1
10
2.22762095223265
20
-17.6582788400878
30
0
41
1
10
2.183517252668
20
-17.6564575616683
30
0
41
1
10
2.16075620801328
20
-17.6555287837491
30
0
41
1
10
2.09038664731867
20
-17.6526985916238
30
0
41
1
10
2.04069610517868
20
-17.6507533732536
30
0
41
1
10
1.88345241785177
20
-17.6448236657703
30
0
41
1
10
1.76779816943525
20
-17.6407441720432
30
0
41
1
10
1.62503974010755
20
-17.6362551682827
30
0
41
1
10
1.60899389901419
20
-17.6357576236688
30
0
41
1
10
1.576715070728
20
-17.6347714041428
30
0
41
1
10
1.52795519428597
20
-17.6333034394742
30
0
41
1
10
1.47818117764109
20
-17.6318729509718
30
0
41
1
10
1.37730096629593
20
-17.6290707038828
30
0
41
1
10
1.23924705946322
20
-17.6254911072381
30
0
41
1
10
1.09417310923644
20
-17.6223153795509
30
0
41
1
10
0.982695564729426
20
-17.6201189123478
30
0
41
1
10
0.945090337490001
20
-17.6194176492774
30
0
41
1
10
0.86897235629209
20
-17.6180826980635
30
0
41
1
10
0.830376530746946
20
-17.6174478964492
30
0
41
1
10
0.636984976850897
20
-17.6144853909273
30
0
41
1
10
0.479862627753903
20
-17.6127704707727
30
0
41
1
10
0.240670712658499
20
-17.6112850191653
30
0
41
1
10
0.160351594238563
20
-17.6109709036854
30
0
41
1
10
0.0591996858584594
20
-17.6108151255246
30
0
41
1
10
0.0389315766332174
20
-17.6107958139464
30
0
41
1
10
-0.0016808498501746
20
-17.6107811476923
30
0
41
1
10
-0.0220520931227952
20
-17.6107858252746
30
0
41
1
10
-0.0830427531701332
20
-17.6108359441791
30
0
41
1
10
-0.123534232357571
20
-17.6109172978161
30
0
41
1
10
-0.325163010010897
20
-17.6115578367341
30
0
41
1
10
-0.483835249285534
20
-17.6128183895675
30
0
41
1
10
-0.717948438587825
20
-17.615719278809
30
0
41
1
10
-0.795332943005292
20
-17.6168545836087
30
0
41
1
10
-0.891220618832278
20
-17.6184717524523
30
0
41
1
10
-0.910350053649836
20
-17.6188050198301
30
0
41
1
10
-0.948324029266672
20
-17.619487278935
30
0
41
1
10
-1.00493295926205
20
-17.6205355054117
30
0
41
1
10
-1.06049690287909
20
-17.6216548704888
30
0
41
1
10
-1.24342235491662
20
-17.6255295075863
30
0
41
1
10
-1.3824996744745
20
-17.6290883032879
30
0
41
1
10
-1.54722931948336
20
-17.633879755066
30
0
41
1
10
-1.57971578892386
20
-17.634855164412
30
0
41
1
10
-1.64375395343251
20
-17.6368341999068
30
0
41
1
10
-1.67535352131412
20
-17.6378395123384
30
0
41
1
10
-1.76778895682247
20
-17.6408574001802
30
0
41
1
10
-1.82656366633552
20
-17.6428806725249
30
0
41
1
10
-1.9945708019994
20
-17.6489033511249
30
0
41
1
10
-2.0955561016963
20
-17.6528564689561
30
0
41
1
10
-2.19648850605896
20
-17.6569928694769
30
0
41
1
10
-2.20752567511982
20
-17.6574481348966
30
0
41
1
10
-2.22924132963669
20
-17.658349117367
30
0
41
1
10
-2.23993200521954
20
-17.6587953496237
30
0
41
1
10
-2.27131501164763
20
-17.6601122891687
30
0
41
1
10
-2.29135102280253
20
-17.6609625490132
30
0
41
1
10
-2.34885080571777
20
-17.6634230020962
30
0
41
1
10
-2.38371180958501
20
-17.6649428438099
30
0
41
1
10
-2.47806637027261
20
-17.6690849435621
30
0
41
1
10
-2.52742075433531
20
-17.6712906456777
30
0
41
1
10
-2.57148358006603
20
-17.6731641180172
30
0
41
1
10
-2.57937027114727
20
-17.6734929584825
30
0
41
1
10
-2.59324994658735
20
-17.6740546776601
30
0
41
1
10
-2.59925314805747
20
-17.6742879930393
30
0
41
1
10
-2.61390081879233
20
-17.6748223851824
30
0
41
1
10
-2.62016270250331
20
-17.6749996798817
30
0
41
1
10
-2.62308667201114
20
-17.6749999996566
30
0
0
SPLINE
5
16D
100
AcDbEntity
8
1
62
256
6
ByLayer
370
18
48
1
60
0
100
AcDbSpline
70
4
71
3
72
36
73
32
40
0
40
0
40
0
40
0
40
0.134037067195886
40
0.134037067195886
40
0.201055600793827
40
0.201055600793827
40
0.234564867592798
40
0.234564867592798
40
0.268074134391769
40
0.268074134391769
40
0.402111201587655
40
0.402111201587655
40
0.469129735185597
40
0.469129735185597
40
0.502639001984569
40
0.502639001984569
40
0.53614826878354
40
0.53614826878354
40
0.670185335979433
40
0.670185335979433
40
0.737203869577381
40
0.737203869577381
40
0.753958502976868
40
0.753958502976868
40
0.770713136376356
40
0.770713136376356
40
0.804222403175329
40
0.804222403175329
40
0.938259470371225
40
0.938259470371225
40
1
40
1
40
1
40
1
41
1
10
21.35
20
-17.6388420194118
30
0
41
1
10
21.200443414603
20
-17.6388420194118
30
0
41
1
10
21.0531560841324
20
-17.639355248629
30
0
41
1
10
20.8354858924899
20
-17.6408167094159
30
0
41
1
10
20.7634759891329
20
-17.641418970294
30
0
41
1
10
20.6562929897173
20
-17.6424832548587
30
0
41
1
10
20.620704167999
20
-17.6428648152206
30
0
41
1
10
20.549808700218
20
-17.6436793374473
30
0
41
1
10
20.5144183353105
20
-17.6441134572439
30
0
41
1
10
20.3397045731749
20
-17.646386179245
30
0
41
1
10
20.2064227594073
20
-17.6485362763353
30
0
41
1
10
20.0159150802736
20
-17.6520415059725
30
0
41
1
10
19.9539911727948
20
-17.6532565544318
30
0
41
1
10
19.8635184863367
20
-17.6551199983389
30
0
41
1
10
19.8337637124701
20
-17.655747937306
30
0
41
1
10
19.7750748316998
20
-17.6570122211199
30
0
41
1
10
19.7462294070132
20
-17.6576466954199
30
0
41
1
10
19.6054165948082
20
-17.6607959661114
30
0
41
1
10
19.5026803964055
20
-17.6632616978244
30
0
41
1
10
19.3631065224766
20
-17.666621836414
30
0
41
1
10
19.3190179610121
20
-17.6676854667357
30
0
41
1
10
19.2670264002584
20
-17.6689160858355
30
0
41
1
10
19.2567843446357
20
-17.6691572558448
30
0
41
1
10
19.2366158333011
20
-17.6696289424336
30
0
41
1
10
19.2266790704895
20
-17.6698596930185
30
0
41
1
10
19.1974808271141
20
-17.670531771835
30
0
41
1
10
19.1787975416937
20
-17.6709537239531
30
0
41
1
10
19.0892211673827
20
-17.6729233135543
30
0
41
1
10
19.0297583287523
20
-17.6740505824901
30
0
41
1
10
18.9604873283091
20
-17.6748633908596
30
0
41
1
10
18.9412107842633
20
-17.6749986003622
30
0
41
1
10
18.9245727544269
20
-17.6749999906059
30
0
0
SPLINE
5
16E
100
AcDbEntity
8
1
62
256
6
ByLayer
370
18
48
1
60
0
100
AcDbSpline
70
4
71
3
72
14
73
10
40
0
40
0
40
0
40
0
40
0.499999999999994
40
0.499999999999994
40
0.624999999999992
40
0.624999999999992
40
0.749999999999991
40
0.749999999999991
40
1
40
1
40
1
40
1
41
1
10
23.4945467773038
20
-17.6433253774251
30
0
41
1
10
23.3584852473877
20
-17.6418991895614
30
0
41
1
10
23.2199314455752
20
-17.6407738662898
30
0
41
1
10
23.0435732875172
20
-17.6398173025277
30
0
41
1
10
23.0081426110396
20
-17.6396484394013
30
0
41
1
10
22.936958807012
20
-17.6393572615004
30
0
41
1
10
22.9011603782769
20
-17.6392348396878
30
0
41
1
10
22.7936575952331
20
-17.6389407210367
30
0
41
1
10
22.7218822657076
20
-17.6388420194118
30
0
41
1
10
22.65
20
-17.6388420194118
30
0
0
SPLINE
5
16F
100
AcDbEntity
8
1
62
256
6
ByLayer
370
18
48
1
60
0
100
AcDbSpline
70
4
71
3
72
8
73
4
40
0
40
0
40
0
40
0
40
1
40
1
40
1
40
1
41
1
10
23.8919848877834
20
-17.6426299663285
30
0
41
1
10
23.758172804707
20
-17.6425670980754
30
0
41
1
10
23.6257118428761
20
-17.6428061404044
30
0
41
1
10
23.4945467773038
20
-17.6433253774251
30
0
0
SPLINE
5
170
100
AcDbEntity
8
1
62
256
6
ByLayer
370
18
48
1
60
0
100
AcDbSpline
70
4
71
3
72
130
73
126
40
0
40
0
40
0
40
0
40
0.0078124999999997
40
0.0078124999999997
40
0.0156249999999994
40
0.0156249999999994
40
0.0312499999999983
40
0.0312499999999983
40
0.0624999999999965
40
0.0624999999999965
40
0.0703124999999962
40
0.0703124999999962
40
0.078124999999996
40
0.078124999999996
40
0.0937499999999954
40
0.0937499999999954
40
0.124999999999994
40
0.124999999999994
40
0.132812499999994
40
0.132812499999994
40
0.140624999999994
40
0.140624999999994
40
0.156249999999993
40
0.156249999999993
40
0.187499999999992
40
0.187499999999992
40
0.195312499999992
40
0.195312499999992
40
0.203124999999991
40
0.21874999999999
40
0.21874999999999
40
0.249999999999988
40
0.249999999999988
40
0.257812499999987
40
0.257812499999987
40
0.265624999999987
40
0.281249999999986
40
0.281249999999986
40
0.312499999999983
40
0.312499999999983
40
0.343749999999981
40
0.343749999999981
40
0.35937499999998
40
0.35937499999998
40
0.36718749999998
40
0.36718749999998
40
0.374999999999979
40
0.374999999999979
40
0.406249999999978
40
0.406249999999978
40
0.421874999999977
40
0.421874999999977
40
0.429687499999977
40
0.429687499999977
40
0.437499999999977
40
0.437499999999977
40
0.468749999999977
40
0.468749999999977
40
0.484374999999976
40
0.484374999999976
40
0.492187499999976
40
0.492187499999976
40
0.499999999999976
40
0.499999999999976
40
0.531249999999977
40
0.531249999999977
40
0.546874999999977
40
0.546874999999977
40
0.554687499999977
40
0.554687499999977
40
0.562499999999977
40
0.562499999999977
40
0.593749999999977
40
0.593749999999977
40
0.601562499999977
40
0.601562499999977
40
0.609374999999978
40
0.609374999999978
40
0.624999999999978
40
0.640624999999979
40
0.640624999999979
40
0.648437499999979
40
0.648437499999979
40
0.656249999999979
40
0.656249999999979
40
0.68749999999998
40
0.68749999999998
40
0.70312499999998
40
0.70312499999998
40
0.71093749999998
40
0.71093749999998
40
0.71874999999998
40
0.71874999999998
40
0.749999999999982
40
0.749999999999982
40
0.757812499999982
40
0.757812499999982
40
0.765624999999983
40
0.765624999999983
40
0.781249999999983
40
0.781249999999983
40
0.812499999999986
40
0.812499999999986
40
0.820312499999986
40
0.820312499999986
40
0.828124999999987
40
0.828124999999987
40
0.843749999999988
40
0.843749999999988
40
0.87499999999999
40
0.87499999999999
40
0.882812499999991
40
0.882812499999991
40
0.890624999999991
40
0.890624999999991
40
0.906249999999993
40
0.906249999999993
40
0.937499999999995
40
0.937499999999995
40
0.945312499999996
40
0.945312499999996
40
0.953124999999997
40
0.968749999999998
40
0.968749999999998
40
1
40
1
40
1
40
1
41
1
10
6.43965871342712
20
-17.2946533210921
30
0
41
1
10
6.45225864991079
20
-17.2973510973201
30
0
41
1
10
6.46440216193182
20
-17.3000739216614
30
0
41
1
10
6.4877636805283
20
-17.3055681962044
30
0
41
1
10
6.49900149989173
20
-17.308344855079
30
0
41
1
10
6.53116034958893
20
-17.3167097587199
30
0
41
1
10
6.55040224063697
20
-17.322297078022
30
0
41
1
10
6.60174144961843
20
-17.339068938042
30
0
41
1
10
6.62750086464348
20
-17.3502620076946
30
0
41
1
10
6.64903224251827
20
-17.3642186469336
30
0
41
1
10
6.65280121365899
20
-17.3670083519828
30
0
41
1
10
6.65924627962403
20
-17.3725837154554
30
0
41
1
10
6.6619237536089
20
-17.3753741280384
30
0
41
1
10
6.66823169169703
20
-17.3836588377248
30
0
41
1
10
6.67017519696137
20
-17.3890895507815
30
0
41
1
10
6.6693956740022
20
-17.4051094411712
30
0
41
1
10
6.66011346535583
20
-17.4154266833059
30
0
41
1
10
6.6373549965825
20
-17.4278811124865
30
0
41
1
10
6.63224143343638
20
-17.4303498666189
30
0
41
1
10
6.62086844807388
20
-17.435243292183
30
0
41
1
10
6.61462718495966
20
-17.4376591097948
30
0
41
1
10
6.59436853171101
20
-17.4447752556042
30
0
41
1
10
6.57877976330386
20
-17.4493618279212
30
0
41
1
10
6.52589951007832
20
-17.4626771509725
30
0
41
1
10
6.48254192038175
20
-17.4709634501057
30
0
41
1
10
6.41793963308601
20
-17.4806436837605
30
0
41
1
10
6.40446501600451
20
-17.4825496456401
30
0
41
1
10
6.37658984137448
20
-17.4862752093772
30
0
41
1
10
6.33349889784009
20
-17.4917204729075
30
0
41
1
10
6.28665040588385
20
-17.4967558976712
30
0
41
1
10
6.18803347482228
20
-17.5063196715708
30
0
41
1
10
6.11576834682248
20
-17.5120228774124
30
0
41
1
10
6.016997442958
20
-17.5183852400495
30
0
41
1
10
5.99679270808062
20
-17.5196202487564
30
0
41
1
10
5.95593382566318
20
-17.5219906215936
30
0
41
1
10
5.89383104313532
20
-17.5254060719885
30
0
41
1
10
5.8293289338398
20
-17.528419825656
30
0
41
1
10
5.69717012631068
20
-17.5339461307368
30
0
41
1
10
5.60488416206684
20
-17.536966846629
30
0
41
1
10
5.41157888856083
20
-17.541745361131
30
0
41
1
10
5.3135000177281
20
-17.5434313737207
30
0
41
1
10
5.16434904703718
20
-17.5450034077524
30
0
41
1
10
5.11429016063707
20
-17.545366466265
30
0
41
1
10
5.03868147375152
20
-17.5456691451166
30
0
41
1
10
5.01339172438227
20
-17.5457296336241
30
0
41
1
10
4.96263565535293
20
-17.5457686424816
30
0
41
1
10
4.93710996052974
20
-17.545746898154
30
0
41
1
10
4.81017460686388
20
-17.5454324509692
30
0
41
1
10
4.71029836797788
20
-17.5445333102971
30
0
41
1
10
4.56291205354097
20
-17.5422146799854
30
0
41
1
10
4.51419041186702
20
-17.541278776754
30
0
41
1
10
4.44173070174372
20
-17.5396179306233
30
0
41
1
10
4.41768141094664
20
-17.53902139368
30
0
41
1
10
4.36979469484862
20
-17.5377392439728
30
0
41
1
10
4.34605972388036
20
-17.5370562124547
30
0
41
1
10
4.22899133934922
20
-17.533446739383
30
0
41
1
10
4.13985409626929
20
-17.5299276930274
30
0
41
1
10
4.01277437643279
20
-17.5236236993128
30
0
41
1
10
3.9715253599546
20
-17.5213503118986
30
0
41
1
10
3.91135939038054
20
-17.5176610657477
30
0
41
1
10
3.89154019462225
20
-17.5163812713268
30
0
41
1
10
3.85277187888295
20
-17.5137438395662
30
0
41
1
10
3.83382386804641
20
-17.5123867245611
30
0
41
1
10
3.74122532665302
20
-17.5054062134916
30
0
41
1
10
3.67394941480575
20
-17.4992024081836
30
0
41
1
10
3.58310945625365
20
-17.4888587988046
30
0
41
1
10
3.55451815573267
20
-17.4852370995663
30
0
41
1
10
3.5142389773693
20
-17.4795214305963
30
0
41
1
10
3.50127171156646
20
-17.4775717149847
30
0
41
1
10
3.47646020140502
20
-17.4736142302849
30
0
41
1
10
3.46458396843119
20
-17.4716020168627
30
0
41
1
10
3.40780930376528
20
-17.4613708748414
30
0
41
1
10
3.37066997309461
20
-17.4526442012767
30
0
41
1
10
3.33455976341048
20
-17.4409910740281
30
0
41
1
10
3.32785718602861
20
-17.4386230491249
30
0
41
1
10
3.31550543652185
20
-17.4338098205591
30
0
41
1
10
3.3098483951818
20
-17.4313606897856
30
0
41
1
10
3.29454483280364
20
-17.4239211905358
30
0
41
1
10
3.27866322317883
20
-17.4138050969521
30
0
41
1
10
3.27169032436805
20
-17.4032884514475
30
0
41
1
10
3.26982977457089
20
-17.39524723692
30
0
41
1
10
3.26977426088808
20
-17.3925363108521
30
0
41
1
10
3.27078977987782
20
-17.3871025388065
30
0
41
1
10
3.27185799577526
20
-17.3843765170701
30
0
41
1
10
3.27995327269238
20
-17.3707020037114
30
0
41
1
10
3.29517888997461
20
-17.3596191950797
30
0
41
1
10
3.33101339423735
20
-17.3428175182791
30
0
41
1
10
3.34513667520011
20
-17.3371875931848
30
0
41
1
10
3.36969101397736
20
-17.3287055989239
30
0
41
1
10
3.3784238695807
20
-17.3258780353352
30
0
41
1
10
3.39684134503955
20
-17.3202669993337
30
0
41
1
10
3.4065437104945
20
-17.3174772700329
30
0
41
1
10
3.45748802562804
20
-17.3036109037422
30
0
41
1
10
3.5059705876906
20
-17.2927777988249
30
0
41
1
10
3.57624421330468
20
-17.2796468869122
30
0
41
1
10
3.59078601563886
20
-17.2770414418035
30
0
41
1
10
3.62085866150937
20
-17.2718750852509
30
0
41
1
10
3.6364132026244
20
-17.2693104417403
30
0
41
1
10
3.68443493356875
20
-17.2617133450326
30
0
41
1
10
3.71797313929898
20
-17.2568212429771
30
0
41
1
10
3.82302386142115
20
-17.2426777010931
30
0
41
1
10
3.89893841295361
20
-17.2339547614027
30
0
41
1
10
4.0012682045728
20
-17.224044745986
30
0
41
1
10
4.0221087341005
20
-17.2221127659986
30
0
41
1
10
4.06455244620338
20
-17.2183530914518
30
0
41
1
10
4.08620531491889
20
-17.2165216627027
30
0
41
1
10
4.15171934980231
20
-17.2112392678837
30
0
41
1
10
4.19626178335244
20
-17.2079870271206
30
0
41
1
10
4.33242211190782
20
-17.1990431182847
30
0
41
1
10
4.42655334192392
20
-17.19415894177
30
0
41
1
10
4.54849787867741
20
-17.1894958320567
30
0
41
1
10
4.57310239239004
20
-17.188635741016
30
0
41
1
10
4.62275133220612
20
-17.1870647888263
30
0
41
1
10
4.64770744714107
20
-17.1863570545664
30
0
41
1
10
4.72251941516501
20
-17.1844781751777
30
0
41
1
10
4.77250058246725
20
-17.1835451208463
30
0
41
1
10
4.92275655122791
20
-17.181691232231
30
0
41
1
10
5.02334135904317
20
-17.1817100092569
30
0
41
1
10
5.1496037833806
20
-17.1833429641009
30
0
41
1
10
5.17494770448985
20
-17.1837518538
30
0
41
1
10
5.22532104358717
20
-17.184726811591
30
0
41
1
10
5.30037827878226
20
-17.1864229879653
30
0
41
1
10
5.37395816662311
20
-17.1888026787404
30
0
41
1
10
5.51918512906781
20
-17.1944430200517
30
0
41
1
10
5.61344154306136
20
-17.1993725702075
30
0
41
1
10
5.70504895391002
20
-17.2054562344603
30
0
0
SPLINE
5
171
100
AcDbEntity
8
1
62
256
6
ByLayer
370
18
48
1
60
0
100
AcDbSpline
70
4
71
3
72
8
73
4
40
0
40
0
40
0
40
0
40
1
40
1
40
1
40
1
41
1
10
-18.0000190528383
20
0.324980947161691
30
0
41
1
10
-18.3332883074241
20
-0.0082883074240954
30
0
41
1
10
-18.6666167702326
20
-0.341616770232548
30
0
41
1
10
-19
20
-0.675000000000011
30
0
0
SPLINE
5
172
100
AcDbEntity
8
1
62
256
6
ByLayer
370
18
48
1
60
0
100
AcDbSpline
70
4
71
3
72
8
73
4
40
0
40
0
40
0
40
0
40
1
40
1
40
1
40
1
41
1
10
11.7347738412623
20
-0.474999999999994
30
0
41
1
10
11.7802868943198
20
-0.54166457068726
30
0
41
1
10
11.825798519862
20
-0.60833125850607
30
0
41
1
10
11.871308760417
20
-0.675000000000011
30
0
0
SPLINE
5
173
100
AcDbEntity
8
1
62
256
6
ByLayer
370
18
48
1
60
0
100
AcDbSpline
70
4
71
3
72
8
73
4
40
0
40
0
40
0
40
0
40
1
40
1
40
1
40
1
41
1
10
11.5338810822349
20
-0.340722418964958
30
0
41
1
10
11.600876101822
20
-0.385414396364894
30
0
41
1
10
11.6678402108189
20
-0.430173904668635
30
0
41
1
10
11.7347738412602
20
-0.475000000002325
30
0
0
SPLINE
5
174
100
AcDbEntity
8
1
62
256
6
ByLayer
370
18
48
1
60
0
100
AcDbSpline
70
4
71
3
72
8
73
4
40
0
40
0
40
0
40
0
40
1
40
1
40
1
40
1
41
1
10
9.95818080364236
20
0.249980947161674
30
0
41
1
10
10.4890458043901
20
0.0642837594974139
30
0
41
1
10
11.0140865548844
20
-0.133000688010128
30
0
41
1
10
11.5338810822349
20
-0.340722418964958
30
0
0
SPLINE
5
175
100
AcDbEntity
8
1
62
256
6
ByLayer
370
18
48
1
60
0
100
AcDbSpline
70
4
71
3
72
18
73
14
40
0
40
0
40
0
40
0
40
0.124999999999998
40
0.124999999999998
40
0.249999999999996
40
0.249999999999996
40
0.374999999999994
40
0.374999999999994
40
0.499999999999992
40
0.499999999999992
40
0.749999999999996
40
0.749999999999996
40
1
40
1
40
1
40
1
41
1
10
9.59510119943221
20
0.324980947161663
30
0
41
1
10
9.60940649911072
20
0.324980947161464
30
0
41
1
10
9.62397991030193
20
0.324296253793733
30
0
41
1
10
9.65349518651499
20
0.321971785451893
30
0
41
1
10
9.66843979450144
20
0.320325245372089
30
0
41
1
10
9.69862277638646
20
0.316261825895964
30
0
41
1
10
9.7138557687901
20
0.313841643015138
30
0
41
1
10
9.74426915486944
20
0.308394975835455
30
0
41
1
10
9.75949165829152
20
0.305362247104569
30
0
41
1
10
9.80520000776735
20
0.295443207372898
30
0
41
1
10
9.83572596896019
20
0.287746386430427
30
0
41
1
10
9.89687592587646
20
0.27038180066279
30
0
41
1
10
9.92749994234364
20
0.26071314772193
30
0
41
1
10
9.95818080364234
20
0.249980947161987
30
0
0
SPLINE
5
176
100
AcDbEntity
8
1
62
256
6
ByLayer
370
18
48
1
60
0
100
AcDbSpline
70
4
71
3
72
26
73
22
40
0
40
0
40
0
40
0
40
0.25000000000002
40
0.25000000000002
40
0.37500000000003
40
0.37500000000003
40
0.50000000000004
40
0.50000000000004
40
0.562500000000037
40
0.562500000000037
40
0.625000000000034
40
0.625000000000034
40
0.687500000000031
40
0.687500000000031
40
0.750000000000028
40
0.750000000000028
40
0.812500000000025
40
0.812500000000025
40
0.875000000000022
40
0.875000000000022
40
1
40
1
40
1
40
1
41
1
10
9.24203289085634
20
0.324980947161663
30
0
41
1
10
9.22681846497241
20
0.324980947161663
30
0
41
1
10
9.211953192377
20
0.324305164641998
30
0
41
1
10
9.19059288824326
20
0.321504563341364
30
0
41
1
10
9.18367090944832
20
0.320269721185071
30
0
41
1
10
9.17054086661494
20
0.316946194301352
30
0
41
1
10
9.1642649129623
20
0.3148363382507
30
0
41
1
10
9.15599732501141
20
0.310762869504856
30
0
41
1
10
9.15342589019343
20
0.309251451722815
30
0
41
1
10
9.14876447288793
20
0.305828546272068
30
0
41
1
10
9.14666152309883
20
0.30390484096003
30
0
41
1
10
9.14317602879879
20
0.299559795826326
30
0
41
1
10
9.14183367160857
20
0.297191208615885
30
0
41
1
10
9.14011111824311
20
0.291983727565139
30
0
41
1
10
9.13975376954048
20
0.289142471629958
30
0
41
1
10
9.14012473484786
20
0.283283573994225
30
0
41
1
10
9.14085462438072
20
0.280188457343087
30
0
41
1
10
9.1432485736552
20
0.273973881768512
30
0
41
1
10
9.14489040353692
20
0.270868207717939
30
0
41
1
10
9.15089358034203
20
0.261555053522642
30
0
41
1
10
9.15608552735691
20
0.25566570156937
30
0
41
1
10
9.16192765464814
20
0.249980947161589
30
0
0
SPLINE
5
177
100
AcDbEntity
8
1
62
256
6
ByLayer
370
18
48
1
60
0
100
AcDbSpline
70
4
71
3
72
8
73
4
40
0
40
0
40
0
40
0
40
1
40
1
40
1
40
1
41
1
10
9.81603258289493
20
-0.394519052838319
30
0
41
1
10
9.59945084308978
20
-0.178579548917355
30
0
41
1
10
9.38150318819592
20
0.0363202513296415
30
0
41
1
10
9.16192765464842
20
0.249980947161674
30
0
0
SPLINE
5
178
100
AcDbEntity
8
1
62
256
6
ByLayer
370
18
48
1
60
0
100
AcDbSpline
70
4
71
3
72
40
73
36
40
0
40
0
40
0
40
0
40
0.125000000000006
40
0.125000000000006
40
0.250000000000012
40
0.250000000000012
40
0.375000000000018
40
0.375000000000018
40
0.500000000000024
40
0.500000000000024
40
0.562500000000021
40
0.562500000000021
40
0.625000000000018
40
0.625000000000018
40
0.687500000000015
40
0.687500000000015
40
0.750000000000012
40
0.750000000000012
40
0.812500000000009
40
0.812500000000009
40
0.843750000000005
40
0.843750000000005
40
0.875000000000001
40
0.875000000000001
40
0.890624999999999
40
0.890624999999999
40
0.906249999999997
40
0.906249999999997
40
0.921874999999995
40
0.921874999999995
40
0.937499999999993
40
0.937499999999993
40
0.968749999999996
40
0.968749999999996
40
1
40
1
40
1
40
1
41
1
10
9.2841810453084
20
-0.394519052838319
30
0
41
1
10
9.31218172106821
20
-0.403253261687809
30
0
41
1
10
9.34026369811073
20
-0.411446491895219
30
0
41
1
10
9.39620939340276
20
-0.426686741656397
30
0
41
1
10
9.42407905641585
20
-0.433737715187703
30
0
41
1
10
9.47960346504198
20
-0.446655482458595
30
0
41
1
10
9.50725848501213
20
-0.452524028495901
30
0
41
1
10
9.56232469000275
20
-0.462896755182072
30
0
41
1
10
9.58973686994528
20
-0.467407407483734
30
0
41
1
10
9.63062287134736
20
-0.472833887959126
30
0
41
1
10
9.64421248948494
20
-0.474417261577855
30
0
41
1
10
9.67129728761574
20
-0.477027476641609
30
0
41
1
10
9.68483745942677
20
-0.478057041979355
30
0
41
1
10
9.71147318768166
20
-0.479370998879574
30
0
41
1
10
9.72458674972185
20
-0.47966188106983
30
0
41
1
10
9.75026244320495
20
-0.479243914143836
30
0
41
1
10
9.76283016137606
20
-0.47854552376856
30
0
41
1
10
9.78712100451713
20
-0.475600029742935
30
0
41
1
10
9.7989514958669
20
-0.473342775126554
30
0
41
1
10
9.81467620295791
20
-0.467977995038012
30
0
41
1
10
9.81960368743447
20
-0.465853786827211
30
0
41
1
10
9.8284838541814
20
-0.460585485218388
30
0
41
1
10
9.83230034394296
20
-0.457522482393927
30
0
41
1
10
9.83667511604253
20
-0.451996393124347
30
0
41
1
10
9.83790623184572
20
-0.449982263740196
30
0
41
1
10
9.83974008264053
20
-0.445725814987299
30
0
41
1
10
9.84035685513882
20
-0.44347090089758
30
0
41
1
10
9.84093087921795
20
-0.438682333081204
30
0
41
1
10
9.84087800321674
20
-0.43615432775411
30
0
41
1
10
9.84011456011223
20
-0.431030341943966
30
0
41
1
10
9.83940873940759
20
-0.428409088717331
30
0
41
1
10
9.83638059560761
20
-0.420378652246569
30
0
41
1
10
9.83325114814545
20
-0.415051948253478
30
0
41
1
10
9.8255668829454
20
-0.404602539074745
30
0
41
1
10
9.82098195223347
20
-0.399453745670826
30
0
41
1
10
9.8160325828969
20
-0.394519052837552
30
0
0
SPLINE
5
179
100
AcDbEntity
8
1
62
256
6
ByLayer
370
18
48
1
60
0
100
AcDbSpline
70
4
71
3
72
8
73
4
40
0
40
0
40
0
40
0
40
1
40
1
40
1
40
1
41
1
10
6.93594876110137
20
0.249980947161703
30
0
41
1
10
7.72871488352834
20
0.0625343625468133
30
0
41
1
10
8.51106941926361
20
-0.153363501317045
30
0
41
1
10
9.2841810453084
20
-0.394519052838319
30
0
0
SPLINE
5
17A
100
AcDbEntity
8
1
62
256
6
ByLayer
370
18
48
1
60
0
100
AcDbSpline
70
4
71
3
72
16
73
12
40
0
40
0
40
0
40
0
40
0.124999999999998
40
0.124999999999998
40
0.249999999999997
40
0.249999999999997
40
0.499999999999998
40
0.499999999999998
40
0.749999999999999
40
0.749999999999999
40
1
40
1
40
1
40
1
41
1
10
6.37324688789337
20
0.324980947161691
30
0
41
1
10
6.39623729139331
20
0.324980947161805
30
0
41
1
10
6.4193513210578
20
0.324326322771526
30
0
41
1
10
6.46574452041284
20
0.322103532762128
30
0
41
1
10
6.489025074133
20
0.320528714779613
30
0
41
1
10
6.55906062392077
20
0.314694231797262
30
0
41
1
10
6.60600611195241
20
0.30934081857896
30
0
41
1
10
6.70028861513458
20
0.296286256727484
30
0
41
1
10
6.74752829299007
20
0.28858409305434
30
0
41
1
10
6.84180134307147
20
0.270997589283866
30
0
41
1
10
6.88889586647392
20
0.261106428113465
30
0
41
1
10
6.93594876110134
20
0.249980947161845
30
0
0
SPLINE
5
17B
100
AcDbEntity
8
1
62
256
6
ByLayer
370
18
48
1
60
0
100
AcDbSpline
70
4
71
3
72
30
73
26
40
0
40
0
40
0
40
0
40
0.0624999999999609
40
0.0624999999999609
40
0.124999999999922
40
0.124999999999922
40
0.156249999999912
40
0.156249999999912
40
0.187499999999903
40
0.187499999999903
40
0.218749999999894
40
0.218749999999894
40
0.249999999999884
40
0.249999999999884
40
0.312499999999895
40
0.312499999999895
40
0.374999999999906
40
0.374999999999906
40
0.499999999999927
40
0.499999999999927
40
0.624999999999949
40
0.624999999999949
40
0.74999999999997
40
0.74999999999997
40
1
40
1
40
1
40
1
41
1
10
5.61238790983106
20
0.249980947161447
30
0
41
1
10
5.6076161834562
20
0.253113372482801
30
0
41
1
10
5.60307603158662
20
0.256400215582772
30
0
41
1
10
5.59482596376836
20
0.263460724263382
30
0
41
1
10
5.5910508389166
20
0.267299518675458
30
0
41
1
10
5.58693477365927
20
0.273383741368946
30
0
41
1
10
5.58580546243638
20
0.27550499097211
30
0
41
1
10
5.58432091561428
20
0.27973412365381
30
0
41
1
10
5.58395805840715
20
0.281846846797293
30
0
41
1
10
5.58410136075491
20
0.286000156232347
30
0
41
1
10
5.58459914277955
20
0.28794605759029
30
0
41
1
10
5.58631061121667
20
0.291617982905677
30
0
41
1
10
5.58753904531321
20
0.293349354747391
30
0
41
1
10
5.59190833607624
20
0.298055354480226
30
0
41
1
10
5.59577508366937
20
0.300657420183342
30
0
41
1
10
5.6041455916058
20
0.305066689942009
30
0
41
1
10
5.60871185823672
20
0.306911863318533
30
0
41
1
10
5.62309598237721
20
0.311798232781058
30
0
41
1
10
5.63331780876882
20
0.31412649334905
30
0
41
1
10
5.6542865791387
20
0.31792659946683
30
0
41
1
10
5.66509411678842
20
0.3193707986525
30
0
41
1
10
5.68687721032143
20
0.321672821768971
30
0
41
1
10
5.69787250034997
20
0.322529009528012
30
0
41
1
10
5.73107070305846
20
0.324484360437964
30
0
41
1
10
5.75348207034327
20
0.324980947161691
30
0
41
1
10
5.77605947760026
20
0.324980947161691
30
0
0
SPLINE
5
17C
100
AcDbEntity
8
1
62
256
6
ByLayer
370
18
48
1
60
0
100
AcDbSpline
70
4
71
3
72
8
73
4
40
0
40
0
40
0
40
0
40
1
40
1
40
1
40
1
41
1
10
6.54187806555959
20
-0.394519052853383
30
0
41
1
10
6.23806730611878
20
-0.17317498990522
30
0
41
1
10
5.92880201541405
20
0.0422692138165246
30
0
41
1
10
5.61238790983109
20
0.249980947161475
30
0
0
SPLINE
5
17D
100
AcDbEntity
8
1
62
256
6
ByLayer
370
18
48
1
60
0
100
AcDbSpline
70
4
71
3
72
44
73
40
40
0
40
0
40
0
40
0
40
0.249999999999997
40
0.249999999999997
40
0.374999999999997
40
0.374999999999997
40
0.499999999999997
40
0.499999999999997
40
0.624999999999997
40
0.624999999999997
40
0.687499999999996
40
0.687499999999996
40
0.749999999999994
40
0.749999999999994
40
0.781249999999994
40
0.781249999999994
40
0.812499999999993
40
0.812499999999993
40
0.843749999999992
40
0.843749999999992
40
0.874999999999992
40
0.874999999999992
40
0.890624999999993
40
0.890624999999993
40
0.906249999999994
40
0.906249999999994
40
0.921874999999996
40
0.921874999999996
40
0.929687499999996
40
0.929687499999996
40
0.937499999999997
40
0.937499999999997
40
0.953124999999998
40
0.953124999999998
40
0.968749999999998
40
0.968749999999998
40
0.984374999999999
40
0.984374999999999
40
1
40
1
40
1
40
1
41
1
10
5.63509935370516
20
-0.394519052838348
30
0
41
1
10
5.72184695483151
20
-0.410478372420215
30
0
41
1
10
5.80851432815439
20
-0.424704531841371
30
0
41
1
10
5.93839049291034
20
-0.443296531767231
30
0
41
1
10
5.9816617348537
20
-0.449026939424954
30
0
41
1
10
6.0681616831572
20
-0.459383828874366
30
0
41
1
10
6.11135271730828
20
-0.464007901333133
30
0
41
1
10
6.19724342039717
20
-0.471779858008915
30
0
41
1
10
6.23998913389465
20
-0.474946284754395
30
0
41
1
10
6.3036849509885
20
-0.47806642369909
30
0
41
1
10
6.32484567668064
20
-0.478831518110468
30
0
41
1
10
6.36698186331
20
-0.479620519913681
30
0
41
1
10
6.38795856659959
20
-0.479649983083448
30
0
41
1
10
6.41922412124936
20
-0.478867771469453
30
0
41
1
10
6.4296123626556
20
-0.478467690200063
30
0
41
1
10
6.45030212179387
20
-0.477301669748783
30
0
41
1
10
6.46058932392768
20
-0.476536430526153
30
0
41
1
10
6.48082394217533
20
-0.474523817516143
30
0
41
1
10
6.49079444448398
20
-0.47327846449943
30
0
41
1
10
6.51030376473534
20
-0.470077388088697
30
0
41
1
10
6.51984953257048
20
-0.46813334285531
30
0
41
1
10
6.53361639847375
20
-0.464301094258474
30
0
41
1
10
6.53813304768258
20
-0.462858852853856
30
0
41
1
10
6.54671767384977
20
-0.459580952860648
30
0
41
1
10
6.5508004452978
20
-0.457746368327577
30
0
41
1
10
6.55833373982009
20
-0.453484973406688
30
0
41
1
10
6.56181730098166
20
-0.45102743664151
30
0
41
1
10
6.5660280453917
20
-0.446800463934608
30
0
41
1
10
6.56726874995528
20
-0.445298049906
30
0
41
1
10
6.56933658674413
20
-0.442055744708625
30
0
41
1
10
6.57015139304468
20
-0.44032260618178
30
0
41
1
10
6.57175717462624
20
-0.434925051400626
30
0
41
1
10
6.57168490957022
20
-0.430920997184245
30
0
41
1
10
6.56932722932987
20
-0.422995671933734
30
0
41
1
10
6.56705748724224
20
-0.418968163507515
30
0
41
1
10
6.56129598643125
20
-0.411363114125663
30
0
41
1
10
6.55777056206983
20
-0.407703701197704
30
0
41
1
10
6.55021756356132
20
-0.400861465453005
30
0
41
1
10
6.54614546779464
20
-0.39762810715726
30
0
41
1
10
6.54187806555962
20
-0.394519052853354
30
0
0
SPLINE
5
17E
100
AcDbEntity
8
1
62
256
6
ByLayer
370
18
48
1
60
0
100
AcDbSpline
70
4
71
3
72
19
73
15
40
0
40
0
40
0
40
0
40
0.125
40
0.1875
40
0.1875
40
0.21875
40
0.21875
40
0.25
40
0.25
40
0.5
40
0.5
40
0.75
40
0.75
40
1
40
1
40
1
40
1
41
1
10
-5.63509935370516
20
-0.394519052838291
30
0
41
1
10
-5.16854959974498
20
-0.308685940134069
30
0
41
1
10
-4.46572999617388
20
-0.195015774362247
30
0
41
1
10
-3.75823014923867
20
-0.104910346530318
30
0
41
1
10
-3.40368510858852
20
-0.0638609988027099
30
0
41
1
10
-3.28543148800509
20
-0.0508527234128167
30
0
41
1
10
-3.04907766511903
20
-0.0262218984740628
30
0
41
1
10
-2.93093349052771
20
-0.0145941935030862
30
0
41
1
10
-1.86793073751329
20
0.083861862932082
30
0
41
1
10
-0.925138877083555
20
0.127274388280995
30
0
41
1
10
0.956265693072965
20
0.126307451483001
30
0
41
1
10
1.89487856191636
20
0.0819313319209414
30
0
41
1
10
3.76801610718675
20
-0.0927021215975117
30
0
41
1
10
4.70254111910936
20
-0.222952407750881
30
0
41
1
10
5.63509935370516
20
-0.394519052838319
30
0
0
SPLINE
5
17F
100
AcDbEntity
8
1
62
256
6
ByLayer
370
18
48
1
60
0
100
AcDbSpline
70
4
71
3
72
42
73
38
40
0
40
0
40
0
40
0
40
0.0156249999999941
40
0.0156249999999941
40
0.0312499999999882
40
0.0312499999999882
40
0.0390624999999846
40
0.0390624999999846
40
0.046874999999981
40
0.046874999999981
40
0.0546874999999774
40
0.0546874999999774
40
0.0624999999999737
40
0.0624999999999737
40
0.0781249999999734
40
0.0781249999999734
40
0.093749999999973
40
0.093749999999973
40
0.124999999999974
40
0.124999999999974
40
0.156249999999975
40
0.156249999999975
40
0.187499999999976
40
0.187499999999976
40
0.249999999999978
40
0.249999999999978
40
0.31249999999998
40
0.31249999999998
40
0.374999999999981
40
0.374999999999981
40
0.499999999999985
40
0.499999999999985
40
0.624999999999989
40
0.624999999999989
40
0.749999999999993
40
0.749999999999993
40
1
40
1
40
1
40
1
41
1
10
-6.54187806553904
20
-0.394519052838291
30
0
41
1
10
-6.5461660120209
20
-0.397643074837191
30
0
41
1
10
-6.55024111986287
20
-0.40088211066481
30
0
41
1
10
-6.55776397299188
20
-0.407698427918291
30
0
41
1
10
-6.56125565118423
20
-0.411322623198941
30
0
41
1
10
-6.56555403553972
20
-0.416977450053451
30
0
41
1
10
-6.56682641679652
20
-0.418892726543106
30
0
41
1
10
-6.56897326203293
20
-0.422798454423315
30
0
41
1
10
-6.56985184236828
20
-0.42481000434347
30
0
41
1
10
-6.5710601097003
20
-0.428773985692999
30
0
41
1
10
-6.57139923706535
20
-0.430734829804351
30
0
41
1
10
-6.57150328364484
20
-0.434610744631584
30
0
41
1
10
-6.57125941384879
20
-0.436516137352527
30
0
41
1
10
-6.5697271823478
20
-0.441898806140671
30
0
41
1
10
-6.56760145856258
20
-0.445164968140489
30
0
41
1
10
-6.56208225390402
20
-0.450813268369984
30
0
41
1
10
-6.55865084378891
20
-0.45327318316717
30
0
41
1
10
-6.54747415553975
20
-0.459688354136972
30
0
41
1
10
-6.53870820348467
20
-0.462851168792327
30
0
41
1
10
-6.52051396104336
20
-0.467978904086635
30
0
41
1
10
-6.51102817672674
20
-0.469936618638428
30
0
41
1
10
-6.49161165409663
20
-0.473164616848663
30
0
41
1
10
-6.48167377269934
20
-0.474423628354543
30
0
41
1
10
-6.45138968921583
20
-0.477480842671042
30
0
41
1
10
-6.43073070040577
20
-0.478558744535746
30
0
41
1
10
-6.38913744363759
20
-0.479640522332318
30
0
41
1
10
-6.36813982915069
20
-0.479628898773399
30
0
41
1
10
-6.32586637804098
20
-0.478863267139729
30
0
41
1
10
-6.3045665585008
20
-0.478102801442105
30
0
41
1
10
-6.2405273446623
20
-0.474985904312462
30
0
41
1
10
-6.19766252675518
20
-0.471813512737214
30
0
41
1
10
-6.11168761760081
20
-0.464042436826361
30
0
41
1
10
-6.06857569510589
20
-0.459429533412248
30
0
41
1
10
-5.9821471639614
20
-0.449088887548072
30
0
41
1
10
-5.93880564924044
20
-0.443353543084044
30
0
41
1
10
-5.80868288459695
20
-0.424733471319001
30
0
41
1
10
-5.72190542173044
20
-0.41048912882053
30
0
41
1
10
-5.63509935370516
20
-0.394519052838319
30
0
0
SPLINE
5
180
100
AcDbEntity
8
1
62
256
6
ByLayer
370
18
48
1
60
0
100
AcDbSpline
70
4
71
3
72
8
73
4
40
0
40
0
40
0
40
0
40
1
40
1
40
1
40
1
41
1
10
-5.61238790983074
20
0.249980947161703
30
0
41
1
10
-5.92880201540666
20
0.0422692138213847
30
0
41
1
10
-6.23806730610465
20
-0.173174989895386
30
0
41
1
10
-6.54187806553897
20
-0.394519052838319
30
0
0
SPLINE
5
181
100
AcDbEntity
8
1
62
256
6
ByLayer
370
18
48
1
60
0
100
AcDbSpline
70
4
71
3
72
32
73
28
40
0
40
0
40
0
40
0
40
0.250000000000035
40
0.250000000000035
40
0.375000000000053
40
0.375000000000053
40
0.50000000000007
40
0.50000000000007
40
0.625000000000087
40
0.625000000000087
40
0.687500000000093
40
0.687500000000093
40
0.718750000000084
40
0.718750000000084
40
0.750000000000076
40
0.750000000000076
40
0.781250000000067
40
0.781250000000067
40
0.812500000000059
40
0.812500000000059
40
0.84375000000005
40
0.84375000000005
40
0.875000000000042
40
0.875000000000042
40
0.937500000000021
40
0.937500000000021
40
1
40
1
40
1
40
1
41
1
10
-5.77605947760026
20
0.324980947161691
30
0
41
1
10
-5.75349694670444
20
0.324980947161691
30
0
41
1
10
-5.73109936285263
20
0.324485004299049
30
0
41
1
10
-5.69791907592238
20
0.32253227345069
30
0
41
1
10
-5.68692929171778
20
0.321677238196486
30
0
41
1
10
-5.66515582305118
20
0.319378401561352
30
0
41
1
10
-5.65436067839303
20
0.317936657222759
30
0
41
1
10
-5.63344455078987
20
0.314152801215727
30
0
41
1
10
-5.62327045301899
20
0.311839387041061
30
0
41
1
10
-5.60894278908543
20
0.306999070165261
30
0
41
1
10
-5.60429163701178
20
0.30513253057245
30
0
41
1
10
-5.5979725193944
20
0.30182026104319
30
0
41
1
10
-5.59597133164451
20
0.300628566677915
30
0
41
1
10
-5.59225727253889
20
0.298005436744717
30
0
41
1
10
-5.59053069476536
20
0.296559073188945
30
0
41
1
10
-5.5875947313595
20
0.293421247005369
30
0
41
1
10
-5.58637613485092
20
0.291729229057779
30
0
41
1
10
-5.58461644419518
20
0.288011152822264
30
0
41
1
10
-5.58411087529191
20
0.286034279942328
30
0
41
1
10
-5.58395291309176
20
0.281932408544151
30
0
41
1
10
-5.58431463660077
20
0.279764544741255
30
0
41
1
10
-5.5857859156398
20
0.275548359099446
30
0
41
1
10
-5.58688499125807
20
0.273464681357837
30
0
41
1
10
-5.59105027515611
20
0.26728590672252
30
0
41
1
10
-5.59482555714965
20
0.263458431072081
30
0
41
1
10
-5.60312924602138
20
0.256357332105779
30
0
41
1
10
-5.60765302916408
20
0.25308918492064
30
0
41
1
10
-5.61238790983072
20
0.249980947161674
30
0
0
SPLINE
5
182
100
AcDbEntity
8
1
62
256
6
ByLayer
370
18
48
1
60
0
100
AcDbSpline
70
4
71
3
72
16
73
12
40
0
40
0
40
0
40
0
40
0.250000000000001
40
0.250000000000001
40
0.500000000000002
40
0.500000000000002
40
0.750000000000003
40
0.750000000000003
40
0.875000000000002
40
0.875000000000002
40
1
40
1
40
1
40
1
41
1
10
-6.93594876110134
20
0.249980947162044
30
0
41
1
10
-6.88890603212444
20
0.261104024483615
30
0
41
1
10
-6.84183988712428
20
0.270989081156273
30
0
41
1
10
-6.74765569510397
20
0.288561641840119
30
0
41
1
10
-6.70053768771602
20
0.296247688555923
30
0
41
1
10
-6.60624700046333
20
0.30931152451268
30
0
41
1
10
-6.55915724759689
20
0.31468517028145
30
0
41
1
10
-6.48904860821469
20
0.320527259459766
30
0
41
1
10
-6.46575063303879
20
0.322103275723606
30
0
41
1
10
-6.41933984890954
20
0.324326836591211
30
0
41
1
10
-6.39622554762155
20
0.324980947161805
30
0
41
1
10
-6.37324688789337
20
0.324980947161691
30
0
0
SPLINE
5
183
100
AcDbEntity
8
1
62
256
6
ByLayer
370
18
48
1
60
0
100
AcDbSpline
70
4
71
3
72
8
73
4
40
0
40
0
40
0
40
0
40
1
40
1
40
1
40
1
41
1
10
-9.2841810453084
20
-0.394519052838319
30
0
41
1
10
-8.51106941926359
20
-0.153363501317045
30
0
41
1
10
-7.72871488352833
20
0.0625343625468133
30
0
41
1
10
-6.93594876110136
20
0.249980947161703
30
0
0
SPLINE
5
184
100
AcDbEntity
8
1
62
256
6
ByLayer
370
18
48
1
60
0
100
AcDbSpline
70
4
71
3
72
40
73
36
40
0
40
0
40
0
40
0
40
0.0312500000000128
40
0.0312500000000128
40
0.0625000000000256
40
0.0625000000000256
40
0.0781250000000282
40
0.0781250000000282
40
0.0937500000000309
40
0.0937500000000309
40
0.109375000000034
40
0.109375000000034
40
0.125000000000036
40
0.125000000000036
40
0.140625000000039
40
0.140625000000039
40
0.156250000000041
40
0.156250000000041
40
0.187500000000042
40
0.187500000000042
40
0.218750000000043
40
0.218750000000043
40
0.250000000000044
40
0.250000000000044
40
0.312500000000041
40
0.312500000000041
40
0.375000000000037
40
0.375000000000037
40
0.50000000000003
40
0.50000000000003
40
0.625000000000022
40
0.625000000000022
40
0.750000000000015
40
0.750000000000015
40
1
40
1
40
1
40
1
41
1
10
-9.81603258289498
20
-0.394519052838319
30
0
41
1
10
-9.82095703569021
20
-0.399428903016116
30
0
41
1
10
-9.82543633707969
20
-0.404451510867119
30
0
41
1
10
-9.83310183810714
20
-0.414823368519507
30
0
41
1
10
-9.83628141918076
20
-0.42020718810565
30
0
41
1
10
-9.83931959826043
20
-0.428130012762523
30
0
41
1
10
-9.84005628377635
20
-0.430785798097901
30
0
41
1
10
-9.8408581966258
20
-0.43588877511641
30
0
41
1
10
-9.84093439359414
20
-0.438350627376025
30
0
41
1
10
-9.84043321763885
20
-0.443094163484318
30
0
41
1
10
-9.83984362065759
20
-0.445393853961377
30
0
41
1
10
-9.83808223492781
20
-0.449652147667962
30
0
41
1
10
-9.83691476309484
20
-0.451629505232489
30
0
41
1
10
-9.83408395207491
20
-0.455322141342577
30
0
41
1
10
-9.83240803000095
20
-0.457044593765261
30
0
41
1
10
-9.82872465913616
20
-0.460178391440451
30
0
41
1
10
-9.82671081231395
20
-0.46160232917947
30
0
41
1
10
-9.82025191704597
20
-0.465528162032342
30
0
41
1
10
-9.81536969482482
20
-0.467696445541065
30
0
41
1
10
-9.80493252167
20
-0.471341442256374
30
0
41
1
10
-9.79941135246932
20
-0.472809610404283
30
0
41
1
10
-9.78793553313179
20
-0.475240630314488
30
0
41
1
10
-9.78197621721299
20
-0.476199819832971
30
0
41
1
10
-9.76382370190693
20
-0.478467938343755
30
0
41
1
10
-9.75127744124482
20
-0.479198955684723
30
0
41
1
10
-9.72561496243209
20
-0.479671406018895
30
0
41
1
10
-9.71247397730109
20
-0.479401388086785
30
0
41
1
10
-9.67252935657895
20
-0.477485771001255
30
0
41
1
10
-9.6454246407482
20
-0.474775707838489
30
0
41
1
10
-9.5905971576497
20
-0.46754346444186
30
0
41
1
10
-9.56282215011132
20
-0.462985872473894
30
0
41
1
10
-9.50732211964873
20
-0.452540557511185
30
0
41
1
10
-9.47952542222005
20
-0.446639435856639
30
0
41
1
10
-9.39601192035433
20
-0.427203651425628
30
0
41
1
10
-9.34017379706033
20
-0.411984788024654
30
0
41
1
10
-9.2841810453084
20
-0.394519052838376
30
0
0
SPLINE
5
185
100
AcDbEntity
8
1
62
256
6
ByLayer
370
18
48
1
60
0
100
AcDbSpline
70
4
71
3
72
8
73
4
40
0
40
0
40
0
40
0
40
1
40
1
40
1
40
1
41
1
10
-9.16192765466236
20
0.249980947148117
30
0
41
1
10
-9.38150318820514
20
0.0363202513205749
30
0
41
1
10
-9.59945084309437
20
-0.178579548921931
30
0
41
1
10
-9.81603258289493
20
-0.394519052838319
30
0
0
SPLINE
5
186
100
AcDbEntity
8
1
62
256
6
ByLayer
370
18
48
1
60
0
100
AcDbSpline
70
4
71
3
72
28
73
24
40
0
40
0
40
0
40
0
40
0.250000000000047
40
0.250000000000047
40
0.375000000000075
40
0.375000000000075
40
0.437500000000064
40
0.437500000000064
40
0.500000000000052
40
0.500000000000052
40
0.562500000000041
40
0.562500000000041
40
0.62500000000003
40
0.62500000000003
40
0.687500000000019
40
0.687500000000019
40
0.750000000000007
40
0.750000000000007
40
0.812499999999996
40
0.812499999999996
40
0.874999999999985
40
0.874999999999985
40
1
40
1
40
1
40
1
41
1
10
-9.24203289084456
20
0.324980947184287
30
0
41
1
10
-9.22679002986519
20
0.324980947185395
30
0
41
1
10
-9.21184074493277
20
0.324296988707999
30
0
41
1
10
-9.19049092912917
20
0.321487874959075
30
0
41
1
10
-9.18361005093543
20
0.32025617836365
30
0
41
1
10
-9.17380116993941
20
0.317770516319001
30
0
41
1
10
-9.17061784845451
20
0.31683450337357
30
0
41
1
10
-9.16447108844565
20
0.314689457233726
30
0
41
1
10
-9.16149106763956
20
0.313472547988169
30
0
41
1
10
-9.15591900108384
20
0.310721335777487
30
0
41
1
10
-9.15332789905038
20
0.309190981638437
30
0
41
1
10
-9.14864892647037
20
0.305731679420518
30
0
41
1
10
-9.1465454728243
20
0.303785698641462
30
0
41
1
10
-9.14309662059081
20
0.299433796617109
30
0
41
1
10
-9.14176760795786
20
0.297056649595362
30
0
41
1
10
-9.1400768539919
20
0.291811047499152
30
0
41
1
10
-9.13974594268898
20
0.288994391027103
30
0
41
1
10
-9.14015242917441
20
0.28313213225735
30
0
41
1
10
-9.14090466831681
20
0.280021122036175
30
0
41
1
10
-9.14331827787987
20
0.273832273955748
30
0
41
1
10
-9.14496698035525
20
0.27073385593485
30
0
41
1
10
-9.15099568342298
20
0.261428771439654
30
0
41
1
10
-9.15615273719948
20
0.255600302159451
30
0
41
1
10
-9.16192765463472
20
0.249980947138766
30
0
0
SPLINE
5
187
100
AcDbEntity
8
1
62
256
6
ByLayer
370
18
48
1
60
0
100
AcDbSpline
70
4
71
3
72
18
73
14
40
0
40
0
40
0
40
0
40
0.250000000000004
40
0.250000000000004
40
0.500000000000008
40
0.500000000000008
40
0.625000000000006
40
0.625000000000006
40
0.750000000000004
40
0.750000000000004
40
0.875000000000002
40
0.875000000000002
40
1
40
1
40
1
40
1
41
1
10
-9.95818080364235
20
0.249980947161788
30
0
41
1
10
-9.92750315018561
20
0.260712025614936
30
0
41
1
10
-9.89684818743098
20
0.270391615950899
30
0
41
1
10
-9.83557362085624
20
0.287787704120774
30
0
41
1
10
-9.80495401068578
20
0.295505489673701
30
0
41
1
10
-9.75905370529834
20
0.305452754405337
30
0
41
1
10
-9.74372435458608
20
0.308500052459749
30
0
41
1
10
-9.71327144979442
20
0.313938494308843
30
0
41
1
10
-9.69815480400072
20
0.316330675660282
30
0
41
1
10
-9.66817941641823
20
0.320354306837686
30
0
41
1
10
-9.65331986464513
20
0.321987997282719
30
0
41
1
10
-9.6239295812311
20
0.324297794518799
30
0
41
1
10
-9.60939630151748
20
0.324980947161464
30
0
41
1
10
-9.59510119943219
20
0.324980947161663
30
0
0
SPLINE
5
188
100
AcDbEntity
8
1
62
256
6
ByLayer
370
18
48
1
60
0
100
AcDbSpline
70
4
71
3
72
8
73
4
40
0
40
0
40
0
40
0
40
1
40
1
40
1
40
1
41
1
10
-11.6678057336413
20
-0.394519052838319
30
0
41
1
10
-11.1043070714565
20
-0.167000136035085
30
0
41
1
10
-10.5346776336162
20
0.0483216931654624
30
0
41
1
10
-9.95818080364235
20
0.249980947161674
30
0
0
SPLINE
5
189
100
AcDbEntity
8
1
62
256
6
ByLayer
370
18
48
1
60
0
100
AcDbSpline
70
4
71
3
72
32
73
28
40
0
40
0
40
0
40
0
40
0.0312499999999999
40
0.0312499999999999
40
0.0624999999999999
40
0.0624999999999999
40
0.0937499999999998
40
0.0937499999999998
40
0.125
40
0.125
40
0.15625
40
0.15625
40
0.1875
40
0.1875
40
0.249999999999996
40
0.249999999999996
40
0.312499999999992
40
0.312499999999992
40
0.374999999999988
40
0.374999999999988
40
0.49999999999999
40
0.49999999999999
40
0.624999999999993
40
0.624999999999993
40
0.749999999999995
40
0.749999999999995
40
1
40
1
40
1
40
1
41
1
10
-12.0587239255501
20
-0.394519052837495
30
0
41
1
10
-12.0625268109323
20
-0.398800339805859
30
0
41
1
10
-12.0660531689379
20
-0.403129240718585
30
0
41
1
10
-12.07239584525
20
-0.411909057921463
30
0
41
1
10
-12.0752352121409
20
-0.416407852627799
30
0
41
1
10
-12.0797842940736
20
-0.42525064573681
30
0
41
1
10
-12.0815169303313
20
-0.429624814704908
30
0
41
1
10
-12.0836171858975
20
-0.43812255355823
30
0
41
1
10
-12.0839543936443
20
-0.442111383170811
30
0
41
1
10
-12.0831948388428
20
-0.449567033594036
30
0
41
1
10
-12.0820678765738
20
-0.453040044483913
30
0
41
1
10
-12.0786055530974
20
-0.459126123836853
30
0
41
1
10
-12.0762532119582
20
-0.461814512102706
30
0
41
1
10
-12.0677998310453
20
-0.468833437824344
30
0
41
1
10
-12.0605343945399
20
-0.472050935714037
30
0
41
1
10
-12.0440909421574
20
-0.476702313584752
30
0
41
1
10
-12.0351157717405
20
-0.478062827266314
30
0
41
1
10
-12.0162023258966
20
-0.479558848744972
30
0
41
1
10
-12.0062651822148
20
-0.479674902419362
30
0
41
1
10
-11.9759294367788
20
-0.478686948315044
30
0
41
1
10
-11.95479962995
20
-0.476291629724812
30
0
41
1
10
-11.9114326704852
20
-0.46933185223088
30
0
41
1
10
-11.8896066393101
20
-0.464812029230075
30
0
41
1
10
-11.845746713031
20
-0.454295911623802
30
0
41
1
10
-11.8237114343644
20
-0.448288569619422
30
0
41
1
10
-11.7573384013257
20
-0.428385440091915
30
0
41
1
10
-11.7127397678169
20
-0.41266167405351
30
0
41
1
10
-11.6678057336413
20
-0.394519052838405
30
0
0
SPLINE
5
18A
100
AcDbEntity
8
1
62
256
6
ByLayer
370
18
48
1
60
0
100
AcDbSpline
70
4
71
3
72
8
73
4
40
0
40
0
40
0
40
0
40
1
40
1
40
1
40
1
41
1
10
-11.4840297216482
20
0.249980947156956
30
0
41
1
10
-11.6760787809167
20
0.0354715144199815
30
0
41
1
10
-11.8676217953063
20
-0.179376344705133
30
0
41
1
10
-12.0587239255455
20
-0.394519052838319
30
0
0
SPLINE
5
18B
100
AcDbEntity
8
1
62
256
6
ByLayer
370
18
48
1
60
0
100
AcDbSpline
70
4
71
3
72
26
73
22
40
0
40
0
40
0
40
0
40
0.249999999999981
40
0.249999999999981
40
0.374999999999991
40
0.374999999999991
40
0.500000000000001
40
0.500000000000001
40
0.5625
40
0.5625
40
0.625
40
0.625
40
0.687499999999999
40
0.687499999999999
40
0.749999999999999
40
0.749999999999999
40
0.874999999999993
40
0.874999999999993
40
0.937499999999996
40
0.937499999999996
40
1
40
1
40
1
40
1
41
1
10
-11.5311526233312
20
0.324980947161748
30
0
41
1
10
-11.5186972392776
20
0.324980947161748
30
0
41
1
10
-11.5067742702653
20
0.324111897520851
30
0
41
1
10
-11.4906901155618
20
0.320641072370194
30
0
41
1
10
-11.4855788711065
20
0.3190997144346
30
0
41
1
10
-11.4764176812268
20
0.315011270866336
30
0
41
1
10
-11.4723994241289
20
0.312493707308533
30
0
41
1
10
-11.4675918046275
20
0.307694451502499
30
0
41
1
10
-11.4662023413252
20
0.305919505641953
30
0
41
1
10
-11.4640022960698
20
0.302081589349513
30
0
41
1
10
-11.4631780671403
20
0.300007083328865
30
0
41
1
10
-11.4621533183068
20
0.295506817538978
30
0
41
1
10
-11.4619653550609
20
0.293107796327661
30
0
41
1
10
-11.4622438677764
20
0.288130022310526
30
0
41
1
10
-11.4627060576781
20
0.285534684117294
30
0
41
1
10
-11.4650456356642
20
0.277434891804376
30
0
41
1
10
-11.4677646288332
20
0.271946319953031
30
0
41
1
10
-11.4730842221144
20
0.263650244245781
30
0
41
1
10
-11.4750796198067
20
0.260859831188952
30
0
41
1
10
-11.4793484168762
20
0.255372625405698
30
0
41
1
10
-11.4816286657575
20
0.252662809483013
30
0
41
1
10
-11.4840297216474
20
0.2499809471567
30
0
0
SPLINE
5
18C
100
AcDbEntity
8
1
62
256
6
ByLayer
370
18
48
1
60
0
100
AcDbSpline
70
4
71
3
72
18
73
14
40
0
40
0
40
0
40
0
40
0.250000000000004
40
0.250000000000004
40
0.500000000000008
40
0.500000000000008
40
0.625000000000006
40
0.625000000000006
40
0.750000000000004
40
0.750000000000004
40
0.875000000000002
40
0.875000000000002
40
1
40
1
40
1
40
1
41
1
10
-12.0715924641051
20
0.249980947161674
30
0
41
1
10
-12.0474840624247
20
0.260524596602778
30
0
41
1
10
-12.0232815266328
20
0.270170993163305
30
0
41
1
10
-11.9753205267178
20
0.287485958052685
30
0
41
1
10
-11.95148223962
20
0.29519330724861
30
0
41
1
10
-11.9159624072422
20
0.305160068139657
30
0
41
1
10
-11.9041624897105
20
0.308214039015723
30
0
41
1
10
-11.8806546577429
20
0.313709166632691
30
0
41
1
10
-11.868919781421
20
0.316156259594692
30
0
41
1
10
-11.8456816009172
20
0.320281751592603
30
0
41
1
10
-11.8342604401862
20
0.321948179201343
30
0
41
1
10
-11.8119141236755
20
0.324294680904728
30
0
41
1
10
-11.8009857587864
20
0.324980947161123
30
0
41
1
10
-11.7904053433561
20
0.324980947161691
30
0
0
SPLINE
5
18D
100
AcDbEntity
8
1
62
256
6
ByLayer
370
18
48
1
60
0
100
AcDbSpline
70
4
71
3
72
8
73
4
40
0
40
0
40
0
40
0
40
1
40
1
40
1
40
1
41
1
10
-13.4751387226226
20
-0.394519052838319
30
0
41
1
10
-13.0120515832121
20
-0.171908579658265
30
0
41
1
10
-12.5443782285905
20
0.0432112314598498
30
0
41
1
10
-12.0715924641051
20
0.249980947161674
30
0
0
SPLINE
5
18E
100
AcDbEntity
8
1
62
256
6
ByLayer
370
18
48
1
60
0
100
AcDbSpline
70
4
71
3
72
42
73
38
40
0
40
0
40
0
40
0
40
0.0312500000000011
40
0.0312500000000011
40
0.0625000000000024
40
0.0625000000000024
40
0.0937500000000037
40
0.0937500000000037
40
0.125000000000005
40
0.125000000000005
40
0.156250000000006
40
0.156250000000006
40
0.187500000000007
40
0.187500000000007
40
0.218750000000009
40
0.218750000000009
40
0.25000000000001
40
0.25000000000001
40
0.281250000000011
40
0.281250000000011
40
0.312500000000012
40
0.312500000000012
40
0.375000000000014
40
0.375000000000014
40
0.437500000000015
40
0.437500000000015
40
0.500000000000016
40
0.500000000000016
40
0.562500000000017
40
0.562500000000017
40
0.625000000000018
40
0.625000000000018
40
0.750000000000012
40
0.750000000000012
40
0.875000000000006
40
0.875000000000006
40
1
40
1
40
1
40
1
41
1
10
-13.7830022040414
20
-0.394519052838263
30
0
41
1
10
-13.786296163494
20
-0.398440583573262
30
0
41
1
10
-13.7893940390956
20
-0.40238146501062
30
0
41
1
10
-13.7951158494948
20
-0.410309926271566
30
0
41
1
10
-13.7977493603533
20
-0.414317667809627
30
0
41
1
10
-13.8023108722539
20
-0.42219152204089
30
0
41
1
10
-13.8042548936939
20
-0.42607571628605
30
0
41
1
10
-13.8073470724843
20
-0.433719731071363
30
0
41
1
10
-13.8084729692142
20
-0.437445286657436
30
0
41
1
10
-13.8097574303534
20
-0.444470345874578
30
0
41
1
10
-13.8099296361508
20
-0.447806989829843
30
0
41
1
10
-13.8092739842408
20
-0.454074887423445
30
0
41
1
10
-13.8084586467166
20
-0.456907376408793
30
0
41
1
10
-13.8059545012143
20
-0.462033278761908
30
0
41
1
10
-13.8042436244571
20
-0.464344813194259
30
0
41
1
10
-13.8001238000058
20
-0.468369794664795
30
0
41
1
10
-13.7977338238776
20
-0.470082361169176
30
0
41
1
10
-13.7924190564528
20
-0.47302260592582
30
0
41
1
10
-13.7894934249633
20
-0.474249515499508
30
0
41
1
10
-13.7831870871887
20
-0.476291703406076
30
0
41
1
10
-13.7797908223149
20
-0.477107910049227
30
0
41
1
10
-13.7691954443652
20
-0.478988680249955
30
0
41
1
10
-13.7615565883783
20
-0.479515271737995
30
0
41
1
10
-13.7454473674279
20
-0.479522794198147
30
0
41
1
10
-13.7370460781938
20
-0.478996684936675
30
0
41
1
10
-13.7199085658052
20
-0.477172418009957
30
0
41
1
10
-13.7111381361335
20
-0.475871029240125
30
0
41
1
10
-13.6932733156991
20
-0.472646210690215
30
0
41
1
10
-13.68417823702
20
-0.470721421207799
30
0
41
1
10
-13.6657097944521
20
-0.466339640870586
30
0
41
1
10
-13.6563165838365
20
-0.463875283141988
30
0
41
1
10
-13.6281363869181
20
-0.455880681945132
30
0
41
1
10
-13.6092315701573
20
-0.449732644727959
30
0
41
1
10
-13.5712312469642
20
-0.436122125516334
30
0
41
1
10
-13.5521351294637
20
-0.428655124456242
30
0
41
1
10
-13.5137682733055
20
-0.412506876021638
30
0
41
1
10
-13.4944974298941
20
-0.403824970923949
30
0
41
1
10
-13.4751387226226
20
-0.394519052838348
30
0
0
SPLINE
5
18F
100
AcDbEntity
8
1
62
256
6
ByLayer
370
18
48
1
60
0
100
AcDbSpline
70
4
71
3
72
8
73
4
40
0
40
0
40
0
40
0
40
1
40
1
40
1
40
1
41
1
10
-13.2410331525239
20
0.24998094715977
30
0
41
1
10
-13.4218277113966
20
0.0352347798379355
30
0
41
1
10
-13.6024787330431
20
-0.179601914328856
30
0
41
1
10
-13.7830022040408
20
-0.394519052838319
30
0
0
SPLINE
5
190
100
AcDbEntity
8
1
62
256
6
ByLayer
370
18
48
1
60
0
100
AcDbSpline
70
4
71
3
72
24
73
20
40
0
40
0
40
0
40
0
40
0.125000000000025
40
0.125000000000025
40
0.250000000000049
40
0.250000000000049
40
0.375000000000074
40
0.375000000000074
40
0.500000000000098
40
0.500000000000098
40
0.562500000000095
40
0.562500000000095
40
0.625000000000091
40
0.625000000000091
40
0.750000000000061
40
0.750000000000061
40
0.87500000000003
40
0.87500000000003
40
1
40
1
40
1
40
1
41
1
10
-13.2672449924391
20
0.324980947164107
30
0
41
1
10
-13.2619500759375
20
0.324980947164164
30
0
41
1
10
-13.2568419376322
20
0.324717378813944
30
0
41
1
10
-13.2471064545221
20
0.323514290699364
30
0
41
1
10
-13.2425039387842
20
0.322573447462219
30
0
41
1
10
-13.2341732063759
20
0.319865449819161
30
0
41
1
10
-13.2304155523804
20
0.318099627225706
30
0
41
1
10
-13.2240247330258
20
0.313435949905653
30
0
41
1
10
-13.2214983554681
20
0.310608205530826
30
0
41
1
10
-13.2189756245217
20
0.305461994607015
30
0
41
1
10
-13.2183530563977
20
0.303593932941084
30
0
41
1
10
-13.217599246198
20
0.299659982289512
30
0
41
1
10
-13.2174600076951
20
0.29758040757747
30
0
41
1
10
-13.2177598928941
20
0.291002174949767
30
0
41
1
10
-13.2189684212771
20
0.286084946206699
30
0
41
1
10
-13.2229993581938
20
0.276081925994362
30
0
41
1
10
-13.2258016845266
20
0.270931072699625
30
0
41
1
10
-13.2326950507481
20
0.260385226271268
30
0
41
1
10
-13.2366717680853
20
0.255161360763538
30
0
41
1
10
-13.2410331525235
20
0.249980947159685
30
0
0
SPLINE
5
191
100
AcDbEntity
8
1
62
256
6
ByLayer
370
18
48
1
60
0
100
AcDbSpline
70
4
71
3
72
18
73
14
40
0
40
0
40
0
40
0
40
0.249999999999985
40
0.249999999999985
40
0.374999999999982
40
0.374999999999982
40
0.49999999999998
40
0.49999999999998
40
0.749999999999982
40
0.749999999999982
40
0.874999999999991
40
0.874999999999991
40
1
40
1
40
1
40
1
41
1
10
-13.7033325990741
20
0.249980947161674
30
0
41
1
10
-13.6831105541848
20
0.260345575335549
30
0
41
1
10
-13.6628952175061
20
0.269878476907678
30
0
41
1
10
-13.6325784400979
20
0.282910887998582
30
0
41
1
10
-13.6224734316684
20
0.287040580432603
30
0
41
1
10
-13.6024606690834
20
0.294771964935876
30
0
41
1
10
-13.5925288496342
20
0.298384525187089
30
0
41
1
10
-13.5629742414692
20
0.308403963315669
30
0
41
1
10
-13.5435827809818
20
0.3140236442012
30
0
41
1
10
-13.5151490437596
20
0.320245771405467
30
0
41
1
10
-13.5057756944861
20
0.321941256519949
30
0
41
1
10
-13.4877484855215
20
0.324300247940755
30
0
41
1
10
-13.4790426143305
20
0.324980947160924
30
0
41
1
10
-13.4707590466833
20
0.324980947161663
30
0
0
SPLINE
5
192
100
AcDbEntity
8
1
62
256
6
ByLayer
370
18
48
1
60
0
100
AcDbSpline
70
4
71
3
72
8
73
4
40
0
40
0
40
0
40
0
40
1
40
1
40
1
40
1
41
1
10
-14.917139020263
20
-0.394519052838319
30
0
41
1
10
-14.5162787786963
20
-0.174400290933079
30
0
41
1
10
-14.1118090101191
20
0.0406200174700473
30
0
41
1
10
-13.7033325990741
20
0.249980947161674
30
0
0
SPLINE
5
193
100
AcDbEntity
8
1
62
256
6
ByLayer
370
18
48
1
60
0
100
AcDbSpline
70
4
71
3
72
32
73
28
40
0
40
0
40
0
40
0
40
0.0625000000000162
40
0.0625000000000162
40
0.0937500000000191
40
0.0937500000000191
40
0.125000000000022
40
0.125000000000022
40
0.156250000000025
40
0.156250000000025
40
0.187500000000028
40
0.187500000000028
40
0.250000000000034
40
0.250000000000034
40
0.375000000000042
40
0.375000000000042
40
0.500000000000051
40
0.500000000000051
40
0.562500000000047
40
0.562500000000047
40
0.625000000000044
40
0.625000000000044
40
0.75000000000003
40
0.75000000000003
40
0.875000000000015
40
0.875000000000015
40
1
40
1
40
1
40
1
41
1
10
-15.1667226783068
20
-0.394519052838319
30
0
41
1
10
-15.1727363465437
20
-0.401848910316261
30
0
41
1
10
-15.1782123037365
20
-0.409270385922156
30
0
41
1
10
-15.1849986360634
20
-0.420084952291035
30
0
41
1
10
-15.1870296219919
20
-0.423643516063777
30
0
41
1
10
-15.1905606996569
20
-0.430654502661866
30
0
41
1
10
-15.1920700953782
20
-0.434136718479124
30
0
41
1
10
-15.1944011683871
20
-0.440798728334443
30
0
41
1
10
-15.1952286606578
20
-0.443978379701605
30
0
41
1
10
-15.1961750258383
20
-0.450020940609448
30
0
41
1
10
-15.1962909719604
20
-0.452906798019313
30
0
41
1
10
-15.1955157054795
20
-0.460889148266347
30
0
41
1
10
-15.1935543889026
20
-0.465213977477276
30
0
41
1
10
-15.1839406355279
20
-0.475624193230942
30
0
41
1
10
-15.1728315270451
20
-0.478697351337104
30
0
41
1
10
-15.1475864856647
20
-0.480042909231599
30
0
41
1
10
-15.1333232050906
20
-0.478462496419667
30
0
41
1
10
-15.1103771446343
20
-0.473978062194675
30
0
41
1
10
-15.1025031675837
20
-0.472121922114553
30
0
41
1
10
-15.086556340249
20
-0.467854927845565
30
0
41
1
10
-15.0784542027497
20
-0.465437639459168
30
0
41
1
10
-15.0538143213152
20
-0.457452343825082
30
0
41
1
10
-15.0368825566627
20
-0.451126841449934
30
0
41
1
10
-15.0029874868118
20
-0.437155024368053
30
0
41
1
10
-14.985940144602
20
-0.429481867193488
30
0
41
1
10
-14.951670326529
20
-0.412916838420955
30
0
41
1
10
-14.9344476298749
20
-0.404023486860524
30
0
41
1
10
-14.917139020263
20
-0.394519052838319
30
0
0
SPLINE
5
194
100
AcDbEntity
8
1
62
256
6
ByLayer
370
18
48
1
60
0
100
AcDbSpline
70
4
71
3
72
8
73
4
40
0
40
0
40
0
40
0
40
1
40
1
40
1
40
1
41
1
10
-14.6378611567676
20
0.249980947160765
30
0
41
1
10
-14.8141693177328
20
0.035160531136512
30
0
41
1
10
-14.9904557633516
20
-0.179673252606676
30
0
41
1
10
-15.1667226783067
20
-0.394519052838319
30
0
0
SPLINE
5
195
100
AcDbEntity
8
1
62
256
6
ByLayer
370
18
48
1
60
0
100
AcDbSpline
70
4
71
3
72
22
73
18
40
0
40
0
40
0
40
0
40
0.125
40
0.125
40
0.25
40
0.25
40
0.375
40
0.375
40
0.5
40
0.5
40
0.625
40
0.625
40
0.75
40
0.75
40
0.875
40
0.875
40
1
40
1
40
1
40
1
41
1
10
-14.6482797132064
20
0.324980947161691
30
0
41
1
10
-14.6436861637691
20
0.324980947161691
30
0
41
1
10
-14.6393339813921
20
0.324671544088858
30
0
41
1
10
-14.6313455176698
20
0.323311967656196
30
0
41
1
10
-14.6276897795995
20
0.322264257201539
30
0
41
1
10
-14.6212507120715
20
0.319223339349236
30
0
41
1
10
-14.6185013101192
20
0.317228993892542
30
0
41
1
10
-14.6143452457558
20
0.312233712057065
30
0
41
1
10
-14.6129132685258
20
0.309168004887198
30
0
41
1
10
-14.6116726799336
20
0.302184420737689
30
0
41
1
10
-14.6118264888769
20
0.298252416364676
30
0
41
1
10
-14.6137386426708
20
0.289478184913406
30
0
41
1
10
-14.6154489910775
20
0.284851965514861
30
0
41
1
10
-14.6200843263832
20
0.275257691632021
30
0
41
1
10
-14.6230472637205
20
0.270232753743471
30
0
41
1
10
-14.6298767351538
20
0.260106240331453
30
0
41
1
10
-14.6337062695904
20
0.255043416118525
30
0
41
1
10
-14.6378611567674
20
0.249980947160765
30
0
0
SPLINE
5
196
100
AcDbEntity
8
1
62
256
6
ByLayer
370
18
48
1
60
0
100
AcDbSpline
70
4
71
3
72
18
73
14
40
0
40
0
40
0
40
0
40
0.250000000000006
40
0.250000000000006
40
0.375000000000005
40
0.375000000000005
40
0.500000000000004
40
0.500000000000004
40
0.750000000000002
40
0.750000000000002
40
0.875000000000001
40
0.875000000000001
40
1
40
1
40
1
40
1
41
1
10
-15.0113058733159
20
0.249980947161674
30
0
41
1
10
-14.9936550910215
20
0.260222959237126
30
0
41
1
10
-14.976052688455
20
0.26969847336872
30
0
41
1
10
-14.9497206956231
20
0.282713288346656
30
0
41
1
10
-14.9409404746337
20
0.286855545448702
30
0
41
1
10
-14.9236014290334
20
0.294617357588294
30
0
41
1
10
-14.9150208402985
20
0.298248546839886
30
0
41
1
10
-14.8895680346605
20
0.308329666237881
30
0
41
1
10
-14.8729727659273
20
0.31400004023601
30
0
41
1
10
-14.8488745658275
20
0.320277142050088
30
0
41
1
10
-14.8410729561888
20
0.321962674102565
30
0
41
1
10
-14.8262013671261
20
0.324309054638235
30
0
41
1
10
-14.8191040881758
20
0.324980947161009
30
0
41
1
10
-14.8124623350353
20
0.324980947161691
30
0
0
SPLINE
5
197
100
AcDbEntity
8
1
62
256
6
ByLayer
370
18
48
1
60
0
100
AcDbSpline
70
4
71
3
72
8
73
4
40
0
40
0
40
0
40
0
40
1
40
1
40
1
40
1
41
1
10
-16.0923183384426
20
-0.394519052838319
30
0
41
1
10
-15.7350028490323
20
-0.175884144148966
30
0
41
1
10
-15.3747684041203
20
0.0390788144742373
30
0
41
1
10
-15.0113058733159
20
0.249980947161674
30
0
0
SPLINE
5
198
100
AcDbEntity
8
1
62
256
6
ByLayer
370
18
48
1
60
0
100
AcDbSpline
70
4
71
3
72
37
73
33
40
0
40
0
40
0
40
0
40
0.0625000000000099
40
0.0625000000000099
40
0.12500000000002
40
0.12500000000002
40
0.18750000000003
40
0.18750000000003
40
0.218750000000029
40
0.218750000000029
40
0.250000000000028
40
0.281250000000028
40
0.281250000000028
40
0.312500000000027
40
0.312500000000027
40
0.375000000000025
40
0.375000000000025
40
0.437500000000024
40
0.437500000000024
40
0.500000000000023
40
0.500000000000023
40
0.562500000000021
40
0.562500000000021
40
0.62500000000002
40
0.62500000000002
40
0.687500000000018
40
0.687500000000018
40
0.750000000000017
40
0.750000000000017
40
0.875000000000008
40
0.875000000000008
40
1
40
1
40
1
40
1
41
1
10
-16.2968648471025
20
-0.394519052838319
30
0
41
1
10
-16.3025219331033
20
-0.401445981256501
30
0
41
1
10
-16.3077594567696
20
-0.408408203381782
30
0
41
1
10
-16.316807646128
20
-0.421921670112624
30
0
41
1
10
-16.3206481840525
20
-0.428496905157545
30
0
41
1
10
-16.3265623504638
20
-0.441180005305654
30
0
41
1
10
-16.3285186876843
20
-0.44706044623743
30
0
41
1
10
-16.3297288331335
20
-0.454989178748832
30
0
41
1
10
-16.3298403401064
20
-0.457500657007216
30
0
41
1
10
-16.3294707477644
20
-0.462056024846504
30
0
41
1
10
-16.3285221872621
20
-0.466189998119518
30
0
41
1
10
-16.3264777974483
20
-0.469527657879866
30
0
41
1
10
-16.3239027532794
20
-0.472480345157834
30
0
41
1
10
-16.3223498902317
20
-0.473755976422041
30
0
41
1
10
-16.3170998390114
20
-0.476943943677298
30
0
41
1
10
-16.3127801679192
20
-0.478272438753095
30
0
41
1
10
-16.3028162984544
20
-0.479645941417374
30
0
41
1
10
-16.2973118227788
20
-0.479672125908735
30
0
41
1
10
-16.2855515578539
20
-0.478734012847497
30
0
41
1
10
-16.2792863978668
20
-0.477766429622619
30
0
41
1
10
-16.2661219864907
20
-0.475012423208597
30
0
41
1
10
-16.2592633136992
20
-0.473231268390492
30
0
41
1
10
-16.245260980452
20
-0.469052204399844
30
0
41
1
10
-16.2380890158211
20
-0.466647495179046
30
0
41
1
10
-16.2234519279944
20
-0.461297908650891
30
0
41
1
10
-16.2159579026447
20
-0.458340102413388
30
0
41
1
10
-16.2008593510069
20
-0.452002917468832
30
0
41
1
10
-16.1932654366168
20
-0.448629773409038
30
0
41
1
10
-16.1703660028168
20
-0.437970340595513
30
0
41
1
10
-16.1549439718491
20
-0.430149685211973
30
0
41
1
10
-16.1238313712992
20
-0.413265662151645
30
0
41
1
10
-16.1081403501313
20
-0.404200256657845
30
0
41
1
10
-16.0923183384426
20
-0.394519052838319
30
0
0
SPLINE
5
199
100
AcDbEntity
8
1
62
256
6
ByLayer
370
18
48
1
60
0
100
AcDbSpline
70
4
71
3
72
8
73
4
40
0
40
0
40
0
40
0
40
1
40
1
40
1
40
1
41
1
10
-15.7705104401659
20
0.249980947161191
30
0
41
1
10
-15.9459628164259
20
0.0351481695532812
30
0
41
1
10
-16.1214142561082
20
-0.179685181728644
30
0
41
1
10
-16.2968648471025
20
-0.394519052838319
30
0
0
SPLINE
5
19A
100
AcDbEntity
8
1
62
256
6
ByLayer
370
18
48
1
60
0
100
AcDbSpline
70
4
71
3
72
24
73
20
40
0
40
0
40
0
40
0
40
0.125000000000013
40
0.125000000000013
40
0.250000000000026
40
0.250000000000026
40
0.375000000000039
40
0.375000000000039
40
0.437500000000046
40
0.437500000000046
40
0.500000000000052
40
0.500000000000052
40
0.625000000000039
40
0.625000000000039
40
0.750000000000026
40
0.750000000000026
40
0.875000000000013
40
0.875000000000013
40
1
40
1
40
1
40
1
41
1
10
-15.7678282405415
20
0.324980947161663
30
0
41
1
10
-15.7638772192612
20
0.324980947161663
30
0
41
1
10
-15.7602441134992
20
0.32463826070034
30
0
41
1
10
-15.75373219378
20
0.323141681747728
30
0
41
1
10
-15.7508356082857
20
0.321978291223502
30
0
41
1
10
-15.7460732175954
20
0.31867350402598
30
0
41
1
10
-15.744244201702
20
0.316565770116455
30
0
41
1
10
-15.7424416837273
20
0.312630120683394
30
0
41
1
10
-15.7419978988112
20
0.311177247757087
30
0
41
1
10
-15.7414634919665
20
0.308069754760112
30
0
41
1
10
-15.7413685370152
20
0.306412502500422
30
0
41
1
10
-15.7415893741885
20
0.30113726110136
30
0
41
1
10
-15.7424161976405
20
0.297195434075917
30
0
41
1
10
-15.7453822187738
20
0.288598514860155
30
0
41
1
10
-15.7474658460834
20
0.284082327184649
30
0
41
1
10
-15.7526342009609
20
0.274688047466299
30
0
41
1
10
-15.7557515288527
20
0.269770044953589
30
0
41
1
10
-15.7626505409949
20
0.259920539419568
30
0
41
1
10
-15.7664409806213
20
0.254963799579315
30
0
41
1
10
-15.7705104401658
20
0.249980947161219
30
0
0
SPLINE
5
19B
100
AcDbEntity
8
1
62
256
6
ByLayer
370
18
48
1
60
0
100
AcDbSpline
70
4
71
3
72
18
73
14
40
0
40
0
40
0
40
0
40
0.250000000000006
40
0.250000000000006
40
0.375000000000009
40
0.375000000000009
40
0.500000000000012
40
0.500000000000012
40
0.750000000000006
40
0.750000000000006
40
0.875000000000003
40
0.875000000000003
40
1
40
1
40
1
40
1
41
1
10
-16.0747405491863
20
0.249980947161674
30
0
41
1
10
-16.0589915323881
20
0.260105774454985
30
0
41
1
10
-16.0433670810145
20
0.269500582045311
30
0
41
1
10
-16.0201229062703
20
0.28243976752168
30
0
41
1
10
-16.0124072411958
20
0.286558897961356
30
0
41
1
10
-15.9970463709325
20
0.294372260744638
30
0
41
1
10
-15.9893960442947
20
0.298066963277279
30
0
41
1
10
-15.9669425794261
20
0.308258872530075
30
0
41
1
10
-15.9524998074368
20
0.313959742985048
30
0
41
1
10
-15.9319250958335
20
0.320249195654498
30
0
41
1
10
-15.9252257328505
20
0.321961956424701
30
0
41
1
10
-15.9127047740947
20
0.324317621812327
30
0
41
1
10
-15.9068347284255
20
0.324980947175277
30
0
41
1
10
-15.9014694779915
20
0.3249809471763
30
0
0
SPLINE
5
19C
100
AcDbEntity
8
1
62
256
6
ByLayer
370
18
48
1
60
0
100
AcDbSpline
70
4
71
3
72
8
73
4
40
0
40
0
40
0
40
0
40
1
40
1
40
1
40
1
41
1
10
-17.0559192792914
20
-0.394519052838319
30
0
41
1
10
-16.7313392866229
20
-0.176854552642226
30
0
41
1
10
-16.4043614902331
20
0.0380721567194087
30
0
41
1
10
-16.0747405491863
20
0.249980947161674
30
0
0
SPLINE
5
19D
100
AcDbEntity
8
1
62
256
6
ByLayer
370
18
48
1
60
0
100
AcDbSpline
70
4
71
3
72
36
73
32
40
0
40
0
40
0
40
0
40
0.0625000000000099
40
0.0625000000000099
40
0.12500000000002
40
0.12500000000002
40
0.156250000000025
40
0.156250000000025
40
0.187500000000029
40
0.187500000000029
40
0.250000000000025
40
0.250000000000025
40
0.312500000000021
40
0.312500000000021
40
0.375000000000017
40
0.375000000000017
40
0.437500000000013
40
0.437500000000013
40
0.500000000000009
40
0.500000000000009
40
0.562500000000005
40
0.562500000000005
40
0.625000000000001
40
0.625000000000001
40
0.687499999999997
40
0.687499999999997
40
0.749999999999993
40
0.749999999999993
40
0.874999999999996
40
0.874999999999996
40
1
40
1
40
1
40
1
41
1
10
-17.2234180953955
20
-0.394519052838319
30
0
41
1
10
-17.2288630059653
20
-0.401134758640808
30
0
41
1
10
-17.2339746722671
20
-0.407751827534497
30
0
41
1
10
-17.2430846030587
20
-0.420595456700227
30
0
41
1
10
-17.2470990805785
20
-0.4268335141021
30
0
41
1
10
-17.25212003757
20
-0.435851492444499
30
0
41
1
10
-17.2536321914573
20
-0.438817281238812
30
0
41
1
10
-17.2562136678002
20
-0.444488571355805
30
0
41
1
10
-17.2572903989193
20
-0.447204211494579
30
0
41
1
10
-17.2598443353929
20
-0.454972489546776
30
0
41
1
10
-17.2606310932113
20
-0.459699767510244
30
0
41
1
10
-17.2601800791641
20
-0.467549883255174
30
0
41
1
10
-17.2589862605905
20
-0.470736049652856
30
0
41
1
10
-17.2547315718806
20
-0.475687856197624
30
0
41
1
10
-17.2517430897208
20
-0.477362054351346
30
0
41
1
10
-17.2444294871586
20
-0.479360097418436
30
0
41
1
10
-17.2400467319688
20
-0.479682312363281
30
0
41
1
10
-17.2304549202225
20
-0.479202477171327
30
0
41
1
10
-17.2252235244482
20
-0.478415526060701
30
0
41
1
10
-17.2140546329025
20
-0.475956566440431
30
0
41
1
10
-17.2080807163957
20
-0.474269475598959
30
0
41
1
10
-17.1957600056047
20
-0.470209044019242
30
0
41
1
10
-17.1894003078252
20
-0.467836120126378
30
0
41
1
10
-17.1763456356655
20
-0.462514412437883
30
0
41
1
10
-17.1696501918301
20
-0.459564811699522
30
0
41
1
10
-17.1559606335937
20
-0.4531526058731
30
0
41
1
10
-17.1489899980216
20
-0.449699392425316
30
0
41
1
10
-17.1280088688477
20
-0.438819193995471
30
0
41
1
10
-17.1138227275755
20
-0.430828338333697
30
0
41
1
10
-17.0851178275437
20
-0.413601630101539
30
0
41
1
10
-17.0705982671182
20
-0.404362834404878
30
0
41
1
10
-17.0559192792914
20
-0.394519052838319
30
0
0
SPLINE
5
19E
100
AcDbEntity
8
1
62
256
6
ByLayer
370
18
48
1
60
0
100
AcDbSpline
70
4
71
3
72
8
73
4
40
0
40
0
40
0
40
0
40
1
40
1
40
1
40
1
41
1
10
-16.6928433719954
20
0.249980947161418
30
0
41
1
10
-16.8697319891465
20
0.0351663712000629
30
0
41
1
10
-17.0465893021273
20
-0.179667539911037
30
0
41
1
10
-17.2234180953955
20
-0.394519052838319
30
0
0
SPLINE
5
19F
100
AcDbEntity
8
1
62
256
6
ByLayer
370
18
48
1
60
0
100
AcDbSpline
70
4
71
3
72
22
73
18
40
0
40
0
40
0
40
0
40
0.125
40
0.125
40
0.25
40
0.25
40
0.375
40
0.375
40
0.5
40
0.5
40
0.625
40
0.625
40
0.75
40
0.75
40
0.875
40
0.875
40
1
40
1
40
1
40
1
41
1
10
-16.6786305280169
20
0.324980947162004
30
0
41
1
10
-16.6752935883738
20
0.324980947162004
30
0
41
1
10
-16.6722914023283
20
0.324610296155299
30
0
41
1
10
-16.6670940108751
20
0.322977219047687
30
0
41
1
10
-16.6649110617957
20
0.321701165436622
30
0
41
1
10
-16.6616850913993
20
0.318214129968481
30
0
41
1
10
-16.6606077625794
20
0.315971261589283
30
0
41
1
10
-16.6597043062066
20
0.31053181254066
30
0
41
1
10
-16.6598747052286
20
0.307395135076689
30
0
41
1
10
-16.6614063262736
20
0.300325602141925
30
0
41
1
10
-16.6627981564321
20
0.296336048834661
30
0
41
1
10
-16.666600016134
20
0.287927339757033
30
0
41
1
10
-16.668997911571
20
0.283500347574631
30
0
41
1
10
-16.6746501619329
20
0.274263633559656
30
0
41
1
10
-16.6779149533852
20
0.26944782393528
30
0
41
1
10
-16.6849705694704
20
0.259790857720077
30
0
41
1
10
-16.6887857444674
20
0.254908553871502
30
0
41
1
10
-16.6928433719953
20
0.249980947161418
30
0
0
SPLINE
5
1A0
100
AcDbEntity
8
1
62
256
6
ByLayer
370
18
48
1
60
0
100
AcDbSpline
70
4
71
3
72
18
73
14
40
0
40
0
40
0
40
0
40
0.250000000000003
40
0.250000000000003
40
0.37500000000001
40
0.37500000000001
40
0.500000000000017
40
0.500000000000017
40
0.750000000000017
40
0.750000000000017
40
0.875000000000008
40
0.875000000000008
40
1
40
1
40
1
40
1
41
1
10
-16.9397539363789
20
0.249980947161674
30
0
41
1
10
-16.9254620768257
20
0.260010803126988
30
0
41
1
10
-16.9113560136087
20
0.269346955069722
30
0
41
1
10
-16.8904897614687
20
0.282241375851697
30
0
41
1
10
-16.8835836043086
20
0.286352873803736
30
0
41
1
10
-16.8698793452217
20
0.294164224961349
30
0
41
1
10
-16.8630506740278
20
0.297879915890746
30
0
41
1
10
-16.8429780756196
20
0.308195138262704
30
0
41
1
10
-16.8302474035175
20
0.313940007976839
30
0
41
1
10
-16.8124756598324
20
0.320254548459019
30
0
41
1
10
-16.8067373608678
20
0.321974304028231
30
0
41
1
10
-16.7961881593911
20
0.324327948262379
30
0
41
1
10
-16.791342106785
20
0.324980947166722
30
0
41
1
10
-16.7870313841584
20
0.324980947167205
30
0
0
SPLINE
5
1A1
100
AcDbEntity
8
1
62
256
6
ByLayer
370
18
48
1
60
0
100
AcDbSpline
70
4
71
3
72
8
73
4
40
0
40
0
40
0
40
0
40
1
40
1
40
1
40
1
41
1
10
-17.8422547739246
20
-0.394519052838319
30
0
41
1
10
-17.5434740859654
20
-0.177529668330379
30
0
41
1
10
-17.2427061894618
20
0.0373726821929097
30
0
41
1
10
-16.9397539363789
20
0.249980947161674
30
0
0
SPLINE
5
1A2
100
AcDbEntity
8
1
62
256
6
ByLayer
370
18
48
1
60
0
100
AcDbSpline
70
4
71
3
72
32
73
28
40
0
40
0
40
0
40
0
40
0.062500000000001
40
0.062500000000001
40
0.125000000000002
40
0.125000000000002
40
0.187500000000003
40
0.187500000000003
40
0.250000000000004
40
0.250000000000004
40
0.312500000000005
40
0.312500000000005
40
0.375000000000006
40
0.375000000000006
40
0.437500000000007
40
0.437500000000007
40
0.500000000000008
40
0.500000000000008
40
0.624999999999998
40
0.624999999999998
40
0.6875
40
0.6875
40
0.750000000000003
40
0.750000000000003
40
0.875000000000002
40
0.875000000000002
40
1
40
1
40
1
40
1
41
1
10
-17.9778880275984
20
-0.394519052838319
30
0
41
1
10
-17.9832116767568
20
-0.400882031017034
30
0
41
1
10
-17.988265511424
20
-0.407220741848732
30
0
41
1
10
-17.9974945596912
20
-0.419543766457821
30
0
41
1
10
-18.0016666684293
20
-0.425517957988518
30
0
41
1
10
-18.0089580969637
20
-0.437021951453488
30
0
41
1
10
-18.0120969825224
20
-0.442603577620275
30
0
41
1
10
-18.0168366824856
20
-0.45276514253942
30
0
41
1
10
-18.0184789084955
20
-0.457414202766614
30
0
41
1
10
-18.0200531724044
20
-0.465548906874716
30
0
41
1
10
-18.0199708816204
20
-0.468918723610557
30
0
41
1
10
-18.0181293379942
20
-0.474316428364631
30
0
41
1
10
-18.0163291232035
20
-0.476337856270049
30
0
41
1
10
-18.011339731184
20
-0.478915980909278
30
0
41
1
10
-18.008147229582
20
-0.479518551809349
30
0
41
1
10
-18.0005541852456
20
-0.479519553246576
30
0
41
1
10
-17.9962669091183
20
-0.478921245725019
30
0
41
1
10
-17.9822334827617
20
-0.475699253576352
30
0
41
1
10
-17.9712128917084
20
-0.471599262198481
30
0
41
1
10
-17.9537005653584
20
-0.46366412377742
30
0
41
1
10
-17.9476703393397
20
-0.460711222123479
30
0
41
1
10
-17.9352728578613
20
-0.454267026879989
30
0
41
1
10
-17.9288752363966
20
-0.450757410418703
30
0
41
1
10
-17.9095086622445
20
-0.439656005426087
30
0
41
1
10
-17.8963439997889
20
-0.431494872861293
30
0
41
1
10
-17.8696032737995
20
-0.413929027723412
30
0
41
1
10
-17.8560258583049
20
-0.404520298715681
30
0
41
1
10
-17.8422547739246
20
-0.394519052838319
30
0
0
SPLINE
5
1A3
100
AcDbEntity
8
1
62
256
6
ByLayer
370
18
48
1
60
0
100
AcDbSpline
70
4
71
3
72
8
73
4
40
0
40
0
40
0
40
0
40
1
40
1
40
1
40
1
41
1
10
-17.4382636790639
20
0.249980947161504
30
0
41
1
10
-17.6182278533523
20
0.0352037478078557
30
0
41
1
10
-17.7980999976783
20
-0.179631242401683
30
0
41
1
10
-17.9778880275984
20
-0.394519052838319
30
0
0
SPLINE
5
1A4
100
AcDbEntity
8
1
62
256
6
ByLayer
370
18
48
1
60
0
100
AcDbSpline
70
4
71
3
72
22
73
18
40
0
40
0
40
0
40
0
40
0.125
40
0.125
40
0.25
40
0.25
40
0.375
40
0.375
40
0.5
40
0.5
40
0.625
40
0.625
40
0.75
40
0.75
40
0.875
40
0.875
40
1
40
1
40
1
40
1
41
1
10
-17.4134725186275
20
0.324980947161691
30
0
41
1
10
-17.4106764673078
20
0.324980947161691
30
0
41
1
10
-17.4082400976542
20
0.324567600424018
30
0
41
1
10
-17.4043205947448
20
0.322797204013625
30
0
41
1
10
-17.4028560532314
20
0.321456739983034
30
0
41
1
10
-17.4009999617451
20
0.317791201698924
30
0
41
1
10
-17.4006235085082
20
0.315434288950485
30
0
41
1
10
-17.4010281714754
20
0.309930304132877
30
0
41
1
10
-17.4017898508421
20
0.306767870244073
30
0
41
1
10
-17.4043952993558
20
0.299650731135898
30
0
41
1
10
-17.4062510968043
20
0.295693994296243
30
0
41
1
10
-17.4107831734637
20
0.287415492847487
30
0
41
1
10
-17.4134737102217
20
0.283050307925606
30
0
41
1
10
-17.4196040003651
20
0.273922123855868
30
0
41
1
10
-17.4230138932383
20
0.269207361992926
30
0
41
1
10
-17.4302867485268
20
0.259694172525712
30
0
41
1
10
-17.4341690345688
20
0.254867676870248
30
0
41
1
10
-17.4382636790639
20
0.249980947161532
30
0
0
SPLINE
5
1A5
100
AcDbEntity
8
1
62
256
6
ByLayer
370
18
48
1
60
0
100
AcDbSpline
70
4
71
3
72
16
73
12
40
0
40
0
40
0
40
0
40
0.249999999999993
40
0.249999999999993
40
0.499999999999985
40
0.499999999999985
40
0.749999999999978
40
0.749999999999978
40
0.874999999999989
40
0.874999999999989
40
1
40
1
40
1
40
1
41
1
10
-17.6355675589552
20
0.249980947161674
30
0
41
1
10
-17.6223873763713
20
0.259968929843211
30
0
41
1
10
-17.6093593126197
20
0.26935695362036
30
0
41
1
10
-17.5840274375988
20
0.286548128378229
30
0
41
1
10
-17.5716642128454
20
0.294401957912299
30
0
41
1
10
-17.5477048511587
20
0.308216513563508
30
0
41
1
10
-17.5364170579665
20
0.313999603466158
30
0
41
1
10
-17.5210964025255
20
0.320298706549949
30
0
41
1
10
-17.516211201762
20
0.322010582254791
30
0
41
1
10
-17.5073995575774
20
0.324343825065853
30
0
41
1
10
-17.5034531652321
20
0.32498094716334
30
0
41
1
10
-17.5000603949205
20
0.32498094716351
30
0
0
SPLINE
5
1A6
100
AcDbEntity
8
1
62
256
6
ByLayer
370
18
48
1
60
0
100
AcDbSpline
70
4
71
3
72
8
73
4
40
0
40
0
40
0
40
0
40
1
40
1
40
1
40
1
41
1
10
-18.4739743524117
20
-0.394519052838319
30
0
41
1
10
-18.1962122396723
20
-0.17802046530457
30
0
41
1
10
-17.9167965179605
20
0.0368647817199701
30
0
41
1
10
-17.6355675589552
20
0.249980947161674
30
0
0
SPLINE
5
1A7
100
AcDbEntity
8
1
62
256
6
ByLayer
370
18
48
1
60
0
100
AcDbSpline
70
4
71
3
72
35
73
31
40
0
40
0
40
0
40
0
40
0.0625000000000041
40
0.0625000000000041
40
0.125000000000008
40
0.125000000000008
40
0.187500000000012
40
0.187500000000012
40
0.250000000000016
40
0.250000000000016
40
0.281250000000016
40
0.281250000000016
40
0.312500000000016
40
0.343750000000016
40
0.343750000000016
40
0.375000000000016
40
0.375000000000016
40
0.437500000000016
40
0.437500000000016
40
0.500000000000016
40
0.500000000000016
40
0.562500000000016
40
0.562500000000016
40
0.625000000000015
40
0.625000000000015
40
0.75000000000001
40
0.75000000000001
40
0.875000000000005
40
0.875000000000005
40
1
40
1
40
1
40
1
41
1
10
-18.5812482082592
20
-0.394519052838319
30
0
41
1
10
-18.5865153525356
20
-0.400671540737704
30
0
41
1
10
-18.5915551587891
20
-0.4067724130702
30
0
41
1
10
-18.6009563118815
20
-0.418678369205168
30
0
41
1
10
-18.6052856511484
20
-0.424440528495324
30
0
41
1
10
-18.6130868726059
20
-0.435525392193966
30
0
41
1
10
-18.6165835561629
20
-0.440889135534377
30
0
41
1
10
-18.6224018034917
20
-0.450883639903509
30
0
41
1
10
-18.624692905213
20
-0.455453171617592
30
0
41
1
10
-18.6270871066253
20
-0.461588002934661
30
0
41
1
10
-18.6277115578637
20
-0.463521717329655
30
0
41
1
10
-18.6285640542785
20
-0.467045659082999
30
0
41
1
10
-18.6290306263816
20
-0.470245039390562
30
0
41
1
10
-18.6287334483274
20
-0.47280285105478
30
0
41
1
10
-18.6280515637346
20
-0.475037860517887
30
0
41
1
10
-18.6275127386324
20
-0.475998666709387
30
0
41
1
10
-18.6253491347405
20
-0.478344329635576
30
0
41
1
10
-18.6231992909744
20
-0.479203435856874
30
0
41
1
10
-18.6176614101842
20
-0.479690478088912
30
0
41
1
10
-18.61424480329
20
-0.479301674402052
30
0
41
1
10
-18.6065924280455
20
-0.477483071167541
30
0
41
1
10
-18.6023316428988
20
-0.476059968224234
30
0
41
1
10
-18.5930715511233
20
-0.472341317897843
30
0
41
1
10
-18.5880536600985
20
-0.470032587577066
30
0
41
1
10
-18.5724254375322
20
-0.462153942749722
30
0
41
1
10
-18.5611262051355
20
-0.455603749929821
30
0
41
1
10
-18.5371877874604
20
-0.44050144479246
30
0
41
1
10
-18.5248961876862
20
-0.432166599792794
30
0
41
1
10
-18.4998072213005
20
-0.41425738730112
30
0
41
1
10
-18.4870076534492
20
-0.40467771428311
30
0
41
1
10
-18.4739743524117
20
-0.394519052838319
30
0
0
SPLINE
5
1A8
100
AcDbEntity
8
1
62
256
6
ByLayer
370
18
48
1
60
0
100
AcDbSpline
70
4
71
3
72
8
73
4
40
0
40
0
40
0
40
0
40
1
40
1
40
1
40
1
41
1
10
-18.0287287527199
20
0.249980947161561
30
0
41
1
10
-18.2130708182976
20
0.0352562190928438
30
0
41
1
10
-18.397239110843
20
-0.17958023859083
30
0
41
1
10
-18.5812482082592
20
-0.394519052838319
30
0
0
SPLINE
5
1A9
100
AcDbEntity
8
1
62
256
6
ByLayer
370
18
48
1
60
0
100
AcDbSpline
70
4
71
3
72
18
73
14
40
0
40
0
40
0
40
0
40
0.124999999999997
40
0.124999999999997
40
0.249999999999994
40
0.249999999999994
40
0.374999999999991
40
0.374999999999991
40
0.499999999999988
40
0.499999999999988
40
0.749999999999994
40
0.749999999999994
40
1
40
1
40
1
40
1
41
1
10
-17.9939249199246
20
0.324980947161691
30
0
41
1
10
-17.9916613950634
20
0.324980947161691
30
0
41
1
10
-17.9898118920066
20
0.324527026171893
30
0
41
1
10
-17.9871484850687
20
0.322665110889972
30
0
41
1
10
-17.9863130485071
20
0.321261305045226
30
0
41
1
10
-17.9857248510136
20
0.317423789181305
30
0
41
1
10
-17.9859863111476
20
0.315040220045688
30
0
41
1
10
-17.98753960481
20
0.309477182072811
30
0
41
1
10
-17.9888303130257
20
0.306287723333213
30
0
41
1
10
-17.9942059657753
20
0.2955286581508
30
0
41
1
10
-17.9995385373246
20
0.287244191447456
30
0
41
1
10
-18.0127640730215
20
0.269146074866086
30
0
41
1
10
-18.0203801250128
20
0.259705568661019
30
0
41
1
10
-18.0287287527199
20
0.249980947161589
30
0
0
LINE
5
7D
100
AcDbEntity
8
81
62
256
6
ByLayer
370
18
48
1
60
0
100
AcDbLine
10
45.1
20
-18
30
0
11
50.1
21
-18
31
0
39
0
210
0
220
0
230
1
0
LINE
5
7E
100
AcDbEntity
8
80
62
256
6
ByLayer
370
18
48
1
60
0
100
AcDbLine
10
0
20
0
30
0
11
0
21
5
31
0
39
0
210
0
220
0
230
1
0
LINE
5
7F
100
AcDbEntity
8
1
62
256
6
ByLayer
370
18
48
1
60
0
100
AcDbLine
10
20
20
-0.875
30
0
11
20
21
-0.675
31
0
39
0
210
0
220
0
230
1
0
LINE
5
80
100
AcDbEntity
8
1
62
256
6
ByLayer
370
18
48
1
60
0
100
AcDbLine
10
-7.425
20
-17.675
30
0
11
-2.614286
21
-17.675
31
0
39
0
210
0
220
0
230
1
0
LINE
5
81
100
AcDbEntity
8
1
62
256
6
ByLayer
370
18
48
1
60
0
100
AcDbLine
10
11.884652
20
-17.675
30
0
11
18.928749
21
-17.675
31
0
39
0
210
0
220
0
230
1
0
LINE
5
82
100
AcDbEntity
8
1
62
256
6
ByLayer
370
18
48
1
60
0
100
AcDbLine
10
44.676744
20
-11.983803
30
0
11
42.668682
21
-12.100747
31
0
39
0
210
0
220
0
230
1
0
LINE
5
83
100
AcDbEntity
8
1
62
256
6
ByLayer
370
18
48
1
60
0
100
AcDbLine
10
44.676744
20
-18.016197
30
0
11
42.668682
21
-17.899253
31
0
39
0
210
0
220
0
230
1
0
LINE
5
84
100
AcDbEntity
8
1
62
256
6
ByLayer
370
18
48
1
60
0
100
AcDbLine
10
45.1
20
-12.383126
30
0
11
45.1
21
-17.616874
31
0
39
0
210
0
220
0
230
1
0
LINE
5
85
100
AcDbEntity
8
1
62
256
6
ByLayer
370
18
48
1
60
0
100
AcDbLine
10
20.523256
20
-18.016197
30
0
11
22.531318
21
-17.899253
31
0
39
0
210
0
220
0
230
1
0
LINE
5
86
100
AcDbEntity
8
1
62
256
6
ByLayer
370
18
48
1
60
0
100
AcDbLine
10
42.668682
20
-12.100747
30
0
11
42.243073
21
-12.078922
31
0
39
0
210
0
220
0
230
1
0
LINE
5
87
100
AcDbEntity
8
1
62
256
6
ByLayer
370
18
48
1
60
0
100
AcDbLine
10
42.668682
20
-17.899253
30
0
11
42.243073
21
-17.921078
31
0
39
0
210
0
220
0
230
1
0
LINE
5
88
100
AcDbEntity
8
1
62
256
6
ByLayer
370
18
48
1
60
0
100
AcDbLine
10
42.668682
20
-12.100747
30
0
11
42.668682
21
-17.899253
31
0
39
0
210
0
220
0
230
1
0
LINE
5
89
100
AcDbEntity
8
1
62
256
6
ByLayer
370
18
48
1
60
0
100
AcDbLine
10
22.531318
20
-17.899253
30
0
11
22.956927
21
-17.921078
31
0
39
0
210
0
220
0
230
1
0
LINE
5
8A
100
AcDbEntity
8
1
62
256
6
ByLayer
370
18
48
1
60
0
100
AcDbLine
10
22.531318
20
-17.638773
30
0
11
22.531318
21
-17.899253
31
0
39
0
210
0
220
0
230
1
0
LINE
5
8B
100
AcDbEntity
8
1
62
256
6
ByLayer
370
13
48
1
60
0
100
AcDbLine
10
37.099889
20
-14.98
30
0
11
41.088604
21
-14.98
31
0
39
0
210
0
220
0
230
1
0
LINE
5
8C
100
AcDbEntity
8
1
62
256
6
ByLayer
370
13
48
1
60
0
100
AcDbLine
10
37.099889
20
-15.02
30
0
11
41.088604
21
-15.02
31
0
39
0
210
0
220
0
230
1
0
LINE
5
8D
100
AcDbEntity
8
1
62
256
6
ByLayer
370
13
48
1
60
0
100
AcDbLine
10
37.099884
20
-15.210736
30
0
11
41.04999
21
-15.210736
31
0
39
0
210
0
220
0
230
1
0
LINE
5
8E
100
AcDbEntity
8
1
62
256
6
ByLayer
370
13
48
1
60
0
100
AcDbLine
10
37.099884
20
-14.789264
30
0
11
41.04999
21
-14.789264
31
0
39
0
210
0
220
0
230
1
0
LINE
5
8F
100
AcDbEntity
8
1
62
256
6
ByLayer
370
13
48
1
60
0
100
AcDbLine
10
40.270287
20
-14.572267
30
0
11
37.002145
21
-14.572267
31
0
39
0
210
0
220
0
230
1
0
LINE
5
90
100
AcDbEntity
8
1
62
256
6
ByLayer
370
13
48
1
60
0
100
AcDbLine
10
40.270287
20
-15.427733
30
0
11
37.002145
21
-15.427733
31
0
39
0
210
0
220
0
230
1
0
LINE
5
91
100
AcDbEntity
8
1
62
256
6
ByLayer
370
13
48
1
60
0
100
AcDbLine
10
39.582367
20
-14.516915
30
0
11
36.886737
21
-14.516915
31
0
39
0
210
0
220
0
230
1
0
LINE
5
92
100
AcDbEntity
8
1
62
256
6
ByLayer
370
13
48
1
60
0
100
AcDbLine
10
39.582367
20
-15.483085
30
0
11
36.886737
21
-15.483085
31
0
39
0
210
0
220
0
230
1
0
LINE
5
93
100
AcDbEntity
8
1
62
256
6
ByLayer
370
13
48
1
60
0
100
AcDbLine
10
36.849506
20
-14.486112
30
0
11
39.406526
21
-14.486112
31
0
39
0
210
0
220
0
230
1
0
LINE
5
94
100
AcDbEntity
8
1
62
256
6
ByLayer
370
13
48
1
60
0
100
AcDbLine
10
36.849506
20
-15.513888
30
0
11
39.406526
21
-15.513888
31
0
39
0
210
0
220
0
230
1
0
LINE
5
95
100
AcDbEntity
8
1
62
256
6
ByLayer
370
13
48
1
60
0
100
AcDbLine
10
39.095391
20
-15.605665
30
0
11
36.836822
21
-15.605665
31
0
39
0
210
0
220
0
230
1
0
LINE
5
96
100
AcDbEntity
8
1
62
256
6
ByLayer
370
13
48
1
60
0
100
AcDbLine
10
39.095391
20
-14.394335
30
0
11
36.836416
21
-14.394335
31
0
39
0
210
0
220
0
230
1
0
LINE
5
97
100
AcDbEntity
8
1
62
256
6
ByLayer
370
13
48
1
60
0
100
AcDbLine
10
39.00992
20
-15.649934
30
0
11
36.830747
21
-15.649934
31
0
39
0
210
0
220
0
230
1
0
LINE
5
98
100
AcDbEntity
8
1
62
256
6
ByLayer
370
13
48
1
60
0
100
AcDbLine
10
39.00992
20
-14.350066
30
0
11
36.830347
21
-14.350066
31
0
39
0
210
0
220
0
230
1
0
LINE
5
99
100
AcDbEntity
8
1
62
256
6
ByLayer
370
18
48
1
60
0
100
AcDbLine
10
37.711484
20
-12.4
30
0
11
36.521147
21
-12.4
31
0
39
0
210
0
220
0
230
1
0
LINE
5
9A
100
AcDbEntity
8
1
62
256
6
ByLayer
370
18
48
1
60
0
100
AcDbLine
10
37.711484
20
-17.6
30
0
11
36.521147
21
-17.6
31
0
39
0
210
0
220
0
230
1
0
LINE
5
9B
100
AcDbEntity
8
1
62
256
6
ByLayer
370
18
48
1
60
0
100
AcDbLine
10
22.956927
20
-17.921078
30
0
11
22.956927
21
-17.639559
31
0
39
0
210
0
220
0
230
1
0
LINE
5
9C
100
AcDbEntity
8
1
62
256
6
ByLayer
370
18
48
1
60
0
100
AcDbLine
10
25.632489
20
-17.832909
30
0
11
22.956927
21
-17.921078
31
0
39
0
210
0
220
0
230
1
0
LINE
5
9D
100
AcDbEntity
8
1
62
256
6
ByLayer
370
18
48
1
60
0
100
AcDbLine
10
25.632489
20
-17.832909
30
0
11
25.98008
21
-17.643605
31
0
39
0
210
0
220
0
230
1
0
LINE
5
9E
100
AcDbEntity
8
1
62
256
6
ByLayer
370
13
48
1
60
0
100
AcDbLine
10
37.711484
20
-17.358749
30
0
11
36.564754
21
-17.358749
31
0
39
0
210
0
220
0
230
1
0
LINE
5
9F
100
AcDbEntity
8
1
62
256
6
ByLayer
370
13
48
1
60
0
100
AcDbLine
10
37.718068
20
-17.341384
30
0
11
36.567942
21
-17.341384
31
0
39
0
210
0
220
0
230
1
0
LINE
5
A0
100
AcDbEntity
8
1
62
256
6
ByLayer
370
18
48
1
60
0
100
AcDbLine
10
39.00992
20
-14.350066
30
0
11
37.718066
21
-12.658618
31
0
39
0
210
0
220
0
230
1
0
LINE
5
A1
100
AcDbEntity
8
1
62
256
6
ByLayer
370
18
48
1
60
0
100
AcDbLine
10
39.406526
20
-14.486112
30
0
11
39.095391
21
-14.394335
31
0
39
0
210
0
220
0
230
1
0
LINE
5
A2
100
AcDbEntity
8
1
62
256
6
ByLayer
370
18
48
1
60
0
100
AcDbLine
10
41.088604
20
-14.98
30
0
11
41.088604
21
-15.02
31
0
39
0
210
0
220
0
230
1
0
LINE
5
A3
100
AcDbEntity
8
1
62
256
6
ByLayer
370
18
48
1
60
0
100
AcDbLine
10
39.406526
20
-15.513888
30
0
11
39.095391
21
-15.605665
31
0
39
0
210
0
220
0
230
1
0
LINE
5
A4
100
AcDbEntity
8
1
62
256
6
ByLayer
370
18
48
1
60
0
100
AcDbLine
10
39.00992
20
-15.649934
30
0
11
37.718066
21
-17.341382
31
0
39
0
210
0
220
0
230
1
0
LINE
5
A5
100
AcDbEntity
8
1
62
256
6
ByLayer
370
18
48
1
60
0
100
AcDbLine
10
37.711484
20
-17.358749
30
0
11
37.711484
21
-17.6
31
0
39
0
210
0
220
0
230
1
0
LINE
5
A6
100
AcDbEntity
8
1
62
256
6
ByLayer
370
18
48
1
60
0
100
AcDbLine
10
39.139855
20
-17.6
30
0
11
37.711484
21
-17.6
31
0
39
0
210
0
220
0
230
1
0
LINE
5
A7
100
AcDbEntity
8
1
62
256
6
ByLayer
370
18
48
1
60
0
100
AcDbLine
10
39.567511
20
-17.832909
30
0
11
39.139855
21
-17.6
31
0
39
0
210
0
220
0
230
1
0
LINE
5
A8
100
AcDbEntity
8
1
62
256
6
ByLayer
370
18
48
1
60
0
100
AcDbLine
10
39.567511
20
-17.832909
30
0
11
42.243073
21
-17.921078
31
0
39
0
210
0
220
0
230
1
0
LINE
5
A9
100
AcDbEntity
8
1
62
256
6
ByLayer
370
18
48
1
60
0
100
AcDbLine
10
42.243073
20
-17.921078
30
0
11
42.243073
21
-12.078922
31
0
39
0
210
0
220
0
230
1
0
LINE
5
AA
100
AcDbEntity
8
1
62
256
6
ByLayer
370
18
48
1
60
0
100
AcDbLine
10
39.567511
20
-12.167091
30
0
11
42.243073
21
-12.078922
31
0
39
0
210
0
220
0
230
1
0
LINE
5
AB
100
AcDbEntity
8
1
62
256
6
ByLayer
370
18
48
1
60
0
100
AcDbLine
10
39.567511
20
-12.167091
30
0
11
39.139855
21
-12.4
31
0
39
0
210
0
220
0
230
1
0
LINE
5
AC
100
AcDbEntity
8
1
62
256
6
ByLayer
370
18
48
1
60
0
100
AcDbLine
10
39.139855
20
-12.4
30
0
11
37.711484
21
-12.4
31
0
39
0
210
0
220
0
230
1
0
LINE
5
AD
100
AcDbEntity
8
1
62
256
6
ByLayer
370
18
48
1
60
0
100
AcDbLine
10
37.711484
20
-12.641251
30
0
11
37.711484
21
-12.4
31
0
39
0
210
0
220
0
230
1
0
LINE
5
AE
100
AcDbEntity
8
1
62
256
6
ByLayer
370
13
48
1
60
0
100
AcDbLine
10
37.718068
20
-12.658616
30
0
11
36.567942
21
-12.658616
31
0
39
0
210
0
220
0
230
1
0
LINE
5
AF
100
AcDbEntity
8
1
62
256
6
ByLayer
370
13
48
1
60
0
100
AcDbLine
10
37.711484
20
-12.641251
30
0
11
36.564754
21
-12.641251
31
0
39
0
210
0
220
0
230
1
0
LINE
5
B0
100
AcDbEntity
8
1
62
256
6
ByLayer
370
18
48
1
60
0
100
AcDbLine
10
11.476486
20
0.324981
30
0
11
9.863043
21
0.324981
31
0
39
0
210
0
220
0
230
1
0
LINE
5
B1
100
AcDbEntity
8
1
62
256
6
ByLayer
370
18
48
1
60
0
100
AcDbLine
10
11.592073
20
0.324981
30
0
11
11.476746
21
0.324981
31
0
39
0
210
0
220
0
230
1
0
LINE
5
B2
100
AcDbEntity
8
1
62
256
6
ByLayer
370
18
48
1
60
0
100
AcDbLine
10
44.1
20
-11.842782
30
0
11
44.1
21
-12.017391
31
0
39
0
210
0
220
0
230
1
0
LINE
5
B3
100
AcDbEntity
8
1
62
256
6
ByLayer
370
18
48
1
60
0
100
AcDbLine
10
36.084011
20
-9.163786
30
0
11
27.1
21
-9.163786
31
0
39
0
210
0
220
0
230
1
0
LINE
5
B4
100
AcDbEntity
8
1
62
256
6
ByLayer
370
18
48
1
60
0
100
AcDbLine
10
33.23867
20
-12.188417
30
0
11
35.437829
21
-12.188417
31
0
39
0
210
0
220
0
230
1
0
LINE
5
B5
100
AcDbEntity
8
1
62
256
6
ByLayer
370
18
48
1
60
0
100
AcDbLine
10
12.078907
20
0.324981
30
0
11
11.700309
21
0.324981
31
0
39
0
210
0
220
0
230
1
0
LINE
5
B6
100
AcDbEntity
8
1
62
256
6
ByLayer
370
18
48
1
60
0
100
AcDbLine
10
37.907458
20
-12.191277
30
0
11
39.523131
21
-12.191277
31
0
39
0
210
0
220
0
230
1
0
LINE
5
B7
100
AcDbEntity
8
1
62
256
6
ByLayer
370
18
48
1
60
0
100
AcDbLine
10
35.437661
20
-12.282253
30
0
11
35.437829
21
-12.188417
31
0
39
0
210
0
220
0
230
1
0
LINE
5
B8
100
AcDbEntity
8
1
62
256
6
ByLayer
370
18
48
1
60
0
100
AcDbLine
10
37.907085
20
-12.400036
30
0
11
37.907458
21
-12.191277
31
0
39
0
210
0
220
0
230
1
0
LINE
5
B9
100
AcDbEntity
8
1
62
256
6
ByLayer
370
18
48
1
60
0
100
AcDbLine
10
12.112448
20
0.25
30
0
11
10.085407
21
0.25
31
0
39
0
210
0
220
0
230
1
0
LINE
5
BA
100
AcDbEntity
8
1
62
256
6
ByLayer
370
18
48
1
60
0
100
AcDbLine
10
18.777518
20
0.324981
30
0
11
12.159145
21
0.324981
31
0
39
0
210
0
220
0
230
1
0
LINE
5
BB
100
AcDbEntity
8
1
62
256
6
ByLayer
370
18
48
1
60
0
100
AcDbLine
10
10.971714
20
-0.129904
30
0
11
19.287063
21
-0.129904
31
0
39
0
210
0
220
0
230
1
0
LINE
5
BC
100
AcDbEntity
8
1
62
256
6
ByLayer
370
13
48
1
60
0
100
AcDbLine
10
18.872922
20
0.249981
30
0
11
10.085505
21
0.249981
31
0
39
0
210
0
220
0
230
1
0
LINE
5
BD
100
AcDbEntity
8
1
62
256
6
ByLayer
370
13
48
1
60
0
100
AcDbLine
10
27.1
20
-9.163786
30
0
11
27.1
21
-11.736816
31
0
39
0
210
0
220
0
230
1
0
LINE
5
BE
100
AcDbEntity
8
1
62
256
6
ByLayer
370
18
48
1
60
0
100
AcDbLine
10
36.608056
20
-17.120716
30
0
11
36.512417
21
-17.648289
31
0
39
0
210
0
220
0
230
1
0
LINE
5
BF
100
AcDbEntity
8
1
62
256
6
ByLayer
370
18
48
1
60
0
100
AcDbLine
10
37.1
20
-14.725031
30
0
11
37.1
21
-15.274969
31
0
39
0
210
0
220
0
230
1
0
LINE
5
C0
100
AcDbEntity
8
1
62
256
6
ByLayer
370
18
48
1
60
0
100
AcDbLine
10
36.504703
20
-12.309158
30
0
11
36.608056
21
-12.879284
31
0
39
0
210
0
220
0
230
1
0
LINE
5
C1
100
AcDbEntity
8
1
62
256
6
ByLayer
370
18
48
1
60
0
100
AcDbLine
10
-11.914321
20
0.324981
30
0
11
-12.088254
21
0.324981
31
0
39
0
210
0
220
0
230
1
0
LINE
5
C2
100
AcDbEntity
8
1
62
256
6
ByLayer
370
18
48
1
60
0
100
AcDbLine
10
-17.500052
20
0.324981
30
0
11
-17.993925
21
0.324981
31
0
39
0
210
0
220
0
230
1
0
LINE
5
C3
100
AcDbEntity
8
1
62
256
6
ByLayer
370
13
48
1
60
0
100
AcDbLine
10
-17.635485
20
0.249981
30
0
11
-18.028729
21
0.249981
31
0
39
0
210
0
220
0
230
1
0
LINE
5
C4
100
AcDbEntity
8
1
62
256
6
ByLayer
370
13
48
1
60
0
100
AcDbLine
10
-18.473911
20
-0.394519
30
0
11
-18.581248
21
-0.394519
31
0
39
0
210
0
220
0
230
1
0
LINE
5
C5
100
AcDbEntity
8
1
62
256
6
ByLayer
370
18
48
1
60
0
100
AcDbLine
10
-13.533459
20
0.324981
30
0
11
-13.593357
21
0.324981
31
0
39
0
210
0
220
0
230
1
0
LINE
5
C6
100
AcDbEntity
8
1
62
256
6
ByLayer
370
18
48
1
60
0
100
AcDbLine
10
-16.786972
20
0.324981
30
0
11
-17.413473
21
0.324981
31
0
39
0
210
0
220
0
230
1
0
LINE
5
C7
100
AcDbEntity
8
1
62
256
6
ByLayer
370
13
48
1
60
0
100
AcDbLine
10
-16.939731
20
0.249981
30
0
11
-17.438264
21
0.249981
31
0
39
0
210
0
220
0
230
1
0
LINE
5
C8
100
AcDbEntity
8
1
62
256
6
ByLayer
370
13
48
1
60
0
100
AcDbLine
10
-17.842224
20
-0.394519
30
0
11
-17.977888
21
-0.394519
31
0
39
0
210
0
220
0
230
1
0
LINE
5
C9
100
AcDbEntity
8
1
62
256
6
ByLayer
370
18
48
1
60
0
100
AcDbLine
10
-15.90146
20
0.324981
30
0
11
-16.678631
21
0.324981
31
0
39
0
210
0
220
0
230
1
0
LINE
5
CA
100
AcDbEntity
8
1
62
256
6
ByLayer
370
13
48
1
60
0
100
AcDbLine
10
-16.07471
20
0.249981
30
0
11
-16.692843
21
0.249981
31
0
39
0
210
0
220
0
230
1
0
LINE
5
CB
100
AcDbEntity
8
1
62
256
6
ByLayer
370
13
48
1
60
0
100
AcDbLine
10
-17.055876
20
-0.394519
30
0
11
-17.223418
21
-0.394519
31
0
39
0
210
0
220
0
230
1
0
LINE
5
CC
100
AcDbEntity
8
1
62
256
6
ByLayer
370
18
48
1
60
0
100
AcDbLine
10
-14.812472
20
0.324981
30
0
11
-15.767828
21
0.324981
31
0
39
0
210
0
220
0
230
1
0
LINE
5
CD
100
AcDbEntity
8
1
62
256
6
ByLayer
370
13
48
1
60
0
100
AcDbLine
10
-15.011304
20
0.249981
30
0
11
-15.77051
21
0.249981
31
0
39
0
210
0
220
0
230
1
0
LINE
5
CE
100
AcDbEntity
8
1
62
256
6
ByLayer
370
13
48
1
60
0
100
AcDbLine
10
-16.09229
20
-0.394519
30
0
11
-16.296865
21
-0.394519
31
0
39
0
210
0
220
0
230
1
0
LINE
5
CF
100
AcDbEntity
8
1
62
256
6
ByLayer
370
18
48
1
60
0
100
AcDbLine
10
-13.593304
20
0.324981
30
0
11
-14.64828
21
0.324981
31
0
39
0
210
0
220
0
230
1
0
LINE
5
D0
100
AcDbEntity
8
1
62
256
6
ByLayer
370
13
48
1
60
0
100
AcDbLine
10
-13.703342
20
0.249981
30
0
11
-14.637861
21
0.249981
31
0
39
0
210
0
220
0
230
1
0
LINE
5
D1
100
AcDbEntity
8
1
62
256
6
ByLayer
370
13
48
1
60
0
100
AcDbLine
10
-14.917111
20
-0.394519
30
0
11
-15.166723
21
-0.394519
31
0
39
0
210
0
220
0
230
1
0
LINE
5
D2
100
AcDbEntity
8
1
62
256
6
ByLayer
370
18
48
1
60
0
100
AcDbLine
10
-12.088194
20
0.324981
30
0
11
-13.267245
21
0.324981
31
0
39
0
210
0
220
0
230
1
0
LINE
5
D3
100
AcDbEntity
8
1
62
256
6
ByLayer
370
13
48
1
60
0
100
AcDbLine
10
-12.071604
20
0.249981
30
0
11
-13.241033
21
0.249981
31
0
39
0
210
0
220
0
230
1
0
LINE
5
D4
100
AcDbEntity
8
1
62
256
6
ByLayer
370
18
48
1
60
0
100
AcDbLine
10
20
20
-0.675
30
0
11
13.932861
21
-0.675
31
0
39
0
210
0
220
0
230
1
0
LINE
5
D5
100
AcDbEntity
8
1
62
256
6
ByLayer
370
13
48
1
60
0
100
AcDbLine
10
-13.474849
20
-0.394519
30
0
11
-13.783002
21
-0.394519
31
0
39
0
210
0
220
0
230
1
0
LINE
5
D6
100
AcDbEntity
8
1
62
256
6
ByLayer
370
13
48
1
60
0
100
AcDbLine
10
20
20
-0.875
30
0
11
13.932861
21
-0.875
31
0
39
0
210
0
220
0
230
1
0
LINE
5
D7
100
AcDbEntity
8
1
62
256
6
ByLayer
370
18
48
1
60
0
100
AcDbLine
10
13.198176
20
-0.675
30
0
11
13.932861
21
-0.675
31
0
39
0
210
0
220
0
230
1
0
LINE
5
D8
100
AcDbEntity
8
1
62
256
6
ByLayer
370
18
48
1
60
0
100
AcDbLine
10
14.39618
20
-1.375
30
0
11
14.272209
21
-1.375
31
0
39
0
210
0
220
0
230
1
0
LINE
5
D9
100
AcDbEntity
8
1
62
256
6
ByLayer
370
18
48
1
60
0
100
AcDbLine
10
13.932861
20
-0.875
30
0
11
13.932861
21
-0.675
31
0
39
0
210
0
220
0
230
1
0
LINE
5
DA
100
AcDbEntity
8
1
62
256
6
ByLayer
370
18
48
1
60
0
100
AcDbLine
10
6.439659
20
-17.294653
30
0
11
6.439659
21
-17.088725
31
0
39
0
210
0
220
0
230
1
0
LINE
5
DB
100
AcDbEntity
8
1
62
256
6
ByLayer
370
18
48
1
60
0
100
AcDbLine
10
25.5
20
-1.375
30
0
11
21.384526
21
-1.375
31
0
39
0
210
0
220
0
230
1
0
LINE
5
DC
100
AcDbEntity
8
1
62
256
6
ByLayer
370
18
48
1
60
0
100
AcDbLine
10
33.6
20
-12.205128
30
0
11
33.6
21
-17.470755
31
0
39
0
210
0
220
0
230
1
0
LINE
5
DD
100
AcDbEntity
8
1
62
256
6
ByLayer
370
18
48
1
60
0
100
AcDbLine
10
25.5
20
-9.951933
30
0
11
25.5
21
-1.375
31
0
39
0
210
0
220
0
230
1
0
LINE
5
DE
100
AcDbEntity
8
1
62
256
6
ByLayer
370
18
48
1
60
0
100
AcDbLine
10
21.384526
20
-15.434619
30
0
11
21.384526
21
-10.984234
31
0
39
0
210
0
220
0
230
1
0
LINE
5
DF
100
AcDbEntity
8
1
62
256
6
ByLayer
370
18
48
1
60
0
100
AcDbLine
10
21.384526
20
-2.315766
30
0
11
21.384526
21
-1.375
31
0
39
0
210
0
220
0
230
1
0
LINE
5
E0
100
AcDbEntity
8
1
62
256
6
ByLayer
370
18
48
1
60
0
100
AcDbLine
10
14.39618
20
-1.375
30
0
11
21.384526
21
-1.375
31
0
39
0
210
0
220
0
230
1
0
LINE
5
E1
100
AcDbEntity
8
1
62
256
6
ByLayer
370
18
48
1
60
0
100
AcDbLine
10
14.39618
20
-1.375
30
0
11
14.39618
21
-15.434619
31
0
39
0
210
0
220
0
230
1
0
LINE
5
E2
100
AcDbEntity
8
1
62
256
6
ByLayer
370
18
48
1
60
0
100
AcDbLine
10
-9.758878
20
-15.341122
30
0
11
-7.681447
21
-17.418553
31
0
39
0
210
0
220
0
230
1
0
LINE
5
E3
100
AcDbEntity
8
1
62
256
6
ByLayer
370
18
48
1
60
0
100
AcDbLine
10
-9.594947
20
0.324981
30
0
11
-11.531153
21
0.324981
31
0
39
0
210
0
220
0
230
1
0
LINE
5
E4
100
AcDbEntity
8
1
62
256
6
ByLayer
370
13
48
1
60
0
100
AcDbLine
10
10.085459
20
0.249981
30
0
11
9.958064
21
0.249981
31
0
39
0
210
0
220
0
230
1
0
LINE
5
E5
100
AcDbEntity
8
1
62
256
6
ByLayer
370
13
48
1
60
0
100
AcDbLine
10
-9.957988
20
0.249981
30
0
11
-11.48403
21
0.249981
31
0
39
0
210
0
220
0
230
1
0
LINE
5
E6
100
AcDbEntity
8
1
62
256
6
ByLayer
370
13
48
1
60
0
100
AcDbLine
10
-11.667722
20
-0.394519
30
0
11
-12.058724
21
-0.394519
31
0
39
0
210
0
220
0
230
1
0
LINE
5
E7
100
AcDbEntity
8
1
62
256
6
ByLayer
370
18
48
1
60
0
100
AcDbLine
10
9.242033
20
0.324981
30
0
11
6.372959
21
0.324981
31
0
39
0
210
0
220
0
230
1
0
LINE
5
E8
100
AcDbEntity
8
1
62
256
6
ByLayer
370
18
48
1
60
0
100
AcDbLine
10
-6.372959
20
0.324981
30
0
11
-9.242033
21
0.324981
31
0
39
0
210
0
220
0
230
1
0
LINE
5
E9
100
AcDbEntity
8
1
62
256
6
ByLayer
370
13
48
1
60
0
100
AcDbLine
10
9.161928
20
0.249981
30
0
11
6.935866
21
0.249981
31
0
39
0
210
0
220
0
230
1
0
LINE
5
EA
100
AcDbEntity
8
1
62
256
6
ByLayer
370
13
48
1
60
0
100
AcDbLine
10
-6.935866
20
0.249981
30
0
11
-9.161928
21
0.249981
31
0
39
0
210
0
220
0
230
1
0
LINE
5
EB
100
AcDbEntity
8
1
62
256
6
ByLayer
370
13
48
1
60
0
100
AcDbLine
10
9.816033
20
-0.394519
30
0
11
9.284126
21
-0.394519
31
0
39
0
210
0
220
0
230
1
0
LINE
5
EC
100
AcDbEntity
8
1
62
256
6
ByLayer
370
13
48
1
60
0
100
AcDbLine
10
-9.284126
20
-0.394519
30
0
11
-9.816033
21
-0.394519
31
0
39
0
210
0
220
0
230
1
0
LINE
5
ED
100
AcDbEntity
8
1
62
256
6
ByLayer
370
18
48
1
60
0
100
AcDbLine
10
5.776059
20
0.324981
30
0
11
-5.776059
21
0.324981
31
0
39
0
210
0
220
0
230
1
0
LINE
5
EE
100
AcDbEntity
8
1
62
256
6
ByLayer
370
13
48
1
60
0
100
AcDbLine
10
5.612388
20
0.249981
30
0
11
-5.612388
21
0.249981
31
0
39
0
210
0
220
0
230
1
0
LINE
5
EF
100
AcDbEntity
8
1
62
256
6
ByLayer
370
13
48
1
60
0
100
AcDbLine
10
6.541878
20
-0.394519
30
0
11
5.63501
21
-0.394519
31
0
39
0
210
0
220
0
230
1
0
LINE
5
F0
100
AcDbEntity
8
1
62
256
6
ByLayer
370
13
48
1
60
0
100
AcDbLine
10
-5.63501
20
-0.394519
30
0
11
-6.541878
21
-0.394519
31
0
39
0
210
0
220
0
230
1
0
LINE
5
F1
100
AcDbEntity
8
1
62
256
6
ByLayer
370
18
48
1
60
0
100
AcDbLine
10
-19
20
-0.875
30
0
11
-19
21
-0.675
31
0
39
0
210
0
220
0
230
1
0
LINE
5
F2
100
AcDbEntity
8
1
62
256
6
ByLayer
370
18
48
1
60
0
100
AcDbLine
10
13.198251
20
-0.675
30
0
11
13.198251
21
-0.875
31
0
39
0
210
0
220
0
230
1
0
LINE
5
F3
100
AcDbEntity
8
1
62
256
6
ByLayer
370
18
48
1
60
0
100
AcDbLine
10
13.198251
20
-0.675
30
0
11
11.871309
21
-0.675
31
0
39
0
210
0
220
0
230
1
0
LINE
5
F4
100
AcDbEntity
8
1
62
256
6
ByLayer
370
18
48
1
60
0
100
AcDbLine
10
8.2521
20
-1.375
30
0
11
11.008951
21
-1.375
31
0
39
0
210
0
220
0
230
1
0
LINE
5
F5
100
AcDbEntity
8
1
62
256
6
ByLayer
370
18
48
1
60
0
100
AcDbLine
10
13.235223
20
-15.366636
30
0
11
13.235223
21
-1.10195
31
0
39
0
210
0
220
0
230
1
0
LINE
5
F6
100
AcDbEntity
8
1
62
256
6
ByLayer
370
13
48
1
60
0
100
AcDbLine
10
-19
20
-0.875
30
0
11
13.198251
21
-0.875
31
0
39
0
210
0
220
0
230
1
0
LINE
5
F7
100
AcDbEntity
8
1
62
256
6
ByLayer
370
18
48
1
60
0
100
AcDbLine
10
4.271709
20
-1.375
30
0
11
8.2521
21
-1.375
31
0
39
0
210
0
220
0
230
1
0
LINE
5
F8
100
AcDbEntity
8
1
62
256
6
ByLayer
370
18
48
1
60
0
100
AcDbLine
10
8.2521
20
-1.375
30
0
11
8.2521
21
-13.492891
31
0
39
0
210
0
220
0
230
1
0
LINE
5
F9
100
AcDbEntity
8
1
62
256
6
ByLayer
370
18
48
1
60
0
100
AcDbLine
10
-19
20
-1.092945
30
0
11
0
21
-1.092945
31
0
39
0
210
0
220
0
230
1
0
LINE
5
FA
100
AcDbEntity
8
1
62
256
6
ByLayer
370
18
48
1
60
0
100
AcDbLine
10
-19
20
-1.092945
30
0
11
-19
21
-6.1
31
0
39
0
210
0
220
0
230
1
0
LINE
5
FB
100
AcDbEntity
8
1
62
256
6
ByLayer
370
18
48
1
60
0
100
AcDbLine
10
-19
20
-6.1
30
0
11
-10.432508
21
-14.667492
31
0
39
0
210
0
220
0
230
1
0
LINE
5
FC
100
AcDbEntity
8
1
62
256
6
ByLayer
370
13
48
1
60
0
100
AcDbLine
10
0
20
-1.092945
30
0
11
0
21
-13.492891
31
0
39
0
210
0
220
0
230
1
0
LINE
5
FD
100
AcDbEntity
8
1
62
256
6
ByLayer
370
18
48
1
60
0
100
AcDbLine
10
-10.432508
20
-14.667492
30
0
11
-9.758951
21
-15.341049
31
0
39
0
210
0
220
0
230
1
0
LINE
5
FE
100
AcDbEntity
8
1
62
256
6
ByLayer
370
18
48
1
60
0
100
AcDbLine
10
-7.425
20
-17.675
30
0
11
-7.681447
21
-17.418553
31
0
39
0
210
0
220
0
230
1
0
LINE
5
FF
100
AcDbEntity
8
1
62
256
6
ByLayer
370
18
48
1
60
0
100
AcDbLine
10
22.65
20
-17.638842
30
0
11
21.35
21
-17.638842
31
0
39
0
210
0
220
0
230
1
0
LINE
5
100
100
AcDbEntity
8
1
62
256
6
ByLayer
370
18
48
1
60
0
100
AcDbLine
10
14.39618
20
-15.434619
30
0
11
21.384526
21
-15.434619
31
0
39
0
210
0
220
0
230
1
0
LINE
5
101
100
AcDbEntity
8
1
62
256
6
ByLayer
370
18
48
1
60
0
100
AcDbLine
10
0
20
-13.492891
30
0
11
8.2521
21
-13.492891
31
0
39
0
210
0
220
0
230
1
0
LINE
5
102
100
AcDbEntity
8
1
62
256
6
ByLayer
370
18
48
1
60
0
100
AcDbLine
10
-18.000019
20
0.324981
30
0
11
-17.993925
21
0.324981
31
0
39
0
210
0
220
0
230
1
0
LINE
5
103
100
AcDbEntity
8
1
62
256
6
ByLayer
370
18
48
1
60
0
100
AcDbLine
10
11.871309
20
-0.675
30
0
11
-19
21
-0.675
31
0
39
0
210
0
220
0
230
1
0
LINE
5
104
100
AcDbEntity
8
1
62
256
6
ByLayer
370
18
48
1
60
0
100
AcDbLine
10
9.242033
20
0.324981
30
0
11
9.595101
21
0.324981
31
0
39
0
210
0
220
0
230
1
0
LINE
5
105
100
AcDbEntity
8
1
62
256
6
ByLayer
370
18
48
1
60
0
100
AcDbLine
10
5.776059
20
0.324981
30
0
11
6.373247
21
0.324981
31
0
39
0
210
0
220
0
230
1
0
LINE
5
106
100
AcDbEntity
8
1
62
256
6
ByLayer
370
18
48
1
60
0
100
AcDbLine
10
-6.373247
20
0.324981
30
0
11
-5.776059
21
0.324981
31
0
39
0
210
0
220
0
230
1
0
LINE
5
107
100
AcDbEntity
8
1
62
256
6
ByLayer
370
18
48
1
60
0
100
AcDbLine
10
-9.595101
20
0.324981
30
0
11
-9.242033
21
0.324981
31
0
39
0
210
0
220
0
230
1
0
LINE
5
108
100
AcDbEntity
8
1
62
256
6
ByLayer
370
18
48
1
60
0
100
AcDbLine
10
-11.790405
20
0.324981
30
0
11
-11.531153
21
0.324981
31
0
39
0
210
0
220
0
230
1
0
LINE
5
109
100
AcDbEntity
8
1
62
256
6
ByLayer
370
18
48
1
60
0
100
AcDbLine
10
-13.470759
20
0.324981
30
0
11
-13.267245
21
0.324981
31
0
39
0
210
0
220
0
230
1
0
LINE
5
10A
100
AcDbEntity
8
1
62
256
6
ByLayer
370
18
48
1
60
0
100
AcDbLine
10
-14.812462
20
0.324981
30
0
11
-14.64828
21
0.324981
31
0
39
0
210
0
220
0
230
1
0
LINE
5
10B
100
AcDbEntity
8
1
62
256
6
ByLayer
370
18
48
1
60
0
100
AcDbLine
10
-15.901469
20
0.324981
30
0
11
-15.767828
21
0.324981
31
0
39
0
210
0
220
0
230
1
0
LINE
5
10C
100
AcDbEntity
8
1
62
256
6
ByLayer
370
18
48
1
60
0
100
AcDbLine
10
-16.787031
20
0.324981
30
0
11
-16.678631
21
0.324981
31
0
39
0
210
0
220
0
230
1
0
LINE
5
10D
100
AcDbEntity
8
1
62
256
6
ByLayer
370
18
48
1
60
0
100
AcDbLine
10
-17.50006
20
0.324981
30
0
11
-17.413473
21
0.324981
31
0
39
0
210
0
220
0
230
1
0
MTEXT
5
1AA
100
AcDbEntity
8
SK6
62
256
6
ByLayer
370
18
48
1
60
0
100
AcDbMText
10
-19.2645
20
-60.725803
30
0
210
0
220
0
230
1
1
\W0.7893;C2A-SL40-RGK18A-088GB
40
3.5
41
0
44
1.084337
50
0
71
7
72
5
7
iso_b_vert
0
DIMENSION
5
1AF
100
AcDbEntity
8
2
62
256
6
ByLayer
370
18
48
1
60
0
100
AcDbDimension
2
_U0
10
45.1
20
16.25
30
0
11
22.55
21
16.25
31
0
70
32
71
1
72
1
41
1
210
0
220
0
230
1
3
Standard
100
AcDbAlignedDimension
13
0
23
0
33
0
14
45.1
24
-18
34
0
50
0
100
AcDbRotatedDimension
1001
ACAD
1000
DSTYLE
1002
{
1070
   371
1070
    13
1070
   372
1070
    13
1070
   170
1070
     0
1070
   144
1040
1.0
1070
   277
1070
     2
1070
   284
1070
     8
1070
   278
1070
    46
1070
   146
1040
1.0
1070
   345
1005
16
1070
   347
1005
16
1070
   346
1005
16
1070
   344
1005
0
1070
   343
1005
0
1070
   172
1070
     1
1070
    76
1070
     0
1070
    75
1070
     0
1070
   282
1070
     0
1070
   281
1070
     0
1070
    71
1070
     0
1070
    74
1070
     0
1070
   279
1070
     0
1070
   173
1070
     1
1070
   340
1005
1AB
1070
   271
1070
     2
1070
   272
1070
     2
1070
    77
1070
     1
1070
    73
1070
     1
1070
   171
1070
     3
1070
   274
1070
     4
1070
   177
1070
     2
1070
   176
1070
     2
1070
   178
1070
     2
1070
    78
1070
     8
1070
    48
1040
-0.1
1070
    41
1040
3.5
1070
   147
1040
1.75
1070
    42
1040
1.5875
1070
    44
1040
2.0
1070
   140
1040
3.5
1002
}
1001
ACAD_DSTYLE_DIM_LINETYPE
1070
   380
1005
16
1001
ACAD_DSTYLE_DIM_EXT1_LINETYPE
1070
   381
1005
16
1001
ACAD_DSTYLE_DIM_EXT2_LINETYPE
1070
   382
1005
16
0
DIMENSION
5
1C9
100
AcDbEntity
8
2
62
256
6
ByLayer
370
18
48
1
60
0
100
AcDbDimension
2
_U1
10
45.1
20
8.25
30
0
11
36.1
21
8.25
31
0
70
32
71
1
72
1
41
1
210
0
220
0
230
1
3
Standard
100
AcDbAlignedDimension
13
27.1
23
-12.325
33
0
14
45.1
24
-18
34
0
50
0
100
AcDbRotatedDimension
1001
ACAD
1000
DSTYLE
1002
{
1070
   371
1070
    13
1070
   372
1070
    13
1070
   170
1070
     0
1070
   144
1040
1.0
1070
   277
1070
     2
1070
   284
1070
     8
1070
   278
1070
    46
1070
   146
1040
1.0
1070
   345
1005
16
1070
   347
1005
16
1070
   346
1005
16
1070
   344
1005
0
1070
   343
1005
0
1070
   172
1070
     1
1070
    76
1070
     0
1070
    75
1070
     0
1070
   282
1070
     0
1070
   281
1070
     0
1070
    71
1070
     0
1070
    74
1070
     0
1070
   279
1070
     0
1070
   173
1070
     1
1070
   340
1005
1AB
1070
   271
1070
     2
1070
   272
1070
     2
1070
    77
1070
     1
1070
    73
1070
     1
1070
   171
1070
     3
1070
   274
1070
     4
1070
   177
1070
     2
1070
   176
1070
     2
1070
   178
1070
     2
1070
    78
1070
     8
1070
    48
1040
-0.1
1070
    41
1040
3.5
1070
   147
1040
1.75
1070
    42
1040
1.5875
1070
    44
1040
2.0
1070
   140
1040
3.5
1002
}
1001
ACAD_DSTYLE_DIM_LINETYPE
1070
   380
1005
16
1001
ACAD_DSTYLE_DIM_EXT1_LINETYPE
1070
   381
1005
16
1001
ACAD_DSTYLE_DIM_EXT2_LINETYPE
1070
   382
1005
16
0
DIMENSION
5
1E1
100
AcDbEntity
8
2
62
256
6
ByLayer
370
18
48
1
60
0
100
AcDbDimension
2
_U2
10
69.85
20
0
30
0
11
69.85
21
-9
31
0
70
32
71
1
72
1
41
1
210
0
220
0
230
1
3
Standard
100
AcDbAlignedDimension
13
45.1
23
-18
33
0
14
0
24
0
34
0
50
90
100
AcDbRotatedDimension
1001
ACAD
1000
DSTYLE
1002
{
1070
   371
1070
    13
1070
   372
1070
    13
1070
   170
1070
     0
1070
   144
1040
1.0
1070
   277
1070
     2
1070
   284
1070
     8
1070
   278
1070
    46
1070
   146
1040
1.0
1070
   345
1005
16
1070
   347
1005
16
1070
   346
1005
16
1070
   344
1005
0
1070
   343
1005
0
1070
   172
1070
     1
1070
    76
1070
     0
1070
    75
1070
     0
1070
   282
1070
     0
1070
   281
1070
     0
1070
    71
1070
     0
1070
    74
1070
     0
1070
   279
1070
     0
1070
   173
1070
     1
1070
   340
1005
1AB
1070
   271
1070
     2
1070
   272
1070
     2
1070
    77
1070
     1
1070
    73
1070
     0
1070
   171
1070
     3
1070
   274
1070
     4
1070
   177
1070
     2
1070
   176
1070
     2
1070
   178
1070
     2
1070
    78
1070
     8
1070
    48
1040
-0.1
1070
    41
1040
3.5
1070
   147
1040
1.75
1070
    42
1040
1.5875
1070
    44
1040
2.0
1070
   140
1040
3.5
1002
}
1001
ACAD_DSTYLE_DIM_LINETYPE
1070
   380
1005
16
1001
ACAD_DSTYLE_DIM_EXT1_LINETYPE
1070
   381
1005
16
1001
ACAD_DSTYLE_DIM_EXT2_LINETYPE
1070
   382
1005
16
0
DIMENSION
5
1F9
100
AcDbEntity
8
2
62
256
6
ByLayer
370
18
48
1
60
0
100
AcDbDimension
2
_U3
10
56.85
20
-12
30
0
11
56.85
21
-15
31
0
70
32
71
1
72
1
41
1
210
0
220
0
230
1
3
Standard
100
AcDbAlignedDimension
13
45.1
23
-18
33
0
14
45.1
24
-12
34
0
50
90
100
AcDbRotatedDimension
1001
ACAD
1000
DSTYLE
1002
{
1070
   371
1070
    13
1070
   372
1070
    13
1070
   170
1070
     0
1070
   144
1040
1.0
1070
   277
1070
     2
1070
   284
1070
     8
1070
   278
1070
    46
1070
   146
1040
1.0
1070
   345
1005
16
1070
   347
1005
16
1070
   346
1005
16
1070
   344
1005
0
1070
   343
1005
0
1070
   172
1070
     1
1070
    76
1070
     0
1070
    75
1070
     0
1070
   282
1070
     0
1070
   281
1070
     0
1070
    71
1070
     0
1070
    74
1070
     0
1070
   279
1070
     0
1070
   173
1070
     1
1070
   340
1005
1AB
1070
   271
1070
     2
1070
   272
1070
     2
1070
    77
1070
     1
1070
    73
1070
     0
1070
   171
1070
     3
1070
   274
1070
     4
1070
   177
1070
     2
1070
   176
1070
     2
1070
   178
1070
     2
1070
    78
1070
     8
1070
    48
1040
-0.1
1070
    41
1040
3.5
1070
   147
1040
1.75
1070
    42
1040
1.5875
1070
    44
1040
2.0
1070
   140
1040
3.5
1002
}
1001
ACAD_DSTYLE_DIM_LINETYPE
1070
   380
1005
16
1001
ACAD_DSTYLE_DIM_EXT1_LINETYPE
1070
   381
1005
16
1001
ACAD_DSTYLE_DIM_EXT2_LINETYPE
1070
   382
1005
16
0
ENDSEC
0
SECTION
2
OBJECTS
0
DICTIONARY
5
27f
330
0
100
AcDbDictionary
280
0
281
1
3
ACAD_GROUP
350
280
3
ACAD_MLINESTYLE
350
281
0
DICTIONARY
5
280
330
0
100
AcDbDictionary
280
0
281
1
0
DICTIONARY
5
281
330
0
100
AcDbDictionary
280
0
281
1
3
Standard
350
18
0
MLINESTYLE
5
18
330
281
100
AcDbMlineStyle
2
Standard
70
0
3

62
256
51
90
52
90
71
2
49
-0.5
62
256
6
ByLayer
49
0.5
62
256
6
ByLayer
0
RASTERVARIABLES
5
270
330

100
AcDbRasterVariables
90
0
70
1
71
1
72
1
0
ENDSEC
0
EOF
