0
SECTION
2
HEADER
9
$ACADVER
1
AC1015
9
$DWGCODEPAGE
3
ANSI_1252
9
$HANDSEED
5
28b
9
$ANGBASE
50
0
9
$ANGDIR
70
0
9
$ATTMODE
70
1
9
$AUNITS
70
0
9
$AUPREC
70
0
9
$CECOLOR
62
256
9
$CELTSCALE
40
1
9
$CELTYPE
6
ByLayer
9
$CELWEIGHT
370
18
9
$CLAYER
8
0
9
$CMLJUST
70
0
9
$CMLSCALE
40
1
9
$CMLSTYLE
2
Standard
9
$DIMSTYLE
2
Standard
9
$TEXTSIZE
40
0.2
9
$TEXTSTYLE
7
Standard
9
$LUNITS
70
2
9
$LUPREC
70
4
9
$EXTNAMES
290
1
9
$INSUNITS
70
4
9
$LTSCALE
40
1
9
$LWDISPLAY
290
1
9
$PDMODE
70
0
9
$PDSIZE
40
0
9
$PLINEGEN
70
0
0
ENDSEC
0
SECTION
2
CLASSES
0
CLASS
1
RASTERVARIABLES
2
AcDbRasterVariables
3
ISM
90
0
280
0
281
0
0
ENDSEC
0
SECTION
2
TABLES
0
TABLE
2
VPORT
5
281
100
AcDbSymbolTable
0
VPORT
5
1
100
AcDbSymbolTableRecord
100
AcDbViewportTableRecord
2
*Active
70
0
10
0
20
0
11
1
21
1
12
-1
22
1
13
0
23
0
14
0.5
24
0.5
15
10
25
10
16
0
26
0
36
1
17
0
27
0
37
0
0
ENDTAB
0
TABLE
2
LTYPE
5
282
100
AcDbSymbolTable
0
LTYPE
5
14
100
AcDbSymbolTableRecord
100
AcDbLinetypeTableRecord
70
0
2
ByBlock
3

72
65
73
0
40
0
0
LTYPE
5
15
100
AcDbSymbolTableRecord
100
AcDbLinetypeTableRecord
70
0
2
ByLayer
3

72
65
73
0
40
0
0
LTYPE
5
16
100
AcDbSymbolTableRecord
100
AcDbLinetypeTableRecord
70
0
2
Continuous
3
Solid line
72
65
73
0
40
0
0
LTYPE
5
6E
100
AcDbSymbolTableRecord
100
AcDbLinetypeTableRecord
70
0
2
CENTER
3
____ _ ____ _ ____ _ ____
72
65
73
4
40
47.5
49
22
74
0
49
-8.5
74
0
49
8.5
74
0
49
-8.5
74
0
0
LTYPE
5
6F
100
AcDbSymbolTableRecord
100
AcDbLinetypeTableRecord
70
0
2
DASHED
3
__ __ __ __ __ __ __ __ __
72
65
73
2
40
25.72
49
12.86
74
0
49
-12.86
74
0
0
ENDTAB
0
TABLE
2
LAYER
5
283
100
AcDbSymbolTable
0
LAYER
5
10
100
AcDbSymbolTableRecord
100
AcDbLayerTableRecord
2
0
70
0
62
7
6
Continuous
290
1
370
-3
390
0
0
LAYER
5
71
100
AcDbSymbolTableRecord
100
AcDbLayerTableRecord
2
81
70
0
62
-3
6
Continuous
290
1
370
-3
390
0
0
LAYER
5
73
100
AcDbSymbolTableRecord
100
AcDbLayerTableRecord
2
80
70
0
62
-6
6
Continuous
290
1
370
-3
390
0
0
LAYER
5
75
100
AcDbSymbolTableRecord
100
AcDbLayerTableRecord
2
1
70
0
62
4
6
Continuous
290
1
370
-3
390
0
0
LAYER
5
1B1
100
AcDbSymbolTableRecord
100
AcDbLayerTableRecord
2
Defpoints
70
0
62
7
6
Continuous
290
0
370
-3
390
0
0
LAYER
5
1BE
100
AcDbSymbolTableRecord
100
AcDbLayerTableRecord
2
2
70
0
62
7
6
Continuous
290
1
370
-3
390
0
0
LAYER
5
270
100
AcDbSymbolTableRecord
100
AcDbLayerTableRecord
2
SK6
70
0
62
5
6
Continuous
290
1
370
-3
390
0
0
ENDTAB
0
TABLE
2
STYLE
5
284
100
AcDbSymbolTable
0
STYLE
5
11
100
AcDbSymbolTableRecord
100
AcDbTextStyleTableRecord
2
Standard
3
txt
70
0
71
0
40
0
41
1
42
0
50
0
0
STYLE
5
1AA
100
AcDbSymbolTableRecord
100
AcDbTextStyleTableRecord
2
iso_b_vert
3
simplex.shx
70
0
71
0
40
0
41
1
42
0
50
0
0
STYLE
5
1AB
100
AcDbSymbolTableRecord
100
AcDbTextStyleTableRecord
2
DWGDirectTextStyle
3
simplex
70
0
71
0
40
0
41
1
42
0
50
0
0
ENDTAB
0
TABLE
2
DIMSTYLE
5
285
100
AcDbSymbolTable
100
AcDbDimStyleTable
0
DIMSTYLE
105
27
100
AcDbSymbolTableRecord
100
AcDbDimStyleTableRecord
2
Standard
70
0
3
<>
41
0.18
42
0.0625
44
0.18
140
0.18
147
0.09
73
0
74
0
77
1
271
2
275
0
278
52
280
0
340
11
0
ENDTAB
0
TABLE
2
VIEW
5
286
100
AcDbSymbolTable
0
ENDTAB
0
TABLE
2
UCS
5
287
100
AcDbSymbolTable
0
ENDTAB
0
TABLE
2
APPID
5
288
100
AcDbSymbolTable
0
APPID
5
12
100
AcDbSymbolTableRecord
100
AcDbRegAppTableRecord
2
ACAD
70
0
0
APPID
5
1AD
100
AcDbSymbolTableRecord
100
AcDbRegAppTableRecord
2
ACAD_DSTYLE_DIMBREAK
70
0
0
APPID
5
22F
100
AcDbSymbolTableRecord
100
AcDbRegAppTableRecord
2
ACAD_DSTYLE_DIM_LINETYPE
70
0
0
APPID
5
230
100
AcDbSymbolTableRecord
100
AcDbRegAppTableRecord
2
ACAD_DSTYLE_DIM_EXT1_LINETYPE
70
0
0
APPID
5
231
100
AcDbSymbolTableRecord
100
AcDbRegAppTableRecord
2
ACAD_DSTYLE_DIM_EXT2_LINETYPE
70
0
0
APPID
5
26C
100
AcDbSymbolTableRecord
100
AcDbRegAppTableRecord
2
ACAD_MLEADERVER
70
0
0
ENDTAB
0
TABLE
2
BLOCK_RECORD
5
289
100
AcDbSymbolTable
0
BLOCK_RECORD
5
1F
100
AcDbSymbolTableRecord
100
AcDbBlockTableRecord
2
*Model_Space
340
0
70
0
0
BLOCK_RECORD
5
1B
100
AcDbSymbolTableRecord
100
AcDbBlockTableRecord
2
*Paper_Space
340
0
70
0
0
BLOCK_RECORD
5
23
100
AcDbSymbolTableRecord
100
AcDbBlockTableRecord
2
*Paper_Space0
340
0
70
0
0
BLOCK_RECORD
5
1B2
100
AcDbSymbolTableRecord
100
AcDbBlockTableRecord
2
*D1
340
0
70
0
0
BLOCK_RECORD
5
1BF
100
AcDbSymbolTableRecord
100
AcDbBlockTableRecord
2
_U0
340
0
70
0
0
BLOCK_RECORD
5
1CB
100
AcDbSymbolTableRecord
100
AcDbBlockTableRecord
2
*D3
340
0
70
0
0
BLOCK_RECORD
5
1D7
100
AcDbSymbolTableRecord
100
AcDbBlockTableRecord
2
_U1
340
0
70
0
0
BLOCK_RECORD
5
1E3
100
AcDbSymbolTableRecord
100
AcDbBlockTableRecord
2
*D5
340
0
70
0
0
BLOCK_RECORD
5
1EF
100
AcDbSymbolTableRecord
100
AcDbBlockTableRecord
2
_U2
340
0
70
0
0
BLOCK_RECORD
5
1FB
100
AcDbSymbolTableRecord
100
AcDbBlockTableRecord
2
*D7
340
0
70
0
0
BLOCK_RECORD
5
208
100
AcDbSymbolTableRecord
100
AcDbBlockTableRecord
2
_U3
340
0
70
0
0
ENDTAB
0
ENDSEC
0
SECTION
2
BLOCKS
0
BLOCK
5
20
100
AcDbEntity
8
0
100
AcDbBlockBegin
2
*Model_Space
70
0
10
0
20
0
30
0
3
*Model_Space
0
ENDBLK
5
21
100
AcDbEntity
8
0
100
AcDbBlockEnd
0
BLOCK
5
1C
100
AcDbEntity
8
0
100
AcDbBlockBegin
2
*Paper_Space
70
0
10
0
20
0
30
0
3
*Paper_Space
0
ENDBLK
5
1D
100
AcDbEntity
8
0
100
AcDbBlockEnd
0
BLOCK
5
24
100
AcDbEntity
8
0
100
AcDbBlockBegin
2
*Paper_Space0
70
0
10
0
20
0
30
0
3
*Paper_Space0
0
ENDBLK
5
25
100
AcDbEntity
8
0
100
AcDbBlockEnd
0
BLOCK
5
1B3
100
AcDbEntity
8
0
100
AcDbBlockBegin
2
*D1
70
1
10
0
20
0
30
0
3
*D1
0
LINE
5
1B5
100
AcDbEntity
8
0
62
256
6
ByLayer
370
-2
48
1
60
0
100
AcDbLine
10
0
20
-1.5875
30
0
11
0
21
-21.75
31
0
39
0
210
0
220
0
230
1
0
LINE
5
1B6
100
AcDbEntity
8
0
62
256
6
ByLayer
370
-2
48
1
60
0
100
AcDbLine
10
45.1
20
16.4125
30
0
11
45.1
21
-21.75
31
0
39
0
210
0
220
0
230
1
0
LINE
5
1B7
100
AcDbEntity
8
0
62
256
6
ByLayer
370
-2
48
1
60
0
100
AcDbLine
10
3.5
20
-19.75
30
0
11
41.6
21
-19.75
31
0
39
0
210
0
220
0
230
1
0
SOLID
5
1B8
100
AcDbEntity
8
0
62
256
6
ByLayer
370
-1
48
1
60
0
100
AcDbTrace
10
3.5
20
-19.166667
30
0
11
3.5
21
-20.333333
31
0
12
0
22
-19.75
32
0
13
0
23
-19.75
33
0
39
0
210
0
220
0
230
1
0
SOLID
5
1B9
100
AcDbEntity
8
0
62
256
6
ByLayer
370
-1
48
1
60
0
100
AcDbTrace
10
41.6
20
-20.333333
30
0
11
41.6
21
-19.166667
31
0
12
45.1
22
-19.75
32
0
13
45.1
23
-19.75
33
0
39
0
210
0
220
0
230
1
0
MTEXT
5
1BA
100
AcDbEntity
8
0
62
256
6
ByLayer
370
18
48
1
60
0
100
AcDbMText
10
22.55
20
-12.75
30
0
210
0
220
0
230
1
1
\A1;45.1
40
3.5
41
0
44
1
50
0
71
5
72
5
7
iso_b_vert
0
POINT
5
1BB
100
AcDbEntity
8
Defpoints
62
0
6
ByLayer
370
-1
48
1
60
0
100
AcDbPoint
10
0
20
0
30
0
39
0
210
0
220
0
230
1
50
360
0
POINT
5
1BC
100
AcDbEntity
8
Defpoints
62
0
6
ByLayer
370
-1
48
1
60
0
100
AcDbPoint
10
45.1
20
18
30
0
39
0
210
0
220
0
230
1
50
360
0
POINT
5
1BD
100
AcDbEntity
8
Defpoints
62
0
6
ByLayer
370
-1
48
1
60
0
100
AcDbPoint
10
45.1
20
-19.75
30
0
39
0
210
0
220
0
230
1
50
360
0
ENDBLK
5
1B4
100
AcDbEntity
8
0
100
AcDbBlockEnd
0
BLOCK
5
1C6
100
AcDbEntity
8
0
100
AcDbBlockBegin
2
_U0
70
0
10
0
20
0
30
0
3
_U0
0
MTEXT
5
1C0
100
AcDbEntity
8
2
62
256
6
ByLayer
370
18
48
1
60
0
100
AcDbMText
10
18.881467
20
-18.717366
30
0
210
0
220
0
230
1
1
\W0.7531;45.1
40
3.5
41
0
44
1.084337
50
0
71
7
72
5
7
iso_b_vert
0
LINE
5
1C1
100
AcDbEntity
8
2
62
256
6
ByLayer
370
13
48
1
60
0
100
AcDbLine
10
0
20
-1.5875
30
0
11
0
21
-21.75
31
0
39
0
210
0
220
0
230
1
0
LINE
5
1C2
100
AcDbEntity
8
2
62
256
6
ByLayer
370
13
48
1
60
0
100
AcDbLine
10
45.1
20
16.4125
30
0
11
45.1
21
-21.75
31
0
39
0
210
0
220
0
230
1
0
LINE
5
1C3
100
AcDbEntity
8
2
62
256
6
ByLayer
370
13
48
1
60
0
100
AcDbLine
10
0
20
-19.75
30
0
11
45.1
21
-19.75
31
0
39
0
210
0
220
0
230
1
0
SOLID
5
1C4
100
AcDbEntity
8
2
62
256
6
ByLayer
370
18
48
1
60
0
100
AcDbTrace
10
0
20
-19.75
30
0
11
3.499998
21
-19.289216
31
0
12
3.500002
22
-20.210784
32
0
13
3.500002
23
-20.210784
33
0
39
0
210
0
220
0
230
1
0
SOLID
5
1C5
100
AcDbEntity
8
2
62
256
6
ByLayer
370
18
48
1
60
0
100
AcDbTrace
10
45.1
20
-19.75
30
0
11
41.600002
21
-20.210784
31
0
12
41.599998
22
-19.289216
32
0
13
41.599998
23
-19.289216
33
0
39
0
210
0
220
0
230
1
0
ENDBLK
5
1C7
100
AcDbEntity
8
0
100
AcDbBlockEnd
0
BLOCK
5
1CC
100
AcDbEntity
8
0
100
AcDbBlockBegin
2
*D3
70
1
10
0
20
0
30
0
3
*D3
0
LINE
5
1CE
100
AcDbEntity
8
0
62
256
6
ByLayer
370
-2
48
1
60
0
100
AcDbLine
10
27.1
20
10.7375
30
0
11
27.1
21
-13.75
31
0
39
0
210
0
220
0
230
1
0
LINE
5
1CF
100
AcDbEntity
8
0
62
256
6
ByLayer
370
-2
48
1
60
0
100
AcDbLine
10
45.1
20
16.4125
30
0
11
45.1
21
-13.75
31
0
39
0
210
0
220
0
230
1
0
LINE
5
1D0
100
AcDbEntity
8
0
62
256
6
ByLayer
370
-2
48
1
60
0
100
AcDbLine
10
30.6
20
-11.75
30
0
11
41.6
21
-11.75
31
0
39
0
210
0
220
0
230
1
0
SOLID
5
1D1
100
AcDbEntity
8
0
62
256
6
ByLayer
370
-1
48
1
60
0
100
AcDbTrace
10
30.6
20
-11.166667
30
0
11
30.6
21
-12.333333
31
0
12
27.1
22
-11.75
32
0
13
27.1
23
-11.75
33
0
39
0
210
0
220
0
230
1
0
SOLID
5
1D2
100
AcDbEntity
8
0
62
256
6
ByLayer
370
-1
48
1
60
0
100
AcDbTrace
10
41.6
20
-12.333333
30
0
11
41.6
21
-11.166667
31
0
12
45.1
22
-11.75
32
0
13
45.1
23
-11.75
33
0
39
0
210
0
220
0
230
1
0
MTEXT
5
1D3
100
AcDbEntity
8
0
62
256
6
ByLayer
370
18
48
1
60
0
100
AcDbMText
10
36.1
20
-4.75
30
0
210
0
220
0
230
1
1
\A1;18
40
3.5
41
0
44
1
50
0
71
5
72
5
7
iso_b_vert
0
POINT
5
1D4
100
AcDbEntity
8
Defpoints
62
0
6
ByLayer
370
-1
48
1
60
0
100
AcDbPoint
10
27.1
20
12.325
30
0
39
0
210
0
220
0
230
1
50
360
0
POINT
5
1D5
100
AcDbEntity
8
Defpoints
62
0
6
ByLayer
370
-1
48
1
60
0
100
AcDbPoint
10
45.1
20
18
30
0
39
0
210
0
220
0
230
1
50
360
0
POINT
5
1D6
100
AcDbEntity
8
Defpoints
62
0
6
ByLayer
370
-1
48
1
60
0
100
AcDbPoint
10
45.1
20
-11.75
30
0
39
0
210
0
220
0
230
1
50
360
0
ENDBLK
5
1CD
100
AcDbEntity
8
0
100
AcDbBlockEnd
0
BLOCK
5
1DE
100
AcDbEntity
8
0
100
AcDbBlockBegin
2
_U1
70
0
10
0
20
0
30
0
3
_U1
0
MTEXT
5
1D8
100
AcDbEntity
8
2
62
256
6
ByLayer
370
18
48
1
60
0
100
AcDbMText
10
34.632467
20
-10.717366
30
0
210
0
220
0
230
1
1
\W0.5321;18
40
3.5
41
0
44
1.084337
50
0
71
7
72
5
7
iso_b_vert
0
LINE
5
1D9
100
AcDbEntity
8
2
62
256
6
ByLayer
370
13
48
1
60
0
100
AcDbLine
10
27.1
20
10.7375
30
0
11
27.1
21
-13.75
31
0
39
0
210
0
220
0
230
1
0
LINE
5
1DA
100
AcDbEntity
8
2
62
256
6
ByLayer
370
13
48
1
60
0
100
AcDbLine
10
45.1
20
16.4125
30
0
11
45.1
21
-13.75
31
0
39
0
210
0
220
0
230
1
0
LINE
5
1DB
100
AcDbEntity
8
2
62
256
6
ByLayer
370
13
48
1
60
0
100
AcDbLine
10
27.1
20
-11.75
30
0
11
45.1
21
-11.75
31
0
39
0
210
0
220
0
230
1
0
SOLID
5
1DC
100
AcDbEntity
8
2
62
256
6
ByLayer
370
18
48
1
60
0
100
AcDbTrace
10
27.1
20
-11.75
30
0
11
30.599998
21
-11.289216
31
0
12
30.600002
22
-12.210784
32
0
13
30.600002
23
-12.210784
33
0
39
0
210
0
220
0
230
1
0
SOLID
5
1DD
100
AcDbEntity
8
2
62
256
6
ByLayer
370
18
48
1
60
0
100
AcDbTrace
10
45.1
20
-11.75
30
0
11
41.600002
21
-12.210784
31
0
12
41.599998
22
-11.289216
32
0
13
41.599998
23
-11.289216
33
0
39
0
210
0
220
0
230
1
0
ENDBLK
5
1DF
100
AcDbEntity
8
0
100
AcDbBlockEnd
0
BLOCK
5
1E4
100
AcDbEntity
8
0
100
AcDbBlockBegin
2
*D5
70
1
10
0
20
0
30
0
3
*D5
0
LINE
5
1E6
100
AcDbEntity
8
0
62
256
6
ByLayer
370
-2
48
1
60
0
100
AcDbLine
10
46.6875
20
18
30
0
11
71.85
21
18
31
0
39
0
210
0
220
0
230
1
0
LINE
5
1E7
100
AcDbEntity
8
0
62
256
6
ByLayer
370
-2
48
1
60
0
100
AcDbLine
10
1.5875
20
0
30
0
11
71.85
21
0
31
0
39
0
210
0
220
0
230
1
0
LINE
5
1E8
100
AcDbEntity
8
0
62
256
6
ByLayer
370
-2
48
1
60
0
100
AcDbLine
10
69.85
20
14.5
30
0
11
69.85
21
3.5
31
0
39
0
210
0
220
0
230
1
0
SOLID
5
1E9
100
AcDbEntity
8
0
62
256
6
ByLayer
370
-1
48
1
60
0
100
AcDbTrace
10
70.433333
20
14.5
30
0
11
69.266667
21
14.5
31
0
12
69.85
22
18
32
0
13
69.85
23
18
33
0
39
0
210
0
220
0
230
1
0
SOLID
5
1EA
100
AcDbEntity
8
0
62
256
6
ByLayer
370
-1
48
1
60
0
100
AcDbTrace
10
69.266667
20
3.5
30
0
11
70.433333
21
3.5
31
0
12
69.85
22
0
32
0
13
69.85
23
0
33
0
39
0
210
0
220
0
230
1
0
MTEXT
5
1EB
100
AcDbEntity
8
0
62
256
6
ByLayer
370
18
48
1
60
0
100
AcDbMText
10
62.85
20
9
30
0
210
0
220
0
230
1
1
\A1;18
40
3.5
41
0
44
1
50
90
71
5
72
5
7
iso_b_vert
0
POINT
5
1EC
100
AcDbEntity
8
Defpoints
62
0
6
ByLayer
370
-1
48
1
60
0
100
AcDbPoint
10
45.1
20
18
30
0
39
0
210
0
220
0
230
1
50
360
0
POINT
5
1ED
100
AcDbEntity
8
Defpoints
62
0
6
ByLayer
370
-1
48
1
60
0
100
AcDbPoint
10
0
20
0
30
0
39
0
210
0
220
0
230
1
50
360
0
POINT
5
1EE
100
AcDbEntity
8
Defpoints
62
0
6
ByLayer
370
-1
48
1
60
0
100
AcDbPoint
10
69.85
20
0
30
0
39
0
210
0
220
0
230
1
50
360
0
ENDBLK
5
1E5
100
AcDbEntity
8
0
100
AcDbBlockEnd
0
BLOCK
5
1F6
100
AcDbEntity
8
0
100
AcDbBlockBegin
2
_U2
70
0
10
0
20
0
30
0
3
_U2
0
MTEXT
5
1F0
100
AcDbEntity
8
2
62
256
6
ByLayer
370
18
48
1
60
0
100
AcDbMText
10
69.160366
20
7.504467
30
0
210
0
220
0
230
1
1
\W0.5321;18
40
3.5
41
0
44
1.084337
50
90
71
7
72
5
7
iso_b_vert
0
LINE
5
1F1
100
AcDbEntity
8
2
62
256
6
ByLayer
370
13
48
1
60
0
100
AcDbLine
10
46.6875
20
18
30
0
11
71.85
21
18
31
0
39
0
210
0
220
0
230
1
0
LINE
5
1F2
100
AcDbEntity
8
2
62
256
6
ByLayer
370
13
48
1
60
0
100
AcDbLine
10
1.5875
20
0
30
0
11
71.85
21
0
31
0
39
0
210
0
220
0
230
1
0
LINE
5
1F3
100
AcDbEntity
8
2
62
256
6
ByLayer
370
13
48
1
60
0
100
AcDbLine
10
69.85
20
18
30
0
11
69.85
21
0
31
0
39
0
210
0
220
0
230
1
0
SOLID
5
1F4
100
AcDbEntity
8
2
62
256
6
ByLayer
370
18
48
1
60
0
100
AcDbTrace
10
69.85
20
18
30
0
11
70.310784
21
14.500002
31
0
12
69.389216
22
14.499998
32
0
13
69.389216
23
14.499998
33
0
39
0
210
0
220
0
230
1
0
SOLID
5
1F5
100
AcDbEntity
8
2
62
256
6
ByLayer
370
18
48
1
60
0
100
AcDbTrace
10
69.85
20
0
30
0
11
69.389216
21
3.499998
31
0
12
70.310784
22
3.500002
32
0
13
70.310784
23
3.500002
33
0
39
0
210
0
220
0
230
1
0
ENDBLK
5
1F7
100
AcDbEntity
8
0
100
AcDbBlockEnd
0
BLOCK
5
1FC
100
AcDbEntity
8
0
100
AcDbBlockBegin
2
*D7
70
1
10
0
20
0
30
0
3
*D7
0
LINE
5
1FE
100
AcDbEntity
8
0
62
256
6
ByLayer
370
-2
48
1
60
0
100
AcDbLine
10
46.6875
20
18
30
0
11
58.85
21
18
31
0
39
0
210
0
220
0
230
1
0
LINE
5
1FF
100
AcDbEntity
8
0
62
256
6
ByLayer
370
-2
48
1
60
0
100
AcDbLine
10
46.6875
20
12
30
0
11
58.85
21
12
31
0
39
0
210
0
220
0
230
1
0
LINE
5
200
100
AcDbEntity
8
0
62
256
6
ByLayer
370
-2
48
1
60
0
100
AcDbLine
10
56.85
20
21.5
30
0
11
56.85
21
25
31
0
39
0
210
0
220
0
230
1
0
LINE
5
201
100
AcDbEntity
8
0
62
256
6
ByLayer
370
-2
48
1
60
0
100
AcDbLine
10
56.85
20
8.5
30
0
11
56.85
21
5
31
0
39
0
210
0
220
0
230
1
0
SOLID
5
202
100
AcDbEntity
8
0
62
256
6
ByLayer
370
-1
48
1
60
0
100
AcDbTrace
10
56.266667
20
21.5
30
0
11
57.433333
21
21.5
31
0
12
56.85
22
18
32
0
13
56.85
23
18
33
0
39
0
210
0
220
0
230
1
0
SOLID
5
203
100
AcDbEntity
8
0
62
256
6
ByLayer
370
-1
48
1
60
0
100
AcDbTrace
10
57.433333
20
8.5
30
0
11
56.266667
21
8.5
31
0
12
56.85
22
12
32
0
13
56.85
23
12
33
0
39
0
210
0
220
0
230
1
0
MTEXT
5
204
100
AcDbEntity
8
0
62
256
6
ByLayer
370
18
48
1
60
0
100
AcDbMText
10
49.85
20
15
30
0
210
0
220
0
230
1
1
\A1;6
40
3.5
41
0
44
1
50
90
71
5
72
5
7
iso_b_vert
0
POINT
5
205
100
AcDbEntity
8
Defpoints
62
0
6
ByLayer
370
-1
48
1
60
0
100
AcDbPoint
10
45.1
20
18
30
0
39
0
210
0
220
0
230
1
50
360
0
POINT
5
206
100
AcDbEntity
8
Defpoints
62
0
6
ByLayer
370
-1
48
1
60
0
100
AcDbPoint
10
45.1
20
12
30
0
39
0
210
0
220
0
230
1
50
360
0
POINT
5
207
100
AcDbEntity
8
Defpoints
62
0
6
ByLayer
370
-1
48
1
60
0
100
AcDbPoint
10
56.85
20
12
30
0
39
0
210
0
220
0
230
1
50
360
0
ENDBLK
5
1FD
100
AcDbEntity
8
0
100
AcDbBlockEnd
0
BLOCK
5
20F
100
AcDbEntity
8
0
100
AcDbBlockBegin
2
_U3
70
0
10
0
20
0
30
0
3
_U3
0
MTEXT
5
209
100
AcDbEntity
8
2
62
256
6
ByLayer
370
18
48
1
60
0
100
AcDbMText
10
56.160366
20
14.374767
30
0
210
0
220
0
230
1
1
\W0.5404;6
40
3.5
41
0
44
1.084337
50
90
71
7
72
5
7
iso_b_vert
0
LINE
5
20A
100
AcDbEntity
8
2
62
256
6
ByLayer
370
13
48
1
60
0
100
AcDbLine
10
46.6875
20
18
30
0
11
58.85
21
18
31
0
39
0
210
0
220
0
230
1
0
LINE
5
20B
100
AcDbEntity
8
2
62
256
6
ByLayer
370
13
48
1
60
0
100
AcDbLine
10
46.6875
20
12
30
0
11
58.85
21
12
31
0
39
0
210
0
220
0
230
1
0
LINE
5
20C
100
AcDbEntity
8
2
62
256
6
ByLayer
370
13
48
1
60
0
100
AcDbLine
10
56.85
20
26.75
30
0
11
56.85
21
3.25
31
0
39
0
210
0
220
0
230
1
0
SOLID
5
20D
100
AcDbEntity
8
2
62
256
6
ByLayer
370
18
48
1
60
0
100
AcDbTrace
10
56.85
20
18
30
0
11
56.389216
21
21.499998
31
0
12
57.310784
22
21.500002
32
0
13
57.310784
23
21.500002
33
0
39
0
210
0
220
0
230
1
0
SOLID
5
20E
100
AcDbEntity
8
2
62
256
6
ByLayer
370
18
48
1
60
0
100
AcDbTrace
10
56.85
20
12
30
0
11
57.310784
21
8.500002
31
0
12
56.389216
22
8.499998
32
0
13
56.389216
23
8.499998
33
0
39
0
210
0
220
0
230
1
0
ENDBLK
5
210
100
AcDbEntity
8
0
100
AcDbBlockEnd
0
ENDSEC
0
SECTION
2
ENTITIES
0
ARC
5
10D
100
AcDbEntity
8
1
62
256
6
ByLayer
370
18
48
1
60
0
100
AcDbCircle
39
0
10
20.5
20
0.875
30
0
40
0.5
210
0
220
0
230
1
100
AcDbArc
50
90
51
180
0
ARC
5
10E
100
AcDbEntity
8
1
62
256
6
ByLayer
370
18
48
1
60
0
100
AcDbCircle
39
0
10
20
20
6.65
30
0
40
4.55
210
0
220
0
230
1
100
AcDbArc
50
287.715535
51
72.284465
0
ARC
5
10F
100
AcDbEntity
8
1
62
256
6
ByLayer
370
18
48
1
60
0
100
AcDbCircle
39
0
10
20
20
6.65
30
0
40
4.55
210
0
220
0
230
1
100
AcDbArc
50
72.284465
51
287.715535
0
ARC
5
110
100
AcDbEntity
8
1
62
256
6
ByLayer
370
18
48
1
60
0
100
AcDbCircle
39
0
10
20
20
6.65
30
0
40
1.416
210
0
220
0
230
1
100
AcDbArc
50
6.192438
51
60.190711
0
ARC
5
111
100
AcDbEntity
8
1
62
256
6
ByLayer
370
18
48
1
60
0
100
AcDbCircle
39
0
10
20
20
6.65
30
0
40
1.416
210
0
220
0
230
1
100
AcDbArc
50
60.190711
51
119.809289
0
ARC
5
112
100
AcDbEntity
8
1
62
256
6
ByLayer
370
18
48
1
60
0
100
AcDbCircle
39
0
10
20
20
6.65
30
0
40
1.416
210
0
220
0
230
1
100
AcDbArc
50
119.809289
51
173.807562
0
ARC
5
113
100
AcDbEntity
8
1
62
256
6
ByLayer
370
18
48
1
60
0
100
AcDbCircle
39
0
10
20
20
6.65
30
0
40
1.416
210
0
220
0
230
1
100
AcDbArc
50
299.809289
51
353.807562
0
ARC
5
114
100
AcDbEntity
8
1
62
256
6
ByLayer
370
18
48
1
60
0
100
AcDbCircle
39
0
10
20
20
6.65
30
0
40
1.416
210
0
220
0
230
1
100
AcDbArc
50
186.192438
51
240.190711
0
ARC
5
115
100
AcDbEntity
8
1
62
256
6
ByLayer
370
18
48
1
60
0
100
AcDbCircle
39
0
10
20
20
6.65
30
0
40
1.416
210
0
220
0
230
1
100
AcDbArc
50
240.190711
51
299.809289
0
ARC
5
118
100
AcDbEntity
8
1
62
256
6
ByLayer
370
18
48
1
60
0
100
AcDbCircle
39
0
10
20
20
6.65
30
0
40
1.9685
210
0
220
0
230
1
100
AcDbArc
50
30.381422
51
90
0
ARC
5
119
100
AcDbEntity
8
1
62
256
6
ByLayer
370
18
48
1
60
0
100
AcDbCircle
39
0
10
20
20
6.65
30
0
40
1.9685
210
0
220
0
230
1
100
AcDbArc
50
210.381422
51
270
0
ARC
5
11A
100
AcDbEntity
8
1
62
256
6
ByLayer
370
18
48
1
60
0
100
AcDbCircle
39
0
10
20
20
6.65
30
0
40
1.9685
210
0
220
0
230
1
100
AcDbArc
50
329.618578
51
30.381422
0
ARC
5
11B
100
AcDbEntity
8
1
62
256
6
ByLayer
370
18
48
1
60
0
100
AcDbCircle
39
0
10
20
20
6.65
30
0
40
1.416
210
0
220
0
230
1
100
AcDbArc
50
353.807562
51
6.192438
0
ARC
5
11C
100
AcDbEntity
8
1
62
256
6
ByLayer
370
18
48
1
60
0
100
AcDbCircle
39
0
10
20
20
6.65
30
0
40
1.416
210
0
220
0
230
1
100
AcDbArc
50
173.807562
51
186.192438
0
ARC
5
11D
100
AcDbEntity
8
1
62
256
6
ByLayer
370
18
48
1
60
0
100
AcDbCircle
39
0
10
20
20
6.65
30
0
40
1.9685
210
0
220
0
230
1
100
AcDbArc
50
149.618578
51
210.381422
0
ARC
5
11E
100
AcDbEntity
8
1
62
256
6
ByLayer
370
18
48
1
60
0
100
AcDbCircle
39
0
10
20
20
6.65
30
0
40
1.9685
210
0
220
0
230
1
100
AcDbArc
50
90
51
149.618578
0
ARC
5
11F
100
AcDbEntity
8
1
62
256
6
ByLayer
370
18
48
1
60
0
100
AcDbCircle
39
0
10
20
20
6.65
30
0
40
1.9685
210
0
220
0
230
1
100
AcDbArc
50
270
51
329.618578
0
ARC
5
120
100
AcDbEntity
8
1
62
256
6
ByLayer
370
18
48
1
60
0
100
AcDbCircle
39
0
10
20.5
20
17.616874
30
0
40
0.4
210
0
220
0
230
1
100
AcDbArc
50
86.667001
51
173.463805
0
ARC
5
121
100
AcDbEntity
8
1
62
256
6
ByLayer
370
18
48
1
60
0
100
AcDbCircle
39
0
10
44.7
20
12.383126
30
0
40
0.4
210
0
220
0
230
1
100
AcDbArc
50
266.667001
51
0
0
ARC
5
122
100
AcDbEntity
8
1
62
256
6
ByLayer
370
18
48
1
60
0
100
AcDbCircle
39
0
10
44.7
20
17.616874
30
0
40
0.4
210
0
220
0
230
1
100
AcDbArc
50
0
51
93.332999
0
CIRCLE
5
116
100
AcDbEntity
8
1
62
256
6
ByLayer
370
18
48
1
60
0
100
AcDbCircle
10
20
20
6.65
30
0
40
4.25
39
0
210
0
220
0
230
1
0
CIRCLE
5
117
100
AcDbEntity
8
1
62
256
6
ByLayer
370
18
48
1
60
0
100
AcDbCircle
10
20
20
6.65
30
0
40
3.75
39
0
210
0
220
0
230
1
0
ELLIPSE
5
123
100
AcDbEntity
8
1
62
256
6
ByLayer
370
18
48
1
60
0
100
AcDbEllipse
10
38.164609
20
-182.200154
30
0
11
-197.317965124348
21
2.41636833814579E-14
31
0
210
0
220
0
230
1
40
0.985846
41
-1.5623921329952
42
-1.54766099883297
0
ELLIPSE
5
124
100
AcDbEntity
8
1
62
256
6
ByLayer
370
18
48
1
60
0
100
AcDbEllipse
10
38.962891
20
-182.199979
30
0
11
-231.825855373074
21
2.83895415470174E-14
31
0
210
0
220
0
230
1
40
0.8391
41
-1.54766098843584
42
-1.51960240592402
0
ELLIPSE
5
125
100
AcDbEntity
8
1
62
256
6
ByLayer
370
18
48
1
60
0
100
AcDbEllipse
10
10.067574
20
-0.174981
30
0
11
0.244102752794054
21
0.135103450139238
31
0
210
0
220
0
230
1
40
0.266975
41
-2.69215064132312
42
-1.64495309012614
0
ELLIPSE
5
126
100
AcDbEntity
8
1
62
256
6
ByLayer
370
18
48
1
60
0
100
AcDbEllipse
10
28.2021
20
-72
30
0
11
-1.13980271142574E-13
21
89.6750001586198
31
0
210
0
220
0
230
1
40
1
41
0.167686083321093
42
0.224347263012503
0
ELLIPSE
5
127
100
AcDbEntity
8
1
62
256
6
ByLayer
370
18
48
1
60
0
100
AcDbEllipse
10
-0.588273
20
-72
30
0
11
-1.13980270943369E-13
21
89.6750000018934
31
0
210
0
220
0
230
1
40
0.923606
41
-0.167686083458367
42
-0.0760572601415221
0
ELLIPSE
5
128
100
AcDbEntity
8
1
62
256
6
ByLayer
370
18
48
1
60
0
100
AcDbEllipse
10
0.772994
20
-72
30
0
11
-1.13980270938109E-13
21
89.6749999977557
31
0
210
0
220
0
230
1
40
0.923606
41
-0.165233702314188
42
-0.0684713449692895
0
ELLIPSE
5
129
100
AcDbEntity
8
1
62
256
6
ByLayer
370
18
48
1
60
0
100
AcDbEllipse
10
38.962891
20
-72
30
0
11
-106.870503430621
21
1.30874297537335E-14
31
0
210
0
220
0
230
1
40
0.8391
41
-1.52059403230795
42
-1.40556262450541
0
ELLIPSE
5
12A
100
AcDbEntity
8
1
62
256
6
ByLayer
370
18
48
1
60
0
100
AcDbEllipse
10
38.164609
20
-72.000003
30
0
11
-90.9625074745665
21
1.1139326461297E-14
31
0
210
0
220
0
230
1
40
0.985846
41
-1.55260821800005
42
-1.52059403306025
0
ELLIPSE
5
12B
100
AcDbEntity
8
1
62
256
6
ByLayer
370
18
48
1
60
0
100
AcDbEllipse
10
49.305332
20
-182.2
30
0
11
-2.47248533277494E-13
21
194.525000147996
31
0
210
0
220
0
230
1
40
0.57735
41
0.0524714660389131
42
0.117996279926663
0
ELLIPSE
5
12C
100
AcDbEntity
8
1
62
256
6
ByLayer
370
18
48
1
60
0
100
AcDbEllipse
10
-1042.039549
20
-71.612271
30
0
11
6940.55226283633
21
15.4828965678198
31
0
210
0
220
0
230
1
40
0.01267
41
1.41473745540867
42
1.41657759387563
0
ELLIPSE
5
12D
100
AcDbEntity
8
1
62
256
6
ByLayer
370
18
48
1
60
0
100
AcDbEllipse
10
11.884652
20
-71.9991
30
0
11
-2662.48993676793
21
3.26050209355415E-13
31
0
210
0
220
0
230
1
40
0.033681
41
-1.57079627318502
42
-1.56730622549883
0
ELLIPSE
5
12E
100
AcDbEntity
8
1
62
256
6
ByLayer
370
18
48
1
60
0
100
AcDbEllipse
10
39.436487
20
15.667299
30
0
11
-0.433147587403798
21
5.30435287677525E-17
31
0
210
0
220
0
230
1
40
0.230868
41
0.174532925193236
42
0.664083471137073
0
ELLIPSE
5
12F
100
AcDbEntity
8
1
62
256
6
ByLayer
370
18
48
1
60
0
100
AcDbEllipse
10
39.436487
20
14.332701
30
0
11
-0.433147587403798
21
5.30435287677525E-17
31
0
210
0
220
0
230
1
40
0.230868
41
-0.664083471137073
42
-0.174532925193236
0
ELLIPSE
5
130
100
AcDbEntity
8
1
62
256
6
ByLayer
370
18
48
1
60
0
100
AcDbEllipse
10
38.144631
20
12.641251
30
0
11
0.433147584554197
21
6.10108131686334E-11
31
0
210
0
220
0
230
1
40
0.230868
41
2.96704007667693
42
3.14159265358979
0
ELLIPSE
5
131
100
AcDbEntity
8
1
62
256
6
ByLayer
370
18
48
1
60
0
100
AcDbEllipse
10
38.144631
20
17.358749
30
0
11
-0.433147584554263
21
6.0029219638662E-11
31
0
210
0
220
0
230
1
40
0.230868
41
0
42
0.174552576912332
0
POINT
5
70
100
AcDbEntity
8
81
62
256
6
ByLayer
370
18
48
1
60
0
100
AcDbPoint
10
45.1
20
18
30
0
39
0
210
0
220
0
230
1
50
360
0
POINT
5
72
100
AcDbEntity
8
80
62
256
6
ByLayer
370
18
48
1
60
0
100
AcDbPoint
10
0
20
0
30
0
39
0
210
0
220
0
230
1
50
360
0
POINT
5
74
100
AcDbEntity
8
1
62
256
6
ByLayer
370
18
48
1
60
1
100
AcDbPoint
10
0
20
0
30
0
39
0
210
0
220
0
230
1
50
360
0
POINT
5
76
100
AcDbEntity
8
1
62
256
6
ByLayer
370
18
48
1
60
1
100
AcDbPoint
10
45.1
20
18
30
0
39
0
210
0
220
0
230
1
50
360
0
POINT
5
77
100
AcDbEntity
8
1
62
256
6
ByLayer
370
18
48
1
60
1
100
AcDbPoint
10
27.1
20
12.325
30
0
39
0
210
0
220
0
230
1
50
360
0
POINT
5
78
100
AcDbEntity
8
1
62
256
6
ByLayer
370
18
48
1
60
1
100
AcDbPoint
10
45.1
20
18
30
0
39
0
210
0
220
0
230
1
50
360
0
POINT
5
79
100
AcDbEntity
8
1
62
256
6
ByLayer
370
18
48
1
60
1
100
AcDbPoint
10
45.1
20
18
30
0
39
0
210
0
220
0
230
1
50
360
0
POINT
5
7A
100
AcDbEntity
8
1
62
256
6
ByLayer
370
18
48
1
60
1
100
AcDbPoint
10
0
20
0
30
0
39
0
210
0
220
0
230
1
50
360
0
POINT
5
7B
100
AcDbEntity
8
1
62
256
6
ByLayer
370
18
48
1
60
1
100
AcDbPoint
10
45.1
20
18
30
0
39
0
210
0
220
0
230
1
50
360
0
POINT
5
7C
100
AcDbEntity
8
1
62
256
6
ByLayer
370
18
48
1
60
1
100
AcDbPoint
10
45.1
20
12
30
0
39
0
210
0
220
0
230
1
50
360
0
SPLINE
5
132
100
AcDbEntity
8
1
62
256
6
ByLayer
370
18
48
1
60
0
100
AcDbSpline
70
4
71
3
72
10
73
6
40
0
40
0
40
0
40
0
40
0.5
40
0.5
40
1
40
1
40
1
40
1
41
1
10
11.0276281961116
20
-0.28227754060643
30
0
41
1
10
11.024604110705
20
-0.277167459287682
30
0
41
1
10
11.0210220935147
20
-0.271804402679436
30
0
41
1
10
11.013193480974
20
-0.261019280122355
30
0
41
1
10
11.0089152580003
20
-0.255544143276097
30
0
41
1
10
11.0043341013017
20
-0.249999999999773
30
0
0
SPLINE
5
133
100
AcDbEntity
8
1
62
256
6
ByLayer
370
18
48
1
60
0
100
AcDbSpline
70
4
71
3
72
16
73
12
40
0
40
0
40
0
40
0
40
0.249999999999997
40
0.249999999999997
40
0.499999999999995
40
0.499999999999995
40
0.749999999999992
40
0.749999999999992
40
0.874999999999996
40
0.874999999999996
40
1
40
1
40
1
40
1
41
1
10
11.0276281961116
20
-0.282277540606458
30
0
41
1
10
11.0655609699117
20
-0.287336251186247
30
0
41
1
10
11.1034318228734
20
-0.292282100096372
30
0
41
1
10
11.1790487078829
20
-0.301684454692804
30
0
41
1
10
11.2167947747196
20
-0.306145453798109
30
0
41
1
10
11.2921593820356
20
-0.314163386023608
30
0
41
1
10
11.3297360724389
20
-0.317725065648716
30
0
41
1
10
11.3854005138776
20
-0.321753904772237
30
0
41
1
10
11.403855529943
20
-0.322876673905029
30
0
41
1
10
11.4405128455448
20
-0.324487662952038
30
0
41
1
10
11.4587165340475
20
-0.324980947161691
30
0
41
1
10
11.4767455840037
20
-0.324980947161691
30
0
0
SPLINE
5
134
100
AcDbEntity
8
1
62
256
6
ByLayer
370
18
48
1
60
0
100
AcDbSpline
70
4
71
3
72
8
73
4
40
0
40
0
40
0
40
0
40
1
40
1
40
1
40
1
41
1
10
11.0276281961116
20
-0.282277540606486
30
0
41
1
10
11.0118395197766
20
-0.271487560575792
30
0
41
1
10
10.9960440478665
20
-0.260728153479562
30
0
41
1
10
10.9802416290831
20
-0.25
30
0
0
SPLINE
5
135
100
AcDbEntity
8
1
62
256
6
ByLayer
370
18
48
1
60
0
100
AcDbSpline
70
4
71
3
72
18
73
14
40
0
40
0
40
0
40
0
40
0.124999999999993
40
0.124999999999993
40
0.249999999999987
40
0.249999999999987
40
0.499999999999988
40
0.499999999999988
40
0.624999999999985
40
0.624999999999985
40
0.749999999999982
40
0.749999999999982
40
1
40
1
40
1
40
1
41
1
10
11.6224972601399
20
-0.324980947161663
30
0
41
1
10
11.6192703907151
20
-0.324980947161663
30
0
41
1
10
11.6154439919953
20
-0.324317343478441
30
0
41
1
10
11.6069612897688
20
-0.321956226105357
30
0
41
1
10
11.602269896615
20
-0.320249995981385
30
0
41
1
10
11.5871602352551
20
-0.313833832995215
30
0
41
1
10
11.576065685278
20
-0.308011887553732
30
0
41
1
10
11.5583323750177
20
-0.297626089548913
30
0
41
1
10
11.5522495768641
20
-0.293887591674519
30
0
41
1
10
11.5399996913608
20
-0.286061631183884
30
0
41
1
10
11.533800706262
20
-0.281955461569027
30
0
41
1
10
11.5150061950698
20
-0.269118079601725
30
0
41
1
10
11.5022154752707
20
-0.259874306686129
30
0
41
1
10
11.4891887427026
20
-0.25
30
0
0
SPLINE
5
136
100
AcDbEntity
8
1
62
256
6
ByLayer
370
18
48
1
60
0
100
AcDbSpline
70
4
71
2
72
6
73
3
40
0
40
0
40
0
40
1
40
1
40
1
41
1
10
11.7003488338351
20
-0.324980947161691
30
0
41
1
10
11.6623357600101
20
-0.324980947161691
30
0
41
1
10
11.6225385935649
20
-0.324980947161691
30
0
0
SPLINE
5
137
100
AcDbEntity
8
1
62
256
6
ByLayer
370
18
48
1
60
0
100
AcDbSpline
70
4
71
3
72
20
73
16
40
0
40
0
40
0
40
0
40
0.24999999999999
40
0.24999999999999
40
0.374999999999992
40
0.374999999999992
40
0.499999999999993
40
0.499999999999993
40
0.624999999999995
40
0.624999999999995
40
0.749999999999997
40
0.749999999999997
40
0.874999999999998
40
0.874999999999998
40
1
40
1
40
1
40
1
41
1
10
11.6684781235838
20
-0.249999999999915
30
0
41
1
10
11.6767867414207
20
-0.259734549354079
30
0
41
1
10
11.6843676251665
20
-0.269228281522629
30
0
41
1
10
11.6941070170369
20
-0.282819409469283
30
0
41
1
10
11.6970181369881
20
-0.287157299177181
30
0
41
1
10
11.7020757146846
20
-0.295395783281549
30
0
41
1
10
11.70423462607
20
-0.299327912698914
30
0
41
1
10
11.7075283622337
20
-0.306433565607506
30
0
41
1
10
11.7086811012233
20
-0.309627561895638
30
0
41
1
10
11.709905560238
20
-0.315233151109652
30
0
41
1
10
11.7099565341409
20
-0.317602526875618
30
0
41
1
10
11.7089593394717
20
-0.321329216849307
30
0
41
1
10
11.7079143112223
20
-0.322720644458258
30
0
41
1
10
11.7047744349767
20
-0.324556906143442
30
0
41
1
10
11.7027276586107
20
-0.32498065502682
30
0
41
1
10
11.7002715671113
20
-0.324980947011881
30
0
0
SPLINE
5
138
100
AcDbEntity
8
1
62
256
6
ByLayer
370
18
48
1
60
0
100
AcDbSpline
70
4
71
3
72
12
73
8
40
0
40
0
40
0
40
0
40
0.202635200369249
40
0.202635200369249
40
0.60131760018374
40
0.60131760018374
40
1
40
1
40
1
40
1
41
1
10
35.4376900471439
20
12.2660285248563
30
0
41
1
10
35.6045015084231
20
12.2661120660792
30
0
41
1
10
35.771312969747
20
12.2661955181137
30
0
41
1
10
36.2663240411225
20
12.2664428963978
30
0
41
1
10
36.5945236513024
20
12.2666065665944
30
0
41
1
10
37.2509228720067
20
12.2669332165534
30
0
41
1
10
37.5791224825316
20
12.2670961963157
30
0
41
1
10
37.9073220932273
20
12.2672588308823
30
0
0
SPLINE
5
139
100
AcDbEntity
8
1
62
256
6
ByLayer
370
18
48
1
60
0
100
AcDbSpline
70
4
71
3
72
20
73
16
40
0
40
0
40
0
40
0
40
0.125
40
0.125
40
0.249999999999999
40
0.249999999999999
40
0.374999999999999
40
0.374999999999999
40
0.499999999999998
40
0.499999999999998
40
0.624999999999998
40
0.624999999999998
40
0.749999999999997
40
0.749999999999997
40
1
40
1
40
1
40
1
41
1
10
12.1092848975575
20
-0.324980947087255
30
0
41
1
10
12.107254044376
20
-0.324981196953928
30
0
41
1
10
12.1045810907115
20
-0.324340880433709
30
0
41
1
10
12.0983483013897
20
-0.322018168166267
30
0
41
1
10
12.0947757469597
20
-0.320340999940072
30
0
41
1
10
12.0868485278645
20
-0.316102421478263
30
0
41
1
10
12.0824979881206
20
-0.31353891412266
30
0
41
1
10
12.0733790323531
20
-0.307803069518741
30
0
41
1
10
12.0685783551001
20
-0.304613503251545
30
0
41
1
10
12.0585602905132
20
-0.29767751332821
30
0
41
1
10
12.0533120633888
20
-0.293907347526101
30
0
41
1
10
12.0426436032128
20
-0.286012629843469
30
0
41
1
10
12.0372126933245
20
-0.281882103214599
30
0
41
1
10
12.020666805848
20
-0.269007950892956
30
0
41
1
10
12.009301763559
20
-0.259787645928668
30
0
41
1
10
11.9976433210011
20
-0.25
30
0
0
SPLINE
5
13A
100
AcDbEntity
8
1
62
256
6
ByLayer
370
18
48
1
60
0
100
AcDbSpline
70
4
71
2
72
6
73
3
40
0
40
0
40
0
40
1
40
1
40
1
41
1
10
12.1591777306887
20
-0.324980947161691
30
0
41
1
10
12.1351086225604
20
-0.324980947161691
30
0
41
1
10
12.1093895093787
20
-0.324980947161691
30
0
0
SPLINE
5
13B
100
AcDbEntity
8
1
62
256
6
ByLayer
370
18
48
1
60
0
100
AcDbSpline
70
4
71
3
72
22
73
18
40
0
40
0
40
0
40
0
40
0.125
40
0.125
40
0.25
40
0.25
40
0.375
40
0.375
40
0.5
40
0.5
40
0.625
40
0.625
40
0.75
40
0.75
40
0.875
40
0.875
40
1
40
1
40
1
40
1
41
1
10
12.112447912294
20
-0.249999999999943
30
0
41
1
10
12.1167868703034
20
-0.254854742203293
30
0
41
1
10
12.1209776473745
20
-0.259636419717196
30
0
41
1
10
12.1290217080621
20
-0.269034144111373
30
0
41
1
10
12.1328661856318
20
-0.273641363100268
30
0
41
1
10
12.1400065186708
20
-0.282471564406677
30
0
41
1
10
12.1433230755429
20
-0.286718169404963
30
0
41
1
10
12.1493691551654
20
-0.294822935140644
30
0
41
1
10
12.1521174610557
20
-0.298711369994777
30
0
41
1
10
12.1567559307757
20
-0.305797443053109
30
0
41
1
10
12.1586618746924
20
-0.309011980465471
30
0
41
1
10
12.1615434185313
20
-0.314703920460204
30
0
41
1
10
12.1624968318173
20
-0.317151650447101
30
0
41
1
10
12.1633272609604
20
-0.321050353590891
30
0
41
1
10
12.1632184611248
20
-0.322535308026602
30
0
41
1
10
12.1619178742492
20
-0.324512333252699
30
0
41
1
10
12.160748914312
20
-0.324980744910022
30
0
41
1
10
12.1591123242011
20
-0.324980947096634
30
0
0
SPLINE
5
13C
100
AcDbEntity
8
1
62
256
6
ByLayer
370
18
48
1
60
0
100
AcDbSpline
70
4
71
3
72
16
73
12
40
0
40
0
40
0
40
0
40
0.124999999999999
40
0.124999999999999
40
0.249999999999999
40
0.249999999999999
40
0.499999999999999
40
0.499999999999999
40
0.749999999999999
40
0.749999999999999
40
1
40
1
40
1
40
1
41
1
10
36.6080562954818
20
12.8792841885507
30
0
41
1
10
36.6201804372434
20
12.9461645347098
30
0
41
1
10
36.6317120349075
20
13.0132434238757
30
0
41
1
10
36.654081536275
20
13.147633637372
30
0
41
1
10
36.6649118987654
20
13.2149474885271
30
0
41
1
10
36.6967086989018
20
13.4171216759782
30
0
41
1
10
36.7169990163679
20
13.5522159955143
30
0
41
1
10
36.756657605545
20
13.8226798195106
30
0
41
1
10
36.7760056234231
20
13.9580414562178
30
0
41
1
10
36.8141344677247
20
14.2289176120487
30
0
41
1
10
36.8329098461804
20
14.3644335996332
30
0
41
1
10
36.8514981939755
20
14.5
30
0
0
SPLINE
5
13D
100
AcDbEntity
8
1
62
256
6
ByLayer
370
18
48
1
60
0
100
AcDbSpline
70
4
71
3
72
8
73
4
40
0
40
0
40
0
40
0
40
1
40
1
40
1
40
1
41
1
10
37.0267770172148
20
14.5840772376136
30
0
41
1
10
36.9684611811006
20
14.5556053920781
30
0
41
1
10
36.9100751308114
20
14.5274171666291
30
0
41
1
10
36.8514981939755
20
14.5
30
0
0
SPLINE
5
13E
100
AcDbEntity
8
1
62
256
6
ByLayer
370
18
48
1
60
0
100
AcDbSpline
70
4
71
3
72
20
73
16
40
0
40
0
40
0
40
0
40
0.124999999999998
40
0.124999999999998
40
0.249999999999996
40
0.249999999999996
40
0.374999999999995
40
0.374999999999995
40
0.499999999999993
40
0.499999999999993
40
0.624999999999991
40
0.624999999999991
40
0.749999999999989
40
0.749999999999989
40
1
40
1
40
1
40
1
41
1
10
37.1000000000118
20
14.7250311307298
30
0
41
1
10
37.1000000000117
20
14.7172027725805
30
0
41
1
10
37.0995500855061
20
14.7094401787341
30
0
41
1
10
37.0977624626886
20
14.6940447604527
30
0
41
1
10
37.096418551245
20
14.6864304464582
30
0
41
1
10
37.0929349500252
20
14.671776578622
30
0
41
1
10
37.0907898024679
20
14.6646782892513
30
0
41
1
10
37.0856948951848
20
14.6509378195401
30
0
41
1
10
37.0827177390073
20
14.6442580087265
30
0
41
1
10
37.0761569548166
20
14.6318114046973
30
0
41
1
10
37.0725589576124
20
14.6259895274067
30
0
41
1
10
37.06474386683
20
14.6151282558026
30
0
41
1
10
37.0604898085691
20
14.6100532403169
30
0
41
1
10
37.0470416737057
20
14.5963285347891
30
0
41
1
10
37.0372920567317
20
14.5892110503285
30
0
41
1
10
37.0267770172148
20
14.5840772376136
30
0
0
SPLINE
5
13F
100
AcDbEntity
8
1
62
256
6
ByLayer
370
18
48
1
60
0
100
AcDbSpline
70
4
71
3
72
20
73
16
40
0
40
0
40
0
40
0
40
0.124999999999997
40
0.124999999999997
40
0.249999999999993
40
0.249999999999993
40
0.37499999999999
40
0.37499999999999
40
0.499999999999987
40
0.499999999999987
40
0.624999999999983
40
0.624999999999983
40
0.74999999999998
40
0.74999999999998
40
1
40
1
40
1
40
1
41
1
10
37.026777017215
20
15.4159227623863
30
0
41
1
10
37.032033507359
20
15.4133563587229
30
0
41
1
10
37.0371127047952
20
15.4102776284608
30
0
41
1
10
37.0469169098256
20
15.4030966578374
30
0
41
1
10
37.0516728607018
20
15.3989590351323
30
0
41
1
10
37.060605852187
20
15.3898139083347
30
0
41
1
10
37.0647934677856
20
15.3848097611123
30
0
41
1
10
37.0726085184947
20
15.3739345536149
30
0
41
1
10
37.0762608335801
20
15.3680143889907
30
0
41
1
10
37.0828391293578
20
15.3554880391187
30
0
41
1
10
37.0857488603431
20
15.3489305808314
30
0
41
1
10
37.0908173665987
20
15.3352332079604
30
0
41
1
10
37.0929847603154
20
15.3280567882605
30
0
41
1
10
37.0982350113453
20
15.3058406057954
30
0
41
1
10
37.1
20
15.2906154703116
30
0
41
1
10
37.1
20
15.2749688692685
30
0
0
SPLINE
5
140
100
AcDbEntity
8
1
62
256
6
ByLayer
370
18
48
1
60
0
100
AcDbSpline
70
4
71
3
72
8
73
4
40
0
40
0
40
0
40
0
40
1
40
1
40
1
40
1
41
1
10
36.8514981939755
20
15.5
30
0
41
1
10
36.9100586915477
20
15.4725905278332
30
0
41
1
10
36.9684491786965
20
15.4444004679184
30
0
41
1
10
37.026777017215
20
15.4159227623863
30
0
0
SPLINE
5
141
100
AcDbEntity
8
1
62
256
6
ByLayer
370
18
48
1
60
0
100
AcDbSpline
70
4
71
3
72
16
73
12
40
0
40
0
40
0
40
0
40
0.125000000000001
40
0.125000000000001
40
0.250000000000002
40
0.250000000000002
40
0.500000000000001
40
0.500000000000001
40
0.75
40
0.75
40
1
40
1
40
1
40
1
41
1
10
36.6080562954854
20
17.1207158114502
30
0
41
1
10
36.6201852518523
20
17.0538089065054
30
0
41
1
10
36.6317196037221
20
16.9867123884819
30
0
41
1
10
36.6540927756056
20
16.8522975546893
30
0
41
1
10
36.6649239987196
20
16.7849768163495
30
0
41
1
10
36.6967217766361
20
16.5827926889222
30
0
41
1
10
36.717010479565
20
16.4477068395736
30
0
41
1
10
36.7566633186756
20
16.1772802057706
30
0
41
1
10
36.7760095288354
20
16.0419309994593
30
0
41
1
10
36.814135846602
20
15.7710723914249
30
0
41
1
10
36.8329105656476
20
15.6355611532312
30
0
41
1
10
36.8514981939755
20
15.5
30
0
0
SPLINE
5
142
100
AcDbEntity
8
1
62
256
6
ByLayer
370
18
48
1
60
0
100
AcDbSpline
70
4
71
3
72
12
73
8
40
0
40
0
40
0
40
0
40
0.279915818467711
40
0.279915818467711
40
0.559831636935422
40
0.559831636935422
40
1
40
1
40
1
40
1
41
1
10
-12.0881936018054
20
-0.324980947161663
30
0
41
1
10
-12.0724293033973
20
-0.324980947161293
30
0
41
1
10
-12.0563145906413
20
-0.324140031765523
30
0
41
1
10
-12.0236224935398
20
-0.321432392161768
30
0
41
1
10
-12.0070405445916
20
-0.319553049457142
30
0
41
1
10
-11.9639178530067
20
-0.31375527917919
30
0
41
1
10
-11.9370513372837
20
-0.309281617071207
30
0
41
1
10
-11.9100841610082
20
-0.304203938282655
30
0
0
SPLINE
5
143
100
AcDbEntity
8
1
62
256
6
ByLayer
370
18
48
1
60
0
100
AcDbSpline
70
4
71
3
72
30
73
26
40
0
40
0
40
0
40
0
40
0.125000000000002
40
0.125000000000002
40
0.187500000000004
40
0.187500000000004
40
0.250000000000005
40
0.312500000000006
40
0.312500000000006
40
0.375000000000007
40
0.375000000000007
40
0.500000000000005
40
0.500000000000005
40
0.562500000000003
40
0.562500000000003
40
0.625000000000001
40
0.625000000000001
40
0.750000000000001
40
0.750000000000001
40
0.812500000000001
40
0.812500000000001
40
0.875000000000001
40
0.9375
40
0.9375
40
1
40
1
40
1
40
1
41
1
10
14.272209428644
20
1.375
30
0
41
1
10
14.2500924484084
20
1.375
30
0
41
1
10
14.2280536991369
20
1.37184524071961
30
0
41
1
10
14.1951172651323
20
1.3622058076956
30
0
41
1
10
14.1842805696398
20
1.35819977622589
30
0
41
1
10
14.1630634368024
20
1.34871346430882
30
0
41
1
10
14.1422433562508
20
1.33773564577859
30
0
41
1
10
14.1222102940526
20
1.32380143303922
30
0
41
1
10
14.1025786481296
20
1.30835932058403
30
0
41
1
10
14.0929217374853
20
1.29983613365201
30
0
41
1
10
14.0651466136046
20
1.27248836972282
30
0
41
1
10
14.0480577833704
20
1.25181459491549
30
0
41
1
10
14.0245361050739
20
1.21719287109173
30
0
41
1
10
14.0170426658869
20
1.20503309945985
30
0
41
1
10
14.0028208549019
20
1.1795100605984
30
0
41
1
10
13.9961964711147
20
1.16633606881322
30
0
41
1
10
13.9777334498802
20
1.12561858730163
30
0
41
1
10
13.9672917115965
20
1.09689080860974
30
0
41
1
10
13.9544812855652
20
1.0513810655664
30
0
41
1
10
13.9506889336861
20
1.03576751393888
30
0
41
1
10
13.9442346739121
20
1.00440493730767
30
0
41
1
10
13.9388591265737
20
0.972745587862363
30
0
41
1
10
13.9356027931514
20
0.940503205296352
30
0
41
1
10
13.9334176768782
20
0.907966112001759
30
0
41
1
10
13.9328610188872
20
0.891489880359217
30
0
41
1
10
13.9328610188872
20
0.875
30
0
0
SPLINE
5
144
100
AcDbEntity
8
1
62
256
6
ByLayer
370
18
48
1
60
0
100
AcDbSpline
70
4
71
3
72
42
73
38
40
0
40
0
40
0
40
0
40
0.062500000000003
40
0.062500000000003
40
0.0937500000000043
40
0.0937500000000043
40
0.109375000000005
40
0.109375000000005
40
0.125000000000006
40
0.125000000000006
40
0.187500000000008
40
0.187500000000008
40
0.25000000000001
40
0.25000000000001
40
0.28125000000001
40
0.28125000000001
40
0.31250000000001
40
0.31250000000001
40
0.375000000000012
40
0.375000000000012
40
0.437500000000015
40
0.437500000000015
40
0.468750000000014
40
0.468750000000014
40
0.500000000000014
40
0.500000000000014
40
0.625000000000012
40
0.625000000000012
40
0.750000000000009
40
0.750000000000009
40
0.781250000000008
40
0.781250000000008
40
0.812500000000007
40
0.812500000000007
40
0.875000000000005
40
0.875000000000005
40
1
40
1
40
1
40
1
41
1
10
25.5
20
10.3939771531626
30
0
41
1
10
25.5
20
10.4552195944116
30
0
41
1
10
25.503492542519
20
10.5162286166539
30
0
41
1
10
25.5138667604465
20
10.6073989327397
30
0
41
1
10
25.5181828815779
20
10.6377316916771
30
0
41
1
10
25.525950272905
20
10.6831444002958
30
0
41
1
10
25.5287612778022
20
10.6982957282651
30
0
41
1
10
25.5347686794624
20
10.7283380023666
30
0
41
1
10
25.5379675522508
20
10.7432484168913
30
0
41
1
10
25.5549091937996
20
10.8172630917742
30
0
41
1
10
25.5714820341912
20
10.874761831122
30
0
41
1
10
25.6101412031777
20
10.9866314663189
30
0
41
1
10
25.6322301719593
20
11.0410008643703
30
0
41
1
10
25.6692955248075
20
11.1203243650655
30
0
41
1
10
25.6823222285234
20
11.1464084696994
30
0
41
1
10
25.7093106448727
20
11.1972038517415
30
0
41
1
10
25.7233108672481
20
11.2220021487458
30
0
41
1
10
25.7667425259778
20
11.2947019730913
30
0
41
1
10
25.7976001721081
20
11.3409140980303
30
0
41
1
10
25.8627984064117
20
11.4292126640484
30
0
41
1
10
25.8971404535121
20
11.4712973769702
30
0
41
1
10
25.9511289459481
20
11.5314922104498
30
0
41
1
10
25.9695863470881
20
11.55111300944
30
0
41
1
10
26.0069498598408
20
11.5890304468987
30
0
41
1
10
26.0258805935689
20
11.6073595343401
30
0
41
1
10
26.1217111232406
20
11.6960288433103
30
0
41
1
10
26.2021022976769
20
11.7575398234564
30
0
41
1
10
26.3693339138715
20
11.864252426845
30
0
41
1
10
26.4561852158922
20
11.9094265858985
30
0
41
1
10
26.5686445154344
20
11.9560439021144
30
0
41
1
10
26.5913691940669
20
11.9648826145884
30
0
41
1
10
26.6368683868787
20
11.9814424420551
30
0
41
1
10
26.6596755122387
20
11.989178903196
30
0
41
1
10
26.7282653383716
20
12.0107970075999
30
0
41
1
10
26.7742161549125
20
12.0230905296945
30
0
41
1
10
26.9127214179635
20
12.053804233482
30
0
41
1
10
27.0059237947294
20
12.0661036820238
30
0
41
1
10
27.1
20
12.0701484286884
30
0
0
SPLINE
5
145
100
AcDbEntity
8
1
62
256
6
ByLayer
370
18
48
1
60
0
100
AcDbSpline
70
4
71
3
72
131
73
127
40
0
40
0
40
0
40
0
40
0.0078125
40
0.0078125
40
0.0156250000000001
40
0.0156250000000001
40
0.0312500000000003
40
0.0312500000000003
40
0.0625000000000009
40
0.0625000000000009
40
0.0703125000000011
40
0.0703125000000011
40
0.0781250000000013
40
0.0781250000000013
40
0.0937500000000017
40
0.0937500000000017
40
0.125000000000003
40
0.125000000000003
40
0.132812500000003
40
0.132812500000003
40
0.140625000000003
40
0.140625000000003
40
0.156250000000003
40
0.156250000000003
40
0.187500000000005
40
0.187500000000005
40
0.195312500000005
40
0.195312500000005
40
0.203125000000005
40
0.218750000000005
40
0.218750000000005
40
0.250000000000005
40
0.250000000000005
40
0.257812500000005
40
0.257812500000005
40
0.265625000000005
40
0.281250000000005
40
0.296875000000006
40
0.296875000000006
40
0.304687500000005
40
0.304687500000005
40
0.312500000000005
40
0.312500000000005
40
0.343750000000006
40
0.343750000000006
40
0.359375000000006
40
0.359375000000006
40
0.367187500000006
40
0.367187500000006
40
0.375000000000006
40
0.375000000000006
40
0.406250000000007
40
0.406250000000007
40
0.421875000000007
40
0.421875000000007
40
0.429687500000007
40
0.429687500000007
40
0.437500000000007
40
0.437500000000007
40
0.468750000000006
40
0.468750000000006
40
0.484375000000006
40
0.484375000000006
40
0.492187500000006
40
0.492187500000006
40
0.500000000000005
40
0.500000000000005
40
0.531250000000005
40
0.531250000000005
40
0.546875000000005
40
0.546875000000005
40
0.554687500000005
40
0.554687500000005
40
0.562500000000004
40
0.562500000000004
40
0.593750000000004
40
0.593750000000004
40
0.601562500000004
40
0.601562500000004
40
0.609375000000003
40
0.609375000000003
40
0.625000000000003
40
0.640625000000003
40
0.640625000000003
40
0.648437500000003
40
0.648437500000003
40
0.656250000000003
40
0.656250000000003
40
0.687500000000002
40
0.687500000000002
40
0.703125000000002
40
0.703125000000002
40
0.710937500000001
40
0.710937500000001
40
0.718750000000001
40
0.718750000000001
40
0.75
40
0.75
40
0.757812500000001
40
0.757812500000001
40
0.765625000000001
40
0.765625000000001
40
0.781250000000001
40
0.781250000000001
40
0.812500000000002
40
0.812500000000002
40
0.820312500000002
40
0.820312500000002
40
0.828125000000002
40
0.828125000000002
40
0.843750000000002
40
0.843750000000002
40
0.875000000000003
40
0.875000000000003
40
0.890625000000003
40
0.890625000000003
40
0.906250000000003
40
0.906250000000003
40
0.937500000000002
40
0.937500000000002
40
0.945312500000002
40
0.945312500000002
40
0.953125000000002
40
0.968750000000001
40
0.968750000000001
40
1
40
1
40
1
40
1
41
1
10
6.43965871342709
20
17.4648693401307
30
0
41
1
10
6.45228174369393
20
17.4663585245229
30
0
41
1
10
6.4644472659939
20
17.467861715922
30
0
41
1
10
6.4878502487401
20
17.4708953076447
30
0
41
1
10
6.49910487617549
20
17.4724281888193
30
0
41
1
10
6.53133244942853
20
17.477050031544
30
0
41
1
10
6.55060827663237
20
17.4801374230636
30
0
41
1
10
6.60201592797117
20
17.4894056557893
30
0
41
1
10
6.62777679290443
20
17.4955917892877
30
0
41
1
10
6.64925736073585
20
17.5033059228742
30
0
41
1
10
6.65301351345605
20
17.5048478854495
30
0
41
1
10
6.65942758770572
20
17.5079296337637
30
0
41
1
10
6.66208682602766
20
17.5094720528824
30
0
41
1
10
6.66833225116278
20
17.5140512430953
30
0
41
1
10
6.67022389920251
20
17.5170527536384
30
0
41
1
10
6.66926294022053
20
17.5259062663748
30
0
41
1
10
6.65982566647827
20
17.5316074251792
30
0
41
1
10
6.63683946695127
20
17.538488722386
30
0
41
1
10
6.6316786313721
20
17.5398527099684
30
0
41
1
10
6.62020774190862
20
17.5425562435767
30
0
41
1
10
6.61392406761945
20
17.5438891760702
30
0
41
1
10
6.59352924635803
20
17.5478173969928
30
0
41
1
10
6.57784840024252
20
17.5503491113872
30
0
41
1
10
6.5246894205898
20
17.5576985849341
30
0
41
1
10
6.48114293866698
20
17.5622717539587
30
0
41
1
10
6.41630144151767
20
17.5676136747158
30
0
41
1
10
6.40277322375542
20
17.5686657905495
30
0
41
1
10
6.3748410919242
20
17.5707187741971
30
0
41
1
10
6.33166788334489
20
17.5737194806167
30
0
41
1
10
6.28474566027739
20
17.5764945199576
30
0
41
1
10
6.18599022582257
20
17.5817652771312
30
0
41
1
10
6.11364478669969
20
17.5849085943889
30
0
41
1
10
6.01478027527335
20
17.588415035734
30
0
41
1
10
5.99458613036066
20
17.589094671758
30
0
41
1
10
5.95375632606002
20
17.5903990456994
30
0
41
1
10
5.89169893711329
20
17.5922786393676
30
0
41
1
10
5.78427785566134
20
17.595043324792
30
0
41
1
10
5.69413820302452
20
17.5968874051081
30
0
41
1
10
5.62494058231837
20
17.5981377573354
30
0
41
1
10
5.60160884349094
20
17.5985323838489
30
0
41
1
10
5.55440599834779
20
17.5992776869979
30
0
41
1
10
5.53050531692637
20
17.599628763589
30
0
41
1
10
5.40994551833515
20
17.6012700005044
30
0
41
1
10
5.31206577696719
20
17.6021965983182
30
0
41
1
10
5.1631834248283
20
17.6030596671698
30
0
41
1
10
5.11321006747423
20
17.6032587454153
30
0
41
1
10
5.03772312472861
20
17.6034240555088
30
0
41
1
10
5.01247286410026
20
17.6034568936619
30
0
41
1
10
4.96179348201954
20
17.6034773814949
30
0
41
1
10
4.93631700740659
20
17.603464876951
30
0
41
1
10
4.80969892684755
20
17.603289262661
30
0
41
1
10
4.71003908987819
20
17.6027924223595
30
0
41
1
10
4.56292729192992
20
17.6015124946601
30
0
41
1
10
4.51428873464403
20
17.6009959897173
30
0
41
1
10
4.44194120038114
20
17.6000794859743
30
0
41
1
10
4.41792722285962
20
17.5997503109853
30
0
41
1
10
4.37010696405542
20
17.5990428169095
30
0
41
1
10
4.34643044587872
20
17.5986663574214
30
0
41
1
10
4.22958028929403
20
17.5966760849686
30
0
41
1
10
4.14056906956702
20
17.5947357196168
30
0
41
1
10
4.01361690573108
20
17.5912591818236
30
0
41
1
10
3.97240006442931
20
17.5900053700497
30
0
41
1
10
3.91226760775678
20
17.58797049004
30
0
41
1
10
3.89245719002093
20
17.587264557832
30
0
41
1
10
3.85371111938866
20
17.5858100658653
30
0
41
1
10
3.83477147478234
20
17.5850616087035
30
0
41
1
10
3.74220202299389
20
17.5812116146196
30
0
41
1
10
3.67490884603865
20
17.5777893960583
30
0
41
1
10
3.58399809223792
20
17.5720819767325
30
0
41
1
10
3.55537566012103
20
17.5700833521232
30
0
41
1
10
3.51504036868459
20
17.5669287055506
30
0
41
1
10
3.50205147408138
20
17.5658524102261
30
0
41
1
10
3.47719589780098
20
17.5636677107142
30
0
41
1
10
3.46529676681658
20
17.5625568237059
30
0
41
1
10
3.40840427584462
20
17.5569081728946
30
0
41
1
10
3.37115979257379
20
17.5520891505724
30
0
41
1
10
3.33492162587871
20
17.5456523091932
30
0
41
1
10
3.32819364839383
20
17.5443441979584
30
0
41
1
10
3.31579200393025
20
17.5416851537957
30
0
41
1
10
3.31011081000813
20
17.5403321623214
30
0
41
1
10
3.29473366069092
20
17.536220963614
30
0
41
1
10
3.27876433448122
20
17.5306302717041
30
0
41
1
10
3.27172969790203
20
17.5248174185869
30
0
41
1
10
3.26983527687034
20
17.5203724890403
30
0
41
1
10
3.26977051682289
20
17.5188738444949
30
0
41
1
10
3.27077252149869
20
17.5158697776107
30
0
41
1
10
3.27183640371703
20
17.5143627020139
30
0
41
1
10
3.27992244241764
20
17.506802829828
30
0
41
1
10
3.29517998375474
20
17.5006759329532
30
0
41
1
10
3.33113275766078
20
17.4913880541466
30
0
41
1
10
3.34530727897331
20
17.4882759571844
30
0
41
1
10
3.36995861951357
20
17.4835875019654
30
0
41
1
10
3.37871938654536
20
17.4820259849258
30
0
41
1
10
3.39720039558947
20
17.4789267782893
30
0
41
1
10
3.40693657890398
20
17.4773860115392
30
0
41
1
10
3.4580600577807
20
17.4697282221979
30
0
41
1
10
3.50671799998884
20
17.4637474957544
30
0
41
1
10
3.5772500610486
20
17.456501077812
30
0
41
1
10
3.59184552252248
20
17.4550633874444
30
0
41
1
10
3.62202945570235
20
17.4522128953077
30
0
41
1
10
3.63765322317752
20
17.4507970596764
30
0
41
1
10
3.68578685286241
20
17.4466121238463
30
0
41
1
10
3.71940070746507
20
17.4439178865788
30
0
41
1
10
3.82468028990792
20
17.4361304727033
30
0
41
1
10
3.90075004372289
20
17.4313302459317
30
0
41
1
10
4.00327204334863
20
17.4258801707228
30
0
41
1
10
4.02415091863574
20
17.4248178534022
30
0
41
1
10
4.06667097569553
20
17.4227509443059
30
0
41
1
10
4.08833631024393
20
17.4217455340724
30
0
41
1
10
4.15382967265182
20
17.4188482581183
30
0
41
1
10
4.19835743764221
20
17.4170647802977
30
0
41
1
10
4.33447176716265
20
17.4121611291873
30
0
41
1
10
4.42856968515906
20
17.4094848119968
30
0
41
1
10
4.57485085022338
20
17.406421680694
30
0
41
1
10
4.62467218767708
20
17.4055584944348
30
0
41
1
10
4.72418173976266
20
17.4041920340601
30
0
41
1
10
4.77405169675311
20
17.4036835754629
30
0
41
1
10
4.92399987172314
20
17.40267585757
30
0
41
1
10
5.02441371606596
20
17.402691133172
30
0
41
1
10
5.15050781588499
20
17.4035937468061
30
0
41
1
10
5.17581644424629
20
17.4038194607086
30
0
41
1
10
5.22605413543437
20
17.4043562615326
30
0
41
1
10
5.3009221496269
20
17.4052894922206
30
0
41
1
10
5.37435312147147
20
17.4065975267258
30
0
41
1
10
5.51933106633058
20
17.4096976938276
30
0
41
1
10
5.61348627785523
20
17.4124070129634
30
0
41
1
10
5.70504895391002
20
17.4157532163175
30
0
0
SPLINE
5
146
100
AcDbEntity
8
1
62
256
6
ByLayer
370
18
48
1
60
0
100
AcDbSpline
70
4
71
3
72
8
73
4
40
0
40
0
40
0
40
0
40
1
40
1
40
1
40
1
41
1
10
23.4883654568196
20
17.6574221345841
30
0
41
1
10
23.6215563645717
20
17.6571241451145
30
0
41
1
10
23.7560879831605
20
17.6569865451799
30
0
41
1
10
23.89201810543
20
17.6570220561648
30
0
0
SPLINE
5
147
100
AcDbEntity
8
1
62
256
6
ByLayer
370
18
48
1
60
0
100
AcDbSpline
70
4
71
3
72
14
73
10
40
0
40
0
40
0
40
0
40
0.500000000000025
40
0.500000000000025
40
0.625000000000022
40
0.625000000000022
40
0.750000000000018
40
0.750000000000018
40
1
40
1
40
1
40
1
41
1
10
23.4883654568196
20
17.6574221345841
30
0
41
1
10
23.3532548967354
20
17.6566434087188
30
0
41
1
10
23.2156916195391
20
17.6560293303144
30
0
41
1
10
23.0406207761362
20
17.6555074587834
30
0
41
1
10
23.0054500421593
20
17.6554153414645
30
0
41
1
10
22.9347911637578
20
17.6552565111865
30
0
41
1
10
22.8992581193401
20
17.6551897409819
30
0
41
1
10
22.7925683811447
20
17.6550293492843
30
0
41
1
10
22.721336799918
20
17.654975528568
30
0
41
1
10
22.65
20
17.654975528568
30
0
0
SPLINE
5
148
100
AcDbEntity
8
1
62
256
6
ByLayer
370
18
48
1
60
0
100
AcDbSpline
70
4
71
3
72
73
73
69
40
0
40
0
40
0
40
0
40
0.0312500000000011
40
0.0312500000000011
40
0.0390625000000014
40
0.0390625000000014
40
0.0468750000000019
40
0.0625000000000024
40
0.0625000000000024
40
0.125000000000004
40
0.125000000000004
40
0.156250000000005
40
0.156250000000005
40
0.171875000000005
40
0.171875000000005
40
0.179687500000006
40
0.179687500000006
40
0.187500000000006
40
0.187500000000006
40
0.250000000000005
40
0.250000000000005
40
0.312500000000005
40
0.312500000000005
40
0.328125000000005
40
0.328125000000005
40
0.343750000000005
40
0.343750000000005
40
0.375000000000005
40
0.375000000000005
40
0.437500000000004
40
0.437500000000004
40
0.453125000000004
40
0.453125000000004
40
0.468750000000004
40
0.468750000000004
40
0.500000000000004
40
0.500000000000004
40
0.562500000000003
40
0.562500000000003
40
0.578125000000003
40
0.585937500000003
40
0.585937500000003
40
0.593750000000003
40
0.593750000000003
40
0.625000000000002
40
0.625000000000002
40
0.687500000000002
40
0.687500000000002
40
0.718750000000001
40
0.726562500000001
40
0.726562500000001
40
0.734375000000001
40
0.734375000000001
40
0.750000000000001
40
0.750000000000001
40
0.812500000000001
40
0.812500000000001
40
0.843750000000001
40
0.843750000000001
40
0.859375000000001
40
0.859375000000001
40
0.867187500000001
40
0.867187500000001
40
0.875000000000001
40
0.875000000000001
40
0.9375
40
0.9375
40
1
40
1
40
1
40
1
41
1
10
-8.67220122194215
20
16.4277987780579
30
0
41
1
10
-8.54192388284778
20
16.433078076989
30
0
41
1
10
-8.41246056748653
20
16.4391955726308
30
0
41
1
10
-8.25167590177037
20
16.4478945598075
30
0
41
1
10
-8.21954095222722
20
16.4496888389154
30
0
41
1
10
-8.15563674301526
20
16.4533677269544
30
0
41
1
10
-8.06026026720146
20
16.4590249737051
30
0
41
1
10
-7.96630886822942
20
16.4650916606222
30
0
41
1
10
-7.65625473166153
20
16.4861947763512
30
0
41
1
10
-7.41813201165256
20
16.5058842690229
30
0
41
1
10
-7.07555491258563
20
16.539222038052
30
0
41
1
10
-6.96380771684734
20
16.5509708500512
30
0
41
1
10
-6.79991788262767
20
16.5695167986628
30
0
41
1
10
-6.7459104513969
20
16.5758526966907
30
0
41
1
10
-6.66584749712646
20
16.5855846157915
30
0
41
1
10
-6.63932386074947
20
16.5888660465152
30
0
41
1
10
-6.58682507683599
20
16.595474968182
30
0
41
1
10
-6.56082052536756
20
16.5988059983557
30
0
41
1
10
-6.32896282125486
20
16.6290173575483
30
0
41
1
10
-6.13830084736617
20
16.6575117541808
30
0
41
1
10
-5.7868337065118
20
16.717134252746
30
0
41
1
10
-5.62602751131894
20
16.7482643954267
30
0
41
1
10
-5.44439436205286
20
16.7885537390946
30
0
41
1
10
-5.40921236288821
20
16.7966435962841
30
0
41
1
10
-5.34129447551953
20
16.8128346607882
30
0
41
1
10
-5.30852658680411
20
16.8209429542845
30
0
41
1
10
-5.21374813326361
20
16.8452947157187
30
0
41
1
10
-5.15525764681411
20
16.8615648008571
30
0
41
1
10
-4.99368121030253
20
16.9104012049696
30
0
41
1
10
-4.90440798082645
20
16.9429905668891
30
0
41
1
10
-4.81646732656807
20
16.983554257362
30
0
41
1
10
-4.8000621613418
20
16.9916618690012
30
0
41
1
10
-4.76969740026587
20
17.0078425055942
30
0
41
1
10
-4.75582236755028
20
17.0158699398552
30
0
41
1
10
-4.71805500412776
20
17.0397615912828
30
0
41
1
10
-4.69801473469175
20
17.0554351132688
30
0
41
1
10
-4.65300983643951
20
17.1016787417934
30
0
41
1
10
-4.64307453884518
20
17.1314714272209
30
0
41
1
10
-4.65607811770792
20
17.1673785268624
30
0
41
1
10
-4.66189625005711
20
17.1780506840493
30
0
41
1
10
-4.67063161425835
20
17.1885719722386
30
0
41
1
10
-4.67710954315476
20
17.195552542918
30
0
41
1
10
-4.68068001388318
20
17.1990295960128
30
0
41
1
10
-4.70011037371427
20
17.2162680514983
30
0
41
1
10
-4.72070458266387
20
17.229611530417
30
0
41
1
10
-4.79724128087369
20
17.2683674739325
30
0
41
1
10
-4.86785523119985
20
17.2925079092363
30
0
41
1
10
-5.00314967884776
20
17.3263870748507
30
0
41
1
10
-5.06566769355734
20
17.3400168266724
30
0
41
1
10
-5.13607044818386
20
17.3530607019199
30
0
41
1
10
-5.1648698641952
20
17.3582317537095
30
0
41
1
10
-5.17957277192642
20
17.3607910759404
30
0
41
1
10
-5.22445226147792
20
17.368368843211
30
0
41
1
10
-5.25545071393259
20
17.3732964302096
30
0
41
1
10
-5.41575724291934
20
17.3973401536127
30
0
41
1
10
-5.56091612214283
20
17.4146814069129
30
0
41
1
10
-5.80363719966161
20
17.438270405398
30
0
41
1
10
-5.8887260544189
20
17.4457280522104
30
0
41
1
10
-6.02274891761826
20
17.4563465444357
30
0
41
1
10
-6.06848930429106
20
17.4597913030316
30
0
41
1
10
-6.13872475246367
20
17.4648206774432
30
0
41
1
10
-6.16243200051332
20
17.4664758248904
30
0
41
1
10
-6.21026709251214
20
17.4697323148437
30
0
41
1
10
-6.23437847651928
20
17.4713326387238
30
0
41
1
10
-6.45311004534339
20
17.4854914580855
30
0
41
1
10
-6.65976206852196
20
17.4963536066008
30
0
41
1
10
-7.09677740871866
20
17.5152701258508
30
0
41
1
10
-7.3271392560454
20
17.5233226435788
30
0
41
1
10
-7.56983875567933
20
17.5301612443207
30
0
0
SPLINE
5
149
100
AcDbEntity
8
1
62
256
6
ByLayer
370
18
48
1
60
0
100
AcDbSpline
70
4
71
3
72
22
73
18
40
0
40
0
40
0
40
0
40
0.124999999999999
40
0.124999999999999
40
0.187499999999999
40
0.187499999999999
40
0.25
40
0.25
40
0.375000000000001
40
0.375000000000001
40
0.5
40
0.5
40
0.625
40
0.625
40
0.75
40
0.75
40
1
40
1
40
1
40
1
41
1
10
-19
20
0.875000000000369
30
0
41
1
10
-19
20
0.886739396505504
30
0
41
1
10
-19
20
0.898334933247412
30
0
41
1
10
-19
20
0.915526319994314
30
0
41
1
10
-19
20
0.921249839664796
30
0
41
1
10
-19
20
0.932382397268725
30
0
41
1
10
-19
20
0.937818025288578
30
0
41
1
10
-19
20
0.953779495961811
30
0
41
1
10
-19
20
0.963962002739862
30
0
41
1
10
-19
20
0.983590258656619
30
0
41
1
10
-19
20
0.993066633922297
30
0
41
1
10
-19
20
1.01103989558169
30
0
41
1
10
-19
20
1.01958933386419
30
0
41
1
10
-19
20
1.03599807149254
30
0
41
1
10
-19
20
1.04387864715071
30
0
41
1
10
-19
20
1.06647334031416
30
0
41
1
10
-19
20
1.08016731983295
30
0
41
1
10
-19
20
1.09294494717704
30
0
0
SPLINE
5
14A
100
AcDbEntity
8
1
62
256
6
ByLayer
370
18
48
1
60
0
100
AcDbSpline
70
4
71
3
72
17
73
13
40
0
40
0
40
0
40
0
40
0.124999999999998
40
0.124999999999998
40
0.249999999999996
40
0.249999999999996
40
0.499999999999997
40
0.749999999999997
40
0.749999999999997
40
0.874999999999999
40
0.874999999999999
40
1
40
1
40
1
40
1
41
1
10
13.235222578539
20
1.10194986103858
30
0
41
1
10
13.2321935483699
20
1.09318855767597
30
0
41
1
10
13.2293203218475
20
1.08423466879822
30
0
41
1
10
13.2239543142364
20
1.06613922486676
30
0
41
1
10
13.2214653348583
20
1.05701600373575
30
0
41
1
10
13.2145677418627
20
1.02942479564717
30
0
41
1
10
13.2068854653385
20
0.992047187488197
30
0
41
1
10
13.2021935309542
20
0.953505971538249
30
0
41
1
10
13.199828648195
20
0.924150986363628
30
0
41
1
10
13.1992333220498
20
0.91426735684496
30
0
41
1
10
13.1984461533015
20
0.894599019382014
30
0
41
1
10
13.19825125937
20
0.884788104788328
30
0
41
1
10
13.19825125937
20
0.875000000000085
30
0
0
SPLINE
5
14B
100
AcDbEntity
8
1
62
256
6
ByLayer
370
18
48
1
60
0
100
AcDbSpline
70
4
71
3
72
18
73
14
40
0
40
0
40
0
40
0
40
0.124999999999999
40
0.124999999999999
40
0.249999999999997
40
0.249999999999997
40
0.499999999999998
40
0.499999999999998
40
0.749999999999998
40
0.749999999999998
40
0.874999999999999
40
0.874999999999999
40
1
40
1
40
1
40
1
41
1
10
11.008951354588
20
1.375
30
0
41
1
10
11.1024043261518
20
1.375
30
0
41
1
10
11.1957087125228
20
1.37255596513185
30
0
41
1
10
11.3820854841408
20
1.36385177599382
30
0
41
1
10
11.4751574989197
20
1.35758552800058
30
0
41
1
10
11.7540946265054
20
1.33419896304537
30
0
41
1
10
11.939683050875
20
1.31252747798848
30
0
41
1
10
12.3103884324468
20
1.26142948077404
30
0
41
1
10
12.4955020109838
20
1.23194739392957
30
0
41
1
10
12.7729840888848
20
1.18462713747374
30
0
41
1
10
12.8654466157606
20
1.16833559921221
30
0
41
1
10
13.0503435121645
20
1.13528937061892
30
0
41
1
10
13.1427773011428
20
1.11852513099282
30
0
41
1
10
13.2352225785401
20
1.10194986104807
30
0
0
SPLINE
5
14C
100
AcDbEntity
8
1
62
256
6
ByLayer
370
18
48
1
60
0
100
AcDbSpline
70
4
71
3
72
29
73
25
40
0
40
0
40
0
40
0
40
0.0312500000000007
40
0.0312500000000007
40
0.0390625000000007
40
0.0390625000000007
40
0.0468750000000007
40
0.0625000000000007
40
0.0625000000000007
40
0.125000000000001
40
0.125000000000001
40
0.250000000000001
40
0.250000000000001
40
0.5
40
0.5
40
0.625
40
0.625
40
0.75
40
0.75
40
0.875
40
0.875
40
0.9375
40
0.9375
40
1
40
1
40
1
40
1
41
1
10
4.27170925976944
20
1.375
30
0
41
1
10
4.22741708030421
20
1.375
30
0
41
1
10
4.18311521228611
20
1.37474466629501
30
0
41
1
10
4.12772677047062
20
1.37413278892913
30
0
41
1
10
4.11662214905542
20
1.37399551069433
30
0
41
1
10
4.09427422884423
20
1.37368997305902
30
0
41
1
10
4.06075558069162
20
1.37318797124104
30
0
41
1
10
4.02724641447105
20
1.37255778395618
30
0
41
1
10
3.9155693592561
20
1.37018454364463
30
0
41
1
10
3.82629208870634
20
1.36741568963569
30
0
41
1
10
3.55862276249422
20
1.35691250020776
30
0
41
1
10
3.38039235477672
20
1.34699285937802
30
0
41
1
10
2.84615367628121
20
1.3111160225001
30
0
41
1
10
2.49060296760774
20
1.27897308159913
30
0
41
1
10
1.95751260839614
20
1.22757220977638
30
0
41
1
10
1.77985535969111
20
1.20990407890304
30
0
41
1
10
1.42447169103707
20
1.17550293757336
30
0
41
1
10
1.24674643474305
20
1.15875419576076
30
0
41
1
10
0.891013924382435
20
1.12906901707234
30
0
41
1
10
0.713004743019667
20
1.11615863515703
30
0
41
1
10
0.445564863653289
20
1.10255357249485
30
0
41
1
10
0.356363876266812
20
1.09898704843107
30
0
41
1
10
0.178116206561867
20
1.09418171358328
30
0
41
1
10
0.0890353225494209
20
1.09294494717704
30
0
41
1
10
0
20
1.09294494717704
30
0
0
SPLINE
5
14D
100
AcDbEntity
8
1
62
256
6
ByLayer
370
18
48
1
60
0
100
AcDbSpline
70
4
71
3
72
24
73
20
40
0
40
0
40
0
40
0
40
0.0312500000000003
40
0.0312500000000003
40
0.0625000000000006
40
0.125000000000001
40
0.125000000000001
40
0.25
40
0.375
40
0.5
40
0.624999999999999
40
0.624999999999999
40
0.687499999999999
40
0.718749999999999
40
0.718749999999999
40
0.749999999999999
40
0.749999999999999
40
0.875
40
1
40
1
40
1
40
1
41
1
10
-9.19285892692081
20
15.9071410730792
30
0
41
1
10
-9.10413378814488
20
15.8979147444704
30
0
41
1
10
-9.01490181484537
20
15.8887679683613
30
0
41
1
10
-8.83610851117588
20
15.8707099714301
30
0
41
1
10
-8.5672308266286
20
15.8439557280314
30
0
41
1
10
-8.29630237056989
20
15.8182208445381
30
0
41
1
10
-7.75173692632144
20
15.7681656064253
30
0
41
1
10
-7.01843175201702
20
15.7051978498771
30
0
41
1
10
-5.89705472935685
20
15.6229319920698
30
0
41
1
10
-4.7542694168587
20
15.5537093765562
30
0
41
1
10
-3.97800115475474
20
15.5168295112271
30
0
41
1
10
-3.39028602976722
20
15.4928643227645
30
0
41
1
10
-3.09504906923883
20
15.4818054885198
30
0
41
1
10
-2.79771374118693
20
15.4721743584304
30
0
41
1
10
-2.5990199941489
20
15.4660756348499
30
0
41
1
10
-2.49942605340976
20
15.4631872089249
30
0
41
1
10
-2.00150379331049
20
15.4495932773246
30
0
41
1
10
-1.20319038256073
20
15.4332094547425
30
0
41
1
10
-0.401611590998755
20
15.427702274508
30
0
41
1
10
0
20
15.427702274508
30
0
0
SPLINE
5
14E
100
AcDbEntity
8
1
62
256
6
ByLayer
370
18
48
1
60
0
100
AcDbSpline
70
4
71
3
72
19
73
15
40
0
40
0
40
0
40
0
40
0.25
40
0.25
40
0.5
40
0.5
40
0.75
40
0.75
40
0.78125
40
0.78125
40
0.8125
40
0.8125
40
0.875
40
1
40
1
40
1
40
1
41
1
10
5.63509935370516
20
0.394519052838319
30
0
41
1
10
4.70254111910936
20
0.222952407750881
30
0
41
1
10
3.76801610718675
20
0.0927021215975117
30
0
41
1
10
1.89487856191636
20
-0.0819313319209414
30
0
41
1
10
0.956265693072965
20
-0.126307451483001
30
0
41
1
10
-0.925138877083555
20
-0.127274388280995
30
0
41
1
10
-1.86793073751329
20
-0.083861862932082
30
0
41
1
10
-2.93093349052771
20
0.0145941935030862
30
0
41
1
10
-3.04907766511903
20
0.0262218984740628
30
0
41
1
10
-3.28543148800509
20
0.0508527234128167
30
0
41
1
10
-3.40368510858852
20
0.0638609988027099
30
0
41
1
10
-3.75823014923867
20
0.104910346530318
30
0
41
1
10
-4.46572999617388
20
0.195015774362247
30
0
41
1
10
-5.16854959974498
20
0.308685940134069
30
0
41
1
10
-5.63509935370516
20
0.394519052838291
30
0
0
SPLINE
5
14F
100
AcDbEntity
8
1
62
256
6
ByLayer
370
18
48
1
60
0
100
AcDbSpline
70
4
71
3
72
18
73
14
40
0
40
0
40
0
40
0
40
0.250000000000008
40
0.250000000000008
40
0.500000000000016
40
0.500000000000016
40
0.625000000000012
40
0.625000000000012
40
0.750000000000008
40
0.750000000000008
40
0.875000000000004
40
0.875000000000004
40
1
40
1
40
1
40
1
41
1
10
-18.0287287527199
20
-0.249980947161589
30
0
41
1
10
-18.0203801250127
20
-0.259705568661019
30
0
41
1
10
-18.0127640730215
20
-0.269146074866086
30
0
41
1
10
-17.9995385373246
20
-0.287244191447456
30
0
41
1
10
-17.9942059657753
20
-0.2955286581508
30
0
41
1
10
-17.9888303130257
20
-0.306287723333213
30
0
41
1
10
-17.98753960481
20
-0.309477182072811
30
0
41
1
10
-17.9859863111476
20
-0.315040220045688
30
0
41
1
10
-17.9857248510136
20
-0.317423789181305
30
0
41
1
10
-17.9863130485071
20
-0.321261305045226
30
0
41
1
10
-17.9871484850687
20
-0.322665110889972
30
0
41
1
10
-17.9898118920066
20
-0.324527026171893
30
0
41
1
10
-17.9916613950634
20
-0.324980947161691
30
0
41
1
10
-17.9939249199246
20
-0.324980947161691
30
0
0
SPLINE
5
150
100
AcDbEntity
8
1
62
256
6
ByLayer
370
18
48
1
60
0
100
AcDbSpline
70
4
71
3
72
8
73
4
40
0
40
0
40
0
40
0
40
1
40
1
40
1
40
1
41
1
10
-18.5812482082592
20
0.394519052838319
30
0
41
1
10
-18.397239110843
20
0.17958023859083
30
0
41
1
10
-18.2130708182976
20
-0.0352562190928438
30
0
41
1
10
-18.0287287527199
20
-0.249980947161561
30
0
0
SPLINE
5
151
100
AcDbEntity
8
1
62
256
6
ByLayer
370
18
48
1
60
0
100
AcDbSpline
70
4
71
3
72
35
73
31
40
0
40
0
40
0
40
0
40
0.125000000000001
40
0.125000000000001
40
0.250000000000002
40
0.250000000000002
40
0.375000000000002
40
0.375000000000002
40
0.4375
40
0.4375
40
0.499999999999998
40
0.499999999999998
40
0.562499999999996
40
0.562499999999996
40
0.624999999999995
40
0.624999999999995
40
0.656249999999994
40
0.656249999999994
40
0.687499999999993
40
0.718749999999992
40
0.718749999999992
40
0.749999999999991
40
0.749999999999991
40
0.812499999999993
40
0.812499999999993
40
0.874999999999995
40
0.874999999999995
40
0.937499999999998
40
0.937499999999998
40
1
40
1
40
1
40
1
41
1
10
-18.4739743524117
20
0.394519052838319
30
0
41
1
10
-18.4870076534492
20
0.40467771428311
30
0
41
1
10
-18.4998072213004
20
0.41425738730112
30
0
41
1
10
-18.5248961876862
20
0.432166599792794
30
0
41
1
10
-18.5371877874604
20
0.44050144479246
30
0
41
1
10
-18.5611262051355
20
0.455603749929821
30
0
41
1
10
-18.5724254375322
20
0.462153942749694
30
0
41
1
10
-18.5880536600985
20
0.470032587577066
30
0
41
1
10
-18.5930715511233
20
0.472341317897843
30
0
41
1
10
-18.6023316428988
20
0.476059968224234
30
0
41
1
10
-18.6065924280455
20
0.477483071167541
30
0
41
1
10
-18.61424480329
20
0.479301674402052
30
0
41
1
10
-18.6176614101842
20
0.479690478088912
30
0
41
1
10
-18.6231992909744
20
0.479203435856874
30
0
41
1
10
-18.6253491347405
20
0.478344329635576
30
0
41
1
10
-18.6275127386324
20
0.475998666709387
30
0
41
1
10
-18.6280515637346
20
0.475037860517887
30
0
41
1
10
-18.6287334483274
20
0.47280285105478
30
0
41
1
10
-18.6290306236999
20
0.470245036757745
30
0
41
1
10
-18.6285640542785
20
0.467045659082999
30
0
41
1
10
-18.6277115578637
20
0.463521717329655
30
0
41
1
10
-18.6270871066253
20
0.461588002934661
30
0
41
1
10
-18.624692905213
20
0.455453171617592
30
0
41
1
10
-18.6224018034917
20
0.450883639903509
30
0
41
1
10
-18.6165835561629
20
0.440889135534377
30
0
41
1
10
-18.6130868726058
20
0.435525392193966
30
0
41
1
10
-18.6052856511485
20
0.424440528495324
30
0
41
1
10
-18.6009563118815
20
0.418678369205168
30
0
41
1
10
-18.5915551587891
20
0.4067724130702
30
0
41
1
10
-18.5865153525356
20
0.400671540737704
30
0
41
1
10
-18.5812482082592
20
0.394519052838319
30
0
0
SPLINE
5
152
100
AcDbEntity
8
1
62
256
6
ByLayer
370
18
48
1
60
0
100
AcDbSpline
70
4
71
3
72
8
73
4
40
0
40
0
40
0
40
0
40
1
40
1
40
1
40
1
41
1
10
-17.6355675589552
20
-0.249980947161674
30
0
41
1
10
-17.9167965179605
20
-0.0368647817199701
30
0
41
1
10
-18.1962122396723
20
0.17802046530457
30
0
41
1
10
-18.4739743524117
20
0.394519052838319
30
0
0
SPLINE
5
153
100
AcDbEntity
8
1
62
256
6
ByLayer
370
18
48
1
60
0
100
AcDbSpline
70
4
71
3
72
16
73
12
40
0
40
0
40
0
40
0
40
0.125000000000014
40
0.125000000000014
40
0.250000000000029
40
0.250000000000029
40
0.500000000000019
40
0.500000000000019
40
0.75000000000001
40
0.75000000000001
40
1
40
1
40
1
40
1
41
1
10
-17.5000603949205
20
-0.32498094716351
30
0
41
1
10
-17.5034531652321
20
-0.32498094716334
30
0
41
1
10
-17.5073995575774
20
-0.324343825065853
30
0
41
1
10
-17.516211201762
20
-0.322010582254791
30
0
41
1
10
-17.5210964025255
20
-0.320298706549949
30
0
41
1
10
-17.5364170579665
20
-0.313999603466158
30
0
41
1
10
-17.5477048511587
20
-0.308216513563508
30
0
41
1
10
-17.5716642128454
20
-0.294401957912299
30
0
41
1
10
-17.5840274375988
20
-0.286548128378229
30
0
41
1
10
-17.6093593126197
20
-0.26935695362036
30
0
41
1
10
-17.6223873763713
20
-0.259968929843211
30
0
41
1
10
-17.6355675589552
20
-0.249980947161674
30
0
0
SPLINE
5
154
100
AcDbEntity
8
1
62
256
6
ByLayer
370
18
48
1
60
0
100
AcDbSpline
70
4
71
3
72
22
73
18
40
0
40
0
40
0
40
0
40
0.125
40
0.125
40
0.25
40
0.25
40
0.375
40
0.375
40
0.5
40
0.5
40
0.625
40
0.625
40
0.75
40
0.75
40
0.875
40
0.875
40
1
40
1
40
1
40
1
41
1
10
-17.4382636790639
20
-0.249980947161532
30
0
41
1
10
-17.4341690345688
20
-0.254867676870248
30
0
41
1
10
-17.4302867485268
20
-0.259694172525712
30
0
41
1
10
-17.4230138932383
20
-0.269207361992926
30
0
41
1
10
-17.4196040003651
20
-0.273922123855868
30
0
41
1
10
-17.4134737102217
20
-0.283050307925606
30
0
41
1
10
-17.4107831734637
20
-0.287415492847487
30
0
41
1
10
-17.4062510968043
20
-0.295693994296243
30
0
41
1
10
-17.4043952993558
20
-0.299650731135898
30
0
41
1
10
-17.4017898508421
20
-0.306767870244073
30
0
41
1
10
-17.4010281714754
20
-0.309930304132877
30
0
41
1
10
-17.4006235085082
20
-0.315434288950485
30
0
41
1
10
-17.4009999617451
20
-0.317791201698952
30
0
41
1
10
-17.4028560532314
20
-0.321456739983063
30
0
41
1
10
-17.4043205947448
20
-0.322797204013625
30
0
41
1
10
-17.4082400976542
20
-0.324567600424018
30
0
41
1
10
-17.4106764673078
20
-0.324980947161691
30
0
41
1
10
-17.4134725186275
20
-0.324980947161691
30
0
0
SPLINE
5
155
100
AcDbEntity
8
1
62
256
6
ByLayer
370
18
48
1
60
0
100
AcDbSpline
70
4
71
3
72
8
73
4
40
0
40
0
40
0
40
0
40
1
40
1
40
1
40
1
41
1
10
-17.9778880275984
20
0.394519052838319
30
0
41
1
10
-17.7980999976783
20
0.179631242401683
30
0
41
1
10
-17.6182278533523
20
-0.0352037478078557
30
0
41
1
10
-17.4382636790639
20
-0.249980947161504
30
0
0
SPLINE
5
156
100
AcDbEntity
8
1
62
256
6
ByLayer
370
18
48
1
60
0
100
AcDbSpline
70
4
71
3
72
32
73
28
40
0
40
0
40
0
40
0
40
0.125000000000009
40
0.125000000000009
40
0.250000000000017
40
0.250000000000017
40
0.312500000000018
40
0.312500000000018
40
0.375000000000019
40
0.375000000000019
40
0.500000000000005
40
0.500000000000005
40
0.562500000000005
40
0.562500000000005
40
0.625000000000004
40
0.625000000000004
40
0.687500000000003
40
0.687500000000003
40
0.750000000000003
40
0.750000000000003
40
0.812500000000002
40
0.812500000000002
40
0.875000000000001
40
0.875000000000001
40
0.937500000000001
40
0.937500000000001
40
1
40
1
40
1
40
1
41
1
10
-17.8422547739246
20
0.394519052838319
30
0
41
1
10
-17.8560258583049
20
0.404520298715653
30
0
41
1
10
-17.8696032737994
20
0.413929027723412
30
0
41
1
10
-17.8963439997889
20
0.431494872861293
30
0
41
1
10
-17.9095086622445
20
0.439656005426087
30
0
41
1
10
-17.9288752363966
20
0.450757410418703
30
0
41
1
10
-17.9352728578613
20
0.454267026879989
30
0
41
1
10
-17.9476703393397
20
0.460711222123479
30
0
41
1
10
-17.9537005653584
20
0.46366412377742
30
0
41
1
10
-17.9712128917084
20
0.471599262198481
30
0
41
1
10
-17.9822334827616
20
0.475699253576352
30
0
41
1
10
-17.9962669091183
20
0.478921245725019
30
0
41
1
10
-18.0005541852456
20
0.479519553246576
30
0
41
1
10
-18.008147229582
20
0.479518551809349
30
0
41
1
10
-18.011339731184
20
0.478915980909278
30
0
41
1
10
-18.0163291232035
20
0.476337856270049
30
0
41
1
10
-18.0181293379942
20
0.474316428364631
30
0
41
1
10
-18.0199708816204
20
0.468918723610557
30
0
41
1
10
-18.0200531724044
20
0.465548906874716
30
0
41
1
10
-18.0184789084955
20
0.457414202766614
30
0
41
1
10
-18.0168366824856
20
0.45276514253942
30
0
41
1
10
-18.0120969825224
20
0.442603577620275
30
0
41
1
10
-18.0089580969637
20
0.437021951453488
30
0
41
1
10
-18.0016666684293
20
0.425517957988518
30
0
41
1
10
-17.9974945596912
20
0.419543766457821
30
0
41
1
10
-17.988265511424
20
0.407220741848732
30
0
41
1
10
-17.9832116767568
20
0.400882031017034
30
0
41
1
10
-17.9778880275984
20
0.394519052838319
30
0
0
SPLINE
5
157
100
AcDbEntity
8
1
62
256
6
ByLayer
370
18
48
1
60
0
100
AcDbSpline
70
4
71
3
72
8
73
4
40
0
40
0
40
0
40
0
40
1
40
1
40
1
40
1
41
1
10
-16.9397539363789
20
-0.249980947161674
30
0
41
1
10
-17.2427061894618
20
-0.0373726821929097
30
0
41
1
10
-17.5434740859654
20
0.177529668330379
30
0
41
1
10
-17.8422547739246
20
0.394519052838319
30
0
0
SPLINE
5
158
100
AcDbEntity
8
1
62
256
6
ByLayer
370
18
48
1
60
0
100
AcDbSpline
70
4
71
3
72
18
73
14
40
0
40
0
40
0
40
0
40
0.124999999999993
40
0.124999999999993
40
0.249999999999986
40
0.249999999999986
40
0.499999999999971
40
0.499999999999971
40
0.624999999999981
40
0.624999999999981
40
0.749999999999991
40
0.749999999999991
40
1
40
1
40
1
40
1
41
1
10
-16.7870313841584
20
-0.324980947167205
30
0
41
1
10
-16.791342106785
20
-0.324980947166722
30
0
41
1
10
-16.7961881593911
20
-0.324327948262379
30
0
41
1
10
-16.8067373608678
20
-0.321974304028231
30
0
41
1
10
-16.8124756598324
20
-0.320254548459047
30
0
41
1
10
-16.8302474035175
20
-0.313940007976839
30
0
41
1
10
-16.8429780756196
20
-0.308195138262704
30
0
41
1
10
-16.8630506740278
20
-0.297879915890746
30
0
41
1
10
-16.8698793452217
20
-0.294164224961378
30
0
41
1
10
-16.8835836043086
20
-0.286352873803736
30
0
41
1
10
-16.8904897614687
20
-0.282241375851697
30
0
41
1
10
-16.9113560136088
20
-0.26934695506975
30
0
41
1
10
-16.9254620768257
20
-0.260010803126988
30
0
41
1
10
-16.9397539363789
20
-0.249980947161674
30
0
0
SPLINE
5
159
100
AcDbEntity
8
1
62
256
6
ByLayer
370
18
48
1
60
0
100
AcDbSpline
70
4
71
3
72
22
73
18
40
0
40
0
40
0
40
0
40
0.125
40
0.125
40
0.25
40
0.25
40
0.375
40
0.375
40
0.5
40
0.5
40
0.625
40
0.625
40
0.75
40
0.75
40
0.875
40
0.875
40
1
40
1
40
1
40
1
41
1
10
-16.6928433719953
20
-0.249980947161418
30
0
41
1
10
-16.6887857444674
20
-0.254908553871502
30
0
41
1
10
-16.6849705694704
20
-0.259790857720077
30
0
41
1
10
-16.6779149533852
20
-0.26944782393528
30
0
41
1
10
-16.6746501619329
20
-0.274263633559656
30
0
41
1
10
-16.668997911571
20
-0.283500347574631
30
0
41
1
10
-16.6666000161339
20
-0.287927339757061
30
0
41
1
10
-16.6627981564321
20
-0.296336048834689
30
0
41
1
10
-16.6614063262736
20
-0.300325602141925
30
0
41
1
10
-16.6598747052286
20
-0.307395135076689
30
0
41
1
10
-16.6597043062066
20
-0.310531812540688
30
0
41
1
10
-16.6606077625794
20
-0.315971261589283
30
0
41
1
10
-16.6616850913993
20
-0.31821412996851
30
0
41
1
10
-16.6649110617957
20
-0.321701165436622
30
0
41
1
10
-16.6670940108751
20
-0.322977219047687
30
0
41
1
10
-16.6722914023283
20
-0.324610296155299
30
0
41
1
10
-16.6752935883738
20
-0.324980947162004
30
0
41
1
10
-16.6786305280169
20
-0.324980947162004
30
0
0
SPLINE
5
15A
100
AcDbEntity
8
1
62
256
6
ByLayer
370
18
48
1
60
0
100
AcDbSpline
70
4
71
3
72
8
73
4
40
0
40
0
40
0
40
0
40
1
40
1
40
1
40
1
41
1
10
-17.2234180953955
20
0.394519052838319
30
0
41
1
10
-17.0465893021273
20
0.179667539911037
30
0
41
1
10
-16.8697319891465
20
-0.0351663712000629
30
0
41
1
10
-16.6928433719954
20
-0.249980947161418
30
0
0
SPLINE
5
15B
100
AcDbEntity
8
1
62
256
6
ByLayer
370
18
48
1
60
0
100
AcDbSpline
70
4
71
3
72
36
73
32
40
0
40
0
40
0
40
0
40
0.125000000000006
40
0.125000000000006
40
0.250000000000011
40
0.250000000000011
40
0.312500000000008
40
0.312500000000008
40
0.375000000000005
40
0.375000000000005
40
0.437500000000002
40
0.437500000000002
40
0.499999999999999
40
0.499999999999999
40
0.562499999999996
40
0.562499999999996
40
0.624999999999993
40
0.624999999999993
40
0.68749999999999
40
0.68749999999999
40
0.749999999999987
40
0.749999999999987
40
0.812499999999985
40
0.812499999999985
40
0.84374999999999
40
0.84374999999999
40
0.874999999999995
40
0.874999999999995
40
0.937499999999998
40
0.937499999999998
40
1
40
1
40
1
40
1
41
1
10
-17.0559192792914
20
0.394519052838319
30
0
41
1
10
-17.0705982671182
20
0.404362834404878
30
0
41
1
10
-17.0851178275437
20
0.413601630101539
30
0
41
1
10
-17.1138227275755
20
0.430828338333697
30
0
41
1
10
-17.1280088688477
20
0.438819193995471
30
0
41
1
10
-17.1489899980216
20
0.449699392425316
30
0
41
1
10
-17.1559606335937
20
0.4531526058731
30
0
41
1
10
-17.1696501918301
20
0.459564811699522
30
0
41
1
10
-17.1763456356655
20
0.462514412437855
30
0
41
1
10
-17.1894003078252
20
0.467836120126378
30
0
41
1
10
-17.1957600056047
20
0.470209044019242
30
0
41
1
10
-17.2080807163957
20
0.474269475598959
30
0
41
1
10
-17.2140546329025
20
0.475956566440431
30
0
41
1
10
-17.2252235244482
20
0.478415526060701
30
0
41
1
10
-17.2304549202225
20
0.479202477171327
30
0
41
1
10
-17.2400467319688
20
0.479682312363281
30
0
41
1
10
-17.2444294871586
20
0.479360097418436
30
0
41
1
10
-17.2517430897208
20
0.477362054351346
30
0
41
1
10
-17.2547315718806
20
0.475687856197624
30
0
41
1
10
-17.2589862605905
20
0.470736049652856
30
0
41
1
10
-17.2601800791641
20
0.467549883255174
30
0
41
1
10
-17.2606310932113
20
0.459699767510244
30
0
41
1
10
-17.2598443353929
20
0.454972489546776
30
0
41
1
10
-17.2572903989193
20
0.447204211494579
30
0
41
1
10
-17.2562136678002
20
0.444488571355805
30
0
41
1
10
-17.2536321914573
20
0.438817281238812
30
0
41
1
10
-17.25212003757
20
0.435851492444527
30
0
41
1
10
-17.2470990805785
20
0.4268335141021
30
0
41
1
10
-17.2430846030587
20
0.420595456700227
30
0
41
1
10
-17.2339746722671
20
0.407751827534497
30
0
41
1
10
-17.2288630059653
20
0.401134758640808
30
0
41
1
10
-17.2234180953955
20
0.394519052838348
30
0
0
SPLINE
5
15C
100
AcDbEntity
8
1
62
256
6
ByLayer
370
18
48
1
60
0
100
AcDbSpline
70
4
71
3
72
8
73
4
40
0
40
0
40
0
40
0
40
1
40
1
40
1
40
1
41
1
10
-16.0747405491863
20
-0.249980947161674
30
0
41
1
10
-16.4043614902331
20
-0.0380721567194087
30
0
41
1
10
-16.7313392866229
20
0.176854552642254
30
0
41
1
10
-17.0559192792914
20
0.394519052838319
30
0
0
SPLINE
5
15D
100
AcDbEntity
8
1
62
256
6
ByLayer
370
18
48
1
60
0
100
AcDbSpline
70
4
71
3
72
18
73
14
40
0
40
0
40
0
40
0
40
0.124999999999997
40
0.124999999999997
40
0.249999999999995
40
0.249999999999995
40
0.500000000000004
40
0.500000000000004
40
0.625000000000003
40
0.625000000000003
40
0.750000000000002
40
0.750000000000002
40
1
40
1
40
1
40
1
41
1
10
-15.9014694779915
20
-0.3249809471763
30
0
41
1
10
-15.9068347284255
20
-0.324980947175277
30
0
41
1
10
-15.9127047740947
20
-0.324317621812327
30
0
41
1
10
-15.9252257328505
20
-0.321961956424701
30
0
41
1
10
-15.9319250958335
20
-0.320249195654498
30
0
41
1
10
-15.9524998074368
20
-0.313959742985048
30
0
41
1
10
-15.9669425794261
20
-0.308258872530075
30
0
41
1
10
-15.9893960442947
20
-0.298066963277279
30
0
41
1
10
-15.9970463709325
20
-0.294372260744638
30
0
41
1
10
-16.0124072411958
20
-0.286558897961356
30
0
41
1
10
-16.0201229062703
20
-0.28243976752168
30
0
41
1
10
-16.0433670810145
20
-0.269500582045311
30
0
41
1
10
-16.0589915323881
20
-0.260105774454985
30
0
41
1
10
-16.0747405491863
20
-0.249980947161674
30
0
0
SPLINE
5
15E
100
AcDbEntity
8
1
62
256
6
ByLayer
370
18
48
1
60
0
100
AcDbSpline
70
4
71
3
72
24
73
20
40
0
40
0
40
0
40
0
40
0.124999999999997
40
0.124999999999997
40
0.249999999999994
40
0.249999999999994
40
0.374999999999991
40
0.374999999999991
40
0.499999999999988
40
0.499999999999988
40
0.562499999999985
40
0.562499999999985
40
0.624999999999983
40
0.624999999999983
40
0.749999999999989
40
0.749999999999989
40
0.874999999999994
40
0.874999999999994
40
1
40
1
40
1
40
1
41
1
10
-15.7705104401658
20
-0.249980947161219
30
0
41
1
10
-15.7664409806213
20
-0.254963799579315
30
0
41
1
10
-15.7626505409949
20
-0.259920539419568
30
0
41
1
10
-15.7557515288526
20
-0.269770044953589
30
0
41
1
10
-15.7526342009609
20
-0.274688047466299
30
0
41
1
10
-15.7474658460834
20
-0.284082327184649
30
0
41
1
10
-15.7453822187738
20
-0.288598514860183
30
0
41
1
10
-15.7424161976405
20
-0.297195434075945
30
0
41
1
10
-15.7415893741885
20
-0.301137261101388
30
0
41
1
10
-15.7413685370152
20
-0.30641250250045
30
0
41
1
10
-15.7414634919665
20
-0.30806975476014
30
0
41
1
10
-15.7419978988112
20
-0.311177247757115
30
0
41
1
10
-15.7424416837273
20
-0.312630120683423
30
0
41
1
10
-15.744244201702
20
-0.316565770116455
30
0
41
1
10
-15.7460732175955
20
-0.31867350402598
30
0
41
1
10
-15.7508356082857
20
-0.32197829122353
30
0
41
1
10
-15.7537321937801
20
-0.323141681747757
30
0
41
1
10
-15.7602441134992
20
-0.32463826070034
30
0
41
1
10
-15.7638772192613
20
-0.324980947161663
30
0
41
1
10
-15.7678282405415
20
-0.324980947161663
30
0
0
SPLINE
5
15F
100
AcDbEntity
8
1
62
256
6
ByLayer
370
18
48
1
60
0
100
AcDbSpline
70
4
71
3
72
8
73
4
40
0
40
0
40
0
40
0
40
1
40
1
40
1
40
1
41
1
10
-16.2968648471025
20
0.394519052838319
30
0
41
1
10
-16.1214142561082
20
0.179685181728644
30
0
41
1
10
-15.9459628164259
20
-0.0351481695532812
30
0
41
1
10
-15.7705104401659
20
-0.249980947161219
30
0
0
SPLINE
5
160
100
AcDbEntity
8
1
62
256
6
ByLayer
370
18
48
1
60
0
100
AcDbSpline
70
4
71
3
72
37
73
33
40
0
40
0
40
0
40
0
40
0.125000000000014
40
0.125000000000014
40
0.250000000000029
40
0.250000000000029
40
0.312500000000027
40
0.312500000000027
40
0.375000000000025
40
0.375000000000025
40
0.437500000000023
40
0.437500000000023
40
0.500000000000021
40
0.500000000000021
40
0.562500000000019
40
0.562500000000019
40
0.625000000000018
40
0.625000000000018
40
0.687500000000016
40
0.687500000000016
40
0.718750000000015
40
0.718750000000015
40
0.750000000000014
40
0.781250000000013
40
0.781250000000013
40
0.812500000000012
40
0.812500000000012
40
0.875000000000008
40
0.875000000000008
40
0.937500000000004
40
0.937500000000004
40
1
40
1
40
1
40
1
41
1
10
-16.0923183384426
20
0.394519052838319
30
0
41
1
10
-16.1081403501313
20
0.404200256657845
30
0
41
1
10
-16.1238313712992
20
0.413265662151645
30
0
41
1
10
-16.1549439718491
20
0.430149685211973
30
0
41
1
10
-16.1703660028168
20
0.437970340595513
30
0
41
1
10
-16.1932654366168
20
0.448629773409038
30
0
41
1
10
-16.2008593510069
20
0.452002917468832
30
0
41
1
10
-16.2159579026447
20
0.458340102413388
30
0
41
1
10
-16.2234519279944
20
0.461297908650863
30
0
41
1
10
-16.2380890158211
20
0.466647495179046
30
0
41
1
10
-16.245260980452
20
0.469052204399844
30
0
41
1
10
-16.2592633136992
20
0.473231268390492
30
0
41
1
10
-16.2661219864907
20
0.475012423208597
30
0
41
1
10
-16.2792863978668
20
0.477766429622619
30
0
41
1
10
-16.2855515578539
20
0.478734012847497
30
0
41
1
10
-16.2973118227789
20
0.479672125908735
30
0
41
1
10
-16.3028162984544
20
0.479645941417374
30
0
41
1
10
-16.3127801679192
20
0.478272438753095
30
0
41
1
10
-16.3170998390114
20
0.476943943677298
30
0
41
1
10
-16.3223498902317
20
0.473755976422041
30
0
41
1
10
-16.3239027532794
20
0.472480345157834
30
0
41
1
10
-16.3264777974483
20
0.469527657879866
30
0
41
1
10
-16.3285221872621
20
0.466189998119518
30
0
41
1
10
-16.3294707477644
20
0.462056024846504
30
0
41
1
10
-16.3298403401064
20
0.457500657007216
30
0
41
1
10
-16.3297288331335
20
0.454989178748832
30
0
41
1
10
-16.3285186876843
20
0.44706044623743
30
0
41
1
10
-16.3265623504638
20
0.441180005305654
30
0
41
1
10
-16.3206481840525
20
0.428496905157545
30
0
41
1
10
-16.316807646128
20
0.421921670112624
30
0
41
1
10
-16.3077594567695
20
0.408408203381782
30
0
41
1
10
-16.3025219331033
20
0.401445981256501
30
0
41
1
10
-16.2968648471025
20
0.394519052838319
30
0
0
SPLINE
5
161
100
AcDbEntity
8
1
62
256
6
ByLayer
370
18
48
1
60
0
100
AcDbSpline
70
4
71
3
72
8
73
4
40
0
40
0
40
0
40
0
40
1
40
1
40
1
40
1
41
1
10
-15.0113058733159
20
-0.249980947161674
30
0
41
1
10
-15.3747684041203
20
-0.0390788144742373
30
0
41
1
10
-15.7350028490323
20
0.175884144148966
30
0
41
1
10
-16.0923183384426
20
0.394519052838319
30
0
0
SPLINE
5
162
100
AcDbEntity
8
1
62
256
6
ByLayer
370
18
48
1
60
0
100
AcDbSpline
70
4
71
3
72
18
73
14
40
0
40
0
40
0
40
0
40
0.124999999999998
40
0.124999999999998
40
0.249999999999996
40
0.249999999999996
40
0.499999999999979
40
0.499999999999979
40
0.624999999999984
40
0.624999999999984
40
0.749999999999989
40
0.749999999999989
40
1
40
1
40
1
40
1
41
1
10
-14.8124623350353
20
-0.324980947161691
30
0
41
1
10
-14.8191040881758
20
-0.324980947161009
30
0
41
1
10
-14.8262013671261
20
-0.324309054638235
30
0
41
1
10
-14.8410729561888
20
-0.321962674102565
30
0
41
1
10
-14.8488745658275
20
-0.320277142050088
30
0
41
1
10
-14.8729727659273
20
-0.314000040236039
30
0
41
1
10
-14.8895680346605
20
-0.308329666237881
30
0
41
1
10
-14.9150208402985
20
-0.298248546839886
30
0
41
1
10
-14.9236014290334
20
-0.294617357588294
30
0
41
1
10
-14.9409404746336
20
-0.286855545448702
30
0
41
1
10
-14.9497206956231
20
-0.282713288346656
30
0
41
1
10
-14.976052688455
20
-0.26969847336872
30
0
41
1
10
-14.9936550910215
20
-0.260222959237126
30
0
41
1
10
-15.0113058733159
20
-0.249980947161674
30
0
0
SPLINE
5
163
100
AcDbEntity
8
1
62
256
6
ByLayer
370
18
48
1
60
0
100
AcDbSpline
70
4
71
3
72
22
73
18
40
0
40
0
40
0
40
0
40
0.125
40
0.125
40
0.25
40
0.25
40
0.375
40
0.375
40
0.5
40
0.5
40
0.625
40
0.625
40
0.75
40
0.75
40
0.875
40
0.875
40
1
40
1
40
1
40
1
41
1
10
-14.6378611567674
20
-0.249980947160765
30
0
41
1
10
-14.6337062695904
20
-0.255043416118525
30
0
41
1
10
-14.6298767351538
20
-0.260106240331453
30
0
41
1
10
-14.6230472637204
20
-0.270232753743471
30
0
41
1
10
-14.6200843263832
20
-0.275257691632021
30
0
41
1
10
-14.6154489910775
20
-0.284851965514861
30
0
41
1
10
-14.6137386426708
20
-0.289478184913406
30
0
41
1
10
-14.6118264888769
20
-0.298252416364704
30
0
41
1
10
-14.6116726799336
20
-0.302184420737689
30
0
41
1
10
-14.6129132685258
20
-0.309168004887198
30
0
41
1
10
-14.6143452457558
20
-0.312233712057065
30
0
41
1
10
-14.6185013101192
20
-0.31722899389257
30
0
41
1
10
-14.6212507120715
20
-0.319223339349264
30
0
41
1
10
-14.6276897795995
20
-0.322264257201539
30
0
41
1
10
-14.6313455176698
20
-0.323311967656196
30
0
41
1
10
-14.6393339813921
20
-0.324671544088858
30
0
41
1
10
-14.6436861637691
20
-0.324980947161691
30
0
41
1
10
-14.6482797132064
20
-0.324980947161691
30
0
0
SPLINE
5
164
100
AcDbEntity
8
1
62
256
6
ByLayer
370
18
48
1
60
0
100
AcDbSpline
70
4
71
3
72
8
73
4
40
0
40
0
40
0
40
0
40
1
40
1
40
1
40
1
41
1
10
-15.1667226783067
20
0.394519052838319
30
0
41
1
10
-14.9904557633516
20
0.179673252606676
30
0
41
1
10
-14.8141693177328
20
-0.035160531136512
30
0
41
1
10
-14.6378611567676
20
-0.249980947160765
30
0
0
SPLINE
5
165
100
AcDbEntity
8
1
62
256
6
ByLayer
370
18
48
1
60
0
100
AcDbSpline
70
4
71
3
72
32
73
28
40
0
40
0
40
0
40
0
40
0.124999999999982
40
0.124999999999982
40
0.249999999999963
40
0.249999999999963
40
0.374999999999945
40
0.374999999999945
40
0.437499999999943
40
0.437499999999943
40
0.499999999999941
40
0.499999999999941
40
0.624999999999951
40
0.624999999999951
40
0.749999999999962
40
0.749999999999962
40
0.812499999999969
40
0.812499999999969
40
0.843749999999972
40
0.843749999999972
40
0.874999999999976
40
0.874999999999976
40
0.906249999999979
40
0.906249999999979
40
0.937499999999983
40
0.937499999999983
40
1
40
1
40
1
40
1
41
1
10
-14.917139020263
20
0.394519052838319
30
0
41
1
10
-14.9344476298749
20
0.404023486860524
30
0
41
1
10
-14.951670326529
20
0.412916838420955
30
0
41
1
10
-14.985940144602
20
0.429481867193488
30
0
41
1
10
-15.0029874868118
20
0.437155024368053
30
0
41
1
10
-15.0368825566627
20
0.451126841449934
30
0
41
1
10
-15.0538143213152
20
0.457452343825082
30
0
41
1
10
-15.0784542027497
20
0.465437639459168
30
0
41
1
10
-15.086556340249
20
0.467854927845565
30
0
41
1
10
-15.1025031675837
20
0.472121922114553
30
0
41
1
10
-15.1103771446343
20
0.473978062194675
30
0
41
1
10
-15.1333232050906
20
0.478462496419667
30
0
41
1
10
-15.1475864856647
20
0.480042909231599
30
0
41
1
10
-15.1728315270451
20
0.478697351337104
30
0
41
1
10
-15.1839406355279
20
0.475624193230942
30
0
41
1
10
-15.1935543889026
20
0.465213977477276
30
0
41
1
10
-15.1955157054795
20
0.460889148266347
30
0
41
1
10
-15.1962909719604
20
0.452906798019313
30
0
41
1
10
-15.1961750258383
20
0.450020940609448
30
0
41
1
10
-15.1952286606578
20
0.443978379701605
30
0
41
1
10
-15.1944011683871
20
0.440798728334443
30
0
41
1
10
-15.1920700953782
20
0.434136718479124
30
0
41
1
10
-15.1905606996569
20
0.430654502661866
30
0
41
1
10
-15.1870296219919
20
0.423643516063777
30
0
41
1
10
-15.1849986360634
20
0.420084952291035
30
0
41
1
10
-15.1782123037365
20
0.409270385922156
30
0
41
1
10
-15.1727363465437
20
0.401848910316261
30
0
41
1
10
-15.1667226783068
20
0.394519052838319
30
0
0
SPLINE
5
166
100
AcDbEntity
8
1
62
256
6
ByLayer
370
18
48
1
60
0
100
AcDbSpline
70
4
71
3
72
8
73
4
40
0
40
0
40
0
40
0
40
1
40
1
40
1
40
1
41
1
10
-13.7033325990741
20
-0.249980947161674
30
0
41
1
10
-14.1118090101191
20
-0.0406200174700473
30
0
41
1
10
-14.5162787786963
20
0.174400290933079
30
0
41
1
10
-14.917139020263
20
0.394519052838319
30
0
0
SPLINE
5
167
100
AcDbEntity
8
1
62
256
6
ByLayer
370
18
48
1
60
0
100
AcDbSpline
70
4
71
3
72
18
73
14
40
0
40
0
40
0
40
0
40
0.124999999999988
40
0.124999999999988
40
0.249999999999975
40
0.249999999999975
40
0.499999999999966
40
0.499999999999966
40
0.624999999999973
40
0.624999999999973
40
0.74999999999998
40
0.74999999999998
40
1
40
1
40
1
40
1
41
1
10
-13.4707590466833
20
-0.324980947161663
30
0
41
1
10
-13.4790426143305
20
-0.324980947160924
30
0
41
1
10
-13.4877484855215
20
-0.324300247940755
30
0
41
1
10
-13.5057756944861
20
-0.321941256519949
30
0
41
1
10
-13.5151490437596
20
-0.320245771405467
30
0
41
1
10
-13.5435827809818
20
-0.3140236442012
30
0
41
1
10
-13.5629742414692
20
-0.308403963315669
30
0
41
1
10
-13.5925288496342
20
-0.298384525187089
30
0
41
1
10
-13.6024606690834
20
-0.294771964935876
30
0
41
1
10
-13.6224734316684
20
-0.287040580432603
30
0
41
1
10
-13.6325784400979
20
-0.282910887998582
30
0
41
1
10
-13.6628952175061
20
-0.269878476907678
30
0
41
1
10
-13.6831105541848
20
-0.260345575335549
30
0
41
1
10
-13.7033325990741
20
-0.249980947161674
30
0
0
SPLINE
5
168
100
AcDbEntity
8
1
62
256
6
ByLayer
370
18
48
1
60
0
100
AcDbSpline
70
4
71
3
72
24
73
20
40
0
40
0
40
0
40
0
40
0.125000000000006
40
0.125000000000006
40
0.250000000000012
40
0.250000000000012
40
0.375000000000018
40
0.375000000000018
40
0.437500000000009
40
0.437500000000009
40
0.5
40
0.5
40
0.625
40
0.625
40
0.75
40
0.75
40
0.875
40
0.875
40
1
40
1
40
1
40
1
41
1
10
-13.2410331525235
20
-0.249980947159685
30
0
41
1
10
-13.2366717680853
20
-0.255161360763538
30
0
41
1
10
-13.2326950507481
20
-0.260385226271296
30
0
41
1
10
-13.2258016845266
20
-0.270931072699653
30
0
41
1
10
-13.2229993581938
20
-0.27608192599439
30
0
41
1
10
-13.2189684212771
20
-0.286084946206728
30
0
41
1
10
-13.2177598928941
20
-0.291002174949824
30
0
41
1
10
-13.2174600076951
20
-0.297580407577527
30
0
41
1
10
-13.217599246198
20
-0.299659982289569
30
0
41
1
10
-13.2183530563978
20
-0.303593932941141
30
0
41
1
10
-13.2189756245218
20
-0.305461994607072
30
0
41
1
10
-13.2214983554681
20
-0.310608205530855
30
0
41
1
10
-13.2240247330258
20
-0.31343594990571
30
0
41
1
10
-13.2304155523804
20
-0.318099627225763
30
0
41
1
10
-13.2341732063759
20
-0.31986544981919
30
0
41
1
10
-13.2425039387843
20
-0.322573447462247
30
0
41
1
10
-13.2471064545222
20
-0.323514290699393
30
0
41
1
10
-13.2568419376324
20
-0.324717378813972
30
0
41
1
10
-13.2619500759376
20
-0.324980947164164
30
0
41
1
10
-13.2672449924393
20
-0.324980947164107
30
0
0
SPLINE
5
169
100
AcDbEntity
8
1
62
256
6
ByLayer
370
18
48
1
60
0
100
AcDbSpline
70
4
71
3
72
8
73
4
40
0
40
0
40
0
40
0
40
1
40
1
40
1
40
1
41
1
10
-13.7830022040408
20
0.394519052838319
30
0
41
1
10
-13.6024787330431
20
0.179601914328856
30
0
41
1
10
-13.4218277113966
20
-0.0352347798379355
30
0
41
1
10
-13.2410331525239
20
-0.24998094715977
30
0
0
SPLINE
5
16A
100
AcDbEntity
8
1
62
256
6
ByLayer
370
18
48
1
60
0
100
AcDbSpline
70
4
71
3
72
42
73
38
40
0
40
0
40
0
40
0
40
0.12499999999999
40
0.12499999999999
40
0.24999999999998
40
0.24999999999998
40
0.374999999999971
40
0.374999999999971
40
0.43749999999997
40
0.43749999999997
40
0.499999999999969
40
0.499999999999969
40
0.562499999999968
40
0.562499999999968
40
0.624999999999967
40
0.624999999999967
40
0.687499999999967
40
0.687499999999967
40
0.71874999999997
40
0.71874999999997
40
0.749999999999973
40
0.749999999999973
40
0.781249999999977
40
0.781249999999977
40
0.81249999999998
40
0.81249999999998
40
0.843749999999983
40
0.843749999999983
40
0.874999999999987
40
0.874999999999987
40
0.90624999999999
40
0.90624999999999
40
0.937499999999993
40
0.937499999999993
40
0.968749999999997
40
0.968749999999997
40
1
40
1
40
1
40
1
41
1
10
-13.4751387226226
20
0.394519052838348
30
0
41
1
10
-13.4944974298941
20
0.403824970923949
30
0
41
1
10
-13.5137682733054
20
0.412506876021638
30
0
41
1
10
-13.5521351294637
20
0.428655124456242
30
0
41
1
10
-13.5712312469642
20
0.436122125516334
30
0
41
1
10
-13.6092315701573
20
0.449732644727959
30
0
41
1
10
-13.6281363869181
20
0.455880681945132
30
0
41
1
10
-13.6563165838365
20
0.463875283141988
30
0
41
1
10
-13.6657097944521
20
0.466339640870586
30
0
41
1
10
-13.68417823702
20
0.470721421207799
30
0
41
1
10
-13.6932733156991
20
0.472646210690215
30
0
41
1
10
-13.7111381361335
20
0.475871029240125
30
0
41
1
10
-13.7199085658052
20
0.477172418009957
30
0
41
1
10
-13.7370460781937
20
0.478996684936675
30
0
41
1
10
-13.7454473674279
20
0.479522794198147
30
0
41
1
10
-13.7615565883783
20
0.479515271737995
30
0
41
1
10
-13.7691954443652
20
0.478988680249955
30
0
41
1
10
-13.7797908223149
20
0.477107910049227
30
0
41
1
10
-13.7831870871887
20
0.476291703406076
30
0
41
1
10
-13.7894934249633
20
0.474249515499508
30
0
41
1
10
-13.7924190564528
20
0.47302260592582
30
0
41
1
10
-13.7977338238776
20
0.470082361169176
30
0
41
1
10
-13.8001238000058
20
0.468369794664795
30
0
41
1
10
-13.8042436244571
20
0.464344813194259
30
0
41
1
10
-13.8059545012143
20
0.462033278761908
30
0
41
1
10
-13.8084586467166
20
0.456907376408793
30
0
41
1
10
-13.8092739842408
20
0.454074887423445
30
0
41
1
10
-13.8099296361508
20
0.447806989829843
30
0
41
1
10
-13.8097574303534
20
0.444470345874578
30
0
41
1
10
-13.8084729692142
20
0.437445286657436
30
0
41
1
10
-13.8073470724843
20
0.433719731071363
30
0
41
1
10
-13.8042548936939
20
0.42607571628605
30
0
41
1
10
-13.8023108722539
20
0.42219152204089
30
0
41
1
10
-13.7977493603533
20
0.414317667809627
30
0
41
1
10
-13.7951158494948
20
0.410309926271566
30
0
41
1
10
-13.7893940390956
20
0.40238146501062
30
0
41
1
10
-13.786296163494
20
0.398440583573262
30
0
41
1
10
-13.7830022040414
20
0.394519052838263
30
0
0
SPLINE
5
16B
100
AcDbEntity
8
1
62
256
6
ByLayer
370
18
48
1
60
0
100
AcDbSpline
70
4
71
3
72
8
73
4
40
0
40
0
40
0
40
0
40
1
40
1
40
1
40
1
41
1
10
-12.0715924641051
20
-0.249980947161674
30
0
41
1
10
-12.5443782285905
20
-0.0432112314598498
30
0
41
1
10
-13.0120515832121
20
0.171908579658265
30
0
41
1
10
-13.4751387226226
20
0.394519052838319
30
0
0
SPLINE
5
16C
100
AcDbEntity
8
1
62
256
6
ByLayer
370
18
48
1
60
0
100
AcDbSpline
70
4
71
3
72
18
73
14
40
0
40
0
40
0
40
0
40
0.124999999999998
40
0.124999999999998
40
0.249999999999997
40
0.249999999999997
40
0.374999999999995
40
0.374999999999995
40
0.499999999999994
40
0.499999999999994
40
0.749999999999997
40
0.749999999999997
40
1
40
1
40
1
40
1
41
1
10
-11.7904053433561
20
-0.324980947161691
30
0
41
1
10
-11.8009857587864
20
-0.324980947161123
30
0
41
1
10
-11.8119141236754
20
-0.324294680904728
30
0
41
1
10
-11.8342604401862
20
-0.321948179201343
30
0
41
1
10
-11.8456816009172
20
-0.320281751592603
30
0
41
1
10
-11.868919781421
20
-0.316156259594692
30
0
41
1
10
-11.8806546577429
20
-0.313709166632691
30
0
41
1
10
-11.9041624897105
20
-0.308214039015723
30
0
41
1
10
-11.9159624072422
20
-0.305160068139657
30
0
41
1
10
-11.95148223962
20
-0.29519330724861
30
0
41
1
10
-11.9753205267178
20
-0.287485958052685
30
0
41
1
10
-12.0232815266328
20
-0.270170993163305
30
0
41
1
10
-12.0474840624247
20
-0.260524596602778
30
0
41
1
10
-12.0715924641051
20
-0.249980947161674
30
0
0
SPLINE
5
16D
100
AcDbEntity
8
1
62
256
6
ByLayer
370
18
48
1
60
0
100
AcDbSpline
70
4
71
3
72
26
73
22
40
0
40
0
40
0
40
0
40
0.0625000000000169
40
0.0625000000000169
40
0.125000000000034
40
0.125000000000034
40
0.250000000000056
40
0.250000000000056
40
0.312500000000057
40
0.312500000000057
40
0.375000000000058
40
0.375000000000058
40
0.43750000000006
40
0.43750000000006
40
0.500000000000061
40
0.500000000000061
40
0.625000000000041
40
0.625000000000041
40
0.750000000000021
40
0.750000000000021
40
1
40
1
40
1
40
1
41
1
10
-11.4840297216474
20
-0.2499809471567
30
0
41
1
10
-11.4816286657575
20
-0.252662809483013
30
0
41
1
10
-11.4793484168762
20
-0.255372625405698
30
0
41
1
10
-11.4750796198066
20
-0.260859831188952
30
0
41
1
10
-11.4730842221143
20
-0.263650244245781
30
0
41
1
10
-11.4677646288332
20
-0.271946319953031
30
0
41
1
10
-11.4650456356642
20
-0.277434891804376
30
0
41
1
10
-11.462706057678
20
-0.285534684117294
30
0
41
1
10
-11.4622438677764
20
-0.288130022310526
30
0
41
1
10
-11.4619653550609
20
-0.293107796327661
30
0
41
1
10
-11.4621533183068
20
-0.295506817538978
30
0
41
1
10
-11.4631780671402
20
-0.300007083328865
30
0
41
1
10
-11.4640022960698
20
-0.302081589349513
30
0
41
1
10
-11.4662023413252
20
-0.305919505641953
30
0
41
1
10
-11.4675918046275
20
-0.307694451502499
30
0
41
1
10
-11.4723994241289
20
-0.312493707308533
30
0
41
1
10
-11.4764176812268
20
-0.315011270866336
30
0
41
1
10
-11.4855788711065
20
-0.3190997144346
30
0
41
1
10
-11.4906901155617
20
-0.320641072370194
30
0
41
1
10
-11.5067742702653
20
-0.324111897520851
30
0
41
1
10
-11.5186972392776
20
-0.324980947161748
30
0
41
1
10
-11.5311526233312
20
-0.324980947161748
30
0
0
SPLINE
5
16E
100
AcDbEntity
8
1
62
256
6
ByLayer
370
18
48
1
60
0
100
AcDbSpline
70
4
71
3
72
8
73
4
40
0
40
0
40
0
40
0
40
1
40
1
40
1
40
1
41
1
10
-12.0587239255455
20
0.394519052838319
30
0
41
1
10
-11.8676217953063
20
0.179376344705133
30
0
41
1
10
-11.6760787809167
20
-0.0354715144199815
30
0
41
1
10
-11.4840297216482
20
-0.249980947156956
30
0
0
SPLINE
5
16F
100
AcDbEntity
8
1
62
256
6
ByLayer
370
18
48
1
60
0
100
AcDbSpline
70
4
71
3
72
32
73
28
40
0
40
0
40
0
40
0
40
0.250000000000005
40
0.250000000000005
40
0.375000000000007
40
0.375000000000007
40
0.500000000000009
40
0.500000000000009
40
0.625000000000012
40
0.625000000000012
40
0.687500000000008
40
0.687500000000008
40
0.750000000000004
40
0.750000000000004
40
0.8125
40
0.8125
40
0.84375
40
0.84375
40
0.875
40
0.875
40
0.90625
40
0.90625
40
0.9375
40
0.9375
40
0.96875
40
0.96875
40
1
40
1
40
1
40
1
41
1
10
-11.6678057336413
20
0.394519052838405
30
0
41
1
10
-11.7127397678169
20
0.41266167405351
30
0
41
1
10
-11.7573384013257
20
0.428385440091915
30
0
41
1
10
-11.8237114343644
20
0.448288569619422
30
0
41
1
10
-11.845746713031
20
0.454295911623802
30
0
41
1
10
-11.8896066393101
20
0.464812029230075
30
0
41
1
10
-11.9114326704852
20
0.46933185223088
30
0
41
1
10
-11.95479962995
20
0.476291629724812
30
0
41
1
10
-11.9759294367788
20
0.478686948315044
30
0
41
1
10
-12.0062651822148
20
0.479674902419362
30
0
41
1
10
-12.0162023258966
20
0.479558848744972
30
0
41
1
10
-12.0351157717405
20
0.478062827266314
30
0
41
1
10
-12.0440909421574
20
0.476702313584752
30
0
41
1
10
-12.0605343945399
20
0.472050935714037
30
0
41
1
10
-12.0677998310453
20
0.468833437824344
30
0
41
1
10
-12.0762532119582
20
0.461814512102706
30
0
41
1
10
-12.0786055530974
20
0.459126123836853
30
0
41
1
10
-12.0820678765738
20
0.453040044483913
30
0
41
1
10
-12.0831948388428
20
0.449567033594036
30
0
41
1
10
-12.0839543936443
20
0.442111383170811
30
0
41
1
10
-12.0836171858975
20
0.43812255355823
30
0
41
1
10
-12.0815169303313
20
0.429624814704908
30
0
41
1
10
-12.0797842940736
20
0.42525064573681
30
0
41
1
10
-12.0752352121409
20
0.416407852627799
30
0
41
1
10
-12.07239584525
20
0.411909057921463
30
0
41
1
10
-12.0660531689379
20
0.403129240718585
30
0
41
1
10
-12.0625268109323
20
0.398800339805859
30
0
41
1
10
-12.0587239255501
20
0.394519052837495
30
0
0
SPLINE
5
170
100
AcDbEntity
8
1
62
256
6
ByLayer
370
18
48
1
60
0
100
AcDbSpline
70
4
71
3
72
8
73
4
40
0
40
0
40
0
40
0
40
1
40
1
40
1
40
1
41
1
10
-9.95818080364235
20
-0.249980947161674
30
0
41
1
10
-10.5346776336162
20
-0.0483216931654624
30
0
41
1
10
-11.1043070714565
20
0.167000136035085
30
0
41
1
10
-11.6678057336413
20
0.394519052838319
30
0
0
SPLINE
5
171
100
AcDbEntity
8
1
62
256
6
ByLayer
370
18
48
1
60
0
100
AcDbSpline
70
4
71
3
72
18
73
14
40
0
40
0
40
0
40
0
40
0.124999999999997
40
0.124999999999997
40
0.249999999999994
40
0.249999999999994
40
0.374999999999991
40
0.374999999999991
40
0.499999999999988
40
0.499999999999988
40
0.749999999999994
40
0.749999999999994
40
1
40
1
40
1
40
1
41
1
10
-9.59510119943218
20
-0.324980947161663
30
0
41
1
10
-9.60939630151748
20
-0.324980947161464
30
0
41
1
10
-9.6239295812311
20
-0.324297794518799
30
0
41
1
10
-9.65331986464511
20
-0.321987997282719
30
0
41
1
10
-9.66817941641821
20
-0.320354306837686
30
0
41
1
10
-9.69815480400071
20
-0.316330675660282
30
0
41
1
10
-9.71327144979442
20
-0.313938494308843
30
0
41
1
10
-9.74372435458608
20
-0.308500052459749
30
0
41
1
10
-9.75905370529833
20
-0.305452754405337
30
0
41
1
10
-9.80495401068578
20
-0.295505489673701
30
0
41
1
10
-9.83557362085624
20
-0.287787704120774
30
0
41
1
10
-9.89684818743098
20
-0.270391615950899
30
0
41
1
10
-9.92750315018563
20
-0.260712025614936
30
0
41
1
10
-9.95818080364235
20
-0.249980947161788
30
0
0
SPLINE
5
172
100
AcDbEntity
8
1
62
256
6
ByLayer
370
18
48
1
60
0
100
AcDbSpline
70
4
71
3
72
28
73
24
40
0
40
0
40
0
40
0
40
0.124999999999964
40
0.124999999999964
40
0.187499999999965
40
0.187499999999965
40
0.249999999999966
40
0.249999999999966
40
0.312499999999967
40
0.312499999999967
40
0.374999999999968
40
0.374999999999968
40
0.43749999999997
40
0.43749999999997
40
0.499999999999971
40
0.499999999999971
40
0.562499999999972
40
0.562499999999972
40
0.624999999999973
40
0.624999999999973
40
0.749999999999975
40
0.749999999999975
40
1
40
1
40
1
40
1
41
1
10
-9.16192765463471
20
-0.249980947138766
30
0
41
1
10
-9.15615273719946
20
-0.255600302159451
30
0
41
1
10
-9.15099568342295
20
-0.261428771439682
30
0
41
1
10
-9.14496698035521
20
-0.270733855934907
30
0
41
1
10
-9.14331827787984
20
-0.273832273955804
30
0
41
1
10
-9.14090466831678
20
-0.280021122036231
30
0
41
1
10
-9.14015242917438
20
-0.283132132257435
30
0
41
1
10
-9.13974594268898
20
-0.288994391027188
30
0
41
1
10
-9.14007685399193
20
-0.291811047499237
30
0
41
1
10
-9.1417676079579
20
-0.297056649595447
30
0
41
1
10
-9.14309662059087
20
-0.299433796617194
30
0
41
1
10
-9.1465454728244
20
-0.303785698641548
30
0
41
1
10
-9.14864892647047
20
-0.305731679420603
30
0
41
1
10
-9.1533278990505
20
-0.309190981638522
30
0
41
1
10
-9.15591900108399
20
-0.310721335777572
30
0
41
1
10
-9.16149106763972
20
-0.313472547988255
30
0
41
1
10
-9.16447108844582
20
-0.314689457233811
30
0
41
1
10
-9.17061784845471
20
-0.316834503373656
30
0
41
1
10
-9.17380116993962
20
-0.317770516319058
30
0
41
1
10
-9.18361005093567
20
-0.320256178363707
30
0
41
1
10
-9.19049092912944
20
-0.321487874959104
30
0
41
1
10
-9.2118407449331
20
-0.324296988708028
30
0
41
1
10
-9.22679002986555
20
-0.324980947185395
30
0
41
1
10
-9.24203289084495
20
-0.324980947184287
30
0
0
SPLINE
5
173
100
AcDbEntity
8
1
62
256
6
ByLayer
370
18
48
1
60
0
100
AcDbSpline
70
4
71
3
72
8
73
4
40
0
40
0
40
0
40
0
40
1
40
1
40
1
40
1
41
1
10
-9.81603258289493
20
0.394519052838319
30
0
41
1
10
-9.59945084309437
20
0.178579548921931
30
0
41
1
10
-9.38150318820514
20
-0.0363202513205749
30
0
41
1
10
-9.16192765466236
20
-0.249980947148117
30
0
0
SPLINE
5
174
100
AcDbEntity
8
1
62
256
6
ByLayer
370
18
48
1
60
0
100
AcDbSpline
70
4
71
3
72
40
73
36
40
0
40
0
40
0
40
0
40
0.249999999999994
40
0.249999999999994
40
0.374999999999991
40
0.374999999999991
40
0.499999999999987
40
0.499999999999987
40
0.624999999999984
40
0.624999999999984
40
0.687499999999982
40
0.687499999999982
40
0.749999999999981
40
0.749999999999981
40
0.781249999999983
40
0.781249999999983
40
0.812499999999985
40
0.812499999999985
40
0.843749999999987
40
0.843749999999987
40
0.859374999999991
40
0.859374999999991
40
0.874999999999994
40
0.874999999999994
40
0.890624999999997
40
0.890624999999997
40
0.90625
40
0.90625
40
0.921875000000003
40
0.921875000000003
40
0.937500000000006
40
0.937500000000006
40
0.968750000000003
40
0.968750000000003
40
1
40
1
40
1
40
1
41
1
10
-9.2841810453084
20
0.394519052838376
30
0
41
1
10
-9.34017379706033
20
0.411984788024654
30
0
41
1
10
-9.39601192035433
20
0.427203651425628
30
0
41
1
10
-9.47952542222005
20
0.446639435856639
30
0
41
1
10
-9.50732211964873
20
0.452540557511185
30
0
41
1
10
-9.56282215011132
20
0.462985872473894
30
0
41
1
10
-9.5905971576497
20
0.46754346444186
30
0
41
1
10
-9.64542464074819
20
0.474775707838489
30
0
41
1
10
-9.67252935657893
20
0.477485771001255
30
0
41
1
10
-9.71247397730109
20
0.479401388086785
30
0
41
1
10
-9.7256149624321
20
0.479671406018895
30
0
41
1
10
-9.75127744124482
20
0.479198955684723
30
0
41
1
10
-9.76382370190693
20
0.478467938343755
30
0
41
1
10
-9.78197621721299
20
0.476199819832971
30
0
41
1
10
-9.78793553313179
20
0.475240630314488
30
0
41
1
10
-9.79941135246932
20
0.472809610404283
30
0
41
1
10
-9.80493252167001
20
0.471341442256374
30
0
41
1
10
-9.81536969482482
20
0.467696445541065
30
0
41
1
10
-9.82025191704597
20
0.465528162032342
30
0
41
1
10
-9.82671081231395
20
0.46160232917947
30
0
41
1
10
-9.82872465913616
20
0.460178391440451
30
0
41
1
10
-9.83240803000095
20
0.457044593765261
30
0
41
1
10
-9.83408395207489
20
0.455322141342577
30
0
41
1
10
-9.83691476309484
20
0.451629505232489
30
0
41
1
10
-9.83808223492781
20
0.44965214766799
30
0
41
1
10
-9.83984362065758
20
0.445393853961377
30
0
41
1
10
-9.84043321763885
20
0.443094163484318
30
0
41
1
10
-9.84093439359414
20
0.438350627376025
30
0
41
1
10
-9.84085819662579
20
0.43588877511641
30
0
41
1
10
-9.84005628377635
20
0.430785798097901
30
0
41
1
10
-9.83931959826043
20
0.428130012762523
30
0
41
1
10
-9.83628141918076
20
0.42020718810565
30
0
41
1
10
-9.83310183810713
20
0.414823368519507
30
0
41
1
10
-9.82543633707969
20
0.404451510867119
30
0
41
1
10
-9.82095703569021
20
0.399428903016116
30
0
41
1
10
-9.81603258289498
20
0.394519052838319
30
0
0
SPLINE
5
175
100
AcDbEntity
8
1
62
256
6
ByLayer
370
18
48
1
60
0
100
AcDbSpline
70
4
71
3
72
8
73
4
40
0
40
0
40
0
40
0
40
1
40
1
40
1
40
1
41
1
10
-6.93594876110137
20
-0.249980947161703
30
0
41
1
10
-7.72871488352833
20
-0.0625343625468133
30
0
41
1
10
-8.51106941926361
20
0.153363501317045
30
0
41
1
10
-9.2841810453084
20
0.394519052838319
30
0
0
SPLINE
5
176
100
AcDbEntity
8
1
62
256
6
ByLayer
370
18
48
1
60
0
100
AcDbSpline
70
4
71
3
72
16
73
12
40
0
40
0
40
0
40
0
40
0.125
40
0.125
40
0.25
40
0.25
40
0.5
40
0.5
40
0.75
40
0.75
40
1
40
1
40
1
40
1
41
1
10
-6.37324688789334
20
-0.324980947161691
30
0
41
1
10
-6.39622554762153
20
-0.324980947161805
30
0
41
1
10
-6.41933984890952
20
-0.32432683659124
30
0
41
1
10
-6.46575063303877
20
-0.322103275723634
30
0
41
1
10
-6.48904860821466
20
-0.320527259459766
30
0
41
1
10
-6.55915724759687
20
-0.314685170281479
30
0
41
1
10
-6.60624700046331
20
-0.30931152451268
30
0
41
1
10
-6.70053768771601
20
-0.296247688555951
30
0
41
1
10
-6.74765569510397
20
-0.288561641840119
30
0
41
1
10
-6.84183988712428
20
-0.270989081156273
30
0
41
1
10
-6.88890603212444
20
-0.261104024483615
30
0
41
1
10
-6.93594876110136
20
-0.249980947162044
30
0
0
SPLINE
5
177
100
AcDbEntity
8
1
62
256
6
ByLayer
370
18
48
1
60
0
100
AcDbSpline
70
4
71
3
72
32
73
28
40
0
40
0
40
0
40
0
40
0.062500000000001
40
0.062500000000001
40
0.125000000000002
40
0.125000000000002
40
0.156249999999992
40
0.156249999999992
40
0.187499999999983
40
0.187499999999983
40
0.218749999999973
40
0.218749999999973
40
0.249999999999963
40
0.249999999999963
40
0.281249999999953
40
0.281249999999953
40
0.312499999999944
40
0.312499999999944
40
0.374999999999953
40
0.374999999999953
40
0.499999999999964
40
0.499999999999964
40
0.624999999999975
40
0.624999999999975
40
0.749999999999986
40
0.749999999999986
40
1
40
1
40
1
40
1
41
1
10
-5.61238790983066
20
-0.249980947161674
30
0
41
1
10
-5.60765302916406
20
-0.253089184920668
30
0
41
1
10
-5.60312924602135
20
-0.256357332105779
30
0
41
1
10
-5.59482555714962
20
-0.263458431072081
30
0
41
1
10
-5.59105027515608
20
-0.26728590672252
30
0
41
1
10
-5.58688499125802
20
-0.273464681357837
30
0
41
1
10
-5.58578591563978
20
-0.275548359099474
30
0
41
1
10
-5.58431463660071
20
-0.279764544741283
30
0
41
1
10
-5.58395291309171
20
-0.281932408544151
30
0
41
1
10
-5.58411087529188
20
-0.286034279942328
30
0
41
1
10
-5.58461644419512
20
-0.288011152822264
30
0
41
1
10
-5.58637613485087
20
-0.291729229057808
30
0
41
1
10
-5.58759473135947
20
-0.293421247005369
30
0
41
1
10
-5.59053069476533
20
-0.296559073188945
30
0
41
1
10
-5.59225727253886
20
-0.298005436744717
30
0
41
1
10
-5.59597133164445
20
-0.300628566677915
30
0
41
1
10
-5.59797251939435
20
-0.30182026104319
30
0
41
1
10
-5.60429163701176
20
-0.305132530572479
30
0
41
1
10
-5.6089427890854
20
-0.306999070165261
30
0
41
1
10
-5.62327045301896
20
-0.311839387041061
30
0
41
1
10
-5.63344455078985
20
-0.314152801215727
30
0
41
1
10
-5.654360678393
20
-0.317936657222759
30
0
41
1
10
-5.66515582305115
20
-0.319378401561352
30
0
41
1
10
-5.68692929171775
20
-0.321677238196486
30
0
41
1
10
-5.69791907592236
20
-0.322532273450719
30
0
41
1
10
-5.7310993628526
20
-0.324485004299049
30
0
41
1
10
-5.75349694670442
20
-0.324980947161691
30
0
41
1
10
-5.77605947760026
20
-0.324980947161691
30
0
0
SPLINE
5
178
100
AcDbEntity
8
1
62
256
6
ByLayer
370
18
48
1
60
0
100
AcDbSpline
70
4
71
3
72
8
73
4
40
0
40
0
40
0
40
0
40
1
40
1
40
1
40
1
41
1
10
-6.54187806553895
20
0.394519052838319
30
0
41
1
10
-6.23806730610463
20
0.173174989895386
30
0
41
1
10
-5.92880201540663
20
-0.0422692138214131
30
0
41
1
10
-5.61238790983072
20
-0.249980947161703
30
0
0
SPLINE
5
179
100
AcDbEntity
8
1
62
256
6
ByLayer
370
18
48
1
60
0
100
AcDbSpline
70
4
71
3
72
42
73
38
40
0
40
0
40
0
40
0
40
0.249999999999989
40
0.249999999999989
40
0.374999999999984
40
0.374999999999984
40
0.499999999999979
40
0.499999999999979
40
0.624999999999973
40
0.624999999999973
40
0.687499999999971
40
0.687499999999971
40
0.749999999999968
40
0.749999999999968
40
0.812499999999965
40
0.812499999999965
40
0.843749999999964
40
0.843749999999964
40
0.874999999999962
40
0.874999999999962
40
0.906249999999961
40
0.906249999999961
40
0.921874999999963
40
0.921874999999963
40
0.937499999999964
40
0.937499999999964
40
0.945312499999969
40
0.945312499999969
40
0.953124999999973
40
0.953124999999973
40
0.960937499999977
40
0.960937499999977
40
0.968749999999981
40
0.968749999999981
40
0.98437499999999
40
0.98437499999999
40
1
40
1
40
1
40
1
41
1
10
-5.63509935370516
20
0.394519052838319
30
0
41
1
10
-5.72190542173044
20
0.41048912882053
30
0
41
1
10
-5.80868288459695
20
0.424733471319001
30
0
41
1
10
-5.93880564924044
20
0.443353543084044
30
0
41
1
10
-5.9821471639614
20
0.449088887548072
30
0
41
1
10
-6.06857569510589
20
0.459429533412248
30
0
41
1
10
-6.11168761760081
20
0.464042436826361
30
0
41
1
10
-6.19766252675518
20
0.471813512737214
30
0
41
1
10
-6.2405273446623
20
0.474985904312462
30
0
41
1
10
-6.3045665585008
20
0.478102801442105
30
0
41
1
10
-6.32586637804098
20
0.478863267139729
30
0
41
1
10
-6.36813982915069
20
0.479628898773399
30
0
41
1
10
-6.38913744363759
20
0.479640522332318
30
0
41
1
10
-6.43073070040575
20
0.478558744535746
30
0
41
1
10
-6.45138968921583
20
0.477480842671042
30
0
41
1
10
-6.48167377269934
20
0.474423628354543
30
0
41
1
10
-6.49161165409663
20
0.473164616848663
30
0
41
1
10
-6.51102817672674
20
0.469936618638428
30
0
41
1
10
-6.52051396104336
20
0.467978904086635
30
0
41
1
10
-6.53870820348467
20
0.462851168792327
30
0
41
1
10
-6.54747415553975
20
0.459688354136972
30
0
41
1
10
-6.5586508437889
20
0.45327318316717
30
0
41
1
10
-6.56208225390401
20
0.450813268369984
30
0
41
1
10
-6.56760145856256
20
0.445164968140489
30
0
41
1
10
-6.5697271823478
20
0.441898806140671
30
0
41
1
10
-6.57125941384879
20
0.436516137352527
30
0
41
1
10
-6.57150328364484
20
0.434610744631584
30
0
41
1
10
-6.57139923706535
20
0.430734829804351
30
0
41
1
10
-6.5710601097003
20
0.428773985692999
30
0
41
1
10
-6.56985184236829
20
0.42481000434347
30
0
41
1
10
-6.56897326203293
20
0.422798454423315
30
0
41
1
10
-6.56682641679652
20
0.418892726543106
30
0
41
1
10
-6.56555403553972
20
0.416977450053451
30
0
41
1
10
-6.56125565118423
20
0.411322623198941
30
0
41
1
10
-6.55776397299188
20
0.407698427918291
30
0
41
1
10
-6.55024111986286
20
0.40088211066481
30
0
41
1
10
-6.5461660120209
20
0.397643074837191
30
0
41
1
10
-6.54187806553904
20
0.394519052838291
30
0
0
SPLINE
5
17A
100
AcDbEntity
8
1
62
256
6
ByLayer
370
18
48
1
60
0
100
AcDbSpline
70
4
71
3
72
44
73
40
40
0
40
0
40
0
40
0
40
0.0156249999999946
40
0.0156249999999946
40
0.0312499999999892
40
0.0312499999999892
40
0.0468749999999839
40
0.0468749999999839
40
0.0624999999999785
40
0.0624999999999785
40
0.0703124999999758
40
0.0703124999999758
40
0.0781249999999732
40
0.0781249999999732
40
0.0937499999999748
40
0.0937499999999748
40
0.109374999999976
40
0.109374999999976
40
0.124999999999978
40
0.124999999999978
40
0.156249999999979
40
0.156249999999979
40
0.18749999999998
40
0.18749999999998
40
0.218749999999982
40
0.218749999999982
40
0.249999999999983
40
0.249999999999983
40
0.312499999999983
40
0.312499999999983
40
0.374999999999983
40
0.374999999999983
40
0.499999999999986
40
0.499999999999986
40
0.624999999999989
40
0.624999999999989
40
0.749999999999992
40
0.749999999999992
40
1
40
1
40
1
40
1
41
1
10
6.54187806555956
20
0.394519052853354
30
0
41
1
10
6.54614546779462
20
0.397628107157232
30
0
41
1
10
6.55021756356129
20
0.400861465452977
30
0
41
1
10
6.5577705620698
20
0.407703701197676
30
0
41
1
10
6.56129598643125
20
0.411363114125635
30
0
41
1
10
6.56705748724221
20
0.418968163507458
30
0
41
1
10
6.56932722932984
20
0.422995671933705
30
0
41
1
10
6.57168490957019
20
0.430920997184217
30
0
41
1
10
6.57175717462624
20
0.434925051400597
30
0
41
1
10
6.57015139304471
20
0.440322606181752
30
0
41
1
10
6.56933658674413
20
0.442055744708597
30
0
41
1
10
6.56726874995528
20
0.445298049905972
30
0
41
1
10
6.5660280453917
20
0.446800463934579
30
0
41
1
10
6.56181730098169
20
0.451027436641482
30
0
41
1
10
6.55833373982011
20
0.45348497340666
30
0
41
1
10
6.55080044529782
20
0.457746368327548
30
0
41
1
10
6.5467176738498
20
0.459580952860648
30
0
41
1
10
6.53813304768263
20
0.462858852853856
30
0
41
1
10
6.53361639847378
20
0.464301094258474
30
0
41
1
10
6.51984953257053
20
0.468133342855282
30
0
41
1
10
6.5103037647354
20
0.470077388088697
30
0
41
1
10
6.49079444448404
20
0.473278464499401
30
0
41
1
10
6.48082394217536
20
0.474523817516143
30
0
41
1
10
6.46058932392774
20
0.476536430526153
30
0
41
1
10
6.4503021217939
20
0.477301669748783
30
0
41
1
10
6.42961236265566
20
0.478467690200063
30
0
41
1
10
6.41922412124938
20
0.478867771469453
30
0
41
1
10
6.38795856659965
20
0.479649983083448
30
0
41
1
10
6.36698186331003
20
0.479620519913681
30
0
41
1
10
6.32484567668067
20
0.478831518110468
30
0
41
1
10
6.30368495098853
20
0.47806642369909
30
0
41
1
10
6.23998913389468
20
0.474946284754395
30
0
41
1
10
6.1972434203972
20
0.471779858008915
30
0
41
1
10
6.11135271730831
20
0.464007901333133
30
0
41
1
10
6.06816168315723
20
0.459383828874366
30
0
41
1
10
5.98166173485373
20
0.449026939424954
30
0
41
1
10
5.93839049291037
20
0.443296531767231
30
0
41
1
10
5.80851432815439
20
0.424704531841371
30
0
41
1
10
5.72184695483153
20
0.410478372420215
30
0
41
1
10
5.63509935370516
20
0.394519052838348
30
0
0
SPLINE
5
17B
100
AcDbEntity
8
1
62
256
6
ByLayer
370
18
48
1
60
0
100
AcDbSpline
70
4
71
3
72
8
73
4
40
0
40
0
40
0
40
0
40
1
40
1
40
1
40
1
41
1
10
5.61238790983106
20
-0.249980947161475
30
0
41
1
10
5.92880201541402
20
-0.042269213816553
30
0
41
1
10
6.23806730611875
20
0.173174989905192
30
0
41
1
10
6.54187806555956
20
0.394519052853354
30
0
0
SPLINE
5
17C
100
AcDbEntity
8
1
62
256
6
ByLayer
370
18
48
1
60
0
100
AcDbSpline
70
4
71
3
72
30
73
26
40
0
40
0
40
0
40
0
40
0.250000000000028
40
0.250000000000028
40
0.375000000000044
40
0.375000000000044
40
0.50000000000006
40
0.50000000000006
40
0.625000000000077
40
0.625000000000077
40
0.687500000000085
40
0.687500000000085
40
0.750000000000093
40
0.750000000000093
40
0.781250000000086
40
0.781250000000086
40
0.81250000000008
40
0.81250000000008
40
0.843750000000074
40
0.843750000000074
40
0.875000000000068
40
0.875000000000068
40
0.937500000000034
40
0.937500000000034
40
1
40
1
40
1
40
1
41
1
10
5.77605947760026
20
-0.324980947161691
30
0
41
1
10
5.75348207034327
20
-0.324980947161691
30
0
41
1
10
5.73107070305844
20
-0.324484360437964
30
0
41
1
10
5.69787250034994
20
-0.322529009528012
30
0
41
1
10
5.6868772103214
20
-0.321672821768971
30
0
41
1
10
5.6650941167884
20
-0.319370798652528
30
0
41
1
10
5.65428657913864
20
-0.31792659946683
30
0
41
1
10
5.63331780876879
20
-0.31412649334905
30
0
41
1
10
5.62309598237715
20
-0.311798232781058
30
0
41
1
10
5.60871185823666
20
-0.306911863318533
30
0
41
1
10
5.60414559160577
20
-0.305066689942009
30
0
41
1
10
5.59577508366931
20
-0.300657420183342
30
0
41
1
10
5.59190833607619
20
-0.298055354480226
30
0
41
1
10
5.58753904531318
20
-0.293349354747391
30
0
41
1
10
5.58631061121665
20
-0.291617982905677
30
0
41
1
10
5.58459914277952
20
-0.28794605759029
30
0
41
1
10
5.58410136075486
20
-0.286000156232347
30
0
41
1
10
5.58395805840712
20
-0.281846846797293
30
0
41
1
10
5.58432091561426
20
-0.27973412365381
30
0
41
1
10
5.58580546243635
20
-0.27550499097211
30
0
41
1
10
5.58693477365924
20
-0.273383741368946
30
0
41
1
10
5.59105083891657
20
-0.267299518675458
30
0
41
1
10
5.59482596376833
20
-0.263460724263382
30
0
41
1
10
5.6030760315866
20
-0.256400215582772
30
0
41
1
10
5.6076161834562
20
-0.253113372482801
30
0
41
1
10
5.61238790983103
20
-0.249980947161447
30
0
0
SPLINE
5
17D
100
AcDbEntity
8
1
62
256
6
ByLayer
370
18
48
1
60
0
100
AcDbSpline
70
4
71
3
72
16
73
12
40
0
40
0
40
0
40
0
40
0.25
40
0.25
40
0.5
40
0.5
40
0.75
40
0.75
40
0.875
40
0.875
40
1
40
1
40
1
40
1
41
1
10
6.93594876110137
20
-0.249980947161845
30
0
41
1
10
6.88889586647392
20
-0.261106428113465
30
0
41
1
10
6.84180134307147
20
-0.270997589283866
30
0
41
1
10
6.74752829299007
20
-0.28858409305434
30
0
41
1
10
6.70028861513458
20
-0.296286256727484
30
0
41
1
10
6.60600611195241
20
-0.30934081857896
30
0
41
1
10
6.55906062392074
20
-0.314694231797262
30
0
41
1
10
6.48902507413297
20
-0.320528714779613
30
0
41
1
10
6.46574452041281
20
-0.322103532762128
30
0
41
1
10
6.41935132105777
20
-0.324326322771526
30
0
41
1
10
6.39623729139328
20
-0.324980947161805
30
0
41
1
10
6.37324688789334
20
-0.324980947161691
30
0
0
SPLINE
5
17E
100
AcDbEntity
8
1
62
256
6
ByLayer
370
18
48
1
60
0
100
AcDbSpline
70
4
71
3
72
8
73
4
40
0
40
0
40
0
40
0
40
1
40
1
40
1
40
1
41
1
10
9.2841810453084
20
0.394519052838319
30
0
41
1
10
8.51106941926361
20
0.153363501317045
30
0
41
1
10
7.72871488352834
20
-0.0625343625468133
30
0
41
1
10
6.93594876110137
20
-0.249980947161703
30
0
0
SPLINE
5
17F
100
AcDbEntity
8
1
62
256
6
ByLayer
370
18
48
1
60
0
100
AcDbSpline
70
4
71
3
72
40
73
36
40
0
40
0
40
0
40
0
40
0.0312500000000092
40
0.0312500000000092
40
0.0625000000000184
40
0.0625000000000184
40
0.0781250000000174
40
0.0781250000000174
40
0.0937500000000164
40
0.0937500000000164
40
0.109375000000016
40
0.109375000000016
40
0.125000000000014
40
0.125000000000014
40
0.15625000000001
40
0.15625000000001
40
0.187500000000005
40
0.187500000000005
40
0.250000000000001
40
0.250000000000001
40
0.312499999999997
40
0.312499999999997
40
0.374999999999993
40
0.374999999999993
40
0.437499999999989
40
0.437499999999989
40
0.499999999999985
40
0.499999999999985
40
0.624999999999988
40
0.624999999999988
40
0.749999999999992
40
0.749999999999992
40
0.874999999999996
40
0.874999999999996
40
1
40
1
40
1
40
1
41
1
10
9.8160325828969
20
0.394519052837552
30
0
41
1
10
9.82098195223347
20
0.399453745670826
30
0
41
1
10
9.82556688294537
20
0.404602539074745
30
0
41
1
10
9.83325114814545
20
0.415051948253478
30
0
41
1
10
9.83638059560761
20
0.420378652246569
30
0
41
1
10
9.83940873940759
20
0.428409088717331
30
0
41
1
10
9.84011456011223
20
0.431030341943966
30
0
41
1
10
9.84087800321672
20
0.43615432775411
30
0
41
1
10
9.84093087921795
20
0.438682333081204
30
0
41
1
10
9.84035685513882
20
0.44347090089758
30
0
41
1
10
9.83974008264053
20
0.445725814987299
30
0
41
1
10
9.83790623184572
20
0.449982263740196
30
0
41
1
10
9.83667511604253
20
0.451996393124347
30
0
41
1
10
9.83230034394296
20
0.457522482393927
30
0
41
1
10
9.8284838541814
20
0.460585485218388
30
0
41
1
10
9.81960368743447
20
0.465853786827211
30
0
41
1
10
9.81467620295791
20
0.467977995038012
30
0
41
1
10
9.7989514958669
20
0.473342775126554
30
0
41
1
10
9.78712100451713
20
0.475600029742935
30
0
41
1
10
9.76283016137606
20
0.47854552376856
30
0
41
1
10
9.75026244320495
20
0.479243914143836
30
0
41
1
10
9.72458674972185
20
0.47966188106983
30
0
41
1
10
9.71147318768166
20
0.479370998879574
30
0
41
1
10
9.68483745942677
20
0.478057041979355
30
0
41
1
10
9.67129728761574
20
0.477027476641609
30
0
41
1
10
9.64421248948494
20
0.474417261577855
30
0
41
1
10
9.63062287134736
20
0.472833887959126
30
0
41
1
10
9.58973686994528
20
0.467407407483734
30
0
41
1
10
9.56232469000275
20
0.462896755182072
30
0
41
1
10
9.50725848501213
20
0.452524028495901
30
0
41
1
10
9.47960346504198
20
0.446655482458595
30
0
41
1
10
9.42407905641585
20
0.433737715187703
30
0
41
1
10
9.39620939340276
20
0.426686741656397
30
0
41
1
10
9.3402636981107
20
0.411446491895219
30
0
41
1
10
9.31218172106821
20
0.403253261687809
30
0
41
1
10
9.2841810453084
20
0.394519052838319
30
0
0
SPLINE
5
180
100
AcDbEntity
8
1
62
256
6
ByLayer
370
18
48
1
60
0
100
AcDbSpline
70
4
71
3
72
8
73
4
40
0
40
0
40
0
40
0
40
1
40
1
40
1
40
1
41
1
10
9.16192765464842
20
-0.249980947161674
30
0
41
1
10
9.38150318819592
20
-0.0363202513296415
30
0
41
1
10
9.59945084308978
20
0.178579548917355
30
0
41
1
10
9.81603258289493
20
0.394519052838319
30
0
0
SPLINE
5
181
100
AcDbEntity
8
1
62
256
6
ByLayer
370
18
48
1
60
0
100
AcDbSpline
70
4
71
3
72
26
73
22
40
0
40
0
40
0
40
0
40
0.250000000000029
40
0.250000000000029
40
0.375000000000054
40
0.375000000000054
40
0.500000000000079
40
0.500000000000079
40
0.562500000000074
40
0.562500000000074
40
0.625000000000069
40
0.625000000000069
40
0.687500000000064
40
0.687500000000064
40
0.750000000000058
40
0.750000000000058
40
0.812500000000053
40
0.812500000000053
40
0.875000000000048
40
0.875000000000048
40
1
40
1
40
1
40
1
41
1
10
9.24203289085673
20
-0.324980947161663
30
0
41
1
10
9.22681846497278
20
-0.324980947161691
30
0
41
1
10
9.21195319237734
20
-0.324305164642027
30
0
41
1
10
9.19059288824354
20
-0.321504563341421
30
0
41
1
10
9.18367090944855
20
-0.320269721185099
30
0
41
1
10
9.17054086661514
20
-0.316946194301409
30
0
41
1
10
9.16426491296247
20
-0.314836338250757
30
0
41
1
10
9.15599732501155
20
-0.310762869504941
30
0
41
1
10
9.15342589019355
20
-0.309251451722872
30
0
41
1
10
9.14876447288802
20
-0.305828546272153
30
0
41
1
10
9.14666152309891
20
-0.303904840960115
30
0
41
1
10
9.14317602879885
20
-0.299559795826411
30
0
41
1
10
9.14183367160859
20
-0.29719120861597
30
0
41
1
10
9.14011111824314
20
-0.291983727565224
30
0
41
1
10
9.13975376954048
20
-0.289142471630043
30
0
41
1
10
9.14012473484786
20
-0.283283573994311
30
0
41
1
10
9.14085462438069
20
-0.280188457343172
30
0
41
1
10
9.1432485736552
20
-0.273973881768569
30
0
41
1
10
9.14489040353689
20
-0.270868207717996
30
0
41
1
10
9.15089358034203
20
-0.26155505352267
30
0
41
1
10
9.15608552735691
20
-0.25566570156937
30
0
41
1
10
9.16192765464814
20
-0.249980947161589
30
0
0
SPLINE
5
182
100
AcDbEntity
8
1
62
256
6
ByLayer
370
18
48
1
60
0
100
AcDbSpline
70
4
71
3
72
18
73
14
40
0
40
0
40
0
40
0
40
0.25000000000001
40
0.25000000000001
40
0.50000000000002
40
0.50000000000002
40
0.625000000000015
40
0.625000000000015
40
0.75000000000001
40
0.75000000000001
40
0.875000000000005
40
0.875000000000005
40
1
40
1
40
1
40
1
41
1
10
9.95818080364234
20
-0.249980947161987
30
0
41
1
10
9.92749994234364
20
-0.26071314772193
30
0
41
1
10
9.89687592587646
20
-0.27038180066279
30
0
41
1
10
9.83572596896019
20
-0.287746386430427
30
0
41
1
10
9.80520000776733
20
-0.295443207372898
30
0
41
1
10
9.75949165829152
20
-0.305362247104569
30
0
41
1
10
9.74426915486944
20
-0.308394975835455
30
0
41
1
10
9.71385576879007
20
-0.313841643015138
30
0
41
1
10
9.69862277638646
20
-0.316261825895964
30
0
41
1
10
9.66843979450144
20
-0.320325245372089
30
0
41
1
10
9.65349518651499
20
-0.321971785451893
30
0
41
1
10
9.62397991030193
20
-0.324296253793761
30
0
41
1
10
9.60940649911069
20
-0.324980947161464
30
0
41
1
10
9.59510119943221
20
-0.324980947161663
30
0
0
SPLINE
5
183
100
AcDbEntity
8
1
62
256
6
ByLayer
370
18
48
1
60
0
100
AcDbSpline
70
4
71
3
72
8
73
4
40
0
40
0
40
0
40
0
40
1
40
1
40
1
40
1
41
1
10
11.5338810822349
20
0.340722418964958
30
0
41
1
10
11.0140865548844
20
0.133000688010128
30
0
41
1
10
10.4890458043901
20
-0.0642837594974139
30
0
41
1
10
9.95818080364236
20
-0.249980947161674
30
0
0
SPLINE
5
184
100
AcDbEntity
8
1
62
256
6
ByLayer
370
18
48
1
60
0
100
AcDbSpline
70
4
71
3
72
8
73
4
40
0
40
0
40
0
40
0
40
1
40
1
40
1
40
1
41
1
10
11.5338810822349
20
0.340722418964958
30
0
41
1
10
11.600876101822
20
0.385414396364894
30
0
41
1
10
11.6678402108189
20
0.430173904668635
30
0
41
1
10
11.7347738412602
20
0.475000000002325
30
0
0
SPLINE
5
185
100
AcDbEntity
8
1
62
256
6
ByLayer
370
18
48
1
60
0
100
AcDbSpline
70
4
71
3
72
8
73
4
40
0
40
0
40
0
40
0
40
1
40
1
40
1
40
1
41
1
10
11.871308760417
20
0.675000000000011
30
0
41
1
10
11.825798519862
20
0.60833125850607
30
0
41
1
10
11.7802868943198
20
0.54166457068726
30
0
41
1
10
11.7347738412623
20
0.474999999999994
30
0
0
SPLINE
5
186
100
AcDbEntity
8
1
62
256
6
ByLayer
370
18
48
1
60
0
100
AcDbSpline
70
4
71
3
72
8
73
4
40
0
40
0
40
0
40
0
40
1
40
1
40
1
40
1
41
1
10
-19
20
0.675000000000011
30
0
41
1
10
-18.6666167702326
20
0.341616770232548
30
0
41
1
10
-18.3332883074241
20
0.0082883074240954
30
0
41
1
10
-18.0000190528383
20
-0.324980947161691
30
0
0
SPLINE
5
187
100
AcDbEntity
8
1
62
256
6
ByLayer
370
18
48
1
60
0
100
AcDbSpline
70
4
71
3
72
8
73
4
40
0
40
0
40
0
40
0
40
1
40
1
40
1
40
1
41
1
10
19.2870625622058
20
0.129903810567669
30
0
41
1
10
19.470320512806
20
0.311580759097666
30
0
41
1
10
19.6535562001677
20
0.493280087494554
30
0
41
1
10
19.8367714106908
20
0.675000000000011
30
0
0
SPLINE
5
188
100
AcDbEntity
8
1
62
256
6
ByLayer
370
18
48
1
60
0
100
AcDbSpline
70
4
71
3
72
8
73
4
40
0
40
0
40
0
40
0
40
1
40
1
40
1
40
1
41
1
10
18.8729219314525
20
-0.249980947161674
30
0
41
1
10
19.0113201534983
20
-0.123639035795151
30
0
41
1
10
19.1493610312483
20
0.0029941060164731
30
0
41
1
10
19.2870625622058
20
0.129903810567669
30
0
0
SPLINE
5
189
100
AcDbEntity
8
1
62
256
6
ByLayer
370
18
48
1
60
0
100
AcDbSpline
70
4
71
3
72
20
73
16
40
0
40
0
40
0
40
0
40
0.124999999999996
40
0.124999999999996
40
0.249999999999992
40
0.249999999999992
40
0.374999999999988
40
0.374999999999988
40
0.499999999999984
40
0.499999999999984
40
0.62499999999998
40
0.62499999999998
40
0.749999999999976
40
0.749999999999976
40
1
40
1
40
1
40
1
41
1
10
18.7775181327357
20
-0.32498094716172
30
0
41
1
10
18.7787010242645
20
-0.32498094716172
30
0
41
1
10
18.7804472864332
20
-0.324397783309394
30
0
41
1
10
18.7849851214943
20
-0.322149113157053
30
0
41
1
10
18.7877652228033
20
-0.320483944021561
30
0
41
1
10
18.7940419579248
20
-0.31632025809796
30
0
41
1
10
18.7975633120804
20
-0.31380871372923
30
0
41
1
10
18.8052728850999
20
-0.308032368047549
30
0
41
1
10
18.8093760264562
20
-0.304831757523772
30
0
41
1
10
18.8179958139009
20
-0.297911309070372
30
0
41
1
10
18.8225131770649
20
-0.294190567740941
30
0
41
1
10
18.8319167921743
20
-0.286286962265365
30
0
41
1
10
18.8368284752011
20
-0.28208158414472
30
0
41
1
10
18.8518338885015
20
-0.269034872976135
30
0
41
1
10
18.8622168298091
20
-0.25975349324645
30
0
41
1
10
18.8729219314525
20
-0.249980947161674
30
0
0
SPLINE
5
18A
100
AcDbEntity
8
1
62
256
6
ByLayer
370
18
48
1
60
0
100
AcDbSpline
70
4
71
3
72
36
73
32
40
0
40
0
40
0
40
0
40
0.0617405731456058
40
0.0617405731456058
40
0.195777634124805
40
0.195777634124805
40
0.229286899369603
40
0.229286899369603
40
0.246041531992002
40
0.246041531992002
40
0.262796164614402
40
0.262796164614402
40
0.329814695104002
40
0.329814695104002
40
0.463851756083202
40
0.463851756083202
40
0.497361021328002
40
0.497361021328002
40
0.530870286572802
40
0.530870286572802
40
0.597888817062403
40
0.597888817062403
40
0.731925878041602
40
0.731925878041602
40
0.765435143286403
40
0.765435143286403
40
0.798944408531205
40
0.798944408531205
40
0.865962939020804
40
0.865962939020804
40
1
40
1
40
1
40
1
41
1
10
18.9245702965721
20
17.6749999949025
30
0
41
1
10
18.9412068079511
20
17.6749992320893
30
0
41
1
10
18.9604817234446
20
17.6749243514085
30
0
41
1
10
19.0297479579888
20
17.6744741684971
30
0
41
1
10
19.0892081545572
20
17.6738497840579
30
0
41
1
10
19.1787846678529
20
17.6727588088543
30
0
41
1
10
19.1974681524459
20
17.6725250843433
30
0
41
1
10
19.2266670020132
20
17.67215281041
30
0
41
1
10
19.2366035752833
20
17.6720249999021
30
0
41
1
10
19.2567712791571
20
17.6717637439885
30
0
41
1
10
19.2670129794095
20
17.6716301655446
30
0
41
1
10
19.3190030183093
20
17.6709485537172
30
0
41
1
10
19.3630911832678
20
17.6703594310876
30
0
41
1
10
19.5026667041059
20
17.6684983237437
30
0
41
1
10
19.6054078057073
20
17.6671326131798
30
0
41
1
10
19.7462321087198
20
17.6653883561609
30
0
41
1
10
19.7750811217246
20
17.6650369363114
30
0
41
1
10
19.8337713093573
20
17.6643367615454
30
0
41
1
10
19.8635268188307
20
17.66398900582
30
0
41
1
10
19.9540018999751
20
17.6629570338472
30
0
41
1
10
20.0159276550614
20
17.6622841591965
30
0
41
1
10
20.2064411357341
20
17.660343069333
30
0
41
1
10
20.3397271768344
20
17.6591524836932
30
0
41
1
10
20.5144448387176
20
17.6578940632183
30
0
41
1
10
20.5498349615847
20
17.6576536988285
30
0
41
1
10
20.6207292310825
20
17.657202720513
30
0
41
1
10
20.6563173788121
20
17.6569914638251
30
0
41
1
10
20.7634981123049
20
17.6564022125165
30
0
41
1
10
20.8355061794781
20
17.6560687735813
30
0
41
1
10
21.0531697431901
20
17.6552596541415
30
0
41
1
10
21.2004511605581
20
17.654975528568
30
0
41
1
10
21.35
20
17.654975528568
30
0
0
SPLINE
5
18B
100
AcDbEntity
8
1
62
256
6
ByLayer
370
18
48
1
60
0
100
AcDbSpline
70
4
71
3
72
77
73
73
40
0
40
0
40
0
40
0
40
0.029551124546827
40
0.029551124546827
40
0.0452035257638138
40
0.0452035257638138
40
0.0608559269808011
40
0.0608559269808011
40
0.123465531848749
40
0.123465531848749
40
0.154770334282722
40
0.154770334282722
40
0.170422735499709
40
0.170422735499709
40
0.178248936108203
40
0.178248936108203
40
0.186075136716697
40
0.186075136716697
40
0.248684741584644
40
0.248684741584644
40
0.279989544018617
40
0.279989544018617
40
0.295641945235604
40
0.295641945235604
40
0.311294346452591
40
0.311294346452591
40
0.373903951320539
40
0.373903951320539
40
0.389556352537525
40
0.397382553146019
40
0.397382553146019
40
0.405208753754512
40
0.405208753754512
40
0.436513556188485
40
0.436513556188485
40
0.499123161056432
40
0.499123161056432
40
0.514775562273419
40
0.514775562273419
40
0.530427963490406
40
0.530427963490406
40
0.561732765924379
40
0.561732765924379
40
0.624342370792326
40
0.624342370792326
40
0.639994772009313
40
0.639994772009313
40
0.655647173226299
40
0.655647173226299
40
0.686951975660273
40
0.718256778094246
40
0.718256778094246
40
0.733909179311232
40
0.741735379919726
40
0.741735379919726
40
0.749561580528219
40
0.749561580528219
40
0.812171185396165
40
0.812171185396165
40
0.843475987830137
40
0.843475987830137
40
0.859128389047123
40
0.859128389047123
40
0.87478079026411
40
0.87478079026411
40
0.937390395132055
40
0.937390395132055
40
0.968695197566028
40
0.968695197566028
40
0.984347598783014
40
0.984347598783014
40
1
40
1
40
1
40
1
41
1
10
-2.62308184872177
20
17.6749999994227
30
0
41
1
10
-2.6201544517217
20
17.6749997145333
30
0
41
1
10
-2.6138895854188
20
17.6749014128688
30
0
41
1
10
-2.59923647757822
20
17.6746052369536
30
0
41
1
10
-2.59323126167521
20
17.6744759386046
30
0
41
1
10
-2.57934694006221
20
17.6741646568571
30
0
41
1
10
-2.57145441507882
20
17.6739823556244
30
0
41
1
10
-2.52740171031525
20
17.6729447891175
30
0
41
1
10
-2.47805907112033
20
17.6717233106383
30
0
41
1
10
-2.38369865733415
20
17.6694289558242
30
0
41
1
10
-2.34883186247376
20
17.6685870323732
30
0
41
1
10
-2.29131407483737
20
17.6672239146471
30
0
41
1
10
-2.2712705064292
20
17.6667528403166
30
0
41
1
10
-2.23987334152758
20
17.6660231735683
30
0
41
1
10
-2.22918393792349
20
17.6657760772771
30
0
41
1
10
-2.20747330595845
20
17.6652772272128
30
0
41
1
10
-2.19643843994751
20
17.6650251552321
30
0
41
1
10
-2.09552465722217
20
17.662734872723
30
0
41
1
10
-1.9945408023224
20
17.6605458103791
30
0
41
1
10
-1.82649566978193
20
17.6572103188306
30
0
41
1
10
-1.76770162661123
20
17.6560897241771
30
0
41
1
10
-1.67522480995163
20
17.6544181847378
30
0
41
1
10
-1.64361946920647
20
17.6538615373252
30
0
41
1
10
-1.57959333992054
20
17.6527661506097
30
0
41
1
10
-1.54711181837422
20
17.6522262561598
30
0
41
1
10
-1.38240127852413
20
17.6495741172275
30
0
41
1
10
-1.24332131151792
20
17.6476041226837
30
0
41
1
10
-1.06036510013811
20
17.6454592455343
30
0
41
1
10
-1.00478985779068
20
17.6448395968172
30
0
41
1
10
-0.948166328815546
20
17.6442593292711
30
0
41
1
10
-0.910181862043657
20
17.6438816515781
30
0
41
1
10
-0.891046941463316
20
17.6436971693809
30
0
41
1
10
-0.795189814953517
20
17.6428025143358
30
0
41
1
10
-0.717825093276787
20
17.6421743994921
30
0
41
1
10
-0.483757161810331
20
17.6405693998849
30
0
41
1
10
-0.325096462402087
20
17.6398718562101
30
0
41
1
10
-0.123456446517423
20
17.6395174934864
30
0
41
1
10
-0.0829614243069727
20
17.639472497946
30
0
41
1
10
-0.0016307528241555
20
17.6394355844479
30
0
41
1
10
0.03903308940383
20
17.6394438398576
30
0
41
1
10
0.160375735301642
20
17.6395473301634
30
0
41
1
10
0.240675695536026
20
17.6397211356991
30
0
41
1
10
0.479830486630419
20
17.6405431210366
30
0
41
1
10
0.636955100661226
20
17.6414921343693
30
0
41
1
10
0.830380700726181
20
17.6431321499705
30
0
41
1
10
0.868972590701219
20
17.643483485533
30
0
41
1
10
0.945071087035842
20
17.6442221972523
30
0
41
1
10
0.982668693354157
20
17.6446102689011
30
0
41
1
10
1.09412914381775
20
17.6458258457548
30
0
41
1
10
1.23919565579558
20
17.6475835617425
30
0
41
1
10
1.37726741158608
20
17.6495653443939
30
0
41
1
10
1.47816875485731
20
17.6511169843395
30
0
41
1
10
1.52795527543125
20
17.6519091172723
30
0
41
1
10
1.57673025244316
20
17.6527220869983
30
0
41
1
10
1.60901969071341
20
17.6532682814499
30
0
41
1
10
1.62506872670377
20
17.6535438043911
30
0
41
1
10
1.76780025250648
20
17.6560287068448
30
0
41
1
10
1.88345392760635
20
17.6582874558542
30
0
41
1
10
2.04071282020416
20
17.6615713194183
30
0
41
1
10
2.0904111957673
20
17.6626486919312
30
0
41
1
10
2.16079475291283
20
17.6642163486117
30
0
41
1
10
2.18356083903228
20
17.6647308261104
30
0
41
1
10
2.22767506372978
20
17.665739724552
30
0
41
1
10
2.24890595865728
20
17.666231468056
30
0
41
1
10
2.35058384593836
20
17.6686096732469
30
0
41
1
10
2.41815374255737
20
17.6702644870975
30
0
41
1
10
2.49923976117489
20
17.6722466803361
30
0
41
1
10
2.52286905189953
20
17.6728241293039
30
0
41
1
10
2.55306481679449
20
17.6735488949936
30
0
41
1
10
2.56225764451986
20
17.673766970797
30
0
41
1
10
2.57869584126442
20
17.6741496351888
30
0
41
1
10
2.58596893061986
20
17.6743148971216
30
0
41
1
10
2.5923114411882
20
17.6744538490969
30
0
0
SPLINE
5
18C
100
AcDbEntity
8
1
62
256
6
ByLayer
370
18
48
1
60
0
100
AcDbSpline
70
4
71
3
72
41
73
37
40
0
40
0
40
0
40
0
40
0.0312500000000012
40
0.0312500000000012
40
0.0625000000000026
40
0.0625000000000026
40
0.125000000000005
40
0.125000000000005
40
0.156250000000008
40
0.156250000000008
40
0.18750000000001
40
0.18750000000001
40
0.250000000000015
40
0.250000000000015
40
0.375000000000025
40
0.375000000000025
40
0.406250000000026
40
0.406250000000026
40
0.437500000000028
40
0.437500000000028
40
0.50000000000003
40
0.562500000000033
40
0.562500000000033
40
0.593750000000032
40
0.593750000000032
40
0.625000000000032
40
0.625000000000032
40
0.750000000000021
40
0.750000000000021
40
0.781250000000019
40
0.781250000000019
40
0.812500000000017
40
0.812500000000017
40
0.875000000000013
40
0.875000000000013
40
1
40
1
40
1
40
1
41
1
10
25.5
20
9.36107544331648
30
0
41
1
10
25.5
20
9.3873942790064
30
0
41
1
10
25.5006406543373
20
9.41380853074287
30
0
41
1
10
25.5032261505254
20
9.46672765009126
30
0
41
1
10
25.5051631665547
20
9.49308908445479
30
0
41
1
10
25.5128853467878
20
9.57188231231854
30
0
41
1
10
25.5205770927238
20
9.62402372364303
30
0
41
1
10
25.5359273302244
20
9.70165515926467
30
0
41
1
10
25.5416806510041
20
9.72743535084294
30
0
41
1
10
25.5544739134968
20
9.77879977503289
30
0
41
1
10
25.5615082120976
20
9.8043481236231
30
0
41
1
10
25.5843451329054
20
9.88003284367329
30
0
41
1
10
25.6019289780435
20
9.92942583685695
30
0
41
1
10
25.6615999600326
20
10.0744856900443
30
0
41
1
10
25.7105389301522
20
10.167063902198
30
0
41
1
10
25.7836411190908
20
10.2774095863666
30
0
41
1
10
25.7987984328461
20
10.2991049567777
30
0
41
1
10
25.8300081212659
20
10.3415262269283
30
0
41
1
10
25.8460850498135
20
10.3622894442045
30
0
41
1
10
25.8957128106291
20
10.4232551132039
30
0
41
1
10
25.9656018622571
20
10.5010182713133
30
0
41
1
10
26.042885634738
20
10.5717730848024
30
0
41
1
10
26.1036858896894
20
10.6221500256092
30
0
41
1
10
26.1244400806043
20
10.6385035276313
30
0
41
1
10
26.1668613003245
20
10.6702497389853
30
0
41
1
10
26.1883776289219
20
10.6855307385258
30
0
41
1
10
26.2974574234187
20
10.7590341649638
30
0
41
1
10
26.3894725766207
20
10.8086347082501
30
0
41
1
10
26.5103878261111
20
10.859215609248
30
0
41
1
10
26.5348683519219
20
10.8687556477462
30
0
41
1
10
26.5844341716158
20
10.886664429551
30
0
41
1
10
26.6095846913462
20
10.8950525327751
30
0
41
1
10
26.6854701229134
20
10.9182696637757
30
0
41
1
10
26.7364314681678
20
10.9311099227727
30
0
41
1
10
26.8903945012494
20
10.9619601652121
30
0
41
1
10
26.9944648871924
20
10.9723728305888
30
0
41
1
10
27.1
20
10.9723728305888
30
0
0
SPLINE
5
18D
100
AcDbEntity
8
1
62
256
6
ByLayer
370
18
48
1
60
0
100
AcDbSpline
70
4
71
3
72
26
73
22
40
0
40
0
40
0
40
0
40
0.250000000000039
40
0.250000000000039
40
0.312500000000039
40
0.312500000000039
40
0.375000000000038
40
0.375000000000038
40
0.500000000000038
40
0.500000000000038
40
0.562500000000035
40
0.562500000000035
40
0.625000000000031
40
0.625000000000031
40
0.75000000000001
40
0.75000000000001
40
0.812500000000002
40
0.812500000000002
40
0.874999999999994
40
0.874999999999994
40
1
40
1
40
1
40
1
41
1
10
20.3181619695468
20
8.37609544014433
30
0
41
1
10
20.3092192305469
20
8.40857703334902
30
0
41
1
10
20.2954876322591
20
8.43946368973189
30
0
41
1
10
20.271835338829
20
8.47579851732181
30
0
41
1
10
20.2667495067731
20
8.48297745742417
30
0
41
1
10
20.2560530091763
20
8.49685939456052
30
0
41
1
10
20.2504333990711
20
8.50358159444693
30
0
41
1
10
20.2327595033493
20
8.52308672630903
30
0
41
1
10
20.2198957841168
20
8.53521280863646
30
0
41
1
10
20.1988810548679
20
8.55198940674919
30
0
41
1
10
20.1915883106091
20
8.55734511719322
30
0
41
1
10
20.1763916134439
20
8.5675515660364
30
0
41
1
10
20.1685411707113
20
8.5723621129043
30
0
41
1
10
20.1445437728381
20
8.58572449293851
30
0
41
1
10
20.1278334996496
20
8.59329690404473
30
0
41
1
10
20.1016705104134
20
8.60258397985135
30
0
41
1
10
20.0927656700964
20
8.60533273158271
30
0
41
1
10
20.0745707697433
20
8.61010169410392
30
0
41
1
10
20.0652845989499
20
8.61211452550452
30
0
41
1
10
20.0374812768526
20
8.61690358371339
30
0
41
1
10
20.01880895329
20
8.61850000000001
30
0
41
1
10
20
20
8.61850000000001
30
0
0
SPLINE
5
18E
100
AcDbEntity
8
1
62
256
6
ByLayer
370
18
48
1
60
0
100
AcDbSpline
70
4
71
3
72
34
73
30
40
0
40
0
40
0
40
0
40
0.124999999999999
40
0.124999999999999
40
0.187500000000001
40
0.187500000000001
40
0.218750000000004
40
0.218750000000004
40
0.250000000000007
40
0.250000000000007
40
0.375000000000015
40
0.375000000000015
40
0.406250000000017
40
0.406250000000017
40
0.437500000000019
40
0.500000000000016
40
0.562500000000013
40
0.562500000000013
40
0.625000000000011
40
0.625000000000011
40
0.687500000000009
40
0.687500000000009
40
0.750000000000007
40
0.750000000000007
40
0.875000000000003
40
0.875000000000003
40
0.937500000000001
40
0.937500000000001
40
1
40
1
40
1
40
1
41
1
10
20.3181619695468
20
8.37609544014433
30
0
41
1
10
20.3316243955842
20
8.32719755258438
30
0
41
1
10
20.3495186520746
20
8.27960672669573
30
0
41
1
10
20.3834427074956
20
8.21005578649056
30
0
41
1
10
20.3959401462236
20
8.18717940089675
30
0
41
1
10
20.4166305781722
20
8.15332472256972
30
0
41
1
10
20.4238696464604
20
8.14209141124252
30
0
41
1
10
20.4389547957833
20
8.11989940372521
30
0
41
1
10
20.4467750039595
20
8.10897602964607
30
0
41
1
10
20.4872859904911
20
8.05522043482458
30
0
41
1
10
20.5241451570225
20
8.01493514485432
30
0
41
1
10
20.5766976577683
20
7.96828585551981
30
0
41
1
10
20.5875531522008
20
7.95913457392737
30
0
41
1
10
20.6095897675602
20
7.94150744141086
30
0
41
1
10
20.6432548145305
20
7.91596844876548
30
0
41
1
10
20.702382443831
20
7.87785899714598
30
0
41
1
10
20.7529298677765
20
7.85215540891767
30
0
41
1
10
20.8051631063884
20
7.82893946270264
30
0
41
1
10
20.831493866305
20
7.81885484885501
30
0
41
1
10
20.8845188699141
20
7.8015306383227
30
0
41
1
10
20.9112225356447
20
7.79428773988414
30
0
41
1
10
20.9650247101004
20
7.7825259354201
30
0
41
1
10
20.992216397077
20
7.77801179583886
30
0
41
1
10
21.0724935208943
20
7.76866218546465
30
0
41
1
10
21.1249222467064
20
7.767791913146
30
0
41
1
10
21.2024065588861
20
7.77362886795274
30
0
41
1
10
21.2281182805367
20
7.77679386939394
30
0
41
1
10
21.2787427947224
20
7.78542982562996
30
0
41
1
10
21.30363915096
20
7.79088811906908
30
0
41
1
10
21.3281523379786
20
7.79745103358488
30
0
0
SPLINE
5
18F
100
AcDbEntity
8
1
62
256
6
ByLayer
370
18
48
1
60
0
100
AcDbSpline
70
4
71
3
72
24
73
20
40
0
40
0
40
0
40
0
40
0.0625000000000078
40
0.0625000000000078
40
0.125000000000016
40
0.125000000000016
40
0.250000000000011
40
0.250000000000011
40
0.312500000000011
40
0.312500000000011
40
0.37500000000001
40
0.37500000000001
40
0.500000000000009
40
0.500000000000009
40
0.625000000000008
40
0.625000000000008
40
0.750000000000007
40
0.750000000000007
40
1
40
1
40
1
40
1
41
1
10
21.6981810583398
20
7.64557688959519
30
0
41
1
10
21.6934313378224
20
7.65367860981314
30
0
41
1
10
21.6882897889865
20
7.66164980922736
30
0
41
1
10
21.677355321586
20
7.67709306570092
30
0
41
1
10
21.6716008277749
20
7.68451769513678
30
0
41
1
10
21.653507056405
20
7.70593275162767
30
0
41
1
10
21.6403431053359
20
7.71907023952511
30
0
41
1
10
21.6189603728398
20
7.73708047797624
30
0
41
1
10
21.6115431209205
20
7.74280535445587
30
0
41
1
10
21.5964570188402
20
7.75347091349855
30
0
41
1
10
21.5887541685168
20
7.7584425345147
30
0
41
1
10
21.5651865615503
20
7.77231523036025
30
0
41
1
10
21.5488655560664
20
7.78018071772848
30
0
41
1
10
21.5150376500416
20
7.79319032755996
30
0
41
1
10
21.497973394896
20
7.79816506090182
30
0
41
1
10
21.4636029977596
20
7.80532399248332
30
0
41
1
10
21.446237058748
20
7.8075093069186
30
0
41
1
10
21.39416944413
20
7.80993921004605
30
0
41
1
10
21.3606039107084
20
7.80613929176883
30
0
41
1
10
21.3281523379786
20
7.79745103358488
30
0
0
SPLINE
5
190
100
AcDbEntity
8
1
62
256
6
ByLayer
370
18
48
1
60
0
100
AcDbSpline
70
4
71
3
72
26
73
22
40
0
40
0
40
0
40
0
40
0.250000000000023
40
0.250000000000023
40
0.312500000000022
40
0.312500000000022
40
0.375000000000022
40
0.375000000000022
40
0.500000000000025
40
0.500000000000025
40
0.562500000000026
40
0.562500000000026
40
0.625000000000027
40
0.625000000000027
40
0.75000000000001
40
0.75000000000001
40
0.812500000000002
40
0.812500000000002
40
0.874999999999993
40
0.874999999999993
40
1
40
1
40
1
40
1
41
1
10
19.6818380304532
20
4.92390455985569
30
0
41
1
10
19.6907807694531
20
4.89142296665099
30
0
41
1
10
19.7045123677409
20
4.86053631026812
30
0
41
1
10
19.728164661171
20
4.82420148267821
30
0
41
1
10
19.7332504932269
20
4.81702254257584
30
0
41
1
10
19.7439469908236
20
4.80314060543949
30
0
41
1
10
19.7495666009289
20
4.79641840555308
30
0
41
1
10
19.7672404966507
20
4.77691327369098
30
0
41
1
10
19.7801042158832
20
4.76478719136355
30
0
41
1
10
19.8011189451321
20
4.74801059325083
30
0
41
1
10
19.8084116893909
20
4.74265488280679
30
0
41
1
10
19.8236083865561
20
4.73244843396364
30
0
41
1
10
19.8314588292887
20
4.72763788709571
30
0
41
1
10
19.8554562271619
20
4.7142755070615
30
0
41
1
10
19.8721665003504
20
4.70670309595528
30
0
41
1
10
19.8983294895866
20
4.69741602014867
30
0
41
1
10
19.9072343299035
20
4.69466726841731
30
0
41
1
10
19.9254292302567
20
4.68989830589612
30
0
41
1
10
19.9347154010501
20
4.68788547449549
30
0
41
1
10
19.9625187231474
20
4.68309641628662
30
0
41
1
10
19.98119104671
20
4.6815
30
0
41
1
10
20
20
4.6815
30
0
0
SPLINE
5
191
100
AcDbEntity
8
1
62
256
6
ByLayer
370
18
48
1
60
0
100
AcDbSpline
70
4
71
3
72
34
73
30
40
0
40
0
40
0
40
0
40
0.124999999999994
40
0.124999999999994
40
0.187499999999993
40
0.187499999999993
40
0.218749999999993
40
0.218749999999993
40
0.249999999999993
40
0.249999999999993
40
0.374999999999997
40
0.374999999999997
40
0.40625
40
0.40625
40
0.437500000000002
40
0.500000000000002
40
0.562500000000001
40
0.562500000000001
40
0.625000000000001
40
0.625000000000001
40
0.687500000000001
40
0.687500000000001
40
0.75
40
0.75
40
0.874999999999999
40
0.874999999999999
40
0.9375
40
0.9375
40
1
40
1
40
1
40
1
41
1
10
19.6818380304532
20
4.92390455985569
30
0
41
1
10
19.6683756044157
20
4.97280244741563
30
0
41
1
10
19.6504813479254
20
5.02039327330425
30
0
41
1
10
19.6165572925044
20
5.08994421350943
30
0
41
1
10
19.6040598537764
20
5.11282059910326
30
0
41
1
10
19.5833694218278
20
5.14667527743029
30
0
41
1
10
19.5761303535396
20
5.15790858875749
30
0
41
1
10
19.5610452042167
20
5.1801005962748
30
0
41
1
10
19.5532249960405
20
5.19102397035394
30
0
41
1
10
19.5127140095089
20
5.24477956517543
30
0
41
1
10
19.4758548429775
20
5.28506485514569
30
0
41
1
10
19.4233023422318
20
5.3317141444802
30
0
41
1
10
19.4124468477992
20
5.34086542607261
30
0
41
1
10
19.3904102324398
20
5.35849255858915
30
0
41
1
10
19.3567451854695
20
5.38403155123453
30
0
41
1
10
19.2976173881464
20
5.42214074180731
30
0
41
1
10
19.2470701322235
20
5.44784459108234
30
0
41
1
10
19.1948368936116
20
5.47106053729738
30
0
41
1
10
19.1685061336949
20
5.481145151145
30
0
41
1
10
19.1154811300859
20
5.49846936167731
30
0
41
1
10
19.0887774643553
20
5.50571226011587
30
0
41
1
10
19.0349752898996
20
5.51747406457991
30
0
41
1
10
19.007783602923
20
5.52198820416115
30
0
41
1
10
18.9275064791057
20
5.53133781453536
30
0
41
1
10
18.8750777532935
20
5.53220808685404
30
0
41
1
10
18.7975934411138
20
5.52637113204727
30
0
41
1
10
18.7718817194633
20
5.52320613060607
30
0
41
1
10
18.7212572052776
20
5.51457017437008
30
0
41
1
10
18.69636084904
20
5.50911188093093
30
0
41
1
10
18.6718476620214
20
5.50254896641513
30
0
0
SPLINE
5
192
100
AcDbEntity
8
1
62
256
6
ByLayer
370
18
48
1
60
0
100
AcDbSpline
70
4
71
3
72
24
73
20
40
0
40
0
40
0
40
0
40
0.0625000000000104
40
0.0625000000000104
40
0.125000000000021
40
0.125000000000021
40
0.250000000000021
40
0.250000000000021
40
0.31250000000002
40
0.31250000000002
40
0.375000000000018
40
0.375000000000018
40
0.500000000000016
40
0.500000000000016
40
0.625000000000013
40
0.625000000000013
40
0.75000000000001
40
0.75000000000001
40
1
40
1
40
1
40
1
41
1
10
18.3018189416602
20
5.65442311040482
30
0
41
1
10
18.3065686621776
20
5.64632139018687
30
0
41
1
10
18.3117102110135
20
5.63835019077266
30
0
41
1
10
18.322644678414
20
5.6229069342991
30
0
41
1
10
18.3283991722251
20
5.61548230486324
30
0
41
1
10
18.346492943595
20
5.59406724837234
30
0
41
1
10
18.3596568946641
20
5.5809297604749
30
0
41
1
10
18.3810396271602
20
5.56291952202378
30
0
41
1
10
18.3884568790795
20
5.55719464554414
30
0
41
1
10
18.4035429811598
20
5.54652908650147
30
0
41
1
10
18.4112458314832
20
5.54155746548531
30
0
41
1
10
18.4348134384497
20
5.52768476963976
30
0
41
1
10
18.4511344439336
20
5.51981928227153
30
0
41
1
10
18.4849623499584
20
5.50680967244006
30
0
41
1
10
18.502026605104
20
5.50183493909819
30
0
41
1
10
18.5363970022404
20
5.49467600751669
30
0
41
1
10
18.553762941252
20
5.49249069308141
30
0
41
1
10
18.60583055587
20
5.49006078995396
30
0
41
1
10
18.6393960892915
20
5.49386070823118
30
0
41
1
10
18.6718476620214
20
5.50254896641513
30
0
0
SPLINE
5
193
100
AcDbEntity
8
1
62
256
6
ByLayer
370
18
48
1
60
0
100
AcDbSpline
70
4
71
3
72
18
73
14
40
0
40
0
40
0
40
0
40
0.250000000000007
40
0.250000000000007
40
0.375000000000011
40
0.375000000000011
40
0.437500000000012
40
0.437500000000012
40
0.500000000000012
40
0.500000000000012
40
0.750000000000006
40
0.750000000000006
40
1
40
1
40
1
40
1
41
1
10
21.4077379362998
20
6.49725870662354
30
0
41
1
10
21.4160970234352
20
6.45283371714234
30
0
41
1
10
21.427805923863
20
6.41047127231678
30
0
41
1
10
21.4497852995847
20
6.34951240206013
30
0
41
1
10
21.4578539822308
20
6.329627187147
30
0
41
1
10
21.4710409062469
20
6.30041485375656
30
0
41
1
10
21.475617474447
20
6.29078015654287
30
0
41
1
10
21.4851307090048
20
6.27171212439077
30
0
41
1
10
21.4900791241439
20
6.26225797017554
30
0
41
1
10
21.5155498531435
20
6.21579120812243
30
0
41
1
10
21.5382169974673
20
6.18116665614502
30
0
41
1
10
21.5877505294598
20
6.11629302469026
30
0
41
1
10
21.614621396562
20
6.08605080047579
30
0
41
1
10
21.6435826280888
20
6.05788229583283
30
0
0
SPLINE
5
194
100
AcDbEntity
8
1
62
256
6
ByLayer
370
18
48
1
60
0
100
AcDbSpline
70
4
71
3
72
24
73
20
40
0
40
0
40
0
40
0
40
0.124999999999984
40
0.124999999999984
40
0.187499999999983
40
0.187499999999983
40
0.249999999999981
40
0.249999999999981
40
0.37499999999998
40
0.37499999999998
40
0.499999999999979
40
0.499999999999979
40
0.624999999999978
40
0.624999999999978
40
0.687499999999975
40
0.687499999999975
40
0.749999999999972
40
0.749999999999972
40
1
40
1
40
1
40
1
41
1
10
21.6981810583398
20
5.65442311040482
30
0
41
1
10
21.7079282570253
20
5.67104915742607
30
0
41
1
10
21.7161357366898
20
5.68836175118037
30
0
41
1
10
21.7261657634977
20
5.71534744378729
30
0
41
1
10
21.7291359412957
20
5.72454737111846
30
0
41
1
10
21.7342485495551
20
5.74314453482737
30
0
41
1
10
21.7363695892661
20
5.75245092056323
30
0
41
1
10
21.741496344613
20
5.78039103411823
30
0
41
1
10
21.7432740738269
20
5.79904565975622
30
0
41
1
10
21.7436815034583
20
5.83639994194192
30
0
41
1
10
21.7422604780044
20
5.85523892242639
30
0
41
1
10
21.7364872949031
20
5.89141510492053
30
0
41
1
10
21.7321586246314
20
5.90893047355297
30
0
41
1
10
21.7236520963912
20
5.93438887681845
30
0
41
1
10
21.7204791393988
20
5.94273849781305
30
0
41
1
10
21.71346298447
20
5.95916394085114
30
0
41
1
10
21.7096028514273
20
5.96726674459126
30
0
41
1
10
21.6889846413071
20
6.00641587152057
30
0
41
1
10
21.6682141523735
20
6.03392498567706
30
0
41
1
10
21.6435826280888
20
6.05788229583283
30
0
0
SPLINE
5
195
100
AcDbEntity
8
1
62
256
6
ByLayer
370
18
48
1
60
0
100
AcDbSpline
70
4
71
3
72
24
73
20
40
0
40
0
40
0
40
0
40
0.250000000000009
40
0.250000000000009
40
0.312500000000001
40
0.312500000000001
40
0.374999999999993
40
0.374999999999993
40
0.499999999999993
40
0.499999999999993
40
0.624999999999992
40
0.624999999999992
40
0.749999999999992
40
0.749999999999992
40
0.812499999999991
40
0.812499999999991
40
0.874999999999989
40
0.874999999999989
40
1
40
1
40
1
40
1
41
1
10
21.6435826280888
20
7.24211770416719
30
0
41
1
10
21.6682141523735
20
7.26607501432295
30
0
41
1
10
21.6889846413071
20
7.29358412847944
30
0
41
1
10
21.7096028514273
20
7.33273325540875
30
0
41
1
10
21.71346298447
20
7.34083605914887
30
0
41
1
10
21.7204791393988
20
7.35726150218696
30
0
41
1
10
21.7236520963912
20
7.36561112318157
30
0
41
1
10
21.7321586246314
20
7.39106952644701
30
0
41
1
10
21.7364872949031
20
7.40858489507948
30
0
41
1
10
21.7422604780044
20
7.44476107757362
30
0
41
1
10
21.7436815034583
20
7.46360005805809
30
0
41
1
10
21.7432740738269
20
7.50095434024379
30
0
41
1
10
21.741496344613
20
7.51960896588179
30
0
41
1
10
21.7363695892661
20
7.54754907943678
30
0
41
1
10
21.7342485495551
20
7.55685546517265
30
0
41
1
10
21.7291359412957
20
7.57545262888155
30
0
41
1
10
21.7261657634977
20
7.58465255621272
30
0
41
1
10
21.7161357366898
20
7.61163824881965
30
0
41
1
10
21.7079282570253
20
7.62895084257394
30
0
41
1
10
21.6981810583398
20
7.64557688959519
30
0
0
SPLINE
5
196
100
AcDbEntity
8
1
62
256
6
ByLayer
370
18
48
1
60
0
100
AcDbSpline
70
4
71
3
72
17
73
13
40
0
40
0
40
0
40
0
40
0.249999999999991
40
0.249999999999991
40
0.499999999999982
40
0.499999999999982
40
0.562499999999982
40
0.562499999999982
40
0.624999999999982
40
0.749999999999986
40
0.749999999999986
40
1
40
1
40
1
40
1
41
1
10
21.6435826280888
20
7.24211770416719
30
0
41
1
10
21.6146246036311
20
7.21395231880945
30
0
41
1
10
21.5877690589036
20
7.18372575786455
30
0
41
1
10
21.538280261633
20
7.11892167661281
30
0
41
1
10
21.5156427078131
20
7.08435069513351
30
0
41
1
10
21.4902105226124
20
7.03798851185627
30
0
41
1
10
21.4852575520369
20
7.02853470981097
30
0
41
1
10
21.4757163583554
20
7.00942527611323
30
0
41
1
10
21.4619501115274
20
6.98046203694776
30
0
41
1
10
21.4498230334515
20
6.95058627674294
30
0
41
1
10
21.4278090763268
20
6.88954938792148
30
0
41
1
10
21.4160955020356
20
6.84715819726679
30
0
41
1
10
21.4077379362998
20
6.80274129337647
30
0
0
SPLINE
5
197
100
AcDbEntity
8
1
62
256
6
ByLayer
370
18
48
1
60
0
100
AcDbSpline
70
4
71
3
72
17
73
13
40
0
40
0
40
0
40
0
40
0.250000000000009
40
0.250000000000009
40
0.500000000000019
40
0.500000000000019
40
0.56250000000002
40
0.56250000000002
40
0.625000000000021
40
0.750000000000016
40
0.750000000000016
40
1
40
1
40
1
40
1
41
1
10
18.3564173719112
20
6.05788229583283
30
0
41
1
10
18.3853753963689
20
6.08604768119054
30
0
41
1
10
18.4122309410963
20
6.11627424213538
30
0
41
1
10
18.4617197383668
20
6.181078323387
30
0
41
1
10
18.4843572921867
20
6.21564930486622
30
0
41
1
10
18.5097894773874
20
6.26201148814337
30
0
41
1
10
18.5147424479629
20
6.27146529018867
30
0
41
1
10
18.5242836416444
20
6.29057472388635
30
0
41
1
10
18.5380498884724
20
6.3195379630518
30
0
41
1
10
18.5501769665483
20
6.34941372325662
30
0
41
1
10
18.572190923673
20
6.41045061207817
30
0
41
1
10
18.5839044979643
20
6.45284180273296
30
0
41
1
10
18.5922620637002
20
6.49725870662354
30
0
0
SPLINE
5
198
100
AcDbEntity
8
1
62
256
6
ByLayer
370
18
48
1
60
0
100
AcDbSpline
70
4
71
3
72
18
73
14
40
0
40
0
40
0
40
0
40
0.250000000000002
40
0.250000000000002
40
0.375000000000006
40
0.375000000000006
40
0.437500000000007
40
0.437500000000007
40
0.500000000000008
40
0.500000000000008
40
0.750000000000004
40
0.750000000000004
40
1
40
1
40
1
40
1
41
1
10
18.5922620637002
20
6.80274129337647
30
0
41
1
10
18.5839029765649
20
6.84716628285736
30
0
41
1
10
18.5721940761371
20
6.88952872768283
30
0
41
1
10
18.5502147004154
20
6.95048759793963
30
0
41
1
10
18.5421460177693
20
6.97037281285284
30
0
41
1
10
18.5289590937531
20
6.99958514624345
30
0
41
1
10
18.524382525553
20
7.00921984345723
30
0
41
1
10
18.5148692909951
20
7.02828787560946
30
0
41
1
10
18.509920875856
20
7.03774202982481
30
0
41
1
10
18.4844501468564
20
7.0842087918777
30
0
41
1
10
18.4617830025327
20
7.11883334385502
30
0
41
1
10
18.4122494705403
20
7.18370697530972
30
0
41
1
10
18.3853786034381
20
7.21394919952419
30
0
41
1
10
18.3564173719112
20
7.24211770416719
30
0
0
SPLINE
5
199
100
AcDbEntity
8
1
62
256
6
ByLayer
370
18
48
1
60
0
100
AcDbSpline
70
4
71
3
72
24
73
20
40
0
40
0
40
0
40
0
40
0.125000000000011
40
0.125000000000011
40
0.187500000000009
40
0.187500000000009
40
0.250000000000008
40
0.250000000000008
40
0.375000000000008
40
0.375000000000008
40
0.500000000000007
40
0.500000000000007
40
0.625000000000007
40
0.625000000000007
40
0.687499999999999
40
0.687499999999999
40
0.749999999999991
40
0.749999999999991
40
1
40
1
40
1
40
1
41
1
10
18.3018189416602
20
7.64557688959519
30
0
41
1
10
18.2920717429747
20
7.62895084257394
30
0
41
1
10
18.2838642633101
20
7.61163824881965
30
0
41
1
10
18.2738342365023
20
7.58465255621272
30
0
41
1
10
18.2708640587043
20
7.57545262888155
30
0
41
1
10
18.2657514504448
20
7.55685546517265
30
0
41
1
10
18.2636304107339
20
7.54754907943678
30
0
41
1
10
18.258503655387
20
7.51960896588179
30
0
41
1
10
18.2567259261731
20
7.50095434024379
30
0
41
1
10
18.2563184965416
20
7.46360005805809
30
0
41
1
10
18.2577395219956
20
7.44476107757362
30
0
41
1
10
18.2635127050969
20
7.40858489507951
30
0
41
1
10
18.2678413753686
20
7.39106952644701
30
0
41
1
10
18.2763479036088
20
7.36561112318157
30
0
41
1
10
18.2795208606012
20
7.35726150218696
30
0
41
1
10
18.28653701553
20
7.34083605914887
30
0
41
1
10
18.2903971485727
20
7.33273325540875
30
0
41
1
10
18.3110153586929
20
7.29358412847944
30
0
41
1
10
18.3317858476264
20
7.26607501432295
30
0
41
1
10
18.3564173719112
20
7.24211770416719
30
0
0
SPLINE
5
19A
100
AcDbEntity
8
1
62
256
6
ByLayer
370
18
48
1
60
0
100
AcDbSpline
70
4
71
3
72
24
73
20
40
0
40
0
40
0
40
0
40
0.249999999999985
40
0.249999999999985
40
0.31249999999998
40
0.31249999999998
40
0.374999999999975
40
0.374999999999975
40
0.499999999999981
40
0.499999999999981
40
0.624999999999987
40
0.624999999999987
40
0.749999999999994
40
0.749999999999994
40
0.812499999999996
40
0.812499999999996
40
0.874999999999998
40
0.874999999999998
40
1
40
1
40
1
40
1
41
1
10
18.3564173719112
20
6.05788229583283
30
0
41
1
10
18.3317858476264
20
6.03392498567706
30
0
41
1
10
18.3110153586929
20
6.00641587152057
30
0
41
1
10
18.2903971485727
20
5.96726674459126
30
0
41
1
10
18.28653701553
20
5.95916394085114
30
0
41
1
10
18.2795208606012
20
5.94273849781305
30
0
41
1
10
18.2763479036088
20
5.93438887681845
30
0
41
1
10
18.2678413753686
20
5.90893047355297
30
0
41
1
10
18.2635127050969
20
5.89141510492053
30
0
41
1
10
18.2577395219956
20
5.85523892242639
30
0
41
1
10
18.2563184965416
20
5.83639994194192
30
0
41
1
10
18.2567259261731
20
5.79904565975622
30
0
41
1
10
18.258503655387
20
5.78039103411823
30
0
41
1
10
18.2636304107339
20
5.75245092056323
30
0
41
1
10
18.2657514504449
20
5.74314453482737
30
0
41
1
10
18.2708640587043
20
5.72454737111846
30
0
41
1
10
18.2738342365023
20
5.71534744378729
30
0
41
1
10
18.2838642633101
20
5.68836175118037
30
0
41
1
10
18.2920717429747
20
5.67104915742607
30
0
41
1
10
18.3018189416602
20
5.65442311040482
30
0
0
SPLINE
5
19B
100
AcDbEntity
8
1
62
256
6
ByLayer
370
18
48
1
60
0
100
AcDbSpline
70
4
71
3
72
34
73
30
40
0
40
0
40
0
40
0
40
0.124999999999969
40
0.124999999999969
40
0.187499999999954
40
0.187499999999954
40
0.218749999999946
40
0.218749999999946
40
0.249999999999939
40
0.249999999999939
40
0.374999999999933
40
0.374999999999933
40
0.406249999999935
40
0.406249999999935
40
0.437499999999937
40
0.499999999999947
40
0.562499999999956
40
0.562499999999956
40
0.624999999999965
40
0.624999999999965
40
0.687499999999974
40
0.687499999999974
40
0.749999999999984
40
0.749999999999984
40
0.874999999999995
40
0.874999999999995
40
0.937499999999997
40
0.937499999999997
40
1
40
1
40
1
40
1
41
1
10
18.6718476620214
20
7.79745103358488
30
0
41
1
10
18.7208394593323
20
7.78433446177874
30
0
41
1
10
18.770945098419
20
7.77570218410935
30
0
41
1
10
18.8481023724607
20
7.76979203960025
30
0
41
1
10
18.8741579501174
20
7.76900347636433
30
0
41
1
10
18.9138278946093
20
7.7697305093599
30
0
41
1
10
18.9271798085303
20
7.77029419915328
30
0
41
1
10
18.9539537358994
20
7.77208412311214
30
0
41
1
10
18.9673321899401
20
7.77330590152712
30
0
41
1
10
19.0341945419055
20
7.78106671594551
30
0
41
1
10
19.0875894364998
20
7.79248984827959
30
0
41
1
10
19.1544113754504
20
7.81423264973623
30
0
41
1
10
19.167796193224
20
7.81896914504628
30
0
41
1
10
19.1941478369934
20
7.82906464844686
30
0
41
1
10
19.2332059929598
20
7.84519028533057
30
0
41
1
10
19.2959860666201
20
7.87692464033108
30
0
41
1
10
19.3437246825773
20
7.90753080364263
30
0
41
1
10
19.3901697315483
20
7.94084969244918
30
0
41
1
10
19.4121863952644
20
7.95846431994894
30
0
41
1
10
19.4539492170245
20
7.99544601877469
30
0
41
1
10
19.4737029913318
20
8.01481955032941
30
0
41
1
10
19.5110603053288
20
8.05528490510213
30
0
41
1
10
19.5287068593985
20
8.07645952289147
30
0
41
1
10
19.5773730428752
20
8.14098420587004
30
0
41
1
10
19.6046398483741
20
8.185773154831
30
0
41
1
10
19.638792442722
20
8.25556920502848
30
0
41
1
10
19.6490658739522
20
8.27935084526263
30
0
41
1
10
19.6672193811967
20
8.32739115500326
30
0
41
1
10
19.6751020665243
20
8.35162924022725
30
0
41
1
10
19.6818380304532
20
8.37609544014433
30
0
0
SPLINE
5
19C
100
AcDbEntity
8
1
62
256
6
ByLayer
370
18
48
1
60
0
100
AcDbSpline
70
4
71
3
72
26
73
22
40
0
40
0
40
0
40
0
40
0.125000000000008
40
0.125000000000008
40
0.250000000000016
40
0.250000000000016
40
0.312500000000029
40
0.312500000000029
40
0.375000000000043
40
0.375000000000043
40
0.500000000000048
40
0.500000000000048
40
0.562500000000042
40
0.562500000000042
40
0.625000000000036
40
0.625000000000036
40
0.750000000000024
40
0.750000000000024
40
0.875000000000012
40
0.875000000000012
40
1
40
1
40
1
40
1
41
1
10
20
20
8.61850000000001
30
0
41
1
10
19.9812579161203
20
8.61850000000001
30
0
41
1
10
19.962209975879
20
8.6168627955046
30
0
41
1
10
19.9253294541456
20
8.61048528068295
30
0
41
1
10
19.9073531625207
20
8.60577279166552
30
0
41
1
10
19.8810727694392
20
8.59646538610318
30
0
41
1
10
19.8723863894371
20
8.59296752509536
30
0
41
1
10
19.855517452384
20
8.58533413023605
30
0
41
1
10
19.8473226044842
20
8.58119909926489
30
0
41
1
10
19.8234267481805
20
8.56788232941574
30
0
41
1
10
19.8084100630755
20
8.55779456249334
30
0
41
1
10
19.7872244605916
20
8.54090470708621
30
0
41
1
10
19.7804080814309
20
8.53499261738443
30
0
41
1
10
19.7674404104893
20
8.52279737184287
30
0
41
1
10
19.7612596172288
20
8.51649129678538
30
0
41
1
10
19.7435909177987
20
8.49697635277582
30
0
41
1
10
19.732971729029
20
8.48317412766207
30
0
41
1
10
19.7139986190539
20
8.45404553323993
30
0
41
1
10
19.7058188411954
20
8.43897729418626
30
0
41
1
10
19.6919779801761
20
8.40811774769992
30
0
41
1
10
19.6862980163446
20
8.39229488948811
30
0
41
1
10
19.6818380304532
20
8.37609544014433
30
0
0
SPLINE
5
19D
100
AcDbEntity
8
1
62
256
6
ByLayer
370
18
48
1
60
0
100
AcDbSpline
70
4
71
3
72
24
73
20
40
0
40
0
40
0
40
0
40
0.0625000000000012
40
0.0625000000000012
40
0.125000000000002
40
0.125000000000002
40
0.250000000000004
40
0.250000000000004
40
0.312500000000003
40
0.312500000000003
40
0.375000000000002
40
0.375000000000002
40
0.500000000000003
40
0.500000000000003
40
0.625000000000003
40
0.625000000000003
40
0.750000000000004
40
0.750000000000004
40
1
40
1
40
1
40
1
41
1
10
18.3018189416602
20
7.64557688959519
30
0
41
1
10
18.3065686621776
20
7.65367860981314
30
0
41
1
10
18.3117102110135
20
7.66164980922736
30
0
41
1
10
18.322644678414
20
7.67709306570092
30
0
41
1
10
18.3283991722251
20
7.68451769513678
30
0
41
1
10
18.346492943595
20
7.70593275162767
30
0
41
1
10
18.3596568946641
20
7.71907023952511
30
0
41
1
10
18.3810396271602
20
7.73708047797624
30
0
41
1
10
18.3884568790795
20
7.74280535445587
30
0
41
1
10
18.4035429811598
20
7.75347091349855
30
0
41
1
10
18.4112458314832
20
7.7584425345147
30
0
41
1
10
18.4348134384497
20
7.77231523036025
30
0
41
1
10
18.4511344439336
20
7.78018071772848
30
0
41
1
10
18.4849623499584
20
7.79319032755996
30
0
41
1
10
18.502026605104
20
7.79816506090182
30
0
41
1
10
18.5363970022404
20
7.80532399248332
30
0
41
1
10
18.553762941252
20
7.8075093069186
30
0
41
1
10
18.60583055587
20
7.80993921004605
30
0
41
1
10
18.6393960892915
20
7.80613929176883
30
0
41
1
10
18.6718476620214
20
7.79745103358488
30
0
0
SPLINE
5
19E
100
AcDbEntity
8
1
62
256
6
ByLayer
370
18
48
1
60
0
100
AcDbSpline
70
4
71
3
72
34
73
30
40
0
40
0
40
0
40
0
40
0.124999999999968
40
0.124999999999968
40
0.187499999999952
40
0.187499999999952
40
0.218749999999944
40
0.218749999999944
40
0.249999999999936
40
0.249999999999936
40
0.37499999999993
40
0.37499999999993
40
0.406249999999931
40
0.406249999999931
40
0.437499999999932
40
0.499999999999941
40
0.56249999999995
40
0.56249999999995
40
0.624999999999959
40
0.624999999999959
40
0.687499999999968
40
0.687499999999968
40
0.749999999999977
40
0.749999999999977
40
0.874999999999991
40
0.874999999999991
40
0.937499999999995
40
0.937499999999995
40
1
40
1
40
1
40
1
41
1
10
21.3281523379786
20
5.50254896641513
30
0
41
1
10
21.2791605406677
20
5.51566553822127
30
0
41
1
10
21.229054901581
20
5.52429781589066
30
0
41
1
10
21.1518976275393
20
5.53020796039976
30
0
41
1
10
21.1258420498826
20
5.53099652363568
30
0
41
1
10
21.0861721053907
20
5.53026949064011
30
0
41
1
10
21.0728201914696
20
5.52970580084673
30
0
41
1
10
21.0460462641006
20
5.52791587688787
30
0
41
1
10
21.0326678100599
20
5.52669409847289
30
0
41
1
10
20.9658054580945
20
5.5189332840545
30
0
41
1
10
20.9124105635002
20
5.50751015172042
30
0
41
1
10
20.8455886245496
20
5.48576735026379
30
0
41
1
10
20.832203806776
20
5.48103085495373
30
0
41
1
10
20.8058521630066
20
5.47093535155318
30
0
41
1
10
20.7667940070401
20
5.45480971466944
30
0
41
1
10
20.7040137931598
20
5.4230756366417
30
0
41
1
10
20.6562753174227
20
5.39246919635738
30
0
41
1
10
20.6098302684516
20
5.35915030755086
30
0
41
1
10
20.5878136047356
20
5.34153568005107
30
0
41
1
10
20.5460507829755
20
5.30455398122533
30
0
41
1
10
20.5262970086682
20
5.28518044967061
30
0
41
1
10
20.4889396946712
20
5.24471509489788
30
0
41
1
10
20.4712931406015
20
5.22354047710854
30
0
41
1
10
20.4226269571248
20
5.15901579412997
30
0
41
1
10
20.3953601516259
20
5.11422684516901
30
0
41
1
10
20.361207557278
20
5.04443079497153
30
0
41
1
10
20.3509341260477
20
5.02064915473738
30
0
41
1
10
20.3327806188033
20
4.97260884499676
30
0
41
1
10
20.3248979334757
20
4.94837075977276
30
0
41
1
10
20.3181619695468
20
4.92390455985569
30
0
0
SPLINE
5
19F
100
AcDbEntity
8
1
62
256
6
ByLayer
370
18
48
1
60
0
100
AcDbSpline
70
4
71
3
72
26
73
22
40
0
40
0
40
0
40
0
40
0.125000000000006
40
0.125000000000006
40
0.250000000000012
40
0.250000000000012
40
0.312500000000025
40
0.312500000000025
40
0.375000000000038
40
0.375000000000038
40
0.500000000000044
40
0.500000000000044
40
0.562500000000039
40
0.562500000000039
40
0.625000000000033
40
0.625000000000033
40
0.750000000000022
40
0.750000000000022
40
0.875000000000011
40
0.875000000000011
40
1
40
1
40
1
40
1
41
1
10
20
20
4.6815
30
0
41
1
10
20.0187420838797
20
4.6815
30
0
41
1
10
20.037790024121
20
4.68313720449541
30
0
41
1
10
20.0746705458543
20
4.68951471931706
30
0
41
1
10
20.0926468374794
20
4.69422720833452
30
0
41
1
10
20.1189272305608
20
4.70353461389684
30
0
41
1
10
20.127613610563
20
4.70703247490465
30
0
41
1
10
20.144482547616
20
4.71466586976396
30
0
41
1
10
20.1526773955158
20
4.71880090073512
30
0
41
1
10
20.1765732518195
20
4.73211767058427
30
0
41
1
10
20.1915899369245
20
4.74220543750667
30
0
41
1
10
20.2127755394084
20
4.7590952929138
30
0
41
1
10
20.2195919185691
20
4.76500738261558
30
0
41
1
10
20.2325595895107
20
4.77720262815714
30
0
41
1
10
20.2387403827712
20
4.78350870321464
30
0
41
1
10
20.2564090822013
20
4.80302364722419
30
0
41
1
10
20.2670282709711
20
4.81682587233794
30
0
41
1
10
20.2860013809461
20
4.84595446676008
30
0
41
1
10
20.2941811588046
20
4.86102270581375
30
0
41
1
10
20.3080220198239
20
4.89188225230009
30
0
41
1
10
20.3137019836554
20
4.9077051105119
30
0
41
1
10
20.3181619695468
20
4.92390455985569
30
0
0
SPLINE
5
1A0
100
AcDbEntity
8
1
62
256
6
ByLayer
370
18
48
1
60
0
100
AcDbSpline
70
4
71
3
72
24
73
20
40
0
40
0
40
0
40
0
40
0.062500000000007
40
0.062500000000007
40
0.125000000000014
40
0.125000000000014
40
0.25000000000001
40
0.25000000000001
40
0.312500000000009
40
0.312500000000009
40
0.375000000000009
40
0.375000000000009
40
0.500000000000008
40
0.500000000000008
40
0.625000000000007
40
0.625000000000007
40
0.750000000000006
40
0.750000000000006
40
1
40
1
40
1
40
1
41
1
10
21.6981810583398
20
5.65442311040482
30
0
41
1
10
21.6934313378224
20
5.64632139018687
30
0
41
1
10
21.6882897889865
20
5.63835019077266
30
0
41
1
10
21.677355321586
20
5.6229069342991
30
0
41
1
10
21.6716008277749
20
5.61548230486324
30
0
41
1
10
21.653507056405
20
5.59406724837234
30
0
41
1
10
21.6403431053359
20
5.5809297604749
30
0
41
1
10
21.6189603728398
20
5.56291952202378
30
0
41
1
10
21.6115431209205
20
5.55719464554414
30
0
41
1
10
21.5964570188402
20
5.54652908650147
30
0
41
1
10
21.5887541685168
20
5.54155746548531
30
0
41
1
10
21.5651865615503
20
5.52768476963976
30
0
41
1
10
21.5488655560664
20
5.51981928227153
30
0
41
1
10
21.5150376500416
20
5.50680967244006
30
0
41
1
10
21.497973394896
20
5.50183493909819
30
0
41
1
10
21.4636029977596
20
5.49467600751669
30
0
41
1
10
21.446237058748
20
5.49249069308141
30
0
41
1
10
21.39416944413
20
5.49006078995396
30
0
41
1
10
21.3606039107084
20
5.49386070823118
30
0
41
1
10
21.3281523379786
20
5.50254896641513
30
0
0
SPLINE
5
1A1
100
AcDbEntity
8
1
62
256
6
ByLayer
370
18
48
1
60
0
100
AcDbSpline
70
4
71
3
72
19
73
15
40
0
40
0
40
0
40
0
40
0.105598795309635
40
0.207133056768108
40
0.304606247524379
40
0.398022283830831
40
0.48738561546495
40
0.572701326119379
40
0.653975258965668
40
0.73121417467839
40
0.804425952125486
40
0.873619846082936
40
0.938806822394134
40
1
40
1
40
1
40
1
41
1
10
39.58236683062
20
15.4830853518219
30
0
41
1
10
39.5761086181708
20
15.4837049490853
30
0
41
1
10
39.563833074016
20
15.484920295101
30
0
41
1
10
39.5458128004535
20
15.4870082121237
30
0
41
1
10
39.528539119221
20
15.4892307140948
30
0
41
1
10
39.5120140189838
20
15.491593512128
30
0
41
1
10
39.4962369707864
20
15.4940773874631
30
0
41
1
10
39.4812080910702
20
15.4966698932994
30
0
41
1
10
39.4669272661601
20
15.4993571633471
30
0
41
1
10
39.4533946416573
20
15.5021269601486
30
0
41
1
10
39.4406095573258
20
15.5049646761752
30
0
41
1
10
39.4285740432231
20
15.5078656318826
30
0
41
1
10
39.4172808603108
20
15.5107934196336
30
0
41
1
10
39.4100347419719
20
15.5128781454489
30
0
41
1
10
39.4065261768
20
15.5138875681559
30
0
0
SPLINE
5
1A2
100
AcDbEntity
8
1
62
256
6
ByLayer
370
18
48
1
60
0
100
AcDbSpline
70
4
71
3
72
16
73
12
40
0
40
0
40
0
40
0
40
0.118227901208893
40
0.234676362797895
40
0.349345481218902
40
0.462235357483961
40
0.573346097457496
40
0.682677812172249
40
0.790230618171219
40
0.896004637878217
40
1
40
1
40
1
40
1
41
1
10
40.2702887043917
20
15.4277346738549
30
0
41
1
10
40.2431521268268
20
15.4295566837591
30
0
41
1
10
40.1892874023701
20
15.4331732806277
30
0
41
1
10
40.109124713396
20
15.4388878609321
30
0
41
1
10
40.0302034041844
20
15.4447527074665
30
0
41
1
10
39.9525249527702
20
15.4507819529497
30
0
41
1
10
39.8760890095594
20
15.4569609754792
30
0
41
1
10
39.8008955277781
20
15.4632809223075
30
0
41
1
10
39.7269450208379
20
15.4697385791177
30
0
41
1
10
39.6542355274137
20
15.4763039893531
30
0
41
1
10
39.6061872606909
20
15.4808377116472
30
0
41
1
10
39.58236683059
20
15.48308535183
30
0
0
SPLINE
5
1A3
100
AcDbEntity
8
1
62
256
6
ByLayer
370
18
48
1
60
0
100
AcDbSpline
70
4
71
2
72
10
73
7
40
0
40
0
40
0
40
0.5
40
0.5
40
0.75
40
0.75
40
1
40
1
40
1
41
1
10
40.2703211835004
20
15.427732523738
30
0
41
1
10
40.5005090492969
20
15.4124656263185
30
0
41
1
10
40.6813994958523
20
15.3762583567371
30
0
41
1
10
40.7977168199743
20
15.3529761282298
30
0
41
1
10
40.8815407125726
20
15.3230189485083
30
0
41
1
10
41.0246417322624
20
15.2718771698065
30
0
41
1
10
41.0499902265207
20
15.210735586972
30
0
0
SPLINE
5
1A4
100
AcDbEntity
8
1
62
256
6
ByLayer
370
18
48
1
60
0
100
AcDbSpline
70
4
71
2
72
6
73
3
40
0
40
0
40
0
40
1
40
1
40
1
41
1
10
41.0499902266708
20
15.210735587058
30
0
41
1
10
41.0884919085572
20
15.1155912650914
30
0
41
1
10
41.0886043049807
20
15.0200000006976
30
0
0
SPLINE
5
1A5
100
AcDbEntity
8
1
62
256
6
ByLayer
370
18
48
1
60
0
100
AcDbSpline
70
4
71
3
72
24
73
20
40
0
40
0
40
0
40
0
40
0.0615883759047804
40
0.122688254024784
40
0.183326299851765
40
0.243529792548003
40
0.303326606004192
40
0.36274518644542
40
0.421814526539202
40
0.480564136000278
40
0.539024008730868
40
0.597224586585082
40
0.655196719894227
40
0.712971624940753
40
0.770580838619306
40
0.828056170570635
40
0.885429653119919
40
0.942733489390619
40
1
40
1
40
1
40
1
41
1
10
41.04999022667
20
14.789264412942
30
0
41
1
10
41.0514760409687
20
14.7929901798058
30
0
41
1
10
41.0544358845988
20
14.8004121620338
30
0
41
1
10
41.0585659721736
20
14.8116216503168
30
0
41
1
10
41.0624450214135
20
14.8228285131276
30
0
41
1
10
41.066052645609
20
14.83404112012
30
0
41
1
10
41.0693942359552
20
14.8452568203016
30
0
41
1
10
41.0724683525928
20
14.8564758821521
30
0
41
1
10
41.0752753669341
20
14.8676977990062
30
0
41
1
10
41.0778151708743
20
14.8789222688591
30
0
41
1
10
41.0800877810841
20
14.8901489343787
30
0
41
1
10
41.0820931925112
20
14.9013774519818
30
0
41
1
10
41.0838313661184
20
14.9126074735421
30
0
41
1
10
41.0853024227051
20
14.9238386513105
30
0
41
1
10
41.0865058842008
20
14.9350706367791
30
0
41
1
10
41.0874435045143
20
14.9463030808113
30
0
41
1
10
41.0881087368338
20
14.9575356348018
30
0
41
1
10
41.0885259471521
20
14.968767946552
30
0
41
1
10
41.0885781913775
20
14.9762567949783
30
0
41
1
10
41.08860430498
20
14.9799999993024
30
0
0
SPLINE
5
1A6
100
AcDbEntity
8
1
62
256
6
ByLayer
370
18
48
1
60
0
100
AcDbSpline
70
4
71
3
72
43
73
39
40
0
40
0
40
0
40
0
40
0.040997340636646
40
0.0809092982715811
40
0.119736159842821
40
0.15747823704754
40
0.194135869264795
40
0.229709426921881
40
0.264199315386285
40
0.297605979485286
40
0.329929908777832
40
0.361171643733663
40
0.391331783012885
40
0.420410992088523
40
0.44841001351942
40
0.475329679265269
40
0.501170925548118
40
0.572592867093694
40
0.638080914696128
40
0.697670982799364
40
0.751410812475232
40
0.77277991361855
40
0.793234602755292
40
0.812782181749364
40
0.831431018019197
40
0.849190749344521
40
0.866072536338501
40
0.882089374987178
40
0.897256484840495
40
0.911591792130992
40
0.925116531009033
40
0.937855989439945
40
0.949840427402954
40
0.961106190504018
40
0.971697025976509
40
0.981665570834288
40
0.991074911407356
40
1
40
1
40
1
40
1
41
1
10
40.2703211835
20
14.572267476262
30
0
41
1
10
40.2815955433722
20
14.5730405333593
30
0
41
1
10
40.3038457803767
20
14.5745661812744
30
0
41
1
10
40.3367474852616
20
14.5771689404713
30
0
41
1
10
40.368734387051
20
14.5799480523694
30
0
41
1
10
40.3998047803203
20
14.58291298977
30
0
41
1
10
40.4299591078148
20
14.5860435105336
30
0
41
1
10
40.459197261057
20
14.5893273427029
30
0
41
1
10
40.4875192737298
20
14.5927505360394
30
0
41
1
10
40.5149251441988
20
14.5962999639445
30
0
41
1
10
40.5414148802486
20
14.5999627077347
30
0
41
1
10
40.5669884910949
20
14.6037262288779
30
0
41
1
10
40.5916459782106
20
14.6075783622644
30
0
41
1
10
40.6153873786587
20
14.6115072610154
30
0
41
1
10
40.638212610891
20
14.6155016729279
30
0
41
1
10
40.6601220206573
20
14.6195499937755
30
0
41
1
10
40.6937486984552
20
14.626107366319
30
0
41
1
10
40.737660265658
20
14.6355375625419
30
0
41
1
10
40.790314785579
20
14.6485901785153
30
0
41
1
10
40.8378060332943
20
14.6621596087783
30
0
41
1
10
40.8731644417988
20
14.67382203962
30
0
41
1
10
40.8979490400555
20
14.682972103705
30
0
41
1
10
40.9137384431464
20
14.6891993032897
30
0
41
1
10
40.9286893772276
20
14.6955079877224
30
0
41
1
10
40.9428019685624
20
14.7018921260808
30
0
41
1
10
40.9560763753171
20
14.7083455162314
30
0
41
1
10
40.9685127830692
20
14.714862070018
30
0
41
1
10
40.9801114087742
20
14.7214357642014
30
0
41
1
10
40.9908725094797
20
14.7280606767799
30
0
41
1
10
41.0007963582658
20
14.7347310216471
30
0
41
1
10
41.0098833178298
20
14.741441151275
30
0
41
1
10
41.0181335453682
20
14.7481857216071
30
0
41
1
10
41.0255478947299
20
14.7549593379339
30
0
41
1
10
41.0321246317882
20
14.761758000668
30
0
41
1
10
41.037870243827
20
14.768574412401
30
0
41
1
10
41.0427620013418
20
14.7754140966517
30
0
41
1
10
41.0468749657509
20
14.7822401833556
30
0
41
1
10
41.0489702532908
20
14.786964597137
30
0
41
1
10
41.04999022652
20
14.789264413028
30
0
0
SPLINE
5
1A7
100
AcDbEntity
8
1
62
256
6
ByLayer
370
18
48
1
60
0
100
AcDbSpline
70
4
71
2
72
6
73
3
40
0
40
0
40
0
40
1
40
1
40
1
41
1
10
40.2702887043921
20
14.5722653261425
30
0
41
1
10
39.919552783945
20
14.5490374694324
30
0
41
1
10
39.5823668305908
20
14.51691464817
30
0
0
SPLINE
5
1A8
100
AcDbEntity
8
1
62
256
6
ByLayer
370
18
48
1
60
0
100
AcDbSpline
70
4
71
2
72
6
73
3
40
0
40
0
40
0
40
1
40
1
40
1
41
1
10
39.5823668306203
20
14.516914648178
30
0
41
1
10
39.4769907517283
20
14.5068233680093
30
0
41
1
10
39.4065261768005
20
14.486112431844
30
0
0
LINE
5
7D
100
AcDbEntity
8
81
62
256
6
ByLayer
370
18
48
1
60
0
100
AcDbLine
10
45.1
20
18
30
0
11
50.1
21
18
31
0
39
0
210
0
220
0
230
1
0
LINE
5
7E
100
AcDbEntity
8
80
62
256
6
ByLayer
370
18
48
1
60
0
100
AcDbLine
10
0
20
0
30
0
11
0
21
-5
31
0
39
0
210
0
220
0
230
1
0
LINE
5
7F
100
AcDbEntity
8
1
62
256
6
ByLayer
370
18
48
1
60
0
100
AcDbLine
10
20
20
0.675
30
0
11
20
21
0.875
31
0
39
0
210
0
220
0
230
1
0
LINE
5
80
100
AcDbEntity
8
1
62
256
6
ByLayer
370
18
48
1
60
0
100
AcDbLine
10
18.92863
20
17.675
30
0
11
11.884652
21
17.675
31
0
39
0
210
0
220
0
230
1
0
LINE
5
81
100
AcDbEntity
8
1
62
256
6
ByLayer
370
18
48
1
60
0
100
AcDbLine
10
-2.614389
20
17.675
30
0
11
-7.425
21
17.675
31
0
39
0
210
0
220
0
230
1
0
LINE
5
82
100
AcDbEntity
8
1
62
256
6
ByLayer
370
18
48
1
60
0
100
AcDbLine
10
9.863043
20
-0.324981
30
0
11
11.476486
21
-0.324981
31
0
39
0
210
0
220
0
230
1
0
LINE
5
83
100
AcDbEntity
8
1
62
256
6
ByLayer
370
18
48
1
60
0
100
AcDbLine
10
11.476746
20
-0.324981
30
0
11
11.592073
21
-0.324981
31
0
39
0
210
0
220
0
230
1
0
LINE
5
84
100
AcDbEntity
8
1
62
256
6
ByLayer
370
18
48
1
60
0
100
AcDbLine
10
35.43769
20
12.266029
30
0
11
33.255002
21
12.266029
31
0
39
0
210
0
220
0
230
1
0
LINE
5
85
100
AcDbEntity
8
1
62
256
6
ByLayer
370
18
48
1
60
0
100
AcDbLine
10
11.700309
20
-0.324981
30
0
11
12.078907
21
-0.324981
31
0
39
0
210
0
220
0
230
1
0
LINE
5
86
100
AcDbEntity
8
1
62
256
6
ByLayer
370
18
48
1
60
0
100
AcDbLine
10
39.383598
20
12.267259
30
0
11
37.907322
21
12.267259
31
0
39
0
210
0
220
0
230
1
0
LINE
5
87
100
AcDbEntity
8
1
62
256
6
ByLayer
370
18
48
1
60
0
100
AcDbLine
10
37.907322
20
12.267259
30
0
11
37.907085
21
12.400002
31
0
39
0
210
0
220
0
230
1
0
LINE
5
88
100
AcDbEntity
8
1
62
256
6
ByLayer
370
18
48
1
60
0
100
AcDbLine
10
35.43769
20
12.266029
30
0
11
35.437618
21
12.306449
31
0
39
0
210
0
220
0
230
1
0
LINE
5
89
100
AcDbEntity
8
1
62
256
6
ByLayer
370
18
48
1
60
0
100
AcDbLine
10
12.159145
20
-0.324981
30
0
11
18.777518
21
-0.324981
31
0
39
0
210
0
220
0
230
1
0
LINE
5
8A
100
AcDbEntity
8
1
62
256
6
ByLayer
370
18
48
1
60
0
100
AcDbLine
10
10.085407
20
-0.25
30
0
11
12.112448
21
-0.25
31
0
39
0
210
0
220
0
230
1
0
LINE
5
8B
100
AcDbEntity
8
1
62
256
6
ByLayer
370
13
48
1
60
0
100
AcDbLine
10
10.085505
20
-0.249981
30
0
11
18.872922
21
-0.249981
31
0
39
0
210
0
220
0
230
1
0
LINE
5
8C
100
AcDbEntity
8
1
62
256
6
ByLayer
370
18
48
1
60
0
100
AcDbLine
10
19.287063
20
0.129904
30
0
11
10.971714
21
0.129904
31
0
39
0
210
0
220
0
230
1
0
LINE
5
8D
100
AcDbEntity
8
1
62
256
6
ByLayer
370
13
48
1
60
0
100
AcDbLine
10
27.1
20
12.070134
30
0
11
27.1
21
10.972373
31
0
39
0
210
0
220
0
230
1
0
LINE
5
8E
100
AcDbEntity
8
1
62
256
6
ByLayer
370
18
48
1
60
0
100
AcDbLine
10
36.608056
20
12.879284
30
0
11
36.50633
21
12.31813
31
0
39
0
210
0
220
0
230
1
0
LINE
5
8F
100
AcDbEntity
8
1
62
256
6
ByLayer
370
18
48
1
60
0
100
AcDbLine
10
37.1
20
15.274969
30
0
11
37.1
21
14.725031
31
0
39
0
210
0
220
0
230
1
0
LINE
5
90
100
AcDbEntity
8
1
62
256
6
ByLayer
370
18
48
1
60
0
100
AcDbLine
10
-17.993925
20
-0.324981
30
0
11
-17.500052
21
-0.324981
31
0
39
0
210
0
220
0
230
1
0
LINE
5
91
100
AcDbEntity
8
1
62
256
6
ByLayer
370
18
48
1
60
0
100
AcDbLine
10
-12.088254
20
-0.324981
30
0
11
-11.914321
21
-0.324981
31
0
39
0
210
0
220
0
230
1
0
LINE
5
92
100
AcDbEntity
8
1
62
256
6
ByLayer
370
13
48
1
60
0
100
AcDbLine
10
-18.028729
20
-0.249981
30
0
11
-17.635485
21
-0.249981
31
0
39
0
210
0
220
0
230
1
0
LINE
5
93
100
AcDbEntity
8
1
62
256
6
ByLayer
370
13
48
1
60
0
100
AcDbLine
10
-18.581248
20
0.394519
30
0
11
-18.473911
21
0.394519
31
0
39
0
210
0
220
0
230
1
0
LINE
5
94
100
AcDbEntity
8
1
62
256
6
ByLayer
370
18
48
1
60
0
100
AcDbLine
10
-17.413473
20
-0.324981
30
0
11
-16.786972
21
-0.324981
31
0
39
0
210
0
220
0
230
1
0
LINE
5
95
100
AcDbEntity
8
1
62
256
6
ByLayer
370
18
48
1
60
0
100
AcDbLine
10
-13.593357
20
-0.324981
30
0
11
-13.533459
21
-0.324981
31
0
39
0
210
0
220
0
230
1
0
LINE
5
96
100
AcDbEntity
8
1
62
256
6
ByLayer
370
13
48
1
60
0
100
AcDbLine
10
-17.438264
20
-0.249981
30
0
11
-16.939731
21
-0.249981
31
0
39
0
210
0
220
0
230
1
0
LINE
5
97
100
AcDbEntity
8
1
62
256
6
ByLayer
370
13
48
1
60
0
100
AcDbLine
10
-17.977888
20
0.394519
30
0
11
-17.842224
21
0.394519
31
0
39
0
210
0
220
0
230
1
0
LINE
5
98
100
AcDbEntity
8
1
62
256
6
ByLayer
370
18
48
1
60
0
100
AcDbLine
10
-16.678631
20
-0.324981
30
0
11
-15.90146
21
-0.324981
31
0
39
0
210
0
220
0
230
1
0
LINE
5
99
100
AcDbEntity
8
1
62
256
6
ByLayer
370
13
48
1
60
0
100
AcDbLine
10
-16.692843
20
-0.249981
30
0
11
-16.07471
21
-0.249981
31
0
39
0
210
0
220
0
230
1
0
LINE
5
9A
100
AcDbEntity
8
1
62
256
6
ByLayer
370
13
48
1
60
0
100
AcDbLine
10
-17.223418
20
0.394519
30
0
11
-17.055876
21
0.394519
31
0
39
0
210
0
220
0
230
1
0
LINE
5
9B
100
AcDbEntity
8
1
62
256
6
ByLayer
370
18
48
1
60
0
100
AcDbLine
10
-15.767828
20
-0.324981
30
0
11
-14.812472
21
-0.324981
31
0
39
0
210
0
220
0
230
1
0
LINE
5
9C
100
AcDbEntity
8
1
62
256
6
ByLayer
370
13
48
1
60
0
100
AcDbLine
10
-15.77051
20
-0.249981
30
0
11
-15.011304
21
-0.249981
31
0
39
0
210
0
220
0
230
1
0
LINE
5
9D
100
AcDbEntity
8
1
62
256
6
ByLayer
370
13
48
1
60
0
100
AcDbLine
10
-16.296865
20
0.394519
30
0
11
-16.09229
21
0.394519
31
0
39
0
210
0
220
0
230
1
0
LINE
5
9E
100
AcDbEntity
8
1
62
256
6
ByLayer
370
18
48
1
60
0
100
AcDbLine
10
-14.64828
20
-0.324981
30
0
11
-13.593304
21
-0.324981
31
0
39
0
210
0
220
0
230
1
0
LINE
5
9F
100
AcDbEntity
8
1
62
256
6
ByLayer
370
13
48
1
60
0
100
AcDbLine
10
-14.637861
20
-0.249981
30
0
11
-13.703342
21
-0.249981
31
0
39
0
210
0
220
0
230
1
0
LINE
5
A0
100
AcDbEntity
8
1
62
256
6
ByLayer
370
13
48
1
60
0
100
AcDbLine
10
-15.166723
20
0.394519
30
0
11
-14.917111
21
0.394519
31
0
39
0
210
0
220
0
230
1
0
LINE
5
A1
100
AcDbEntity
8
1
62
256
6
ByLayer
370
18
48
1
60
0
100
AcDbLine
10
-13.267245
20
-0.324981
30
0
11
-12.088194
21
-0.324981
31
0
39
0
210
0
220
0
230
1
0
LINE
5
A2
100
AcDbEntity
8
1
62
256
6
ByLayer
370
13
48
1
60
0
100
AcDbLine
10
-13.241033
20
-0.249981
30
0
11
-12.071604
21
-0.249981
31
0
39
0
210
0
220
0
230
1
0
LINE
5
A3
100
AcDbEntity
8
1
62
256
6
ByLayer
370
13
48
1
60
0
100
AcDbLine
10
-13.783002
20
0.394519
30
0
11
-13.474849
21
0.394519
31
0
39
0
210
0
220
0
230
1
0
LINE
5
A4
100
AcDbEntity
8
1
62
256
6
ByLayer
370
18
48
1
60
0
100
AcDbLine
10
13.932861
20
0.675
30
0
11
13.198176
21
0.675
31
0
39
0
210
0
220
0
230
1
0
LINE
5
A5
100
AcDbEntity
8
1
62
256
6
ByLayer
370
18
48
1
60
0
100
AcDbLine
10
14.272209
20
1.375
30
0
11
14.39618
21
1.375
31
0
39
0
210
0
220
0
230
1
0
LINE
5
A6
100
AcDbEntity
8
1
62
256
6
ByLayer
370
18
48
1
60
0
100
AcDbLine
10
13.932861
20
0.675
30
0
11
13.932861
21
0.875
31
0
39
0
210
0
220
0
230
1
0
LINE
5
A7
100
AcDbEntity
8
1
62
256
6
ByLayer
370
18
48
1
60
0
100
AcDbLine
10
6.439659
20
17.351538
30
0
11
6.439659
21
17.464869
31
0
39
0
210
0
220
0
230
1
0
LINE
5
A8
100
AcDbEntity
8
1
62
256
6
ByLayer
370
18
48
1
60
0
100
AcDbLine
10
21.384526
20
1.375
30
0
11
25.5
21
1.375
31
0
39
0
210
0
220
0
230
1
0
LINE
5
A9
100
AcDbEntity
8
1
62
256
6
ByLayer
370
18
48
1
60
0
100
AcDbLine
10
25.5
20
1.375
30
0
11
25.5
21
10.393977
31
0
39
0
210
0
220
0
230
1
0
LINE
5
AA
100
AcDbEntity
8
1
62
256
6
ByLayer
370
18
48
1
60
0
100
AcDbLine
10
33.6
20
17.562021
30
0
11
33.6
21
12.272943
31
0
39
0
210
0
220
0
230
1
0
LINE
5
AB
100
AcDbEntity
8
1
62
256
6
ByLayer
370
18
48
1
60
0
100
AcDbLine
10
21.384526
20
10.984234
30
0
11
21.384526
21
16.453621
31
0
39
0
210
0
220
0
230
1
0
LINE
5
AC
100
AcDbEntity
8
1
62
256
6
ByLayer
370
18
48
1
60
0
100
AcDbLine
10
14.39618
20
16.453621
30
0
11
14.39618
21
1.375
31
0
39
0
210
0
220
0
230
1
0
LINE
5
AD
100
AcDbEntity
8
1
62
256
6
ByLayer
370
18
48
1
60
0
100
AcDbLine
10
21.384526
20
1.375
30
0
11
14.39618
21
1.375
31
0
39
0
210
0
220
0
230
1
0
LINE
5
AE
100
AcDbEntity
8
1
62
256
6
ByLayer
370
18
48
1
60
0
100
AcDbLine
10
21.384526
20
1.375
30
0
11
21.384526
21
2.315766
31
0
39
0
210
0
220
0
230
1
0
LINE
5
AF
100
AcDbEntity
8
1
62
256
6
ByLayer
370
18
48
1
60
0
100
AcDbLine
10
-7.569839
20
17.530161
30
0
11
-8.672226
21
16.427774
31
0
39
0
210
0
220
0
230
1
0
LINE
5
B0
100
AcDbEntity
8
1
62
256
6
ByLayer
370
18
48
1
60
0
100
AcDbLine
10
-11.531153
20
-0.324981
30
0
11
-9.594947
21
-0.324981
31
0
39
0
210
0
220
0
230
1
0
LINE
5
B1
100
AcDbEntity
8
1
62
256
6
ByLayer
370
13
48
1
60
0
100
AcDbLine
10
-11.48403
20
-0.249981
30
0
11
-9.957988
21
-0.249981
31
0
39
0
210
0
220
0
230
1
0
LINE
5
B2
100
AcDbEntity
8
1
62
256
6
ByLayer
370
13
48
1
60
0
100
AcDbLine
10
9.958064
20
-0.249981
30
0
11
10.085459
21
-0.249981
31
0
39
0
210
0
220
0
230
1
0
LINE
5
B3
100
AcDbEntity
8
1
62
256
6
ByLayer
370
13
48
1
60
0
100
AcDbLine
10
-12.058724
20
0.394519
30
0
11
-11.667722
21
0.394519
31
0
39
0
210
0
220
0
230
1
0
LINE
5
B4
100
AcDbEntity
8
1
62
256
6
ByLayer
370
18
48
1
60
0
100
AcDbLine
10
-9.242033
20
-0.324981
30
0
11
-6.372959
21
-0.324981
31
0
39
0
210
0
220
0
230
1
0
LINE
5
B5
100
AcDbEntity
8
1
62
256
6
ByLayer
370
18
48
1
60
0
100
AcDbLine
10
6.372959
20
-0.324981
30
0
11
9.242033
21
-0.324981
31
0
39
0
210
0
220
0
230
1
0
LINE
5
B6
100
AcDbEntity
8
1
62
256
6
ByLayer
370
13
48
1
60
0
100
AcDbLine
10
-9.161928
20
-0.249981
30
0
11
-6.935866
21
-0.249981
31
0
39
0
210
0
220
0
230
1
0
LINE
5
B7
100
AcDbEntity
8
1
62
256
6
ByLayer
370
13
48
1
60
0
100
AcDbLine
10
6.935866
20
-0.249981
30
0
11
9.161928
21
-0.249981
31
0
39
0
210
0
220
0
230
1
0
LINE
5
B8
100
AcDbEntity
8
1
62
256
6
ByLayer
370
13
48
1
60
0
100
AcDbLine
10
-9.816033
20
0.394519
30
0
11
-9.284126
21
0.394519
31
0
39
0
210
0
220
0
230
1
0
LINE
5
B9
100
AcDbEntity
8
1
62
256
6
ByLayer
370
13
48
1
60
0
100
AcDbLine
10
9.284126
20
0.394519
30
0
11
9.816033
21
0.394519
31
0
39
0
210
0
220
0
230
1
0
LINE
5
BA
100
AcDbEntity
8
1
62
256
6
ByLayer
370
18
48
1
60
0
100
AcDbLine
10
-5.776059
20
-0.324981
30
0
11
5.776059
21
-0.324981
31
0
39
0
210
0
220
0
230
1
0
LINE
5
BB
100
AcDbEntity
8
1
62
256
6
ByLayer
370
13
48
1
60
0
100
AcDbLine
10
-5.612388
20
-0.249981
30
0
11
5.612388
21
-0.249981
31
0
39
0
210
0
220
0
230
1
0
LINE
5
BC
100
AcDbEntity
8
1
62
256
6
ByLayer
370
13
48
1
60
0
100
AcDbLine
10
-6.541878
20
0.394519
30
0
11
-5.63501
21
0.394519
31
0
39
0
210
0
220
0
230
1
0
LINE
5
BD
100
AcDbEntity
8
1
62
256
6
ByLayer
370
13
48
1
60
0
100
AcDbLine
10
5.63501
20
0.394519
30
0
11
6.541878
21
0.394519
31
0
39
0
210
0
220
0
230
1
0
LINE
5
BE
100
AcDbEntity
8
1
62
256
6
ByLayer
370
18
48
1
60
0
100
AcDbLine
10
-19
20
0.675
30
0
11
-19
21
0.875
31
0
39
0
210
0
220
0
230
1
0
LINE
5
BF
100
AcDbEntity
8
1
62
256
6
ByLayer
370
18
48
1
60
0
100
AcDbLine
10
11.871309
20
0.675
30
0
11
13.198251
21
0.675
31
0
39
0
210
0
220
0
230
1
0
LINE
5
C0
100
AcDbEntity
8
1
62
256
6
ByLayer
370
18
48
1
60
0
100
AcDbLine
10
13.198251
20
0.875
30
0
11
13.198251
21
0.675
31
0
39
0
210
0
220
0
230
1
0
LINE
5
C1
100
AcDbEntity
8
1
62
256
6
ByLayer
370
18
48
1
60
0
100
AcDbLine
10
11.008951
20
1.375
30
0
11
8.2521
21
1.375
31
0
39
0
210
0
220
0
230
1
0
LINE
5
C2
100
AcDbEntity
8
1
62
256
6
ByLayer
370
18
48
1
60
0
100
AcDbLine
10
13.235223
20
1.10195
30
0
11
13.235223
21
16.417183
31
0
39
0
210
0
220
0
230
1
0
LINE
5
C3
100
AcDbEntity
8
1
62
256
6
ByLayer
370
18
48
1
60
0
100
AcDbLine
10
21.384526
20
16.453621
30
0
11
14.39618
21
16.453621
31
0
39
0
210
0
220
0
230
1
0
LINE
5
C4
100
AcDbEntity
8
1
62
256
6
ByLayer
370
18
48
1
60
0
100
AcDbLine
10
21.35
20
17.654976
30
0
11
22.65
21
17.654976
31
0
39
0
210
0
220
0
230
1
0
LINE
5
C5
100
AcDbEntity
8
1
62
256
6
ByLayer
370
18
48
1
60
0
100
AcDbLine
10
-8.672201
20
16.427799
30
0
11
-9.192859
21
15.907141
31
0
39
0
210
0
220
0
230
1
0
LINE
5
C6
100
AcDbEntity
8
1
62
256
6
ByLayer
370
13
48
1
60
0
100
AcDbLine
10
13.198251
20
0.875
30
0
11
-19
21
0.875
31
0
39
0
210
0
220
0
230
1
0
LINE
5
C7
100
AcDbEntity
8
1
62
256
6
ByLayer
370
18
48
1
60
0
100
AcDbLine
10
8.2521
20
1.375
30
0
11
4.271709
21
1.375
31
0
39
0
210
0
220
0
230
1
0
LINE
5
C8
100
AcDbEntity
8
1
62
256
6
ByLayer
370
18
48
1
60
0
100
AcDbLine
10
8.2521
20
15.427702
30
0
11
8.2521
21
1.375
31
0
39
0
210
0
220
0
230
1
0
LINE
5
C9
100
AcDbEntity
8
1
62
256
6
ByLayer
370
18
48
1
60
0
100
AcDbLine
10
8.2521
20
15.427702
30
0
11
0
21
15.427702
31
0
39
0
210
0
220
0
230
1
0
LINE
5
CA
100
AcDbEntity
8
1
62
256
6
ByLayer
370
18
48
1
60
0
100
AcDbLine
10
0
20
1.092945
30
0
11
-19
21
1.092945
31
0
39
0
210
0
220
0
230
1
0
LINE
5
CB
100
AcDbEntity
8
1
62
256
6
ByLayer
370
13
48
1
60
0
100
AcDbLine
10
0
20
15.427702
30
0
11
0
21
1.092945
31
0
39
0
210
0
220
0
230
1
0
LINE
5
CC
100
AcDbEntity
8
1
62
256
6
ByLayer
370
18
48
1
60
0
100
AcDbLine
10
-9.192859
20
15.907141
30
0
11
-19
21
6.1
31
0
39
0
210
0
220
0
230
1
0
LINE
5
CD
100
AcDbEntity
8
1
62
256
6
ByLayer
370
18
48
1
60
0
100
AcDbLine
10
-19
20
6.1
30
0
11
-19
21
1.092945
31
0
39
0
210
0
220
0
230
1
0
LINE
5
CE
100
AcDbEntity
8
1
62
256
6
ByLayer
370
18
48
1
60
0
100
AcDbLine
10
-17.993925
20
-0.324981
30
0
11
-18.000019
21
-0.324981
31
0
39
0
210
0
220
0
230
1
0
LINE
5
CF
100
AcDbEntity
8
1
62
256
6
ByLayer
370
18
48
1
60
0
100
AcDbLine
10
-17.413473
20
-0.324981
30
0
11
-17.50006
21
-0.324981
31
0
39
0
210
0
220
0
230
1
0
LINE
5
D0
100
AcDbEntity
8
1
62
256
6
ByLayer
370
18
48
1
60
0
100
AcDbLine
10
-16.678631
20
-0.324981
30
0
11
-16.787031
21
-0.324981
31
0
39
0
210
0
220
0
230
1
0
LINE
5
D1
100
AcDbEntity
8
1
62
256
6
ByLayer
370
18
48
1
60
0
100
AcDbLine
10
-15.767828
20
-0.324981
30
0
11
-15.901469
21
-0.324981
31
0
39
0
210
0
220
0
230
1
0
LINE
5
D2
100
AcDbEntity
8
1
62
256
6
ByLayer
370
18
48
1
60
0
100
AcDbLine
10
-14.64828
20
-0.324981
30
0
11
-14.812462
21
-0.324981
31
0
39
0
210
0
220
0
230
1
0
LINE
5
D3
100
AcDbEntity
8
1
62
256
6
ByLayer
370
18
48
1
60
0
100
AcDbLine
10
-13.267245
20
-0.324981
30
0
11
-13.470759
21
-0.324981
31
0
39
0
210
0
220
0
230
1
0
LINE
5
D4
100
AcDbEntity
8
1
62
256
6
ByLayer
370
18
48
1
60
0
100
AcDbLine
10
-11.531153
20
-0.324981
30
0
11
-11.790405
21
-0.324981
31
0
39
0
210
0
220
0
230
1
0
LINE
5
D5
100
AcDbEntity
8
1
62
256
6
ByLayer
370
18
48
1
60
0
100
AcDbLine
10
-9.242033
20
-0.324981
30
0
11
-9.595101
21
-0.324981
31
0
39
0
210
0
220
0
230
1
0
LINE
5
D6
100
AcDbEntity
8
1
62
256
6
ByLayer
370
18
48
1
60
0
100
AcDbLine
10
-5.776059
20
-0.324981
30
0
11
-6.373247
21
-0.324981
31
0
39
0
210
0
220
0
230
1
0
LINE
5
D7
100
AcDbEntity
8
1
62
256
6
ByLayer
370
18
48
1
60
0
100
AcDbLine
10
6.373247
20
-0.324981
30
0
11
5.776059
21
-0.324981
31
0
39
0
210
0
220
0
230
1
0
LINE
5
D8
100
AcDbEntity
8
1
62
256
6
ByLayer
370
18
48
1
60
0
100
AcDbLine
10
9.595101
20
-0.324981
30
0
11
9.242033
21
-0.324981
31
0
39
0
210
0
220
0
230
1
0
LINE
5
D9
100
AcDbEntity
8
1
62
256
6
ByLayer
370
18
48
1
60
0
100
AcDbLine
10
-19
20
0.675
30
0
11
11.871309
21
0.675
31
0
39
0
210
0
220
0
230
1
0
LINE
5
DA
100
AcDbEntity
8
1
62
256
6
ByLayer
370
18
48
1
60
0
100
AcDbLine
10
36.510264
20
17.660168
30
0
11
36.608056
21
17.120716
31
0
39
0
210
0
220
0
230
1
0
LINE
5
DB
100
AcDbEntity
8
1
62
256
6
ByLayer
370
18
48
1
60
0
100
AcDbLine
10
20
20
0.675
30
0
11
13.932861
21
0.675
31
0
39
0
210
0
220
0
230
1
0
LINE
5
DC
100
AcDbEntity
8
1
62
256
6
ByLayer
370
13
48
1
60
0
100
AcDbLine
10
20
20
0.875
30
0
11
13.932861
21
0.875
31
0
39
0
210
0
220
0
230
1
0
LINE
5
DD
100
AcDbEntity
8
1
62
256
6
ByLayer
370
18
48
1
60
0
100
AcDbLine
10
-7.569839
20
17.530161
30
0
11
-7.425
21
17.675
31
0
39
0
210
0
220
0
230
1
0
LINE
5
DE
100
AcDbEntity
8
1
62
256
6
ByLayer
370
18
48
1
60
0
100
AcDbLine
10
27.1
20
10.972373
30
0
11
36.084011
21
10.972373
31
0
39
0
210
0
220
0
230
1
0
LINE
5
DF
100
AcDbEntity
8
1
62
256
6
ByLayer
370
18
48
1
60
0
100
AcDbLine
10
42.668682
20
12.100747
30
0
11
42.243073
21
12.078922
31
0
39
0
210
0
220
0
230
1
0
LINE
5
E0
100
AcDbEntity
8
1
62
256
6
ByLayer
370
18
48
1
60
0
100
AcDbLine
10
42.668682
20
17.899253
30
0
11
42.668682
21
12.100747
31
0
39
0
210
0
220
0
230
1
0
LINE
5
E1
100
AcDbEntity
8
1
62
256
6
ByLayer
370
18
48
1
60
0
100
AcDbLine
10
22.531318
20
17.899253
30
0
11
22.531318
21
17.6549
31
0
39
0
210
0
220
0
230
1
0
LINE
5
E2
100
AcDbEntity
8
1
62
256
6
ByLayer
370
13
48
1
60
0
100
AcDbLine
10
37.099889
20
15.02
30
0
11
41.088604
21
15.02
31
0
39
0
210
0
220
0
230
1
0
LINE
5
E3
100
AcDbEntity
8
1
62
256
6
ByLayer
370
13
48
1
60
0
100
AcDbLine
10
37.099889
20
14.98
30
0
11
41.088604
21
14.98
31
0
39
0
210
0
220
0
230
1
0
LINE
5
E4
100
AcDbEntity
8
1
62
256
6
ByLayer
370
13
48
1
60
0
100
AcDbLine
10
37.099884
20
15.210736
30
0
11
41.04999
21
15.210736
31
0
39
0
210
0
220
0
230
1
0
LINE
5
E5
100
AcDbEntity
8
1
62
256
6
ByLayer
370
13
48
1
60
0
100
AcDbLine
10
37.099884
20
14.789264
30
0
11
41.04999
21
14.789264
31
0
39
0
210
0
220
0
230
1
0
LINE
5
E6
100
AcDbEntity
8
1
62
256
6
ByLayer
370
13
48
1
60
0
100
AcDbLine
10
40.270287
20
14.572267
30
0
11
37.002145
21
14.572267
31
0
39
0
210
0
220
0
230
1
0
LINE
5
E7
100
AcDbEntity
8
1
62
256
6
ByLayer
370
13
48
1
60
0
100
AcDbLine
10
40.270287
20
15.427733
30
0
11
37.002145
21
15.427733
31
0
39
0
210
0
220
0
230
1
0
LINE
5
E8
100
AcDbEntity
8
1
62
256
6
ByLayer
370
13
48
1
60
0
100
AcDbLine
10
39.582367
20
15.483085
30
0
11
36.886737
21
15.483085
31
0
39
0
210
0
220
0
230
1
0
LINE
5
E9
100
AcDbEntity
8
1
62
256
6
ByLayer
370
13
48
1
60
0
100
AcDbLine
10
39.582367
20
14.516915
30
0
11
36.886737
21
14.516915
31
0
39
0
210
0
220
0
230
1
0
LINE
5
EA
100
AcDbEntity
8
1
62
256
6
ByLayer
370
13
48
1
60
0
100
AcDbLine
10
36.849506
20
15.513888
30
0
11
39.406526
21
15.513888
31
0
39
0
210
0
220
0
230
1
0
LINE
5
EB
100
AcDbEntity
8
1
62
256
6
ByLayer
370
13
48
1
60
0
100
AcDbLine
10
36.849506
20
14.486112
30
0
11
39.406526
21
14.486112
31
0
39
0
210
0
220
0
230
1
0
LINE
5
EC
100
AcDbEntity
8
1
62
256
6
ByLayer
370
13
48
1
60
0
100
AcDbLine
10
39.095391
20
14.394335
30
0
11
36.836416
21
14.394335
31
0
39
0
210
0
220
0
230
1
0
LINE
5
ED
100
AcDbEntity
8
1
62
256
6
ByLayer
370
13
48
1
60
0
100
AcDbLine
10
39.095391
20
15.605665
30
0
11
36.836822
21
15.605665
31
0
39
0
210
0
220
0
230
1
0
LINE
5
EE
100
AcDbEntity
8
1
62
256
6
ByLayer
370
13
48
1
60
0
100
AcDbLine
10
39.00992
20
15.649934
30
0
11
36.830747
21
15.649934
31
0
39
0
210
0
220
0
230
1
0
LINE
5
EF
100
AcDbEntity
8
1
62
256
6
ByLayer
370
13
48
1
60
0
100
AcDbLine
10
39.00992
20
14.350066
30
0
11
36.830146
21
14.350066
31
0
39
0
210
0
220
0
230
1
0
LINE
5
F0
100
AcDbEntity
8
1
62
256
6
ByLayer
370
18
48
1
60
0
100
AcDbLine
10
37.711484
20
17.6
30
0
11
36.521147
21
17.6
31
0
39
0
210
0
220
0
230
1
0
LINE
5
F1
100
AcDbEntity
8
1
62
256
6
ByLayer
370
18
48
1
60
0
100
AcDbLine
10
37.711484
20
12.4
30
0
11
36.521147
21
12.4
31
0
39
0
210
0
220
0
230
1
0
LINE
5
F2
100
AcDbEntity
8
1
62
256
6
ByLayer
370
18
48
1
60
0
100
AcDbLine
10
39.00992
20
15.649934
30
0
11
37.718066
21
17.341382
31
0
39
0
210
0
220
0
230
1
0
LINE
5
F3
100
AcDbEntity
8
1
62
256
6
ByLayer
370
18
48
1
60
0
100
AcDbLine
10
39.406526
20
15.513888
30
0
11
39.095391
21
15.605665
31
0
39
0
210
0
220
0
230
1
0
LINE
5
F4
100
AcDbEntity
8
1
62
256
6
ByLayer
370
18
48
1
60
0
100
AcDbLine
10
41.088604
20
15.02
30
0
11
41.088604
21
14.98
31
0
39
0
210
0
220
0
230
1
0
LINE
5
F5
100
AcDbEntity
8
1
62
256
6
ByLayer
370
18
48
1
60
0
100
AcDbLine
10
39.406526
20
14.486112
30
0
11
39.095391
21
14.394335
31
0
39
0
210
0
220
0
230
1
0
LINE
5
F6
100
AcDbEntity
8
1
62
256
6
ByLayer
370
18
48
1
60
0
100
AcDbLine
10
39.00992
20
14.350066
30
0
11
37.718066
21
12.658618
31
0
39
0
210
0
220
0
230
1
0
LINE
5
F7
100
AcDbEntity
8
1
62
256
6
ByLayer
370
18
48
1
60
0
100
AcDbLine
10
37.711484
20
12.641251
30
0
11
37.711484
21
12.4
31
0
39
0
210
0
220
0
230
1
0
LINE
5
F8
100
AcDbEntity
8
1
62
256
6
ByLayer
370
18
48
1
60
0
100
AcDbLine
10
39.139855
20
12.4
30
0
11
37.711484
21
12.4
31
0
39
0
210
0
220
0
230
1
0
LINE
5
F9
100
AcDbEntity
8
1
62
256
6
ByLayer
370
18
48
1
60
0
100
AcDbLine
10
39.567511
20
12.167091
30
0
11
39.139855
21
12.4
31
0
39
0
210
0
220
0
230
1
0
LINE
5
FA
100
AcDbEntity
8
1
62
256
6
ByLayer
370
18
48
1
60
0
100
AcDbLine
10
39.567511
20
12.167091
30
0
11
42.243073
21
12.078922
31
0
39
0
210
0
220
0
230
1
0
LINE
5
FB
100
AcDbEntity
8
1
62
256
6
ByLayer
370
18
48
1
60
0
100
AcDbLine
10
42.243073
20
12.078922
30
0
11
42.243073
21
17.921078
31
0
39
0
210
0
220
0
230
1
0
LINE
5
FC
100
AcDbEntity
8
1
62
256
6
ByLayer
370
18
48
1
60
0
100
AcDbLine
10
39.139855
20
17.6
30
0
11
37.711484
21
17.6
31
0
39
0
210
0
220
0
230
1
0
LINE
5
FD
100
AcDbEntity
8
1
62
256
6
ByLayer
370
18
48
1
60
0
100
AcDbLine
10
37.711484
20
17.358749
30
0
11
37.711484
21
17.6
31
0
39
0
210
0
220
0
230
1
0
LINE
5
FE
100
AcDbEntity
8
1
62
256
6
ByLayer
370
18
48
1
60
0
100
AcDbLine
10
22.956927
20
17.655351
30
0
11
22.956927
21
17.921078
31
0
39
0
210
0
220
0
230
1
0
LINE
5
FF
100
AcDbEntity
8
1
62
256
6
ByLayer
370
13
48
1
60
0
100
AcDbLine
10
37.711484
20
12.641251
30
0
11
36.564754
21
12.641251
31
0
39
0
210
0
220
0
230
1
0
LINE
5
100
100
AcDbEntity
8
1
62
256
6
ByLayer
370
13
48
1
60
0
100
AcDbLine
10
37.718068
20
12.658616
30
0
11
36.567942
21
12.658616
31
0
39
0
210
0
220
0
230
1
0
LINE
5
101
100
AcDbEntity
8
1
62
256
6
ByLayer
370
13
48
1
60
0
100
AcDbLine
10
37.718068
20
17.341384
30
0
11
36.567942
21
17.341384
31
0
39
0
210
0
220
0
230
1
0
LINE
5
102
100
AcDbEntity
8
1
62
256
6
ByLayer
370
13
48
1
60
0
100
AcDbLine
10
37.711484
20
17.358749
30
0
11
36.564754
21
17.358749
31
0
39
0
210
0
220
0
230
1
0
LINE
5
103
100
AcDbEntity
8
1
62
256
6
ByLayer
370
18
48
1
60
0
100
AcDbLine
10
25.632489
20
17.832909
30
0
11
25.95446
21
17.657558
31
0
39
0
210
0
220
0
230
1
0
LINE
5
104
100
AcDbEntity
8
1
62
256
6
ByLayer
370
18
48
1
60
0
100
AcDbLine
10
39.567511
20
17.832909
30
0
11
39.139855
21
17.6
31
0
39
0
210
0
220
0
230
1
0
LINE
5
105
100
AcDbEntity
8
1
62
256
6
ByLayer
370
18
48
1
60
0
100
AcDbLine
10
45.1
20
17.616874
30
0
11
45.1
21
12.383126
31
0
39
0
210
0
220
0
230
1
0
LINE
5
106
100
AcDbEntity
8
1
62
256
6
ByLayer
370
18
48
1
60
0
100
AcDbLine
10
25.632489
20
17.832909
30
0
11
22.956927
21
17.921078
31
0
39
0
210
0
220
0
230
1
0
LINE
5
107
100
AcDbEntity
8
1
62
256
6
ByLayer
370
18
48
1
60
0
100
AcDbLine
10
20.523256
20
18.016197
30
0
11
22.531318
21
17.899253
31
0
39
0
210
0
220
0
230
1
0
LINE
5
108
100
AcDbEntity
8
1
62
256
6
ByLayer
370
18
48
1
60
0
100
AcDbLine
10
22.531318
20
17.899253
30
0
11
22.956927
21
17.921078
31
0
39
0
210
0
220
0
230
1
0
LINE
5
109
100
AcDbEntity
8
1
62
256
6
ByLayer
370
18
48
1
60
0
100
AcDbLine
10
42.668682
20
17.899253
30
0
11
42.243073
21
17.921078
31
0
39
0
210
0
220
0
230
1
0
LINE
5
10A
100
AcDbEntity
8
1
62
256
6
ByLayer
370
18
48
1
60
0
100
AcDbLine
10
44.676744
20
18.016197
30
0
11
42.668682
21
17.899253
31
0
39
0
210
0
220
0
230
1
0
LINE
5
10B
100
AcDbEntity
8
1
62
256
6
ByLayer
370
18
48
1
60
0
100
AcDbLine
10
39.567511
20
17.832909
30
0
11
42.243073
21
17.921078
31
0
39
0
210
0
220
0
230
1
0
LINE
5
10C
100
AcDbEntity
8
1
62
256
6
ByLayer
370
18
48
1
60
0
100
AcDbLine
10
44.676744
20
11.983803
30
0
11
42.668682
21
12.100747
31
0
39
0
210
0
220
0
230
1
0
MTEXT
5
1A9
100
AcDbEntity
8
SK6
62
256
6
ByLayer
370
18
48
1
60
0
100
AcDbMText
10
-19.2645
20
-47.70893
30
0
210
0
220
0
230
1
1
\W0.7799;C2A-SL40-LGK18A-168GB
40
3.5
41
0
44
1.084337
50
0
71
7
72
5
7
iso_b_vert
0
DIMENSION
5
1AE
100
AcDbEntity
8
2
62
256
6
ByLayer
370
18
48
1
60
0
100
AcDbDimension
2
_U0
10
45.1
20
-19.75
30
0
11
22.55
21
-19.75
31
0
70
32
71
1
72
1
41
1
210
0
220
0
230
1
3
Standard
100
AcDbAlignedDimension
13
0
23
0
33
0
14
45.1
24
18
34
0
50
0
100
AcDbRotatedDimension
1001
ACAD
1000
DSTYLE
1002
{
1070
   371
1070
    13
1070
   372
1070
    13
1070
   170
1070
     0
1070
   144
1040
1.0
1070
   277
1070
     2
1070
   284
1070
     8
1070
   278
1070
    46
1070
   146
1040
1.0
1070
   345
1005
16
1070
   347
1005
16
1070
   346
1005
16
1070
   344
1005
0
1070
   343
1005
0
1070
   172
1070
     1
1070
    76
1070
     0
1070
    75
1070
     0
1070
   282
1070
     0
1070
   281
1070
     0
1070
    71
1070
     0
1070
    74
1070
     0
1070
   279
1070
     0
1070
   173
1070
     1
1070
   340
1005
1AA
1070
   271
1070
     2
1070
   272
1070
     2
1070
    77
1070
     1
1070
    73
1070
     1
1070
   171
1070
     3
1070
   274
1070
     4
1070
   177
1070
     2
1070
   176
1070
     2
1070
   178
1070
     2
1070
    78
1070
     8
1070
    48
1040
-0.1
1070
    41
1040
3.5
1070
   147
1040
1.75
1070
    42
1040
1.5875
1070
    44
1040
2.0
1070
   140
1040
3.5
1002
}
1001
ACAD_DSTYLE_DIM_LINETYPE
1070
   380
1005
16
1001
ACAD_DSTYLE_DIM_EXT1_LINETYPE
1070
   381
1005
16
1001
ACAD_DSTYLE_DIM_EXT2_LINETYPE
1070
   382
1005
16
0
DIMENSION
5
1C8
100
AcDbEntity
8
2
62
256
6
ByLayer
370
18
48
1
60
0
100
AcDbDimension
2
_U1
10
45.1
20
-11.75
30
0
11
36.1
21
-11.75
31
0
70
32
71
1
72
1
41
1
210
0
220
0
230
1
3
Standard
100
AcDbAlignedDimension
13
27.1
23
12.325
33
0
14
45.1
24
18
34
0
50
0
100
AcDbRotatedDimension
1001
ACAD
1000
DSTYLE
1002
{
1070
   371
1070
    13
1070
   372
1070
    13
1070
   170
1070
     0
1070
   144
1040
1.0
1070
   277
1070
     2
1070
   284
1070
     8
1070
   278
1070
    46
1070
   146
1040
1.0
1070
   345
1005
16
1070
   347
1005
16
1070
   346
1005
16
1070
   344
1005
0
1070
   343
1005
0
1070
   172
1070
     1
1070
    76
1070
     0
1070
    75
1070
     0
1070
   282
1070
     0
1070
   281
1070
     0
1070
    71
1070
     0
1070
    74
1070
     0
1070
   279
1070
     0
1070
   173
1070
     1
1070
   340
1005
1AA
1070
   271
1070
     2
1070
   272
1070
     2
1070
    77
1070
     1
1070
    73
1070
     1
1070
   171
1070
     3
1070
   274
1070
     4
1070
   177
1070
     2
1070
   176
1070
     2
1070
   178
1070
     2
1070
    78
1070
     8
1070
    48
1040
-0.1
1070
    41
1040
3.5
1070
   147
1040
1.75
1070
    42
1040
1.5875
1070
    44
1040
2.0
1070
   140
1040
3.5
1002
}
1001
ACAD_DSTYLE_DIM_LINETYPE
1070
   380
1005
16
1001
ACAD_DSTYLE_DIM_EXT1_LINETYPE
1070
   381
1005
16
1001
ACAD_DSTYLE_DIM_EXT2_LINETYPE
1070
   382
1005
16
0
DIMENSION
5
1E0
100
AcDbEntity
8
2
62
256
6
ByLayer
370
18
48
1
60
0
100
AcDbDimension
2
_U2
10
69.85
20
0
30
0
11
69.85
21
9
31
0
70
32
71
1
72
1
41
1
210
0
220
0
230
1
3
Standard
100
AcDbAlignedDimension
13
45.1
23
18
33
0
14
0
24
0
34
0
50
90
100
AcDbRotatedDimension
1001
ACAD
1000
DSTYLE
1002
{
1070
   371
1070
    13
1070
   372
1070
    13
1070
   170
1070
     0
1070
   144
1040
1.0
1070
   277
1070
     2
1070
   284
1070
     8
1070
   278
1070
    46
1070
   146
1040
1.0
1070
   345
1005
16
1070
   347
1005
16
1070
   346
1005
16
1070
   344
1005
0
1070
   343
1005
0
1070
   172
1070
     1
1070
    76
1070
     0
1070
    75
1070
     0
1070
   282
1070
     0
1070
   281
1070
     0
1070
    71
1070
     0
1070
    74
1070
     0
1070
   279
1070
     0
1070
   173
1070
     1
1070
   340
1005
1AA
1070
   271
1070
     2
1070
   272
1070
     2
1070
    77
1070
     1
1070
    73
1070
     0
1070
   171
1070
     3
1070
   274
1070
     4
1070
   177
1070
     2
1070
   176
1070
     2
1070
   178
1070
     2
1070
    78
1070
     8
1070
    48
1040
-0.1
1070
    41
1040
3.5
1070
   147
1040
1.75
1070
    42
1040
1.5875
1070
    44
1040
2.0
1070
   140
1040
3.5
1002
}
1001
ACAD_DSTYLE_DIM_LINETYPE
1070
   380
1005
16
1001
ACAD_DSTYLE_DIM_EXT1_LINETYPE
1070
   381
1005
16
1001
ACAD_DSTYLE_DIM_EXT2_LINETYPE
1070
   382
1005
16
0
DIMENSION
5
1F8
100
AcDbEntity
8
2
62
256
6
ByLayer
370
18
48
1
60
0
100
AcDbDimension
2
_U3
10
56.85
20
12
30
0
11
56.85
21
15
31
0
70
32
71
1
72
1
41
1
210
0
220
0
230
1
3
Standard
100
AcDbAlignedDimension
13
45.1
23
18
33
0
14
45.1
24
12
34
0
50
90
100
AcDbRotatedDimension
1001
ACAD
1000
DSTYLE
1002
{
1070
   371
1070
    13
1070
   372
1070
    13
1070
   170
1070
     0
1070
   144
1040
1.0
1070
   277
1070
     2
1070
   284
1070
     8
1070
   278
1070
    46
1070
   146
1040
1.0
1070
   345
1005
16
1070
   347
1005
16
1070
   346
1005
16
1070
   344
1005
0
1070
   343
1005
0
1070
   172
1070
     1
1070
    76
1070
     0
1070
    75
1070
     0
1070
   282
1070
     0
1070
   281
1070
     0
1070
    71
1070
     0
1070
    74
1070
     0
1070
   279
1070
     0
1070
   173
1070
     1
1070
   340
1005
1AA
1070
   271
1070
     2
1070
   272
1070
     2
1070
    77
1070
     1
1070
    73
1070
     0
1070
   171
1070
     3
1070
   274
1070
     4
1070
   177
1070
     2
1070
   176
1070
     2
1070
   178
1070
     2
1070
    78
1070
     8
1070
    48
1040
-0.1
1070
    41
1040
3.5
1070
   147
1040
1.75
1070
    42
1040
1.5875
1070
    44
1040
2.0
1070
   140
1040
3.5
1002
}
1001
ACAD_DSTYLE_DIM_LINETYPE
1070
   380
1005
16
1001
ACAD_DSTYLE_DIM_EXT1_LINETYPE
1070
   381
1005
16
1001
ACAD_DSTYLE_DIM_EXT2_LINETYPE
1070
   382
1005
16
0
ENDSEC
0
SECTION
2
OBJECTS
0
DICTIONARY
5
27e
330
0
100
AcDbDictionary
280
0
281
1
3
ACAD_GROUP
350
27f
3
ACAD_MLINESTYLE
350
280
0
DICTIONARY
5
27f
330
0
100
AcDbDictionary
280
0
281
1
0
DICTIONARY
5
280
330
0
100
AcDbDictionary
280
0
281
1
3
Standard
350
18
0
MLINESTYLE
5
18
330
280
100
AcDbMlineStyle
2
Standard
70
0
3

62
256
51
90
52
90
71
2
49
-0.5
62
256
6
ByLayer
49
0.5
62
256
6
ByLayer
0
RASTERVARIABLES
5
26f
330

100
AcDbRasterVariables
90
0
70
1
71
1
72
1
0
ENDSEC
0
EOF
