0
SECTION
2
HEADER
9
$ACADVER
1
AC1015
9
$DWGCODEPAGE
3
ANSI_1252
9
$HANDSEED
5
279
9
$ANGBASE
50
0
9
$ANGDIR
70
0
9
$ATTMODE
70
1
9
$AUNITS
70
0
9
$AUPREC
70
0
9
$CECOLOR
62
256
9
$CELTSCALE
40
1
9
$CELTYPE
6
ByLayer
9
$CELWEIGHT
370
18
9
$CLAYER
8
0
9
$CMLJUST
70
0
9
$CMLSCALE
40
1
9
$CMLSTYLE
2
Standard
9
$DIMSTYLE
2
Standard
9
$TEXTSIZE
40
0.2
9
$TEXTSTYLE
7
Standard
9
$LUNITS
70
2
9
$LUPREC
70
4
9
$EXTNAMES
290
1
9
$INSUNITS
70
4
9
$LTSCALE
40
1
9
$LWDISPLAY
290
1
9
$PDMODE
70
0
9
$PDSIZE
40
0
9
$PLINEGEN
70
0
0
ENDSEC
0
SECTION
2
CLASSES
0
CLASS
1
RASTERVARIABLES
2
AcDbRasterVariables
3
ISM
90
0
280
0
281
0
0
ENDSEC
0
SECTION
2
TABLES
0
TABLE
2
VPORT
5
26f
100
AcDbSymbolTable
0
VPORT
5
1
100
AcDbSymbolTableRecord
100
AcDbViewportTableRecord
2
*Active
70
0
10
0
20
0
11
1
21
1
12
-1
22
1
13
0
23
0
14
0.5
24
0.5
15
10
25
10
16
0
26
0
36
1
17
0
27
0
37
0
0
ENDTAB
0
TABLE
2
LTYPE
5
270
100
AcDbSymbolTable
0
LTYPE
5
14
100
AcDbSymbolTableRecord
100
AcDbLinetypeTableRecord
70
0
2
ByBlock
3

72
65
73
0
40
0
0
LTYPE
5
15
100
AcDbSymbolTableRecord
100
AcDbLinetypeTableRecord
70
0
2
ByLayer
3

72
65
73
0
40
0
0
LTYPE
5
16
100
AcDbSymbolTableRecord
100
AcDbLinetypeTableRecord
70
0
2
Continuous
3
Solid line
72
65
73
0
40
0
0
LTYPE
5
6E
100
AcDbSymbolTableRecord
100
AcDbLinetypeTableRecord
70
0
2
CENTER
3
____ _ ____ _ ____ _ ____
72
65
73
4
40
47.5
49
22
74
0
49
-8.5
74
0
49
8.5
74
0
49
-8.5
74
0
0
LTYPE
5
6F
100
AcDbSymbolTableRecord
100
AcDbLinetypeTableRecord
70
0
2
DASHED
3
__ __ __ __ __ __ __ __ __
72
65
73
2
40
25.72
49
12.86
74
0
49
-12.86
74
0
0
ENDTAB
0
TABLE
2
LAYER
5
271
100
AcDbSymbolTable
0
LAYER
5
10
100
AcDbSymbolTableRecord
100
AcDbLayerTableRecord
2
0
70
0
62
7
6
Continuous
290
1
370
-3
390
0
0
LAYER
5
71
100
AcDbSymbolTableRecord
100
AcDbLayerTableRecord
2
81
70
0
62
-3
6
Continuous
290
1
370
-3
390
0
0
LAYER
5
73
100
AcDbSymbolTableRecord
100
AcDbLayerTableRecord
2
80
70
0
62
-6
6
Continuous
290
1
370
-3
390
0
0
LAYER
5
75
100
AcDbSymbolTableRecord
100
AcDbLayerTableRecord
2
1
70
0
62
4
6
Continuous
290
1
370
-3
390
0
0
LAYER
5
19F
100
AcDbSymbolTableRecord
100
AcDbLayerTableRecord
2
Defpoints
70
0
62
7
6
Continuous
290
0
370
-3
390
0
0
LAYER
5
1AC
100
AcDbSymbolTableRecord
100
AcDbLayerTableRecord
2
2
70
0
62
7
6
Continuous
290
1
370
-3
390
0
0
LAYER
5
25e
100
AcDbSymbolTableRecord
100
AcDbLayerTableRecord
2
SK6
70
0
62
5
6
Continuous
290
1
370
-3
390
0
0
ENDTAB
0
TABLE
2
STYLE
5
272
100
AcDbSymbolTable
0
STYLE
5
11
100
AcDbSymbolTableRecord
100
AcDbTextStyleTableRecord
2
Standard
3
txt
70
0
71
0
40
0
41
1
42
0
50
0
0
STYLE
5
198
100
AcDbSymbolTableRecord
100
AcDbTextStyleTableRecord
2
iso_b_vert
3
simplex.shx
70
0
71
0
40
0
41
1
42
0
50
0
0
STYLE
5
199
100
AcDbSymbolTableRecord
100
AcDbTextStyleTableRecord
2
DWGDirectTextStyle
3
simplex
70
0
71
0
40
0
41
1
42
0
50
0
0
ENDTAB
0
TABLE
2
DIMSTYLE
5
273
100
AcDbSymbolTable
100
AcDbDimStyleTable
0
DIMSTYLE
105
27
100
AcDbSymbolTableRecord
100
AcDbDimStyleTableRecord
2
Standard
70
0
3
<>
41
0.18
42
0.0625
44
0.18
140
0.18
147
0.09
73
0
74
0
77
1
271
2
275
0
278
52
280
0
340
11
0
ENDTAB
0
TABLE
2
VIEW
5
274
100
AcDbSymbolTable
0
ENDTAB
0
TABLE
2
UCS
5
275
100
AcDbSymbolTable
0
ENDTAB
0
TABLE
2
APPID
5
276
100
AcDbSymbolTable
0
APPID
5
12
100
AcDbSymbolTableRecord
100
AcDbRegAppTableRecord
2
ACAD
70
0
0
APPID
5
19B
100
AcDbSymbolTableRecord
100
AcDbRegAppTableRecord
2
ACAD_DSTYLE_DIMBREAK
70
0
0
APPID
5
21D
100
AcDbSymbolTableRecord
100
AcDbRegAppTableRecord
2
ACAD_DSTYLE_DIM_LINETYPE
70
0
0
APPID
5
21E
100
AcDbSymbolTableRecord
100
AcDbRegAppTableRecord
2
ACAD_DSTYLE_DIM_EXT1_LINETYPE
70
0
0
APPID
5
21F
100
AcDbSymbolTableRecord
100
AcDbRegAppTableRecord
2
ACAD_DSTYLE_DIM_EXT2_LINETYPE
70
0
0
APPID
5
25A
100
AcDbSymbolTableRecord
100
AcDbRegAppTableRecord
2
ACAD_MLEADERVER
70
0
0
ENDTAB
0
TABLE
2
BLOCK_RECORD
5
277
100
AcDbSymbolTable
0
BLOCK_RECORD
5
1F
100
AcDbSymbolTableRecord
100
AcDbBlockTableRecord
2
*Model_Space
340
0
70
0
0
BLOCK_RECORD
5
1B
100
AcDbSymbolTableRecord
100
AcDbBlockTableRecord
2
*Paper_Space
340
0
70
0
0
BLOCK_RECORD
5
23
100
AcDbSymbolTableRecord
100
AcDbBlockTableRecord
2
*Paper_Space0
340
0
70
0
0
BLOCK_RECORD
5
1A0
100
AcDbSymbolTableRecord
100
AcDbBlockTableRecord
2
*D1
340
0
70
0
0
BLOCK_RECORD
5
1AD
100
AcDbSymbolTableRecord
100
AcDbBlockTableRecord
2
_U0
340
0
70
0
0
BLOCK_RECORD
5
1B9
100
AcDbSymbolTableRecord
100
AcDbBlockTableRecord
2
*D3
340
0
70
0
0
BLOCK_RECORD
5
1C5
100
AcDbSymbolTableRecord
100
AcDbBlockTableRecord
2
_U1
340
0
70
0
0
BLOCK_RECORD
5
1D1
100
AcDbSymbolTableRecord
100
AcDbBlockTableRecord
2
*D5
340
0
70
0
0
BLOCK_RECORD
5
1DD
100
AcDbSymbolTableRecord
100
AcDbBlockTableRecord
2
_U2
340
0
70
0
0
BLOCK_RECORD
5
1E9
100
AcDbSymbolTableRecord
100
AcDbBlockTableRecord
2
*D7
340
0
70
0
0
BLOCK_RECORD
5
1F6
100
AcDbSymbolTableRecord
100
AcDbBlockTableRecord
2
_U3
340
0
70
0
0
ENDTAB
0
ENDSEC
0
SECTION
2
BLOCKS
0
BLOCK
5
20
100
AcDbEntity
8
0
100
AcDbBlockBegin
2
*Model_Space
70
0
10
0
20
0
30
0
3
*Model_Space
0
ENDBLK
5
21
100
AcDbEntity
8
0
100
AcDbBlockEnd
0
BLOCK
5
1C
100
AcDbEntity
8
0
100
AcDbBlockBegin
2
*Paper_Space
70
0
10
0
20
0
30
0
3
*Paper_Space
0
ENDBLK
5
1D
100
AcDbEntity
8
0
100
AcDbBlockEnd
0
BLOCK
5
24
100
AcDbEntity
8
0
100
AcDbBlockBegin
2
*Paper_Space0
70
0
10
0
20
0
30
0
3
*Paper_Space0
0
ENDBLK
5
25
100
AcDbEntity
8
0
100
AcDbBlockEnd
0
BLOCK
5
1A1
100
AcDbEntity
8
0
100
AcDbBlockBegin
2
*D1
70
1
10
0
20
0
30
0
3
*D1
0
LINE
5
1A3
100
AcDbEntity
8
0
62
256
6
ByLayer
370
-2
48
1
60
0
100
AcDbLine
10
0
20
1.5875
30
0
11
0
21
18.25
31
0
39
0
210
0
220
0
230
1
0
LINE
5
1A4
100
AcDbEntity
8
0
62
256
6
ByLayer
370
-2
48
1
60
0
100
AcDbLine
10
41.1
20
-16.4125
30
0
11
41.1
21
18.25
31
0
39
0
210
0
220
0
230
1
0
LINE
5
1A5
100
AcDbEntity
8
0
62
256
6
ByLayer
370
-2
48
1
60
0
100
AcDbLine
10
3.5
20
16.25
30
0
11
37.6
21
16.25
31
0
39
0
210
0
220
0
230
1
0
SOLID
5
1A6
100
AcDbEntity
8
0
62
256
6
ByLayer
370
-1
48
1
60
0
100
AcDbTrace
10
3.5
20
16.833333
30
0
11
3.5
21
15.666667
31
0
12
0
22
16.25
32
0
13
0
23
16.25
33
0
39
0
210
0
220
0
230
1
0
SOLID
5
1A7
100
AcDbEntity
8
0
62
256
6
ByLayer
370
-1
48
1
60
0
100
AcDbTrace
10
37.6
20
15.666667
30
0
11
37.6
21
16.833333
31
0
12
41.1
22
16.25
32
0
13
41.1
23
16.25
33
0
39
0
210
0
220
0
230
1
0
MTEXT
5
1A8
100
AcDbEntity
8
0
62
256
6
ByLayer
370
18
48
1
60
0
100
AcDbMText
10
20.55
20
23.25
30
0
210
0
220
0
230
1
1
\A1;41.1
40
3.5
41
0
44
1
50
0
71
5
72
5
7
iso_b_vert
0
POINT
5
1A9
100
AcDbEntity
8
Defpoints
62
0
6
ByLayer
370
-1
48
1
60
0
100
AcDbPoint
10
0
20
0
30
0
39
0
210
0
220
0
230
1
50
360
0
POINT
5
1AA
100
AcDbEntity
8
Defpoints
62
0
6
ByLayer
370
-1
48
1
60
0
100
AcDbPoint
10
41.1
20
-18
30
0
39
0
210
0
220
0
230
1
50
360
0
POINT
5
1AB
100
AcDbEntity
8
Defpoints
62
0
6
ByLayer
370
-1
48
1
60
0
100
AcDbPoint
10
41.1
20
16.25
30
0
39
0
210
0
220
0
230
1
50
360
0
ENDBLK
5
1A2
100
AcDbEntity
8
0
100
AcDbBlockEnd
0
BLOCK
5
1B4
100
AcDbEntity
8
0
100
AcDbBlockBegin
2
_U0
70
0
10
0
20
0
30
0
3
_U0
0
MTEXT
5
1AE
100
AcDbEntity
8
2
62
256
6
ByLayer
370
18
48
1
60
0
100
AcDbMText
10
17.318901
20
17.282634
30
0
210
0
220
0
230
1
1
\W0.6670;41.1
40
3.5
41
0
44
1.084337
50
0
71
7
72
5
7
iso_b_vert
0
LINE
5
1AF
100
AcDbEntity
8
2
62
256
6
ByLayer
370
13
48
1
60
0
100
AcDbLine
10
0
20
1.5875
30
0
11
0
21
18.25
31
0
39
0
210
0
220
0
230
1
0
LINE
5
1B0
100
AcDbEntity
8
2
62
256
6
ByLayer
370
13
48
1
60
0
100
AcDbLine
10
41.1
20
-16.4125
30
0
11
41.1
21
18.25
31
0
39
0
210
0
220
0
230
1
0
LINE
5
1B1
100
AcDbEntity
8
2
62
256
6
ByLayer
370
13
48
1
60
0
100
AcDbLine
10
0
20
16.25
30
0
11
41.1
21
16.25
31
0
39
0
210
0
220
0
230
1
0
SOLID
5
1B2
100
AcDbEntity
8
2
62
256
6
ByLayer
370
18
48
1
60
0
100
AcDbTrace
10
0
20
16.25
30
0
11
3.499998
21
16.710784
31
0
12
3.500002
22
15.789216
32
0
13
3.500002
23
15.789216
33
0
39
0
210
0
220
0
230
1
0
SOLID
5
1B3
100
AcDbEntity
8
2
62
256
6
ByLayer
370
18
48
1
60
0
100
AcDbTrace
10
41.1
20
16.25
30
0
11
37.600002
21
15.789216
31
0
12
37.599998
22
16.710784
32
0
13
37.599998
23
16.710784
33
0
39
0
210
0
220
0
230
1
0
ENDBLK
5
1B5
100
AcDbEntity
8
0
100
AcDbBlockEnd
0
BLOCK
5
1BA
100
AcDbEntity
8
0
100
AcDbBlockBegin
2
*D3
70
1
10
0
20
0
30
0
3
*D3
0
LINE
5
1BC
100
AcDbEntity
8
0
62
256
6
ByLayer
370
-2
48
1
60
0
100
AcDbLine
10
23.1
20
-10.7375
30
0
11
23.1
21
10.25
31
0
39
0
210
0
220
0
230
1
0
LINE
5
1BD
100
AcDbEntity
8
0
62
256
6
ByLayer
370
-2
48
1
60
0
100
AcDbLine
10
41.1
20
-16.4125
30
0
11
41.1
21
10.25
31
0
39
0
210
0
220
0
230
1
0
LINE
5
1BE
100
AcDbEntity
8
0
62
256
6
ByLayer
370
-2
48
1
60
0
100
AcDbLine
10
26.6
20
8.25
30
0
11
37.6
21
8.25
31
0
39
0
210
0
220
0
230
1
0
SOLID
5
1BF
100
AcDbEntity
8
0
62
256
6
ByLayer
370
-1
48
1
60
0
100
AcDbTrace
10
26.6
20
8.833333
30
0
11
26.6
21
7.666667
31
0
12
23.1
22
8.25
32
0
13
23.1
23
8.25
33
0
39
0
210
0
220
0
230
1
0
SOLID
5
1C0
100
AcDbEntity
8
0
62
256
6
ByLayer
370
-1
48
1
60
0
100
AcDbTrace
10
37.6
20
7.666667
30
0
11
37.6
21
8.833333
31
0
12
41.1
22
8.25
32
0
13
41.1
23
8.25
33
0
39
0
210
0
220
0
230
1
0
MTEXT
5
1C1
100
AcDbEntity
8
0
62
256
6
ByLayer
370
18
48
1
60
0
100
AcDbMText
10
32.1
20
15.25
30
0
210
0
220
0
230
1
1
\A1;18
40
3.5
41
0
44
1
50
0
71
5
72
5
7
iso_b_vert
0
POINT
5
1C2
100
AcDbEntity
8
Defpoints
62
0
6
ByLayer
370
-1
48
1
60
0
100
AcDbPoint
10
23.1
20
-12.325
30
0
39
0
210
0
220
0
230
1
50
360
0
POINT
5
1C3
100
AcDbEntity
8
Defpoints
62
0
6
ByLayer
370
-1
48
1
60
0
100
AcDbPoint
10
41.1
20
-18
30
0
39
0
210
0
220
0
230
1
50
360
0
POINT
5
1C4
100
AcDbEntity
8
Defpoints
62
0
6
ByLayer
370
-1
48
1
60
0
100
AcDbPoint
10
41.1
20
8.25
30
0
39
0
210
0
220
0
230
1
50
360
0
ENDBLK
5
1BB
100
AcDbEntity
8
0
100
AcDbBlockEnd
0
BLOCK
5
1CC
100
AcDbEntity
8
0
100
AcDbBlockBegin
2
_U1
70
0
10
0
20
0
30
0
3
_U1
0
MTEXT
5
1C6
100
AcDbEntity
8
2
62
256
6
ByLayer
370
18
48
1
60
0
100
AcDbMText
10
30.632467
20
9.282634
30
0
210
0
220
0
230
1
1
\W0.5321;18
40
3.5
41
0
44
1.084337
50
0
71
7
72
5
7
iso_b_vert
0
LINE
5
1C7
100
AcDbEntity
8
2
62
256
6
ByLayer
370
13
48
1
60
0
100
AcDbLine
10
23.1
20
-10.7375
30
0
11
23.1
21
10.25
31
0
39
0
210
0
220
0
230
1
0
LINE
5
1C8
100
AcDbEntity
8
2
62
256
6
ByLayer
370
13
48
1
60
0
100
AcDbLine
10
41.1
20
-16.4125
30
0
11
41.1
21
10.25
31
0
39
0
210
0
220
0
230
1
0
LINE
5
1C9
100
AcDbEntity
8
2
62
256
6
ByLayer
370
13
48
1
60
0
100
AcDbLine
10
23.1
20
8.25
30
0
11
41.1
21
8.25
31
0
39
0
210
0
220
0
230
1
0
SOLID
5
1CA
100
AcDbEntity
8
2
62
256
6
ByLayer
370
18
48
1
60
0
100
AcDbTrace
10
23.1
20
8.25
30
0
11
26.599998
21
8.710784
31
0
12
26.600002
22
7.789216
32
0
13
26.600002
23
7.789216
33
0
39
0
210
0
220
0
230
1
0
SOLID
5
1CB
100
AcDbEntity
8
2
62
256
6
ByLayer
370
18
48
1
60
0
100
AcDbTrace
10
41.1
20
8.25
30
0
11
37.600002
21
7.789216
31
0
12
37.599998
22
8.710784
32
0
13
37.599998
23
8.710784
33
0
39
0
210
0
220
0
230
1
0
ENDBLK
5
1CD
100
AcDbEntity
8
0
100
AcDbBlockEnd
0
BLOCK
5
1D2
100
AcDbEntity
8
0
100
AcDbBlockBegin
2
*D5
70
1
10
0
20
0
30
0
3
*D5
0
LINE
5
1D4
100
AcDbEntity
8
0
62
256
6
ByLayer
370
-2
48
1
60
0
100
AcDbLine
10
42.6875
20
-18
30
0
11
67.85
21
-18
31
0
39
0
210
0
220
0
230
1
0
LINE
5
1D5
100
AcDbEntity
8
0
62
256
6
ByLayer
370
-2
48
1
60
0
100
AcDbLine
10
1.5875
20
0
30
0
11
67.85
21
0
31
0
39
0
210
0
220
0
230
1
0
LINE
5
1D6
100
AcDbEntity
8
0
62
256
6
ByLayer
370
-2
48
1
60
0
100
AcDbLine
10
65.85
20
-14.5
30
0
11
65.85
21
-3.5
31
0
39
0
210
0
220
0
230
1
0
SOLID
5
1D7
100
AcDbEntity
8
0
62
256
6
ByLayer
370
-1
48
1
60
0
100
AcDbTrace
10
65.266667
20
-14.5
30
0
11
66.433333
21
-14.5
31
0
12
65.85
22
-18
32
0
13
65.85
23
-18
33
0
39
0
210
0
220
0
230
1
0
SOLID
5
1D8
100
AcDbEntity
8
0
62
256
6
ByLayer
370
-1
48
1
60
0
100
AcDbTrace
10
66.433333
20
-3.5
30
0
11
65.266667
21
-3.5
31
0
12
65.85
22
0
32
0
13
65.85
23
0
33
0
39
0
210
0
220
0
230
1
0
MTEXT
5
1D9
100
AcDbEntity
8
0
62
256
6
ByLayer
370
18
48
1
60
0
100
AcDbMText
10
58.85
20
-9
30
0
210
0
220
0
230
1
1
\A1;18
40
3.5
41
0
44
1
50
90
71
5
72
5
7
iso_b_vert
0
POINT
5
1DA
100
AcDbEntity
8
Defpoints
62
0
6
ByLayer
370
-1
48
1
60
0
100
AcDbPoint
10
41.1
20
-18
30
0
39
0
210
0
220
0
230
1
50
360
0
POINT
5
1DB
100
AcDbEntity
8
Defpoints
62
0
6
ByLayer
370
-1
48
1
60
0
100
AcDbPoint
10
0
20
0
30
0
39
0
210
0
220
0
230
1
50
360
0
POINT
5
1DC
100
AcDbEntity
8
Defpoints
62
0
6
ByLayer
370
-1
48
1
60
0
100
AcDbPoint
10
65.85
20
0
30
0
39
0
210
0
220
0
230
1
50
360
0
ENDBLK
5
1D3
100
AcDbEntity
8
0
100
AcDbBlockEnd
0
BLOCK
5
1E4
100
AcDbEntity
8
0
100
AcDbBlockBegin
2
_U2
70
0
10
0
20
0
30
0
3
_U2
0
MTEXT
5
1DE
100
AcDbEntity
8
2
62
256
6
ByLayer
370
18
48
1
60
0
100
AcDbMText
10
65.160366
20
-10.495533
30
0
210
0
220
0
230
1
1
\W0.5321;18
40
3.5
41
0
44
1.084337
50
90
71
7
72
5
7
iso_b_vert
0
LINE
5
1DF
100
AcDbEntity
8
2
62
256
6
ByLayer
370
13
48
1
60
0
100
AcDbLine
10
42.6875
20
-18
30
0
11
67.85
21
-18
31
0
39
0
210
0
220
0
230
1
0
LINE
5
1E0
100
AcDbEntity
8
2
62
256
6
ByLayer
370
13
48
1
60
0
100
AcDbLine
10
1.5875
20
0
30
0
11
67.85
21
0
31
0
39
0
210
0
220
0
230
1
0
LINE
5
1E1
100
AcDbEntity
8
2
62
256
6
ByLayer
370
13
48
1
60
0
100
AcDbLine
10
65.85
20
-18
30
0
11
65.85
21
0
31
0
39
0
210
0
220
0
230
1
0
SOLID
5
1E2
100
AcDbEntity
8
2
62
256
6
ByLayer
370
18
48
1
60
0
100
AcDbTrace
10
65.85
20
-18
30
0
11
65.389216
21
-14.500002
31
0
12
66.310784
22
-14.499998
32
0
13
66.310784
23
-14.499998
33
0
39
0
210
0
220
0
230
1
0
SOLID
5
1E3
100
AcDbEntity
8
2
62
256
6
ByLayer
370
18
48
1
60
0
100
AcDbTrace
10
65.85
20
0
30
0
11
66.310784
21
-3.499998
31
0
12
65.389216
22
-3.500002
32
0
13
65.389216
23
-3.500002
33
0
39
0
210
0
220
0
230
1
0
ENDBLK
5
1E5
100
AcDbEntity
8
0
100
AcDbBlockEnd
0
BLOCK
5
1EA
100
AcDbEntity
8
0
100
AcDbBlockBegin
2
*D7
70
1
10
0
20
0
30
0
3
*D7
0
LINE
5
1EC
100
AcDbEntity
8
0
62
256
6
ByLayer
370
-2
48
1
60
0
100
AcDbLine
10
42.6875
20
-18
30
0
11
54.85
21
-18
31
0
39
0
210
0
220
0
230
1
0
LINE
5
1ED
100
AcDbEntity
8
0
62
256
6
ByLayer
370
-2
48
1
60
0
100
AcDbLine
10
42.6875
20
-12
30
0
11
54.85
21
-12
31
0
39
0
210
0
220
0
230
1
0
LINE
5
1EE
100
AcDbEntity
8
0
62
256
6
ByLayer
370
-2
48
1
60
0
100
AcDbLine
10
52.85
20
-21.5
30
0
11
52.85
21
-25
31
0
39
0
210
0
220
0
230
1
0
LINE
5
1EF
100
AcDbEntity
8
0
62
256
6
ByLayer
370
-2
48
1
60
0
100
AcDbLine
10
52.85
20
-8.5
30
0
11
52.85
21
-5
31
0
39
0
210
0
220
0
230
1
0
SOLID
5
1F0
100
AcDbEntity
8
0
62
256
6
ByLayer
370
-1
48
1
60
0
100
AcDbTrace
10
53.433333
20
-21.5
30
0
11
52.266667
21
-21.5
31
0
12
52.85
22
-18
32
0
13
52.85
23
-18
33
0
39
0
210
0
220
0
230
1
0
SOLID
5
1F1
100
AcDbEntity
8
0
62
256
6
ByLayer
370
-1
48
1
60
0
100
AcDbTrace
10
52.266667
20
-8.5
30
0
11
53.433333
21
-8.5
31
0
12
52.85
22
-12
32
0
13
52.85
23
-12
33
0
39
0
210
0
220
0
230
1
0
MTEXT
5
1F2
100
AcDbEntity
8
0
62
256
6
ByLayer
370
18
48
1
60
0
100
AcDbMText
10
45.85
20
-15
30
0
210
0
220
0
230
1
1
\A1;6
40
3.5
41
0
44
1
50
90
71
5
72
5
7
iso_b_vert
0
POINT
5
1F3
100
AcDbEntity
8
Defpoints
62
0
6
ByLayer
370
-1
48
1
60
0
100
AcDbPoint
10
41.1
20
-18
30
0
39
0
210
0
220
0
230
1
50
360
0
POINT
5
1F4
100
AcDbEntity
8
Defpoints
62
0
6
ByLayer
370
-1
48
1
60
0
100
AcDbPoint
10
41.1
20
-12
30
0
39
0
210
0
220
0
230
1
50
360
0
POINT
5
1F5
100
AcDbEntity
8
Defpoints
62
0
6
ByLayer
370
-1
48
1
60
0
100
AcDbPoint
10
52.85
20
-12
30
0
39
0
210
0
220
0
230
1
50
360
0
ENDBLK
5
1EB
100
AcDbEntity
8
0
100
AcDbBlockEnd
0
BLOCK
5
1FD
100
AcDbEntity
8
0
100
AcDbBlockBegin
2
_U3
70
0
10
0
20
0
30
0
3
_U3
0
MTEXT
5
1F7
100
AcDbEntity
8
2
62
256
6
ByLayer
370
18
48
1
60
0
100
AcDbMText
10
52.160366
20
-15.625233
30
0
210
0
220
0
230
1
1
\W0.5404;6
40
3.5
41
0
44
1.084337
50
90
71
7
72
5
7
iso_b_vert
0
LINE
5
1F8
100
AcDbEntity
8
2
62
256
6
ByLayer
370
13
48
1
60
0
100
AcDbLine
10
42.6875
20
-18
30
0
11
54.85
21
-18
31
0
39
0
210
0
220
0
230
1
0
LINE
5
1F9
100
AcDbEntity
8
2
62
256
6
ByLayer
370
13
48
1
60
0
100
AcDbLine
10
42.6875
20
-12
30
0
11
54.85
21
-12
31
0
39
0
210
0
220
0
230
1
0
LINE
5
1FA
100
AcDbEntity
8
2
62
256
6
ByLayer
370
13
48
1
60
0
100
AcDbLine
10
52.85
20
-26.75
30
0
11
52.85
21
-3.25
31
0
39
0
210
0
220
0
230
1
0
SOLID
5
1FB
100
AcDbEntity
8
2
62
256
6
ByLayer
370
18
48
1
60
0
100
AcDbTrace
10
52.85
20
-18
30
0
11
53.310784
21
-21.499998
31
0
12
52.389216
22
-21.500002
32
0
13
52.389216
23
-21.500002
33
0
39
0
210
0
220
0
230
1
0
SOLID
5
1FC
100
AcDbEntity
8
2
62
256
6
ByLayer
370
18
48
1
60
0
100
AcDbTrace
10
52.85
20
-12
30
0
11
52.389216
21
-8.500002
31
0
12
53.310784
22
-8.499998
32
0
13
53.310784
23
-8.499998
33
0
39
0
210
0
220
0
230
1
0
ENDBLK
5
1FE
100
AcDbEntity
8
0
100
AcDbBlockEnd
0
ENDSEC
0
SECTION
2
ENTITIES
0
ARC
5
106
100
AcDbEntity
8
1
62
256
6
ByLayer
370
18
48
1
60
0
100
AcDbCircle
39
0
10
16.5
20
-0.875
30
0
40
0.5
210
0
220
0
230
1
100
AcDbArc
50
180
51
270
0
ARC
5
107
100
AcDbEntity
8
1
62
256
6
ByLayer
370
18
48
1
60
0
100
AcDbCircle
39
0
10
40.7
20
-17.616874
30
0
40
0.4
210
0
220
0
230
1
100
AcDbArc
50
266.667001
51
0
0
ARC
5
108
100
AcDbEntity
8
1
62
256
6
ByLayer
370
18
48
1
60
0
100
AcDbCircle
39
0
10
40.7
20
-12.383126
30
0
40
0.4
210
0
220
0
230
1
100
AcDbArc
50
0
51
93.332999
0
ARC
5
109
100
AcDbEntity
8
1
62
256
6
ByLayer
370
18
48
1
60
0
100
AcDbCircle
39
0
10
16.5
20
-17.616874
30
0
40
0.4
210
0
220
0
230
1
100
AcDbArc
50
180
51
273.332999
0
ARC
5
10A
100
AcDbEntity
8
1
62
256
6
ByLayer
370
18
48
1
60
0
100
AcDbCircle
39
0
10
16
20
-6.65
30
0
40
1.416
210
0
220
0
230
1
100
AcDbArc
50
60.190711
51
119.809289
0
ARC
5
10B
100
AcDbEntity
8
1
62
256
6
ByLayer
370
18
48
1
60
0
100
AcDbCircle
39
0
10
16
20
-6.65
30
0
40
1.416
210
0
220
0
230
1
100
AcDbArc
50
119.809289
51
173.807562
0
ARC
5
10C
100
AcDbEntity
8
1
62
256
6
ByLayer
370
18
48
1
60
0
100
AcDbCircle
39
0
10
16
20
-6.65
30
0
40
1.416
210
0
220
0
230
1
100
AcDbArc
50
186.192438
51
240.190711
0
ARC
5
10D
100
AcDbEntity
8
1
62
256
6
ByLayer
370
18
48
1
60
0
100
AcDbCircle
39
0
10
16
20
-6.65
30
0
40
1.416
210
0
220
0
230
1
100
AcDbArc
50
240.190711
51
299.809289
0
ARC
5
10E
100
AcDbEntity
8
1
62
256
6
ByLayer
370
18
48
1
60
0
100
AcDbCircle
39
0
10
16
20
-6.65
30
0
40
1.416
210
0
220
0
230
1
100
AcDbArc
50
6.192438
51
60.190711
0
ARC
5
10F
100
AcDbEntity
8
1
62
256
6
ByLayer
370
18
48
1
60
0
100
AcDbCircle
39
0
10
16
20
-6.65
30
0
40
1.416
210
0
220
0
230
1
100
AcDbArc
50
299.809289
51
353.807562
0
ARC
5
112
100
AcDbEntity
8
1
62
256
6
ByLayer
370
18
48
1
60
0
100
AcDbCircle
39
0
10
16
20
-6.65
30
0
40
1.416
210
0
220
0
230
1
100
AcDbArc
50
353.807562
51
6.192438
0
ARC
5
113
100
AcDbEntity
8
1
62
256
6
ByLayer
370
18
48
1
60
0
100
AcDbCircle
39
0
10
16
20
-6.65
30
0
40
1.9685
210
0
220
0
230
1
100
AcDbArc
50
329.618578
51
30.381422
0
ARC
5
114
100
AcDbEntity
8
1
62
256
6
ByLayer
370
18
48
1
60
0
100
AcDbCircle
39
0
10
16
20
-6.65
30
0
40
1.9685
210
0
220
0
230
1
100
AcDbArc
50
210.381422
51
270
0
ARC
5
115
100
AcDbEntity
8
1
62
256
6
ByLayer
370
18
48
1
60
0
100
AcDbCircle
39
0
10
16
20
-6.65
30
0
40
1.9685
210
0
220
0
230
1
100
AcDbArc
50
270
51
329.618578
0
ARC
5
116
100
AcDbEntity
8
1
62
256
6
ByLayer
370
18
48
1
60
0
100
AcDbCircle
39
0
10
16
20
-6.65
30
0
40
1.9685
210
0
220
0
230
1
100
AcDbArc
50
90
51
149.618578
0
ARC
5
117
100
AcDbEntity
8
1
62
256
6
ByLayer
370
18
48
1
60
0
100
AcDbCircle
39
0
10
16
20
-6.65
30
0
40
1.9685
210
0
220
0
230
1
100
AcDbArc
50
30.381422
51
90
0
ARC
5
118
100
AcDbEntity
8
1
62
256
6
ByLayer
370
18
48
1
60
0
100
AcDbCircle
39
0
10
16
20
-6.65
30
0
40
1.9685
210
0
220
0
230
1
100
AcDbArc
50
149.618578
51
210.381422
0
ARC
5
119
100
AcDbEntity
8
1
62
256
6
ByLayer
370
18
48
1
60
0
100
AcDbCircle
39
0
10
16
20
-6.65
30
0
40
1.416
210
0
220
0
230
1
100
AcDbArc
50
173.807562
51
186.192438
0
ARC
5
11A
100
AcDbEntity
8
1
62
256
6
ByLayer
370
18
48
1
60
0
100
AcDbCircle
39
0
10
16
20
-6.65
30
0
40
4.55
210
0
220
0
230
1
100
AcDbArc
50
28.294379
51
331.705621
0
ARC
5
11B
100
AcDbEntity
8
1
62
256
6
ByLayer
370
18
48
1
60
0
100
AcDbCircle
39
0
10
16
20
-6.65
30
0
40
4.54999999999996
210
0
220
0
230
1
100
AcDbArc
50
331.705621
51
28.294379
0
CIRCLE
5
110
100
AcDbEntity
8
1
62
256
6
ByLayer
370
18
48
1
60
0
100
AcDbCircle
10
16
20
-6.65
30
0
40
4.25
39
0
210
0
220
0
230
1
0
CIRCLE
5
111
100
AcDbEntity
8
1
62
256
6
ByLayer
370
18
48
1
60
0
100
AcDbCircle
10
16
20
-6.65
30
0
40
3.75
39
0
210
0
220
0
230
1
0
ELLIPSE
5
11C
100
AcDbEntity
8
1
62
256
6
ByLayer
370
18
48
1
60
0
100
AcDbEllipse
10
35.436487
20
-14.332701
30
0
11
0.433147587455151
21
0
31
0
210
0
220
0
230
1
40
0.230868
41
-2.96705972839816
42
-2.47750918249115
0
ELLIPSE
5
11D
100
AcDbEntity
8
1
62
256
6
ByLayer
370
18
48
1
60
0
100
AcDbEllipse
10
35.436487
20
-15.667299
30
0
11
0.433147587455151
21
0
31
0
210
0
220
0
230
1
40
0.230868
41
2.47750918249115
42
2.96705972839816
0
ELLIPSE
5
11E
100
AcDbEntity
8
1
62
256
6
ByLayer
370
18
48
1
60
0
100
AcDbEllipse
10
34.144631
20
-17.358749
30
0
11
-0.433147584554263
21
-6.00291135516052E-11
31
0
210
0
220
0
230
1
40
0.230868
41
-0.174552576912332
42
0
0
ELLIPSE
5
11F
100
AcDbEntity
8
1
62
256
6
ByLayer
370
18
48
1
60
0
100
AcDbEllipse
10
34.144631
20
-12.641251
30
0
11
0.433147584554197
21
-6.10100967857357E-11
31
0
210
0
220
0
230
1
40
0.230868
41
3.14159265358979
42
-2.96704007667693
0
ELLIPSE
5
120
100
AcDbEntity
8
1
62
256
6
ByLayer
370
18
48
1
60
0
100
AcDbEllipse
10
45.305332
20
72.2
30
0
11
5.9546803128992E-14
21
-84.5250000175509
31
0
210
0
220
0
230
1
40
0.57735
41
-0.225508980547459
42
-0.106868791090241
0
ELLIPSE
5
121
100
AcDbEntity
8
1
62
256
6
ByLayer
370
18
48
1
60
0
100
AcDbEllipse
10
34.164609
20
72.200003
30
0
11
85.7385665334129
21
0
31
0
210
0
220
0
230
1
40
0.985846
41
-1.62406019441472
42
-1.59015761530997
0
ELLIPSE
5
122
100
AcDbEntity
8
1
62
256
6
ByLayer
370
18
48
1
60
0
100
AcDbEllipse
10
34.962891
20
72.2
30
0
11
100.732972364644
21
0
31
0
210
0
220
0
230
1
40
0.8391
41
-1.68883597213435
42
-1.62406019531204
0
ELLIPSE
5
123
100
AcDbEntity
8
1
62
256
6
ByLayer
370
18
48
1
60
0
100
AcDbEllipse
10
10.832146
20
32.000053
30
0
11
1344.07082575229
21
0
31
0
210
0
220
0
230
1
40
0.036959
41
-1.57692587606653
42
-1.57079642264747
0
ELLIPSE
5
124
100
AcDbEntity
8
1
62
256
6
ByLayer
370
18
48
1
60
0
100
AcDbEllipse
10
-512.164968
20
32.027771
30
0
11
3854.32119955543
21
-8.63432716539129
31
0
210
0
220
0
230
1
40
0.012699
41
-1.43228399226561
42
-1.4289772146081
0
ELLIPSE
5
125
100
AcDbEntity
8
1
62
256
6
ByLayer
370
18
48
1
60
0
100
AcDbEllipse
10
34.164609
20
32
30
0
11
50.388207252265
21
0
31
0
210
0
220
0
230
1
40
0.985846
41
-1.66150951445509
42
-1.60359145239637
0
ELLIPSE
5
126
100
AcDbEntity
8
1
62
256
6
ByLayer
370
18
48
1
60
0
100
AcDbEllipse
10
34.962891
20
32
30
0
11
59.2003597120316
21
0
31
0
210
0
220
0
230
1
40
0.8391
41
-1.82620637305456
42
-1.66150951435343
0
ELLIPSE
5
127
100
AcDbEntity
8
1
62
256
6
ByLayer
370
18
48
1
60
0
100
AcDbEllipse
10
0.708583
20
32
30
0
11
3.49954149034274E-14
21
-49.6749999982153
31
0
210
0
220
0
230
1
40
0.771313
41
0.134909532697398
42
0.255410046263741
0
ELLIPSE
5
128
100
AcDbEntity
8
1
62
256
6
ByLayer
370
18
48
1
60
0
100
AcDbEllipse
10
-0.55432
20
32
30
0
11
3.49954149080666E-14
21
-49.6750000048004
31
0
210
0
220
0
230
1
40
0.771313
41
0.147327901131715
42
0.2640571683163
0
ELLIPSE
5
129
100
AcDbEntity
8
1
62
256
6
ByLayer
370
18
48
1
60
0
100
AcDbEllipse
10
22.411
20
32
30
0
11
49.6749999687668
21
0
31
0
210
0
220
0
230
1
40
1
41
-1.89767343592787
42
-1.83485349525951
0
POINT
5
70
100
AcDbEntity
8
81
62
256
6
ByLayer
370
18
48
1
60
0
100
AcDbPoint
10
41.1
20
-18
30
0
39
0
210
0
220
0
230
1
50
360
0
POINT
5
72
100
AcDbEntity
8
80
62
256
6
ByLayer
370
18
48
1
60
0
100
AcDbPoint
10
0
20
0
30
0
39
0
210
0
220
0
230
1
50
360
0
POINT
5
74
100
AcDbEntity
8
1
62
256
6
ByLayer
370
18
48
1
60
1
100
AcDbPoint
10
0
20
0
30
0
39
0
210
0
220
0
230
1
50
360
0
POINT
5
76
100
AcDbEntity
8
1
62
256
6
ByLayer
370
18
48
1
60
1
100
AcDbPoint
10
41.1
20
-18
30
0
39
0
210
0
220
0
230
1
50
360
0
POINT
5
77
100
AcDbEntity
8
1
62
256
6
ByLayer
370
18
48
1
60
1
100
AcDbPoint
10
23.1
20
-12.325
30
0
39
0
210
0
220
0
230
1
50
360
0
POINT
5
78
100
AcDbEntity
8
1
62
256
6
ByLayer
370
18
48
1
60
1
100
AcDbPoint
10
41.1
20
-18
30
0
39
0
210
0
220
0
230
1
50
360
0
POINT
5
79
100
AcDbEntity
8
1
62
256
6
ByLayer
370
18
48
1
60
1
100
AcDbPoint
10
41.1
20
-18
30
0
39
0
210
0
220
0
230
1
50
360
0
POINT
5
7A
100
AcDbEntity
8
1
62
256
6
ByLayer
370
18
48
1
60
1
100
AcDbPoint
10
0
20
0
30
0
39
0
210
0
220
0
230
1
50
360
0
POINT
5
7B
100
AcDbEntity
8
1
62
256
6
ByLayer
370
18
48
1
60
1
100
AcDbPoint
10
41.1
20
-18
30
0
39
0
210
0
220
0
230
1
50
360
0
POINT
5
7C
100
AcDbEntity
8
1
62
256
6
ByLayer
370
18
48
1
60
1
100
AcDbPoint
10
41.1
20
-12
30
0
39
0
210
0
220
0
230
1
50
360
0
SPLINE
5
12A
100
AcDbEntity
8
1
62
256
6
ByLayer
370
18
48
1
60
0
100
AcDbSpline
70
4
71
3
72
19
73
15
40
0
40
0
40
0
40
0
40
0.105598795309674
40
0.207133056768143
40
0.30460624752445
40
0.398022283830897
40
0.48738561546495
40
0.572701326119415
40
0.653975258965669
40
0.731214174678389
40
0.804425952125484
40
0.873619846082935
40
0.938806822394167
40
1
40
1
40
1
40
1
41
1
10
35.58236683062
20
-14.5169146481781
30
0
41
1
10
35.5761086181708
20
-14.5162950509147
30
0
41
1
10
35.563833074016
20
-14.515079704899
30
0
41
1
10
35.5458128004535
20
-14.5129917878763
30
0
41
1
10
35.528539119221
20
-14.5107692859052
30
0
41
1
10
35.5120140189838
20
-14.508406487872
30
0
41
1
10
35.4962369707864
20
-14.5059226125369
30
0
41
1
10
35.4812080910702
20
-14.5033301067006
30
0
41
1
10
35.4669272661601
20
-14.500642836653
30
0
41
1
10
35.4533946416573
20
-14.4978730398514
30
0
41
1
10
35.4406095573258
20
-14.4950353238248
30
0
41
1
10
35.4285740432231
20
-14.4921343681174
30
0
41
1
10
35.4172808603108
20
-14.4892065803664
30
0
41
1
10
35.410034741972
20
-14.4871218545511
30
0
41
1
10
35.4065261768
20
-14.4861124318441
30
0
0
SPLINE
5
12B
100
AcDbEntity
8
1
62
256
6
ByLayer
370
18
48
1
60
0
100
AcDbSpline
70
4
71
3
72
16
73
12
40
0
40
0
40
0
40
0
40
0.118227901208893
40
0.234676362797895
40
0.349345481218905
40
0.462235357483961
40
0.573346097457497
40
0.682677812172249
40
0.790230618171219
40
0.896004637878217
40
1
40
1
40
1
40
1
41
1
10
36.2702887043917
20
-14.5722653261451
30
0
41
1
10
36.2431521268268
20
-14.5704433162409
30
0
41
1
10
36.1892874023701
20
-14.5668267193723
30
0
41
1
10
36.109124713396
20
-14.5611121390679
30
0
41
1
10
36.0302034041845
20
-14.5552472925334
30
0
41
1
10
35.9525249527702
20
-14.5492180470503
30
0
41
1
10
35.8760890095594
20
-14.5430390245208
30
0
41
1
10
35.8008955277781
20
-14.5367190776925
30
0
41
1
10
35.726945020838
20
-14.5302614208823
30
0
41
1
10
35.6542355274138
20
-14.5236960106469
30
0
41
1
10
35.6061872606909
20
-14.5191622883529
30
0
41
1
10
35.58236683059
20
-14.51691464817
30
0
0
SPLINE
5
12C
100
AcDbEntity
8
1
62
256
6
ByLayer
370
18
48
1
60
0
100
AcDbSpline
70
4
71
2
72
10
73
7
40
0
40
0
40
0
40
0.5
40
0.5
40
0.75
40
0.75
40
1
40
1
40
1
41
1
10
36.2703211835004
20
-14.572267476262
30
0
41
1
10
36.5005090492969
20
-14.5875343736815
30
0
41
1
10
36.6813994958523
20
-14.6237416432629
30
0
41
1
10
36.7977168199743
20
-14.6470238717702
30
0
41
1
10
36.8815407125726
20
-14.6769810514917
30
0
41
1
10
37.0246417322624
20
-14.7281228301935
30
0
41
1
10
37.0499902265207
20
-14.789264413028
30
0
0
SPLINE
5
12D
100
AcDbEntity
8
1
62
256
6
ByLayer
370
18
48
1
60
0
100
AcDbSpline
70
4
71
2
72
6
73
3
40
0
40
0
40
0
40
1
40
1
40
1
41
1
10
37.0499902266708
20
-14.789264412942
30
0
41
1
10
37.0884919085573
20
-14.8844087349086
30
0
41
1
10
37.0886043049807
20
-14.9799999993024
30
0
0
SPLINE
5
12E
100
AcDbEntity
8
1
62
256
6
ByLayer
370
18
48
1
60
0
100
AcDbSpline
70
4
71
3
72
24
73
20
40
0
40
0
40
0
40
0
40
0.0615883759048893
40
0.122688254024695
40
0.183326299851692
40
0.243529792548006
40
0.303326606004203
40
0.362745186445337
40
0.421814526539179
40
0.480564136000289
40
0.53902400873087
40
0.597224586585084
40
0.655196719894219
40
0.712971624940736
40
0.770580838619307
40
0.828056170570644
40
0.88542965311992
40
0.942733489390628
40
1
40
1
40
1
40
1
41
1
10
37.04999022667
20
-15.210735587058
30
0
41
1
10
37.0514760409687
20
-15.2070098201942
30
0
41
1
10
37.0544358845989
20
-15.1995878379662
30
0
41
1
10
37.0585659721737
20
-15.1883783496833
30
0
41
1
10
37.0624450214135
20
-15.1771714868724
30
0
41
1
10
37.0660526456091
20
-15.16595887988
30
0
41
1
10
37.0693942359552
20
-15.1547431796984
30
0
41
1
10
37.0724683525929
20
-15.1435241178479
30
0
41
1
10
37.0752753669341
20
-15.1323022009938
30
0
41
1
10
37.0778151708743
20
-15.1210777311409
30
0
41
1
10
37.0800877810841
20
-15.1098510656213
30
0
41
1
10
37.0820931925112
20
-15.0986225480182
30
0
41
1
10
37.0838313661184
20
-15.0873925264579
30
0
41
1
10
37.0853024227051
20
-15.0761613486895
30
0
41
1
10
37.0865058842008
20
-15.064929363221
30
0
41
1
10
37.0874435045144
20
-15.0536969191887
30
0
41
1
10
37.0881087368339
20
-15.0424643651982
30
0
41
1
10
37.0885259471521
20
-15.031232053448
30
0
41
1
10
37.0885781913776
20
-15.0237432050217
30
0
41
1
10
37.08860430498
20
-15.0200000006976
30
0
0
SPLINE
5
12F
100
AcDbEntity
8
1
62
256
6
ByLayer
370
18
48
1
60
0
100
AcDbSpline
70
4
71
3
72
43
73
39
40
0
40
0
40
0
40
0
40
0.0409973406366469
40
0.0809092982715808
40
0.11973615984283
40
0.157478237047538
40
0.194135869264796
40
0.229709426921879
40
0.264199315386283
40
0.297605979485287
40
0.32992990877783
40
0.361171643733666
40
0.391331783012885
40
0.420410992088527
40
0.448410013519416
40
0.475329679265272
40
0.501170925548113
40
0.572592867093689
40
0.638080914696128
40
0.697670982799365
40
0.751410812475232
40
0.772779913618552
40
0.793234602755291
40
0.812782181749364
40
0.831431018019198
40
0.849190749344525
40
0.866072536338502
40
0.882089374987178
40
0.897256484840495
40
0.91159179213099
40
0.925116531009032
40
0.937855989439949
40
0.949840427402953
40
0.96110619050402
40
0.97169702597651
40
0.98166557083429
40
0.991074911407362
40
1
40
1
40
1
40
1
41
1
10
36.2703211835
20
-15.427732523738
30
0
41
1
10
36.2815955433722
20
-15.4269594666407
30
0
41
1
10
36.3038457803767
20
-15.4254338187256
30
0
41
1
10
36.3367474852617
20
-15.4228310595287
30
0
41
1
10
36.368734387051
20
-15.4200519476305
30
0
41
1
10
36.3998047803203
20
-15.4170870102301
30
0
41
1
10
36.4299591078148
20
-15.4139564894663
30
0
41
1
10
36.459197261057
20
-15.4106726572971
30
0
41
1
10
36.4875192737298
20
-15.4072494639607
30
0
41
1
10
36.5149251441988
20
-15.4037000360555
30
0
41
1
10
36.5414148802486
20
-15.4000372922653
30
0
41
1
10
36.5669884910949
20
-15.3962737711221
30
0
41
1
10
36.5916459782106
20
-15.3924216377357
30
0
41
1
10
36.6153873786588
20
-15.3884927389845
30
0
41
1
10
36.638212610891
20
-15.3844983270722
30
0
41
1
10
36.6601220206574
20
-15.3804500062245
30
0
41
1
10
36.6937486984552
20
-15.3738926336811
30
0
41
1
10
36.7376602656581
20
-15.3644624374581
30
0
41
1
10
36.790314785579
20
-15.3514098214847
30
0
41
1
10
36.8378060332943
20
-15.3378403912217
30
0
41
1
10
36.8731644417989
20
-15.32617796038
30
0
41
1
10
36.8979490400554
20
-15.317027896295
30
0
41
1
10
36.9137384431464
20
-15.3108006967103
30
0
41
1
10
36.9286893772276
20
-15.3044920122776
30
0
41
1
10
36.9428019685625
20
-15.2981078739192
30
0
41
1
10
36.9560763753172
20
-15.2916544837686
30
0
41
1
10
36.9685127830692
20
-15.285137929982
30
0
41
1
10
36.9801114087742
20
-15.2785642357986
30
0
41
1
10
36.9908725094797
20
-15.2719393232201
30
0
41
1
10
37.0007963582659
20
-15.2652689783529
30
0
41
1
10
37.0098833178299
20
-15.258558848725
30
0
41
1
10
37.0181335453682
20
-15.2518142783929
30
0
41
1
10
37.0255478947299
20
-15.2450406620661
30
0
41
1
10
37.0321246317882
20
-15.238241999332
30
0
41
1
10
37.037870243827
20
-15.231425587599
30
0
41
1
10
37.0427620013418
20
-15.2245859033483
30
0
41
1
10
37.0468749657509
20
-15.2177598166444
30
0
41
1
10
37.0489702532908
20
-15.213035402863
30
0
41
1
10
37.04999022652
20
-15.210735586972
30
0
0
SPLINE
5
130
100
AcDbEntity
8
1
62
256
6
ByLayer
370
18
48
1
60
0
100
AcDbSpline
70
4
71
2
72
6
73
3
40
0
40
0
40
0
40
1
40
1
40
1
41
1
10
36.2702887043921
20
-15.4277346738575
30
0
41
1
10
35.919552783945
20
-15.4509625305676
30
0
41
1
10
35.5823668305908
20
-15.48308535183
30
0
0
SPLINE
5
131
100
AcDbEntity
8
1
62
256
6
ByLayer
370
18
48
1
60
0
100
AcDbSpline
70
4
71
2
72
6
73
3
40
0
40
0
40
0
40
1
40
1
40
1
41
1
10
35.5823668306203
20
-15.483085351822
30
0
41
1
10
35.4769907517283
20
-15.4931766319907
30
0
41
1
10
35.4065261768005
20
-15.513887568156
30
0
0
SPLINE
5
132
100
AcDbEntity
8
1
62
256
6
ByLayer
370
18
48
1
60
0
100
AcDbSpline
70
4
71
3
72
17
73
13
40
0
40
0
40
0
40
0
40
0.250000000000004
40
0.250000000000004
40
0.500000000000008
40
0.500000000000008
40
0.562500000000011
40
0.562500000000011
40
0.625000000000013
40
0.750000000000011
40
0.750000000000011
40
1
40
1
40
1
40
1
41
1
10
17.6435826280888
20
-6.05788229583283
30
0
41
1
10
17.6146246036311
20
-6.08604768119054
30
0
41
1
10
17.5877690589037
20
-6.11627424213538
30
0
41
1
10
17.5382802616332
20
-6.181078323387
30
0
41
1
10
17.5156427078132
20
-6.21564930486622
30
0
41
1
10
17.4902105226126
20
-6.26201148814337
30
0
41
1
10
17.4852575520371
20
-6.27146529018867
30
0
41
1
10
17.4757163583556
20
-6.29057472388635
30
0
41
1
10
17.4619501115276
20
-6.3195379630518
30
0
41
1
10
17.4498230334517
20
-6.34941372325662
30
0
41
1
10
17.427809076327
20
-6.41045061207817
30
0
41
1
10
17.4160955020357
20
-6.45284180273296
30
0
41
1
10
17.4077379362998
20
-6.49725870662354
30
0
0
SPLINE
5
133
100
AcDbEntity
8
1
62
256
6
ByLayer
370
18
48
1
60
0
100
AcDbSpline
70
4
71
3
72
18
73
14
40
0
40
0
40
0
40
0
40
0.249999999999995
40
0.249999999999995
40
0.374999999999993
40
0.374999999999993
40
0.437499999999995
40
0.437499999999995
40
0.499999999999997
40
0.499999999999997
40
0.749999999999999
40
0.749999999999999
40
1
40
1
40
1
40
1
41
1
10
17.4077379362998
20
-6.80274129337647
30
0
41
1
10
17.4160970234351
20
-6.84716628285736
30
0
41
1
10
17.4278059238629
20
-6.88952872768283
30
0
41
1
10
17.4497852995846
20
-6.95048759793963
30
0
41
1
10
17.4578539822307
20
-6.97037281285284
30
0
41
1
10
17.4710409062469
20
-6.99958514624345
30
0
41
1
10
17.4756174744471
20
-7.00921984345723
30
0
41
1
10
17.4851307090049
20
-7.02828787560946
30
0
41
1
10
17.490079124144
20
-7.03774202982481
30
0
41
1
10
17.5155498531436
20
-7.0842087918777
30
0
41
1
10
17.5382169974673
20
-7.11883334385502
30
0
41
1
10
17.5877505294597
20
-7.18370697530972
30
0
41
1
10
17.6146213965619
20
-7.21394919952417
30
0
41
1
10
17.6435826280888
20
-7.24211770416719
30
0
0
SPLINE
5
134
100
AcDbEntity
8
1
62
256
6
ByLayer
370
18
48
1
60
0
100
AcDbSpline
70
4
71
3
72
24
73
20
40
0
40
0
40
0
40
0
40
0.125000000000011
40
0.125000000000011
40
0.18750000000001
40
0.18750000000001
40
0.250000000000009
40
0.250000000000009
40
0.375000000000008
40
0.375000000000008
40
0.500000000000006
40
0.500000000000006
40
0.625000000000004
40
0.625000000000004
40
0.6875
40
0.6875
40
0.749999999999995
40
0.749999999999995
40
1
40
1
40
1
40
1
41
1
10
17.6981810583398
20
-7.64557688959519
30
0
41
1
10
17.7079282570253
20
-7.62895084257394
30
0
41
1
10
17.7161357366899
20
-7.61163824881965
30
0
41
1
10
17.7261657634977
20
-7.58465255621272
30
0
41
1
10
17.7291359412957
20
-7.57545262888155
30
0
41
1
10
17.7342485495552
20
-7.55685546517265
30
0
41
1
10
17.7363695892661
20
-7.54754907943681
30
0
41
1
10
17.741496344613
20
-7.51960896588179
30
0
41
1
10
17.7432740738269
20
-7.50095434024379
30
0
41
1
10
17.7436815034584
20
-7.46360005805809
30
0
41
1
10
17.7422604780044
20
-7.44476107757362
30
0
41
1
10
17.7364872949031
20
-7.40858489507948
30
0
41
1
10
17.7321586246314
20
-7.39106952644701
30
0
41
1
10
17.7236520963912
20
-7.36561112318157
30
0
41
1
10
17.7204791393988
20
-7.35726150218696
30
0
41
1
10
17.71346298447
20
-7.34083605914887
30
0
41
1
10
17.7096028514273
20
-7.33273325540875
30
0
41
1
10
17.6889846413071
20
-7.29358412847944
30
0
41
1
10
17.6682141523736
20
-7.26607501432295
30
0
41
1
10
17.6435826280888
20
-7.24211770416719
30
0
0
SPLINE
5
135
100
AcDbEntity
8
1
62
256
6
ByLayer
370
18
48
1
60
0
100
AcDbSpline
70
4
71
3
72
24
73
20
40
0
40
0
40
0
40
0
40
0.24999999999998
40
0.24999999999998
40
0.312499999999979
40
0.312499999999979
40
0.374999999999978
40
0.374999999999978
40
0.499999999999983
40
0.499999999999983
40
0.624999999999988
40
0.624999999999988
40
0.749999999999993
40
0.749999999999993
40
0.812499999999995
40
0.812499999999995
40
0.874999999999998
40
0.874999999999998
40
1
40
1
40
1
40
1
41
1
10
17.6435826280888
20
-6.05788229583283
30
0
41
1
10
17.6682141523736
20
-6.03392498567706
30
0
41
1
10
17.6889846413071
20
-6.00641587152057
30
0
41
1
10
17.7096028514273
20
-5.96726674459126
30
0
41
1
10
17.71346298447
20
-5.95916394085114
30
0
41
1
10
17.7204791393988
20
-5.94273849781305
30
0
41
1
10
17.7236520963912
20
-5.93438887681845
30
0
41
1
10
17.7321586246314
20
-5.908930473553
30
0
41
1
10
17.7364872949031
20
-5.89141510492053
30
0
41
1
10
17.7422604780044
20
-5.85523892242639
30
0
41
1
10
17.7436815034584
20
-5.83639994194192
30
0
41
1
10
17.7432740738269
20
-5.79904565975622
30
0
41
1
10
17.741496344613
20
-5.78039103411823
30
0
41
1
10
17.7363695892661
20
-5.75245092056323
30
0
41
1
10
17.7342485495551
20
-5.74314453482737
30
0
41
1
10
17.7291359412957
20
-5.72454737111846
30
0
41
1
10
17.7261657634977
20
-5.71534744378729
30
0
41
1
10
17.7161357366899
20
-5.68836175118037
30
0
41
1
10
17.7079282570253
20
-5.67104915742607
30
0
41
1
10
17.6981810583398
20
-5.65442311040482
30
0
0
SPLINE
5
136
100
AcDbEntity
8
1
62
256
6
ByLayer
370
18
48
1
60
0
100
AcDbSpline
70
4
71
3
72
26
73
22
40
0
40
0
40
0
40
0
40
0.250000000000012
40
0.250000000000012
40
0.312500000000017
40
0.312500000000017
40
0.375000000000022
40
0.375000000000022
40
0.500000000000032
40
0.500000000000032
40
0.56250000000003
40
0.56250000000003
40
0.625000000000027
40
0.625000000000027
40
0.750000000000009
40
0.750000000000009
40
0.812500000000002
40
0.812500000000002
40
0.874999999999995
40
0.874999999999995
40
1
40
1
40
1
40
1
41
1
10
15.6818380304532
20
-8.37609544014433
30
0
41
1
10
15.6907807694531
20
-8.40857703334902
30
0
41
1
10
15.7045123677409
20
-8.43946368973189
30
0
41
1
10
15.728164661171
20
-8.47579851732181
30
0
41
1
10
15.7332504932269
20
-8.48297745742417
30
0
41
1
10
15.7439469908237
20
-8.49685939456052
30
0
41
1
10
15.7495666009289
20
-8.50358159444693
30
0
41
1
10
15.7672404966507
20
-8.52308672630903
30
0
41
1
10
15.7801042158832
20
-8.53521280863646
30
0
41
1
10
15.8011189451321
20
-8.55198940674919
30
0
41
1
10
15.8084116893909
20
-8.55734511719322
30
0
41
1
10
15.8236083865562
20
-8.5675515660364
30
0
41
1
10
15.8314588292887
20
-8.5723621129043
30
0
41
1
10
15.8554562271619
20
-8.58572449293851
30
0
41
1
10
15.8721665003504
20
-8.59329690404473
30
0
41
1
10
15.8983294895866
20
-8.60258397985135
30
0
41
1
10
15.9072343299036
20
-8.60533273158271
30
0
41
1
10
15.9254292302567
20
-8.61010169410389
30
0
41
1
10
15.9347154010501
20
-8.61211452550455
30
0
41
1
10
15.9625187231474
20
-8.61690358371339
30
0
41
1
10
15.98119104671
20
-8.61850000000001
30
0
41
1
10
16
20
-8.61850000000001
30
0
0
SPLINE
5
137
100
AcDbEntity
8
1
62
256
6
ByLayer
370
18
48
1
60
0
100
AcDbSpline
70
4
71
3
72
34
73
30
40
0
40
0
40
0
40
0
40
0.125000000000016
40
0.125000000000016
40
0.187500000000022
40
0.187500000000022
40
0.218750000000024
40
0.218750000000024
40
0.250000000000025
40
0.250000000000025
40
0.375000000000027
40
0.375000000000027
40
0.406250000000026
40
0.406250000000026
40
0.437500000000024
40
0.500000000000021
40
0.562500000000018
40
0.562500000000018
40
0.625000000000015
40
0.625000000000015
40
0.687500000000013
40
0.687500000000013
40
0.750000000000011
40
0.750000000000011
40
0.875000000000006
40
0.875000000000006
40
0.937500000000003
40
0.937500000000003
40
1
40
1
40
1
40
1
41
1
10
15.6818380304532
20
-8.37609544014433
30
0
41
1
10
15.6683756044158
20
-8.32719755258438
30
0
41
1
10
15.6504813479254
20
-8.27960672669573
30
0
41
1
10
15.6165572925044
20
-8.21005578649056
30
0
41
1
10
15.6040598537764
20
-8.18717940089675
30
0
41
1
10
15.5833694218278
20
-8.15332472256972
30
0
41
1
10
15.5761303535396
20
-8.14209141124252
30
0
41
1
10
15.5610452042167
20
-8.11989940372521
30
0
41
1
10
15.5532249960405
20
-8.10897602964607
30
0
41
1
10
15.5127140095089
20
-8.05522043482458
30
0
41
1
10
15.4758548429775
20
-8.01493514485432
30
0
41
1
10
15.4233023422318
20
-7.96828585551981
30
0
41
1
10
15.4124468477992
20
-7.95913457392737
30
0
41
1
10
15.3904102324398
20
-7.94150744141086
30
0
41
1
10
15.3567451854695
20
-7.91596844876548
30
0
41
1
10
15.2976173881464
20
-7.8778592581927
30
0
41
1
10
15.2470701322235
20
-7.85215540891767
30
0
41
1
10
15.1948368936116
20
-7.82893946270264
30
0
41
1
10
15.168506133695
20
-7.81885484885501
30
0
41
1
10
15.1154811300859
20
-7.8015306383227
30
0
41
1
10
15.0887774643553
20
-7.79428773988414
30
0
41
1
10
15.0349752898997
20
-7.7825259354201
30
0
41
1
10
15.007783602923
20
-7.77801179583886
30
0
41
1
10
14.9275064791057
20
-7.76866218546465
30
0
41
1
10
14.8750777532936
20
-7.76779191314597
30
0
41
1
10
14.7975934411139
20
-7.77362886795274
30
0
41
1
10
14.7718817194633
20
-7.77679386939394
30
0
41
1
10
14.7212572052777
20
-7.78542982562996
30
0
41
1
10
14.69636084904
20
-7.79088811906908
30
0
41
1
10
14.6718476620214
20
-7.79745103358488
30
0
0
SPLINE
5
138
100
AcDbEntity
8
1
62
256
6
ByLayer
370
18
48
1
60
0
100
AcDbSpline
70
4
71
3
72
24
73
20
40
0
40
0
40
0
40
0
40
0.0624999999999942
40
0.0624999999999942
40
0.124999999999988
40
0.124999999999988
40
0.249999999999988
40
0.249999999999988
40
0.312499999999985
40
0.312499999999985
40
0.374999999999983
40
0.374999999999983
40
0.499999999999986
40
0.499999999999986
40
0.624999999999988
40
0.624999999999988
40
0.749999999999991
40
0.749999999999991
40
1
40
1
40
1
40
1
41
1
10
14.3018189416602
20
-7.64557688959519
30
0
41
1
10
14.3065686621776
20
-7.65367860981314
30
0
41
1
10
14.3117102110135
20
-7.66164980922736
30
0
41
1
10
14.322644678414
20
-7.67709306570092
30
0
41
1
10
14.3283991722251
20
-7.68451769513678
30
0
41
1
10
14.346492943595
20
-7.70593275162767
30
0
41
1
10
14.3596568946641
20
-7.71907023952508
30
0
41
1
10
14.3810396271602
20
-7.73708047797624
30
0
41
1
10
14.3884568790795
20
-7.74280535445587
30
0
41
1
10
14.4035429811598
20
-7.75347091349855
30
0
41
1
10
14.4112458314832
20
-7.7584425345147
30
0
41
1
10
14.4348134384497
20
-7.77231523036025
30
0
41
1
10
14.4511344439336
20
-7.78018071772848
30
0
41
1
10
14.4849623499584
20
-7.79319032755996
30
0
41
1
10
14.502026605104
20
-7.79816506090182
30
0
41
1
10
14.5363970022404
20
-7.80532399248332
30
0
41
1
10
14.553762941252
20
-7.8075093069186
30
0
41
1
10
14.60583055587
20
-7.80993921004605
30
0
41
1
10
14.6393960892915
20
-7.80613929176883
30
0
41
1
10
14.6718476620214
20
-7.79745103358488
30
0
0
SPLINE
5
139
100
AcDbEntity
8
1
62
256
6
ByLayer
370
18
48
1
60
0
100
AcDbSpline
70
4
71
3
72
26
73
22
40
0
40
0
40
0
40
0
40
0.12500000000001
40
0.12500000000001
40
0.25000000000002
40
0.25000000000002
40
0.312500000000037
40
0.312500000000037
40
0.375000000000054
40
0.375000000000054
40
0.50000000000006
40
0.50000000000006
40
0.562500000000052
40
0.562500000000052
40
0.625000000000045
40
0.625000000000045
40
0.75000000000003
40
0.75000000000003
40
0.875000000000015
40
0.875000000000015
40
1
40
1
40
1
40
1
41
1
10
16
20
-8.61850000000001
30
0
41
1
10
16.0187420838797
20
-8.61850000000001
30
0
41
1
10
16.037790024121
20
-8.6168627955046
30
0
41
1
10
16.0746705458544
20
-8.61048528068295
30
0
41
1
10
16.0926468374794
20
-8.60577279166552
30
0
41
1
10
16.1189272305608
20
-8.59646538610318
30
0
41
1
10
16.127613610563
20
-8.59296752509536
30
0
41
1
10
16.144482547616
20
-8.58533413023605
30
0
41
1
10
16.1526773955158
20
-8.58119909926489
30
0
41
1
10
16.1765732518195
20
-8.56788232941574
30
0
41
1
10
16.1915899369245
20
-8.55779456249334
30
0
41
1
10
16.2127755394084
20
-8.54090470708621
30
0
41
1
10
16.2195919185691
20
-8.53499261738443
30
0
41
1
10
16.2325595895107
20
-8.52279737184287
30
0
41
1
10
16.2387403827712
20
-8.51649129678538
30
0
41
1
10
16.2564090822013
20
-8.49697635277582
30
0
41
1
10
16.2670282709711
20
-8.48317412766207
30
0
41
1
10
16.2860013809462
20
-8.45404553323993
30
0
41
1
10
16.2941811588046
20
-8.43897729418623
30
0
41
1
10
16.3080220198239
20
-8.40811774769992
30
0
41
1
10
16.3137019836554
20
-8.39229488948811
30
0
41
1
10
16.3181619695469
20
-8.37609544014433
30
0
0
SPLINE
5
13A
100
AcDbEntity
8
1
62
256
6
ByLayer
370
18
48
1
60
0
100
AcDbSpline
70
4
71
3
72
34
73
30
40
0
40
0
40
0
40
0
40
0.124999999999989
40
0.124999999999989
40
0.187499999999983
40
0.187499999999983
40
0.21874999999998
40
0.21874999999998
40
0.249999999999977
40
0.249999999999977
40
0.374999999999988
40
0.374999999999988
40
0.406249999999987
40
0.406249999999987
40
0.437499999999986
40
0.49999999999999
40
0.562499999999994
40
0.562499999999994
40
0.624999999999998
40
0.624999999999998
40
0.687500000000001
40
0.687500000000001
40
0.750000000000005
40
0.750000000000005
40
0.875000000000006
40
0.875000000000006
40
0.937500000000003
40
0.937500000000003
40
1
40
1
40
1
40
1
41
1
10
17.3281523379786
20
-7.79745103358488
30
0
41
1
10
17.2791605406677
20
-7.78433446177874
30
0
41
1
10
17.229054901581
20
-7.77570218410935
30
0
41
1
10
17.1518976275393
20
-7.76979203960025
30
0
41
1
10
17.1258420498826
20
-7.76900347636433
30
0
41
1
10
17.0861721053907
20
-7.7697305093599
30
0
41
1
10
17.0728201914697
20
-7.77029419915328
30
0
41
1
10
17.0460462641006
20
-7.77208412311214
30
0
41
1
10
17.0326678100599
20
-7.77330590152712
30
0
41
1
10
16.9658054580946
20
-7.78106671594551
30
0
41
1
10
16.9124105635002
20
-7.79248984827959
30
0
41
1
10
16.8455886245496
20
-7.81423264973623
30
0
41
1
10
16.8322038067761
20
-7.81896914504628
30
0
41
1
10
16.8058521630066
20
-7.82906464844686
30
0
41
1
10
16.7667940070401
20
-7.84519028533057
30
0
41
1
10
16.7040137931598
20
-7.87692436335831
30
0
41
1
10
16.6562753174227
20
-7.90753080364263
30
0
41
1
10
16.6098302684517
20
-7.94084969244915
30
0
41
1
10
16.5878136047356
20
-7.95846431994894
30
0
41
1
10
16.5460507829755
20
-7.99544601877469
30
0
41
1
10
16.5262970086682
20
-8.01481955032941
30
0
41
1
10
16.4889396946712
20
-8.05528490510213
30
0
41
1
10
16.4712931406015
20
-8.07645952289147
30
0
41
1
10
16.4226269571248
20
-8.14098420587004
30
0
41
1
10
16.3953601516259
20
-8.185773154831
30
0
41
1
10
16.3612075572781
20
-8.25556920502848
30
0
41
1
10
16.3509341260478
20
-8.27935084526263
30
0
41
1
10
16.3327806188033
20
-8.32739115500326
30
0
41
1
10
16.3248979334757
20
-8.35162924022725
30
0
41
1
10
16.3181619695469
20
-8.37609544014433
30
0
0
SPLINE
5
13B
100
AcDbEntity
8
1
62
256
6
ByLayer
370
18
48
1
60
0
100
AcDbSpline
70
4
71
3
72
24
73
20
40
0
40
0
40
0
40
0
40
0.0625000000000015
40
0.0625000000000015
40
0.125000000000003
40
0.125000000000003
40
0.250000000000007
40
0.250000000000007
40
0.312500000000007
40
0.312500000000007
40
0.375000000000007
40
0.375000000000007
40
0.500000000000005
40
0.500000000000005
40
0.625000000000003
40
0.625000000000003
40
0.75
40
0.75
40
1
40
1
40
1
40
1
41
1
10
17.6981810583398
20
-7.64557688959519
30
0
41
1
10
17.6934313378224
20
-7.65367860981314
30
0
41
1
10
17.6882897889865
20
-7.66164980922736
30
0
41
1
10
17.677355321586
20
-7.67709306570092
30
0
41
1
10
17.6716008277749
20
-7.68451769513678
30
0
41
1
10
17.653507056405
20
-7.70593275162767
30
0
41
1
10
17.6403431053359
20
-7.71907023952508
30
0
41
1
10
17.6189603728398
20
-7.73708047797624
30
0
41
1
10
17.6115431209205
20
-7.74280535445587
30
0
41
1
10
17.5964570188402
20
-7.75347091349855
30
0
41
1
10
17.5887541685168
20
-7.7584425345147
30
0
41
1
10
17.5651865615503
20
-7.77231523036025
30
0
41
1
10
17.5488655560664
20
-7.78018071772848
30
0
41
1
10
17.5150376500416
20
-7.79319032755996
30
0
41
1
10
17.497973394896
20
-7.79816506090182
30
0
41
1
10
17.4636029977596
20
-7.80532399248332
30
0
41
1
10
17.446237058748
20
-7.8075093069186
30
0
41
1
10
17.39416944413
20
-7.80993921004605
30
0
41
1
10
17.3606039107084
20
-7.80613929176883
30
0
41
1
10
17.3281523379786
20
-7.79745103358488
30
0
0
SPLINE
5
13C
100
AcDbEntity
8
1
62
256
6
ByLayer
370
18
48
1
60
0
100
AcDbSpline
70
4
71
3
72
24
73
20
40
0
40
0
40
0
40
0
40
0.0625000000000002
40
0.0625000000000002
40
0.125
40
0.125
40
0.250000000000012
40
0.250000000000012
40
0.312500000000015
40
0.312500000000015
40
0.375000000000019
40
0.375000000000019
40
0.500000000000015
40
0.500000000000015
40
0.62500000000001
40
0.62500000000001
40
0.750000000000005
40
0.750000000000005
40
1
40
1
40
1
40
1
41
1
10
14.3018189416602
20
-5.65442311040482
30
0
41
1
10
14.3065686621776
20
-5.64632139018687
30
0
41
1
10
14.3117102110135
20
-5.63835019077266
30
0
41
1
10
14.322644678414
20
-5.6229069342991
30
0
41
1
10
14.3283991722251
20
-5.61548230486324
30
0
41
1
10
14.346492943595
20
-5.59406724837234
30
0
41
1
10
14.3596568946641
20
-5.5809297604749
30
0
41
1
10
14.3810396271602
20
-5.56291952202378
30
0
41
1
10
14.3884568790795
20
-5.55719464554414
30
0
41
1
10
14.4035429811598
20
-5.54652908650147
30
0
41
1
10
14.4112458314832
20
-5.54155746548531
30
0
41
1
10
14.4348134384497
20
-5.52768476963976
30
0
41
1
10
14.4511344439336
20
-5.51981928227153
30
0
41
1
10
14.4849623499584
20
-5.50680967244006
30
0
41
1
10
14.502026605104
20
-5.50183493909819
30
0
41
1
10
14.5363970022404
20
-5.49467600751669
30
0
41
1
10
14.553762941252
20
-5.49249069308141
30
0
41
1
10
14.60583055587
20
-5.49006078995396
30
0
41
1
10
14.6393960892915
20
-5.49386070823118
30
0
41
1
10
14.6718476620214
20
-5.50254896641513
30
0
0
SPLINE
5
13D
100
AcDbEntity
8
1
62
256
6
ByLayer
370
18
48
1
60
0
100
AcDbSpline
70
4
71
3
72
34
73
30
40
0
40
0
40
0
40
0
40
0.125000000000008
40
0.125000000000008
40
0.18750000000001
40
0.18750000000001
40
0.21875000000001
40
0.21875000000001
40
0.250000000000011
40
0.250000000000011
40
0.375000000000015
40
0.375000000000015
40
0.406250000000016
40
0.406250000000016
40
0.437500000000017
40
0.500000000000016
40
0.562500000000015
40
0.562500000000015
40
0.625000000000014
40
0.625000000000014
40
0.687500000000013
40
0.687500000000013
40
0.750000000000012
40
0.750000000000012
40
0.875000000000008
40
0.875000000000008
40
0.937500000000004
40
0.937500000000004
40
1
40
1
40
1
40
1
41
1
10
14.6718476620214
20
-5.50254896641513
30
0
41
1
10
14.7208394593323
20
-5.51566553822127
30
0
41
1
10
14.7709450984191
20
-5.52429781589066
30
0
41
1
10
14.8481023724607
20
-5.53020796039976
30
0
41
1
10
14.8741579501174
20
-5.53099652363568
30
0
41
1
10
14.9138278946093
20
-5.53026949064011
30
0
41
1
10
14.9271798085304
20
-5.52970580084673
30
0
41
1
10
14.9539537358994
20
-5.52791587688787
30
0
41
1
10
14.9673321899401
20
-5.52669409847289
30
0
41
1
10
15.0341945419055
20
-5.5189332840545
30
0
41
1
10
15.0875894364998
20
-5.50751015172042
30
0
41
1
10
15.1544113754504
20
-5.48576735026379
30
0
41
1
10
15.167796193224
20
-5.48103085495373
30
0
41
1
10
15.1941478369934
20
-5.47093535155318
30
0
41
1
10
15.2332059929599
20
-5.45480971466944
30
0
41
1
10
15.2959860666201
20
-5.42307535966893
30
0
41
1
10
15.3437246825773
20
-5.39246919635738
30
0
41
1
10
15.3901697315483
20
-5.35915030755086
30
0
41
1
10
15.4121863952644
20
-5.34153568005107
30
0
41
1
10
15.4539492170245
20
-5.30455398122533
30
0
41
1
10
15.4737029913318
20
-5.28518044967061
30
0
41
1
10
15.5110603053287
20
-5.24471509489788
30
0
41
1
10
15.5287068593985
20
-5.22354047710854
30
0
41
1
10
15.5773730428752
20
-5.15901579412997
30
0
41
1
10
15.6046398483741
20
-5.11422684516901
30
0
41
1
10
15.638792442722
20
-5.04443079497153
30
0
41
1
10
15.6490658739523
20
-5.02064915473738
30
0
41
1
10
15.6672193811968
20
-4.97260884499676
30
0
41
1
10
15.6751020665243
20
-4.94837075977276
30
0
41
1
10
15.6818380304532
20
-4.92390455985569
30
0
0
SPLINE
5
13E
100
AcDbEntity
8
1
62
256
6
ByLayer
370
18
48
1
60
0
100
AcDbSpline
70
4
71
3
72
26
73
22
40
0
40
0
40
0
40
0
40
0.124999999999984
40
0.124999999999984
40
0.249999999999968
40
0.249999999999968
40
0.312499999999971
40
0.312499999999971
40
0.374999999999975
40
0.374999999999975
40
0.499999999999996
40
0.499999999999996
40
0.562499999999997
40
0.562499999999997
40
0.624999999999997
40
0.624999999999997
40
0.749999999999998
40
0.749999999999998
40
0.874999999999999
40
0.874999999999999
40
1
40
1
40
1
40
1
41
1
10
16
20
-4.6815
30
0
41
1
10
15.9812579161203
20
-4.6815
30
0
41
1
10
15.962209975879
20
-4.68313720449541
30
0
41
1
10
15.9253294541457
20
-4.68951471931706
30
0
41
1
10
15.9073531625206
20
-4.69422720833452
30
0
41
1
10
15.8810727694392
20
-4.70353461389684
30
0
41
1
10
15.8723863894371
20
-4.70703247490465
30
0
41
1
10
15.855517452384
20
-4.71466586976396
30
0
41
1
10
15.8473226044842
20
-4.71880090073512
30
0
41
1
10
15.8234267481805
20
-4.73211767058427
30
0
41
1
10
15.8084100630755
20
-4.74220543750667
30
0
41
1
10
15.7872244605916
20
-4.7590952929138
30
0
41
1
10
15.780408081431
20
-4.76500738261558
30
0
41
1
10
15.7674404104893
20
-4.77720262815714
30
0
41
1
10
15.7612596172288
20
-4.78350870321464
30
0
41
1
10
15.7435909177987
20
-4.80302364722419
30
0
41
1
10
15.732971729029
20
-4.81682587233794
30
0
41
1
10
15.7139986190539
20
-4.84595446676008
30
0
41
1
10
15.7058188411954
20
-4.86102270581375
30
0
41
1
10
15.6919779801761
20
-4.89188225230009
30
0
41
1
10
15.6862980163446
20
-4.9077051105119
30
0
41
1
10
15.6818380304532
20
-4.92390455985569
30
0
0
SPLINE
5
13F
100
AcDbEntity
8
1
62
256
6
ByLayer
370
18
48
1
60
0
100
AcDbSpline
70
4
71
3
72
34
73
30
40
0
40
0
40
0
40
0
40
0.124999999999999
40
0.124999999999999
40
0.1875
40
0.1875
40
0.21875
40
0.21875
40
0.25
40
0.25
40
0.375000000000002
40
0.375000000000002
40
0.406250000000004
40
0.406250000000004
40
0.437500000000006
40
0.500000000000006
40
0.562500000000005
40
0.562500000000005
40
0.625000000000004
40
0.625000000000004
40
0.687500000000004
40
0.687500000000004
40
0.750000000000003
40
0.750000000000003
40
0.875000000000001
40
0.875000000000001
40
0.9375
40
0.9375
40
1
40
1
40
1
40
1
41
1
10
16.3181619695469
20
-4.92390455985569
30
0
41
1
10
16.3316243955843
20
-4.97280244741563
30
0
41
1
10
16.3495186520746
20
-5.02039327330425
30
0
41
1
10
16.3834427074956
20
-5.08994421350943
30
0
41
1
10
16.3959401462236
20
-5.11282059910326
30
0
41
1
10
16.4166305781722
20
-5.14667527743029
30
0
41
1
10
16.4238696464604
20
-5.15790858875749
30
0
41
1
10
16.4389547957833
20
-5.1801005962748
30
0
41
1
10
16.4467750039595
20
-5.19102397035394
30
0
41
1
10
16.4872859904911
20
-5.24477956517543
30
0
41
1
10
16.5241451570225
20
-5.28506485514572
30
0
41
1
10
16.5766976577683
20
-5.3317141444802
30
0
41
1
10
16.5875531522008
20
-5.34086542607264
30
0
41
1
10
16.6095897675602
20
-5.35849255858915
30
0
41
1
10
16.6432548145305
20
-5.38403155123453
30
0
41
1
10
16.7023826118536
20
-5.42214074180731
30
0
41
1
10
16.7529298677765
20
-5.44784459108234
30
0
41
1
10
16.8051631063884
20
-5.47106053729738
30
0
41
1
10
16.8314938663051
20
-5.481145151145
30
0
41
1
10
16.8845188699141
20
-5.49846936167731
30
0
41
1
10
16.9112225356448
20
-5.50571226011587
30
0
41
1
10
16.9650247101004
20
-5.51747406457991
30
0
41
1
10
16.992216397077
20
-5.52198820416115
30
0
41
1
10
17.0724935208943
20
-5.53133781453536
30
0
41
1
10
17.1249222467065
20
-5.53220808685404
30
0
41
1
10
17.2024065588862
20
-5.52637113204727
30
0
41
1
10
17.2281182805367
20
-5.52320613060607
30
0
41
1
10
17.2787427947224
20
-5.51457017437005
30
0
41
1
10
17.30363915096
20
-5.50911188093093
30
0
41
1
10
17.3281523379786
20
-5.50254896641513
30
0
0
SPLINE
5
140
100
AcDbEntity
8
1
62
256
6
ByLayer
370
18
48
1
60
0
100
AcDbSpline
70
4
71
3
72
24
73
20
40
0
40
0
40
0
40
0
40
0.0625000000000074
40
0.0625000000000074
40
0.125000000000015
40
0.125000000000015
40
0.250000000000011
40
0.250000000000011
40
0.312500000000007
40
0.312500000000007
40
0.375000000000004
40
0.375000000000004
40
0.500000000000002
40
0.500000000000002
40
0.625
40
0.625
40
0.749999999999999
40
0.749999999999999
40
1
40
1
40
1
40
1
41
1
10
17.6981810583398
20
-5.65442311040482
30
0
41
1
10
17.6934313378224
20
-5.64632139018687
30
0
41
1
10
17.6882897889865
20
-5.63835019077266
30
0
41
1
10
17.677355321586
20
-5.6229069342991
30
0
41
1
10
17.6716008277749
20
-5.61548230486324
30
0
41
1
10
17.653507056405
20
-5.59406724837234
30
0
41
1
10
17.6403431053359
20
-5.5809297604749
30
0
41
1
10
17.6189603728398
20
-5.56291952202378
30
0
41
1
10
17.6115431209205
20
-5.55719464554414
30
0
41
1
10
17.5964570188402
20
-5.54652908650147
30
0
41
1
10
17.5887541685168
20
-5.54155746548531
30
0
41
1
10
17.5651865615503
20
-5.52768476963976
30
0
41
1
10
17.5488655560664
20
-5.51981928227153
30
0
41
1
10
17.5150376500416
20
-5.50680967244006
30
0
41
1
10
17.497973394896
20
-5.50183493909819
30
0
41
1
10
17.4636029977596
20
-5.49467600751669
30
0
41
1
10
17.446237058748
20
-5.49249069308141
30
0
41
1
10
17.39416944413
20
-5.49006078995396
30
0
41
1
10
17.3606039107085
20
-5.49386070823118
30
0
41
1
10
17.3281523379786
20
-5.50254896641513
30
0
0
SPLINE
5
141
100
AcDbEntity
8
1
62
256
6
ByLayer
370
18
48
1
60
0
100
AcDbSpline
70
4
71
3
72
26
73
22
40
0
40
0
40
0
40
0
40
0.250000000000021
40
0.250000000000021
40
0.31250000000002
40
0.31250000000002
40
0.375000000000019
40
0.375000000000019
40
0.500000000000021
40
0.500000000000021
40
0.562500000000023
40
0.562500000000023
40
0.625000000000026
40
0.625000000000026
40
0.750000000000011
40
0.750000000000011
40
0.812500000000003
40
0.812500000000003
40
0.874999999999995
40
0.874999999999995
40
1
40
1
40
1
40
1
41
1
10
16.3181619695469
20
-4.92390455985569
30
0
41
1
10
16.3092192305469
20
-4.89142296665099
30
0
41
1
10
16.295487632259
20
-4.86053631026812
30
0
41
1
10
16.2718353388291
20
-4.82420148267821
30
0
41
1
10
16.2667495067731
20
-4.81702254257584
30
0
41
1
10
16.2560530091763
20
-4.80314060543949
30
0
41
1
10
16.2504333990711
20
-4.79641840555308
30
0
41
1
10
16.2327595033493
20
-4.77691327369098
30
0
41
1
10
16.2198957841168
20
-4.76478719136355
30
0
41
1
10
16.1988810548679
20
-4.74801059325083
30
0
41
1
10
16.1915883106091
20
-4.74265488280679
30
0
41
1
10
16.1763916134439
20
-4.73244843396361
30
0
41
1
10
16.1685411707113
20
-4.72763788709571
30
0
41
1
10
16.1445437728381
20
-4.7142755070615
30
0
41
1
10
16.1278334996496
20
-4.70670309595528
30
0
41
1
10
16.1016705104134
20
-4.69741602014867
30
0
41
1
10
16.0927656700965
20
-4.69466726841731
30
0
41
1
10
16.0745707697433
20
-4.68989830589609
30
0
41
1
10
16.0652845989499
20
-4.68788547449546
30
0
41
1
10
16.0374812768526
20
-4.68309641628662
30
0
41
1
10
16.01880895329
20
-4.6815
30
0
41
1
10
16
20
-4.6815
30
0
0
SPLINE
5
142
100
AcDbEntity
8
1
62
256
6
ByLayer
370
18
48
1
60
0
100
AcDbSpline
70
4
71
3
72
24
73
20
40
0
40
0
40
0
40
0
40
0.124999999999996
40
0.124999999999996
40
0.187499999999994
40
0.187499999999994
40
0.249999999999993
40
0.249999999999993
40
0.37499999999999
40
0.37499999999999
40
0.499999999999988
40
0.499999999999988
40
0.624999999999985
40
0.624999999999985
40
0.687499999999989
40
0.687499999999989
40
0.749999999999994
40
0.749999999999994
40
1
40
1
40
1
40
1
41
1
10
14.3018189416602
20
-5.65442311040482
30
0
41
1
10
14.2920717429747
20
-5.67104915742607
30
0
41
1
10
14.2838642633101
20
-5.68836175118037
30
0
41
1
10
14.2738342365023
20
-5.71534744378729
30
0
41
1
10
14.2708640587043
20
-5.72454737111846
30
0
41
1
10
14.2657514504449
20
-5.74314453482737
30
0
41
1
10
14.2636304107339
20
-5.75245092056323
30
0
41
1
10
14.258503655387
20
-5.78039103411823
30
0
41
1
10
14.2567259261731
20
-5.79904565975622
30
0
41
1
10
14.2563184965417
20
-5.83639994194192
30
0
41
1
10
14.2577395219956
20
-5.85523892242639
30
0
41
1
10
14.2635127050969
20
-5.89141510492053
30
0
41
1
10
14.2678413753686
20
-5.908930473553
30
0
41
1
10
14.2763479036088
20
-5.93438887681845
30
0
41
1
10
14.2795208606013
20
-5.94273849781305
30
0
41
1
10
14.28653701553
20
-5.95916394085114
30
0
41
1
10
14.2903971485727
20
-5.96726674459126
30
0
41
1
10
14.3110153586929
20
-6.00641587152057
30
0
41
1
10
14.3317858476265
20
-6.03392498567706
30
0
41
1
10
14.3564173719113
20
-6.05788229583283
30
0
0
SPLINE
5
143
100
AcDbEntity
8
1
62
256
6
ByLayer
370
18
48
1
60
0
100
AcDbSpline
70
4
71
3
72
18
73
14
40
0
40
0
40
0
40
0
40
0.25000000000002
40
0.25000000000002
40
0.375000000000033
40
0.375000000000033
40
0.437500000000035
40
0.437500000000035
40
0.500000000000038
40
0.500000000000038
40
0.750000000000019
40
0.750000000000019
40
1
40
1
40
1
40
1
41
1
10
14.5922620637002
20
-6.49725870662354
30
0
41
1
10
14.5839029765648
20
-6.45283371714234
30
0
41
1
10
14.572194076137
20
-6.41047127231678
30
0
41
1
10
14.5502147004153
20
-6.34951240206013
30
0
41
1
10
14.5421460177692
20
-6.329627187147
30
0
41
1
10
14.5289590937532
20
-6.30041485375656
30
0
41
1
10
14.524382525553
20
-6.29078015654287
30
0
41
1
10
14.5148692909952
20
-6.27171212439077
30
0
41
1
10
14.5099208758561
20
-6.26225797017554
30
0
41
1
10
14.4844501468565
20
-6.21579120812243
30
0
41
1
10
14.4617830025327
20
-6.18116665614502
30
0
41
1
10
14.4122494705402
20
-6.11629302469026
30
0
41
1
10
14.385378603438
20
-6.08605080047579
30
0
41
1
10
14.3564173719113
20
-6.05788229583283
30
0
0
SPLINE
5
144
100
AcDbEntity
8
1
62
256
6
ByLayer
370
18
48
1
60
0
100
AcDbSpline
70
4
71
3
72
24
73
20
40
0
40
0
40
0
40
0
40
0.250000000000013
40
0.250000000000013
40
0.312500000000015
40
0.312500000000015
40
0.375000000000017
40
0.375000000000017
40
0.500000000000015
40
0.500000000000015
40
0.625000000000014
40
0.625000000000014
40
0.750000000000012
40
0.750000000000012
40
0.812500000000012
40
0.812500000000012
40
0.875000000000011
40
0.875000000000011
40
1
40
1
40
1
40
1
41
1
10
14.3564173719113
20
-7.24211770416719
30
0
41
1
10
14.3317858476265
20
-7.26607501432295
30
0
41
1
10
14.3110153586929
20
-7.29358412847944
30
0
41
1
10
14.2903971485727
20
-7.33273325540875
30
0
41
1
10
14.28653701553
20
-7.34083605914887
30
0
41
1
10
14.2795208606013
20
-7.35726150218696
30
0
41
1
10
14.2763479036088
20
-7.36561112318157
30
0
41
1
10
14.2678413753686
20
-7.39106952644701
30
0
41
1
10
14.2635127050969
20
-7.40858489507948
30
0
41
1
10
14.2577395219956
20
-7.44476107757362
30
0
41
1
10
14.2563184965417
20
-7.46360005805809
30
0
41
1
10
14.2567259261731
20
-7.50095434024379
30
0
41
1
10
14.258503655387
20
-7.51960896588179
30
0
41
1
10
14.2636304107339
20
-7.54754907943678
30
0
41
1
10
14.2657514504449
20
-7.55685546517265
30
0
41
1
10
14.2708640587043
20
-7.57545262888155
30
0
41
1
10
14.2738342365023
20
-7.58465255621272
30
0
41
1
10
14.2838642633102
20
-7.61163824881965
30
0
41
1
10
14.2920717429747
20
-7.62895084257394
30
0
41
1
10
14.3018189416602
20
-7.64557688959519
30
0
0
SPLINE
5
145
100
AcDbEntity
8
1
62
256
6
ByLayer
370
18
48
1
60
0
100
AcDbSpline
70
4
71
3
72
17
73
13
40
0
40
0
40
0
40
0
40
0.250000000000002
40
0.250000000000002
40
0.500000000000003
40
0.500000000000003
40
0.562500000000003
40
0.562500000000003
40
0.625000000000003
40
0.750000000000002
40
0.750000000000002
40
1
40
1
40
1
40
1
41
1
10
14.3564173719113
20
-7.24211770416719
30
0
41
1
10
14.3853753963689
20
-7.21395231880945
30
0
41
1
10
14.4122309410964
20
-7.18372575786455
30
0
41
1
10
14.461719738367
20
-7.11892167661281
30
0
41
1
10
14.4843572921869
20
-7.08435069513351
30
0
41
1
10
14.5097894773876
20
-7.03798851185627
30
0
41
1
10
14.5147424479631
20
-7.02853470981097
30
0
41
1
10
14.5242836416446
20
-7.00942527611323
30
0
41
1
10
14.5380498884726
20
-6.98046203694776
30
0
41
1
10
14.5501769665485
20
-6.95058627674297
30
0
41
1
10
14.5721909236732
20
-6.88954938792148
30
0
41
1
10
14.5839044979644
20
-6.84715819726679
30
0
41
1
10
14.5922620637002
20
-6.80274129337647
30
0
0
SPLINE
5
146
100
AcDbEntity
8
1
62
256
6
ByLayer
370
18
48
1
60
0
100
AcDbSpline
70
4
71
3
72
12
73
8
40
0
40
0
40
0
40
0
40
0.282123293577357
40
0.282123293577357
40
0.641061646788678
40
0.641061646788678
40
1
40
1
40
1
40
1
41
1
10
9.22962551725007
20
0.312730672053533
30
0
41
1
10
9.22018631298118
20
0.314781589375485
30
0
41
1
10
9.21076689725166
20
0.316635418411295
30
0
41
1
10
9.18954659679821
20
0.320303380455812
30
0
41
1
10
9.1778549409033
20
0.321962244275852
30
0
41
1
10
9.15494813398621
20
0.324297936900507
30
0
41
1
10
9.14372986087074
20
0.32498094716172
30
0
41
1
10
9.13284665391029
20
0.32498094716172
30
0
0
SPLINE
5
147
100
AcDbEntity
8
1
62
256
6
ByLayer
370
18
48
1
60
0
100
AcDbSpline
70
4
71
3
72
8
73
4
40
0
40
0
40
0
40
0
40
1
40
1
40
1
40
1
41
1
10
8.97509300114021
20
0.269594177820636
30
0
41
1
10
8.97048024229872
20
0.263188796058728
30
0
41
1
10
8.96535566342396
20
0.256648768658465
30
0
41
1
10
8.95982040671319
20
0.249999999999829
30
0
0
SPLINE
5
148
100
AcDbEntity
8
1
62
256
6
ByLayer
370
18
48
1
60
0
100
AcDbSpline
70
4
71
3
72
12
73
8
40
0
40
0
40
0
40
0
40
0.202868273483581
40
0.202868273483581
40
0.601434136736918
40
0.601434136736918
40
1
40
1
40
1
40
1
41
1
10
33.9074577036318
20
-12.1912767208238
30
0
41
1
10
33.7404545692772
20
-12.1910843944718
30
0
41
1
10
33.5734514351643
20
-12.1908918580818
30
0
41
1
10
33.07834501006
20
-12.1903204316568
30
0
41
1
10
32.7502417197609
20
-12.1899409408907
30
0
41
1
10
32.0940351410365
20
-12.1891803375116
30
0
41
1
10
31.7659318526093
20
-12.1887992248986
30
0
41
1
10
31.4378285651271
20
-12.1884173012254
30
0
0
SPLINE
5
149
100
AcDbEntity
8
1
62
256
6
ByLayer
370
18
48
1
60
0
100
AcDbSpline
70
4
71
3
72
8
73
4
40
0
40
0
40
0
40
0
40
1
40
1
40
1
40
1
41
1
10
8.94788459874798
20
0.25
30
0
41
1
10
8.95695689263579
20
0.256520867363747
30
0
41
1
10
8.96602634583104
20
0.263052313104737
30
0
41
1
10
8.97509300113904
20
0.269594177821347
30
0
0
SPLINE
5
14A
100
AcDbEntity
8
1
62
256
6
ByLayer
370
18
48
1
60
0
100
AcDbSpline
70
4
71
3
72
18
73
14
40
0
40
0
40
0
40
0
40
0.125000000000003
40
0.125000000000003
40
0.250000000000006
40
0.250000000000006
40
0.375000000000008
40
0.375000000000008
40
0.500000000000011
40
0.500000000000011
40
0.750000000000005
40
0.750000000000005
40
1
40
1
40
1
40
1
41
1
10
9.40454881002665
20
0.324980947161663
30
0
41
1
10
9.38759768040057
20
0.324980947161663
30
0
41
1
10
9.37037734087886
20
0.324333802126603
30
0
41
1
10
9.33556537132938
20
0.322240606437305
30
0
41
1
10
9.31797101305719
20
0.320786465321106
30
0
41
1
10
9.28248929533834
20
0.317312073862979
30
0
41
1
10
9.26457702835458
20
0.315286220540855
30
0
41
1
10
9.2286184412612
20
0.310825062109671
30
0
41
1
10
9.21061352336176
20
0.308394804813759
30
0
41
1
10
9.15652522117634
20
0.300657493979827
30
0
41
1
10
9.12036847898457
20
0.294911325240093
30
0
41
1
10
9.04786915185497
20
0.282718617451991
30
0
41
1
10
9.01152644313692
20
0.276266358807078
30
0
41
1
10
8.97509300113904
20
0.269594177821347
30
0
0
SPLINE
5
14B
100
AcDbEntity
8
1
62
256
6
ByLayer
370
18
48
1
60
0
100
AcDbSpline
70
4
71
3
72
20
73
16
40
0
40
0
40
0
40
0
40
0.249999999999987
40
0.249999999999987
40
0.374999999999989
40
0.374999999999989
40
0.499999999999991
40
0.499999999999991
40
0.624999999999993
40
0.624999999999993
40
0.749999999999995
40
0.749999999999995
40
0.874999999999998
40
0.874999999999998
40
1
40
1
40
1
40
1
41
1
10
9.3844789550599
20
0.25
30
0
41
1
10
9.39682270649575
20
0.259824535101188
30
0
41
1
10
9.40890440191322
20
0.269050270820657
30
0
41
1
10
9.42658457612515
20
0.281897606492322
30
0
41
1
10
9.43240356571505
20
0.286013315481369
30
0
41
1
10
9.44387251607552
20
0.293868908437673
30
0
41
1
10
9.44955246765534
20
0.297627228915957
30
0
41
1
10
9.46048600059487
20
0.3045573210143
30
0
41
1
10
9.4657554788725
20
0.307741778715837
30
0
41
1
10
9.47584069438227
20
0.313466776029856
30
0
41
1
10
9.48067606109117
20
0.31601746064473
30
0
41
1
10
9.48970604367267
20
0.320287538788847
30
0
41
1
10
9.49383752136634
20
0.321978904858071
30
0
41
1
10
9.5012054778818
20
0.324325438354265
30
0
41
1
10
9.50446684643609
20
0.32498094716172
30
0
41
1
10
9.50709454528783
20
0.32498094716172
30
0
0
SPLINE
5
14C
100
AcDbEntity
8
1
62
256
6
ByLayer
370
18
48
1
60
0
100
AcDbSpline
70
4
71
2
72
6
73
3
40
0
40
0
40
0
40
1
40
1
40
1
41
1
10
9.50723215695228
20
0.32498094716172
30
0
41
1
10
9.53999786148734
20
0.32498094716172
30
0
41
1
10
9.57062122153147
20
0.32498094716172
30
0
0
SPLINE
5
14D
100
AcDbEntity
8
1
62
256
6
ByLayer
370
18
48
1
60
0
100
AcDbSpline
70
4
71
3
72
18
73
14
40
0
40
0
40
0
40
0
40
0.250000000000012
40
0.250000000000012
40
0.375000000000016
40
0.375000000000016
40
0.50000000000002
40
0.50000000000002
40
0.750000000000016
40
0.750000000000016
40
0.875000000000008
40
0.875000000000008
40
1
40
1
40
1
40
1
41
1
10
14.8184692127086
20
0.249980947161674
30
0
41
1
10
14.8074408879534
20
0.25978207251589
30
0
41
1
10
14.7967015141746
20
0.269079983040143
30
0
41
1
10
14.7810985572145
20
0.28213438487478
30
0
41
1
10
14.7760027492335
20
0.286317935978389
30
0
41
1
10
14.7661922846909
20
0.294192871663881
30
0
41
1
10
14.7614560038651
20
0.297902603733888
30
0
41
1
10
14.7478183865456
20
0.308259492032221
30
0
41
1
10
14.7393963271011
20
0.314194627055116
30
0
41
1
10
14.729075461519
20
0.320451985953866
30
0
41
1
10
14.7259716490942
20
0.322125675212902
30
0
41
1
10
14.7207746365131
20
0.324388699392472
30
0
41
1
10
14.7186893510728
20
0.324980947161748
30
0
41
1
10
14.7171680292952
20
0.324980947161748
30
0
0
SPLINE
5
14E
100
AcDbEntity
8
1
62
256
6
ByLayer
370
18
48
1
60
0
100
AcDbSpline
70
4
71
3
72
22
73
18
40
0
40
0
40
0
40
0
40
0.125
40
0.125
40
0.25
40
0.25
40
0.375
40
0.375
40
0.5
40
0.5
40
0.625
40
0.625
40
0.75
40
0.75
40
0.875
40
0.875
40
1
40
1
40
1
40
1
41
1
10
9.57048139756097
20
0.324980947060055
30
0
41
1
10
9.57251449079985
20
0.32498069993548
30
0
41
1
10
9.57410536556665
20
0.32453310272399
30
0
41
1
10
9.5762818245112
20
0.322618634072597
30
0
41
1
10
9.57683167984814
20
0.321175545408067
30
0
41
1
10
9.57685514810566
20
0.317350053736391
30
0
41
1
10
9.57631860575589
20
0.314932710155148
30
0
41
1
10
9.57419971126762
20
0.309275100347492
30
0
41
1
10
9.57263907119454
20
0.306067076875024
30
0
41
1
10
9.56861585716388
20
0.298965833156643
30
0
41
1
10
9.56613810398778
20
0.295057128232287
30
0
41
1
10
9.56055905507202
20
0.286905878969549
30
0
41
1
10
9.55744018536603
20
0.282630010692912
30
0
41
1
10
9.55063275024946
20
0.273730195609943
30
0
41
1
10
9.54692226638943
20
0.26908108225922
30
0
41
1
10
9.53914014588517
20
0.259653435704053
30
0
41
1
10
9.53505931314228
20
0.254861141173507
30
0
41
1
10
9.53081289439865
20
0.249999999999943
30
0
0
SPLINE
5
14F
100
AcDbEntity
8
1
62
256
6
ByLayer
370
18
48
1
60
0
100
AcDbSpline
70
4
71
3
72
8
73
4
40
0
40
0
40
0
40
0
40
1
40
1
40
1
40
1
41
1
10
15.2430820962789
20
-0.129903810567669
30
0
41
1
10
15.4272614047765
20
-0.311558795566384
30
0
41
1
10
15.6113958293757
20
-0.493259035261673
30
0
41
1
10
15.7954898626159
20
-0.675000000000011
30
0
0
SPLINE
5
150
100
AcDbEntity
8
1
62
256
6
ByLayer
370
18
48
1
60
0
100
AcDbSpline
70
4
71
3
72
8
73
4
40
0
40
0
40
0
40
0
40
1
40
1
40
1
40
1
41
1
10
15.2430820962789
20
-0.129903810567669
30
0
41
1
10
15.1020216400389
20
-0.0028773178347024
30
0
41
1
10
14.9604945734528
20
0.123759749017154
30
0
41
1
10
14.8184692127086
20
0.249980947161674
30
0
0
SPLINE
5
151
100
AcDbEntity
8
1
62
256
6
ByLayer
370
18
48
1
60
0
100
AcDbSpline
70
4
71
3
72
41
73
37
40
0
40
0
40
0
40
0
40
0.125000000000002
40
0.125000000000002
40
0.156250000000003
40
0.156250000000003
40
0.187500000000004
40
0.187500000000004
40
0.250000000000006
40
0.312500000000008
40
0.312500000000008
40
0.343750000000009
40
0.343750000000009
40
0.37500000000001
40
0.37500000000001
40
0.500000000000015
40
0.500000000000015
40
0.562500000000017
40
0.562500000000017
40
0.593750000000017
40
0.593750000000017
40
0.625000000000017
40
0.625000000000017
40
0.750000000000018
40
0.750000000000018
40
0.781250000000016
40
0.781250000000016
40
0.812500000000015
40
0.812500000000015
40
0.875000000000009
40
0.875000000000009
40
0.906250000000007
40
0.906250000000007
40
0.937500000000004
40
0.937500000000004
40
1
40
1
40
1
40
1
41
1
10
23.1000000000001
20
-10.184862838995
30
0
41
1
10
22.9940105766563
20
-10.184862838995
30
0
41
1
10
22.8890195707117
20
-10.1741634317342
30
0
41
1
10
22.7590316088064
20
-10.1473851887776
30
0
41
1
10
22.7330971321851
20
-10.1413531685424
30
0
41
1
10
22.6813568618797
20
-10.1279101144898
30
0
41
1
10
22.6556516782022
20
-10.1205219708079
30
0
41
1
10
22.5795494192037
20
-10.096542460067
30
0
41
1
10
22.4803424283209
20
-10.0596283826333
30
0
41
1
10
22.3855397287105
20
-10.0130959436142
30
0
41
1
10
22.3160929170107
20
-9.97458185859765
30
0
41
1
10
22.2932203453585
20
-9.96114028614133
30
0
41
1
10
22.2480346480511
20
-9.93303538872578
30
0
41
1
10
22.2256670866495
20
-9.91833364368452
30
0
41
1
10
22.1159362591907
20
-9.8421893255686
30
0
41
1
10
22.0355573995283
20
-9.77349703134036
30
0
41
1
10
21.9255772722056
20
-9.65933995127244
30
0
41
1
10
21.8906952556553
20
-9.61942048464499
30
0
41
1
10
21.8410917016329
20
-9.55668556594023
30
0
41
1
10
21.824985302125
20
-9.53525575035434
30
0
41
1
10
21.7940124542672
20
-9.49188067777459
30
0
41
1
10
21.7791071476839
20
-9.46989011967517
30
0
41
1
10
21.7074274114521
20
-9.35845287601305
30
0
41
1
10
21.6591137011542
20
-9.2645943749929
30
0
41
1
10
21.6098979278188
20
-9.14144336863089
30
0
41
1
10
21.6006185390567
20
-9.11651919340298
30
0
41
1
10
21.5832046903306
20
-9.06607382343145
30
0
41
1
10
21.5750744032046
20
-9.04055363326552
30
0
41
1
10
21.5526127121967
20
-8.96374692330858
30
0
41
1
10
21.5401280947655
20
-8.91199996286221
30
0
41
1
10
21.5250981102652
20
-8.83357403240359
30
0
41
1
10
21.5207053746494
20
-8.80729756712176
30
0
41
1
10
21.5131613269734
20
-8.75447415514583
30
0
41
1
10
21.5100060500535
20
-8.72787167349097
30
0
41
1
10
21.5024730035565
20
-8.64823042677872
30
0
41
1
10
21.5
20
-8.59527858416345
30
0
41
1
10
21.5
20
-8.54246481870615
30
0
0
SPLINE
5
152
100
AcDbEntity
8
1
62
256
6
ByLayer
370
18
48
1
60
0
100
AcDbSpline
70
4
71
3
72
16
73
12
40
0
40
0
40
0
40
0
40
0.25
40
0.25
40
0.499999999999999
40
0.499999999999999
40
0.749999999999998
40
0.749999999999998
40
0.874999999999999
40
0.874999999999999
40
1
40
1
40
1
40
1
41
1
10
32.8514981939756
20
-15.5
30
0
41
1
10
32.8329105656476
20
-15.6355611532311
30
0
41
1
10
32.814135846602
20
-15.7710723914249
30
0
41
1
10
32.7760095288354
20
-16.0419309994593
30
0
41
1
10
32.7566633186756
20
-16.1772802057706
30
0
41
1
10
32.7170104795651
20
-16.4477068395735
30
0
41
1
10
32.6967217766362
20
-16.5827926889221
30
0
41
1
10
32.6649239987196
20
-16.7849768163494
30
0
41
1
10
32.6540927756056
20
-16.8522975546892
30
0
41
1
10
32.6317196037221
20
-16.9867123884818
30
0
41
1
10
32.6201852518523
20
-17.0538089065053
30
0
41
1
10
32.6080562954854
20
-17.1207158114501
30
0
0
SPLINE
5
153
100
AcDbEntity
8
1
62
256
6
ByLayer
370
18
48
1
60
0
100
AcDbSpline
70
4
71
3
72
8
73
4
40
0
40
0
40
0
40
0
40
1
40
1
40
1
40
1
41
1
10
33.026777017215
20
-15.4159227623863
30
0
41
1
10
32.9684491786965
20
-15.4444004679184
30
0
41
1
10
32.9100586915477
20
-15.4725905278332
30
0
41
1
10
32.8514981939756
20
-15.5
30
0
0
SPLINE
5
154
100
AcDbEntity
8
1
62
256
6
ByLayer
370
18
48
1
60
0
100
AcDbSpline
70
4
71
3
72
20
73
16
40
0
40
0
40
0
40
0
40
0.25000000000002
40
0.25000000000002
40
0.375000000000016
40
0.375000000000016
40
0.500000000000013
40
0.500000000000013
40
0.62500000000001
40
0.62500000000001
40
0.750000000000007
40
0.750000000000007
40
0.875000000000003
40
0.875000000000003
40
1
40
1
40
1
40
1
41
1
10
33.1
20
-15.2749688692685
30
0
41
1
10
33.1
20
-15.2906154703116
30
0
41
1
10
33.0982350113453
20
-15.3058406057954
30
0
41
1
10
33.0929847603154
20
-15.3280567882605
30
0
41
1
10
33.0908173665987
20
-15.3352332079604
30
0
41
1
10
33.0857488603431
20
-15.3489305808314
30
0
41
1
10
33.0828391293578
20
-15.3554880391187
30
0
41
1
10
33.0762608335801
20
-15.3680143889907
30
0
41
1
10
33.0726085184947
20
-15.3739345536149
30
0
41
1
10
33.0647934677857
20
-15.3848097611123
30
0
41
1
10
33.0606058521871
20
-15.3898139083347
30
0
41
1
10
33.0516728607019
20
-15.3989590351323
30
0
41
1
10
33.0469169098256
20
-15.4030966578374
30
0
41
1
10
33.0371127047952
20
-15.4102776284608
30
0
41
1
10
33.0320335073591
20
-15.4133563587229
30
0
41
1
10
33.026777017215
20
-15.4159227623863
30
0
0
SPLINE
5
155
100
AcDbEntity
8
1
62
256
6
ByLayer
370
18
48
1
60
0
100
AcDbSpline
70
4
71
3
72
20
73
16
40
0
40
0
40
0
40
0
40
0.250000000000012
40
0.250000000000012
40
0.37500000000001
40
0.37500000000001
40
0.500000000000008
40
0.500000000000008
40
0.625000000000006
40
0.625000000000006
40
0.750000000000004
40
0.750000000000004
40
0.875000000000002
40
0.875000000000002
40
1
40
1
40
1
40
1
41
1
10
33.0267770172148
20
-14.5840772376136
30
0
41
1
10
33.0372920567317
20
-14.5892110503285
30
0
41
1
10
33.0470416737057
20
-14.5963285347891
30
0
41
1
10
33.0604898085691
20
-14.6100532403169
30
0
41
1
10
33.06474386683
20
-14.6151282558026
30
0
41
1
10
33.0725589576124
20
-14.6259895274067
30
0
41
1
10
33.0761569548166
20
-14.6318114046973
30
0
41
1
10
33.0827177390073
20
-14.6442580087265
30
0
41
1
10
33.0856948951848
20
-14.6509378195401
30
0
41
1
10
33.0907898024679
20
-14.6646782892513
30
0
41
1
10
33.0929349500252
20
-14.671776578622
30
0
41
1
10
33.096418551245
20
-14.6864304464581
30
0
41
1
10
33.0977624626886
20
-14.6940447604527
30
0
41
1
10
33.0995500855061
20
-14.7094401787341
30
0
41
1
10
33.1000000000117
20
-14.7172027725805
30
0
41
1
10
33.1000000000118
20
-14.7250311307298
30
0
0
SPLINE
5
156
100
AcDbEntity
8
1
62
256
6
ByLayer
370
18
48
1
60
0
100
AcDbSpline
70
4
71
3
72
8
73
4
40
0
40
0
40
0
40
0
40
1
40
1
40
1
40
1
41
1
10
32.8514981939758
20
-14.5000000000001
30
0
41
1
10
32.9100751308116
20
-14.5274171666292
30
0
41
1
10
32.9684611811007
20
-14.5556053920781
30
0
41
1
10
33.0267770172149
20
-14.5840772376136
30
0
0
SPLINE
5
157
100
AcDbEntity
8
1
62
256
6
ByLayer
370
18
48
1
60
0
100
AcDbSpline
70
4
71
3
72
16
73
12
40
0
40
0
40
0
40
0
40
0.125000000000001
40
0.125000000000001
40
0.250000000000001
40
0.250000000000001
40
0.500000000000001
40
0.500000000000001
40
0.75
40
0.75
40
1
40
1
40
1
40
1
41
1
10
32.6080562954818
20
-12.8792841885508
30
0
41
1
10
32.620181430106
20
-12.9461700116336
30
0
41
1
10
32.6317134406143
20
-13.013251656076
30
0
41
1
10
32.6540832491577
20
-13.1476441408856
30
0
41
1
10
32.6649134902813
20
-13.2149574761855
30
0
41
1
10
32.6967094716682
20
-13.4171268528291
30
0
41
1
10
32.7169976139487
20
-13.5522066047837
30
0
41
1
10
32.756656064137
20
-13.8226691339281
30
0
41
1
10
32.7760047497563
20
-13.9580352974147
30
0
41
1
10
32.8141340793076
20
-14.2289148047192
30
0
41
1
10
32.8329096628705
20
-14.3644322627264
30
0
41
1
10
32.8514981939768
20
-14.4999999999972
30
0
0
SPLINE
5
158
100
AcDbEntity
8
1
62
256
6
ByLayer
370
18
48
1
60
0
100
AcDbSpline
70
4
71
3
72
20
73
16
40
0
40
0
40
0
40
0
40
0.124999999999996
40
0.124999999999996
40
0.249999999999992
40
0.249999999999992
40
0.499999999999994
40
0.499999999999994
40
0.624999999999996
40
0.624999999999996
40
0.749999999999997
40
0.749999999999997
40
0.874999999999999
40
0.874999999999999
40
1
40
1
40
1
40
1
41
1
10
-11.1539311130558
20
0.249980947163778
30
0
41
1
10
-11.1604321264514
20
0.25484312549068
30
0
41
1
10
-11.1669160865667
20
0.259584653592867
30
0
41
1
10
-11.1798450150413
20
0.268812423928693
30
0
41
1
10
-11.1863183862468
20
0.273317667880235
30
0
41
1
10
-11.205414819476
20
0.286238759709022
30
0
41
1
10
-11.2177208346944
20
0.294078861253268
30
0
41
1
10
-11.2353751890957
20
0.30440847513853
30
0
41
1
10
-11.2411564914624
20
0.307626792034881
30
0
41
1
10
-11.2522175048208
20
0.313387918152586
30
0
41
1
10
-11.2574809997012
20
0.315925042907423
30
0
41
1
10
-11.2673785357809
20
0.320189385940694
30
0
41
1
10
-11.2720438166112
20
0.321927033528368
30
0
41
1
10
-11.2804336330612
20
0.324326717375271
30
0
41
1
10
-11.2841126650964
20
0.324980947161919
30
0
41
1
10
-11.2871772280888
20
0.324980947161947
30
0
0
SPLINE
5
159
100
AcDbEntity
8
1
62
256
6
ByLayer
370
18
48
1
60
0
100
AcDbSpline
70
4
71
3
72
8
73
4
40
0
40
0
40
0
40
0
40
1
40
1
40
1
40
1
41
1
10
-11.1032350631269
20
0.212243119289155
30
0
41
1
10
-11.1201660472026
20
0.224786456048634
30
0
41
1
10
-11.1370643731012
20
0.237366129676758
30
0
41
1
10
-11.1539311130555
20
0.249980947161646
30
0
0
SPLINE
5
15A
100
AcDbEntity
8
1
62
256
6
ByLayer
370
18
48
1
60
0
100
AcDbSpline
70
4
71
3
72
16
73
12
40
0
40
0
40
0
40
0
40
0.250000000000001
40
0.250000000000001
40
0.500000000000003
40
0.500000000000003
40
0.750000000000004
40
0.750000000000004
40
0.875000000000002
40
0.875000000000002
40
1
40
1
40
1
40
1
41
1
10
-9.96637832280616
20
0.249980947161674
30
0
41
1
10
-9.99078675577488
20
0.259909297798572
30
0
41
1
10
-10.0150264157267
20
0.269095229194733
30
0
41
1
10
-10.0631479963767
20
0.285965246733184
30
0
41
1
10
-10.0870307140286
20
0.293653557543223
30
0
41
1
10
-10.1343736234426
20
0.307193150124277
30
0
41
1
10
-10.1578378552941
20
0.313070425791182
30
0
41
1
10
-10.1925916480194
20
0.319751268507474
30
0
41
1
10
-10.2040252939894
20
0.321595212906118
30
0
41
1
10
-10.2261105645492
20
0.324200732781947
30
0
41
1
10
-10.2368176996361
20
0.324980947160697
30
0
41
1
10
-10.2470436468637
20
0.324980947161663
30
0
0
SPLINE
5
15B
100
AcDbEntity
8
1
62
256
6
ByLayer
370
18
48
1
60
0
100
AcDbSpline
70
4
71
3
72
8
73
4
40
0
40
0
40
0
40
0
40
1
40
1
40
1
40
1
41
1
10
-9.66021760536357
20
0.133311925579335
30
0
41
1
10
-9.76333499208772
20
0.169915419799167
30
0
41
1
10
-9.86535047201971
20
0.208886956081187
30
0
41
1
10
-9.96637832280624
20
0.249980947161504
30
0
0
SPLINE
5
15C
100
AcDbEntity
8
1
62
256
6
ByLayer
370
18
48
1
60
0
100
AcDbSpline
70
4
71
3
72
14
73
10
40
0
40
0
40
0
40
0
40
0.303513390286153
40
0.303513390286153
40
0.607026780572306
40
0.607026780572306
40
0.910540170858459
40
0.910540170858459
40
1
40
1
40
1
40
1
41
1
10
-9.40454881002682
20
0.324980947161663
30
0
41
1
10
-9.38759768042253
20
0.324980947161663
30
0
41
1
10
-9.37037734089573
20
0.324333802127739
30
0
41
1
10
-9.3355653712978
20
0.322240606435287
30
0
41
1
10
-9.31797101298203
20
0.320786465315109
30
0
41
1
10
-9.28248929514564
20
0.317312073842714
30
0
41
1
10
-9.26457702802517
20
0.315286220502173
30
0
41
1
10
-9.2412983817392
20
0.31239818352293
30
0
41
1
10
-9.23599680282337
20
0.311723378500659
30
0
41
1
10
-9.23069302613982
20
0.311032527846351
30
0
0
SPLINE
5
15D
100
AcDbEntity
8
1
62
256
6
ByLayer
370
18
48
1
60
0
100
AcDbSpline
70
4
71
3
72
16
73
12
40
0
40
0
40
0
40
0
40
0.225218974002558
40
0.225218974002558
40
0.450437948005117
40
0.450437948005117
40
0.675656922007675
40
0.675656922007675
40
0.900875896010233
40
0.900875896010233
40
1
40
1
40
1
40
1
41
1
10
-11.0234674519049
20
0.3249809471682
30
0
41
1
10
-11.0186481431831
20
0.324980947168001
30
0
41
1
10
-11.0131968590635
20
0.324294057072933
30
0
41
1
10
-11.0013242982397
20
0.321823931556139
30
0
41
1
10
-10.9950506921146
20
0.320074036858074
30
0
41
1
10
-10.9819859246727
20
0.31579302680268
30
0
41
1
10
-10.9751929157508
20
0.313258941423442
30
0
41
1
10
-10.9611695861205
20
0.307534381850928
30
0
41
1
10
-10.9539161602599
20
0.304330463663092
30
0
41
1
10
-10.9433966326857
20
0.299396040292749
30
0
41
1
10
-10.9401655207041
20
0.297843114270251
30
0
41
1
10
-10.9369189903123
20
0.296247252501416
30
0
0
SPLINE
5
15E
100
AcDbEntity
8
1
62
256
6
ByLayer
370
18
48
1
60
0
100
AcDbSpline
70
4
71
3
72
20
73
16
40
0
40
0
40
0
40
0
40
0.250000000000002
40
0.250000000000002
40
0.375000000000002
40
0.375000000000002
40
0.500000000000002
40
0.500000000000002
40
0.625000000000001
40
0.625000000000001
40
0.750000000000001
40
0.750000000000001
40
0.875
40
0.875
40
1
40
1
40
1
40
1
41
1
10
-11.1114500273989
20
0.249980947154313
30
0
41
1
10
-11.1195900715259
20
0.259735651200032
30
0
41
1
10
-11.1270564922388
20
0.269508992532735
30
0
41
1
10
-11.1360204266698
20
0.283150106968293
30
0
41
1
10
-11.1386768192221
20
0.287590116805887
30
0
41
1
10
-11.143039567215
20
0.295963435139441
30
0
41
1
10
-11.1447268949469
20
0.299851004552408
30
0
41
1
10
-11.1470034342433
20
0.306969162786629
30
0
41
1
10
-11.1475787917377
20
0.310212274884577
30
0
41
1
10
-11.1474895806123
20
0.315677554873219
30
0
41
1
10
-11.1468471997408
20
0.317947268097811
30
0
41
1
10
-11.1443698180766
20
0.321572915063996
30
0
41
1
10
-11.1425602599156
20
0.322880500925294
30
0
41
1
10
-11.1379995581219
20
0.324581483697614
30
0
41
1
10
-11.1352153779729
20
0.324980947161748
30
0
41
1
10
-11.1320782392769
20
0.324980947161748
30
0
0
SPLINE
5
15F
100
AcDbEntity
8
1
62
256
6
ByLayer
370
18
48
1
60
0
100
AcDbSpline
70
4
71
3
72
42
73
38
40
0
40
0
40
0
40
0
40
0.125000000000005
40
0.125000000000005
40
0.187500000000008
40
0.187500000000008
40
0.218750000000009
40
0.218750000000009
40
0.250000000000009
40
0.250000000000009
40
0.375000000000012
40
0.375000000000012
40
0.500000000000014
40
0.500000000000014
40
0.531250000000013
40
0.531250000000013
40
0.562500000000012
40
0.562500000000012
40
0.62500000000001
40
0.62500000000001
40
0.687500000000008
40
0.687500000000008
40
0.718750000000008
40
0.718750000000008
40
0.750000000000008
40
0.750000000000008
40
0.812500000000007
40
0.812500000000007
40
0.875000000000006
40
0.875000000000006
40
0.890625000000006
40
0.890625000000006
40
0.906250000000005
40
0.906250000000005
40
0.937500000000003
40
0.937500000000003
40
1
40
1
40
1
40
1
41
1
10
23.1
20
-11.7368248774316
30
0
41
1
10
23.004411301926
20
-11.7273128823707
30
0
41
1
10
22.909965420661
20
-11.7092407363527
30
0
41
1
10
22.7699709301418
20
-11.669591111532
30
0
41
1
10
22.7235867965312
20
-11.6542720413934
30
0
41
1
10
22.6544417039664
20
-11.6280642674724
30
0
41
1
10
22.6314652976462
20
-11.618789349873
30
0
41
1
10
22.5856594525196
20
-11.5991386697329
30
0
41
1
10
22.5628997749587
20
-11.5887912278961
30
0
41
1
10
22.4502757243222
20
-11.5346610084413
30
0
41
1
10
22.3634499360622
20
-11.4835649171445
30
0
41
1
10
22.1965422194771
20
-11.3653200829982
30
0
41
1
10
22.1164499651093
20
-11.2981959195987
30
0
41
1
10
22.0211479925252
20
-11.2028333368064
30
0
41
1
10
22.0023142396016
20
-11.1831640222106
30
0
41
1
10
21.9652293662072
20
-11.1426802529546
30
0
41
1
10
21.9470829985096
20
-11.1219814901903
30
0
41
1
10
21.8938519024977
20
-11.0584917274664
30
0
41
1
10
21.8599715220947
20
-11.0143114740442
30
0
41
1
10
21.7956102605304
20
-10.9220295371469
30
0
41
1
10
21.7651279219668
20
-10.8739295348316
30
0
41
1
10
21.7221922633609
20
-10.7985636589573
30
0
41
1
10
21.7083461900209
20
-10.7729043704418
30
0
41
1
10
21.6816430298538
20
-10.7204449661426
30
0
41
1
10
21.6687551513227
20
-10.6935699739096
30
0
41
1
10
21.6320800371879
20
-10.6120303262417
30
0
41
1
10
21.610166473102
20
-10.5562760653222
30
0
41
1
10
21.5717250684176
20
-10.4418066393714
30
0
41
1
10
21.5551942457276
20
-10.3830931138015
30
0
41
1
10
21.5382485600194
20
-10.3076572519964
30
0
41
1
10
21.5350460823552
20
-10.2924674600309
30
0
41
1
10
21.529026716936
20
-10.2618758906999
30
0
41
1
10
21.5262045370823
20
-10.2464409150706
30
0
41
1
10
21.5183861692793
20
-10.2001074066621
30
0
41
1
10
21.5140325891951
20
-10.1691792566443
30
0
41
1
10
21.5035533562287
20
-10.0762771220786
30
0
41
1
10
21.5
20
-10.0141858729087
30
0
41
1
10
21.5
20
-9.95193263504473
30
0
0
SPLINE
5
160
100
AcDbEntity
8
1
62
256
6
ByLayer
370
18
48
1
60
0
100
AcDbSpline
70
4
71
3
72
9
73
5
40
0
40
0
40
0
40
0
40
0.5
40
1
40
1
40
1
40
1
41
1
10
10.3885656683962
20
-1.35753920737761
30
0
41
1
10
10.4223280233231
20
-1.36335541594897
30
0
41
1
10
10.4902926869092
20
-1.37204681272578
30
0
41
1
10
10.5591157419288
20
-1.375
30
0
41
1
10
10.593748156342
20
-1.375
30
0
0
SPLINE
5
161
100
AcDbEntity
8
1
62
256
6
ByLayer
370
18
48
1
60
0
100
AcDbSpline
70
4
71
3
72
30
73
26
40
0
40
0
40
0
40
0
40
0.124999999999987
40
0.124999999999987
40
0.187499999999986
40
0.187499999999986
40
0.249999999999985
40
0.249999999999985
40
0.374999999999987
40
0.374999999999987
40
0.437499999999988
40
0.437499999999988
40
0.499999999999989
40
0.499999999999989
40
0.624999999999991
40
0.624999999999991
40
0.687499999999993
40
0.687499999999993
40
0.749999999999996
40
0.749999999999996
40
0.874999999999998
40
0.874999999999998
40
0.937499999999999
40
0.937499999999999
40
1
40
1
40
1
40
1
41
1
10
10.3885656683962
20
-1.35753920737758
30
0
41
1
10
10.3725769510693
20
-1.35043649184078
30
0
41
1
10
10.3570150539348
20
-1.34125326378336
30
0
41
1
10
10.3343194973799
20
-1.3243232448834
30
0
41
1
10
10.3268338465609
20
-1.31812437066793
30
0
41
1
10
10.3122282395104
20
-1.30476318989145
30
0
41
1
10
10.3051385487059
20
-1.29763439598162
30
0
41
1
10
10.2844916116683
20
-1.27493958336478
30
0
41
1
10
10.2715524892908
20
-1.25807357051426
30
0
41
1
10
10.2533890169325
20
-1.23015571156287
30
0
41
1
10
10.2475336035718
20
-1.22039396153269
30
0
41
1
10
10.2362938056151
20
-1.20003653587057
30
0
41
1
10
10.2309673347538
20
-1.18954867316901
30
0
41
1
10
10.2158421101627
20
-1.15718513004282
30
0
41
1
10
10.2068920716582
20
-1.13441526059285
30
0
41
1
10
10.1951674906063
20
-1.09846886889591
30
0
41
1
10
10.1915440776094
20
-1.08618669921529
30
0
41
1
10
10.1848843247539
20
-1.06100383158724
30
0
41
1
10
10.1818836815989
20
-1.04823306186862
30
0
41
1
10
10.1738903460554
20
-1.00959859854385
30
0
41
1
10
10.1698767621814
20
-0.983328367635892
30
0
41
1
10
10.1658189687721
20
-0.943156192910664
30
0
41
1
10
10.1647950576133
20
-0.929637042188773
30
0
41
1
10
10.1634229106751
20
-0.90233473804895
30
0
41
1
10
10.1630807948133
20
-0.888611598389531
30
0
41
1
10
10.1630807948133
20
-0.875
30
0
0
SPLINE
5
162
100
AcDbEntity
8
1
62
256
6
ByLayer
370
18
48
1
60
0
100
AcDbSpline
70
4
71
3
72
81
73
77
40
0
40
0
40
0
40
0
40
0.0078125000000014
40
0.0078125000000014
40
0.0117187500000022
40
0.0117187500000022
40
0.0156250000000029
40
0.0156250000000029
40
0.0175781250000036
40
0.0175781250000036
40
0.0185546875000047
40
0.0185546875000047
40
0.0195312500000057
40
0.0195312500000057
40
0.021484375000006
40
0.021484375000006
40
0.0234375000000063
40
0.0234375000000063
40
0.027343750000006
40
0.027343750000006
40
0.0312500000000056
40
0.0312500000000056
40
0.0390625000000057
40
0.0390625000000057
40
0.0468750000000058
40
0.0468750000000058
40
0.0625000000000061
40
0.0625000000000061
40
0.0937500000000061
40
0.0937500000000061
40
0.125000000000006
40
0.125000000000006
40
0.187500000000006
40
0.187500000000006
40
0.250000000000007
40
0.250000000000007
40
0.375000000000007
40
0.375000000000007
40
0.500000000000007
40
0.625000000000008
40
0.625000000000008
40
0.687500000000008
40
0.687500000000008
40
0.750000000000008
40
0.750000000000008
40
0.812500000000008
40
0.812500000000008
40
0.875000000000008
40
0.875000000000008
40
0.906250000000008
40
0.906250000000008
40
0.937500000000008
40
0.937500000000008
40
0.953125000000009
40
0.953125000000009
40
0.960937500000009
40
0.960937500000009
40
0.968750000000009
40
0.968750000000009
40
0.972656250000008
40
0.972656250000008
40
0.976562500000008
40
0.976562500000008
40
0.978515625000007
40
0.978515625000007
40
0.980468750000007
40
0.980468750000007
40
0.982421875000007
40
0.982421875000007
40
0.984375000000006
40
0.984375000000006
40
0.988281250000005
40
0.988281250000005
40
0.992187500000003
40
0.992187500000003
40
1
40
1
40
1
40
1
41
1
10
-1.91224221525877
20
-0.394519052838348
30
0
41
1
10
-1.92282156572341
20
-0.397533435195697
30
0
41
1
10
-1.93328703299298
20
-0.400792642800013
30
0
41
1
10
-1.94859288445008
20
-0.406516669262459
30
0
41
1
10
-1.95359149055579
20
-0.408552813285269
30
0
41
1
10
-1.96318270865214
20
-0.413077560163515
30
0
41
1
10
-1.96785173654942
20
-0.415569664711199
30
0
41
1
10
-1.97395171242519
20
-0.420048670860751
30
0
41
1
10
-1.97580369573171
20
-0.421646658949015
30
0
41
1
10
-1.97804087537853
20
-0.424340153169822
30
0
41
1
10
-1.97867307625054
20
-0.425265399838054
30
0
41
1
10
-1.97964165466874
20
-0.427187280234904
30
0
41
1
10
-1.97997556416402
20
-0.428196550109391
30
0
41
1
10
-1.98037246688429
20
-0.43117668739427
30
0
41
1
10
-1.97980883341094
20
-0.433156040210008
30
0
41
1
10
-1.97748212350464
20
-0.436651382667122
30
0
41
1
10
-1.97581374795769
20
-0.438152979130422
30
0
41
1
10
-1.97009904328226
20
-0.442195860936522
30
0
41
1
10
-1.9655580550596
20
-0.444199414509057
30
0
41
1
10
-1.95606843466254
20
-0.44772119324756
30
0
41
1
10
-1.95106731633356
20
-0.449203062644983
30
0
41
1
10
-1.93595107519369
20
-0.45314305633795
30
0
41
1
10
-1.92557687187247
20
-0.455151548859874
30
0
41
1
10
-1.9045789202523
20
-0.458657307765151
30
0
41
1
10
-1.89394318274023
20
-0.460129304204259
30
0
41
1
10
-1.86179262627238
20
-0.464054865240968
30
0
41
1
10
-1.84020397899076
20
-0.466007269746626
30
0
41
1
10
-1.77556093947166
20
-0.470916772337659
30
0
41
1
10
-1.73240444053894
20
-0.472937703046796
30
0
41
1
10
-1.64603636785407
20
-0.476023509055125
30
0
41
1
10
-1.60282241164063
20
-0.477033463499424
30
0
41
1
10
-1.47312342215651
20
-0.479215768728096
30
0
41
1
10
-1.38658196181325
20
-0.479556475236905
30
0
41
1
10
-1.21341185681212
20
-0.479476207823097
30
0
41
1
10
-1.12678156308039
20
-0.479017268009557
30
0
41
1
10
-0.866793441191248
20
-0.477269893009009
30
0
41
1
10
-0.693339956070815
20
-0.475647183276322
30
0
41
1
10
-0.346258593410312
20
-0.473375275194542
30
0
41
1
10
0.0010003507703402
20
-0.47200367055919
30
0
41
1
10
0.34857405178758
20
-0.473386319949782
30
0
41
1
10
0.609388405753833
20
-0.475099760634464
30
0
41
1
10
0.696349175854408
20
-0.475776693033907
30
0
41
1
10
0.870323792927167
20
-0.477166899227512
30
0
41
1
10
0.957329148831519
20
-0.477882761325304
30
0
41
1
10
1.13113690460131
20
-0.479041949024122
30
0
41
1
10
1.21796857575396
20
-0.479493958295478
30
0
41
1
10
1.39143454900756
20
-0.479542216888063
30
0
41
1
10
1.47807229819915
20
-0.479177404442254
30
0
41
1
10
1.60778691374301
20
-0.476925497381728
30
0
41
1
10
1.65098443404136
20
-0.475886802092418
30
0
41
1
10
1.73725264988951
20
-0.472719601202726
30
0
41
1
10
1.78025703058955
20
-0.47064578145492
30
0
41
1
10
1.84417449210775
20
-0.465656248769307
30
0
41
1
10
1.86538741092383
20
-0.463682824017269
30
0
41
1
10
1.896922807263
20
-0.459723906732535
30
0
41
1
10
1.90740435871612
20
-0.458233151164734
30
0
41
1
10
1.92812264321614
20
-0.454664943117905
30
0
41
1
10
1.93832423326464
20
-0.452621312482364
30
0
41
1
10
1.9530654260048
20
-0.448616583755751
30
0
41
1
10
1.957886259075
20
-0.447126197110265
30
0
41
1
10
1.96714261473934
20
-0.443496857369752
30
0
41
1
10
1.97155211298312
20
-0.441419320218785
30
0
41
1
10
1.97684146809385
20
-0.437229800282637
30
0
41
1
10
1.9783365049384
20
-0.435660915574715
30
0
41
1
10
1.98016767343336
20
-0.432084882313745
30
0
41
1
10
1.9804197424285
20
-0.430094718808903
30
0
41
1
10
1.97937553127724
20
-0.426188446354047
30
0
41
1
10
1.97814356823218
20
-0.424317649885836
30
0
41
1
10
1.97498510374817
20
-0.420901794091293
30
0
41
1
10
1.97308244679581
20
-0.419356299912835
30
0
41
1
10
1.96692460319255
20
-0.415043395047604
30
0
41
1
10
1.96229755695148
20
-0.412623793809502
30
0
41
1
10
1.95271325741356
20
-0.408182097958019
30
0
41
1
10
1.94779456186376
20
-0.406204007763876
30
0
41
1
10
1.93283786110663
20
-0.400656000617459
30
0
41
1
10
1.92260027365086
20
-0.397470382277845
30
0
41
1
10
1.91224221527577
20
-0.39451905284318
30
0
0
SPLINE
5
163
100
AcDbEntity
8
1
62
256
6
ByLayer
370
18
48
1
60
0
100
AcDbSpline
70
4
71
3
72
17
73
13
40
0
40
0
40
0
40
0
40
0.25
40
0.25
40
0.375
40
0.4375
40
0.4375
40
0.5
40
0.5
40
0.75
40
0.75
40
1
40
1
40
1
40
1
41
1
10
1.91224221527679
20
-0.394519052843464
30
0
41
1
10
1.60159777754356
20
-0.306006897427324
30
0
41
1
10
1.28701472260693
20
-0.236782441218367
30
0
41
1
10
0.808326323249872
20
-0.166313521538967
30
0
41
1
10
0.567279119098828
20
-0.139418800322744
30
0
41
1
10
0.323519502227214
20
-0.12580696443888
30
0
41
1
10
0.160394283177027
20
-0.119762754673957
30
0
41
1
10
0.078362911948318
20
-0.118261377257454
30
0
41
1
10
-0.329727668873488
20
-0.118464900509594
30
0
41
1
10
-0.651754427740201
20
-0.143175179431694
30
0
41
1
10
-1.28776911723094
20
-0.236983023929383
30
0
41
1
10
-1.60176192357355
20
-0.306053667681027
30
0
41
1
10
-1.91224221525877
20
-0.394519052838348
30
0
0
SPLINE
5
164
100
AcDbEntity
8
1
62
256
6
ByLayer
370
18
48
1
60
0
100
AcDbSpline
70
4
71
3
72
8
73
4
40
0
40
0
40
0
40
0
40
1
40
1
40
1
40
1
41
1
10
-14.5615187733781
20
-0.236518773378123
30
0
41
1
10
-14.3513710386801
20
-0.0731431542574228
30
0
41
1
10
-14.1400184018759
20
0.0890594833153955
30
0
41
1
10
-13.9273497265336
20
0.249980947161674
30
0
0
SPLINE
5
165
100
AcDbEntity
8
1
62
256
6
ByLayer
370
18
48
1
60
0
100
AcDbSpline
70
4
71
3
72
8
73
4
40
0
40
0
40
0
40
0
40
1
40
1
40
1
40
1
41
1
10
-14.5615187733781
20
-0.236518773378123
30
0
41
1
10
-14.7076620247758
20
-0.382662024775755
30
0
41
1
10
-14.8538226741322
20
-0.528822674132243
30
0
41
1
10
-15
20
-0.675000000000011
30
0
0
SPLINE
5
166
100
AcDbEntity
8
1
62
256
6
ByLayer
370
18
48
1
60
0
100
AcDbSpline
70
4
71
3
72
8
73
4
40
0
40
0
40
0
40
0
40
1
40
1
40
1
40
1
41
1
10
7.81377042360427
20
-0.474999999999994
30
0
41
1
10
7.85488481363834
20
-0.541662508489168
30
0
41
1
10
7.89599665707928
20
-0.608329227881853
30
0
41
1
10
7.93710604868392
20
-0.675000000000011
30
0
0
SPLINE
5
167
100
AcDbEntity
8
1
62
256
6
ByLayer
370
18
48
1
60
0
100
AcDbSpline
70
4
71
3
72
8
73
4
40
0
40
0
40
0
40
0
40
1
40
1
40
1
40
1
41
1
10
6.6006504881843
20
0.32498094716172
30
0
41
1
10
7.00588166662234
20
0.0618153720883186
30
0
41
1
10
7.41022395361119
20
-0.204971331217308
30
0
41
1
10
7.81377042360424
20
-0.474999999999994
30
0
0
SPLINE
5
168
100
AcDbEntity
8
1
62
256
6
ByLayer
370
18
48
1
60
0
100
AcDbSpline
70
4
71
3
72
30
73
26
40
0
40
0
40
0
40
0
40
0.0625000000000061
40
0.0625000000000061
40
0.125000000000012
40
0.125000000000012
40
0.187500000000019
40
0.187500000000019
40
0.218750000000021
40
0.218750000000021
40
0.250000000000023
40
0.250000000000023
40
0.312500000000027
40
0.312500000000027
40
0.375000000000031
40
0.375000000000031
40
0.437500000000035
40
0.437500000000035
40
0.500000000000039
40
0.500000000000039
40
0.625000000000024
40
0.625000000000024
40
0.750000000000009
40
0.750000000000009
40
1
40
1
40
1
40
1
41
1
10
6.22292588125003
20
0.249980947131121
30
0
41
1
10
6.21955595240865
20
0.252914908876164
30
0
41
1
10
6.21636758997769
20
0.255939059647659
30
0
41
1
10
6.21051007557585
20
0.262245767396166
30
0
41
1
10
6.20785466491733
20
0.265522644781726
30
0
41
1
10
6.20351609927599
20
0.272168749535723
30
0
41
1
10
6.20179147637555
20
0.275624633340158
30
0
41
1
10
6.20027976527979
20
0.280687054084183
30
0
41
1
10
6.19995012421148
20
0.282353947498052
30
0
41
1
10
6.19966320953691
20
0.285643710974028
30
0
41
1
10
6.19971056995726
20
0.287281667244486
30
0
41
1
10
6.2004140800575
20
0.291948296582575
30
0
41
1
10
6.20160828920962
20
0.294772273174488
30
0
41
1
10
6.20518386142254
20
0.299949113688825
30
0
41
1
10
6.20751976611058
20
0.302231168235778
30
0
41
1
10
6.21287035292434
20
0.30627486682053
30
0
41
1
10
6.21591426295652
20
0.308054038889253
30
0
41
1
10
6.22230861856272
20
0.311160963692004
30
0
41
1
10
6.22568657241547
20
0.312508448027302
30
0
41
1
10
6.23620682309917
20
0.316109021782722
30
0
41
1
10
6.24372854904974
20
0.31792809148601
30
0
41
1
10
6.25939445407602
20
0.320848040210734
30
0
41
1
10
6.26750018480013
20
0.321930725538721
30
0
41
1
10
6.29208157702345
20
0.324377259675799
30
0
41
1
10
6.30895523289021
20
0.324980947161663
30
0
41
1
10
6.32610759209319
20
0.324980947161663
30
0
0
SPLINE
5
169
100
AcDbEntity
8
1
62
256
6
ByLayer
370
18
48
1
60
0
100
AcDbSpline
70
4
71
3
72
8
73
4
40
0
40
0
40
0
40
0
40
1
40
1
40
1
40
1
41
1
10
6.94370199057298
20
-0.394519052838319
30
0
41
1
10
6.70648353684354
20
-0.177135671773783
30
0
41
1
10
6.46649386217231
20
0.0379233125618441
30
0
41
1
10
6.2229258812701
20
0.249980947141125
30
0
0
SPLINE
5
16A
100
AcDbEntity
8
1
62
256
6
ByLayer
370
18
48
1
60
0
100
AcDbSpline
70
4
71
3
72
40
73
36
40
0
40
0
40
0
40
0
40
0.249999999999992
40
0.249999999999992
40
0.374999999999988
40
0.374999999999988
40
0.499999999999983
40
0.499999999999983
40
0.562499999999983
40
0.562499999999983
40
0.624999999999983
40
0.624999999999983
40
0.687499999999984
40
0.687499999999984
40
0.749999999999984
40
0.749999999999984
40
0.781249999999982
40
0.781249999999982
40
0.812499999999981
40
0.812499999999981
40
0.84374999999998
40
0.84374999999998
40
0.874999999999979
40
0.874999999999979
40
0.890624999999981
40
0.890624999999981
40
0.906249999999984
40
0.906249999999984
40
0.921874999999986
40
0.921874999999986
40
0.937499999999989
40
0.937499999999989
40
0.968749999999994
40
0.968749999999994
40
1
40
1
40
1
40
1
41
1
10
6.31056345909113
20
-0.394519052838518
30
0
41
1
10
6.37477160274292
20
-0.411379638935813
30
0
41
1
10
6.43873436581833
20
-0.426175341576084
30
0
41
1
10
6.53429778488416
20
-0.445232963789806
30
0
41
1
10
6.56608797546158
20
-0.451051827023463
30
0
41
1
10
6.62952417807892
20
-0.461442125692656
30
0
41
1
10
6.66117064223556
20
-0.466019194826799
30
0
41
1
10
6.70850783880189
20
-0.471655016990979
30
0
41
1
10
6.72426466292015
20
-0.473326678573329
30
0
41
1
10
6.7557261014864
20
-0.476161098836997
30
0
41
1
10
6.77145110599577
20
-0.477324643893013
30
0
41
1
10
6.80250792684535
20
-0.478976540973378
30
0
41
1
10
6.81787500488093
20
-0.479471186456607
30
0
41
1
10
6.84817943934439
20
-0.479560419705763
30
0
41
1
10
6.86312052932414
20
-0.479163283900618
30
0
41
1
10
6.88505053830161
20
-0.477539240813599
30
0
41
1
10
6.8922792992789
20
-0.476824350812876
30
0
41
1
10
6.90651936764425
20
-0.47492561812976
30
0
41
1
10
6.91354439935401
20
-0.473737864933412
30
0
41
1
10
6.92700114264716
20
-0.470750396595264
30
0
41
1
10
6.93346671813322
20
-0.468952428293051
30
0
41
1
10
6.94560309325294
20
-0.464430091165326
30
0
41
1
10
6.9513232003797
20
-0.461676155240184
30
0
41
1
10
6.95851683438016
20
-0.456587871636742
30
0
41
1
10
6.96069380192048
20
-0.454727700184236
30
0
41
1
10
6.96446307291583
20
-0.450572101252135
30
0
41
1
10
6.9660284372105
20
-0.448294122549783
30
0
41
1
10
6.96829725749961
20
-0.443380727673969
30
0
41
1
10
6.96901235433305
20
-0.440690505253485
30
0
41
1
10
6.96943324881519
20
-0.435114089853443
30
0
41
1
10
6.96915785814377
20
-0.432219602519865
30
0
41
1
10
6.96690761888635
20
-0.423224118274902
30
0
41
1
10
6.96353664392529
20
-0.417072710650359
30
0
41
1
10
6.9547696385205
20
-0.405342643436654
30
0
41
1
10
6.94949560394613
20
-0.39982823196766
30
0
41
1
10
6.94370199057298
20
-0.394519052838319
30
0
0
SPLINE
5
16B
100
AcDbEntity
8
1
62
256
6
ByLayer
370
18
48
1
60
0
100
AcDbSpline
70
4
71
3
72
8
73
4
40
0
40
0
40
0
40
0
40
1
40
1
40
1
40
1
41
1
10
3.02046224885075
20
0.249980947161646
30
0
41
1
10
4.13598610112743
20
0.107222523982614
30
0
41
1
10
5.23174171602679
20
-0.111228400779481
30
0
41
1
10
6.31056345909118
20
-0.394519052838035
30
0
0
SPLINE
5
16C
100
AcDbEntity
8
1
62
256
6
ByLayer
370
18
48
1
60
0
100
AcDbSpline
70
4
71
3
72
14
73
10
40
0
40
0
40
0
40
0
40
0.25
40
0.25
40
0.5
40
0.5
40
0.75
40
0.75
40
1
40
1
40
1
40
1
41
1
10
1.73594520006427
20
0.32498094716172
30
0
41
1
10
1.84309474173739
20
0.32498094716172
30
0
41
1
10
1.95022075456754
20
0.323452236129242
30
0
41
1
10
2.16441448633964
20
0.31752665457725
30
0
41
1
10
2.2714828343681
20
0.313119988055377
30
0
41
1
10
2.48557990191404
20
0.301179376033133
30
0
41
1
10
2.59260836335659
20
0.293649067375753
30
0
41
1
10
2.80666688413962
20
0.274872902970941
30
0
41
1
10
2.91367618098352
20
0.263646823185155
30
0
41
1
10
3.02046224885075
20
0.249980947161873
30
0
0
SPLINE
5
16D
100
AcDbEntity
8
1
62
256
6
ByLayer
370
18
48
1
60
0
100
AcDbSpline
70
4
71
3
72
14
73
10
40
0
40
0
40
0
40
0
40
0.25
40
0.25
40
0.5
40
0.5
40
0.75
40
0.75
40
1
40
1
40
1
40
1
41
1
10
-3.02046224885072
20
0.249980947161703
30
0
41
1
10
-2.91364525025708
20
0.26365078152412
30
0
41
1
10
-2.80678930238935
20
0.274859400504965
30
0
41
1
10
-2.59295877929034
20
0.293621089038197
30
0
41
1
10
-2.48598486060507
20
0.301152741664822
30
0
41
1
10
-2.27190023278146
20
0.313100742437058
30
0
41
1
10
-2.16478964220218
20
0.31751364798501
30
0
41
1
10
-1.95042328219961
20
0.323449254272617
30
0
41
1
10
-1.84314979610431
20
0.324980947161805
30
0
41
1
10
-1.73594520006427
20
0.324980947161834
30
0
0
SPLINE
5
16E
100
AcDbEntity
8
1
62
256
6
ByLayer
370
18
48
1
60
0
100
AcDbSpline
70
4
71
3
72
8
73
4
40
0
40
0
40
0
40
0
40
1
40
1
40
1
40
1
41
1
10
-6.31056345909118
20
-0.394519052838035
30
0
41
1
10
-5.23174171602679
20
-0.111228400779481
30
0
41
1
10
-4.13598610112743
20
0.107222523982614
30
0
41
1
10
-3.02046224885075
20
0.249980947161646
30
0
0
SPLINE
5
16F
100
AcDbEntity
8
1
62
256
6
ByLayer
370
18
48
1
60
0
100
AcDbSpline
70
4
71
3
72
38
73
34
40
0
40
0
40
0
40
0
40
0.0312500000000052
40
0.0312500000000052
40
0.0468750000000062
40
0.0468750000000062
40
0.0625000000000071
40
0.0625000000000071
40
0.0781250000000081
40
0.0781250000000081
40
0.093750000000009
40
0.093750000000009
40
0.125000000000006
40
0.125000000000006
40
0.140625000000004
40
0.140625000000004
40
0.156250000000001
40
0.156250000000001
40
0.187500000000001
40
0.187500000000001
40
0.25
40
0.25
40
0.312499999999999
40
0.312499999999999
40
0.374999999999998
40
0.374999999999998
40
0.499999999999998
40
0.499999999999998
40
0.624999999999999
40
0.624999999999999
40
0.749999999999999
40
0.749999999999999
40
1
40
1
40
1
40
1
41
1
10
-6.94370199056817
20
-0.394519052828656
30
0
41
1
10
-6.9495089607814
20
-0.399840471962022
30
0
41
1
10
-6.95487075364812
20
-0.405468539475009
30
0
41
1
10
-6.96135311380292
20
-0.414155954724294
30
0
41
1
10
-6.96325940255426
20
-0.417097475831469
30
0
41
1
10
-6.96640667043525
20
-0.423099880046607
30
0
41
1
10
-6.96761586971134
20
-0.426116302492147
30
0
41
1
10
-6.96912327073854
20
-0.432023475740436
30
0
41
1
10
-6.96942508964125
20
-0.434972492078259
30
0
41
1
10
-6.96904305703674
20
-0.440519738392709
30
0
41
1
10
-6.96837681671261
20
-0.44313609854143
30
0
41
1
10
-6.96505057587959
20
-0.450546752266519
30
0
41
1
10
-6.96127333729441
20
-0.454550304265439
30
0
41
1
10
-6.95423460305094
20
-0.459654605409497
30
0
41
1
10
-6.95163771382978
20
-0.461207412579711
30
0
41
1
10
-6.94617531052329
20
-0.464004555016857
30
0
41
1
10
-6.94329636121341
20
-0.465259768489347
30
0
41
1
10
-6.9343104346141
20
-0.468687677720766
30
0
41
1
10
-6.92784789140545
20
-0.470525557031891
30
0
41
1
10
-6.90791400683658
20
-0.475054351303299
30
0
41
1
10
-6.8937652828689
20
-0.476844350446214
30
0
41
1
10
-6.86452894475394
20
-0.479103966090861
30
0
41
1
10
-6.84957718700788
20
-0.479534942909794
30
0
41
1
10
-6.81927766291614
20
-0.479502300680736
30
0
41
1
10
-6.80391672916962
20
-0.479030439618185
30
0
41
1
10
-6.75736948056058
20
-0.476614959196013
30
0
41
1
10
-6.72600609437083
20
-0.473707937008868
30
0
41
1
10
-6.66283482364827
20
-0.466246113727465
30
0
41
1
10
-6.63100511188702
20
-0.461668317289963
30
0
41
1
10
-6.56705479949272
20
-0.451225942276523
30
0
41
1
10
-6.53505244750717
20
-0.44537695498147
30
0
41
1
10
-6.43896947048802
20
-0.426235064494222
30
0
41
1
10
-6.37481328661716
20
-0.411390584814342
30
0
41
1
10
-6.31056345909113
20
-0.394519052838348
30
0
0
SPLINE
5
170
100
AcDbEntity
8
1
62
256
6
ByLayer
370
18
48
1
60
0
100
AcDbSpline
70
4
71
3
72
8
73
4
40
0
40
0
40
0
40
0
40
1
40
1
40
1
40
1
41
1
10
-6.2229258812701
20
0.249980947141125
30
0
41
1
10
-6.4664938621694
20
0.0379233125644021
30
0
41
1
10
-6.70648353683777
20
-0.17713567176861
30
0
41
1
10
-6.94370199056442
20
-0.394519052830475
30
0
0
SPLINE
5
171
100
AcDbEntity
8
1
62
256
6
ByLayer
370
18
48
1
60
0
100
AcDbSpline
70
4
71
3
72
28
73
24
40
0
40
0
40
0
40
0
40
0.25
40
0.25
40
0.375
40
0.375
40
0.5
40
0.5
40
0.5625
40
0.5625
40
0.625
40
0.625
40
0.6875
40
0.6875
40
0.75
40
0.75
40
0.8125
40
0.8125
40
0.875
40
0.875
40
0.9375
40
0.9375
40
1
40
1
40
1
40
1
41
1
10
-6.32610759209319
20
0.324980947161663
30
0
41
1
10
-6.30894164051668
20
0.324980947161663
30
0
41
1
10
-6.29206351344482
20
0.324375867069932
30
0
41
1
10
-6.2674958893698
20
0.321930095246671
30
0
41
1
10
-6.25943326740037
20
0.320855188810611
30
0
41
1
10
-6.24369435696323
20
0.317921804204559
30
0
41
1
10
-6.23609002146523
20
0.316080959786547
30
0
41
1
10
-6.22550351037788
20
0.312439632077798
30
0
41
1
10
-6.22210698144579
20
0.31107607510512
30
0
41
1
10
-6.21568609914914
20
0.307929189855884
30
0
41
1
10
-6.21267351534163
20
0.30614672963037
30
0
41
1
10
-6.20738715966201
20
0.302109007415197
30
0
41
1
10
-6.20507139005912
20
0.299823372219606
30
0
41
1
10
-6.20153703134235
20
0.294630037775477
30
0
41
1
10
-6.20034973300679
20
0.29175406416806
30
0
41
1
10
-6.19947715640618
20
0.285483953660474
30
0
41
1
10
-6.19979992398484
20
0.282212586931053
30
0
41
1
10
-6.20188043678124
20
0.275412687019269
30
0
41
1
10
-6.20359999834165
20
0.272014335422199
30
0
41
1
10
-6.20799059239903
20
0.265341649736172
30
0
41
1
10
-6.21065250989122
20
0.262082766471423
30
0
41
1
10
-6.21643658084923
20
0.2558747816623
30
0
41
1
10
-6.21958846278596
20
0.252886604388976
30
0
41
1
10
-6.22292588127033
20
0.249980947140926
30
0
0
SPLINE
5
172
100
AcDbEntity
8
1
62
256
6
ByLayer
370
18
48
1
60
0
100
AcDbSpline
70
4
71
3
72
17
73
13
40
0
40
0
40
0
40
0
40
0.25
40
0.5
40
0.5
40
0.625
40
0.625
40
0.75
40
0.75
40
0.875
40
0.875
40
1
40
1
40
1
40
1
41
1
10
-7.15410175340969
20
0.249980947161816
30
0
41
1
10
-7.11949273474029
20
0.260870976065661
30
0
41
1
10
-7.05026156071182
20
0.280409342926959
30
0
41
1
10
-6.98098651916524
20
0.295834974764006
30
0
41
1
10
-6.92901200463668
20
0.305730156657234
30
0
41
1
10
-6.91168423969091
20
0.308745403149373
30
0
41
1
10
-6.87726105822412
20
0.314112278634411
30
0
41
1
10
-6.86013732462257
20
0.316470394553619
30
0
41
1
10
-6.82609666353443
20
0.320433354681313
30
0
41
1
10
-6.80917906795577
20
0.322040380930361
30
0
41
1
10
-6.77560867949242
20
0.324310745266985
30
0
41
1
10
-6.75895378391418
20
0.324980947161635
30
0
41
1
10
-6.74249188881703
20
0.324980947161663
30
0
0
SPLINE
5
173
100
AcDbEntity
8
1
62
256
6
ByLayer
370
18
48
1
60
0
100
AcDbSpline
70
4
71
3
72
8
73
4
40
0
40
0
40
0
40
0
40
1
40
1
40
1
40
1
41
1
10
-8.98692851463423
20
-0.394519052838319
30
0
41
1
10
-8.384783437259
20
-0.160922546217108
30
0
41
1
10
-7.77427580892314
20
0.0548377836275904
30
0
41
1
10
-7.15410175340971
20
0.249980947161674
30
0
0
SPLINE
5
174
100
AcDbEntity
8
1
62
256
6
ByLayer
370
18
48
1
60
0
100
AcDbSpline
70
4
71
3
72
38
73
34
40
0
40
0
40
0
40
0
40
0.0312499999999898
40
0.0312499999999898
40
0.0624999999999797
40
0.0624999999999797
40
0.0937499999999695
40
0.0937499999999695
40
0.124999999999959
40
0.124999999999959
40
0.140624999999957
40
0.140624999999957
40
0.156249999999955
40
0.156249999999955
40
0.187499999999958
40
0.187499999999958
40
0.21874999999996
40
0.21874999999996
40
0.249999999999963
40
0.249999999999963
40
0.312499999999968
40
0.312499999999968
40
0.374999999999973
40
0.374999999999973
40
0.437499999999978
40
0.437499999999978
40
0.499999999999984
40
0.499999999999984
40
0.62499999999999
40
0.62499999999999
40
0.749999999999997
40
0.749999999999997
40
1
40
1
40
1
40
1
41
1
10
-9.39538846339337
20
-0.394519052837154
30
0
41
1
10
-9.39931252043964
20
-0.398885595145714
30
0
41
1
10
-9.40294265258267
20
-0.403307302163142
30
0
41
1
10
-9.40943685546672
20
-0.41229412988929
30
0
41
1
10
-9.41232312472627
20
-0.416909228814092
30
0
41
1
10
-9.41685123823549
20
-0.425966268108198
30
0
41
1
10
-9.41852742540985
20
-0.430476184279087
30
0
41
1
10
-9.42034760074219
20
-0.439106172816139
30
0
41
1
10
-9.42048798744298
20
-0.44314609700092
30
0
41
1
10
-9.41953665683756
20
-0.448791861472614
30
0
41
1
10
-9.41901882100981
20
-0.450615689000983
30
0
41
1
10
-9.41763416504909
20
-0.454029340103233
30
0
41
1
10
-9.41676860092079
20
-0.455629436905042
30
0
41
1
10
-9.41370522919763
20
-0.460142637892375
30
0
41
1
10
-9.41101084625686
20
-0.462790271628421
30
0
41
1
10
-9.40475722197043
20
-0.467329854200074
30
0
41
1
10
-9.40121470148263
20
-0.469229096419326
30
0
41
1
10
-9.39349606281391
20
-0.472464916766313
30
0
41
1
10
-9.38930097964762
20
-0.473801534714227
30
0
41
1
10
-9.37622144042925
20
-0.477070148566497
30
0
41
1
10
-9.36677891891844
20
-0.478317730661246
30
0
41
1
10
-9.34696068021994
20
-0.479621526876542
30
0
41
1
10
-9.33658051127526
20
-0.479660016760334
30
0
41
1
10
-9.31547973767195
20
-0.478868132934792
30
0
41
1
10
-9.30470496885985
20
-0.478037327116795
30
0
41
1
10
-9.28280754864188
20
-0.475708447562795
30
0
41
1
10
-9.27164840317904
20
-0.474201921571563
30
0
41
1
10
-9.23811409009987
20
-0.468915971092088
30
0
41
1
10
-9.21561276810894
20
-0.464384190703157
30
0
41
1
10
-9.17039514074557
20
-0.453877630445248
30
0
41
1
10
-9.14767753970108
20
-0.447892731526878
30
0
41
1
10
-9.07924677772215
20
-0.428095750861701
30
0
41
1
10
-9.0332619564788
20
-0.412493674837833
30
0
41
1
10
-8.98692851463424
20
-0.394519052838433
30
0
0
SPLINE
5
175
100
AcDbEntity
8
1
62
256
6
ByLayer
370
18
48
1
60
0
100
AcDbSpline
70
4
71
3
72
8
73
4
40
0
40
0
40
0
40
0
40
1
40
1
40
1
40
1
41
1
10
-8.81287846405296
20
0.249980947156075
30
0
41
1
10
-9.0077785167926
20
0.0356424895419991
30
0
41
1
10
-9.20190632438599
20
-0.179219444300429
30
0
41
1
10
-9.3953884633876
20
-0.394519052838319
30
0
0
SPLINE
5
176
100
AcDbEntity
8
1
62
256
6
ByLayer
370
18
48
1
60
0
100
AcDbSpline
70
4
71
3
72
28
73
24
40
0
40
0
40
0
40
0
40
0.250000000000034
40
0.250000000000034
40
0.375000000000051
40
0.375000000000051
40
0.500000000000068
40
0.500000000000068
40
0.56250000000006
40
0.56250000000006
40
0.625000000000051
40
0.625000000000051
40
0.687500000000043
40
0.687500000000043
40
0.750000000000034
40
0.750000000000034
40
0.812500000000026
40
0.812500000000026
40
0.875000000000017
40
0.875000000000017
40
0.937500000000009
40
0.937500000000009
40
1
40
1
40
1
40
1
41
1
10
-8.86408179867614
20
0.32498094716226
30
0
41
1
10
-8.85129538935942
20
0.324980947162288
30
0
41
1
10
-8.83894481110521
20
0.324132477893812
30
0
41
1
10
-8.82221699514486
20
0.320757191484859
30
0
41
1
10
-8.81692618508798
20
0.319278475547208
30
0
41
1
10
-8.80719346932872
20
0.315274284744589
30
0
41
1
10
-8.80288537420067
20
0.312803317823807
30
0
41
1
10
-8.79764866346814
20
0.308104402530802
30
0
41
1
10
-8.79609940480194
20
0.306352422583814
30
0
41
1
10
-8.79358803963599
20
0.30253652057408
30
0
41
1
10
-8.79261865796576
20
0.30047339121117
30
0
41
1
10
-8.79132427301079
20
0.295998566424203
30
0
41
1
10
-8.7910071274629
20
0.293571945582585
30
0
41
1
10
-8.79108275102188
20
0.288549776175699
30
0
41
1
10
-8.79146539182057
20
0.285933125165428
30
0
41
1
10
-8.79290203059384
20
0.280494627087478
30
0
41
1
10
-8.7939535145245
20
0.277701759323776
30
0
41
1
10
-8.79656638697131
20
0.272147870695989
30
0
41
1
10
-8.79813432448745
20
0.269361345622173
30
0
41
1
10
-8.8017150992666
20
0.263772010194657
30
0
41
1
10
-8.80374131425185
20
0.260953956620313
30
0
41
1
10
-8.80809426650325
20
0.255412160239644
30
0
41
1
10
-8.81042372701616
20
0.252680507995592
30
0
41
1
10
-8.81287846405198
20
0.249980947155791
30
0
0
SPLINE
5
177
100
AcDbEntity
8
1
62
256
6
ByLayer
370
18
48
1
60
0
100
AcDbSpline
70
4
71
3
72
18
73
14
40
0
40
0
40
0
40
0
40
0.25000000000001
40
0.25000000000001
40
0.50000000000002
40
0.50000000000002
40
0.625000000000015
40
0.625000000000015
40
0.75000000000001
40
0.75000000000001
40
0.875000000000005
40
0.875000000000005
40
1
40
1
40
1
40
1
41
1
10
-9.42014604979883
20
0.249980947161703
30
0
41
1
10
-9.39555423460408
20
0.260573449959651
30
0
41
1
10
-9.3709080164588
20
0.270230194328264
30
0
41
1
10
-9.3220131721886
20
0.287558568041959
30
0
41
1
10
-9.29769042100244
20
0.295264739422521
30
0
41
1
10
-9.26141348776238
20
0.305221378626044
30
0
41
1
10
-9.2493560957974
20
0.308270592014963
30
0
41
1
10
-9.22532162877245
20
0.313754324838612
30
0
41
1
10
-9.2133096147253
20
0.31619590572825
30
0
41
1
10
-9.1895465968088
20
0.320303380454192
30
0
41
1
10
-9.17785494091432
20
0.321962244274403
30
0
41
1
10
-9.15494813399798
20
0.324297936899626
30
0
41
1
10
-9.14372986088286
20
0.32498094716118
30
0
41
1
10
-9.13284665392267
20
0.32498094716172
30
0
0
SPLINE
5
178
100
AcDbEntity
8
1
62
256
6
ByLayer
370
18
48
1
60
0
100
AcDbSpline
70
4
71
3
72
8
73
4
40
0
40
0
40
0
40
0
40
1
40
1
40
1
40
1
41
1
10
-10.8261977204866
20
-0.394519052838319
30
0
41
1
10
-10.3635024894917
20
-0.169886976943701
30
0
41
1
10
-9.89509800998098
20
0.045403532794694
30
0
41
1
10
-9.42014604979883
20
0.249980947161674
30
0
0
SPLINE
5
179
100
AcDbEntity
8
1
62
256
6
ByLayer
370
18
48
1
60
0
100
AcDbSpline
70
4
71
3
72
39
73
35
40
0
40
0
40
0
40
0
40
0.0624999999999838
40
0.0624999999999838
40
0.0937499999999786
40
0.0937499999999786
40
0.124999999999973
40
0.124999999999973
40
0.156249999999968
40
0.156249999999968
40
0.187499999999963
40
0.187499999999963
40
0.218749999999958
40
0.218749999999958
40
0.249999999999952
40
0.281249999999947
40
0.281249999999947
40
0.312499999999942
40
0.312499999999942
40
0.374999999999945
40
0.374999999999945
40
0.437499999999948
40
0.437499999999948
40
0.499999999999951
40
0.499999999999951
40
0.562499999999954
40
0.562499999999954
40
0.624999999999957
40
0.624999999999957
40
0.749999999999971
40
0.749999999999971
40
0.874999999999986
40
0.874999999999986
40
1
40
1
40
1
40
1
41
1
10
-11.1279670839746
20
-0.394519052838319
30
0
41
1
10
-11.1344994067131
20
-0.402327507790147
30
0
41
1
10
-11.1403381258876
20
-0.410305290730918
30
0
41
1
10
-11.147148000852
20
-0.421949799605244
30
0
41
1
10
-11.1491042633321
20
-0.425789142768139
30
0
41
1
10
-11.1522661294609
20
-0.433367252098947
30
0
41
1
10
-11.1534486470362
20
-0.43707126200934
30
0
41
1
10
-11.1548792054188
20
-0.444063384204014
30
0
41
1
10
-11.1551425423024
20
-0.447385299333632
30
0
41
1
10
-11.1547000127545
20
-0.453656662833254
30
0
41
1
10
-11.1540017219895
20
-0.456500109917954
30
0
41
1
10
-11.1517438299298
20
-0.461655824862362
30
0
41
1
10
-11.1501654640366
20
-0.463986118035706
30
0
41
1
10
-11.1462927930953
20
-0.468066856897167
30
0
41
1
10
-11.1417564108312
20
-0.471545769909596
30
0
41
1
10
-11.1361417146117
20
-0.474049581821959
30
0
41
1
10
-11.1300670569308
20
-0.476138633700827
30
0
41
1
10
-11.1267820133678
20
-0.476978430843047
30
0
41
1
10
-11.1164767895555
20
-0.478927144527404
30
0
41
1
10
-11.1090219945275
20
-0.479486703751746
30
0
41
1
10
-11.0932713386151
20
-0.479548725267819
30
0
41
1
10
-11.0849977650711
20
-0.479041057890981
30
0
41
1
10
-11.0681342039558
20
-0.477241484467243
30
0
41
1
10
-11.0594969792525
20
-0.475947166332247
30
0
41
1
10
-11.0418937770116
20
-0.472731225930374
30
0
41
1
10
-11.0329270751786
20
-0.47080817215442
30
0
41
1
10
-11.0147120130597
20
-0.466427265972556
30
0
41
1
10
-11.0054357249662
20
-0.463959959019945
30
0
41
1
10
-10.9775778122249
20
-0.455947419880573
30
0
41
1
10
-10.958882884293
20
-0.449784789803459
30
0
41
1
10
-10.9212952504409
20
-0.436148777585913
30
0
41
1
10
-10.9024018906364
20
-0.428670682946205
30
0
41
1
10
-10.8644350163225
20
-0.412508030361977
30
0
41
1
10
-10.8453613808028
20
-0.403822742416708
30
0
41
1
10
-10.8261977204866
20
-0.394519052838319
30
0
0
SPLINE
5
17A
100
AcDbEntity
8
1
62
256
6
ByLayer
370
18
48
1
60
0
100
AcDbSpline
70
4
71
3
72
8
73
4
40
0
40
0
40
0
40
0
40
1
40
1
40
1
40
1
41
1
10
-10.5881465384974
20
0.249980947159912
30
0
41
1
10
-10.7682360652239
20
0.0352414300963915
30
0
41
1
10
-10.9481691234914
20
-0.179596378150762
30
0
41
1
10
-11.1279670839745
20
-0.394519052838319
30
0
0
SPLINE
5
17B
100
AcDbEntity
8
1
62
256
6
ByLayer
370
18
48
1
60
0
100
AcDbSpline
70
4
71
3
72
22
73
18
40
0
40
0
40
0
40
0
40
0.125
40
0.125
40
0.25
40
0.25
40
0.375
40
0.375
40
0.5
40
0.5
40
0.625
40
0.625
40
0.75
40
0.75
40
0.875
40
0.875
40
1
40
1
40
1
40
1
41
1
10
-10.6124575382183
20
0.324980947163198
30
0
41
1
10
-10.6072496942067
20
0.324980947163254
30
0
41
1
10
-10.6022321565404
20
0.32471243842005
30
0
41
1
10
-10.5926877142222
20
0.323486343691656
30
0
41
1
10
-10.5882140101569
20
0.322533301974119
30
0
41
1
10
-10.5801191826616
20
0.319788199103215
30
0
41
1
10
-10.5764671398953
20
0.317988035234265
30
0
41
1
10
-10.5703512144501
20
0.313281206584975
30
0
41
1
10
-10.5679631001511
20
0.310436416643597
30
0
41
1
10
-10.5648541823852
20
0.303528393936119
30
0
41
1
10
-10.5642045954565
20
0.299573635406631
30
0
41
1
10
-10.5647901952416
20
0.290809930744786
30
0
41
1
10
-10.5660666715437
20
0.285914845664848
30
0
41
1
10
-10.5701679829123
20
0.275969703602755
30
0
41
1
10
-10.572985089628
20
0.27083784852482
30
0
41
1
10
-10.5798645746344
20
0.260343891665002
30
0
41
1
10
-10.5838159736942
20
0.255144731035841
30
0
41
1
10
-10.588146538497
20
0.249980947159855
30
0
0
SPLINE
5
17C
100
AcDbEntity
8
1
62
256
6
ByLayer
370
18
48
1
60
0
100
AcDbSpline
70
4
71
3
72
18
73
14
40
0
40
0
40
0
40
0
40
0.249999999999994
40
0.249999999999994
40
0.37499999999999
40
0.37499999999999
40
0.499999999999987
40
0.499999999999987
40
0.749999999999988
40
0.749999999999988
40
0.874999999999994
40
0.874999999999994
40
1
40
1
40
1
40
1
41
1
10
-11.0361737618139
20
0.249980947161674
30
0
41
1
10
-11.0164600587408
20
0.260339148990965
30
0
41
1
10
-10.9967579988524
20
0.269872232720218
30
0
41
1
10
-10.9672176050399
20
0.282909900397783
30
0
41
1
10
-10.9573700935551
20
0.28704319003694
30
0
41
1
10
-10.9378759446479
20
0.294780090670855
30
0
41
1
10
-10.9282051094205
20
0.298394950509135
30
0
41
1
10
-10.8994387758156
20
0.308419743129093
30
0
41
1
10
-10.8805796347571
20
0.314041022539698
30
0
41
1
10
-10.8529592725556
20
0.320261231068514
30
0
41
1
10
-10.8438730220195
20
0.321952441620653
30
0
41
1
10
-10.8264247732997
20
0.324303802427465
30
0
41
1
10
-10.8180111708273
20
0.324980947160952
30
0
41
1
10
-10.8100221617362
20
0.324980947161663
30
0
0
SPLINE
5
17D
100
AcDbEntity
8
1
62
256
6
ByLayer
370
18
48
1
60
0
100
AcDbSpline
70
4
71
3
72
8
73
4
40
0
40
0
40
0
40
0
40
1
40
1
40
1
40
1
41
1
10
-12.21262584537
20
-0.394519052838319
30
0
41
1
10
-11.8249154221808
20
-0.173606852417663
30
0
41
1
10
-11.4329616463351
20
0.0414960685943413
30
0
41
1
10
-11.0361737618139
20
0.249980947161674
30
0
0
SPLINE
5
17E
100
AcDbEntity
8
1
62
256
6
ByLayer
370
18
48
1
60
0
100
AcDbSpline
70
4
71
3
72
34
73
30
40
0
40
0
40
0
40
0
40
0.0624999999999971
40
0.0624999999999971
40
0.0937499999999958
40
0.0937499999999958
40
0.124999999999994
40
0.124999999999994
40
0.187499999999999
40
0.187499999999999
40
0.250000000000004
40
0.250000000000004
40
0.281250000000007
40
0.281250000000007
40
0.312500000000011
40
0.312500000000011
40
0.375000000000013
40
0.375000000000013
40
0.500000000000013
40
0.500000000000013
40
0.562500000000012
40
0.562500000000012
40
0.625000000000011
40
0.625000000000011
40
0.750000000000008
40
0.750000000000008
40
0.875000000000004
40
0.875000000000004
40
1
40
1
40
1
40
1
41
1
10
-12.4454802424852
20
-0.394519052838319
30
0
41
1
10
-12.4513585152093
20
-0.401708771010675
30
0
41
1
10
-12.4567374379799
20
-0.408956814071246
30
0
41
1
10
-12.4635248995896
20
-0.419510621874593
30
0
41
1
10
-12.4655825007594
20
-0.422985527209846
30
0
41
1
10
-12.4692288824021
20
-0.429837099363681
30
0
41
1
10
-12.470827460083
20
-0.433240182207101
30
0
41
1
10
-12.4747089449443
20
-0.443053990405275
30
0
41
1
10
-12.4760958204851
20
-0.449081203462839
30
0
41
1
10
-12.4761223246412
20
-0.459769092372454
30
0
41
1
10
-12.4747761141799
20
-0.464180222176765
30
0
41
1
10
-12.4709433497243
20
-0.469557994706776
30
0
41
1
10
-12.4693513853986
20
-0.471142526978696
30
0
41
1
10
-12.4657065335108
20
-0.473834537101368
30
0
41
1
10
-12.4636450953421
20
-0.47495820558143
30
0
41
1
10
-12.4568329303758
20
-0.477746501187454
30
0
41
1
10
-12.4514152534257
20
-0.478821439948945
30
0
41
1
10
-12.4339597259438
20
-0.480156666608053
30
0
41
1
10
-12.4205497597282
20
-0.478701530894455
30
0
41
1
10
-12.3987563531804
20
-0.474318017873884
30
0
41
1
10
-12.3912507161594
20
-0.47248177544077
30
0
41
1
10
-12.3760079072084
20
-0.46823433620375
30
0
41
1
10
-12.3682424193965
20
-0.465816634568256
30
0
41
1
10
-12.3445735365322
20
-0.457805604881315
30
0
41
1
10
-12.3282608368064
20
-0.451436957631131
30
0
41
1
10
-12.2956045495882
20
-0.437386982382037
30
0
41
1
10
-12.2791555920721
20
-0.42966862177019
30
0
41
1
10
-12.2460474242468
20
-0.413010889696807
30
0
41
1
10
-12.2293879167132
20
-0.404069856331262
30
0
41
1
10
-12.21262584537
20
-0.394519052838319
30
0
0
SPLINE
5
17F
100
AcDbEntity
8
1
62
256
6
ByLayer
370
18
48
1
60
0
100
AcDbSpline
70
4
71
3
72
8
73
4
40
0
40
0
40
0
40
0
40
1
40
1
40
1
40
1
41
1
10
-11.9185094462047
20
0.249980947160964
30
0
41
1
10
-12.0941736247425
20
0.0351520577178803
30
0
41
1
10
-12.2698302504261
20
-0.179681463779445
30
0
41
1
10
-12.4454802424852
20
-0.394519052838319
30
0
0
SPLINE
5
180
100
AcDbEntity
8
1
62
256
6
ByLayer
370
18
48
1
60
0
100
AcDbSpline
70
4
71
3
72
24
73
20
40
0
40
0
40
0
40
0
40
0.125000000000004
40
0.125000000000004
40
0.250000000000007
40
0.250000000000007
40
0.375000000000011
40
0.375000000000011
40
0.500000000000015
40
0.500000000000015
40
0.625000000000018
40
0.625000000000018
40
0.687500000000008
40
0.687500000000008
40
0.749999999999998
40
0.749999999999998
40
0.874999999999999
40
0.874999999999999
40
1
40
1
40
1
40
1
41
1
10
-11.9237814416148
20
0.32498094716172
30
0
41
1
10
-11.9194457489922
20
0.32498094716172
30
0
41
1
10
-11.9153564824701
20
0.324656618516968
30
0
41
1
10
-11.9079485979118
20
0.323240679223744
30
0
41
1
10
-11.9046064730613
20
0.322151899954548
30
0
41
1
10
-11.8988364705386
20
0.319015412178828
30
0
41
1
10
-11.8964381114454
20
0.316963130994338
30
0
41
1
10
-11.8929836812651
20
0.311879900363664
30
0
41
1
10
-11.8919008982491
20
0.308777598569009
30
0
41
1
10
-11.8912740901979
20
0.30175671223887
30
0
41
1
10
-11.8916984067636
20
0.29783744878452
30
0
41
1
10
-11.8934309418024
20
0.291353045960363
30
0
41
1
10
-11.8941940114109
20
0.289092391428142
30
0
41
1
10
-11.8960240148196
20
0.284507876358191
30
0
41
1
10
-11.8970946969524
20
0.282167946486851
30
0
41
1
10
-11.9007316163328
20
0.275018276597791
30
0
41
1
10
-11.9037537286026
20
0.270033424617793
30
0
41
1
10
-11.9105940690077
20
0.260025649179823
30
0
41
1
10
-11.9143984087424
20
0.255008549371979
30
0
41
1
10
-11.9185094462044
20
0.249980947160964
30
0
0
SPLINE
5
181
100
AcDbEntity
8
1
62
256
6
ByLayer
370
18
48
1
60
0
100
AcDbSpline
70
4
71
3
72
18
73
14
40
0
40
0
40
0
40
0
40
0.249999999999998
40
0.249999999999998
40
0.375000000000001
40
0.375000000000001
40
0.500000000000004
40
0.500000000000004
40
0.750000000000017
40
0.750000000000017
40
0.875000000000008
40
0.875000000000008
40
1
40
1
40
1
40
1
41
1
10
-12.2619374897427
20
0.249980947161703
30
0
41
1
10
-12.245175409905
20
0.260187306071572
30
0
41
1
10
-12.2284787618341
20
0.26964953894975
30
0
41
1
10
-12.2035319977382
20
0.282666955587643
30
0
41
1
10
-12.1952158399689
20
0.286815352002634
30
0
41
1
10
-12.1788139447434
20
0.294590398040583
30
0
41
1
10
-12.1707074902565
20
0.298228829183785
30
0
41
1
10
-12.1466956039984
20
0.308331973172642
30
0
41
1
10
-12.1310821815718
20
0.314018794774086
30
0
41
1
10
-12.1085189695399
20
0.320307354028302
30
0
41
1
10
-12.1012908516913
20
0.321980394436196
30
0
41
1
10
-12.0875370462495
20
0.324314999120077
30
0
41
1
10
-12.0810082550909
20
0.324980947161123
30
0
41
1
10
-12.0749439034001
20
0.32498094716172
30
0
0
SPLINE
5
182
100
AcDbEntity
8
1
62
256
6
ByLayer
370
18
48
1
60
0
100
AcDbSpline
70
4
71
3
72
8
73
4
40
0
40
0
40
0
40
0
40
1
40
1
40
1
40
1
41
1
10
-13.2887133686798
20
-0.394519052838319
30
0
41
1
10
-12.9498764087536
20
-0.175597332640279
30
0
41
1
10
-12.6077628641245
20
0.0394093519147987
30
0
41
1
10
-12.2619374897427
20
0.249980947161674
30
0
0
SPLINE
5
183
100
AcDbEntity
8
1
62
256
6
ByLayer
370
18
48
1
60
0
100
AcDbSpline
70
4
71
3
72
38
73
34
40
0
40
0
40
0
40
0
40
0.0625000000000038
40
0.0625000000000038
40
0.125000000000008
40
0.125000000000008
40
0.156250000000012
40
0.156250000000012
40
0.187500000000016
40
0.187500000000016
40
0.250000000000023
40
0.250000000000023
40
0.281250000000032
40
0.281250000000032
40
0.312500000000042
40
0.312500000000042
40
0.375000000000046
40
0.375000000000046
40
0.406250000000051
40
0.406250000000051
40
0.437500000000056
40
0.437500000000056
40
0.50000000000005
40
0.50000000000005
40
0.562500000000044
40
0.562500000000044
40
0.625000000000037
40
0.625000000000037
40
0.750000000000025
40
0.750000000000025
40
0.875000000000012
40
0.875000000000012
40
1
40
1
40
1
40
1
41
1
10
-13.4702748862137
20
-0.394519052838319
30
0
41
1
10
-13.4757943146983
20
-0.401252651663839
30
0
41
1
10
-13.4809501781441
20
-0.407998820378509
30
0
41
1
10
-13.4900398258229
20
-0.421090866571319
30
0
41
1
10
-13.4939949832354
20
-0.427453269472068
30
0
41
1
10
-13.4988176392413
20
-0.436652706244104
30
0
41
1
10
-13.5002379631945
20
-0.439666430659713
30
0
41
1
10
-13.5025893474109
20
-0.445402644548608
30
0
41
1
10
-13.503532127041
20
-0.448145570507194
30
0
41
1
10
-13.5056210814371
20
-0.455977741753941
30
0
41
1
10
-13.5059946892605
20
-0.460690215559282
30
0
41
1
10
-13.5049704660338
20
-0.466476927786175
30
0
41
1
10
-13.5043739139206
20
-0.468214962997223
30
0
41
1
10
-13.5026851457819
20
-0.471320945690934
30
0
41
1
10
-13.5015835740844
20
-0.472696292951213
30
0
41
1
10
-13.4976100463298
20
-0.476217282345146
30
0
41
1
10
-13.4941255566638
20
-0.477748652573382
30
0
41
1
10
-13.4878873439799
20
-0.479061483870908
30
0
41
1
10
-13.4856250849188
20
-0.47933332242323
30
0
41
1
10
-13.4808583852177
20
-0.479567589455002
30
0
41
1
10
-13.4783549901368
20
-0.479532351315839
30
0
41
1
10
-13.470530542591
20
-0.479028435196653
30
0
41
1
10
-13.4648977094209
20
-0.478164746212002
30
0
41
1
10
-13.4529523427325
20
-0.475578705664162
30
0
41
1
10
-13.4466202325066
20
-0.473845750572934
30
0
41
1
10
-13.433645567981
20
-0.469730324423097
30
0
41
1
10
-13.4269699921963
20
-0.467341554080946
30
0
41
1
10
-13.4064644692924
20
-0.459334429025461
30
0
41
1
10
-13.3920697914073
20
-0.452832519259857
30
0
41
1
10
-13.3631049887933
20
-0.438446193463477
30
0
41
1
10
-13.3484408250735
20
-0.430527273477111
30
0
41
1
10
-13.3188052716474
20
-0.413449436874572
30
0
41
1
10
-13.3038332306426
20
-0.4042879581867
30
0
41
1
10
-13.2887133686798
20
-0.394519052838348
30
0
0
SPLINE
5
184
100
AcDbEntity
8
1
62
256
6
ByLayer
370
18
48
1
60
0
100
AcDbSpline
70
4
71
3
72
8
73
4
40
0
40
0
40
0
40
0
40
1
40
1
40
1
40
1
41
1
10
-12.941904331197
20
0.249980947161362
30
0
41
1
10
-13.1180471579123
20
0.0351594867746314
30
0
41
1
10
-13.2941699218972
20
-0.179674312264069
30
0
41
1
10
-13.4702748862137
20
-0.394519052838319
30
0
0
SPLINE
5
185
100
AcDbEntity
8
1
62
256
6
ByLayer
370
18
48
1
60
0
100
AcDbSpline
70
4
71
3
72
23
73
19
40
0
40
0
40
0
40
0
40
0.124999999999995
40
0.124999999999995
40
0.24999999999999
40
0.24999999999999
40
0.374999999999984
40
0.374999999999984
40
0.499999999999979
40
0.562499999999982
40
0.562499999999982
40
0.624999999999985
40
0.624999999999985
40
0.74999999999999
40
0.74999999999999
40
0.874999999999995
40
0.874999999999995
40
1
40
1
40
1
40
1
41
1
10
-12.9317003032968
20
0.324980947161777
30
0
41
1
10
-12.9281546626962
20
0.324980947161777
30
0
41
1
10
-12.9249370215665
20
0.324620114170159
30
0
41
1
10
-12.9192871440886
20
0.323036678820301
30
0
41
1
10
-12.9168431622451
20
0.321793174571212
30
0
41
1
10
-12.9130939065335
20
0.318369971001488
30
0
41
1
10
-12.9117605960215
20
0.316192959110282
30
0
41
1
10
-12.9103315847485
20
0.310777985080392
30
0
41
1
10
-12.9102338827602
20
0.306085646339625
30
0
41
1
10
-12.9115299156306
20
0.300494947426273
30
0
41
1
10
-12.9127048890145
20
0.296567433923769
30
0
41
1
10
-12.9134525305583
20
0.294494826399216
30
0
41
1
10
-12.9160876840443
20
0.288143993684287
30
0
41
1
10
-12.9183740783399
20
0.283688995222491
30
0
41
1
10
-12.9238503710631
20
0.274403028467305
30
0
41
1
10
-12.9270609615909
20
0.26955094003489
30
0
41
1
10
-12.9340500009027
20
0.259832030827397
30
0
41
1
10
-12.9378497028419
20
0.254925918244197
30
0
41
1
10
-12.9419043311969
20
0.249980947161362
30
0
0
SPLINE
5
186
100
AcDbEntity
8
1
62
256
6
ByLayer
370
18
48
1
60
0
100
AcDbSpline
70
4
71
3
72
18
73
14
40
0
40
0
40
0
40
0
40
0.249999999999999
40
0.249999999999999
40
0.374999999999998
40
0.374999999999998
40
0.499999999999998
40
0.499999999999998
40
0.750000000000003
40
0.750000000000003
40
0.875000000000001
40
0.875000000000001
40
1
40
1
40
1
40
1
41
1
10
-13.2065548385552
20
0.249980947161674
30
0
41
1
10
-13.1918683483694
20
0.260045199607333
30
0
41
1
10
-13.1773484039918
20
0.269403809868607
30
0
41
1
10
-13.1558285169502
20
0.282316542817881
30
0
41
1
10
-13.1486989674189
20
0.286431559643603
30
0
41
1
10
-13.1345354389663
20
0.29424506725934
30
0
41
1
10
-13.1274676194249
20
0.297960016390789
30
0
41
1
10
-13.1067398789887
20
0.308231131630805
30
0
41
1
10
-13.0935302985871
20
0.313958174179788
30
0
41
1
10
-13.0749605537727
20
0.320259096726829
30
0
41
1
10
-13.0689460777358
20
0.321974818101211
30
0
41
1
10
-13.0578276924747
20
0.324325815519558
30
0
41
1
10
-13.0526835673824
20
0.324980947168598
30
0
41
1
10
-13.0480635116142
20
0.324980947169223
30
0
0
SPLINE
5
187
100
AcDbEntity
8
1
62
256
6
ByLayer
370
18
48
1
60
0
100
AcDbSpline
70
4
71
3
72
8
73
4
40
0
40
0
40
0
40
0
40
1
40
1
40
1
40
1
41
1
10
-14.1255646241437
20
-0.394519052838319
30
0
41
1
10
-13.8219161595784
20
-0.176810910131763
30
0
41
1
10
-13.5156891436444
20
0.0381396122572539
30
0
41
1
10
-13.2065548385552
20
0.249980947161674
30
0
0
SPLINE
5
188
100
AcDbEntity
8
1
62
256
6
ByLayer
370
18
48
1
60
0
100
AcDbSpline
70
4
71
3
72
36
73
32
40
0
40
0
40
0
40
0
40
0.0624999999999994
40
0.0624999999999994
40
0.124999999999999
40
0.124999999999999
40
0.187499999999999
40
0.187499999999999
40
0.218749999999998
40
0.218749999999998
40
0.249999999999998
40
0.249999999999998
40
0.312499999999998
40
0.312499999999998
40
0.374999999999997
40
0.374999999999997
40
0.437499999999997
40
0.437499999999997
40
0.499999999999997
40
0.499999999999997
40
0.562499999999996
40
0.562499999999996
40
0.624999999999996
40
0.624999999999996
40
0.687499999999995
40
0.687499999999995
40
0.749999999999995
40
0.749999999999995
40
0.874999999999997
40
0.874999999999997
40
1
40
1
40
1
40
1
41
1
10
-14.2655750866984
20
-0.394519052838319
30
0
41
1
10
-14.2709152318049
20
-0.400916772801736
30
0
41
1
10
-14.275978382755
20
-0.407293077501066
30
0
41
1
10
-14.2851987194409
20
-0.41968620333094
30
0
41
1
10
-14.2893548863108
20
-0.4256951480927
30
0
41
1
10
-14.2965819676909
20
-0.437266289211095
30
0
41
1
10
-14.2996681948549
20
-0.442875980593413
30
0
41
1
10
-14.303108097956
20
-0.450518030421819
30
0
41
1
10
-14.3040654324165
20
-0.452948725894231
30
0
41
1
10
-14.3055769996615
20
-0.457562174581426
30
0
41
1
10
-14.3061330482862
20
-0.459758935437492
30
0
41
1
10
-14.3071284482325
20
-0.465834428936034
30
0
41
1
10
-14.3069086232189
20
-0.469181053338957
30
0
41
1
10
-14.3047638284419
20
-0.474520523657986
30
0
41
1
10
-14.3028010571971
20
-0.476498487128254
30
0
41
1
10
-14.2974997750462
20
-0.478992735534973
30
0
41
1
10
-14.2941373580524
20
-0.4795548484297
30
0
41
1
10
-14.2862625152793
20
-0.479479731271681
30
0
41
1
10
-14.2818410972795
20
-0.478850703577962
30
0
41
1
10
-14.2722259261514
20
-0.476650936816839
30
0
41
1
10
-14.2670211051816
20
-0.475074458444681
30
0
41
1
10
-14.2559794178474
20
-0.471119640285877
30
0
41
1
10
-14.2502293710657
20
-0.468773718754022
30
0
41
1
10
-14.2383514182247
20
-0.463474796430233
30
0
41
1
10
-14.2322228540822
20
-0.460520725310033
30
0
41
1
10
-14.2196336197054
20
-0.454078795623701
30
0
41
1
10
-14.2131449243124
20
-0.450573991117722
30
0
41
1
10
-14.1935390957799
20
-0.439506751248615
30
0
41
1
10
-14.1802225014732
20
-0.431373754650593
30
0
41
1
10
-14.1531891256639
20
-0.413867112124933
30
0
41
1
10
-14.1394710770359
20
-0.404489622046128
30
0
41
1
10
-14.1255646241437
20
-0.394519052838348
30
0
0
SPLINE
5
189
100
AcDbEntity
8
1
62
256
6
ByLayer
370
18
48
1
60
0
100
AcDbSpline
70
4
71
3
72
8
73
4
40
0
40
0
40
0
40
0
40
1
40
1
40
1
40
1
41
1
10
-13.7271595028412
20
0.249980947161504
30
0
41
1
10
-13.9067347108406
20
0.035212365746446
30
0
41
1
10
-14.0862027304346
20
-0.179623374600055
30
0
41
1
10
-14.2655750866984
20
-0.394519052838319
30
0
0
SPLINE
5
18A
100
AcDbEntity
8
1
62
256
6
ByLayer
370
18
48
1
60
0
100
AcDbSpline
70
4
71
3
72
22
73
18
40
0
40
0
40
0
40
0
40
0.125
40
0.125
40
0.25
40
0.25
40
0.375
40
0.375
40
0.5
40
0.5
40
0.625
40
0.625
40
0.75
40
0.75
40
0.875
40
0.875
40
1
40
1
40
1
40
1
41
1
10
-13.7033273915927
20
0.324980947161748
30
0
41
1
10
-13.7004864228397
20
0.324980947161748
30
0
41
1
10
-13.6980030233289
20
0.324572230027599
30
0
41
1
10
-13.6939679064125
20
0.322810804878543
30
0
41
1
10
-13.6924447562857
20
0.321476351282882
30
0
41
1
10
-13.6904692852739
20
0.317827037319802
30
0
41
1
10
-13.6900300661805
20
0.315476875300789
30
0
41
1
10
-13.6903199496591
20
0.309978932734452
30
0
41
1
10
-13.6910284293274
20
0.306819145366944
30
0
41
1
10
-13.6935353207012
20
0.299707252978692
30
0
41
1
10
-13.6953495169543
20
0.295745119605016
30
0
41
1
10
-13.699812285762
20
0.28745655426502
30
0
41
1
10
-13.7024739620711
20
0.283086608544579
30
0
41
1
10
-13.7085556247414
20
0.273950228042338
30
0
41
1
10
-13.711950430119
20
0.269226009096144
30
0
41
1
10
-13.719197862038
20
0.259701365260099
30
0
41
1
10
-13.7230711169545
20
0.254870580017581
30
0
41
1
10
-13.7271595028412
20
0.249980947161532
30
0
0
SPLINE
5
18B
100
AcDbEntity
8
1
62
256
6
ByLayer
370
18
48
1
60
0
100
AcDbSpline
70
4
71
3
72
16
73
12
40
0
40
0
40
0
40
0
40
0.250000000000002
40
0.250000000000002
40
0.500000000000005
40
0.500000000000005
40
0.750000000000007
40
0.750000000000007
40
0.875000000000004
40
0.875000000000004
40
1
40
1
40
1
40
1
41
1
10
-13.9273497265336
20
0.249980947161703
30
0
41
1
10
-13.9141383585476
20
0.259977683504246
30
0
41
1
10
-13.9010856072335
20
0.269365680292793
30
0
41
1
10
-13.8756867854771
20
0.28656085067152
30
0
41
1
10
-13.8632846302391
20
0.294416067556767
30
0
41
1
10
-13.8392323105369
20
0.308231113448926
30
0
41
1
10
-13.8279050504171
20
0.314006523917897
30
0
41
1
10
-13.8124983254929
20
0.32030184506749
30
0
41
1
10
-13.8075818891419
20
0.322012470654784
30
0
41
1
10
-13.7987038822678
20
0.324343969769728
30
0
41
1
10
-13.7947211231747
20
0.324980947163453
30
0
41
1
10
-13.791289009236
20
0.324980947163681
30
0
0
SPLINE
5
18C
100
AcDbEntity
8
1
62
256
6
ByLayer
370
18
48
1
60
0
100
AcDbSpline
70
4
71
3
72
40
73
36
40
0
40
0
40
0
40
0
40
0.0312499999999997
40
0.0312499999999997
40
0.0624999999999994
40
0.0624999999999994
40
0.124999999999999
40
0.124999999999999
40
0.249999999999998
40
0.249999999999998
40
0.265624999999997
40
0.265624999999997
40
0.281249999999997
40
0.281249999999997
40
0.312499999999997
40
0.312499999999997
40
0.374999999999997
40
0.374999999999997
40
0.499999999999997
40
0.499999999999997
40
0.531249999999997
40
0.531249999999997
40
0.562499999999997
40
0.562499999999997
40
0.624999999999997
40
0.624999999999997
40
0.749999999999998
40
0.749999999999998
40
0.812499999999998
40
0.812499999999998
40
0.843749999999998
40
0.843749999999998
40
0.874999999999999
40
0.874999999999999
40
1
40
1
40
1
40
1
41
1
10
-3.74992657561771
20
-17.3500734243823
30
0
41
1
10
-3.72323384604442
20
-17.3439117348643
30
0
41
1
10
-3.6975212631047
20
-17.3375770793139
30
0
41
1
10
-3.64854428395387
20
-17.3246758842454
30
0
41
1
10
-3.62521925419964
20
-17.318096204222
30
0
41
1
10
-3.55867824985995
20
-17.2979620996287
30
0
41
1
10
-3.51889107629211
20
-17.2840128021195
30
0
41
1
10
-3.41300053297181
20
-17.2405162418467
30
0
41
1
10
-3.36028554834169
20
-17.2093246047595
30
0
41
1
10
-3.32147318098569
20
-17.1715104344814
30
0
41
1
10
-3.31744704574532
20
-17.1672709426607
30
0
41
1
10
-3.30997184802982
20
-17.1587150711578
30
0
41
1
10
-3.3065195295442
20
-17.1543939784217
30
0
41
1
10
-3.29706261948914
20
-17.1413519785619
30
0
41
1
10
-3.29195971848216
20
-17.1325598530171
30
0
41
1
10
-3.28018947533869
20
-17.1058927364984
30
0
41
1
10
-3.27705503946075
20
-17.0877269735258
30
0
41
1
10
-3.28146854383712
20
-17.0320807935405
30
0
41
1
10
-3.30274910754832
20
-16.9934507343145
30
0
41
1
10
-3.35250389029179
20
-16.9433038460835
30
0
41
1
10
-3.3636192746489
20
-16.9331815616783
30
0
41
1
10
-3.3882124600394
20
-16.9127528573853
30
0
41
1
10
-3.40170655913118
20
-16.9024385048725
30
0
41
1
10
-3.44538687136875
20
-16.8714936825814
30
0
41
1
10
-3.47886081168289
20
-16.850774932979
30
0
41
1
10
-3.59201366977823
20
-16.7884356759337
30
0
41
1
10
-3.68434536715117
20
-16.7466268036087
30
0
41
1
10
-3.84833489839738
20
-16.6839560218821
30
0
41
1
10
-3.90726614658803
20
-16.6630740599382
30
0
41
1
10
-4.00227149900871
20
-16.6318296986178
30
0
41
1
10
-4.03487127456566
20
-16.6214850117739
30
0
41
1
10
-4.10179309486145
20
-16.6009813293265
30
0
41
1
10
-4.1361332683143
20
-16.5908163668523
30
0
41
1
10
-4.31218056216943
20
-16.5404503611103
30
0
41
1
10
-4.46684476652979
20
-16.5016144965582
30
0
41
1
10
-4.63536691002494
20
-16.464633089975
30
0
0
SPLINE
5
18D
100
AcDbEntity
8
1
62
256
6
ByLayer
370
18
48
1
60
0
100
AcDbSpline
70
4
71
3
72
77
73
73
40
0
40
0
40
0
40
0
40
0.0156347811241565
40
0.0156347811241565
40
0.031269562248313
40
0.031269562248313
40
0.0625391244966261
40
0.0625391244966261
40
0.125078248993252
40
0.125078248993252
40
0.140713030117409
40
0.140713030117409
40
0.156347811241565
40
0.156347811241565
40
0.187617373489879
40
0.187617373489879
40
0.250156497986505
40
0.250156497986505
40
0.257973888548583
40
0.257973888548583
40
0.265791279110661
40
0.281426060234818
40
0.281426060234818
40
0.312695622483131
40
0.343965184731444
40
0.343965184731444
40
0.359599965855601
40
0.359599965855601
40
0.375234746979758
40
0.375234746979758
40
0.437773871476385
40
0.437773871476385
40
0.469043433724698
40
0.469043433724698
40
0.484678214848854
40
0.484678214848854
40
0.500312995973011
40
0.500312995973011
40
0.562852120469638
40
0.562852120469638
40
0.594121682717951
40
0.594121682717951
40
0.60193907328003
40
0.60193907328003
40
0.609756463842108
40
0.625391244966265
40
0.625391244966265
40
0.687930369462892
40
0.687930369462892
40
0.703565150587049
40
0.703565150587049
40
0.719199931711205
40
0.719199931711205
40
0.750469493959519
40
0.750469493959519
40
0.813008618456146
40
0.813008618456146
40
0.820826009018224
40
0.820826009018224
40
0.828643399580302
40
0.828643399580302
40
0.844278180704459
40
0.844278180704459
40
0.875547742952772
40
0.875547742952772
40
0.938086867449399
40
0.938086867449399
40
0.953721648573555
40
0.953721648573555
40
0.969356429697712
40
0.969356429697712
40
1
40
1
40
1
40
1
41
1
10
2.59364955325393
20
-17.674066822922
30
0
41
1
10
2.58743801161586
20
-17.6738226800933
30
0
41
1
10
2.58029621111211
20
-17.6735309838407
30
0
41
1
10
2.56412185695007
20
-17.6728533322613
30
0
41
1
10
2.55506125328173
20
-17.6724661512144
30
0
41
1
10
2.52523982473858
20
-17.6711759161606
30
0
41
1
10
2.50185468568748
20
-17.6701448282141
30
0
41
1
10
2.42149243182846
20
-17.6665982251703
30
0
41
1
10
2.35439343786717
20
-17.6636289920193
30
0
41
1
10
2.25331123797969
20
-17.6593539651833
30
0
41
1
10
2.2322107502514
20
-17.6584701161811
30
0
41
1
10
2.18830902240427
20
-17.6566540367829
30
0
41
1
10
2.16564780048679
20
-17.6557276035482
30
0
41
1
10
2.09557528421018
20
-17.6529037074832
30
0
41
1
10
2.04607955309814
20
-17.6509617050934
30
0
41
1
10
1.88941831626198
20
-17.6450388102881
30
0
41
1
10
1.77414942984586
20
-17.6409601188894
30
0
41
1
10
1.63184433365754
20
-17.6364675828663
30
0
41
1
10
1.61583790713092
20
-17.6359692286927
30
0
41
1
10
1.58362393894401
20
-17.6349808719743
30
0
41
1
10
1.53496082529026
20
-17.6335095402449
30
0
41
1
10
1.48528225107336
20
-17.6320752102173
30
0
41
1
10
1.38459181159274
20
-17.6292646653341
30
0
41
1
10
1.2467879875382
20
-17.6256723698957
30
0
41
1
10
1.10196457234468
20
-17.622480754317
30
0
41
1
10
0.990677517693939
20
-17.6202711547957
30
0
41
1
10
0.95313621991491
20
-17.6195653110292
30
0
41
1
10
0.877147403317849
20
-17.6182207818074
30
0
41
1
10
0.838602199228234
20
-17.6175806991758
30
0
41
1
10
0.645319060806429
20
-17.6145891487801
30
0
41
1
10
0.48827997068409
20
-17.6128496900089
30
0
41
1
10
0.249214289101673
20
-17.6113256547127
30
0
41
1
10
0.16893745889945
20
-17.6109983786723
30
0
41
1
10
0.0476197513500551
20
-17.6107912484307
30
0
41
1
10
0.006978713256018
20
-17.6107695433985
30
0
41
1
10
-0.0743901393864235
20
-17.6108227194605
30
0
41
1
10
-0.114905330131052
20
-17.6108973337432
30
0
41
1
10
-0.316651712402774
20
-17.6115045928221
30
0
41
1
10
-0.47541502255288
20
-17.6127398386817
30
0
41
1
10
-0.709667410901915
20
-17.6156047812786
30
0
41
1
10
-0.787098737970496
20
-17.616728442785
30
0
41
1
10
-0.883046274387823
20
-17.6183315130243
30
0
41
1
10
-0.902207010444755
20
-17.6186623127586
30
0
41
1
10
-0.940247725174515
20
-17.619339844602
30
0
41
1
10
-0.996956219008524
20
-17.6203811409456
30
0
41
1
10
-1.05261836121059
20
-17.6214940505182
30
0
41
1
10
-1.23586921880755
20
-17.6253482013732
30
0
41
1
10
-1.37520072347254
20
-17.6288938675952
30
0
41
1
10
-1.54025691860215
20
-17.6336730633985
30
0
41
1
10
-1.57280914234209
20
-17.6346462320691
30
0
41
1
10
-1.63698015850162
20
-17.6366212207754
30
0
41
1
10
-1.66866544631162
20
-17.637625297703
30
0
41
1
10
-1.7614056053601
20
-17.6406419054052
30
0
41
1
10
-1.82037935256579
20
-17.6426653083208
30
0
41
1
10
-1.98897933197225
20
-17.6486912104037
30
0
41
1
10
-2.09035396388245
20
-17.6526502128815
30
0
41
1
10
-2.191740700222
20
-17.6567976304977
30
0
41
1
10
-2.20282858154624
20
-17.6572541819704
30
0
41
1
10
-2.22464621282586
20
-17.6581578626362
30
0
41
1
10
-2.23538955865894
20
-17.6586055631985
30
0
41
1
10
-2.26696188530826
20
-17.6599283929494
30
0
41
1
10
-2.28712269713728
20
-17.6607827538872
30
0
41
1
10
-2.34499396578875
20
-17.663256017748
30
0
41
1
10
-2.3800987536402
20
-17.6647850748719
30
0
41
1
10
-2.47518260990284
20
-17.6689567917486
30
0
41
1
10
-2.52502005980205
20
-17.6711848369872
30
0
41
1
10
-2.56971510056945
20
-17.6730897375792
30
0
41
1
10
-2.57774096799707
20
-17.6734255105093
30
0
41
1
10
-2.59188747571704
20
-17.6740007552018
30
0
41
1
10
-2.59802347859582
20
-17.674240885611
30
0
41
1
10
-2.61342894458943
20
-17.6748089290182
30
0
41
1
10
-2.62005767320412
20
-17.6749998310092
30
0
41
1
10
-2.6230905203434
20
-17.6749999998994
30
0
0
SPLINE
5
18E
100
AcDbEntity
8
1
62
256
6
ByLayer
370
18
48
1
60
0
100
AcDbSpline
70
4
71
3
72
36
73
32
40
0
40
0
40
0
40
0
40
0.130787308220169
40
0.130787308220169
40
0.196180962330253
40
0.196180962330253
40
0.228877789385297
40
0.228877789385297
40
0.261574616440341
40
0.261574616440341
40
0.392361924660507
40
0.392361924660507
40
0.457755578770588
40
0.457755578770588
40
0.490452405825631
40
0.490452405825631
40
0.523149232880673
40
0.523149232880673
40
0.653936541100846
40
0.653936541100846
40
0.719330195210932
40
0.719330195210932
40
0.752027022265975
40
0.752027022265975
40
0.784723849321018
40
0.784723849321018
40
0.915511157541188
40
0.915511157541188
40
0.980904811651273
40
0.980904811651273
40
1
40
1
40
1
40
1
41
1
10
17.35
20
-17.6388420194118
30
0
41
1
10
17.2040716075439
20
-17.6388420194118
30
0
41
1
10
17.0603045155753
20
-17.6393306032932
30
0
41
1
10
16.8477592999774
20
-17.6407238881232
30
0
41
1
10
16.7774315219363
20
-17.6412982380314
30
0
41
1
10
16.6727304746526
20
-17.6423138075173
30
0
41
1
10
16.6379620782489
20
-17.6426779899127
30
0
41
1
10
16.5686930981542
20
-17.6434556587753
30
0
41
1
10
16.5341168451118
20
-17.6438701271271
30
0
41
1
10
16.3628657828827
20
-17.6460480427928
30
0
41
1
10
16.2320703602981
20
-17.6481129725886
30
0
41
1
10
16.0448369264334
20
-17.6514923589667
30
0
41
1
10
15.9839277809212
20
-17.6526657985701
30
0
41
1
10
15.8948506063335
20
-17.6544697064264
30
0
41
1
10
15.8655398367126
20
-17.6550782832789
30
0
41
1
10
15.807693840446
20
-17.6563052605912
30
0
41
1
10
15.7790982737773
20
-17.6569250267409
30
0
41
1
10
15.6393274641921
20
-17.6600086286079
30
0
41
1
10
15.5370223194666
20
-17.6624402061245
30
0
41
1
10
15.3973717350714
20
-17.6657953423165
30
0
41
1
10
15.3531359972441
20
-17.6668650490679
30
0
41
1
10
15.2903152948286
20
-17.6683654493765
30
0
41
1
10
15.2699647035375
20
-17.6688482059943
30
0
41
1
10
15.2304634935069
20
-17.6697734951064
30
0
41
1
10
15.2113166821353
20
-17.6702158838901
30
0
41
1
10
15.1195269561557
20
-17.6722937591164
30
0
41
1
10
15.057827733524
20
-17.6735460048689
30
0
41
1
10
14.9823986431492
20
-17.6746391356829
30
0
41
1
10
14.9601251477747
20
-17.6748726667923
30
0
41
1
10
14.9351301998566
20
-17.6749862776827
30
0
41
1
10
14.9297311096644
20
-17.6749995361453
30
0
41
1
10
14.9245847546242
20
-17.6749999891834
30
0
0
SPLINE
5
18F
100
AcDbEntity
8
1
62
256
6
ByLayer
370
18
48
1
60
0
100
AcDbSpline
70
4
71
3
72
14
73
10
40
0
40
0
40
0
40
0
40
0.500000000000018
40
0.500000000000018
40
0.625000000000013
40
0.625000000000013
40
0.750000000000009
40
0.750000000000009
40
1
40
1
40
1
40
1
41
1
10
19.4945467773038
20
-17.6433253774251
30
0
41
1
10
19.3584852473877
20
-17.6418991895614
30
0
41
1
10
19.2199314455752
20
-17.6407738662898
30
0
41
1
10
19.0435732875172
20
-17.6398173025276
30
0
41
1
10
19.0081426110396
20
-17.6396484394013
30
0
41
1
10
18.9369588070121
20
-17.6393572615004
30
0
41
1
10
18.9011603782769
20
-17.6392348396878
30
0
41
1
10
18.7936575952332
20
-17.6389407210367
30
0
41
1
10
18.7218822657076
20
-17.6388420194118
30
0
41
1
10
18.65
20
-17.6388420194118
30
0
0
SPLINE
5
190
100
AcDbEntity
8
1
62
256
6
ByLayer
370
18
48
1
60
0
100
AcDbSpline
70
4
71
3
72
8
73
4
40
0
40
0
40
0
40
0
40
1
40
1
40
1
40
1
41
1
10
19.8919848877834
20
-17.6426299663285
30
0
41
1
10
19.758172804707
20
-17.6425670980754
30
0
41
1
10
19.6257118428761
20
-17.6428061404044
30
0
41
1
10
19.4945467773038
20
-17.6433253774251
30
0
0
SPLINE
5
191
100
AcDbEntity
8
1
62
256
6
ByLayer
370
18
48
1
60
0
100
AcDbSpline
70
4
71
3
72
130
73
126
40
0
40
0
40
0
40
0
40
0.0156250000000004
40
0.0156250000000004
40
0.0234375000000006
40
0.0234375000000006
40
0.0312500000000007
40
0.0312500000000007
40
0.0625000000000011
40
0.0625000000000011
40
0.0781250000000014
40
0.0781250000000014
40
0.0859375000000013
40
0.0859375000000013
40
0.0937500000000013
40
0.0937500000000013
40
0.125000000000001
40
0.125000000000001
40
0.140625000000001
40
0.140625000000001
40
0.148437500000001
40
0.148437500000001
40
0.156250000000001
40
0.156250000000001
40
0.187500000000001
40
0.187500000000001
40
0.203125000000001
40
0.203125000000001
40
0.210937500000001
40
0.210937500000001
40
0.218750000000001
40
0.218750000000001
40
0.25
40
0.25
40
0.265624999999999
40
0.265624999999999
40
0.273437499999999
40
0.273437499999999
40
0.281249999999999
40
0.281249999999999
40
0.312499999999997
40
0.312499999999997
40
0.328124999999997
40
0.328124999999997
40
0.343749999999996
40
0.343749999999996
40
0.374999999999996
40
0.374999999999996
40
0.382812499999996
40
0.382812499999996
40
0.390624999999995
40
0.390624999999995
40
0.406249999999995
40
0.406249999999995
40
0.437499999999994
40
0.437499999999994
40
0.445312499999994
40
0.445312499999994
40
0.453124999999994
40
0.453124999999994
40
0.468749999999993
40
0.468749999999993
40
0.499999999999993
40
0.499999999999993
40
0.507812499999992
40
0.507812499999992
40
0.515624999999992
40
0.531249999999992
40
0.531249999999992
40
0.562499999999991
40
0.562499999999991
40
0.57031249999999
40
0.57031249999999
40
0.57812499999999
40
0.59374999999999
40
0.609374999999989
40
0.609374999999989
40
0.617187499999989
40
0.617187499999989
40
0.624999999999989
40
0.624999999999989
40
0.656249999999991
40
0.656249999999991
40
0.664062499999991
40
0.664062499999991
40
0.671874999999991
40
0.687499999999992
40
0.687499999999992
40
0.718749999999992
40
0.718749999999992
40
0.726562499999993
40
0.726562499999993
40
0.734374999999993
40
0.749999999999993
40
0.765624999999994
40
0.765624999999994
40
0.773437499999994
40
0.773437499999994
40
0.781249999999995
40
0.781249999999995
40
0.812499999999995
40
0.812499999999995
40
0.828124999999996
40
0.828124999999996
40
0.835937499999996
40
0.835937499999996
40
0.843749999999996
40
0.843749999999996
40
0.874999999999997
40
0.874999999999997
40
0.890624999999997
40
0.890624999999997
40
0.898437499999997
40
0.898437499999997
40
0.906249999999997
40
0.906249999999997
40
0.937499999999998
40
0.937499999999998
40
0.953124999999999
40
0.953124999999999
40
0.960937499999999
40
0.960937499999999
40
0.968749999999999
40
0.968749999999999
40
1
40
1
40
1
40
1
41
1
10
5.86197479331003
20
-17.2236282700834
30
0
41
1
10
5.8908178049335
20
-17.2291674492727
30
0
41
1
10
5.91785457464786
20
-17.2348252981338
30
0
41
1
10
5.95567506790618
20
-17.243477963617
30
0
41
1
10
5.96782545825263
20
-17.2463898856834
30
0
41
1
10
5.99120085736266
20
-17.2522677228577
30
0
41
1
10
6.00244522238808
20
-17.2552390795434
30
0
41
1
10
6.05608345820033
20
-17.2701654061783
30
0
41
1
10
6.0902596733211
20
-17.282168052264
30
0
41
1
10
6.12893341557267
20
-17.3001847398708
30
0
41
1
10
6.1397133723699
20
-17.3061928907556
30
0
41
1
10
6.15266671897254
20
-17.3152027697929
30
0
41
1
10
6.15644762188583
20
-17.3182056950299
30
0
41
1
10
6.16291751521854
20
-17.3242100506557
30
0
41
1
10
6.16560816181109
20
-17.3272168441277
30
0
41
1
10
6.17618931938623
20
-17.3421039388698
30
0
41
1
10
6.17566466342279
20
-17.3536394496487
30
0
41
1
10
6.16177672605721
20
-17.3703994244137
30
0
41
1
10
6.15495095187518
20
-17.375895429697
30
0
41
1
10
6.14134832343365
20
-17.3840048597848
30
0
41
1
10
6.13625263178687
20
-17.3866855681351
30
0
41
1
10
6.12491623447434
20
-17.3920022838526
30
0
41
1
10
6.1186908550099
20
-17.3946298597074
30
0
41
1
10
6.08500954484617
20
-17.4075354671387
30
0
41
1
10
6.04978028029467
20
-17.4172020015381
30
0
41
1
10
5.98476040936413
20
-17.4308145203056
30
0
41
1
10
5.96104596526189
20
-17.4352035234989
30
0
41
1
10
5.92233480786055
20
-17.4415715791013
30
0
41
1
10
5.90887984117782
20
-17.4436622717943
30
0
41
1
10
5.88102611399728
20
-17.447754090147
30
0
41
1
10
5.86667324410078
20
-17.4497489712511
30
0
41
1
10
5.79281709494265
20
-17.4594788552191
30
0
41
1
10
5.72708714711965
20
-17.46648561282
30
0
41
1
10
5.61865141131139
20
-17.4759650819794
30
0
41
1
10
5.58085656241047
20
-17.4789520845492
30
0
41
1
10
5.52161671320837
20
-17.4831812817377
30
0
41
1
10
5.50141238979788
20
-17.4845508390655
30
0
41
1
10
5.46054754801511
20
-17.4871812126123
30
0
41
1
10
5.43984367742681
20
-17.4884453491511
30
0
41
1
10
5.33498872496293
20
-17.4945209106799
30
0
41
1
10
5.24686213268637
20
-17.4986037778711
30
0
41
1
10
5.10833740913452
20
-17.5036699744665
30
0
41
1
10
5.06110063095971
20
-17.5051810288942
30
0
41
1
10
4.96443062076185
20
-17.5078498198939
30
0
41
1
10
4.91569013274079
20
-17.508988298834
30
0
41
1
10
4.76851029403088
20
-17.5118456801675
30
0
41
1
10
4.66902234065196
20
-17.5130150706125
30
0
41
1
10
4.54294412125194
20
-17.5135821833357
30
0
41
1
10
4.51764192656134
20
-17.513650404011
30
0
41
1
10
4.46686160479692
20
-17.5136951375798
30
0
41
1
10
4.44132147046122
20
-17.5136713627799
30
0
41
1
10
4.36509830747707
20
-17.5134618102123
30
0
41
1
10
4.31470632904623
20
-17.5131392822817
30
0
41
1
10
4.16476503795988
20
-17.5116338497668
30
0
41
1
10
4.06644078015373
20
-17.5099190693371
30
0
41
1
10
3.94561168855284
20
-17.5068309516165
30
0
41
1
10
3.92155045272713
20
-17.5061656168235
30
0
41
1
10
3.8736411180895
20
-17.5047361178102
30
0
41
1
10
3.84988685239688
20
-17.5039745562093
30
0
41
1
10
3.77960103809551
20
-17.5015611621374
30
0
41
1
10
3.73388366779838
20
-17.4997761957054
30
0
41
1
10
3.60007212352818
20
-17.4938820435185
30
0
41
1
10
3.51529223133679
20
-17.4892391103802
30
0
41
1
10
3.41499004488645
20
-17.4824272668647
30
0
41
1
10
3.39516650059954
20
-17.4810102591372
30
0
41
1
10
3.35638759599382
20
-17.4780916093521
30
0
41
1
10
3.29953132326537
20
-17.4735886663142
30
0
41
1
10
3.24653131624953
20
-17.4687068848911
30
0
41
1
10
3.14557829408929
20
-17.458417127686
30
0
41
1
10
3.08496530755943
20
-17.4508600657794
30
0
41
1
10
3.0178489912343
20
-17.4404118427686
30
0
41
1
10
3.00488556956634
20
-17.4382748405127
30
0
41
1
10
2.98008202121372
20
-17.4339400686374
30
0
41
1
10
2.94446751073966
20
-17.4273321121369
30
0
41
1
10
2.8929224452512
20
-17.4157828946181
30
0
41
1
10
2.85990557918777
20
-17.4059493069944
30
0
41
1
10
2.83825534035387
20
-17.3983395782826
30
0
41
1
10
2.83155807352523
20
-17.3957638749596
30
0
41
1
10
2.81921687036845
20
-17.3905317930311
30
0
41
1
10
2.81356500670506
20
-17.3878711123451
30
0
41
1
10
2.78808551820904
20
-17.3744098905833
30
0
41
1
10
2.7766914159557
20
-17.3632400172921
30
0
41
1
10
2.77360615825839
20
-17.3487561543135
30
0
41
1
10
2.77355346069567
20
-17.3458280253032
30
0
41
1
10
2.77457378497721
20
-17.3399620720635
30
0
41
1
10
2.77778605441429
20
-17.3311381411916
30
0
41
1
10
2.78594598518481
20
-17.3222411711045
30
0
41
1
10
2.80875282547754
20
-17.3043576620609
30
0
41
1
10
2.83255440041086
20
-17.2923147468448
30
0
41
1
10
2.87346275241328
20
-17.2771517741673
30
0
41
1
10
2.88219331188219
20
-17.2741197420118
30
0
41
1
10
2.90060530052196
20
-17.2681054517514
30
0
41
1
10
2.92970496779867
20
-17.2591383222781
30
0
41
1
10
2.98548968665858
20
-17.2444731505917
30
0
41
1
10
3.03780124784888
20
-17.2330681165402
30
0
41
1
10
3.07995241230398
20
-17.2246520077779
30
0
41
1
10
3.09448975926645
20
-17.2218696328084
30
0
41
1
10
3.12455328981414
20
-17.2163540025631
30
0
41
1
10
3.14010044611001
20
-17.2136172181406
30
0
41
1
10
3.22013313891509
20
-17.2001035331873
30
0
41
1
10
3.29021976315184
20
-17.1900370964499
30
0
41
1
10
3.40411999910495
20
-17.1761350748163
30
0
41
1
10
3.44355738299339
20
-17.1717017323333
30
0
41
1
10
3.50495879953064
20
-17.1653730548818
30
0
41
1
10
3.52580071204443
20
-17.1633171269357
30
0
41
1
10
3.56824763890836
20
-17.1593169119104
30
0
41
1
10
3.58990502780668
20
-17.1573683950673
30
0
41
1
10
3.69914414899253
20
-17.1480010294534
30
0
41
1
10
3.78998195249221
20
-17.1416533762555
30
0
41
1
10
3.93126630547673
20
-17.1338983182214
30
0
41
1
10
3.97920404701091
20
-17.1316090641519
30
0
41
1
10
4.05240277516955
20
-17.1286376287107
30
0
41
1
10
4.07701802281301
20
-17.127724318197
30
0
41
1
10
4.12668856350504
20
-17.1260563910006
30
0
41
1
10
4.15166852714515
20
-17.1253046994399
30
0
41
1
10
4.27644906352239
20
-17.1219802049957
30
0
41
1
10
4.37668954441628
20
-17.120673983321
30
0
41
1
10
4.52766098120216
20
-17.1207224254998
30
0
41
1
10
4.57808717932824
20
-17.1210747100225
30
0
41
1
10
4.65388390704894
20
-17.1221185136956
30
0
41
1
10
4.67924010205607
20
-17.1225538852867
30
0
41
1
10
4.72964715558277
20
-17.1235919109296
30
0
41
1
10
4.75468223073148
20
-17.1241936812624
30
0
41
1
10
4.87903090382426
20
-17.1276066429873
30
0
41
1
10
4.97588377082357
20
-17.131622666769
30
0
41
1
10
5.07014842312444
20
-17.1368638181084
30
0
0
SPLINE
5
192
100
AcDbEntity
8
1
62
256
6
ByLayer
370
18
48
1
60
0
100
AcDbSpline
70
4
71
3
72
19
73
15
40
0
40
0
40
0
40
0
40
0.250000000000001
40
0.250000000000001
40
0.500000000000001
40
0.500000000000001
40
0.562500000000001
40
0.562500000000001
40
0.593750000000001
40
0.593750000000001
40
0.625000000000001
40
0.750000000000001
40
0.750000000000001
40
1
40
1
40
1
40
1
41
1
10
-5.71202485741691
20
-15.3879751425831
30
0
41
1
10
-5.26244975487768
20
-15.3341458046959
30
0
41
1
10
-4.80542869492379
20
-15.2856794737493
30
0
41
1
10
-3.87623113431167
20
-15.2008550065429
30
0
41
1
10
-3.4040559650561
20
-15.1644953530994
30
0
41
1
10
-2.80396784687051
20
-15.1275051321754
30
0
41
1
10
-2.68345578339631
20
-15.1205302364597
30
0
41
1
10
-2.50193548509185
20
-15.1107199956796
30
0
41
1
10
-2.44128808867058
20
-15.1075579576062
30
0
41
1
10
-2.31999121195631
20
-15.1014662932712
30
0
41
1
10
-2.01659729846864
20
-15.0868098900359
30
0
41
1
10
-1.71244642908576
20
-15.0750280606538
30
0
41
1
10
-0.981034048437408
20
-15.0523486543522
30
0
41
1
10
-0.491494807195124
20
-15.0446928462712
30
0
41
1
10
0
20
-15.0446928462712
30
0
0
SPLINE
5
193
100
AcDbEntity
8
1
62
256
6
ByLayer
370
18
48
1
60
0
100
AcDbSpline
70
4
71
3
72
22
73
18
40
0
40
0
40
0
40
0
40
0.250000000000001
40
0.250000000000001
40
0.375000000000001
40
0.375000000000001
40
0.5
40
0.5
40
0.625
40
0.625
40
0.749999999999999
40
0.749999999999999
40
0.874999999999999
40
0.874999999999999
40
0.9375
40
0.9375
40
1
40
1
40
1
40
1
41
1
10
-15
20
-1.09294494718759
30
0
41
1
10
-15
20
-1.07967512164055
30
0
41
1
10
-15
20
-1.06551265539923
30
0
41
1
10
-15
20
-1.04235433752584
30
0
41
1
10
-15
20
-1.03427897453579
30
0
41
1
10
-15
20
-1.0175308391909
30
0
41
1
10
-15
20
-1.00885793975522
30
0
41
1
10
-15
20
-0.99078891893015
30
0
41
1
10
-15
20
-0.981393856273371
30
0
41
1
10
-15
20
-0.961697793674887
30
0
41
1
10
-15
20
-0.951449148566496
30
0
41
1
10
-15
20
-0.930486799286513
30
0
41
1
10
-15
20
-0.919714084930661
30
0
41
1
10
-15
20
-0.903041140446447
30
0
41
1
10
-15
20
-0.897396313717934
30
0
41
1
10
-15
20
-0.88618611265801
30
0
41
1
10
-15
20
-0.880589068055571
30
0
41
1
10
-15
20
-0.875000000001506
30
0
0
SPLINE
5
194
100
AcDbEntity
8
1
62
256
6
ByLayer
370
18
48
1
60
0
100
AcDbSpline
70
4
71
3
72
26
73
22
40
0
40
0
40
0
40
0
40
0.0625
40
0.0625
40
0.125
40
0.125
40
0.25
40
0.25
40
0.375
40
0.375
40
0.5
40
0.5
40
0.75
40
0.75
40
0.8125
40
0.8125
40
0.84375
40
0.84375
40
0.875
40
0.875
40
1
40
1
40
1
40
1
41
1
10
0
20
-1.09294494717704
30
0
41
1
10
0.0798615061981423
20
-1.09294494717704
30
0
41
1
10
0.159774363699597
20
-1.09418805527122
30
0
41
1
10
0.31969693270085
20
-1.09901890502678
30
0
41
1
10
0.399749988067498
20
-1.10260550904388
30
0
41
1
10
0.639631382539051
20
-1.11627509243578
30
0
41
1
10
0.799204148954971
20
-1.12923453082303
30
0
41
1
10
1.11800182548021
20
-1.15899639959054
30
0
41
1
10
1.27722899968975
20
-1.17577381700173
30
0
41
1
10
1.59560357042369
20
-1.21021000714069
30
0
41
1
10
1.75474950260408
20
-1.22788495741705
30
0
41
1
10
2.23233478291988
20
-1.27928046028188
30
0
41
1
10
2.55092030470416
20
-1.31138613870661
30
0
41
1
10
2.95008484346241
20
-1.34121480212659
30
0
41
1
10
3.02996429579406
20
-1.34666632694675
30
0
41
1
10
3.1498673134349
20
-1.35391738932401
30
0
41
1
10
3.18992183086647
20
-1.35618341463495
30
0
41
1
10
3.26956516787257
20
-1.36035344049768
30
0
41
1
10
3.3093884139609
20
-1.36227063710794
30
0
41
1
10
3.50851321889621
20
-1.37094450465955
30
0
41
1
10
3.66784017059436
20
-1.375
30
0
41
1
10
3.82720524665191
20
-1.375
30
0
0
SPLINE
5
195
100
AcDbEntity
8
1
62
256
6
ByLayer
370
18
48
1
60
0
100
AcDbSpline
70
4
71
3
72
16
73
12
40
0
40
0
40
0
40
0
40
0.125
40
0.125
40
0.25
40
0.25
40
0.5
40
0.5
40
0.75
40
0.75
40
1
40
1
40
1
40
1
41
1
10
8.18325005084313
20
-1.375
30
0
41
1
10
8.2364744652283
20
-1.37500000000023
30
0
41
1
10
8.28967629332496
20
-1.37382406147052
30
0
41
1
10
8.39581505821266
20
-1.36943560360865
30
0
41
1
10
8.44879059323313
20
-1.36622218099544
30
0
41
1
10
8.6074674712502
20
-1.35386984907743
30
0
41
1
10
8.71292130173921
20
-1.34204292581458
30
0
41
1
10
8.92327148440828
20
-1.31233480150524
30
0
41
1
10
9.02816810069339
20
-1.29445646866972
30
0
41
1
10
9.23743204999252
20
-1.25295172653054
30
0
41
1
10
9.34180310420967
20
-1.22936572991563
30
0
41
1
10
9.44586314547908
20
-1.20240209734683
30
0
0
SPLINE
5
196
100
AcDbEntity
8
1
62
256
6
ByLayer
370
18
48
1
60
0
100
AcDbSpline
70
4
71
3
72
18
73
14
40
0
40
0
40
0
40
0
40
0.25
40
0.25
40
0.375000000000001
40
0.375000000000001
40
0.500000000000001
40
0.500000000000001
40
0.749999999999999
40
0.749999999999999
40
0.875
40
0.875
40
1
40
1
40
1
40
1
41
1
10
9.3712544246269
20
-0.874999999999858
30
0
41
1
10
9.3712544246269
20
-0.904694818135255
30
0
41
1
10
9.37285807557873
20
-0.934194699485374
30
0
41
1
10
9.37768818945213
20
-0.978149787155473
30
0
41
1
10
9.37971768419916
20
-0.992823834800475
30
0
41
1
10
9.38455354037077
20
-1.02167884394626
30
0
41
1
10
9.38735060736528
20
-1.03583546547083
30
0
41
1
10
9.39684924666645
20
-1.07751409954724
30
0
41
1
10
9.40464959280703
20
-1.10425107210793
30
0
41
1
10
9.41859288853715
20
-1.14275413634832
30
0
41
1
10
9.42363987862913
20
-1.15536388660846
30
0
41
1
10
9.43430393517241
20
-1.17956393427201
30
0
41
1
10
9.43993646329218
20
-1.19120677842272
30
0
41
1
10
9.44586314547919
20
-1.20240209734689
30
0
0
LINE
5
7D
100
AcDbEntity
8
81
62
256
6
ByLayer
370
18
48
1
60
0
100
AcDbLine
10
41.1
20
-18
30
0
11
46.1
21
-18
31
0
39
0
210
0
220
0
230
1
0
LINE
5
7E
100
AcDbEntity
8
80
62
256
6
ByLayer
370
18
48
1
60
0
100
AcDbLine
10
0
20
0
30
0
11
0
21
5
31
0
39
0
210
0
220
0
230
1
0
LINE
5
7F
100
AcDbEntity
8
1
62
256
6
ByLayer
370
18
48
1
60
0
100
AcDbLine
10
16
20
-0.875
30
0
11
16
21
-0.675
31
0
39
0
210
0
220
0
230
1
0
LINE
5
80
100
AcDbEntity
8
1
62
256
6
ByLayer
370
18
48
1
60
0
100
AcDbLine
10
-3.425
20
-17.675
30
0
11
-2.614286
21
-17.675
31
0
39
0
210
0
220
0
230
1
0
LINE
5
81
100
AcDbEntity
8
1
62
256
6
ByLayer
370
18
48
1
60
0
100
AcDbLine
10
10.832146
20
-17.675
30
0
11
14.928749
21
-17.675
31
0
39
0
210
0
220
0
230
1
0
LINE
5
82
100
AcDbEntity
8
1
62
256
6
ByLayer
370
18
48
1
60
0
100
AcDbLine
10
40.676744
20
-11.983803
30
0
11
38.668682
21
-12.100747
31
0
39
0
210
0
220
0
230
1
0
LINE
5
83
100
AcDbEntity
8
1
62
256
6
ByLayer
370
18
48
1
60
0
100
AcDbLine
10
40.676744
20
-18.016197
30
0
11
38.668682
21
-17.899253
31
0
39
0
210
0
220
0
230
1
0
LINE
5
84
100
AcDbEntity
8
1
62
256
6
ByLayer
370
18
48
1
60
0
100
AcDbLine
10
41.1
20
-12.383126
30
0
11
41.1
21
-17.616874
31
0
39
0
210
0
220
0
230
1
0
LINE
5
85
100
AcDbEntity
8
1
62
256
6
ByLayer
370
18
48
1
60
0
100
AcDbLine
10
16.523256
20
-18.016197
30
0
11
18.531318
21
-17.899253
31
0
39
0
210
0
220
0
230
1
0
LINE
5
86
100
AcDbEntity
8
1
62
256
6
ByLayer
370
18
48
1
60
0
100
AcDbLine
10
38.668682
20
-12.100747
30
0
11
38.243073
21
-12.078922
31
0
39
0
210
0
220
0
230
1
0
LINE
5
87
100
AcDbEntity
8
1
62
256
6
ByLayer
370
18
48
1
60
0
100
AcDbLine
10
38.668682
20
-17.899253
30
0
11
38.243073
21
-17.921078
31
0
39
0
210
0
220
0
230
1
0
LINE
5
88
100
AcDbEntity
8
1
62
256
6
ByLayer
370
18
48
1
60
0
100
AcDbLine
10
38.668682
20
-12.100747
30
0
11
38.668682
21
-17.899253
31
0
39
0
210
0
220
0
230
1
0
LINE
5
89
100
AcDbEntity
8
1
62
256
6
ByLayer
370
18
48
1
60
0
100
AcDbLine
10
18.531318
20
-17.899253
30
0
11
18.956927
21
-17.921078
31
0
39
0
210
0
220
0
230
1
0
LINE
5
8A
100
AcDbEntity
8
1
62
256
6
ByLayer
370
18
48
1
60
0
100
AcDbLine
10
18.531318
20
-17.638773
30
0
11
18.531318
21
-17.899253
31
0
39
0
210
0
220
0
230
1
0
LINE
5
8B
100
AcDbEntity
8
1
62
256
6
ByLayer
370
13
48
1
60
0
100
AcDbLine
10
33.099889
20
-15.02
30
0
11
37.088604
21
-15.02
31
0
39
0
210
0
220
0
230
1
0
LINE
5
8C
100
AcDbEntity
8
1
62
256
6
ByLayer
370
13
48
1
60
0
100
AcDbLine
10
33.099889
20
-14.98
30
0
11
37.088604
21
-14.98
31
0
39
0
210
0
220
0
230
1
0
LINE
5
8D
100
AcDbEntity
8
1
62
256
6
ByLayer
370
13
48
1
60
0
100
AcDbLine
10
33.099884
20
-14.789264
30
0
11
37.04999
21
-14.789264
31
0
39
0
210
0
220
0
230
1
0
LINE
5
8E
100
AcDbEntity
8
1
62
256
6
ByLayer
370
13
48
1
60
0
100
AcDbLine
10
33.099884
20
-15.210736
30
0
11
37.04999
21
-15.210736
31
0
39
0
210
0
220
0
230
1
0
LINE
5
8F
100
AcDbEntity
8
1
62
256
6
ByLayer
370
13
48
1
60
0
100
AcDbLine
10
36.270287
20
-15.427733
30
0
11
33.002145
21
-15.427733
31
0
39
0
210
0
220
0
230
1
0
LINE
5
90
100
AcDbEntity
8
1
62
256
6
ByLayer
370
13
48
1
60
0
100
AcDbLine
10
36.270287
20
-14.572267
30
0
11
33.002145
21
-14.572267
31
0
39
0
210
0
220
0
230
1
0
LINE
5
91
100
AcDbEntity
8
1
62
256
6
ByLayer
370
13
48
1
60
0
100
AcDbLine
10
35.582367
20
-14.516915
30
0
11
32.886737
21
-14.516915
31
0
39
0
210
0
220
0
230
1
0
LINE
5
92
100
AcDbEntity
8
1
62
256
6
ByLayer
370
13
48
1
60
0
100
AcDbLine
10
35.582367
20
-15.483085
30
0
11
32.886737
21
-15.483085
31
0
39
0
210
0
220
0
230
1
0
LINE
5
93
100
AcDbEntity
8
1
62
256
6
ByLayer
370
13
48
1
60
0
100
AcDbLine
10
32.849506
20
-15.513888
30
0
11
35.406526
21
-15.513888
31
0
39
0
210
0
220
0
230
1
0
LINE
5
94
100
AcDbEntity
8
1
62
256
6
ByLayer
370
13
48
1
60
0
100
AcDbLine
10
32.849506
20
-14.486112
30
0
11
35.406526
21
-14.486112
31
0
39
0
210
0
220
0
230
1
0
LINE
5
95
100
AcDbEntity
8
1
62
256
6
ByLayer
370
13
48
1
60
0
100
AcDbLine
10
35.095391
20
-14.394335
30
0
11
32.836416
21
-14.394335
31
0
39
0
210
0
220
0
230
1
0
LINE
5
96
100
AcDbEntity
8
1
62
256
6
ByLayer
370
13
48
1
60
0
100
AcDbLine
10
35.095391
20
-15.605665
30
0
11
32.836822
21
-15.605665
31
0
39
0
210
0
220
0
230
1
0
LINE
5
97
100
AcDbEntity
8
1
62
256
6
ByLayer
370
13
48
1
60
0
100
AcDbLine
10
35.00992
20
-15.649934
30
0
11
32.830747
21
-15.649934
31
0
39
0
210
0
220
0
230
1
0
LINE
5
98
100
AcDbEntity
8
1
62
256
6
ByLayer
370
13
48
1
60
0
100
AcDbLine
10
35.00992
20
-14.350066
30
0
11
32.830347
21
-14.350066
31
0
39
0
210
0
220
0
230
1
0
LINE
5
99
100
AcDbEntity
8
1
62
256
6
ByLayer
370
18
48
1
60
0
100
AcDbLine
10
33.711484
20
-12.4
30
0
11
32.521147
21
-12.4
31
0
39
0
210
0
220
0
230
1
0
LINE
5
9A
100
AcDbEntity
8
1
62
256
6
ByLayer
370
18
48
1
60
0
100
AcDbLine
10
33.711484
20
-17.6
30
0
11
32.521147
21
-17.6
31
0
39
0
210
0
220
0
230
1
0
LINE
5
9B
100
AcDbEntity
8
1
62
256
6
ByLayer
370
13
48
1
60
0
100
AcDbLine
10
33.711484
20
-17.358749
30
0
11
32.564754
21
-17.358749
31
0
39
0
210
0
220
0
230
1
0
LINE
5
9C
100
AcDbEntity
8
1
62
256
6
ByLayer
370
13
48
1
60
0
100
AcDbLine
10
33.718068
20
-17.341384
30
0
11
32.567942
21
-17.341384
31
0
39
0
210
0
220
0
230
1
0
LINE
5
9D
100
AcDbEntity
8
1
62
256
6
ByLayer
370
18
48
1
60
0
100
AcDbLine
10
35.00992
20
-14.350066
30
0
11
33.718066
21
-12.658618
31
0
39
0
210
0
220
0
230
1
0
LINE
5
9E
100
AcDbEntity
8
1
62
256
6
ByLayer
370
18
48
1
60
0
100
AcDbLine
10
35.406526
20
-14.486112
30
0
11
35.095391
21
-14.394335
31
0
39
0
210
0
220
0
230
1
0
LINE
5
9F
100
AcDbEntity
8
1
62
256
6
ByLayer
370
18
48
1
60
0
100
AcDbLine
10
37.088604
20
-14.98
30
0
11
37.088604
21
-15.02
31
0
39
0
210
0
220
0
230
1
0
LINE
5
A0
100
AcDbEntity
8
1
62
256
6
ByLayer
370
18
48
1
60
0
100
AcDbLine
10
35.406526
20
-15.513888
30
0
11
35.095391
21
-15.605665
31
0
39
0
210
0
220
0
230
1
0
LINE
5
A1
100
AcDbEntity
8
1
62
256
6
ByLayer
370
18
48
1
60
0
100
AcDbLine
10
35.00992
20
-15.649934
30
0
11
33.718066
21
-17.341382
31
0
39
0
210
0
220
0
230
1
0
LINE
5
A2
100
AcDbEntity
8
1
62
256
6
ByLayer
370
18
48
1
60
0
100
AcDbLine
10
33.711484
20
-17.358749
30
0
11
33.711484
21
-17.6
31
0
39
0
210
0
220
0
230
1
0
LINE
5
A3
100
AcDbEntity
8
1
62
256
6
ByLayer
370
18
48
1
60
0
100
AcDbLine
10
35.139855
20
-17.6
30
0
11
33.711484
21
-17.6
31
0
39
0
210
0
220
0
230
1
0
LINE
5
A4
100
AcDbEntity
8
1
62
256
6
ByLayer
370
18
48
1
60
0
100
AcDbLine
10
35.567511
20
-17.832909
30
0
11
35.139855
21
-17.6
31
0
39
0
210
0
220
0
230
1
0
LINE
5
A5
100
AcDbEntity
8
1
62
256
6
ByLayer
370
18
48
1
60
0
100
AcDbLine
10
35.567511
20
-17.832909
30
0
11
38.243073
21
-17.921078
31
0
39
0
210
0
220
0
230
1
0
LINE
5
A6
100
AcDbEntity
8
1
62
256
6
ByLayer
370
18
48
1
60
0
100
AcDbLine
10
38.243073
20
-17.921078
30
0
11
38.243073
21
-12.078922
31
0
39
0
210
0
220
0
230
1
0
LINE
5
A7
100
AcDbEntity
8
1
62
256
6
ByLayer
370
18
48
1
60
0
100
AcDbLine
10
35.567511
20
-12.167091
30
0
11
38.243073
21
-12.078922
31
0
39
0
210
0
220
0
230
1
0
LINE
5
A8
100
AcDbEntity
8
1
62
256
6
ByLayer
370
18
48
1
60
0
100
AcDbLine
10
35.567511
20
-12.167091
30
0
11
35.139855
21
-12.4
31
0
39
0
210
0
220
0
230
1
0
LINE
5
A9
100
AcDbEntity
8
1
62
256
6
ByLayer
370
18
48
1
60
0
100
AcDbLine
10
35.139855
20
-12.4
30
0
11
33.711484
21
-12.4
31
0
39
0
210
0
220
0
230
1
0
LINE
5
AA
100
AcDbEntity
8
1
62
256
6
ByLayer
370
18
48
1
60
0
100
AcDbLine
10
33.711484
20
-12.641251
30
0
11
33.711484
21
-12.4
31
0
39
0
210
0
220
0
230
1
0
LINE
5
AB
100
AcDbEntity
8
1
62
256
6
ByLayer
370
13
48
1
60
0
100
AcDbLine
10
33.718068
20
-12.658616
30
0
11
32.567942
21
-12.658616
31
0
39
0
210
0
220
0
230
1
0
LINE
5
AC
100
AcDbEntity
8
1
62
256
6
ByLayer
370
13
48
1
60
0
100
AcDbLine
10
33.711484
20
-12.641251
30
0
11
32.564754
21
-12.641251
31
0
39
0
210
0
220
0
230
1
0
LINE
5
AD
100
AcDbEntity
8
1
62
256
6
ByLayer
370
18
48
1
60
0
100
AcDbLine
10
18.956927
20
-17.921078
30
0
11
18.956927
21
-17.639559
31
0
39
0
210
0
220
0
230
1
0
LINE
5
AE
100
AcDbEntity
8
1
62
256
6
ByLayer
370
18
48
1
60
0
100
AcDbLine
10
21.632489
20
-17.832909
30
0
11
18.956927
21
-17.921078
31
0
39
0
210
0
220
0
230
1
0
LINE
5
AF
100
AcDbEntity
8
1
62
256
6
ByLayer
370
18
48
1
60
0
100
AcDbLine
10
21.632489
20
-17.832909
30
0
11
21.98008
21
-17.643605
31
0
39
0
210
0
220
0
230
1
0
LINE
5
B0
100
AcDbEntity
8
1
62
256
6
ByLayer
370
18
48
1
60
0
100
AcDbLine
10
9.132847
20
0.324981
30
0
11
6.60048
21
0.324981
31
0
39
0
210
0
220
0
230
1
0
LINE
5
B1
100
AcDbEntity
8
1
62
256
6
ByLayer
370
18
48
1
60
0
100
AcDbLine
10
40.1
20
-11.842782
30
0
11
40.1
21
-12.017391
31
0
39
0
210
0
220
0
230
1
0
LINE
5
B2
100
AcDbEntity
8
1
62
256
6
ByLayer
370
18
48
1
60
0
100
AcDbLine
10
34.393412
20
-10.184863
30
0
11
23.1
21
-10.184863
31
0
39
0
210
0
220
0
230
1
0
LINE
5
B3
100
AcDbEntity
8
1
62
256
6
ByLayer
370
18
48
1
60
0
100
AcDbLine
10
29.23867
20
-12.188417
30
0
11
31.437829
21
-12.188417
31
0
39
0
210
0
220
0
230
1
0
LINE
5
B4
100
AcDbEntity
8
1
62
256
6
ByLayer
370
18
48
1
60
0
100
AcDbLine
10
9.476736
20
0.324981
30
0
11
9.404549
21
0.324981
31
0
39
0
210
0
220
0
230
1
0
LINE
5
B5
100
AcDbEntity
8
1
62
256
6
ByLayer
370
18
48
1
60
0
100
AcDbLine
10
33.907458
20
-12.191277
30
0
11
35.523131
21
-12.191277
31
0
39
0
210
0
220
0
230
1
0
LINE
5
B6
100
AcDbEntity
8
1
62
256
6
ByLayer
370
18
48
1
60
0
100
AcDbLine
10
31.437661
20
-12.282253
30
0
11
31.437829
21
-12.188417
31
0
39
0
210
0
220
0
230
1
0
LINE
5
B7
100
AcDbEntity
8
1
62
256
6
ByLayer
370
18
48
1
60
0
100
AcDbLine
10
33.907085
20
-12.400036
30
0
11
33.907458
21
-12.191277
31
0
39
0
210
0
220
0
230
1
0
LINE
5
B8
100
AcDbEntity
8
1
62
256
6
ByLayer
370
18
48
1
60
0
100
AcDbLine
10
9.530813
20
0.25
30
0
11
6.714371
21
0.25
31
0
39
0
210
0
220
0
230
1
0
LINE
5
B9
100
AcDbEntity
8
1
62
256
6
ByLayer
370
18
48
1
60
0
100
AcDbLine
10
14.717168
20
0.324981
30
0
11
9.57055
21
0.324981
31
0
39
0
210
0
220
0
230
1
0
LINE
5
BA
100
AcDbEntity
8
1
62
256
6
ByLayer
370
18
48
1
60
0
100
AcDbLine
10
7.290539
20
-0.129904
30
0
11
15.243082
21
-0.129904
31
0
39
0
210
0
220
0
230
1
0
LINE
5
BB
100
AcDbEntity
8
1
62
256
6
ByLayer
370
13
48
1
60
0
100
AcDbLine
10
14.818469
20
0.249981
30
0
11
6.71446
21
0.249981
31
0
39
0
210
0
220
0
230
1
0
LINE
5
BC
100
AcDbEntity
8
1
62
256
6
ByLayer
370
13
48
1
60
0
100
AcDbLine
10
23.1
20
-10.184863
30
0
11
23.1
21
-11.737139
31
0
39
0
210
0
220
0
230
1
0
LINE
5
BD
100
AcDbEntity
8
1
62
256
6
ByLayer
370
18
48
1
60
0
100
AcDbLine
10
32.608056
20
-17.120716
30
0
11
32.512417
21
-17.648289
31
0
39
0
210
0
220
0
230
1
0
LINE
5
BE
100
AcDbEntity
8
1
62
256
6
ByLayer
370
18
48
1
60
0
100
AcDbLine
10
33.1
20
-14.725031
30
0
11
33.1
21
-15.274969
31
0
39
0
210
0
220
0
230
1
0
LINE
5
BF
100
AcDbEntity
8
1
62
256
6
ByLayer
370
18
48
1
60
0
100
AcDbLine
10
32.504703
20
-12.309158
30
0
11
32.608056
21
-12.879284
31
0
39
0
210
0
220
0
230
1
0
LINE
5
C0
100
AcDbEntity
8
1
62
256
6
ByLayer
370
18
48
1
60
0
100
AcDbLine
10
-14.000019
20
0.324981
30
0
11
-14.075019
21
0.249981
31
0
39
0
210
0
220
0
230
1
0
LINE
5
C1
100
AcDbEntity
8
1
62
256
6
ByLayer
370
18
48
1
60
0
100
AcDbLine
10
-9.769771
20
0.324981
30
0
11
-10.247062
21
0.324981
31
0
39
0
210
0
220
0
230
1
0
LINE
5
C2
100
AcDbEntity
8
1
62
256
6
ByLayer
370
18
48
1
60
0
100
AcDbLine
10
-10.810081
20
0.324981
30
0
11
-11.023511
21
0.324981
31
0
39
0
210
0
220
0
230
1
0
LINE
5
C3
100
AcDbEntity
8
1
62
256
6
ByLayer
370
18
48
1
60
0
100
AcDbLine
10
-13.791283
20
0.324981
30
0
11
-14.000019
21
0.324981
31
0
39
0
210
0
220
0
230
1
0
LINE
5
C4
100
AcDbEntity
8
1
62
256
6
ByLayer
370
18
48
1
60
0
100
AcDbLine
10
-14.075019
20
0.249981
30
0
11
-14.559331
21
-0.234331
31
0
39
0
210
0
220
0
230
1
0
LINE
5
C5
100
AcDbEntity
8
1
62
256
6
ByLayer
370
13
48
1
60
0
100
AcDbLine
10
-13.927309
20
0.249981
30
0
11
-14.075019
21
0.249981
31
0
39
0
210
0
220
0
230
1
0
LINE
5
C6
100
AcDbEntity
8
1
62
256
6
ByLayer
370
18
48
1
60
0
100
AcDbLine
10
-11.132078
20
0.324981
30
0
11
-11.287197
21
0.324981
31
0
39
0
210
0
220
0
230
1
0
LINE
5
C7
100
AcDbEntity
8
1
62
256
6
ByLayer
370
18
48
1
60
0
100
AcDbLine
10
-13.048061
20
0.324981
30
0
11
-13.703327
21
0.324981
31
0
39
0
210
0
220
0
230
1
0
LINE
5
C8
100
AcDbEntity
8
1
62
256
6
ByLayer
370
13
48
1
60
0
100
AcDbLine
10
-13.206552
20
0.249981
30
0
11
-13.72716
21
0.249981
31
0
39
0
210
0
220
0
230
1
0
LINE
5
C9
100
AcDbEntity
8
1
62
256
6
ByLayer
370
13
48
1
60
0
100
AcDbLine
10
-14.125544
20
-0.394519
30
0
11
-14.265575
21
-0.394519
31
0
39
0
210
0
220
0
230
1
0
LINE
5
CA
100
AcDbEntity
8
1
62
256
6
ByLayer
370
18
48
1
60
0
100
AcDbLine
10
-12.074956
20
0.324981
30
0
11
-12.9317
21
0.324981
31
0
39
0
210
0
220
0
230
1
0
LINE
5
CB
100
AcDbEntity
8
1
62
256
6
ByLayer
370
13
48
1
60
0
100
AcDbLine
10
-12.261918
20
0.249981
30
0
11
-12.941904
21
0.249981
31
0
39
0
210
0
220
0
230
1
0
LINE
5
CC
100
AcDbEntity
8
1
62
256
6
ByLayer
370
13
48
1
60
0
100
AcDbLine
10
-13.288685
20
-0.394519
30
0
11
-13.470275
21
-0.394519
31
0
39
0
210
0
220
0
230
1
0
LINE
5
CD
100
AcDbEntity
8
1
62
256
6
ByLayer
370
18
48
1
60
0
100
AcDbLine
10
-11.287177
20
0.324981
30
0
11
-11.923781
21
0.324981
31
0
39
0
210
0
220
0
230
1
0
LINE
5
CE
100
AcDbEntity
8
1
62
256
6
ByLayer
370
13
48
1
60
0
100
AcDbLine
10
-11.153931
20
0.249981
30
0
11
-11.918509
21
0.249981
31
0
39
0
210
0
220
0
230
1
0
LINE
5
CF
100
AcDbEntity
8
1
62
256
6
ByLayer
370
13
48
1
60
0
100
AcDbLine
10
-12.212601
20
-0.394519
30
0
11
-12.44548
21
-0.394519
31
0
39
0
210
0
220
0
230
1
0
LINE
5
D0
100
AcDbEntity
8
1
62
256
6
ByLayer
370
18
48
1
60
0
100
AcDbLine
10
-10.247044
20
0.324981
30
0
11
-10.612458
21
0.324981
31
0
39
0
210
0
220
0
230
1
0
LINE
5
D1
100
AcDbEntity
8
1
62
256
6
ByLayer
370
13
48
1
60
0
100
AcDbLine
10
-9.966378
20
0.249981
30
0
11
-10.588147
21
0.249981
31
0
39
0
210
0
220
0
230
1
0
LINE
5
D2
100
AcDbEntity
8
1
62
256
6
ByLayer
370
18
48
1
60
0
100
AcDbLine
10
-9.769771
20
0.324981
30
0
11
-9.404549
21
0.324981
31
0
39
0
210
0
220
0
230
1
0
LINE
5
D3
100
AcDbEntity
8
1
62
256
6
ByLayer
370
18
48
1
60
0
100
AcDbLine
10
-11.132078
20
0.324981
30
0
11
-11.023467
21
0.324981
31
0
39
0
210
0
220
0
230
1
0
LINE
5
D4
100
AcDbEntity
8
1
62
256
6
ByLayer
370
13
48
1
60
0
100
AcDbLine
10
-10.826145
20
-0.394519
30
0
11
-11.127967
21
-0.394519
31
0
39
0
210
0
220
0
230
1
0
LINE
5
D5
100
AcDbEntity
8
1
62
256
6
ByLayer
370
18
48
1
60
0
100
AcDbLine
10
-6.742374
20
0.324981
30
0
11
-8.864082
21
0.324981
31
0
39
0
210
0
220
0
230
1
0
LINE
5
D6
100
AcDbEntity
8
1
62
256
6
ByLayer
370
18
48
1
60
0
100
AcDbLine
10
-4.633327
20
-16.466673
30
0
11
-3.749927
21
-17.350073
31
0
39
0
210
0
220
0
230
1
0
LINE
5
D7
100
AcDbEntity
8
1
62
256
6
ByLayer
370
18
48
1
60
0
100
AcDbLine
10
16
20
-0.675
30
0
11
10.163081
21
-0.675
31
0
39
0
210
0
220
0
230
1
0
LINE
5
D8
100
AcDbEntity
8
1
62
256
6
ByLayer
370
13
48
1
60
0
100
AcDbLine
10
-7.153883
20
0.249981
30
0
11
-8.812878
21
0.249981
31
0
39
0
210
0
220
0
230
1
0
LINE
5
D9
100
AcDbEntity
8
1
62
256
6
ByLayer
370
18
48
1
60
0
100
AcDbLine
10
10.593748
20
-1.375
30
0
11
20.006384
21
-1.375
31
0
39
0
210
0
220
0
230
1
0
LINE
5
DA
100
AcDbEntity
8
1
62
256
6
ByLayer
370
18
48
1
60
0
100
AcDbLine
10
20.006384
20
-4.493292
30
0
11
20.006384
21
-1.375
31
0
39
0
210
0
220
0
230
1
0
LINE
5
DB
100
AcDbEntity
8
1
62
256
6
ByLayer
370
18
48
1
60
0
100
AcDbLine
10
20.006384
20
-16.063532
30
0
11
20.006384
21
-8.806708
31
0
39
0
210
0
220
0
230
1
0
LINE
5
DC
100
AcDbEntity
8
1
62
256
6
ByLayer
370
18
48
1
60
0
100
AcDbLine
10
29.6
20
-12.205128
30
0
11
29.6
21
-17.470755
31
0
39
0
210
0
220
0
230
1
0
LINE
5
DD
100
AcDbEntity
8
1
62
256
6
ByLayer
370
18
48
1
60
0
100
AcDbLine
10
21.5
20
-9.951933
30
0
11
21.5
21
-1.375
31
0
39
0
210
0
220
0
230
1
0
LINE
5
DE
100
AcDbEntity
8
1
62
256
6
ByLayer
370
18
48
1
60
0
100
AcDbLine
10
21.5
20
-1.375
30
0
11
20.006384
21
-1.375
31
0
39
0
210
0
220
0
230
1
0
LINE
5
DF
100
AcDbEntity
8
1
62
256
6
ByLayer
370
13
48
1
60
0
100
AcDbLine
10
16
20
-0.875
30
0
11
10.163081
21
-0.875
31
0
39
0
210
0
220
0
230
1
0
LINE
5
E0
100
AcDbEntity
8
1
62
256
6
ByLayer
370
18
48
1
60
0
100
AcDbLine
10
9.371207
20
-0.675
30
0
11
10.163081
21
-0.675
31
0
39
0
210
0
220
0
230
1
0
LINE
5
E1
100
AcDbEntity
8
1
62
256
6
ByLayer
370
18
48
1
60
0
100
AcDbLine
10
10.163081
20
-0.875
30
0
11
10.163081
21
-0.675
31
0
39
0
210
0
220
0
230
1
0
LINE
5
E2
100
AcDbEntity
8
1
62
256
6
ByLayer
370
18
48
1
60
0
100
AcDbLine
10
5.861975
20
-17.223628
30
0
11
5.861975
21
-16.97333
31
0
39
0
210
0
220
0
230
1
0
LINE
5
E3
100
AcDbEntity
8
1
62
256
6
ByLayer
370
18
48
1
60
0
100
AcDbLine
10
10.388566
20
-1.357539
30
0
11
10.388566
21
-16.063532
31
0
39
0
210
0
220
0
230
1
0
LINE
5
E4
100
AcDbEntity
8
1
62
256
6
ByLayer
370
13
48
1
60
0
100
AcDbLine
10
-8.986697
20
-0.394519
30
0
11
-9.395388
21
-0.394519
31
0
39
0
210
0
220
0
230
1
0
LINE
5
E5
100
AcDbEntity
8
1
62
256
6
ByLayer
370
18
48
1
60
0
100
AcDbLine
10
6.326108
20
0.324981
30
0
11
1.735923
21
0.324981
31
0
39
0
210
0
220
0
230
1
0
LINE
5
E6
100
AcDbEntity
8
1
62
256
6
ByLayer
370
18
48
1
60
0
100
AcDbLine
10
-1.735923
20
0.324981
30
0
11
-6.326108
21
0.324981
31
0
39
0
210
0
220
0
230
1
0
LINE
5
E7
100
AcDbEntity
8
1
62
256
6
ByLayer
370
13
48
1
60
0
100
AcDbLine
10
6.222926
20
0.249981
30
0
11
3.020453
21
0.249981
31
0
39
0
210
0
220
0
230
1
0
LINE
5
E8
100
AcDbEntity
8
1
62
256
6
ByLayer
370
13
48
1
60
0
100
AcDbLine
10
-3.020453
20
0.249981
30
0
11
-6.222926
21
0.249981
31
0
39
0
210
0
220
0
230
1
0
LINE
5
E9
100
AcDbEntity
8
1
62
256
6
ByLayer
370
13
48
1
60
0
100
AcDbLine
10
6.943702
20
-0.394519
30
0
11
6.310523
21
-0.394519
31
0
39
0
210
0
220
0
230
1
0
LINE
5
EA
100
AcDbEntity
8
1
62
256
6
ByLayer
370
13
48
1
60
0
100
AcDbLine
10
-6.310523
20
-0.394519
30
0
11
-6.943702
21
-0.394519
31
0
39
0
210
0
220
0
230
1
0
LINE
5
EB
100
AcDbEntity
8
1
62
256
6
ByLayer
370
13
48
1
60
0
100
AcDbLine
10
1.912242
20
-0.394519
30
0
11
-1.912242
21
-0.394519
31
0
39
0
210
0
220
0
230
1
0
LINE
5
EC
100
AcDbEntity
8
1
62
256
6
ByLayer
370
18
48
1
60
0
100
AcDbLine
10
-15
20
-0.875
30
0
11
-15
21
-0.675
31
0
39
0
210
0
220
0
230
1
0
LINE
5
ED
100
AcDbEntity
8
1
62
256
6
ByLayer
370
18
48
1
60
0
100
AcDbLine
10
9.371254
20
-0.675
30
0
11
9.371254
21
-0.875
31
0
39
0
210
0
220
0
230
1
0
LINE
5
EE
100
AcDbEntity
8
1
62
256
6
ByLayer
370
18
48
1
60
0
100
AcDbLine
10
9.371254
20
-0.675
30
0
11
7.937106
21
-0.675
31
0
39
0
210
0
220
0
230
1
0
LINE
5
EF
100
AcDbEntity
8
1
62
256
6
ByLayer
370
18
48
1
60
0
100
AcDbLine
10
7.937106
20
-0.675
30
0
11
-15
21
-0.675
31
0
39
0
210
0
220
0
230
1
0
LINE
5
F0
100
AcDbEntity
8
1
62
256
6
ByLayer
370
18
48
1
60
0
100
AcDbLine
10
6.326108
20
0.324981
30
0
11
6.60065
21
0.324981
31
0
39
0
210
0
220
0
230
1
0
LINE
5
F1
100
AcDbEntity
8
1
62
256
6
ByLayer
370
18
48
1
60
0
100
AcDbLine
10
-1.735945
20
0.324981
30
0
11
1.735945
21
0.324981
31
0
39
0
210
0
220
0
230
1
0
LINE
5
F2
100
AcDbEntity
8
1
62
256
6
ByLayer
370
18
48
1
60
0
100
AcDbLine
10
-6.742492
20
0.324981
30
0
11
-6.326108
21
0.324981
31
0
39
0
210
0
220
0
230
1
0
LINE
5
F3
100
AcDbEntity
8
1
62
256
6
ByLayer
370
18
48
1
60
0
100
AcDbLine
10
-9.132847
20
0.324981
30
0
11
-8.864082
21
0.324981
31
0
39
0
210
0
220
0
230
1
0
LINE
5
F4
100
AcDbEntity
8
1
62
256
6
ByLayer
370
18
48
1
60
0
100
AcDbLine
10
-10.810022
20
0.324981
30
0
11
-10.612458
21
0.324981
31
0
39
0
210
0
220
0
230
1
0
LINE
5
F5
100
AcDbEntity
8
1
62
256
6
ByLayer
370
18
48
1
60
0
100
AcDbLine
10
-12.074944
20
0.324981
30
0
11
-11.923781
21
0.324981
31
0
39
0
210
0
220
0
230
1
0
LINE
5
F6
100
AcDbEntity
8
1
62
256
6
ByLayer
370
18
48
1
60
0
100
AcDbLine
10
-13.048064
20
0.324981
30
0
11
-12.9317
21
0.324981
31
0
39
0
210
0
220
0
230
1
0
LINE
5
F7
100
AcDbEntity
8
1
62
256
6
ByLayer
370
18
48
1
60
0
100
AcDbLine
10
-13.791289
20
0.324981
30
0
11
-13.703327
21
0.324981
31
0
39
0
210
0
220
0
230
1
0
LINE
5
F8
100
AcDbEntity
8
1
62
256
6
ByLayer
370
18
48
1
60
0
100
AcDbLine
10
-5.712025
20
-15.387975
30
0
11
-4.635367
21
-16.464633
31
0
39
0
210
0
220
0
230
1
0
LINE
5
F9
100
AcDbEntity
8
1
62
256
6
ByLayer
370
18
48
1
60
0
100
AcDbLine
10
-3.425
20
-17.675
30
0
11
-3.749927
21
-17.350073
31
0
39
0
210
0
220
0
230
1
0
LINE
5
FA
100
AcDbEntity
8
1
62
256
6
ByLayer
370
18
48
1
60
0
100
AcDbLine
10
18.65
20
-17.638842
30
0
11
17.35
21
-17.638842
31
0
39
0
210
0
220
0
230
1
0
LINE
5
FB
100
AcDbEntity
8
1
62
256
6
ByLayer
370
18
48
1
60
0
100
AcDbLine
10
10.388566
20
-16.063532
30
0
11
20.006384
21
-16.063532
31
0
39
0
210
0
220
0
230
1
0
LINE
5
FC
100
AcDbEntity
8
1
62
256
6
ByLayer
370
18
48
1
60
0
100
AcDbLine
10
6.461
20
-1.375
30
0
11
8.18325
21
-1.375
31
0
39
0
210
0
220
0
230
1
0
LINE
5
FD
100
AcDbEntity
8
1
62
256
6
ByLayer
370
18
48
1
60
0
100
AcDbLine
10
9.445863
20
-15.953215
30
0
11
9.445863
21
-1.202402
31
0
39
0
210
0
220
0
230
1
0
LINE
5
FE
100
AcDbEntity
8
1
62
256
6
ByLayer
370
18
48
1
60
0
100
AcDbLine
10
3.827205
20
-1.375
30
0
11
6.461
21
-1.375
31
0
39
0
210
0
220
0
230
1
0
LINE
5
FF
100
AcDbEntity
8
1
62
256
6
ByLayer
370
18
48
1
60
0
100
AcDbLine
10
0
20
-15.044693
30
0
11
6.461
21
-15.044693
31
0
39
0
210
0
220
0
230
1
0
LINE
5
100
100
AcDbEntity
8
1
62
256
6
ByLayer
370
18
48
1
60
0
100
AcDbLine
10
6.461
20
-1.375
30
0
11
6.461
21
-15.044693
31
0
39
0
210
0
220
0
230
1
0
LINE
5
101
100
AcDbEntity
8
1
62
256
6
ByLayer
370
18
48
1
60
0
100
AcDbLine
10
-15
20
-1.092945
30
0
11
-15
21
-6.1
31
0
39
0
210
0
220
0
230
1
0
LINE
5
102
100
AcDbEntity
8
1
62
256
6
ByLayer
370
18
48
1
60
0
100
AcDbLine
10
-15
20
-6.1
30
0
11
-5.712025
21
-15.387975
31
0
39
0
210
0
220
0
230
1
0
LINE
5
103
100
AcDbEntity
8
1
62
256
6
ByLayer
370
13
48
1
60
0
100
AcDbLine
10
0
20
-1.092945
30
0
11
0
21
-15.044693
31
0
39
0
210
0
220
0
230
1
0
LINE
5
104
100
AcDbEntity
8
1
62
256
6
ByLayer
370
18
48
1
60
0
100
AcDbLine
10
-15
20
-1.092945
30
0
11
0
21
-1.092945
31
0
39
0
210
0
220
0
230
1
0
LINE
5
105
100
AcDbEntity
8
1
62
256
6
ByLayer
370
13
48
1
60
0
100
AcDbLine
10
-15
20
-0.875
30
0
11
9.371254
21
-0.875
31
0
39
0
210
0
220
0
230
1
0
MTEXT
5
197
100
AcDbEntity
8
SK6
62
256
6
ByLayer
370
18
48
1
60
0
100
AcDbMText
10
-19.2645
20
-60.725803
30
0
210
0
220
0
230
1
1
\W0.7848;C2A-SL32-RGK18A-088GB
40
3.5
41
0
44
1.084337
50
0
71
7
72
5
7
iso_b_vert
0
DIMENSION
5
19C
100
AcDbEntity
8
2
62
256
6
ByLayer
370
18
48
1
60
0
100
AcDbDimension
2
_U0
10
41.1
20
16.25
30
0
11
20.55
21
16.25
31
0
70
32
71
1
72
1
41
1
210
0
220
0
230
1
3
Standard
100
AcDbAlignedDimension
13
0
23
0
33
0
14
41.1
24
-18
34
0
50
0
100
AcDbRotatedDimension
1001
ACAD
1000
DSTYLE
1002
{
1070
   371
1070
    13
1070
   372
1070
    13
1070
   170
1070
     0
1070
   144
1040
1.0
1070
   277
1070
     2
1070
   284
1070
     8
1070
   278
1070
    46
1070
   146
1040
1.0
1070
   345
1005
16
1070
   347
1005
16
1070
   346
1005
16
1070
   344
1005
0
1070
   343
1005
0
1070
   172
1070
     1
1070
    76
1070
     0
1070
    75
1070
     0
1070
   282
1070
     0
1070
   281
1070
     0
1070
    71
1070
     0
1070
    74
1070
     0
1070
   279
1070
     0
1070
   173
1070
     1
1070
   340
1005
198
1070
   271
1070
     2
1070
   272
1070
     2
1070
    77
1070
     1
1070
    73
1070
     1
1070
   171
1070
     3
1070
   274
1070
     4
1070
   177
1070
     2
1070
   176
1070
     2
1070
   178
1070
     2
1070
    78
1070
     8
1070
    48
1040
-0.1
1070
    41
1040
3.5
1070
   147
1040
1.75
1070
    42
1040
1.5875
1070
    44
1040
2.0
1070
   140
1040
3.5
1002
}
1001
ACAD_DSTYLE_DIM_LINETYPE
1070
   380
1005
16
1001
ACAD_DSTYLE_DIM_EXT1_LINETYPE
1070
   381
1005
16
1001
ACAD_DSTYLE_DIM_EXT2_LINETYPE
1070
   382
1005
16
0
DIMENSION
5
1B6
100
AcDbEntity
8
2
62
256
6
ByLayer
370
18
48
1
60
0
100
AcDbDimension
2
_U1
10
41.1
20
8.25
30
0
11
32.1
21
8.25
31
0
70
32
71
1
72
1
41
1
210
0
220
0
230
1
3
Standard
100
AcDbAlignedDimension
13
23.1
23
-12.325
33
0
14
41.1
24
-18
34
0
50
0
100
AcDbRotatedDimension
1001
ACAD
1000
DSTYLE
1002
{
1070
   371
1070
    13
1070
   372
1070
    13
1070
   170
1070
     0
1070
   144
1040
1.0
1070
   277
1070
     2
1070
   284
1070
     8
1070
   278
1070
    46
1070
   146
1040
1.0
1070
   345
1005
16
1070
   347
1005
16
1070
   346
1005
16
1070
   344
1005
0
1070
   343
1005
0
1070
   172
1070
     1
1070
    76
1070
     0
1070
    75
1070
     0
1070
   282
1070
     0
1070
   281
1070
     0
1070
    71
1070
     0
1070
    74
1070
     0
1070
   279
1070
     0
1070
   173
1070
     1
1070
   340
1005
198
1070
   271
1070
     2
1070
   272
1070
     2
1070
    77
1070
     1
1070
    73
1070
     1
1070
   171
1070
     3
1070
   274
1070
     4
1070
   177
1070
     2
1070
   176
1070
     2
1070
   178
1070
     2
1070
    78
1070
     8
1070
    48
1040
-0.1
1070
    41
1040
3.5
1070
   147
1040
1.75
1070
    42
1040
1.5875
1070
    44
1040
2.0
1070
   140
1040
3.5
1002
}
1001
ACAD_DSTYLE_DIM_LINETYPE
1070
   380
1005
16
1001
ACAD_DSTYLE_DIM_EXT1_LINETYPE
1070
   381
1005
16
1001
ACAD_DSTYLE_DIM_EXT2_LINETYPE
1070
   382
1005
16
0
DIMENSION
5
1CE
100
AcDbEntity
8
2
62
256
6
ByLayer
370
18
48
1
60
0
100
AcDbDimension
2
_U2
10
65.85
20
0
30
0
11
65.85
21
-9
31
0
70
32
71
1
72
1
41
1
210
0
220
0
230
1
3
Standard
100
AcDbAlignedDimension
13
41.1
23
-18
33
0
14
0
24
0
34
0
50
90
100
AcDbRotatedDimension
1001
ACAD
1000
DSTYLE
1002
{
1070
   371
1070
    13
1070
   372
1070
    13
1070
   170
1070
     0
1070
   144
1040
1.0
1070
   277
1070
     2
1070
   284
1070
     8
1070
   278
1070
    46
1070
   146
1040
1.0
1070
   345
1005
16
1070
   347
1005
16
1070
   346
1005
16
1070
   344
1005
0
1070
   343
1005
0
1070
   172
1070
     1
1070
    76
1070
     0
1070
    75
1070
     0
1070
   282
1070
     0
1070
   281
1070
     0
1070
    71
1070
     0
1070
    74
1070
     0
1070
   279
1070
     0
1070
   173
1070
     1
1070
   340
1005
198
1070
   271
1070
     2
1070
   272
1070
     2
1070
    77
1070
     1
1070
    73
1070
     0
1070
   171
1070
     3
1070
   274
1070
     4
1070
   177
1070
     2
1070
   176
1070
     2
1070
   178
1070
     2
1070
    78
1070
     8
1070
    48
1040
-0.1
1070
    41
1040
3.5
1070
   147
1040
1.75
1070
    42
1040
1.5875
1070
    44
1040
2.0
1070
   140
1040
3.5
1002
}
1001
ACAD_DSTYLE_DIM_LINETYPE
1070
   380
1005
16
1001
ACAD_DSTYLE_DIM_EXT1_LINETYPE
1070
   381
1005
16
1001
ACAD_DSTYLE_DIM_EXT2_LINETYPE
1070
   382
1005
16
0
DIMENSION
5
1E6
100
AcDbEntity
8
2
62
256
6
ByLayer
370
18
48
1
60
0
100
AcDbDimension
2
_U3
10
52.85
20
-12
30
0
11
52.85
21
-15
31
0
70
32
71
1
72
1
41
1
210
0
220
0
230
1
3
Standard
100
AcDbAlignedDimension
13
41.1
23
-18
33
0
14
41.1
24
-12
34
0
50
90
100
AcDbRotatedDimension
1001
ACAD
1000
DSTYLE
1002
{
1070
   371
1070
    13
1070
   372
1070
    13
1070
   170
1070
     0
1070
   144
1040
1.0
1070
   277
1070
     2
1070
   284
1070
     8
1070
   278
1070
    46
1070
   146
1040
1.0
1070
   345
1005
16
1070
   347
1005
16
1070
   346
1005
16
1070
   344
1005
0
1070
   343
1005
0
1070
   172
1070
     1
1070
    76
1070
     0
1070
    75
1070
     0
1070
   282
1070
     0
1070
   281
1070
     0
1070
    71
1070
     0
1070
    74
1070
     0
1070
   279
1070
     0
1070
   173
1070
     1
1070
   340
1005
198
1070
   271
1070
     2
1070
   272
1070
     2
1070
    77
1070
     1
1070
    73
1070
     0
1070
   171
1070
     3
1070
   274
1070
     4
1070
   177
1070
     2
1070
   176
1070
     2
1070
   178
1070
     2
1070
    78
1070
     8
1070
    48
1040
-0.1
1070
    41
1040
3.5
1070
   147
1040
1.75
1070
    42
1040
1.5875
1070
    44
1040
2.0
1070
   140
1040
3.5
1002
}
1001
ACAD_DSTYLE_DIM_LINETYPE
1070
   380
1005
16
1001
ACAD_DSTYLE_DIM_EXT1_LINETYPE
1070
   381
1005
16
1001
ACAD_DSTYLE_DIM_EXT2_LINETYPE
1070
   382
1005
16
0
ENDSEC
0
SECTION
2
OBJECTS
0
DICTIONARY
5
26c
330
0
100
AcDbDictionary
280
0
281
1
3
ACAD_GROUP
350
26d
3
ACAD_MLINESTYLE
350
26e
0
DICTIONARY
5
26d
330
0
100
AcDbDictionary
280
0
281
1
0
DICTIONARY
5
26e
330
0
100
AcDbDictionary
280
0
281
1
3
Standard
350
18
0
MLINESTYLE
5
18
330
26e
100
AcDbMlineStyle
2
Standard
70
0
3

62
256
51
90
52
90
71
2
49
-0.5
62
256
6
ByLayer
49
0.5
62
256
6
ByLayer
0
RASTERVARIABLES
5
25d
330

100
AcDbRasterVariables
90
0
70
1
71
1
72
1
0
ENDSEC
0
EOF
