0
SECTION
2
HEADER
9
$ACADVER
1
AC1015
9
$DWGCODEPAGE
3
ANSI_1252
9
$HANDSEED
5
288
9
$ANGBASE
50
0
9
$ANGDIR
70
0
9
$ATTMODE
70
1
9
$AUNITS
70
0
9
$AUPREC
70
0
9
$CECOLOR
62
256
9
$CELTSCALE
40
1
9
$CELTYPE
6
ByLayer
9
$CELWEIGHT
370
18
9
$CLAYER
8
0
9
$CMLJUST
70
0
9
$CMLSCALE
40
1
9
$CMLSTYLE
2
Standard
9
$DIMSTYLE
2
Standard
9
$TEXTSIZE
40
0.2
9
$TEXTSTYLE
7
Standard
9
$LUNITS
70
2
9
$LUPREC
70
4
9
$EXTNAMES
290
1
9
$INSUNITS
70
4
9
$LTSCALE
40
1
9
$LWDISPLAY
290
1
9
$PDMODE
70
0
9
$PDSIZE
40
0
9
$PLINEGEN
70
0
0
ENDSEC
0
SECTION
2
CLASSES
0
CLASS
1
RASTERVARIABLES
2
AcDbRasterVariables
3
ISM
90
0
280
0
281
0
0
ENDSEC
0
SECTION
2
TABLES
0
TABLE
2
VPORT
5
27e
100
AcDbSymbolTable
0
VPORT
5
1
100
AcDbSymbolTableRecord
100
AcDbViewportTableRecord
2
*Active
70
0
10
0
20
0
11
1
21
1
12
-1
22
1
13
0
23
0
14
0.5
24
0.5
15
10
25
10
16
0
26
0
36
1
17
0
27
0
37
0
0
ENDTAB
0
TABLE
2
LTYPE
5
27f
100
AcDbSymbolTable
0
LTYPE
5
14
100
AcDbSymbolTableRecord
100
AcDbLinetypeTableRecord
70
0
2
ByBlock
3

72
65
73
0
40
0
0
LTYPE
5
15
100
AcDbSymbolTableRecord
100
AcDbLinetypeTableRecord
70
0
2
ByLayer
3

72
65
73
0
40
0
0
LTYPE
5
16
100
AcDbSymbolTableRecord
100
AcDbLinetypeTableRecord
70
0
2
Continuous
3
Solid line
72
65
73
0
40
0
0
LTYPE
5
6E
100
AcDbSymbolTableRecord
100
AcDbLinetypeTableRecord
70
0
2
CENTER
3
____ _ ____ _ ____ _ ____
72
65
73
4
40
47.5
49
22
74
0
49
-8.5
74
0
49
8.5
74
0
49
-8.5
74
0
0
LTYPE
5
6F
100
AcDbSymbolTableRecord
100
AcDbLinetypeTableRecord
70
0
2
DASHED
3
__ __ __ __ __ __ __ __ __
72
65
73
2
40
25.72
49
12.86
74
0
49
-12.86
74
0
0
ENDTAB
0
TABLE
2
LAYER
5
280
100
AcDbSymbolTable
0
LAYER
5
10
100
AcDbSymbolTableRecord
100
AcDbLayerTableRecord
2
0
70
0
62
7
6
Continuous
290
1
370
-3
390
0
0
LAYER
5
71
100
AcDbSymbolTableRecord
100
AcDbLayerTableRecord
2
81
70
0
62
-3
6
Continuous
290
1
370
-3
390
0
0
LAYER
5
73
100
AcDbSymbolTableRecord
100
AcDbLayerTableRecord
2
80
70
0
62
-6
6
Continuous
290
1
370
-3
390
0
0
LAYER
5
75
100
AcDbSymbolTableRecord
100
AcDbLayerTableRecord
2
1
70
0
62
4
6
Continuous
290
1
370
-3
390
0
0
LAYER
5
1AE
100
AcDbSymbolTableRecord
100
AcDbLayerTableRecord
2
Defpoints
70
0
62
7
6
Continuous
290
0
370
-3
390
0
0
LAYER
5
1BB
100
AcDbSymbolTableRecord
100
AcDbLayerTableRecord
2
2
70
0
62
7
6
Continuous
290
1
370
-3
390
0
0
LAYER
5
26d
100
AcDbSymbolTableRecord
100
AcDbLayerTableRecord
2
SK6
70
0
62
5
6
Continuous
290
1
370
-3
390
0
0
ENDTAB
0
TABLE
2
STYLE
5
281
100
AcDbSymbolTable
0
STYLE
5
11
100
AcDbSymbolTableRecord
100
AcDbTextStyleTableRecord
2
Standard
3
txt
70
0
71
0
40
0
41
1
42
0
50
0
0
STYLE
5
1A7
100
AcDbSymbolTableRecord
100
AcDbTextStyleTableRecord
2
iso_b_vert
3
simplex.shx
70
0
71
0
40
0
41
1
42
0
50
0
0
STYLE
5
1A8
100
AcDbSymbolTableRecord
100
AcDbTextStyleTableRecord
2
DWGDirectTextStyle
3
simplex
70
0
71
0
40
0
41
1
42
0
50
0
0
ENDTAB
0
TABLE
2
DIMSTYLE
5
282
100
AcDbSymbolTable
100
AcDbDimStyleTable
0
DIMSTYLE
105
27
100
AcDbSymbolTableRecord
100
AcDbDimStyleTableRecord
2
Standard
70
0
3
<>
41
0.18
42
0.0625
44
0.18
140
0.18
147
0.09
73
0
74
0
77
1
271
2
275
0
278
52
280
0
340
11
0
ENDTAB
0
TABLE
2
VIEW
5
283
100
AcDbSymbolTable
0
ENDTAB
0
TABLE
2
UCS
5
284
100
AcDbSymbolTable
0
ENDTAB
0
TABLE
2
APPID
5
285
100
AcDbSymbolTable
0
APPID
5
12
100
AcDbSymbolTableRecord
100
AcDbRegAppTableRecord
2
ACAD
70
0
0
APPID
5
1AA
100
AcDbSymbolTableRecord
100
AcDbRegAppTableRecord
2
ACAD_DSTYLE_DIMBREAK
70
0
0
APPID
5
22C
100
AcDbSymbolTableRecord
100
AcDbRegAppTableRecord
2
ACAD_DSTYLE_DIM_LINETYPE
70
0
0
APPID
5
22D
100
AcDbSymbolTableRecord
100
AcDbRegAppTableRecord
2
ACAD_DSTYLE_DIM_EXT1_LINETYPE
70
0
0
APPID
5
22E
100
AcDbSymbolTableRecord
100
AcDbRegAppTableRecord
2
ACAD_DSTYLE_DIM_EXT2_LINETYPE
70
0
0
APPID
5
269
100
AcDbSymbolTableRecord
100
AcDbRegAppTableRecord
2
ACAD_MLEADERVER
70
0
0
ENDTAB
0
TABLE
2
BLOCK_RECORD
5
286
100
AcDbSymbolTable
0
BLOCK_RECORD
5
1F
100
AcDbSymbolTableRecord
100
AcDbBlockTableRecord
2
*Model_Space
340
0
70
0
0
BLOCK_RECORD
5
1B
100
AcDbSymbolTableRecord
100
AcDbBlockTableRecord
2
*Paper_Space
340
0
70
0
0
BLOCK_RECORD
5
23
100
AcDbSymbolTableRecord
100
AcDbBlockTableRecord
2
*Paper_Space0
340
0
70
0
0
BLOCK_RECORD
5
1AF
100
AcDbSymbolTableRecord
100
AcDbBlockTableRecord
2
*D1
340
0
70
0
0
BLOCK_RECORD
5
1BC
100
AcDbSymbolTableRecord
100
AcDbBlockTableRecord
2
_U0
340
0
70
0
0
BLOCK_RECORD
5
1C8
100
AcDbSymbolTableRecord
100
AcDbBlockTableRecord
2
*D3
340
0
70
0
0
BLOCK_RECORD
5
1D4
100
AcDbSymbolTableRecord
100
AcDbBlockTableRecord
2
_U1
340
0
70
0
0
BLOCK_RECORD
5
1E0
100
AcDbSymbolTableRecord
100
AcDbBlockTableRecord
2
*D5
340
0
70
0
0
BLOCK_RECORD
5
1EC
100
AcDbSymbolTableRecord
100
AcDbBlockTableRecord
2
_U2
340
0
70
0
0
BLOCK_RECORD
5
1F8
100
AcDbSymbolTableRecord
100
AcDbBlockTableRecord
2
*D7
340
0
70
0
0
BLOCK_RECORD
5
205
100
AcDbSymbolTableRecord
100
AcDbBlockTableRecord
2
_U3
340
0
70
0
0
ENDTAB
0
ENDSEC
0
SECTION
2
BLOCKS
0
BLOCK
5
20
100
AcDbEntity
8
0
100
AcDbBlockBegin
2
*Model_Space
70
0
10
0
20
0
30
0
3
*Model_Space
0
ENDBLK
5
21
100
AcDbEntity
8
0
100
AcDbBlockEnd
0
BLOCK
5
1C
100
AcDbEntity
8
0
100
AcDbBlockBegin
2
*Paper_Space
70
0
10
0
20
0
30
0
3
*Paper_Space
0
ENDBLK
5
1D
100
AcDbEntity
8
0
100
AcDbBlockEnd
0
BLOCK
5
24
100
AcDbEntity
8
0
100
AcDbBlockBegin
2
*Paper_Space0
70
0
10
0
20
0
30
0
3
*Paper_Space0
0
ENDBLK
5
25
100
AcDbEntity
8
0
100
AcDbBlockEnd
0
BLOCK
5
1B0
100
AcDbEntity
8
0
100
AcDbBlockBegin
2
*D1
70
1
10
0
20
0
30
0
3
*D1
0
LINE
5
1B2
100
AcDbEntity
8
0
62
256
6
ByLayer
370
-2
48
1
60
0
100
AcDbLine
10
0
20
-1.5875
30
0
11
0
21
-21.75
31
0
39
0
210
0
220
0
230
1
0
LINE
5
1B3
100
AcDbEntity
8
0
62
256
6
ByLayer
370
-2
48
1
60
0
100
AcDbLine
10
45.1
20
16.4125
30
0
11
45.1
21
-21.75
31
0
39
0
210
0
220
0
230
1
0
LINE
5
1B4
100
AcDbEntity
8
0
62
256
6
ByLayer
370
-2
48
1
60
0
100
AcDbLine
10
3.5
20
-19.75
30
0
11
41.6
21
-19.75
31
0
39
0
210
0
220
0
230
1
0
SOLID
5
1B5
100
AcDbEntity
8
0
62
256
6
ByLayer
370
-1
48
1
60
0
100
AcDbTrace
10
3.5
20
-19.166667
30
0
11
3.5
21
-20.333333
31
0
12
0
22
-19.75
32
0
13
0
23
-19.75
33
0
39
0
210
0
220
0
230
1
0
SOLID
5
1B6
100
AcDbEntity
8
0
62
256
6
ByLayer
370
-1
48
1
60
0
100
AcDbTrace
10
41.6
20
-20.333333
30
0
11
41.6
21
-19.166667
31
0
12
45.1
22
-19.75
32
0
13
45.1
23
-19.75
33
0
39
0
210
0
220
0
230
1
0
MTEXT
5
1B7
100
AcDbEntity
8
0
62
256
6
ByLayer
370
18
48
1
60
0
100
AcDbMText
10
22.55
20
-12.75
30
0
210
0
220
0
230
1
1
\A1;45.1
40
3.5
41
0
44
1
50
0
71
5
72
5
7
iso_b_vert
0
POINT
5
1B8
100
AcDbEntity
8
Defpoints
62
0
6
ByLayer
370
-1
48
1
60
0
100
AcDbPoint
10
0
20
0
30
0
39
0
210
0
220
0
230
1
50
360
0
POINT
5
1B9
100
AcDbEntity
8
Defpoints
62
0
6
ByLayer
370
-1
48
1
60
0
100
AcDbPoint
10
45.1
20
18
30
0
39
0
210
0
220
0
230
1
50
360
0
POINT
5
1BA
100
AcDbEntity
8
Defpoints
62
0
6
ByLayer
370
-1
48
1
60
0
100
AcDbPoint
10
45.1
20
-19.75
30
0
39
0
210
0
220
0
230
1
50
360
0
ENDBLK
5
1B1
100
AcDbEntity
8
0
100
AcDbBlockEnd
0
BLOCK
5
1C3
100
AcDbEntity
8
0
100
AcDbBlockBegin
2
_U0
70
0
10
0
20
0
30
0
3
_U0
0
MTEXT
5
1BD
100
AcDbEntity
8
2
62
256
6
ByLayer
370
18
48
1
60
0
100
AcDbMText
10
18.881467
20
-18.717366
30
0
210
0
220
0
230
1
1
\W0.7531;45.1
40
3.5
41
0
44
1.084337
50
0
71
7
72
5
7
iso_b_vert
0
LINE
5
1BE
100
AcDbEntity
8
2
62
256
6
ByLayer
370
13
48
1
60
0
100
AcDbLine
10
0
20
-1.5875
30
0
11
0
21
-21.75
31
0
39
0
210
0
220
0
230
1
0
LINE
5
1BF
100
AcDbEntity
8
2
62
256
6
ByLayer
370
13
48
1
60
0
100
AcDbLine
10
45.1
20
16.4125
30
0
11
45.1
21
-21.75
31
0
39
0
210
0
220
0
230
1
0
LINE
5
1C0
100
AcDbEntity
8
2
62
256
6
ByLayer
370
13
48
1
60
0
100
AcDbLine
10
0
20
-19.75
30
0
11
45.1
21
-19.75
31
0
39
0
210
0
220
0
230
1
0
SOLID
5
1C1
100
AcDbEntity
8
2
62
256
6
ByLayer
370
18
48
1
60
0
100
AcDbTrace
10
0
20
-19.75
30
0
11
3.499998
21
-19.289216
31
0
12
3.500002
22
-20.210784
32
0
13
3.500002
23
-20.210784
33
0
39
0
210
0
220
0
230
1
0
SOLID
5
1C2
100
AcDbEntity
8
2
62
256
6
ByLayer
370
18
48
1
60
0
100
AcDbTrace
10
45.1
20
-19.75
30
0
11
41.600002
21
-20.210784
31
0
12
41.599998
22
-19.289216
32
0
13
41.599998
23
-19.289216
33
0
39
0
210
0
220
0
230
1
0
ENDBLK
5
1C4
100
AcDbEntity
8
0
100
AcDbBlockEnd
0
BLOCK
5
1C9
100
AcDbEntity
8
0
100
AcDbBlockBegin
2
*D3
70
1
10
0
20
0
30
0
3
*D3
0
LINE
5
1CB
100
AcDbEntity
8
0
62
256
6
ByLayer
370
-2
48
1
60
0
100
AcDbLine
10
27.1
20
12.738718
30
0
11
27.1
21
-13.75
31
0
39
0
210
0
220
0
230
1
0
LINE
5
1CC
100
AcDbEntity
8
0
62
256
6
ByLayer
370
-2
48
1
60
0
100
AcDbLine
10
45.1
20
16.4125
30
0
11
45.1
21
-13.75
31
0
39
0
210
0
220
0
230
1
0
LINE
5
1CD
100
AcDbEntity
8
0
62
256
6
ByLayer
370
-2
48
1
60
0
100
AcDbLine
10
30.6
20
-11.75
30
0
11
41.6
21
-11.75
31
0
39
0
210
0
220
0
230
1
0
SOLID
5
1CE
100
AcDbEntity
8
0
62
256
6
ByLayer
370
-1
48
1
60
0
100
AcDbTrace
10
30.6
20
-11.166667
30
0
11
30.6
21
-12.333333
31
0
12
27.1
22
-11.75
32
0
13
27.1
23
-11.75
33
0
39
0
210
0
220
0
230
1
0
SOLID
5
1CF
100
AcDbEntity
8
0
62
256
6
ByLayer
370
-1
48
1
60
0
100
AcDbTrace
10
41.6
20
-12.333333
30
0
11
41.6
21
-11.166667
31
0
12
45.1
22
-11.75
32
0
13
45.1
23
-11.75
33
0
39
0
210
0
220
0
230
1
0
MTEXT
5
1D0
100
AcDbEntity
8
0
62
256
6
ByLayer
370
18
48
1
60
0
100
AcDbMText
10
36.1
20
-4.75
30
0
210
0
220
0
230
1
1
\A1;18
40
3.5
41
0
44
1
50
0
71
5
72
5
7
iso_b_vert
0
POINT
5
1D1
100
AcDbEntity
8
Defpoints
62
0
6
ByLayer
370
-1
48
1
60
0
100
AcDbPoint
10
27.1
20
14.326218
30
0
39
0
210
0
220
0
230
1
50
360
0
POINT
5
1D2
100
AcDbEntity
8
Defpoints
62
0
6
ByLayer
370
-1
48
1
60
0
100
AcDbPoint
10
45.1
20
18
30
0
39
0
210
0
220
0
230
1
50
360
0
POINT
5
1D3
100
AcDbEntity
8
Defpoints
62
0
6
ByLayer
370
-1
48
1
60
0
100
AcDbPoint
10
45.1
20
-11.75
30
0
39
0
210
0
220
0
230
1
50
360
0
ENDBLK
5
1CA
100
AcDbEntity
8
0
100
AcDbBlockEnd
0
BLOCK
5
1DB
100
AcDbEntity
8
0
100
AcDbBlockBegin
2
_U1
70
0
10
0
20
0
30
0
3
_U1
0
MTEXT
5
1D5
100
AcDbEntity
8
2
62
256
6
ByLayer
370
18
48
1
60
0
100
AcDbMText
10
34.632467
20
-10.717366
30
0
210
0
220
0
230
1
1
\W0.5321;18
40
3.5
41
0
44
1.084337
50
0
71
7
72
5
7
iso_b_vert
0
LINE
5
1D6
100
AcDbEntity
8
2
62
256
6
ByLayer
370
13
48
1
60
0
100
AcDbLine
10
27.1
20
12.738718
30
0
11
27.1
21
-13.75
31
0
39
0
210
0
220
0
230
1
0
LINE
5
1D7
100
AcDbEntity
8
2
62
256
6
ByLayer
370
13
48
1
60
0
100
AcDbLine
10
45.1
20
16.4125
30
0
11
45.1
21
-13.75
31
0
39
0
210
0
220
0
230
1
0
LINE
5
1D8
100
AcDbEntity
8
2
62
256
6
ByLayer
370
13
48
1
60
0
100
AcDbLine
10
27.1
20
-11.75
30
0
11
45.1
21
-11.75
31
0
39
0
210
0
220
0
230
1
0
SOLID
5
1D9
100
AcDbEntity
8
2
62
256
6
ByLayer
370
18
48
1
60
0
100
AcDbTrace
10
27.1
20
-11.75
30
0
11
30.599998
21
-11.289216
31
0
12
30.600002
22
-12.210784
32
0
13
30.600002
23
-12.210784
33
0
39
0
210
0
220
0
230
1
0
SOLID
5
1DA
100
AcDbEntity
8
2
62
256
6
ByLayer
370
18
48
1
60
0
100
AcDbTrace
10
45.1
20
-11.75
30
0
11
41.600002
21
-12.210784
31
0
12
41.599998
22
-11.289216
32
0
13
41.599998
23
-11.289216
33
0
39
0
210
0
220
0
230
1
0
ENDBLK
5
1DC
100
AcDbEntity
8
0
100
AcDbBlockEnd
0
BLOCK
5
1E1
100
AcDbEntity
8
0
100
AcDbBlockBegin
2
*D5
70
1
10
0
20
0
30
0
3
*D5
0
LINE
5
1E3
100
AcDbEntity
8
0
62
256
6
ByLayer
370
-2
48
1
60
0
100
AcDbLine
10
46.6875
20
18
30
0
11
71.85
21
18
31
0
39
0
210
0
220
0
230
1
0
LINE
5
1E4
100
AcDbEntity
8
0
62
256
6
ByLayer
370
-2
48
1
60
0
100
AcDbLine
10
1.5875
20
0
30
0
11
71.85
21
0
31
0
39
0
210
0
220
0
230
1
0
LINE
5
1E5
100
AcDbEntity
8
0
62
256
6
ByLayer
370
-2
48
1
60
0
100
AcDbLine
10
69.85
20
14.5
30
0
11
69.85
21
3.5
31
0
39
0
210
0
220
0
230
1
0
SOLID
5
1E6
100
AcDbEntity
8
0
62
256
6
ByLayer
370
-1
48
1
60
0
100
AcDbTrace
10
70.433333
20
14.5
30
0
11
69.266667
21
14.5
31
0
12
69.85
22
18
32
0
13
69.85
23
18
33
0
39
0
210
0
220
0
230
1
0
SOLID
5
1E7
100
AcDbEntity
8
0
62
256
6
ByLayer
370
-1
48
1
60
0
100
AcDbTrace
10
69.266667
20
3.5
30
0
11
70.433333
21
3.5
31
0
12
69.85
22
0
32
0
13
69.85
23
0
33
0
39
0
210
0
220
0
230
1
0
MTEXT
5
1E8
100
AcDbEntity
8
0
62
256
6
ByLayer
370
18
48
1
60
0
100
AcDbMText
10
62.85
20
9
30
0
210
0
220
0
230
1
1
\A1;18
40
3.5
41
0
44
1
50
90
71
5
72
5
7
iso_b_vert
0
POINT
5
1E9
100
AcDbEntity
8
Defpoints
62
0
6
ByLayer
370
-1
48
1
60
0
100
AcDbPoint
10
45.1
20
18
30
0
39
0
210
0
220
0
230
1
50
360
0
POINT
5
1EA
100
AcDbEntity
8
Defpoints
62
0
6
ByLayer
370
-1
48
1
60
0
100
AcDbPoint
10
0
20
0
30
0
39
0
210
0
220
0
230
1
50
360
0
POINT
5
1EB
100
AcDbEntity
8
Defpoints
62
0
6
ByLayer
370
-1
48
1
60
0
100
AcDbPoint
10
69.85
20
0
30
0
39
0
210
0
220
0
230
1
50
360
0
ENDBLK
5
1E2
100
AcDbEntity
8
0
100
AcDbBlockEnd
0
BLOCK
5
1F3
100
AcDbEntity
8
0
100
AcDbBlockBegin
2
_U2
70
0
10
0
20
0
30
0
3
_U2
0
MTEXT
5
1ED
100
AcDbEntity
8
2
62
256
6
ByLayer
370
18
48
1
60
0
100
AcDbMText
10
69.160366
20
7.504467
30
0
210
0
220
0
230
1
1
\W0.5321;18
40
3.5
41
0
44
1.084337
50
90
71
7
72
5
7
iso_b_vert
0
LINE
5
1EE
100
AcDbEntity
8
2
62
256
6
ByLayer
370
13
48
1
60
0
100
AcDbLine
10
46.6875
20
18
30
0
11
71.85
21
18
31
0
39
0
210
0
220
0
230
1
0
LINE
5
1EF
100
AcDbEntity
8
2
62
256
6
ByLayer
370
13
48
1
60
0
100
AcDbLine
10
1.5875
20
0
30
0
11
71.85
21
0
31
0
39
0
210
0
220
0
230
1
0
LINE
5
1F0
100
AcDbEntity
8
2
62
256
6
ByLayer
370
13
48
1
60
0
100
AcDbLine
10
69.85
20
18
30
0
11
69.85
21
0
31
0
39
0
210
0
220
0
230
1
0
SOLID
5
1F1
100
AcDbEntity
8
2
62
256
6
ByLayer
370
18
48
1
60
0
100
AcDbTrace
10
69.85
20
18
30
0
11
70.310784
21
14.500002
31
0
12
69.389216
22
14.499998
32
0
13
69.389216
23
14.499998
33
0
39
0
210
0
220
0
230
1
0
SOLID
5
1F2
100
AcDbEntity
8
2
62
256
6
ByLayer
370
18
48
1
60
0
100
AcDbTrace
10
69.85
20
0
30
0
11
69.389216
21
3.499998
31
0
12
70.310784
22
3.500002
32
0
13
70.310784
23
3.500002
33
0
39
0
210
0
220
0
230
1
0
ENDBLK
5
1F4
100
AcDbEntity
8
0
100
AcDbBlockEnd
0
BLOCK
5
1F9
100
AcDbEntity
8
0
100
AcDbBlockBegin
2
*D7
70
1
10
0
20
0
30
0
3
*D7
0
LINE
5
1FB
100
AcDbEntity
8
0
62
256
6
ByLayer
370
-2
48
1
60
0
100
AcDbLine
10
46.6875
20
18
30
0
11
58.85
21
18
31
0
39
0
210
0
220
0
230
1
0
LINE
5
1FC
100
AcDbEntity
8
0
62
256
6
ByLayer
370
-2
48
1
60
0
100
AcDbLine
10
46.6875
20
14
30
0
11
58.85
21
14
31
0
39
0
210
0
220
0
230
1
0
LINE
5
1FD
100
AcDbEntity
8
0
62
256
6
ByLayer
370
-2
48
1
60
0
100
AcDbLine
10
56.85
20
21.5
30
0
11
56.85
21
25
31
0
39
0
210
0
220
0
230
1
0
LINE
5
1FE
100
AcDbEntity
8
0
62
256
6
ByLayer
370
-2
48
1
60
0
100
AcDbLine
10
56.85
20
10.5
30
0
11
56.85
21
7
31
0
39
0
210
0
220
0
230
1
0
SOLID
5
1FF
100
AcDbEntity
8
0
62
256
6
ByLayer
370
-1
48
1
60
0
100
AcDbTrace
10
56.266667
20
21.5
30
0
11
57.433333
21
21.5
31
0
12
56.85
22
18
32
0
13
56.85
23
18
33
0
39
0
210
0
220
0
230
1
0
SOLID
5
200
100
AcDbEntity
8
0
62
256
6
ByLayer
370
-1
48
1
60
0
100
AcDbTrace
10
57.433333
20
10.5
30
0
11
56.266667
21
10.5
31
0
12
56.85
22
14
32
0
13
56.85
23
14
33
0
39
0
210
0
220
0
230
1
0
MTEXT
5
201
100
AcDbEntity
8
0
62
256
6
ByLayer
370
18
48
1
60
0
100
AcDbMText
10
49.85
20
16
30
0
210
0
220
0
230
1
1
\A1;4
40
3.5
41
0
44
1
50
90
71
5
72
5
7
iso_b_vert
0
POINT
5
202
100
AcDbEntity
8
Defpoints
62
0
6
ByLayer
370
-1
48
1
60
0
100
AcDbPoint
10
45.1
20
18
30
0
39
0
210
0
220
0
230
1
50
360
0
POINT
5
203
100
AcDbEntity
8
Defpoints
62
0
6
ByLayer
370
-1
48
1
60
0
100
AcDbPoint
10
45.1
20
14
30
0
39
0
210
0
220
0
230
1
50
360
0
POINT
5
204
100
AcDbEntity
8
Defpoints
62
0
6
ByLayer
370
-1
48
1
60
0
100
AcDbPoint
10
56.85
20
14
30
0
39
0
210
0
220
0
230
1
50
360
0
ENDBLK
5
1FA
100
AcDbEntity
8
0
100
AcDbBlockEnd
0
BLOCK
5
20C
100
AcDbEntity
8
0
100
AcDbBlockBegin
2
_U3
70
0
10
0
20
0
30
0
3
_U3
0
MTEXT
5
206
100
AcDbEntity
8
2
62
256
6
ByLayer
370
18
48
1
60
0
100
AcDbMText
10
56.160366
20
15.1905
30
0
210
0
220
0
230
1
1
\W0.6380;4
40
3.5
41
0
44
1.084337
50
90
71
7
72
5
7
iso_b_vert
0
LINE
5
207
100
AcDbEntity
8
2
62
256
6
ByLayer
370
13
48
1
60
0
100
AcDbLine
10
46.6875
20
18
30
0
11
58.85
21
18
31
0
39
0
210
0
220
0
230
1
0
LINE
5
208
100
AcDbEntity
8
2
62
256
6
ByLayer
370
13
48
1
60
0
100
AcDbLine
10
46.6875
20
14
30
0
11
58.85
21
14
31
0
39
0
210
0
220
0
230
1
0
LINE
5
209
100
AcDbEntity
8
2
62
256
6
ByLayer
370
13
48
1
60
0
100
AcDbLine
10
56.85
20
26.75
30
0
11
56.85
21
5.25
31
0
39
0
210
0
220
0
230
1
0
SOLID
5
20A
100
AcDbEntity
8
2
62
256
6
ByLayer
370
18
48
1
60
0
100
AcDbTrace
10
56.85
20
18
30
0
11
56.389216
21
21.499998
31
0
12
57.310784
22
21.500002
32
0
13
57.310784
23
21.500002
33
0
39
0
210
0
220
0
230
1
0
SOLID
5
20B
100
AcDbEntity
8
2
62
256
6
ByLayer
370
18
48
1
60
0
100
AcDbTrace
10
56.85
20
14
30
0
11
57.310784
21
10.500002
31
0
12
56.389216
22
10.499998
32
0
13
56.389216
23
10.499998
33
0
39
0
210
0
220
0
230
1
0
ENDBLK
5
20D
100
AcDbEntity
8
0
100
AcDbBlockEnd
0
ENDSEC
0
SECTION
2
ENTITIES
0
ARC
5
109
100
AcDbEntity
8
1
62
256
6
ByLayer
370
18
48
1
60
0
100
AcDbCircle
39
0
10
20.5
20
0.875
30
0
40
0.5
210
0
220
0
230
1
100
AcDbArc
50
90
51
180
0
ARC
5
10A
100
AcDbEntity
8
1
62
256
6
ByLayer
370
18
48
1
60
0
100
AcDbCircle
39
0
10
20
20
7.100853
30
0
40
4.55
210
0
220
0
230
1
100
AcDbArc
50
73.239369
51
286.760631
0
ARC
5
10B
100
AcDbEntity
8
1
62
256
6
ByLayer
370
18
48
1
60
0
100
AcDbCircle
39
0
10
20
20
7.100853
30
0
40
4.55000000000001
210
0
220
0
230
1
100
AcDbArc
50
286.760631
51
73.239369
0
ARC
5
10C
100
AcDbEntity
8
1
62
256
6
ByLayer
370
18
48
1
60
0
100
AcDbCircle
39
0
10
28.341698
20
-5.998782
30
0
40
23.6749999999917
210
0
220
0
230
1
100
AcDbArc
50
129.648583
51
148.055116
0
ARC
5
10D
100
AcDbEntity
8
1
62
256
6
ByLayer
370
18
48
1
60
0
100
AcDbCircle
39
0
10
20
20
7.100853
30
0
40
1.416
210
0
220
0
230
1
100
AcDbArc
50
186.192438
51
240.190711
0
ARC
5
10E
100
AcDbEntity
8
1
62
256
6
ByLayer
370
18
48
1
60
0
100
AcDbCircle
39
0
10
20
20
7.100853
30
0
40
1.416
210
0
220
0
230
1
100
AcDbArc
50
6.192438
51
60.190711
0
ARC
5
10F
100
AcDbEntity
8
1
62
256
6
ByLayer
370
18
48
1
60
0
100
AcDbCircle
39
0
10
20
20
7.100853
30
0
40
1.416
210
0
220
0
230
1
100
AcDbArc
50
60.190711
51
119.809289
0
ARC
5
110
100
AcDbEntity
8
1
62
256
6
ByLayer
370
18
48
1
60
0
100
AcDbCircle
39
0
10
20
20
7.100853
30
0
40
1.416
210
0
220
0
230
1
100
AcDbArc
50
119.809289
51
173.807562
0
ARC
5
111
100
AcDbEntity
8
1
62
256
6
ByLayer
370
18
48
1
60
0
100
AcDbCircle
39
0
10
20
20
7.100853
30
0
40
1.416
210
0
220
0
230
1
100
AcDbArc
50
299.809289
51
353.807562
0
ARC
5
112
100
AcDbEntity
8
1
62
256
6
ByLayer
370
18
48
1
60
0
100
AcDbCircle
39
0
10
20
20
7.100853
30
0
40
1.416
210
0
220
0
230
1
100
AcDbArc
50
240.190711
51
299.809289
0
ARC
5
113
100
AcDbEntity
8
1
62
256
6
ByLayer
370
18
48
1
60
0
100
AcDbCircle
39
0
10
20
20
7.100853
30
0
40
1.416
210
0
220
0
230
1
100
AcDbArc
50
173.807562
51
186.192438
0
ARC
5
114
100
AcDbEntity
8
1
62
256
6
ByLayer
370
18
48
1
60
0
100
AcDbCircle
39
0
10
20
20
7.100853
30
0
40
1.9685
210
0
220
0
230
1
100
AcDbArc
50
149.618578
51
210.381422
0
ARC
5
115
100
AcDbEntity
8
1
62
256
6
ByLayer
370
18
48
1
60
0
100
AcDbCircle
39
0
10
20
20
7.100853
30
0
40
1.9685
210
0
220
0
230
1
100
AcDbArc
50
329.618578
51
30.381422
0
ARC
5
116
100
AcDbEntity
8
1
62
256
6
ByLayer
370
18
48
1
60
0
100
AcDbCircle
39
0
10
20
20
7.100853
30
0
40
1.416
210
0
220
0
230
1
100
AcDbArc
50
353.807562
51
6.192438
0
ARC
5
119
100
AcDbEntity
8
1
62
256
6
ByLayer
370
18
48
1
60
0
100
AcDbCircle
39
0
10
20
20
7.100853
30
0
40
1.9685
210
0
220
0
230
1
100
AcDbArc
50
270
51
329.618578
0
ARC
5
11A
100
AcDbEntity
8
1
62
256
6
ByLayer
370
18
48
1
60
0
100
AcDbCircle
39
0
10
20
20
7.100853
30
0
40
1.9685
210
0
220
0
230
1
100
AcDbArc
50
30.381422
51
90
0
ARC
5
11B
100
AcDbEntity
8
1
62
256
6
ByLayer
370
18
48
1
60
0
100
AcDbCircle
39
0
10
20
20
7.100853
30
0
40
1.9685
210
0
220
0
230
1
100
AcDbArc
50
90
51
149.618578
0
ARC
5
11C
100
AcDbEntity
8
1
62
256
6
ByLayer
370
18
48
1
60
0
100
AcDbCircle
39
0
10
20
20
7.100853
30
0
40
1.9685
210
0
220
0
230
1
100
AcDbArc
50
210.381422
51
270
0
CIRCLE
5
117
100
AcDbEntity
8
1
62
256
6
ByLayer
370
18
48
1
60
0
100
AcDbCircle
10
20
20
7.100853
30
0
40
4.25
39
0
210
0
220
0
230
1
0
CIRCLE
5
118
100
AcDbEntity
8
1
62
256
6
ByLayer
370
18
48
1
60
0
100
AcDbCircle
10
20
20
7.100853
30
0
40
3.75
39
0
210
0
220
0
230
1
0
ELLIPSE
5
11D
100
AcDbEntity
8
1
62
256
6
ByLayer
370
18
48
1
60
0
100
AcDbEllipse
10
37.534518
20
17.400861
30
0
11
-0.0719339714072928
21
0.0719339870921981
31
0
210
0
220
0
230
1
40
0.965689
41
0.767944979193308
42
0.94247790567377
0
ELLIPSE
5
11E
100
AcDbEntity
8
1
62
256
6
ByLayer
370
18
48
1
60
0
100
AcDbEllipse
10
37.65644
20
16.705577
30
0
11
-0.0719339798563423
21
0.0719339801765728
31
0
210
0
220
0
230
1
40
0.965689
41
0.942477807364686
42
1.43202835316792
0
ELLIPSE
5
11F
100
AcDbEntity
8
1
62
256
6
ByLayer
370
18
48
1
60
0
100
AcDbEllipse
10
37.65644
20
15.371793
30
0
11
-0.0719339798602302
21
0.0719339801496961
31
0
210
0
220
0
230
1
40
0.965689
41
0.103861392830396
42
0.593411938633711
0
ELLIPSE
5
120
100
AcDbEntity
8
1
62
256
6
ByLayer
370
18
48
1
60
0
100
AcDbEllipse
10
37.534518
20
14.685019
30
0
11
-0.0719339723721793
21
0.0719339861022488
31
0
210
0
220
0
230
1
40
0.965689
41
0.593412040745958
42
0.767944967076973
0
ELLIPSE
5
121
100
AcDbEntity
8
1
62
256
6
ByLayer
370
18
48
1
60
0
100
AcDbEllipse
10
44.8
20
14.302254
30
0
11
0.3
21
0
31
0
210
0
220
0
230
1
40
0.999391
41
-1.614429558062
42
0
0
ELLIPSE
5
122
100
AcDbEntity
8
1
62
256
6
ByLayer
370
18
48
1
60
0
100
AcDbEllipse
10
44.8
20
17.700183
30
0
11
-0.3
21
3.67381906146713E-17
31
0
210
0
220
0
230
1
40
0.999391
41
3.14159265358979
42
-1.52716309552779
0
ELLIPSE
5
123
100
AcDbEntity
8
1
62
256
6
ByLayer
370
18
48
1
60
0
100
AcDbEllipse
10
20.4
20
17.700183
30
0
11
0.3
21
0
31
0
210
0
220
0
230
1
40
0.999391
41
1.52716309552781
42
3.14159265358979
0
ELLIPSE
5
124
100
AcDbEntity
8
1
62
256
6
ByLayer
370
18
48
1
60
0
100
AcDbEllipse
10
441.90474
20
-12.217577
30
0
11
-1330.88283970229
21
3.70086580432196
31
0
210
0
220
0
230
1
40
0.01975
41
-1.26231771631306
42
-1.26036958640923
0
ELLIPSE
5
125
100
AcDbEntity
8
1
62
256
6
ByLayer
370
18
48
1
60
0
100
AcDbEllipse
10
38.23365
20
-12.198782
30
0
11
-26.8794833774281
21
3.29167861314614E-15
31
0
210
0
220
0
230
1
40
0.986812
41
-1.51026389918354
42
-1.39754477996677
0
ELLIPSE
5
126
100
AcDbEntity
8
1
62
256
6
ByLayer
370
18
48
1
60
0
100
AcDbEllipse
10
36.612725
20
26.458408
30
0
11
0.68463859849283
21
39.2270602354413
31
0
210
0
220
0
230
1
40
0.017687
41
-1.84663995819402
42
-1.8321002926079
0
ELLIPSE
5
127
100
AcDbEntity
8
1
62
256
6
ByLayer
370
18
48
1
60
0
100
AcDbEllipse
10
39.046024
20
-12.198782
30
0
11
-31.5920073156346
21
3.86877728887292E-15
31
0
210
0
220
0
230
1
40
0.839611
41
-1.39754477992726
42
-1.18301612656528
0
ELLIPSE
5
128
100
AcDbEntity
8
1
62
256
6
ByLayer
370
18
48
1
60
0
100
AcDbEllipse
10
10.067574
20
-0.174981
30
0
11
0.244102752794543
21
0.13510345013967
31
0
210
0
220
0
230
1
40
0.266975
41
-2.69215064132294
42
-1.64495309012806
0
ELLIPSE
5
129
100
AcDbEntity
8
1
62
256
6
ByLayer
370
18
48
1
60
0
100
AcDbEllipse
10
-0.717206
20
-5.998782
30
0
11
-3.0091808358286E-14
21
23.6750000000177
31
0
210
0
220
0
230
1
40
0.923606
41
-0.691998315040102
42
-0.298100182173345
0
ELLIPSE
5
12A
100
AcDbEntity
8
1
62
256
6
ByLayer
370
18
48
1
60
0
100
AcDbEllipse
10
0.644061
20
-5.998782
30
0
11
-3.00918083582507E-14
21
23.67499999999
31
0
210
0
220
0
230
1
40
0.923606
41
-0.68015879871088
42
-0.268251850315151
0
ELLIPSE
5
12B
100
AcDbEntity
8
1
62
256
6
ByLayer
370
18
48
1
60
0
100
AcDbEllipse
10
39.046024
20
-5.998782
30
0
11
-28.1975786313611
21
3.45309339543709E-15
31
0
210
0
220
0
230
1
40
0.839611
41
-1.37643697252027
42
-0.890637528083903
0
ELLIPSE
5
12C
100
AcDbEntity
8
1
62
256
6
ByLayer
370
18
48
1
60
0
100
AcDbEllipse
10
38.23365
20
-5.998782
30
0
11
-23.9913956186074
21
2.9380015511613E-15
31
0
210
0
220
0
230
1
40
0.986812
41
-1.50859503754832
42
-1.3764369725111
0
ELLIPSE
5
12D
100
AcDbEntity
8
1
62
256
6
ByLayer
370
18
48
1
60
0
100
AcDbEllipse
10
49.263621
20
-12.198782
30
0
11
-3.37142646970792E-14
21
26.5250000000137
31
0
210
0
220
0
230
1
40
0.57735
41
0.343918077014526
42
0.924950766851081
0
ELLIPSE
5
12E
100
AcDbEntity
8
1
62
256
6
ByLayer
370
18
48
1
60
0
100
AcDbEllipse
10
-106.901062
20
-5.99876
30
0
11
1836.43693218525
21
3.29580098787318
31
0
210
0
220
0
230
1
40
0.012766
41
1.49254893078248
42
1.49946439921813
0
ELLIPSE
5
12F
100
AcDbEntity
8
1
62
256
6
ByLayer
370
18
48
1
60
0
100
AcDbEllipse
10
17.449642
20
-5.998779
30
0
11
-765.268233349613
21
9.37152340938362E-14
31
0
210
0
220
0
230
1
40
0.030937
41
-1.57079608058608
42
-1.55137907465185
0
POINT
5
70
100
AcDbEntity
8
81
62
256
6
ByLayer
370
18
48
1
60
0
100
AcDbPoint
10
45.1
20
18
30
0
39
0
210
0
220
0
230
1
50
360
0
POINT
5
72
100
AcDbEntity
8
80
62
256
6
ByLayer
370
18
48
1
60
0
100
AcDbPoint
10
0
20
0
30
0
39
0
210
0
220
0
230
1
50
360
0
POINT
5
74
100
AcDbEntity
8
1
62
256
6
ByLayer
370
18
48
1
60
1
100
AcDbPoint
10
0
20
0
30
0
39
0
210
0
220
0
230
1
50
360
0
POINT
5
76
100
AcDbEntity
8
1
62
256
6
ByLayer
370
18
48
1
60
1
100
AcDbPoint
10
45.1
20
18
30
0
39
0
210
0
220
0
230
1
50
360
0
POINT
5
77
100
AcDbEntity
8
1
62
256
6
ByLayer
370
18
48
1
60
1
100
AcDbPoint
10
27.1
20
14.326218
30
0
39
0
210
0
220
0
230
1
50
360
0
POINT
5
78
100
AcDbEntity
8
1
62
256
6
ByLayer
370
18
48
1
60
1
100
AcDbPoint
10
45.1
20
18
30
0
39
0
210
0
220
0
230
1
50
360
0
POINT
5
79
100
AcDbEntity
8
1
62
256
6
ByLayer
370
18
48
1
60
1
100
AcDbPoint
10
45.1
20
18
30
0
39
0
210
0
220
0
230
1
50
360
0
POINT
5
7A
100
AcDbEntity
8
1
62
256
6
ByLayer
370
18
48
1
60
1
100
AcDbPoint
10
0
20
0
30
0
39
0
210
0
220
0
230
1
50
360
0
POINT
5
7B
100
AcDbEntity
8
1
62
256
6
ByLayer
370
18
48
1
60
1
100
AcDbPoint
10
45.1
20
18
30
0
39
0
210
0
220
0
230
1
50
360
0
POINT
5
7C
100
AcDbEntity
8
1
62
256
6
ByLayer
370
18
48
1
60
1
100
AcDbPoint
10
45.1
20
14
30
0
39
0
210
0
220
0
230
1
50
360
0
SPLINE
5
130
100
AcDbEntity
8
1
62
256
6
ByLayer
370
18
48
1
60
0
100
AcDbSpline
70
4
71
3
72
18
73
14
40
0
40
0
40
0
40
0
40
0.106502320877429
40
0.209819720888381
40
0.309970050664573
40
0.406972922400279
40
0.500849920826028
40
0.591624858696189
40
0.679324076625901
40
0.763976789997871
40
0.845615488385996
40
0.924276395492348
40
1
40
1
40
1
40
1
41
1
10
37.69011863841
20
16.5203007513907
30
0
41
1
10
37.6885415273358
20
16.5210343803454
30
0
41
1
10
37.6854344682343
20
16.5224796992946
30
0
41
1
10
37.6809243323185
20
16.524939218529
30
0
41
1
10
37.6766153234624
20
16.5275499445939
30
0
41
1
10
37.6725126225171
20
16.5303157050577
30
0
41
1
10
37.6686149102103
20
16.5332125470941
30
0
41
1
10
37.6649224452296
20
16.5362242094512
30
0
41
1
10
37.6614353720449
20
16.5393336812076
30
0
41
1
10
37.658152836714
20
16.5425234941088
30
0
41
1
10
37.6550778698625
20
16.5457825108175
30
0
41
1
10
37.6521996835922
20
16.5490801609477
30
0
41
1
10
37.6504035869187
20
16.5513752653056
30
0
41
1
10
37.6495226247501
20
16.5525009842841
30
0
0
SPLINE
5
131
100
AcDbEntity
8
1
62
256
6
ByLayer
370
18
48
1
60
0
100
AcDbSpline
70
4
71
3
72
16
73
12
40
0
40
0
40
0
40
0
40
0.117319552192528
40
0.233085853411068
40
0.347299362420247
40
0.459960556948122
40
0.57106993474474
40
0.680628014712969
40
0.788635338118844
40
0.895092469888315
40
1
40
1
40
1
40
1
41
1
10
37.8489454154501
20
16.4594386681355
30
0
41
1
10
37.8426777667126
20
16.4614791043153
30
0
41
1
10
37.8302254497071
20
16.4655329623417
30
0
41
1
10
37.811719256025
20
16.4718899895892
30
0
41
1
10
37.7934972967187
20
16.478387871227
30
0
41
1
10
37.7755628433778
20
16.4850399062347
30
0
41
1
10
37.7579151153779
20
16.4918316335998
30
0
41
1
10
37.7405540288849
20
16.4987543053279
30
0
41
1
10
37.7234806581351
20
16.5058042117748
30
0
41
1
10
37.7066908752589
20
16.5129532355101
30
0
41
1
10
37.6956156516798
20
16.517863579355
30
0
41
1
10
37.69011863841
20
16.5203007513977
30
0
0
SPLINE
5
132
100
AcDbEntity
8
1
62
256
6
ByLayer
370
18
48
1
60
0
100
AcDbSpline
70
4
71
2
72
10
73
7
40
0
40
0
40
0
40
0.5
40
0.5
40
0.75
40
0.75
40
1
40
1
40
1
41
1
10
37.8489454154436
20
16.4594386681718
30
0
41
1
10
37.916539241666
20
16.4375968660401
30
0
41
1
10
37.9642354827691
20
16.3842402523238
30
0
41
1
10
37.9902224727209
20
16.3551692447888
30
0
41
1
10
38.0068593747305
20
16.3187550664532
30
0
41
1
10
38.0248252361524
20
16.2794321154978
30
0
41
1
10
38.0289461970831
20
16.2362919833913
30
0
0
SPLINE
5
133
100
AcDbEntity
8
1
62
256
6
ByLayer
370
18
48
1
60
0
100
AcDbSpline
70
4
71
2
72
6
73
3
40
0
40
0
40
0
40
1
40
1
40
1
41
1
10
38.0289461971205
20
16.236291983476
30
0
41
1
10
38.0378374892932
20
16.1408206536982
30
0
41
1
10
38.0378609595315
20
16.0453614673599
30
0
0
SPLINE
5
134
100
AcDbEntity
8
1
62
256
6
ByLayer
370
18
48
1
60
0
100
AcDbSpline
70
4
71
3
72
17
73
13
40
0
40
0
40
0
40
0
40
0.100317411817071
40
0.200541310293573
40
0.300680278273627
40
0.40074292044767
40
0.50073786120194
40
0.60067374244287
40
0.700559221399265
40
0.800402968404949
40
0.900213664663611
40
1
40
1
40
1
40
1
41
1
10
38.0289461971201
20
15.8150775582115
30
0
41
1
10
38.0295231228818
20
15.8213979101004
30
0
41
1
10
38.0306764366098
20
15.8340327222069
30
0
41
1
10
38.0321818251214
20
15.8530230433358
30
0
41
1
10
38.0335216262513
20
15.8720271283292
30
0
41
1
10
38.0346798037513
20
15.8910468662881
30
0
41
1
10
38.0356607269914
20
15.9100796334798
30
0
41
1
10
38.0364629358429
20
15.9291240269245
30
0
41
1
10
38.0370879043617
20
15.9481782692546
30
0
41
1
10
38.0375311975091
20
15.9672408627012
30
0
41
1
10
38.0378090731846
20
15.986309568168
30
0
41
1
10
38.0378436654889
20
15.9990275953932
30
0
41
1
10
38.03786095953
20
16.0053858328848
30
0
0
SPLINE
5
135
100
AcDbEntity
8
1
62
256
6
ByLayer
370
18
48
1
60
0
100
AcDbSpline
70
4
71
3
72
38
73
34
40
0
40
0
40
0
40
0
40
0.032016180320227
40
0.0634137556517452
40
0.0941938978135354
40
0.124357850632127
40
0.153906935795963
40
0.18284255929869
40
0.211166218540756
40
0.23887951016957
40
0.265984138747583
40
0.292481926351467
40
0.318374823219168
40
0.34366491957864
40
0.368354458810697
40
0.392445852120296
40
0.415941694916247
40
0.438844785127739
40
0.461158143719605
40
0.482885037706439
40
0.504029006008675
40
0.551366811163469
40
0.597409666800775
40
0.642207857911426
40
0.685815975457818
40
0.728293199080109
40
0.769703557232112
40
0.810116149643944
40
0.84960531421151
40
0.88825071811133
40
0.926137351649955
40
0.963355403684997
40
1
40
1
40
1
40
1
41
1
10
37.8489454154401
20
15.6044947468887
30
0
41
1
10
37.8515736233649
20
15.6051835757612
30
0
41
1
10
37.8567792579371
20
15.6065479242053
30
0
41
1
10
37.8644507904023
20
15.6089139703873
30
0
41
1
10
37.8719249095622
20
15.6114747190165
30
0
41
1
10
37.8791975153459
20
15.6142411135463
30
0
41
1
10
37.8862696764354
20
15.6171941398571
30
0
41
1
10
37.8931411178643
20
15.6203227682095
30
0
41
1
10
37.8998119140362
20
15.6236141222027
30
0
41
1
10
37.9062820488635
20
15.6270560627486
30
0
41
1
10
37.9125515300024
20
15.6306365439253
30
0
41
1
10
37.9186203592459
20
15.6343438042506
30
0
41
1
10
37.9244885401636
20
15.6381663385682
30
0
41
1
10
37.9301560763679
20
15.6420929242348
30
0
41
1
10
37.9356229711882
20
15.646112631056
30
0
41
1
10
37.940889230658
20
15.6502148322612
30
0
41
1
10
37.9459548524165
20
15.6543892161048
30
0
41
1
10
37.9508198658028
20
15.6586257840949
30
0
41
1
10
37.9554841879109
20
15.6629148906636
30
0
41
1
10
37.9599481402182
20
15.667247126856
30
0
41
1
10
37.9660095568
20
15.6734566838555
30
0
41
1
10
37.9734588192033
20
15.6817799508779
30
0
41
1
10
37.9820027422797
20
15.6925472576862
30
0
41
1
10
37.9898489226436
20
15.7037144757526
30
0
41
1
10
37.9969976055379
20
15.7152364925326
30
0
41
1
10
38.0034486190907
20
15.7270690619087
30
0
41
1
10
38.0092017357358
20
15.7391682755869
30
0
41
1
10
38.0142571546108
20
15.7514907653798
30
0
41
1
10
38.0186132961072
20
15.7639942813115
30
0
41
1
10
38.0222748801839
20
15.7766360628704
30
0
41
1
10
38.0252236999948
20
15.7893793330982
30
0
41
1
10
38.0275246334319
20
15.8021702532693
30
0
41
1
10
38.0284748015061
20
15.8107974499334
30
0
41
1
10
38.0289461970801
20
15.8150775582986
30
0
0
SPLINE
5
136
100
AcDbEntity
8
1
62
256
6
ByLayer
370
18
48
1
60
0
100
AcDbSpline
70
4
71
2
72
6
73
3
40
0
40
0
40
0
40
1
40
1
40
1
41
1
10
37.8489454154521
20
15.6044947469245
30
0
41
1
10
37.7679467190157
20
15.5840834923258
30
0
41
1
10
37.6901186384125
20
15.5547186128254
30
0
0
SPLINE
5
137
100
AcDbEntity
8
1
62
256
6
ByLayer
370
18
48
1
60
0
100
AcDbSpline
70
4
71
2
72
6
73
3
40
0
40
0
40
0
40
1
40
1
40
1
41
1
10
37.6901186384115
20
15.5547186128324
30
0
41
1
10
37.6658197594191
20
15.5454035073139
30
0
41
1
10
37.6495226247506
20
15.5253519408293
30
0
0
SPLINE
5
138
100
AcDbEntity
8
1
62
256
6
ByLayer
370
18
48
1
60
0
100
AcDbSpline
70
4
71
3
72
10
73
6
40
0
40
0
40
0
40
0
40
0.5
40
0.5
40
1
40
1
40
1
40
1
41
1
10
11.0276281961116
20
-0.28227754060643
30
0
41
1
10
11.024604110705
20
-0.277167459287682
30
0
41
1
10
11.0210220935147
20
-0.271804402679407
30
0
41
1
10
11.013193480974
20
-0.261019280122355
30
0
41
1
10
11.0089152580003
20
-0.255544143276097
30
0
41
1
10
11.0043341013017
20
-0.249999999999773
30
0
0
SPLINE
5
139
100
AcDbEntity
8
1
62
256
6
ByLayer
370
18
48
1
60
0
100
AcDbSpline
70
4
71
3
72
16
73
12
40
0
40
0
40
0
40
0
40
0.249999999999997
40
0.249999999999997
40
0.499999999999995
40
0.499999999999995
40
0.749999999999992
40
0.749999999999992
40
0.874999999999996
40
0.874999999999996
40
1
40
1
40
1
40
1
41
1
10
11.0276281961116
20
-0.282277540606458
30
0
41
1
10
11.0655609699117
20
-0.287336251186247
30
0
41
1
10
11.1034318228734
20
-0.292282100096372
30
0
41
1
10
11.1790487078829
20
-0.301684454692804
30
0
41
1
10
11.2167947747196
20
-0.306145453798109
30
0
41
1
10
11.2921593820356
20
-0.314163386023608
30
0
41
1
10
11.3297360724389
20
-0.317725065648716
30
0
41
1
10
11.3854005138776
20
-0.321753904772237
30
0
41
1
10
11.403855529943
20
-0.322876673905029
30
0
41
1
10
11.4405128455448
20
-0.324487662952038
30
0
41
1
10
11.4587165340475
20
-0.324980947161691
30
0
41
1
10
11.4767455840037
20
-0.324980947161691
30
0
0
SPLINE
5
13A
100
AcDbEntity
8
1
62
256
6
ByLayer
370
18
48
1
60
0
100
AcDbSpline
70
4
71
3
72
8
73
4
40
0
40
0
40
0
40
0
40
1
40
1
40
1
40
1
41
1
10
11.0276281961116
20
-0.282277540606458
30
0
41
1
10
11.0118395197766
20
-0.271487560575792
30
0
41
1
10
10.9960440478665
20
-0.260728153479562
30
0
41
1
10
10.9802416290831
20
-0.25
30
0
0
SPLINE
5
13B
100
AcDbEntity
8
1
62
256
6
ByLayer
370
18
48
1
60
0
100
AcDbSpline
70
4
71
3
72
18
73
14
40
0
40
0
40
0
40
0
40
0.125000000000002
40
0.125000000000002
40
0.250000000000005
40
0.250000000000005
40
0.499999999999995
40
0.499999999999995
40
0.62499999999999
40
0.62499999999999
40
0.749999999999985
40
0.749999999999985
40
1
40
1
40
1
40
1
41
1
10
11.6224972601399
20
-0.324980947161663
30
0
41
1
10
11.6192703907151
20
-0.324980947161663
30
0
41
1
10
11.6154439919953
20
-0.324317343478441
30
0
41
1
10
11.6069612897688
20
-0.321956226105357
30
0
41
1
10
11.602269896615
20
-0.320249995981385
30
0
41
1
10
11.5871602352551
20
-0.313833832995215
30
0
41
1
10
11.576065685278
20
-0.308011887553732
30
0
41
1
10
11.5583323750177
20
-0.297626089548913
30
0
41
1
10
11.5522495768641
20
-0.293887591674519
30
0
41
1
10
11.5399996913608
20
-0.286061631183884
30
0
41
1
10
11.533800706262
20
-0.281955461569027
30
0
41
1
10
11.5150061950698
20
-0.269118079601725
30
0
41
1
10
11.5022154752707
20
-0.259874306686129
30
0
41
1
10
11.4891887427026
20
-0.25
30
0
0
SPLINE
5
13C
100
AcDbEntity
8
1
62
256
6
ByLayer
370
18
48
1
60
0
100
AcDbSpline
70
4
71
2
72
6
73
3
40
0
40
0
40
0
40
1
40
1
40
1
41
1
10
11.7003488338351
20
-0.324980947161691
30
0
41
1
10
11.6623357600101
20
-0.32498094716172
30
0
41
1
10
11.6225385935649
20
-0.32498094716172
30
0
0
SPLINE
5
13D
100
AcDbEntity
8
1
62
256
6
ByLayer
370
18
48
1
60
0
100
AcDbSpline
70
4
71
3
72
20
73
16
40
0
40
0
40
0
40
0
40
0.249999999999989
40
0.249999999999989
40
0.374999999999991
40
0.374999999999991
40
0.499999999999993
40
0.499999999999993
40
0.624999999999995
40
0.624999999999995
40
0.749999999999996
40
0.749999999999996
40
0.874999999999998
40
0.874999999999998
40
1
40
1
40
1
40
1
41
1
10
11.6684781235838
20
-0.249999999999915
30
0
41
1
10
11.6767867414206
20
-0.259734549354079
30
0
41
1
10
11.6843676251665
20
-0.269228281522629
30
0
41
1
10
11.6941070170369
20
-0.282819409469283
30
0
41
1
10
11.6970181369881
20
-0.287157299177181
30
0
41
1
10
11.7020757146846
20
-0.295395783281549
30
0
41
1
10
11.70423462607
20
-0.299327912698914
30
0
41
1
10
11.7075283622337
20
-0.306433565607506
30
0
41
1
10
11.7086811012233
20
-0.309627561895638
30
0
41
1
10
11.709905560238
20
-0.315233151109652
30
0
41
1
10
11.7099565341409
20
-0.317602526875618
30
0
41
1
10
11.7089593394718
20
-0.321329216849307
30
0
41
1
10
11.7079143112223
20
-0.322720644458258
30
0
41
1
10
11.7047744349767
20
-0.324556906143442
30
0
41
1
10
11.7027276586107
20
-0.32498065502682
30
0
41
1
10
11.7002715671113
20
-0.324980947011881
30
0
0
SPLINE
5
13E
100
AcDbEntity
8
1
62
256
6
ByLayer
370
18
48
1
60
0
100
AcDbSpline
70
4
71
3
72
42
73
38
40
0
40
0
40
0
40
0
40
0.0156249999999991
40
0.0156249999999991
40
0.0312499999999982
40
0.0624999999999981
40
0.0624999999999981
40
0.124999999999996
40
0.187499999999994
40
0.187499999999994
40
0.218749999999994
40
0.218749999999994
40
0.249999999999994
40
0.249999999999994
40
0.374999999999995
40
0.374999999999995
40
0.406249999999993
40
0.406249999999993
40
0.437499999999992
40
0.437499999999992
40
0.499999999999989
40
0.499999999999989
40
0.624999999999986
40
0.624999999999986
40
0.656249999999987
40
0.656249999999987
40
0.687499999999989
40
0.687499999999989
40
0.749999999999991
40
0.749999999999991
40
0.812499999999993
40
0.812499999999993
40
0.874999999999996
40
0.874999999999996
40
0.937499999999998
40
0.937499999999998
40
1
40
1
40
1
40
1
41
1
10
25.5
20
2.16592381580759
30
0
41
1
10
25.5
20
2.17820161346435
30
0
41
1
10
25.5001434314157
20
2.19067861289804
30
0
41
1
10
25.5007194787735
20
2.21547837611178
30
0
41
1
10
25.5020151528809
20
2.25262447922205
30
0
41
1
10
25.5045968381441
20
2.28961099712709
30
0
41
1
10
25.5114619817934
20
2.36337263307365
30
0
41
1
10
25.5251463579211
20
2.4611587032654
30
0
41
1
10
25.5479302727571
20
2.55781073287653
30
0
41
1
10
25.5685341403941
20
2.62985944642881
30
0
41
1
10
25.5759890855245
20
2.65380216628009
30
0
41
1
10
25.5921028762747
20
2.7015363777972
30
0
41
1
10
25.6007210561087
20
2.72520492052757
30
0
41
1
10
25.6465248387704
20
2.8423358550053
30
0
41
1
10
25.6918532410352
20
2.93242800120174
30
0
41
1
10
25.7598183767401
20
3.04031708501753
30
0
41
1
10
25.7739814056584
20
3.06165657832469
30
0
41
1
10
25.803479128676
20
3.10384498765921
30
0
41
1
10
25.8188371811496
20
3.12472393087651
30
0
41
1
10
25.8665748386549
20
3.18639708228983
30
0
41
1
10
25.9003532646449
20
3.22590533305748
30
0
41
1
10
26.0075758924764
20
3.33957708468194
30
0
41
1
10
26.0868393379135
20
3.40894402909436
30
0
41
1
10
26.1966412357552
20
3.48678245857639
30
0
41
1
10
26.2190144703233
20
3.50180871334842
30
0
41
1
10
26.2644299930006
20
3.53067534131708
30
0
41
1
10
26.287496681387
20
3.54453308853763
30
0
41
1
10
26.3577757440245
20
3.58437502480262
30
0
41
1
10
26.4060641912019
20
3.60863258791923
30
0
41
1
10
26.5055919037025
20
3.6524077622114
30
0
41
1
10
26.5568304515591
20
3.67192653188496
30
0
41
1
10
26.6624389345661
20
3.70592954735611
30
0
41
1
10
26.7158605390796
20
3.72010375329458
30
0
41
1
10
26.8237306931467
20
3.7428555434401
30
0
41
1
10
26.8782097332656
20
3.75144282419439
30
0
41
1
10
26.9882677509829
20
3.76297652404975
30
0
41
1
10
27.0438465581644
20
3.76592381580758
30
0
41
1
10
27.1000000000001
20
3.76592381580758
30
0
0
SPLINE
5
13F
100
AcDbEntity
8
1
62
256
6
ByLayer
370
18
48
1
60
0
100
AcDbSpline
70
4
71
3
72
20
73
16
40
0
40
0
40
0
40
0
40
0.125000000000002
40
0.125000000000002
40
0.250000000000004
40
0.250000000000004
40
0.375000000000006
40
0.375000000000006
40
0.500000000000007
40
0.500000000000007
40
0.625000000000009
40
0.625000000000009
40
0.750000000000011
40
0.750000000000011
40
1
40
1
40
1
40
1
41
1
10
12.1092848975574
20
-0.324980947087255
30
0
41
1
10
12.107254044376
20
-0.324981196953928
30
0
41
1
10
12.1045810907115
20
-0.324340880433709
30
0
41
1
10
12.0983483013897
20
-0.322018168166267
30
0
41
1
10
12.0947757469597
20
-0.320340999940072
30
0
41
1
10
12.0868485278645
20
-0.316102421478263
30
0
41
1
10
12.0824979881206
20
-0.31353891412266
30
0
41
1
10
12.0733790323531
20
-0.307803069518741
30
0
41
1
10
12.0685783551001
20
-0.304613503251545
30
0
41
1
10
12.0585602905132
20
-0.29767751332821
30
0
41
1
10
12.0533120633888
20
-0.293907347526101
30
0
41
1
10
12.0426436032128
20
-0.286012629843469
30
0
41
1
10
12.0372126933245
20
-0.281882103214599
30
0
41
1
10
12.020666805848
20
-0.269007950892956
30
0
41
1
10
12.009301763559
20
-0.259787645928668
30
0
41
1
10
11.9976433210011
20
-0.25
30
0
0
SPLINE
5
140
100
AcDbEntity
8
1
62
256
6
ByLayer
370
18
48
1
60
0
100
AcDbSpline
70
4
71
2
72
6
73
3
40
0
40
0
40
0
40
1
40
1
40
1
41
1
10
12.1591777306887
20
-0.324980947161691
30
0
41
1
10
12.1351086225604
20
-0.324980947161691
30
0
41
1
10
12.1093895093787
20
-0.324980947161691
30
0
0
SPLINE
5
141
100
AcDbEntity
8
1
62
256
6
ByLayer
370
18
48
1
60
0
100
AcDbSpline
70
4
71
3
72
22
73
18
40
0
40
0
40
0
40
0
40
0.125
40
0.125
40
0.25
40
0.25
40
0.375
40
0.375
40
0.5
40
0.5
40
0.625
40
0.625
40
0.75
40
0.75
40
0.875
40
0.875
40
1
40
1
40
1
40
1
41
1
10
12.112447912294
20
-0.249999999999943
30
0
41
1
10
12.1167868703034
20
-0.254854742203293
30
0
41
1
10
12.1209776473745
20
-0.259636419717196
30
0
41
1
10
12.1290217080621
20
-0.269034144111373
30
0
41
1
10
12.1328661856318
20
-0.273641363100268
30
0
41
1
10
12.1400065186708
20
-0.282471564406677
30
0
41
1
10
12.1433230755429
20
-0.286718169404963
30
0
41
1
10
12.1493691551654
20
-0.294822935140644
30
0
41
1
10
12.1521174610557
20
-0.298711369994777
30
0
41
1
10
12.1567559307757
20
-0.305797443053109
30
0
41
1
10
12.1586618746924
20
-0.309011980465471
30
0
41
1
10
12.1615434185313
20
-0.314703920460204
30
0
41
1
10
12.1624968318173
20
-0.317151650447101
30
0
41
1
10
12.1633272609604
20
-0.321050353590891
30
0
41
1
10
12.1632184611248
20
-0.322535308026602
30
0
41
1
10
12.1619178742492
20
-0.32451233325267
30
0
41
1
10
12.160748914312
20
-0.324980744910022
30
0
41
1
10
12.1591123242011
20
-0.324980947096634
30
0
0
SPLINE
5
142
100
AcDbEntity
8
1
62
256
6
ByLayer
370
18
48
1
60
0
100
AcDbSpline
70
4
71
3
72
14
73
10
40
0
40
0
40
0
40
0
40
0.25
40
0.25
40
0.5
40
0.5
40
0.75
40
0.75
40
1
40
1
40
1
40
1
41
1
10
36.8390734842682
20
15.5465335772739
30
0
41
1
10
36.8215527157585
20
15.4401581912299
30
0
41
1
10
36.803800358988
20
15.3338606198665
30
0
41
1
10
36.7676290275922
20
15.1214894636894
30
0
41
1
10
36.7492131271498
20
15.0154101834676
30
0
41
1
10
36.711367437779
20
14.8036130060014
30
0
41
1
10
36.6919509441526
20
14.6979033326543
30
0
41
1
10
36.6514168750313
20
14.4871349759883
30
0
41
1
10
36.6303442437666
20
14.3820590928824
30
0
41
1
10
36.6075630445553
20
14.2776370646651
30
0
0
SPLINE
5
143
100
AcDbEntity
8
1
62
256
6
ByLayer
370
18
48
1
60
0
100
AcDbSpline
70
4
71
3
72
8
73
4
40
0
40
0
40
0
40
0
40
1
40
1
40
1
40
1
41
1
10
37.0172710546164
20
15.6245213328939
30
0
41
1
10
36.957987131214
20
15.598006298824
30
0
41
1
10
36.8986298446985
20
15.5718216630981
30
0
41
1
10
36.8390734842682
20
15.546533577274
30
0
0
SPLINE
5
144
100
AcDbEntity
8
1
62
256
6
ByLayer
370
18
48
1
60
0
100
AcDbSpline
70
4
71
3
72
18
73
14
40
0
40
0
40
0
40
0
40
0.124999999999992
40
0.124999999999992
40
0.249999999999985
40
0.249999999999985
40
0.500000000000022
40
0.500000000000022
40
0.750000000000059
40
0.750000000000059
40
0.87500000000003
40
0.87500000000003
40
1
40
1
40
1
40
1
41
1
10
37.0938438314483
20
15.7629224274929
30
0
41
1
10
37.0936684242885
20
15.7551132617325
30
0
41
1
10
37.0930463564123
20
15.7473955436047
30
0
41
1
10
37.0909275099267
20
15.7321391923298
30
0
41
1
10
37.089412032224
20
15.7245356408421
30
0
41
1
10
37.0836288129301
20
15.7025221425579
30
0
41
1
10
37.0782131539721
20
15.6889879531225
30
0
41
1
10
37.0643493008569
20
15.6642837431904
30
0
41
1
10
37.0562602586412
20
15.6537448771155
30
0
41
1
10
37.0424879991405
20
15.6405044696558
30
0
41
1
10
37.0376265298351
20
15.6365479774537
30
0
41
1
10
37.0276759798975
20
15.6297562046267
30
0
41
1
10
37.0225485377021
20
15.6268817138503
30
0
41
1
10
37.0172710546164
20
15.6245213328939
30
0
0
SPLINE
5
145
100
AcDbEntity
8
1
62
256
6
ByLayer
370
18
48
1
60
0
100
AcDbSpline
70
4
71
3
72
18
73
14
40
0
40
0
40
0
40
0
40
0.125000000000027
40
0.125000000000027
40
0.250000000000054
40
0.250000000000054
40
0.500000000000044
40
0.500000000000044
40
0.750000000000033
40
0.750000000000033
40
0.875000000000017
40
0.875000000000017
40
1
40
1
40
1
40
1
41
1
10
37.036334204682
20
16.456216983664
30
0
41
1
10
37.0414913062595
20
16.4534793017656
30
0
41
1
10
37.0464650335885
20
16.4502371688259
30
0
41
1
10
37.0560450441312
20
16.4427420872611
30
0
41
1
10
37.0606770025195
20
16.4384609474223
30
0
41
1
10
37.0738069822098
20
16.4241907850218
30
0
41
1
10
37.0813765773096
20
16.4130340799925
30
0
41
1
10
37.0939987673852
20
16.3873651039793
30
0
41
1
10
37.0987429248337
20
16.3734910963769
30
0
41
1
10
37.1034743660416
20
16.3510979919054
30
0
41
1
10
37.1046151513548
20
16.3434956872653
30
0
41
1
10
37.1060195895497
20
16.3282301274971
30
0
41
1
10
37.1062903385349
20
16.3205338546184
30
0
41
1
10
37.1061181513136
20
16.3127724014518
30
0
0
SPLINE
5
146
100
AcDbEntity
8
1
62
256
6
ByLayer
370
18
48
1
60
0
100
AcDbSpline
70
4
71
3
72
8
73
4
40
0
40
0
40
0
40
0
40
1
40
1
40
1
40
1
41
1
10
36.8642636582481
20
16.5462750621668
30
0
41
1
10
36.9217564478883
20
16.5167687939657
30
0
41
1
10
36.9790769806955
20
16.4866123643445
30
0
41
1
10
37.036334204682
20
16.456216983664
30
0
0
SPLINE
5
147
100
AcDbEntity
8
1
62
256
6
ByLayer
370
18
48
1
60
0
100
AcDbSpline
70
4
71
3
72
10
73
6
40
0
40
0
40
0
40
0
40
0.5
40
0.5
40
1
40
1
40
1
40
1
41
1
10
36.7423163148745
20
17.6304338184756
30
0
41
1
10
36.7631683940904
20
17.449857886889
30
0
41
1
10
36.7836410709204
20
17.2691976671387
30
0
41
1
10
36.8242065339479
20
16.9077928310055
30
0
41
1
10
36.8442920207417
20
16.7270465929844
30
0
41
1
10
36.8642636582481
20
16.5462750621668
30
0
0
SPLINE
5
148
100
AcDbEntity
8
1
62
256
6
ByLayer
370
18
48
1
60
0
100
AcDbSpline
70
4
71
3
72
12
73
8
40
0
40
0
40
0
40
0
40
0.279915818467533
40
0.279915818467533
40
0.559831636935066
40
0.559831636935066
40
1
40
1
40
1
40
1
41
1
10
-12.0881936018054
20
-0.324980947161663
30
0
41
1
10
-12.0724293033973
20
-0.324980947161293
30
0
41
1
10
-12.0563145906413
20
-0.324140031765523
30
0
41
1
10
-12.0236224935398
20
-0.321432392161768
30
0
41
1
10
-12.0070405445916
20
-0.319553049457142
30
0
41
1
10
-11.9639178530067
20
-0.31375527917919
30
0
41
1
10
-11.9370513372836
20
-0.309281617071264
30
0
41
1
10
-11.9100841610081
20
-0.304203938282598
30
0
0
SPLINE
5
149
100
AcDbEntity
8
1
62
256
6
ByLayer
370
18
48
1
60
0
100
AcDbSpline
70
4
71
3
72
30
73
26
40
0
40
0
40
0
40
0
40
0.124999999999993
40
0.124999999999993
40
0.187499999999989
40
0.187499999999989
40
0.249999999999985
40
0.312499999999982
40
0.312499999999982
40
0.374999999999978
40
0.374999999999978
40
0.499999999999974
40
0.499999999999974
40
0.562499999999976
40
0.562499999999976
40
0.624999999999978
40
0.624999999999978
40
0.749999999999987
40
0.749999999999987
40
0.81249999999999
40
0.81249999999999
40
0.874999999999993
40
0.937499999999997
40
0.937499999999997
40
1
40
1
40
1
40
1
41
1
10
14.272209428644
20
1.375
30
0
41
1
10
14.2500924484084
20
1.375
30
0
41
1
10
14.228053699137
20
1.37184524071961
30
0
41
1
10
14.1951172651323
20
1.3622058076956
30
0
41
1
10
14.1842805696398
20
1.35819977622589
30
0
41
1
10
14.1630634368024
20
1.34871346430882
30
0
41
1
10
14.1422433562508
20
1.33773564577859
30
0
41
1
10
14.1222102940526
20
1.32380143303922
30
0
41
1
10
14.1025786481296
20
1.30835932058403
30
0
41
1
10
14.0929217374853
20
1.29983613365201
30
0
41
1
10
14.0651466136046
20
1.27248836972282
30
0
41
1
10
14.0480577833705
20
1.25181459491549
30
0
41
1
10
14.0245361050739
20
1.21719287109173
30
0
41
1
10
14.0170426658869
20
1.20503309945985
30
0
41
1
10
14.0028208549019
20
1.1795100605984
30
0
41
1
10
13.9961964711147
20
1.16633606881322
30
0
41
1
10
13.9777334498802
20
1.12561858730163
30
0
41
1
10
13.9672917115965
20
1.09689080860974
30
0
41
1
10
13.9544812855652
20
1.0513810655664
30
0
41
1
10
13.9506889336861
20
1.03576751393891
30
0
41
1
10
13.9442346739121
20
1.00440493730767
30
0
41
1
10
13.9388591265737
20
0.972745587862363
30
0
41
1
10
13.9356027931514
20
0.940503205296352
30
0
41
1
10
13.9334176768782
20
0.907966112001759
30
0
41
1
10
13.9328610188872
20
0.891489880359217
30
0
41
1
10
13.9328610188872
20
0.875
30
0
0
SPLINE
5
14A
100
AcDbEntity
8
1
62
256
6
ByLayer
370
18
48
1
60
0
100
AcDbSpline
70
4
71
3
72
42
73
38
40
0
40
0
40
0
40
0
40
0.031249999999999
40
0.0468749999999987
40
0.0468749999999987
40
0.0624999999999982
40
0.0624999999999982
40
0.124999999999996
40
0.124999999999996
40
0.187499999999994
40
0.187499999999994
40
0.218749999999994
40
0.234374999999993
40
0.234374999999993
40
0.249999999999992
40
0.249999999999992
40
0.312499999999991
40
0.312499999999991
40
0.37499999999999
40
0.37499999999999
40
0.499999999999989
40
0.499999999999989
40
0.531249999999989
40
0.531249999999989
40
0.56249999999999
40
0.56249999999999
40
0.624999999999994
40
0.624999999999994
40
0.749999999999997
40
0.749999999999997
40
0.812499999999999
40
0.812499999999999
40
0.84375
40
0.84375
40
0.875000000000001
40
0.875000000000001
40
1
40
1
40
1
40
1
41
1
10
25.5000000000001
20
9.98007275376159
30
0
41
1
10
25.5000000000001
20
10.0153062683362
30
0
41
1
10
25.5013804323079
20
10.0682189924129
30
0
41
1
10
25.504729143995
20
10.1212207635261
30
0
41
1
10
25.5073907809895
20
10.1565746933677
30
0
41
1
10
25.508939094089
20
10.1742898071984
30
0
41
1
10
25.5176887289467
20
10.2624789867653
30
0
41
1
10
25.5278828189973
20
10.3318308583757
30
0
41
1
10
25.5537680867022
20
10.4684704769678
30
0
41
1
10
25.5694653349736
20
10.5357559444679
30
0
41
1
10
25.596749968021
20
10.6352802627031
30
0
41
1
10
25.611330413422
20
10.6846901598486
30
0
41
1
10
25.6272708113548
20
10.7335894026772
30
0
41
1
10
25.6381962189849
20
10.7660768220052
30
0
41
1
10
25.6438143013955
20
10.7822810934341
30
0
41
1
10
25.6725042457504
20
10.8626472984617
30
0
41
1
10
25.697439659294
20
10.9250852426996
30
0
41
1
10
25.7508601610971
20
11.0466413146593
30
0
41
1
10
25.7793474287355
20
11.1057574041273
30
0
41
1
10
25.8697586897631
20
11.2784767152037
30
0
41
1
10
25.9365904159726
20
11.3874900028668
30
0
41
1
10
26.0278616373115
20
11.5165257041197
30
0
41
1
10
26.0465059434484
20
11.541968040849
30
0
41
1
10
26.0845764092857
20
11.5921214894546
30
0
41
1
10
26.1040403995804
20
11.6168775087881
30
0
41
1
10
26.1632249054867
20
11.6895688856605
30
0
41
1
10
26.2037819272183
20
11.7360062825186
30
0
41
1
10
26.3286474551764
20
11.8694457067393
30
0
41
1
10
26.4161254757828
20
11.9506208333718
30
0
41
1
10
26.5537447840756
20
12.0606134442841
30
0
41
1
10
26.6006911373884
20
12.0953045619357
30
0
41
1
10
26.6727879617164
20
12.1442576658049
30
0
41
1
10
26.6971151863792
20
12.160067111116
30
0
41
1
10
26.7459982125948
20
12.1904192054267
30
0
41
1
10
26.7705946704394
20
12.2049906109384
30
0
41
1
10
26.8943555228603
20
12.2748094473215
30
0
41
1
10
26.9958325971582
20
12.321032096213
30
0
41
1
10
27.1000000000001
20
12.3567562621805
30
0
0
SPLINE
5
14B
100
AcDbEntity
8
1
62
256
6
ByLayer
370
18
48
1
60
0
100
AcDbSpline
70
4
71
3
72
22
73
18
40
0
40
0
40
0
40
0
40
0.124999999999999
40
0.124999999999999
40
0.187499999999999
40
0.187499999999999
40
0.25
40
0.25
40
0.375000000000001
40
0.375000000000001
40
0.5
40
0.5
40
0.625
40
0.625
40
0.75
40
0.75
40
1
40
1
40
1
40
1
41
1
10
-19
20
0.875000000000369
30
0
41
1
10
-19
20
0.886739396505504
30
0
41
1
10
-19
20
0.898334933247412
30
0
41
1
10
-19
20
0.915526319994314
30
0
41
1
10
-19
20
0.921249839664796
30
0
41
1
10
-19
20
0.932382397268725
30
0
41
1
10
-19
20
0.937818025288578
30
0
41
1
10
-19
20
0.953779495961811
30
0
41
1
10
-19
20
0.963962002739862
30
0
41
1
10
-19
20
0.983590258656619
30
0
41
1
10
-19
20
0.993066633922297
30
0
41
1
10
-19
20
1.01103989558169
30
0
41
1
10
-19
20
1.01958933386419
30
0
41
1
10
-19
20
1.03599807149254
30
0
41
1
10
-19
20
1.04387864715071
30
0
41
1
10
-19
20
1.06647334031416
30
0
41
1
10
-19
20
1.08016731983295
30
0
41
1
10
-19
20
1.09294494717704
30
0
0
SPLINE
5
14C
100
AcDbEntity
8
1
62
256
6
ByLayer
370
18
48
1
60
0
100
AcDbSpline
70
4
71
3
72
17
73
13
40
0
40
0
40
0
40
0
40
0.125
40
0.125
40
0.25
40
0.25
40
0.500000000000001
40
0.750000000000001
40
0.750000000000001
40
0.875
40
0.875
40
1
40
1
40
1
40
1
41
1
10
13.2352225785396
20
1.10194986103846
30
0
41
1
10
13.2321935483705
20
1.09318855767586
30
0
41
1
10
13.229320321848
20
1.0842346687981
30
0
41
1
10
13.223954314237
20
1.06613922486665
30
0
41
1
10
13.2214653348589
20
1.05701600373564
30
0
41
1
10
13.2145677418633
20
1.02942479564709
30
0
41
1
10
13.2068853819302
20
0.992047219944396
30
0
41
1
10
13.2021935309548
20
0.953505971538192
30
0
41
1
10
13.1998286481957
20
0.9241509863636
30
0
41
1
10
13.1992333220504
20
0.91426735684496
30
0
41
1
10
13.1984461533021
20
0.894599019381985
30
0
41
1
10
13.1982512593706
20
0.884788104788328
30
0
41
1
10
13.1982512593706
20
0.875000000000085
30
0
0
SPLINE
5
14D
100
AcDbEntity
8
1
62
256
6
ByLayer
370
18
48
1
60
0
100
AcDbSpline
70
4
71
3
72
29
73
25
40
0
40
0
40
0
40
0
40
0.0312500000000007
40
0.0312500000000007
40
0.0390625000000007
40
0.0390625000000007
40
0.0468750000000007
40
0.0625000000000007
40
0.0625000000000007
40
0.125000000000001
40
0.125000000000001
40
0.250000000000001
40
0.250000000000001
40
0.5
40
0.5
40
0.625
40
0.625
40
0.75
40
0.75
40
0.875
40
0.875
40
0.9375
40
0.9375
40
1
40
1
40
1
40
1
41
1
10
4.27170925976944
20
1.375
30
0
41
1
10
4.22741708030421
20
1.375
30
0
41
1
10
4.18311521228611
20
1.37474466629501
30
0
41
1
10
4.12772677047062
20
1.37413278892913
30
0
41
1
10
4.11662214905542
20
1.37399551069433
30
0
41
1
10
4.09427422884423
20
1.37368997305902
30
0
41
1
10
4.06075558069162
20
1.37318797124104
30
0
41
1
10
4.02724641447105
20
1.37255778395618
30
0
41
1
10
3.9155693592561
20
1.37018454364463
30
0
41
1
10
3.82629208870634
20
1.36741568963569
30
0
41
1
10
3.55862276249422
20
1.35691250020776
30
0
41
1
10
3.38039235477672
20
1.34699285937802
30
0
41
1
10
2.84615367628121
20
1.3111160225001
30
0
41
1
10
2.49060296760774
20
1.27897308159913
30
0
41
1
10
1.95751260839614
20
1.22757220977638
30
0
41
1
10
1.77985535969111
20
1.20990407890304
30
0
41
1
10
1.42447169103707
20
1.17550293757336
30
0
41
1
10
1.24674643474305
20
1.15875419576076
30
0
41
1
10
0.891013924382435
20
1.12906901707234
30
0
41
1
10
0.713004743019667
20
1.11615863515703
30
0
41
1
10
0.445564863653289
20
1.10255357249485
30
0
41
1
10
0.356363876266812
20
1.09898704843107
30
0
41
1
10
0.178116206561867
20
1.09418171358328
30
0
41
1
10
0.0890353225494209
20
1.09294494717704
30
0
41
1
10
0
20
1.09294494717704
30
0
0
SPLINE
5
14E
100
AcDbEntity
8
1
62
256
6
ByLayer
370
18
48
1
60
0
100
AcDbSpline
70
4
71
3
72
104
73
100
40
0
40
0
40
0
40
0
40
0.0156249999999999
40
0.0156249999999999
40
0.0312499999999997
40
0.0312499999999997
40
0.0624999999999994
40
0.0624999999999994
40
0.078124999999999
40
0.085937499999999
40
0.085937499999999
40
0.093749999999999
40
0.093749999999999
40
0.125
40
0.15625
40
0.15625
40
0.1640625
40
0.16796875
40
0.16796875
40
0.171875
40
0.171875
40
0.1875
40
0.1875
40
0.21875
40
0.21875
40
0.234375
40
0.2421875
40
0.2421875
40
0.25
40
0.25
40
0.28125
40
0.28125
40
0.3125
40
0.3125
40
0.328125
40
0.328125
40
0.34375
40
0.34375
40
0.374999999999999
40
0.374999999999999
40
0.406249999999999
40
0.406249999999999
40
0.437499999999999
40
0.437499999999999
40
0.453124999999999
40
0.453124999999999
40
0.468749999999999
40
0.468749999999999
40
0.499999999999998
40
0.499999999999998
40
0.531249999999998
40
0.562499999999998
40
0.562499999999998
40
0.578124999999998
40
0.578124999999998
40
0.585937499999998
40
0.585937499999998
40
0.593749999999998
40
0.593749999999998
40
0.624999999999999
40
0.624999999999999
40
0.656249999999999
40
0.656249999999999
40
0.671874999999999
40
0.6796875
40
0.6796875
40
0.6875
40
0.6875
40
0.71875
40
0.71875
40
0.75
40
0.75
40
0.78125
40
0.78125
40
0.7890625
40
0.7890625
40
0.796875000000001
40
0.796875000000001
40
0.812500000000001
40
0.812500000000001
40
0.843750000000001
40
0.843750000000001
40
0.875000000000001
40
0.875000000000001
40
0.882812500000001
40
0.882812500000001
40
0.890625000000001
40
0.890625000000001
40
0.906250000000001
40
0.906250000000001
40
0.937500000000001
40
0.937500000000001
40
0.96875
40
0.96875
40
0.9765625
40
0.9765625
40
0.984375
40
0.984375
40
1
40
1
40
1
40
1
41
1
10
-12.4187431868521
20
12.6812568131479
30
0
41
1
10
-12.3407489034892
20
12.6480410698119
30
0
41
1
10
-12.2610537397097
20
12.6158676728768
30
0
41
1
10
-12.0980330779001
20
12.5538296953902
30
0
41
1
10
-12.0153685976045
20
12.5242196581505
30
0
41
1
10
-11.7641803409214
20
12.4399524568768
30
0
41
1
10
-11.5923250923882
20
12.3897885436109
30
0
41
1
10
-11.3274871897863
20
12.3246140263197
30
0
41
1
10
-11.1933005466037
20
12.2945493534548
30
0
41
1
10
-11.056335801671
20
12.2685149850812
30
0
41
1
10
-10.9643913205697
20
12.2520857926276
30
0
41
1
10
-10.9180142101107
20
12.2443215039046
30
0
41
1
10
-10.6857921537903
20
12.208095431677
30
0
41
1
10
-10.3122475344291
20
12.1666670373091
30
0
41
1
10
-9.93472865421914
20
12.1587637725913
30
0
41
1
10
-9.69750481334614
20
12.1646054976683
30
0
41
1
10
-9.62624186269694
20
12.1671676131053
30
0
41
1
10
-9.55483365559066
20
12.1709558093413
30
0
41
1
10
-9.50719570300964
20
12.1737551757028
30
0
41
1
10
-9.4833367292087
20
12.1752936062948
30
0
41
1
10
-9.36437459570274
20
12.1836437695034
30
0
41
1
10
-9.27012752233804
20
12.1924316987102
30
0
41
1
10
-8.99003613402425
20
12.2248099194893
30
0
41
1
10
-8.80683450508556
20
12.2544028442217
30
0
41
1
10
-8.53699481030408
20
12.3098126144602
30
0
41
1
10
-8.40331845875727
20
12.3402772690041
30
0
41
1
10
-8.27146981682867
20
12.3747344686896
30
0
41
1
10
-8.18397423431165
20
12.3985792600949
30
0
41
1
10
-8.14038709247556
20
12.4109503777471
30
0
41
1
10
-7.92390556877649
20
12.4748220785634
30
0
41
1
10
-7.75745216451892
20
12.5317072096489
30
0
41
1
10
-7.43649669771173
20
12.6551874968485
30
0
41
1
10
-7.28200125910797
20
12.7217890226179
30
0
41
1
10
-7.05854302084833
20
12.8279662905348
30
0
41
1
10
-6.98544176474452
20
12.8644079120941
30
0
41
1
10
-6.84193779367509
20
12.9392556706295
30
0
41
1
10
-6.77149264174798
20
12.9776861215647
30
0
41
1
10
-6.56440033563641
20
13.095603533893
30
0
41
1
10
-6.43389174722495
20
13.1766005092871
30
0
41
1
10
-6.18653876034864
20
13.3422921925214
30
0
41
1
10
-6.06970106251561
20
13.4269906815785
30
0
41
1
10
-5.84890283876547
20
13.5993083501283
30
0
41
1
10
-5.74494526954831
20
13.6869296503444
30
0
41
1
10
-5.59844597743506
20
13.8201181850906
30
0
41
1
10
-5.55118933407618
20
13.8648084992459
30
0
41
1
10
-5.45983374139522
20
13.954719396597
30
0
41
1
10
-5.41570849484421
20
13.999968168061
30
0
41
1
10
-5.28828240611838
20
14.1362603338187
30
0
41
1
10
-5.21086228204035
20
14.2268225013438
30
0
41
1
10
-5.07056798764819
20
14.4069918422072
30
0
41
1
10
-4.94482365465478
20
14.5862079390276
30
0
41
1
10
-4.84812651083894
20
14.7629583493241
30
0
41
1
10
-4.78682491158176
20
14.8944297671155
30
0
41
1
10
-4.76826494367256
20
14.9380720023444
30
0
41
1
10
-4.74331201791196
20
15.0032452895365
30
0
41
1
10
-4.73546880660516
20
15.0249437427083
30
0
41
1
10
-4.72081697600251
20
15.0680699938843
30
0
41
1
10
-4.71400256617997
20
15.089510246
30
0
41
1
10
-4.68248257303082
20
15.1960967171817
30
0
41
1
10
-4.66541493219049
20
15.2793986979645
30
0
41
1
10
-4.64773046236454
20
15.4420555345931
30
0
41
1
10
-4.64711260834204
20
15.5214104172742
30
0
41
1
10
-4.65899558698354
20
15.6374700190678
30
0
41
1
10
-4.66814520416492
20
15.6947565906607
30
0
41
1
10
-4.68225159464029
20
15.7509255249823
30
0
41
1
10
-4.69277772181999
20
15.7881227732088
30
0
41
1
10
-4.69860585174112
20
15.8066092987638
30
0
41
1
10
-4.73055817541072
20
15.8982854637233
30
0
41
1
10
-4.76484476172985
20
15.9685180622934
30
0
41
1
10
-4.85093133156835
20
16.1031048865056
30
0
41
1
10
-4.90273035471895
20
16.1674586590741
30
0
41
1
10
-5.02438572162453
20
16.2905649889302
30
0
41
1
10
-5.09423845330366
20
16.3493173362779
30
0
41
1
10
-5.19351999087638
20
16.4193990693553
30
0
41
1
10
-5.21399358087263
20
16.4332571839625
30
0
41
1
10
-5.25592120161286
20
16.4604889276599
30
0
41
1
10
-5.27740013178763
20
16.4738811086761
30
0
41
1
10
-5.34337544274464
20
16.5134045533849
30
0
41
1
10
-5.38940943494543
20
16.5388830208462
30
0
41
1
10
-5.53364117690487
20
16.6128391654608
30
0
41
1
10
-5.63795375968513
20
16.6588416573115
30
0
41
1
10
-5.86313264975794
20
16.7448407396287
30
0
41
1
10
-5.98399619237082
20
16.7848368715743
30
0
41
1
10
-6.14588770271746
20
16.8313725151896
30
0
41
1
10
-6.17885968663526
20
16.8405199440929
30
0
41
1
10
-6.2456122304402
20
16.8583970697384
30
0
41
1
10
-6.27938166388984
20
16.8671250483704
30
0
41
1
10
-6.38185855694135
20
16.8927007380583
30
0
41
1
10
-6.45173382062329
20
16.908940724384
30
0
41
1
10
-6.66597367716092
20
16.9553973401873
30
0
41
1
10
-6.81494003487502
20
16.9833577119869
30
0
41
1
10
-7.12514244805108
20
17.0339666092912
30
0
41
1
10
-7.28637701594684
20
17.0566145227667
30
0
41
1
10
-7.49583948849528
20
17.081908995448
30
0
41
1
10
-7.53815943519604
20
17.0868199700417
30
0
41
1
10
-7.62347370911488
20
17.0963303392475
30
0
41
1
10
-7.66633069851343
20
17.1009147332027
30
0
41
1
10
-7.79549390626219
20
17.1141756161336
30
0
41
1
10
-7.88239191410251
20
17.1223604604054
30
0
41
1
10
-7.97006523420019
20
17.1299347657998
30
0
0
SPLINE
5
14F
100
AcDbEntity
8
1
62
256
6
ByLayer
370
18
48
1
60
0
100
AcDbSpline
70
4
71
3
72
44
73
40
40
0
40
0
40
0
40
0
40
0.124999999999997
40
0.124999999999997
40
0.187499999999995
40
0.187499999999995
40
0.218749999999995
40
0.234374999999995
40
0.234374999999995
40
0.249999999999995
40
0.249999999999995
40
0.374999999999995
40
0.374999999999995
40
0.437499999999995
40
0.437499999999995
40
0.499999999999996
40
0.499999999999996
40
0.562499999999996
40
0.562499999999996
40
0.624999999999996
40
0.624999999999996
40
0.640624999999996
40
0.640624999999996
40
0.656249999999996
40
0.656249999999996
40
0.687499999999997
40
0.687499999999997
40
0.749999999999997
40
0.749999999999997
40
0.812499999999998
40
0.812499999999998
40
0.874999999999998
40
0.874999999999998
40
0.906249999999999
40
0.921874999999999
40
0.921874999999999
40
0.937499999999999
40
0.937499999999999
40
1
40
1
40
1
40
1
41
1
10
-13.0204483870978
20
12.0795516129022
30
0
41
1
10
-12.596538673697
20
11.7734487680844
30
0
41
1
10
-12.1584239813592
20
11.4642103574712
30
0
41
1
10
-11.4783939489209
20
10.9990310180439
30
0
41
1
10
-11.24789586607
20
10.8437572834606
30
0
41
1
10
-10.8960985685158
20
10.6110288767936
30
0
41
1
10
-10.7186859289737
20
10.4947112513736
30
0
41
1
10
-10.5389282556168
20
10.3785685934019
30
0
41
1
10
-10.4185593485045
20
10.3011915837128
30
0
41
1
10
-10.3581158383093
20
10.2625329341355
30
0
41
1
10
-9.81272011723705
20
9.91554214298017
30
0
41
1
10
-9.31623682649419
20
9.61254009214909
30
0
41
1
10
-8.55138586822851
20
9.17184608529286
30
0
41
1
10
-8.29306775970744
20
9.02726555963633
30
0
41
1
10
-7.76906988998049
20
8.74392595843
30
0
41
1
10
-7.5033912966873
20
8.60516515986038
30
0
41
1
10
-6.9638823949317
20
8.33486796593039
30
0
41
1
10
-6.69005364926031
20
8.20332939029473
30
0
41
1
10
-6.13324810938016
20
7.94915689511936
30
0
41
1
10
-5.85027341284348
20
7.82652019695749
30
0
41
1
10
-5.49005194309672
20
7.68005932455483
30
0
41
1
10
-5.41768176337268
20
7.65110988091595
30
0
41
1
10
-5.27226684439486
20
7.59393240906161
30
0
41
1
10
-5.19918891122671
20
7.56569181274315
30
0
41
1
10
-4.97912665472825
20
7.48219198553878
30
0
41
1
10
-4.83172672200411
20
7.42830926058596
30
0
41
1
10
-4.38735465387623
20
7.27238616418541
30
0
41
1
10
-4.0882123408835
20
7.17606586188745
30
0
41
1
10
-3.48357083889741
20
7.00080238868938
30
0
41
1
10
-3.17807144234826
20
6.92186055898429
30
0
41
1
10
-2.56008268867294
20
6.783620475931
30
0
41
1
10
-2.24759294791622
20
6.72432440124581
30
0
41
1
10
-1.77309915579832
20
6.65188222456376
30
0
41
1
10
-1.53441186524356
20
6.61978739133068
30
0
41
1
10
-1.29346256401871
20
6.59421585755106
30
0
41
1
10
-1.13231550503957
20
6.57865472554261
30
0
41
1
10
-1.05163707289455
20
6.57163269557725
30
0
41
1
10
-0.648115889308059
20
6.54038775100256
30
0
41
1
10
-0.324477384452706
20
6.52773732484661
30
0
41
1
10
0
20
6.52773732484658
30
0
0
SPLINE
5
150
100
AcDbEntity
8
1
62
256
6
ByLayer
370
18
48
1
60
0
100
AcDbSpline
70
4
71
3
72
131
73
127
40
0
40
0
40
0
40
0
40
0.0078125000000004
40
0.0078125000000004
40
0.0156250000000007
40
0.0156250000000007
40
0.0312500000000012
40
0.0312500000000012
40
0.0625000000000022
40
0.0625000000000022
40
0.0703125000000021
40
0.0703125000000021
40
0.078125000000002
40
0.078125000000002
40
0.0937500000000013
40
0.0937500000000013
40
0.125
40
0.125
40
0.132812499999999
40
0.132812499999999
40
0.140624999999999
40
0.140624999999999
40
0.156249999999998
40
0.156249999999998
40
0.187499999999996
40
0.187499999999996
40
0.195312499999996
40
0.195312499999996
40
0.203124999999996
40
0.203124999999996
40
0.218749999999996
40
0.218749999999996
40
0.249999999999995
40
0.249999999999995
40
0.265624999999995
40
0.265624999999995
40
0.281249999999995
40
0.281249999999995
40
0.312499999999994
40
0.312499999999994
40
0.320312499999994
40
0.320312499999994
40
0.328124999999994
40
0.328124999999994
40
0.343749999999995
40
0.343749999999995
40
0.374999999999995
40
0.374999999999995
40
0.406249999999995
40
0.406249999999995
40
0.421874999999995
40
0.421874999999995
40
0.429687499999995
40
0.429687499999995
40
0.437499999999995
40
0.437499999999995
40
0.468749999999994
40
0.468749999999994
40
0.484374999999994
40
0.484374999999994
40
0.492187499999994
40
0.492187499999994
40
0.499999999999994
40
0.499999999999994
40
0.531249999999994
40
0.531249999999994
40
0.546874999999993
40
0.546874999999993
40
0.554687499999993
40
0.554687499999993
40
0.562499999999993
40
0.562499999999993
40
0.593749999999992
40
0.593749999999992
40
0.601562499999992
40
0.601562499999992
40
0.609374999999992
40
0.609374999999992
40
0.624999999999992
40
0.640624999999992
40
0.640624999999992
40
0.648437499999993
40
0.648437499999993
40
0.656249999999993
40
0.656249999999993
40
0.687499999999993
40
0.687499999999993
40
0.703124999999993
40
0.703124999999993
40
0.710937499999993
40
0.710937499999993
40
0.718749999999993
40
0.718749999999993
40
0.749999999999994
40
0.749999999999994
40
0.765624999999994
40
0.765624999999994
40
0.773437499999994
40
0.773437499999994
40
0.781249999999994
40
0.781249999999994
40
0.812499999999994
40
0.812499999999994
40
0.828124999999994
40
0.828124999999994
40
0.835937499999994
40
0.835937499999994
40
0.843749999999994
40
0.843749999999994
40
0.874999999999995
40
0.874999999999995
40
0.882812499999995
40
0.882812499999995
40
0.890624999999995
40
0.890624999999995
40
0.906249999999996
40
0.906249999999996
40
0.937499999999996
40
0.937499999999996
40
0.945312499999997
40
0.945312499999997
40
0.953124999999997
40
0.953124999999997
40
0.968749999999998
40
0.968749999999998
40
1
40
1
40
1
40
1
41
1
10
6.43965871342661
20
16.8294987790437
30
0
41
1
10
6.45213330795676
20
16.8353975478908
30
0
41
1
10
6.46415735919359
20
16.8413479307638
30
0
41
1
10
6.48729377844555
20
16.8533487057166
30
0
41
1
10
6.49843056894801
20
16.8594135448222
30
0
41
1
10
6.53023110769172
20
16.8776269406049
30
0
41
1
10
6.54929514012525
20
16.8897901681666
30
0
41
1
10
6.6002734369593
20
16.9262978888347
30
0
41
1
10
6.62602080534356
20
16.9506575734087
30
0
41
1
10
6.64781399600142
20
16.9810352029285
30
0
41
1
10
6.65164930793378
20
16.987107362254
30
0
41
1
10
6.65825536821919
20
16.9992433897223
30
0
41
1
10
6.66102832853116
20
17.0053184448307
30
0
41
1
10
6.66766438037078
20
17.0233654771332
30
0
41
1
10
6.66987964825441
20
17.0352031147953
30
0
41
1
10
6.6700521171426
20
17.0701448551727
30
0
41
1
10
6.66158482003567
20
17.0926784367921
30
0
41
1
10
6.64003125468045
20
17.1199161631008
30
0
41
1
10
6.63516815204213
20
17.1253171929114
30
0
41
1
10
6.62431474736698
20
17.1360265606426
30
0
41
1
10
6.61831210720663
20
17.1413425174716
30
0
41
1
10
6.59877584896461
20
17.1569993421219
30
0
41
1
10
6.58367591341587
20
17.1670975238539
30
0
41
1
10
6.53227809195261
20
17.1964323881498
30
0
41
1
10
6.48992864760459
20
17.2147135242212
30
0
41
1
10
6.42661301578312
20
17.2360979582091
30
0
41
1
10
6.41342722633095
20
17.240301160462
30
0
41
1
10
6.38598780834357
20
17.2485620441086
30
0
41
1
10
6.37173373965592
20
17.2526182773957
30
0
41
1
10
6.32780724761204
20
17.2644502443345
30
0
41
1
10
6.29683302820874
20
17.2719334582042
30
0
41
1
10
6.19894477407041
20
17.2932574337849
30
0
41
1
10
6.12710409940635
20
17.3059801748515
30
0
41
1
10
6.00918368681741
20
17.3230268974384
30
0
41
1
10
5.96799206555264
20
17.3283847536549
30
0
41
1
10
5.88374585244605
20
17.3382424724384
30
0
41
1
10
5.8405482409778
20
17.3427676051535
30
0
41
1
10
5.70779299992321
20
17.3552139174492
30
0
41
1
10
5.61509885546363
20
17.3620167700692
30
0
41
1
10
5.49381162461174
20
17.3687555953669
30
0
41
1
10
5.46922479062974
20
17.3700165711399
30
0
41
1
10
5.41996484022235
20
17.3723383817114
30
0
41
1
10
5.39525306667548
20
17.3734018430575
30
0
41
1
10
5.32087643193105
20
17.376308964879
30
0
41
1
10
5.27097074241428
20
17.3778701688959
30
0
41
1
10
5.12030412114242
20
17.3814649165044
30
0
41
1
10
5.01857040474908
20
17.3824224444886
30
0
41
1
10
4.81259952936048
20
17.3813737137033
30
0
41
1
10
4.71151099052437
20
17.3793841325973
30
0
41
1
10
4.56260365964505
20
17.3742305932142
30
0
41
1
10
4.51342504221557
20
17.3721480394283
30
0
41
1
10
4.44035344285697
20
17.3684520953494
30
0
41
1
10
4.4161124727508
20
17.3671245615985
30
0
41
1
10
4.36786697011561
20
17.3642716535194
30
0
41
1
10
4.34384649400499
20
17.3627445441459
30
0
41
1
10
4.22556538108577
20
17.3546822872976
30
0
41
1
10
4.13574050760042
20
17.3468255613246
30
0
41
1
10
4.00798190510264
20
17.3327788783238
30
0
41
1
10
3.9665659358804
20
17.3277171454374
30
0
41
1
10
3.90623348930228
20
17.3195116777609
30
0
41
1
10
3.88637870514489
20
17.3166676000913
30
0
41
1
10
3.84749131274711
20
17.3107976362792
30
0
41
1
10
3.82849943477342
20
17.3077786637486
30
0
41
1
10
3.73575367949442
20
17.2922584489987
30
0
41
1
10
3.66858935475091
20
17.2784904883434
30
0
41
1
10
3.57816560956871
20
17.2555949064428
30
0
41
1
10
3.5497548215906
20
17.2475873048687
30
0
41
1
10
3.5097978757621
20
17.2349670235484
30
0
41
1
10
3.49694860580237
20
17.2306654978814
30
0
41
1
10
3.47238031574642
20
17.2219385784801
30
0
41
1
10
3.46063063311192
20
17.2175036892079
30
0
41
1
10
3.4045077174043
20
17.1949669968282
30
0
41
1
10
3.36795160284675
20
17.1757834776205
30
0
41
1
10
3.33255109342701
20
17.1502305993514
30
0
41
1
10
3.32598940580076
20
17.145041027122
30
0
41
1
10
3.31391443732042
20
17.1344992423506
30
0
41
1
10
3.30839266587469
20
17.1291373687273
30
0
41
1
10
3.29349164035682
20
17.1128729788254
30
0
41
1
10
3.27809300476622
20
17.0907739788493
30
0
41
1
10
3.27146685246882
20
17.0678354653307
30
0
41
1
10
3.26980143126599
20
17.0503100253929
30
0
41
1
10
3.26980027943901
20
17.0444064197785
30
0
41
1
10
3.27089788644375
20
17.0325796974068
30
0
41
1
10
3.27199426256737
20
17.0266473489467
30
0
41
1
10
3.28016442362559
20
16.9968930817367
30
0
41
1
10
3.29524146427229
20
16.9727913437431
30
0
41
1
10
3.33048278210268
20
16.9362638482797
30
0
41
1
10
3.34434615380533
20
16.9240259653296
30
0
41
1
10
3.36840496806963
20
16.9055897365709
30
0
41
1
10
3.37698339657007
20
16.8994232980976
30
0
41
1
10
3.39507303860026
20
16.8871833642199
30
0
41
1
10
3.40460049259482
20
16.8810963002348
30
0
41
1
10
3.45461616544276
20
16.8508321054931
30
0
41
1
10
3.50218380115643
20
16.827161323857
30
0
41
1
10
3.58488513955115
20
16.7926747979563
30
0
41
1
10
3.61435470229625
20
16.7813505746011
30
0
41
1
10
3.66151982248277
20
16.7646618050189
30
0
41
1
10
3.67774805623748
20
16.759145876047
30
0
41
1
10
3.71087442073198
20
16.7483297622872
30
0
41
1
10
3.7278108785531
20
16.7430155421623
30
0
41
1
10
3.81433862064253
20
16.7169217372572
30
0
41
1
10
3.88942223719019
20
16.6975623257951
30
0
41
1
10
4.01097289965887
20
16.671089346584
30
0
41
1
10
4.05298582100099
20
16.6626949496684
30
0
41
1
10
4.11835050299698
20
16.6508089741923
30
0
41
1
10
4.14051080426273
20
16.6469695799051
30
0
41
1
10
4.18514586732226
20
16.639614079153
30
0
41
1
10
4.20767748654691
20
16.6360874011828
30
0
41
1
10
4.32139470227381
20
16.6192128185037
30
0
41
1
10
4.41573250921815
20
16.6081263823695
30
0
41
1
10
4.53793296241716
20
16.5974879954538
30
0
41
1
10
4.56258854846442
20
16.5955222561686
30
0
41
1
10
4.61233913768913
20
16.5919237855921
30
0
41
1
10
4.63746261905402
20
16.5902894209506
30
0
41
1
10
4.71332742581097
20
16.5859127849736
30
0
41
1
10
4.76395704820169
20
16.5837293821686
30
0
41
1
10
4.91600043548883
20
16.5793354859942
30
0
41
1
10
5.017567534601
20
16.5792687565406
30
0
41
1
10
5.14478535682289
20
16.5828048095179
30
0
41
1
10
5.1702419641739
20
16.583694003709
30
0
41
1
10
5.22118173357097
20
16.5858415928149
30
0
41
1
10
5.24662050953191
20
16.5870992025311
30
0
41
1
10
5.32217370828326
20
16.5913805278813
30
0
41
1
10
5.37178209650696
20
16.5949219867927
30
0
41
1
10
5.51839483963315
20
16.6075162906213
30
0
41
1
10
5.61320396338866
20
16.6185273597521
30
0
41
1
10
5.70504895390988
20
16.6320608642338
30
0
0
SPLINE
5
151
100
AcDbEntity
8
1
62
256
6
ByLayer
370
18
48
1
60
0
100
AcDbSpline
70
4
71
3
72
10
73
6
40
0
40
0
40
0
40
0
40
0.5
40
0.5
40
1
40
1
40
1
40
1
41
1
10
36.7423163148728
20
17.6304338184731
30
0
41
1
10
36.7204865945517
20
17.6308319651819
30
0
41
1
10
36.6978978179688
20
17.6311305988839
30
0
41
1
10
36.652593057329
20
17.6315129614792
30
0
41
1
10
36.6297822934018
20
17.6315997438674
30
0
41
1
10
36.6068108190596
20
17.6315815114339
30
0
0
SPLINE
5
152
100
AcDbEntity
8
1
62
256
6
ByLayer
370
18
48
1
60
0
100
AcDbSpline
70
4
71
3
72
17
73
13
40
0
40
0
40
0
40
0
40
0.124999999999996
40
0.124999999999996
40
0.249999999999992
40
0.249999999999992
40
0.499999999999992
40
0.749999999999992
40
0.749999999999992
40
0.874999999999996
40
0.874999999999996
40
1
40
1
40
1
40
1
41
1
10
23.9424943074441
20
17.6209675381367
30
0
41
1
10
23.8921017862831
20
17.6193160970162
30
0
41
1
10
23.8407329936132
20
17.6177148539888
30
0
41
1
10
23.7374873808583
20
17.6146822499913
30
0
41
1
10
23.6854699655485
20
17.6132459541391
30
0
41
1
10
23.5282541815383
20
17.6092054402576
30
0
41
1
10
23.3155371017118
20
17.6045352803097
30
0
41
1
10
23.0966710616618
20
17.6015627250177
30
0
41
1
10
22.9301458552472
20
17.6000550202606
30
0
41
1
10
22.8741487068976
20
17.5996725509774
30
0
41
1
10
22.762173556155
20
17.5991632073662
30
0
41
1
10
22.7061198992654
20
17.599035242027
30
0
41
1
10
22.6500000000001
20
17.599035242027
30
0
0
SPLINE
5
153
100
AcDbEntity
8
1
62
256
6
ByLayer
370
18
48
1
60
0
100
AcDbSpline
70
4
71
3
72
18
73
14
40
0
40
0
40
0
40
0
40
0.125000000000001
40
0.125000000000001
40
0.250000000000002
40
0.250000000000002
40
0.500000000000002
40
0.500000000000002
40
0.750000000000001
40
0.750000000000001
40
0.875000000000001
40
0.875000000000001
40
1
40
1
40
1
40
1
41
1
10
11.008951354588
20
1.375
30
0
41
1
10
11.1024043261518
20
1.375
30
0
41
1
10
11.1957087125229
20
1.37255596513185
30
0
41
1
10
11.3820854841409
20
1.36385177599382
30
0
41
1
10
11.4751574989198
20
1.35758552800056
30
0
41
1
10
11.7540946265056
20
1.33419896304534
30
0
41
1
10
11.9396830508753
20
1.31252747798845
30
0
41
1
10
12.3103884324472
20
1.26142948077398
30
0
41
1
10
12.4955020109842
20
1.23194739392949
30
0
41
1
10
12.7729840888853
20
1.18462713747366
30
0
41
1
10
12.8654466157611
20
1.16833559921213
30
0
41
1
10
13.050343512165
20
1.13528937061881
30
0
41
1
10
13.1427773011434
20
1.11852513099271
30
0
41
1
10
13.2352225785407
20
1.10194986104796
30
0
0
SPLINE
5
154
100
AcDbEntity
8
1
62
256
6
ByLayer
370
18
48
1
60
0
100
AcDbSpline
70
4
71
3
72
19
73
15
40
0
40
0
40
0
40
0
40
0.25
40
0.25
40
0.5
40
0.5
40
0.75
40
0.75
40
0.781249999999999
40
0.781249999999999
40
0.812499999999999
40
0.812499999999999
40
0.875
40
1
40
1
40
1
40
1
41
1
10
5.63509935370516
20
0.394519052838319
30
0
41
1
10
4.70254111910936
20
0.222952407750881
30
0
41
1
10
3.76801610718675
20
0.0927021215975117
30
0
41
1
10
1.89487856191636
20
-0.0819313319209414
30
0
41
1
10
0.956265693072965
20
-0.126307451483001
30
0
41
1
10
-0.925138877083555
20
-0.127274388280995
30
0
41
1
10
-1.86793073751329
20
-0.083861862932082
30
0
41
1
10
-2.93093349052771
20
0.0145941935030862
30
0
41
1
10
-3.04907766511903
20
0.0262218984740628
30
0
41
1
10
-3.28543148800509
20
0.0508527234128167
30
0
41
1
10
-3.40368510858852
20
0.0638609988027099
30
0
41
1
10
-3.75823014923867
20
0.104910346530318
30
0
41
1
10
-4.46572999617388
20
0.195015774362247
30
0
41
1
10
-5.16854959974498
20
0.308685940134069
30
0
41
1
10
-5.63509935370516
20
0.394519052838291
30
0
0
SPLINE
5
155
100
AcDbEntity
8
1
62
256
6
ByLayer
370
18
48
1
60
0
100
AcDbSpline
70
4
71
3
72
18
73
14
40
0
40
0
40
0
40
0
40
0.25
40
0.25
40
0.5
40
0.5
40
0.625
40
0.625
40
0.75
40
0.75
40
0.875
40
0.875
40
1
40
1
40
1
40
1
41
1
10
-18.0287287527199
20
-0.249980947161589
30
0
41
1
10
-18.0203801250128
20
-0.259705568661019
30
0
41
1
10
-18.0127640730215
20
-0.269146074866086
30
0
41
1
10
-17.9995385373246
20
-0.287244191447456
30
0
41
1
10
-17.9942059657753
20
-0.2955286581508
30
0
41
1
10
-17.9888303130257
20
-0.306287723333213
30
0
41
1
10
-17.98753960481
20
-0.309477182072811
30
0
41
1
10
-17.9859863111476
20
-0.315040220045688
30
0
41
1
10
-17.9857248510136
20
-0.317423789181305
30
0
41
1
10
-17.9863130485071
20
-0.321261305045226
30
0
41
1
10
-17.9871484850687
20
-0.322665110889972
30
0
41
1
10
-17.9898118920066
20
-0.324527026171893
30
0
41
1
10
-17.9916613950634
20
-0.324980947161691
30
0
41
1
10
-17.9939249199246
20
-0.324980947161691
30
0
0
SPLINE
5
156
100
AcDbEntity
8
1
62
256
6
ByLayer
370
18
48
1
60
0
100
AcDbSpline
70
4
71
3
72
8
73
4
40
0
40
0
40
0
40
0
40
1
40
1
40
1
40
1
41
1
10
-18.5812482082592
20
0.394519052838319
30
0
41
1
10
-18.397239110843
20
0.17958023859083
30
0
41
1
10
-18.2130708182976
20
-0.0352562190928438
30
0
41
1
10
-18.0287287527199
20
-0.249980947161589
30
0
0
SPLINE
5
157
100
AcDbEntity
8
1
62
256
6
ByLayer
370
18
48
1
60
0
100
AcDbSpline
70
4
71
3
72
35
73
31
40
0
40
0
40
0
40
0
40
0.124999999999996
40
0.124999999999996
40
0.249999999999993
40
0.249999999999993
40
0.374999999999989
40
0.374999999999989
40
0.437499999999985
40
0.437499999999985
40
0.499999999999981
40
0.499999999999981
40
0.562499999999976
40
0.562499999999976
40
0.624999999999972
40
0.624999999999972
40
0.656249999999973
40
0.656249999999973
40
0.687499999999974
40
0.718749999999975
40
0.718749999999975
40
0.749999999999975
40
0.749999999999975
40
0.812499999999982
40
0.812499999999982
40
0.874999999999988
40
0.874999999999988
40
0.937499999999994
40
0.937499999999994
40
1
40
1
40
1
40
1
41
1
10
-18.4739743524117
20
0.394519052838319
30
0
41
1
10
-18.4870076534492
20
0.40467771428311
30
0
41
1
10
-18.4998072213004
20
0.41425738730112
30
0
41
1
10
-18.5248961876862
20
0.432166599792794
30
0
41
1
10
-18.5371877874604
20
0.44050144479246
30
0
41
1
10
-18.5611262051355
20
0.455603749929821
30
0
41
1
10
-18.5724254375322
20
0.462153942749694
30
0
41
1
10
-18.5880536600985
20
0.470032587577066
30
0
41
1
10
-18.5930715511233
20
0.472341317897843
30
0
41
1
10
-18.6023316428988
20
0.476059968224234
30
0
41
1
10
-18.6065924280455
20
0.477483071167541
30
0
41
1
10
-18.61424480329
20
0.479301674402052
30
0
41
1
10
-18.6176614101842
20
0.479690478088912
30
0
41
1
10
-18.6231992909744
20
0.479203435856874
30
0
41
1
10
-18.6253491347405
20
0.478344329635576
30
0
41
1
10
-18.6275127386324
20
0.475998666709387
30
0
41
1
10
-18.6280515637346
20
0.475037860517887
30
0
41
1
10
-18.6287334483274
20
0.47280285105478
30
0
41
1
10
-18.6290306236999
20
0.470245036757745
30
0
41
1
10
-18.6285640542785
20
0.467045659082999
30
0
41
1
10
-18.6277115578637
20
0.463521717329655
30
0
41
1
10
-18.6270871066253
20
0.461588002934661
30
0
41
1
10
-18.624692905213
20
0.455453171617592
30
0
41
1
10
-18.6224018034917
20
0.450883639903509
30
0
41
1
10
-18.6165835561629
20
0.440889135534377
30
0
41
1
10
-18.6130868726058
20
0.435525392193966
30
0
41
1
10
-18.6052856511485
20
0.424440528495324
30
0
41
1
10
-18.6009563118815
20
0.418678369205168
30
0
41
1
10
-18.5915551587891
20
0.4067724130702
30
0
41
1
10
-18.5865153525356
20
0.400671540737704
30
0
41
1
10
-18.5812482082592
20
0.394519052838348
30
0
0
SPLINE
5
158
100
AcDbEntity
8
1
62
256
6
ByLayer
370
18
48
1
60
0
100
AcDbSpline
70
4
71
3
72
8
73
4
40
0
40
0
40
0
40
0
40
1
40
1
40
1
40
1
41
1
10
-17.6355675589552
20
-0.249980947161674
30
0
41
1
10
-17.9167965179605
20
-0.0368647817199701
30
0
41
1
10
-18.1962122396723
20
0.17802046530457
30
0
41
1
10
-18.4739743524117
20
0.394519052838319
30
0
0
SPLINE
5
159
100
AcDbEntity
8
1
62
256
6
ByLayer
370
18
48
1
60
0
100
AcDbSpline
70
4
71
3
72
16
73
12
40
0
40
0
40
0
40
0
40
0.124999999999989
40
0.124999999999989
40
0.249999999999978
40
0.249999999999978
40
0.499999999999986
40
0.499999999999986
40
0.749999999999993
40
0.749999999999993
40
1
40
1
40
1
40
1
41
1
10
-17.5000603949205
20
-0.32498094716351
30
0
41
1
10
-17.5034531652321
20
-0.32498094716334
30
0
41
1
10
-17.5073995575774
20
-0.324343825065853
30
0
41
1
10
-17.516211201762
20
-0.322010582254791
30
0
41
1
10
-17.5210964025256
20
-0.320298706549949
30
0
41
1
10
-17.5364170579665
20
-0.313999603466158
30
0
41
1
10
-17.5477048511587
20
-0.308216513563508
30
0
41
1
10
-17.5716642128454
20
-0.294401957912299
30
0
41
1
10
-17.5840274375988
20
-0.286548128378229
30
0
41
1
10
-17.6093593126197
20
-0.26935695362036
30
0
41
1
10
-17.6223873763713
20
-0.259968929843211
30
0
41
1
10
-17.6355675589552
20
-0.249980947161674
30
0
0
SPLINE
5
15A
100
AcDbEntity
8
1
62
256
6
ByLayer
370
18
48
1
60
0
100
AcDbSpline
70
4
71
3
72
22
73
18
40
0
40
0
40
0
40
0
40
0.125
40
0.125
40
0.25
40
0.25
40
0.375
40
0.375
40
0.5
40
0.5
40
0.625
40
0.625
40
0.75
40
0.75
40
0.875
40
0.875
40
1
40
1
40
1
40
1
41
1
10
-17.4382636790639
20
-0.249980947161532
30
0
41
1
10
-17.4341690345688
20
-0.254867676870248
30
0
41
1
10
-17.4302867485268
20
-0.259694172525712
30
0
41
1
10
-17.4230138932383
20
-0.269207361992926
30
0
41
1
10
-17.4196040003651
20
-0.273922123855868
30
0
41
1
10
-17.4134737102217
20
-0.283050307925606
30
0
41
1
10
-17.4107831734637
20
-0.287415492847487
30
0
41
1
10
-17.4062510968043
20
-0.295693994296243
30
0
41
1
10
-17.4043952993558
20
-0.299650731135898
30
0
41
1
10
-17.4017898508421
20
-0.306767870244073
30
0
41
1
10
-17.4010281714754
20
-0.309930304132877
30
0
41
1
10
-17.4006235085082
20
-0.315434288950485
30
0
41
1
10
-17.4009999617451
20
-0.317791201698924
30
0
41
1
10
-17.4028560532314
20
-0.321456739983034
30
0
41
1
10
-17.4043205947448
20
-0.322797204013625
30
0
41
1
10
-17.4082400976542
20
-0.324567600424018
30
0
41
1
10
-17.4106764673078
20
-0.324980947161691
30
0
41
1
10
-17.4134725186275
20
-0.324980947161691
30
0
0
SPLINE
5
15B
100
AcDbEntity
8
1
62
256
6
ByLayer
370
18
48
1
60
0
100
AcDbSpline
70
4
71
3
72
8
73
4
40
0
40
0
40
0
40
0
40
1
40
1
40
1
40
1
41
1
10
-17.9778880275984
20
0.394519052838319
30
0
41
1
10
-17.7980999976783
20
0.179631242401683
30
0
41
1
10
-17.6182278533523
20
-0.0352037478078557
30
0
41
1
10
-17.4382636790639
20
-0.249980947161504
30
0
0
SPLINE
5
15C
100
AcDbEntity
8
1
62
256
6
ByLayer
370
18
48
1
60
0
100
AcDbSpline
70
4
71
3
72
32
73
28
40
0
40
0
40
0
40
0
40
0.125000000000008
40
0.125000000000008
40
0.250000000000017
40
0.250000000000017
40
0.312500000000018
40
0.312500000000018
40
0.375000000000019
40
0.375000000000019
40
0.500000000000005
40
0.500000000000005
40
0.562500000000004
40
0.562500000000004
40
0.625000000000004
40
0.625000000000004
40
0.687500000000003
40
0.687500000000003
40
0.750000000000002
40
0.750000000000002
40
0.812500000000002
40
0.812500000000002
40
0.875000000000001
40
0.875000000000001
40
0.937500000000001
40
0.937500000000001
40
1
40
1
40
1
40
1
41
1
10
-17.8422547739246
20
0.394519052838319
30
0
41
1
10
-17.8560258583049
20
0.404520298715653
30
0
41
1
10
-17.8696032737994
20
0.413929027723412
30
0
41
1
10
-17.8963439997889
20
0.431494872861293
30
0
41
1
10
-17.9095086622445
20
0.439656005426087
30
0
41
1
10
-17.9288752363966
20
0.450757410418703
30
0
41
1
10
-17.9352728578613
20
0.454267026879989
30
0
41
1
10
-17.9476703393397
20
0.460711222123479
30
0
41
1
10
-17.9537005653584
20
0.46366412377742
30
0
41
1
10
-17.9712128917084
20
0.471599262198481
30
0
41
1
10
-17.9822334827617
20
0.475699253576352
30
0
41
1
10
-17.9962669091183
20
0.478921245725019
30
0
41
1
10
-18.0005541852456
20
0.479519553246576
30
0
41
1
10
-18.008147229582
20
0.479518551809349
30
0
41
1
10
-18.011339731184
20
0.478915980909278
30
0
41
1
10
-18.0163291232035
20
0.476337856270049
30
0
41
1
10
-18.0181293379942
20
0.474316428364631
30
0
41
1
10
-18.0199708816204
20
0.468918723610557
30
0
41
1
10
-18.0200531724044
20
0.465548906874716
30
0
41
1
10
-18.0184789084955
20
0.457414202766614
30
0
41
1
10
-18.0168366824856
20
0.45276514253942
30
0
41
1
10
-18.0120969825224
20
0.442603577620275
30
0
41
1
10
-18.0089580969637
20
0.437021951453488
30
0
41
1
10
-18.0016666684293
20
0.425517957988518
30
0
41
1
10
-17.9974945596912
20
0.419543766457821
30
0
41
1
10
-17.988265511424
20
0.407220741848704
30
0
41
1
10
-17.9832116767568
20
0.400882031017034
30
0
41
1
10
-17.9778880275984
20
0.394519052838319
30
0
0
SPLINE
5
15D
100
AcDbEntity
8
1
62
256
6
ByLayer
370
18
48
1
60
0
100
AcDbSpline
70
4
71
3
72
8
73
4
40
0
40
0
40
0
40
0
40
1
40
1
40
1
40
1
41
1
10
-16.9397539363789
20
-0.249980947161674
30
0
41
1
10
-17.2427061894618
20
-0.0373726821929097
30
0
41
1
10
-17.5434740859654
20
0.177529668330379
30
0
41
1
10
-17.8422547739246
20
0.394519052838319
30
0
0
SPLINE
5
15E
100
AcDbEntity
8
1
62
256
6
ByLayer
370
18
48
1
60
0
100
AcDbSpline
70
4
71
3
72
18
73
14
40
0
40
0
40
0
40
0
40
0.124999999999989
40
0.124999999999989
40
0.249999999999978
40
0.249999999999978
40
0.499999999999973
40
0.499999999999973
40
0.624999999999977
40
0.624999999999977
40
0.749999999999981
40
0.749999999999981
40
1
40
1
40
1
40
1
41
1
10
-16.7870313841584
20
-0.324980947167205
30
0
41
1
10
-16.791342106785
20
-0.324980947166722
30
0
41
1
10
-16.7961881593911
20
-0.324327948262379
30
0
41
1
10
-16.8067373608678
20
-0.321974304028231
30
0
41
1
10
-16.8124756598324
20
-0.320254548459019
30
0
41
1
10
-16.8302474035175
20
-0.313940007976839
30
0
41
1
10
-16.8429780756196
20
-0.308195138262704
30
0
41
1
10
-16.8630506740278
20
-0.297879915890746
30
0
41
1
10
-16.8698793452217
20
-0.294164224961349
30
0
41
1
10
-16.8835836043086
20
-0.286352873803736
30
0
41
1
10
-16.8904897614687
20
-0.282241375851697
30
0
41
1
10
-16.9113560136088
20
-0.269346955069722
30
0
41
1
10
-16.9254620768257
20
-0.260010803126988
30
0
41
1
10
-16.9397539363789
20
-0.249980947161674
30
0
0
SPLINE
5
15F
100
AcDbEntity
8
1
62
256
6
ByLayer
370
18
48
1
60
0
100
AcDbSpline
70
4
71
3
72
22
73
18
40
0
40
0
40
0
40
0
40
0.125
40
0.125
40
0.25
40
0.25
40
0.375
40
0.375
40
0.5
40
0.5
40
0.625
40
0.625
40
0.75
40
0.75
40
0.875
40
0.875
40
1
40
1
40
1
40
1
41
1
10
-16.6928433719953
20
-0.249980947161418
30
0
41
1
10
-16.6887857444674
20
-0.254908553871502
30
0
41
1
10
-16.6849705694704
20
-0.259790857720077
30
0
41
1
10
-16.6779149533852
20
-0.26944782393528
30
0
41
1
10
-16.6746501619329
20
-0.274263633559656
30
0
41
1
10
-16.668997911571
20
-0.283500347574631
30
0
41
1
10
-16.666600016134
20
-0.287927339757033
30
0
41
1
10
-16.6627981564321
20
-0.296336048834661
30
0
41
1
10
-16.6614063262736
20
-0.300325602141925
30
0
41
1
10
-16.6598747052286
20
-0.307395135076661
30
0
41
1
10
-16.6597043062066
20
-0.31053181254066
30
0
41
1
10
-16.6606077625794
20
-0.315971261589283
30
0
41
1
10
-16.6616850913993
20
-0.318214129968481
30
0
41
1
10
-16.6649110617957
20
-0.321701165436622
30
0
41
1
10
-16.6670940108751
20
-0.322977219047687
30
0
41
1
10
-16.6722914023283
20
-0.324610296155299
30
0
41
1
10
-16.6752935883738
20
-0.324980947162004
30
0
41
1
10
-16.6786305280169
20
-0.324980947162004
30
0
0
SPLINE
5
160
100
AcDbEntity
8
1
62
256
6
ByLayer
370
18
48
1
60
0
100
AcDbSpline
70
4
71
3
72
8
73
4
40
0
40
0
40
0
40
0
40
1
40
1
40
1
40
1
41
1
10
-17.2234180953955
20
0.394519052838319
30
0
41
1
10
-17.0465893021273
20
0.179667539911037
30
0
41
1
10
-16.8697319891465
20
-0.0351663712000629
30
0
41
1
10
-16.6928433719954
20
-0.249980947161418
30
0
0
SPLINE
5
161
100
AcDbEntity
8
1
62
256
6
ByLayer
370
18
48
1
60
0
100
AcDbSpline
70
4
71
3
72
36
73
32
40
0
40
0
40
0
40
0
40
0.125000000000006
40
0.125000000000006
40
0.250000000000011
40
0.250000000000011
40
0.312500000000008
40
0.312500000000008
40
0.375000000000005
40
0.375000000000005
40
0.437500000000002
40
0.437500000000002
40
0.499999999999999
40
0.499999999999999
40
0.562499999999996
40
0.562499999999996
40
0.624999999999993
40
0.624999999999993
40
0.68749999999999
40
0.68749999999999
40
0.749999999999987
40
0.749999999999987
40
0.812499999999985
40
0.812499999999985
40
0.84374999999999
40
0.84374999999999
40
0.874999999999995
40
0.874999999999995
40
0.937499999999998
40
0.937499999999998
40
1
40
1
40
1
40
1
41
1
10
-17.0559192792914
20
0.394519052838319
30
0
41
1
10
-17.0705982671182
20
0.404362834404878
30
0
41
1
10
-17.0851178275437
20
0.413601630101539
30
0
41
1
10
-17.1138227275755
20
0.430828338333697
30
0
41
1
10
-17.1280088688477
20
0.438819193995471
30
0
41
1
10
-17.1489899980216
20
0.449699392425316
30
0
41
1
10
-17.1559606335937
20
0.4531526058731
30
0
41
1
10
-17.1696501918301
20
0.459564811699522
30
0
41
1
10
-17.1763456356655
20
0.462514412437855
30
0
41
1
10
-17.1894003078252
20
0.467836120126378
30
0
41
1
10
-17.1957600056047
20
0.470209044019242
30
0
41
1
10
-17.2080807163957
20
0.474269475598959
30
0
41
1
10
-17.2140546329025
20
0.475956566440431
30
0
41
1
10
-17.2252235244482
20
0.478415526060701
30
0
41
1
10
-17.2304549202225
20
0.479202477171327
30
0
41
1
10
-17.2400467319688
20
0.479682312363281
30
0
41
1
10
-17.2444294871586
20
0.479360097418436
30
0
41
1
10
-17.2517430897208
20
0.477362054351346
30
0
41
1
10
-17.2547315718806
20
0.475687856197624
30
0
41
1
10
-17.2589862605905
20
0.470736049652856
30
0
41
1
10
-17.2601800791641
20
0.467549883255174
30
0
41
1
10
-17.2606310932113
20
0.459699767510244
30
0
41
1
10
-17.2598443353929
20
0.454972489546776
30
0
41
1
10
-17.2572903989193
20
0.447204211494579
30
0
41
1
10
-17.2562136678002
20
0.444488571355805
30
0
41
1
10
-17.2536321914573
20
0.438817281238812
30
0
41
1
10
-17.25212003757
20
0.435851492444527
30
0
41
1
10
-17.2470990805785
20
0.4268335141021
30
0
41
1
10
-17.2430846030587
20
0.420595456700227
30
0
41
1
10
-17.2339746722671
20
0.407751827534497
30
0
41
1
10
-17.2288630059653
20
0.401134758640808
30
0
41
1
10
-17.2234180953955
20
0.394519052838319
30
0
0
SPLINE
5
162
100
AcDbEntity
8
1
62
256
6
ByLayer
370
18
48
1
60
0
100
AcDbSpline
70
4
71
3
72
8
73
4
40
0
40
0
40
0
40
0
40
1
40
1
40
1
40
1
41
1
10
-16.0747405491863
20
-0.249980947161674
30
0
41
1
10
-16.4043614902331
20
-0.0380721567194087
30
0
41
1
10
-16.7313392866229
20
0.176854552642254
30
0
41
1
10
-17.0559192792914
20
0.394519052838319
30
0
0
SPLINE
5
163
100
AcDbEntity
8
1
62
256
6
ByLayer
370
18
48
1
60
0
100
AcDbSpline
70
4
71
3
72
18
73
14
40
0
40
0
40
0
40
0
40
0.124999999999988
40
0.124999999999988
40
0.249999999999977
40
0.249999999999977
40
0.499999999999954
40
0.499999999999954
40
0.624999999999965
40
0.624999999999965
40
0.749999999999977
40
0.749999999999977
40
1
40
1
40
1
40
1
41
1
10
-15.9014694779915
20
-0.3249809471763
30
0
41
1
10
-15.9068347284255
20
-0.324980947175277
30
0
41
1
10
-15.9127047740947
20
-0.324317621812298
30
0
41
1
10
-15.9252257328505
20
-0.321961956424673
30
0
41
1
10
-15.9319250958335
20
-0.320249195654498
30
0
41
1
10
-15.9524998074368
20
-0.313959742985048
30
0
41
1
10
-15.9669425794261
20
-0.308258872530075
30
0
41
1
10
-15.9893960442947
20
-0.298066963277279
30
0
41
1
10
-15.9970463709325
20
-0.294372260744638
30
0
41
1
10
-16.0124072411958
20
-0.286558897961328
30
0
41
1
10
-16.0201229062702
20
-0.28243976752168
30
0
41
1
10
-16.0433670810145
20
-0.269500582045311
30
0
41
1
10
-16.0589915323881
20
-0.260105774454985
30
0
41
1
10
-16.0747405491863
20
-0.249980947161674
30
0
0
SPLINE
5
164
100
AcDbEntity
8
1
62
256
6
ByLayer
370
18
48
1
60
0
100
AcDbSpline
70
4
71
3
72
24
73
20
40
0
40
0
40
0
40
0
40
0.124999999999997
40
0.124999999999997
40
0.249999999999993
40
0.249999999999993
40
0.37499999999999
40
0.37499999999999
40
0.499999999999987
40
0.499999999999987
40
0.562499999999999
40
0.562499999999999
40
0.625000000000011
40
0.625000000000011
40
0.750000000000007
40
0.750000000000007
40
0.875000000000004
40
0.875000000000004
40
1
40
1
40
1
40
1
41
1
10
-15.7705104401658
20
-0.249980947161219
30
0
41
1
10
-15.7664409806213
20
-0.254963799579315
30
0
41
1
10
-15.7626505409949
20
-0.259920539419568
30
0
41
1
10
-15.7557515288527
20
-0.26977004495356
30
0
41
1
10
-15.7526342009609
20
-0.274688047466299
30
0
41
1
10
-15.7474658460834
20
-0.284082327184649
30
0
41
1
10
-15.7453822187738
20
-0.288598514860155
30
0
41
1
10
-15.7424161976405
20
-0.297195434075917
30
0
41
1
10
-15.7415893741885
20
-0.30113726110136
30
0
41
1
10
-15.7413685370152
20
-0.306412502500422
30
0
41
1
10
-15.7414634919665
20
-0.308069754760112
30
0
41
1
10
-15.7419978988112
20
-0.311177247757087
30
0
41
1
10
-15.7424416837273
20
-0.312630120683394
30
0
41
1
10
-15.744244201702
20
-0.316565770116426
30
0
41
1
10
-15.7460732175954
20
-0.31867350402598
30
0
41
1
10
-15.7508356082857
20
-0.321978291223502
30
0
41
1
10
-15.75373219378
20
-0.323141681747728
30
0
41
1
10
-15.7602441134992
20
-0.32463826070034
30
0
41
1
10
-15.7638772192612
20
-0.324980947161663
30
0
41
1
10
-15.7678282405415
20
-0.324980947161663
30
0
0
SPLINE
5
165
100
AcDbEntity
8
1
62
256
6
ByLayer
370
18
48
1
60
0
100
AcDbSpline
70
4
71
3
72
8
73
4
40
0
40
0
40
0
40
0
40
1
40
1
40
1
40
1
41
1
10
-16.2968648471025
20
0.394519052838319
30
0
41
1
10
-16.1214142561082
20
0.179685181728644
30
0
41
1
10
-15.9459628164259
20
-0.0351481695532812
30
0
41
1
10
-15.7705104401659
20
-0.249980947161219
30
0
0
SPLINE
5
166
100
AcDbEntity
8
1
62
256
6
ByLayer
370
18
48
1
60
0
100
AcDbSpline
70
4
71
3
72
37
73
33
40
0
40
0
40
0
40
0
40
0.125000000000014
40
0.125000000000014
40
0.250000000000028
40
0.250000000000028
40
0.312500000000026
40
0.312500000000026
40
0.375000000000024
40
0.375000000000024
40
0.437500000000022
40
0.437500000000022
40
0.500000000000021
40
0.500000000000021
40
0.562500000000019
40
0.562500000000019
40
0.625000000000017
40
0.625000000000017
40
0.687500000000015
40
0.687500000000015
40
0.718750000000014
40
0.718750000000014
40
0.750000000000013
40
0.781250000000012
40
0.781250000000012
40
0.812500000000011
40
0.812500000000011
40
0.875000000000007
40
0.875000000000007
40
0.937500000000004
40
0.937500000000004
40
1
40
1
40
1
40
1
41
1
10
-16.0923183384426
20
0.394519052838319
30
0
41
1
10
-16.1081403501313
20
0.404200256657845
30
0
41
1
10
-16.1238313712992
20
0.413265662151645
30
0
41
1
10
-16.1549439718491
20
0.430149685211973
30
0
41
1
10
-16.1703660028168
20
0.437970340595513
30
0
41
1
10
-16.1932654366168
20
0.448629773409038
30
0
41
1
10
-16.2008593510069
20
0.452002917468832
30
0
41
1
10
-16.2159579026447
20
0.458340102413388
30
0
41
1
10
-16.2234519279944
20
0.461297908650863
30
0
41
1
10
-16.2380890158211
20
0.466647495179046
30
0
41
1
10
-16.245260980452
20
0.469052204399844
30
0
41
1
10
-16.2592633136992
20
0.473231268390492
30
0
41
1
10
-16.2661219864907
20
0.475012423208597
30
0
41
1
10
-16.2792863978668
20
0.477766429622619
30
0
41
1
10
-16.2855515578539
20
0.478734012847497
30
0
41
1
10
-16.2973118227789
20
0.479672125908735
30
0
41
1
10
-16.3028162984544
20
0.479645941417374
30
0
41
1
10
-16.3127801679192
20
0.478272438753095
30
0
41
1
10
-16.3170998390114
20
0.476943943677298
30
0
41
1
10
-16.3223498902317
20
0.473755976422041
30
0
41
1
10
-16.3239027532794
20
0.472480345157834
30
0
41
1
10
-16.3264777974483
20
0.469527657879866
30
0
41
1
10
-16.3285222818147
20
0.466190067695862
30
0
41
1
10
-16.3294707477644
20
0.462056024846504
30
0
41
1
10
-16.3298403401063
20
0.457500657007216
30
0
41
1
10
-16.3297288331335
20
0.454989178748832
30
0
41
1
10
-16.3285186876843
20
0.44706044623743
30
0
41
1
10
-16.3265623504638
20
0.441180005305654
30
0
41
1
10
-16.3206481840525
20
0.428496905157545
30
0
41
1
10
-16.316807646128
20
0.421921670112624
30
0
41
1
10
-16.3077594567695
20
0.408408203381782
30
0
41
1
10
-16.3025219331033
20
0.401445981256501
30
0
41
1
10
-16.2968648471025
20
0.394519052838319
30
0
0
SPLINE
5
167
100
AcDbEntity
8
1
62
256
6
ByLayer
370
18
48
1
60
0
100
AcDbSpline
70
4
71
3
72
8
73
4
40
0
40
0
40
0
40
0
40
1
40
1
40
1
40
1
41
1
10
-15.0113058733159
20
-0.249980947161674
30
0
41
1
10
-15.3747684041203
20
-0.0390788144742373
30
0
41
1
10
-15.7350028490323
20
0.175884144148966
30
0
41
1
10
-16.0923183384426
20
0.394519052838319
30
0
0
SPLINE
5
168
100
AcDbEntity
8
1
62
256
6
ByLayer
370
18
48
1
60
0
100
AcDbSpline
70
4
71
3
72
18
73
14
40
0
40
0
40
0
40
0
40
0.125000000000002
40
0.125000000000002
40
0.250000000000003
40
0.250000000000003
40
0.500000000000006
40
0.500000000000006
40
0.625000000000003
40
0.625000000000003
40
0.749999999999999
40
0.749999999999999
40
1
40
1
40
1
40
1
41
1
10
-14.8124623350353
20
-0.324980947161691
30
0
41
1
10
-14.8191040881758
20
-0.324980947161009
30
0
41
1
10
-14.8262013671261
20
-0.324309054638235
30
0
41
1
10
-14.8410729561888
20
-0.321962674102565
30
0
41
1
10
-14.8488745658275
20
-0.320277142050088
30
0
41
1
10
-14.8729727659273
20
-0.31400004023601
30
0
41
1
10
-14.8895680346605
20
-0.308329666237881
30
0
41
1
10
-14.9150208402985
20
-0.298248546839886
30
0
41
1
10
-14.9236014290334
20
-0.294617357588265
30
0
41
1
10
-14.9409404746337
20
-0.286855545448702
30
0
41
1
10
-14.9497206956231
20
-0.282713288346656
30
0
41
1
10
-14.976052688455
20
-0.26969847336872
30
0
41
1
10
-14.9936550910215
20
-0.260222959237126
30
0
41
1
10
-15.0113058733159
20
-0.249980947161674
30
0
0
SPLINE
5
169
100
AcDbEntity
8
1
62
256
6
ByLayer
370
18
48
1
60
0
100
AcDbSpline
70
4
71
3
72
22
73
18
40
0
40
0
40
0
40
0
40
0.125
40
0.125
40
0.25
40
0.25
40
0.375
40
0.375
40
0.5
40
0.5
40
0.625
40
0.625
40
0.75
40
0.75
40
0.875
40
0.875
40
1
40
1
40
1
40
1
41
1
10
-14.6378611567674
20
-0.249980947160765
30
0
41
1
10
-14.6337062695904
20
-0.255043416118525
30
0
41
1
10
-14.6298767351538
20
-0.260106240331453
30
0
41
1
10
-14.6230472637204
20
-0.270232753743471
30
0
41
1
10
-14.6200843263832
20
-0.275257691632021
30
0
41
1
10
-14.6154489910775
20
-0.284851965514861
30
0
41
1
10
-14.6137386426708
20
-0.289478184913406
30
0
41
1
10
-14.6118264888769
20
-0.298252416364676
30
0
41
1
10
-14.6116726799336
20
-0.302184420737689
30
0
41
1
10
-14.6129132685258
20
-0.309168004887198
30
0
41
1
10
-14.6143452457558
20
-0.312233712057065
30
0
41
1
10
-14.6185013101192
20
-0.317228993892542
30
0
41
1
10
-14.6212507120715
20
-0.319223339349236
30
0
41
1
10
-14.6276897795995
20
-0.322264257201539
30
0
41
1
10
-14.6313455176698
20
-0.323311967656196
30
0
41
1
10
-14.6393339813921
20
-0.324671544088858
30
0
41
1
10
-14.6436861637691
20
-0.324980947161691
30
0
41
1
10
-14.6482797132064
20
-0.324980947161691
30
0
0
SPLINE
5
16A
100
AcDbEntity
8
1
62
256
6
ByLayer
370
18
48
1
60
0
100
AcDbSpline
70
4
71
3
72
8
73
4
40
0
40
0
40
0
40
0
40
1
40
1
40
1
40
1
41
1
10
-15.1667226783067
20
0.394519052838319
30
0
41
1
10
-14.9904557633516
20
0.179673252606676
30
0
41
1
10
-14.8141693177328
20
-0.035160531136512
30
0
41
1
10
-14.6378611567676
20
-0.249980947160765
30
0
0
SPLINE
5
16B
100
AcDbEntity
8
1
62
256
6
ByLayer
370
18
48
1
60
0
100
AcDbSpline
70
4
71
3
72
32
73
28
40
0
40
0
40
0
40
0
40
0.124999999999994
40
0.124999999999994
40
0.249999999999988
40
0.249999999999988
40
0.374999999999982
40
0.374999999999982
40
0.437499999999983
40
0.437499999999983
40
0.499999999999984
40
0.499999999999984
40
0.624999999999985
40
0.624999999999985
40
0.749999999999986
40
0.749999999999986
40
0.812499999999987
40
0.812499999999987
40
0.843749999999988
40
0.843749999999988
40
0.874999999999988
40
0.874999999999988
40
0.906249999999988
40
0.906249999999988
40
0.937499999999989
40
0.937499999999989
40
1
40
1
40
1
40
1
41
1
10
-14.917139020263
20
0.394519052838319
30
0
41
1
10
-14.9344476298749
20
0.404023486860524
30
0
41
1
10
-14.951670326529
20
0.412916838420955
30
0
41
1
10
-14.985940144602
20
0.429481867193488
30
0
41
1
10
-15.0029874868118
20
0.437155024368053
30
0
41
1
10
-15.0368825566627
20
0.451126841449934
30
0
41
1
10
-15.0538143213152
20
0.457452343825082
30
0
41
1
10
-15.0784542027497
20
0.465437639459168
30
0
41
1
10
-15.086556340249
20
0.467854927845565
30
0
41
1
10
-15.1025031675837
20
0.472121922114553
30
0
41
1
10
-15.1103771446343
20
0.473978062194675
30
0
41
1
10
-15.1333232050906
20
0.478462496419667
30
0
41
1
10
-15.1475864856647
20
0.480042909231599
30
0
41
1
10
-15.1728315270451
20
0.478697351337104
30
0
41
1
10
-15.1839406355279
20
0.475624193230942
30
0
41
1
10
-15.1935543889026
20
0.465213977477276
30
0
41
1
10
-15.1955157054796
20
0.460889148266347
30
0
41
1
10
-15.1962909719604
20
0.452906798019313
30
0
41
1
10
-15.1961750258383
20
0.450020940609448
30
0
41
1
10
-15.1952286606578
20
0.443978379701605
30
0
41
1
10
-15.1944011683871
20
0.440798728334443
30
0
41
1
10
-15.1920700953782
20
0.434136718479124
30
0
41
1
10
-15.1905606996569
20
0.430654502661866
30
0
41
1
10
-15.1870296219919
20
0.423643516063777
30
0
41
1
10
-15.1849986360634
20
0.420084952291035
30
0
41
1
10
-15.1782123037365
20
0.409270385922156
30
0
41
1
10
-15.1727363465437
20
0.401848910316261
30
0
41
1
10
-15.1667226783068
20
0.394519052838319
30
0
0
SPLINE
5
16C
100
AcDbEntity
8
1
62
256
6
ByLayer
370
18
48
1
60
0
100
AcDbSpline
70
4
71
3
72
8
73
4
40
0
40
0
40
0
40
0
40
1
40
1
40
1
40
1
41
1
10
-13.7033325990741
20
-0.249980947161674
30
0
41
1
10
-14.1118090101191
20
-0.0406200174700473
30
0
41
1
10
-14.5162787786963
20
0.174400290933079
30
0
41
1
10
-14.917139020263
20
0.394519052838319
30
0
0
SPLINE
5
16D
100
AcDbEntity
8
1
62
256
6
ByLayer
370
18
48
1
60
0
100
AcDbSpline
70
4
71
3
72
18
73
14
40
0
40
0
40
0
40
0
40
0.124999999999999
40
0.124999999999999
40
0.249999999999999
40
0.249999999999999
40
0.500000000000012
40
0.500000000000012
40
0.625000000000015
40
0.625000000000015
40
0.750000000000017
40
0.750000000000017
40
1
40
1
40
1
40
1
41
1
10
-13.4707590466833
20
-0.324980947161663
30
0
41
1
10
-13.4790426143305
20
-0.324980947160924
30
0
41
1
10
-13.4877484855215
20
-0.324300247940755
30
0
41
1
10
-13.5057756944861
20
-0.321941256519949
30
0
41
1
10
-13.5151490437596
20
-0.320245771405467
30
0
41
1
10
-13.5435827809818
20
-0.3140236442012
30
0
41
1
10
-13.5629742414692
20
-0.308403963315669
30
0
41
1
10
-13.5925288496342
20
-0.298384525187089
30
0
41
1
10
-13.6024606690834
20
-0.294771964935876
30
0
41
1
10
-13.6224734316684
20
-0.287040580432603
30
0
41
1
10
-13.6325784400979
20
-0.282910887998582
30
0
41
1
10
-13.662895217506
20
-0.269878476907678
30
0
41
1
10
-13.6831105541848
20
-0.260345575335549
30
0
41
1
10
-13.7033325990741
20
-0.249980947161674
30
0
0
SPLINE
5
16E
100
AcDbEntity
8
1
62
256
6
ByLayer
370
18
48
1
60
0
100
AcDbSpline
70
4
71
3
72
24
73
20
40
0
40
0
40
0
40
0
40
0.125000000000031
40
0.125000000000031
40
0.250000000000062
40
0.250000000000062
40
0.375000000000093
40
0.375000000000093
40
0.437500000000096
40
0.437500000000096
40
0.5000000000001
40
0.5000000000001
40
0.625000000000075
40
0.625000000000075
40
0.75000000000005
40
0.75000000000005
40
0.875000000000025
40
0.875000000000025
40
1
40
1
40
1
40
1
41
1
10
-13.2410331525235
20
-0.249980947159685
30
0
41
1
10
-13.2366717680853
20
-0.255161360763538
30
0
41
1
10
-13.2326950507481
20
-0.260385226271268
30
0
41
1
10
-13.2258016845266
20
-0.270931072699625
30
0
41
1
10
-13.2229993581938
20
-0.276081925994362
30
0
41
1
10
-13.2189684212771
20
-0.286084946206671
30
0
41
1
10
-13.2177598928941
20
-0.291002174949767
30
0
41
1
10
-13.2174600076951
20
-0.29758040757747
30
0
41
1
10
-13.217599246198
20
-0.299659982289512
30
0
41
1
10
-13.2183530563978
20
-0.303593932941084
30
0
41
1
10
-13.2189756245217
20
-0.305461994607015
30
0
41
1
10
-13.2214983554681
20
-0.310608205530798
30
0
41
1
10
-13.2240247330258
20
-0.313435949905653
30
0
41
1
10
-13.2304155523803
20
-0.318099627225706
30
0
41
1
10
-13.2341732063759
20
-0.319865449819161
30
0
41
1
10
-13.2425039387842
20
-0.322573447462219
30
0
41
1
10
-13.247106454522
20
-0.323514290699364
30
0
41
1
10
-13.2568419376322
20
-0.324717378813944
30
0
41
1
10
-13.2619500759375
20
-0.324980947164164
30
0
41
1
10
-13.2672449924391
20
-0.324980947164107
30
0
0
SPLINE
5
16F
100
AcDbEntity
8
1
62
256
6
ByLayer
370
18
48
1
60
0
100
AcDbSpline
70
4
71
3
72
8
73
4
40
0
40
0
40
0
40
0
40
1
40
1
40
1
40
1
41
1
10
-13.7830022040408
20
0.394519052838319
30
0
41
1
10
-13.6024787330431
20
0.179601914328856
30
0
41
1
10
-13.4218277113966
20
-0.0352347798379355
30
0
41
1
10
-13.2410331525239
20
-0.249980947159742
30
0
0
SPLINE
5
170
100
AcDbEntity
8
1
62
256
6
ByLayer
370
18
48
1
60
0
100
AcDbSpline
70
4
71
3
72
42
73
38
40
0
40
0
40
0
40
0
40
0.125
40
0.125
40
0.249999999999999
40
0.249999999999999
40
0.374999999999998
40
0.374999999999998
40
0.437500000000002
40
0.437500000000002
40
0.500000000000006
40
0.500000000000006
40
0.56250000000001
40
0.56250000000001
40
0.625000000000014
40
0.625000000000014
40
0.687500000000018
40
0.687500000000018
40
0.718750000000016
40
0.718750000000016
40
0.750000000000014
40
0.750000000000014
40
0.781250000000013
40
0.781250000000013
40
0.812500000000011
40
0.812500000000011
40
0.843750000000009
40
0.843750000000009
40
0.875000000000007
40
0.875000000000007
40
0.906250000000005
40
0.906250000000005
40
0.937500000000004
40
0.937500000000004
40
0.968750000000002
40
0.968750000000002
40
1
40
1
40
1
40
1
41
1
10
-13.4751387226226
20
0.394519052838348
30
0
41
1
10
-13.4944974298941
20
0.403824970923949
30
0
41
1
10
-13.5137682733054
20
0.412506876021638
30
0
41
1
10
-13.5521351294637
20
0.428655124456242
30
0
41
1
10
-13.5712312469642
20
0.436122125516334
30
0
41
1
10
-13.6092315701573
20
0.449732644727959
30
0
41
1
10
-13.6281363869181
20
0.455880681945132
30
0
41
1
10
-13.6563165838365
20
0.463875283141988
30
0
41
1
10
-13.6657097944521
20
0.466339640870586
30
0
41
1
10
-13.68417823702
20
0.470721421207799
30
0
41
1
10
-13.6932733156991
20
0.472646210690215
30
0
41
1
10
-13.7111381361335
20
0.475871029240125
30
0
41
1
10
-13.7199085658052
20
0.477172418009957
30
0
41
1
10
-13.7370460781938
20
0.478996684936675
30
0
41
1
10
-13.7454473674279
20
0.479522794198147
30
0
41
1
10
-13.7615565883783
20
0.479515271737995
30
0
41
1
10
-13.7691954443652
20
0.478988680249955
30
0
41
1
10
-13.7797908223149
20
0.477107910049227
30
0
41
1
10
-13.7831870871887
20
0.476291703406076
30
0
41
1
10
-13.7894934249633
20
0.474249515499508
30
0
41
1
10
-13.7924190564528
20
0.47302260592582
30
0
41
1
10
-13.7977338238776
20
0.470082361169176
30
0
41
1
10
-13.8001238000058
20
0.468369794664795
30
0
41
1
10
-13.8042436244571
20
0.464344813194259
30
0
41
1
10
-13.8059545012143
20
0.462033278761908
30
0
41
1
10
-13.8084586467166
20
0.456907376408793
30
0
41
1
10
-13.8092739842408
20
0.454074887423445
30
0
41
1
10
-13.8099296361508
20
0.447806989829843
30
0
41
1
10
-13.8097574303534
20
0.444470345874578
30
0
41
1
10
-13.8084729692142
20
0.437445286657436
30
0
41
1
10
-13.8073470724843
20
0.433719731071363
30
0
41
1
10
-13.8042548936939
20
0.42607571628605
30
0
41
1
10
-13.8023108722539
20
0.42219152204089
30
0
41
1
10
-13.7977493603533
20
0.414317667809627
30
0
41
1
10
-13.7951158494948
20
0.410309926271566
30
0
41
1
10
-13.7893940390956
20
0.40238146501062
30
0
41
1
10
-13.786296163494
20
0.398440583573262
30
0
41
1
10
-13.7830022040414
20
0.394519052838263
30
0
0
SPLINE
5
171
100
AcDbEntity
8
1
62
256
6
ByLayer
370
18
48
1
60
0
100
AcDbSpline
70
4
71
3
72
8
73
4
40
0
40
0
40
0
40
0
40
1
40
1
40
1
40
1
41
1
10
-12.0715924641051
20
-0.249980947161674
30
0
41
1
10
-12.5443782285905
20
-0.0432112314598498
30
0
41
1
10
-13.0120515832121
20
0.171908579658265
30
0
41
1
10
-13.4751387226226
20
0.394519052838319
30
0
0
SPLINE
5
172
100
AcDbEntity
8
1
62
256
6
ByLayer
370
18
48
1
60
0
100
AcDbSpline
70
4
71
3
72
18
73
14
40
0
40
0
40
0
40
0
40
0.124999999999998
40
0.124999999999998
40
0.249999999999996
40
0.249999999999996
40
0.374999999999994
40
0.374999999999994
40
0.499999999999992
40
0.499999999999992
40
0.749999999999996
40
0.749999999999996
40
1
40
1
40
1
40
1
41
1
10
-11.7904053433561
20
-0.324980947161691
30
0
41
1
10
-11.8009857587865
20
-0.324980947161123
30
0
41
1
10
-11.8119141236755
20
-0.324294680904728
30
0
41
1
10
-11.8342604401862
20
-0.321948179201343
30
0
41
1
10
-11.8456816009172
20
-0.320281751592603
30
0
41
1
10
-11.868919781421
20
-0.316156259594692
30
0
41
1
10
-11.8806546577429
20
-0.313709166632691
30
0
41
1
10
-11.9041624897105
20
-0.308214039015723
30
0
41
1
10
-11.9159624072422
20
-0.305160068139657
30
0
41
1
10
-11.95148223962
20
-0.29519330724861
30
0
41
1
10
-11.9753205267178
20
-0.287485958052685
30
0
41
1
10
-12.0232815266328
20
-0.270170993163305
30
0
41
1
10
-12.0474840624247
20
-0.260524596602778
30
0
41
1
10
-12.0715924641051
20
-0.249980947161674
30
0
0
SPLINE
5
173
100
AcDbEntity
8
1
62
256
6
ByLayer
370
18
48
1
60
0
100
AcDbSpline
70
4
71
3
72
26
73
22
40
0
40
0
40
0
40
0
40
0.0625000000000089
40
0.0625000000000089
40
0.125000000000018
40
0.125000000000018
40
0.250000000000022
40
0.250000000000022
40
0.312500000000025
40
0.312500000000025
40
0.375000000000027
40
0.375000000000027
40
0.437500000000029
40
0.437500000000029
40
0.500000000000031
40
0.500000000000031
40
0.625000000000014
40
0.625000000000014
40
0.749999999999996
40
0.749999999999996
40
1
40
1
40
1
40
1
41
1
10
-11.4840297216474
20
-0.2499809471567
30
0
41
1
10
-11.4816286657575
20
-0.252662809483013
30
0
41
1
10
-11.4793484168762
20
-0.255372625405698
30
0
41
1
10
-11.4750796198067
20
-0.260859831188952
30
0
41
1
10
-11.4730842221144
20
-0.263650244245781
30
0
41
1
10
-11.4677646288332
20
-0.271946319953031
30
0
41
1
10
-11.4650456356642
20
-0.277434891804376
30
0
41
1
10
-11.4627060576781
20
-0.285534684117294
30
0
41
1
10
-11.4622438677764
20
-0.288130022310526
30
0
41
1
10
-11.4619653550609
20
-0.293107796327661
30
0
41
1
10
-11.4621533183068
20
-0.295506817538978
30
0
41
1
10
-11.4631780671403
20
-0.300007083328836
30
0
41
1
10
-11.4640022960698
20
-0.302081589349513
30
0
41
1
10
-11.4662023413252
20
-0.305919505641953
30
0
41
1
10
-11.4675918046275
20
-0.307694451502499
30
0
41
1
10
-11.4723994241289
20
-0.312493707308533
30
0
41
1
10
-11.4764176812268
20
-0.315011270866336
30
0
41
1
10
-11.4855788711065
20
-0.3190997144346
30
0
41
1
10
-11.4906901155618
20
-0.320641072370194
30
0
41
1
10
-11.5067742702653
20
-0.324111897520851
30
0
41
1
10
-11.5186972392776
20
-0.324980947161748
30
0
41
1
10
-11.5311526233312
20
-0.324980947161748
30
0
0
SPLINE
5
174
100
AcDbEntity
8
1
62
256
6
ByLayer
370
18
48
1
60
0
100
AcDbSpline
70
4
71
3
72
8
73
4
40
0
40
0
40
0
40
0
40
1
40
1
40
1
40
1
41
1
10
-12.0587239255455
20
0.394519052838319
30
0
41
1
10
-11.8676217953063
20
0.179376344705133
30
0
41
1
10
-11.6760787809167
20
-0.0354715144199815
30
0
41
1
10
-11.4840297216482
20
-0.249980947156956
30
0
0
SPLINE
5
175
100
AcDbEntity
8
1
62
256
6
ByLayer
370
18
48
1
60
0
100
AcDbSpline
70
4
71
3
72
32
73
28
40
0
40
0
40
0
40
0
40
0.249999999999995
40
0.249999999999995
40
0.374999999999993
40
0.374999999999993
40
0.49999999999999
40
0.49999999999999
40
0.624999999999988
40
0.624999999999988
40
0.687499999999992
40
0.687499999999992
40
0.749999999999996
40
0.749999999999996
40
0.8125
40
0.8125
40
0.84375
40
0.84375
40
0.875
40
0.875
40
0.90625
40
0.90625
40
0.9375
40
0.9375
40
0.96875
40
0.96875
40
1
40
1
40
1
40
1
41
1
10
-11.6678057336413
20
0.394519052838405
30
0
41
1
10
-11.7127397678169
20
0.41266167405351
30
0
41
1
10
-11.7573384013257
20
0.428385440091915
30
0
41
1
10
-11.8237114343644
20
0.448288569619422
30
0
41
1
10
-11.845746713031
20
0.454295911623802
30
0
41
1
10
-11.8896066393101
20
0.464812029230075
30
0
41
1
10
-11.9114326704852
20
0.46933185223088
30
0
41
1
10
-11.95479962995
20
0.476291629724812
30
0
41
1
10
-11.9759294367788
20
0.478686948315044
30
0
41
1
10
-12.0062651822148
20
0.479674902419362
30
0
41
1
10
-12.0162023258966
20
0.479558848744972
30
0
41
1
10
-12.0351157717405
20
0.478062827266314
30
0
41
1
10
-12.0440909421574
20
0.476702313584752
30
0
41
1
10
-12.0605343945399
20
0.472050935714037
30
0
41
1
10
-12.0677998310453
20
0.468833437824344
30
0
41
1
10
-12.0762532119582
20
0.461814512102706
30
0
41
1
10
-12.0786055530974
20
0.459126123836853
30
0
41
1
10
-12.0820678765738
20
0.453040044483913
30
0
41
1
10
-12.0831948388428
20
0.449567033594036
30
0
41
1
10
-12.0839543936443
20
0.442111383170811
30
0
41
1
10
-12.0836171858975
20
0.43812255355823
30
0
41
1
10
-12.0815169303313
20
0.429624814704908
30
0
41
1
10
-12.0797842940736
20
0.42525064573681
30
0
41
1
10
-12.0752352121409
20
0.416407852627799
30
0
41
1
10
-12.07239584525
20
0.411909057921463
30
0
41
1
10
-12.0660531689379
20
0.403129240718585
30
0
41
1
10
-12.0625268109323
20
0.398800339805859
30
0
41
1
10
-12.0587239255501
20
0.394519052837495
30
0
0
SPLINE
5
176
100
AcDbEntity
8
1
62
256
6
ByLayer
370
18
48
1
60
0
100
AcDbSpline
70
4
71
3
72
8
73
4
40
0
40
0
40
0
40
0
40
1
40
1
40
1
40
1
41
1
10
-9.95818080364235
20
-0.249980947161674
30
0
41
1
10
-10.5346776336162
20
-0.0483216931654624
30
0
41
1
10
-11.1043070714565
20
0.167000136035085
30
0
41
1
10
-11.6678057336413
20
0.394519052838319
30
0
0
SPLINE
5
177
100
AcDbEntity
8
1
62
256
6
ByLayer
370
18
48
1
60
0
100
AcDbSpline
70
4
71
3
72
18
73
14
40
0
40
0
40
0
40
0
40
0.124999999999998
40
0.124999999999998
40
0.249999999999996
40
0.249999999999996
40
0.374999999999994
40
0.374999999999994
40
0.499999999999992
40
0.499999999999992
40
0.749999999999996
40
0.749999999999996
40
1
40
1
40
1
40
1
41
1
10
-9.59510119943219
20
-0.324980947161663
30
0
41
1
10
-9.60939630151748
20
-0.324980947161464
30
0
41
1
10
-9.62392958123111
20
-0.324297794518799
30
0
41
1
10
-9.65331986464513
20
-0.321987997282719
30
0
41
1
10
-9.66817941641823
20
-0.320354306837686
30
0
41
1
10
-9.69815480400072
20
-0.316330675660282
30
0
41
1
10
-9.71327144979443
20
-0.313938494308843
30
0
41
1
10
-9.74372435458608
20
-0.308500052459749
30
0
41
1
10
-9.75905370529834
20
-0.305452754405337
30
0
41
1
10
-9.80495401068578
20
-0.295505489673701
30
0
41
1
10
-9.83557362085624
20
-0.287787704120774
30
0
41
1
10
-9.89684818743098
20
-0.270391615950899
30
0
41
1
10
-9.92750315018561
20
-0.260712025614936
30
0
41
1
10
-9.95818080364235
20
-0.249980947161788
30
0
0
SPLINE
5
178
100
AcDbEntity
8
1
62
256
6
ByLayer
370
18
48
1
60
0
100
AcDbSpline
70
4
71
3
72
28
73
24
40
0
40
0
40
0
40
0
40
0.124999999999979
40
0.124999999999979
40
0.187499999999987
40
0.187499999999987
40
0.249999999999995
40
0.249999999999995
40
0.312500000000004
40
0.312500000000004
40
0.375000000000012
40
0.375000000000012
40
0.43750000000002
40
0.43750000000002
40
0.500000000000029
40
0.500000000000029
40
0.562500000000037
40
0.562500000000037
40
0.625000000000045
40
0.625000000000045
40
0.75000000000003
40
0.75000000000003
40
1
40
1
40
1
40
1
41
1
10
-9.16192765463472
20
-0.249980947138766
30
0
41
1
10
-9.15615273719948
20
-0.255600302159451
30
0
41
1
10
-9.15099568342298
20
-0.261428771439654
30
0
41
1
10
-9.14496698035525
20
-0.27073385593485
30
0
41
1
10
-9.14331827787987
20
-0.273832273955748
30
0
41
1
10
-9.14090466831681
20
-0.280021122036175
30
0
41
1
10
-9.14015242917439
20
-0.28313213225735
30
0
41
1
10
-9.13974594268898
20
-0.288994391027103
30
0
41
1
10
-9.1400768539919
20
-0.291811047499152
30
0
41
1
10
-9.14176760795786
20
-0.297056649595334
30
0
41
1
10
-9.1430966205908
20
-0.299433796617109
30
0
41
1
10
-9.1465454728243
20
-0.303785698641434
30
0
41
1
10
-9.14864892647037
20
-0.305731679420518
30
0
41
1
10
-9.15332789905037
20
-0.309190981638437
30
0
41
1
10
-9.15591900108384
20
-0.310721335777487
30
0
41
1
10
-9.16149106763955
20
-0.313472547988169
30
0
41
1
10
-9.16447108844564
20
-0.314689457233726
30
0
41
1
10
-9.1706178484545
20
-0.31683450337357
30
0
41
1
10
-9.1738011699394
20
-0.317770516319001
30
0
41
1
10
-9.18361005093541
20
-0.32025617836365
30
0
41
1
10
-9.19049092912915
20
-0.321487874959047
30
0
41
1
10
-9.21184074493274
20
-0.324296988707999
30
0
41
1
10
-9.22679002986516
20
-0.324980947185395
30
0
41
1
10
-9.24203289084451
20
-0.324980947184287
30
0
0
SPLINE
5
179
100
AcDbEntity
8
1
62
256
6
ByLayer
370
18
48
1
60
0
100
AcDbSpline
70
4
71
3
72
8
73
4
40
0
40
0
40
0
40
0
40
1
40
1
40
1
40
1
41
1
10
-9.81603258289493
20
0.394519052838319
30
0
41
1
10
-9.59945084309437
20
0.178579548921931
30
0
41
1
10
-9.38150318820514
20
-0.0363202513205749
30
0
41
1
10
-9.16192765466236
20
-0.249980947148117
30
0
0
SPLINE
5
17A
100
AcDbEntity
8
1
62
256
6
ByLayer
370
18
48
1
60
0
100
AcDbSpline
70
4
71
3
72
40
73
36
40
0
40
0
40
0
40
0
40
0.249999999999995
40
0.249999999999995
40
0.374999999999992
40
0.374999999999992
40
0.499999999999989
40
0.499999999999989
40
0.624999999999987
40
0.624999999999987
40
0.687499999999985
40
0.687499999999985
40
0.749999999999984
40
0.749999999999984
40
0.781249999999986
40
0.781249999999986
40
0.812499999999988
40
0.812499999999988
40
0.84374999999999
40
0.84374999999999
40
0.85937499999999
40
0.85937499999999
40
0.874999999999989
40
0.874999999999989
40
0.890624999999988
40
0.890624999999988
40
0.906249999999987
40
0.906249999999987
40
0.921874999999986
40
0.921874999999986
40
0.937499999999985
40
0.937499999999985
40
0.968749999999993
40
0.968749999999993
40
1
40
1
40
1
40
1
41
1
10
-9.2841810453084
20
0.394519052838376
30
0
41
1
10
-9.34017379706033
20
0.411984788024654
30
0
41
1
10
-9.39601192035433
20
0.427203651425628
30
0
41
1
10
-9.47952542222005
20
0.446639435856639
30
0
41
1
10
-9.50732211964873
20
0.452540557511185
30
0
41
1
10
-9.5628221501113
20
0.462985872473894
30
0
41
1
10
-9.5905971576497
20
0.46754346444186
30
0
41
1
10
-9.64542464074819
20
0.474775707838489
30
0
41
1
10
-9.67252935657895
20
0.477485771001255
30
0
41
1
10
-9.71247397730109
20
0.479401388086785
30
0
41
1
10
-9.72561496243209
20
0.479671406018895
30
0
41
1
10
-9.75127744124482
20
0.479198955684723
30
0
41
1
10
-9.76382370190693
20
0.478467938343755
30
0
41
1
10
-9.78197621721299
20
0.476199819832971
30
0
41
1
10
-9.78793553313179
20
0.475240630314488
30
0
41
1
10
-9.79941135246932
20
0.472809610404283
30
0
41
1
10
-9.80493252167
20
0.471341442256374
30
0
41
1
10
-9.81536969482482
20
0.467696445541065
30
0
41
1
10
-9.82025191704597
20
0.465528162032342
30
0
41
1
10
-9.82671081231395
20
0.46160232917947
30
0
41
1
10
-9.82872465913616
20
0.460178391440451
30
0
41
1
10
-9.83240803000096
20
0.457044593765261
30
0
41
1
10
-9.83408395207491
20
0.455322141342577
30
0
41
1
10
-9.83691476309485
20
0.451629505232489
30
0
41
1
10
-9.83808223492781
20
0.44965214766799
30
0
41
1
10
-9.83984362065759
20
0.445393853961377
30
0
41
1
10
-9.84043321763885
20
0.443094163484318
30
0
41
1
10
-9.84093439359414
20
0.438350627376025
30
0
41
1
10
-9.8408581966258
20
0.43588877511641
30
0
41
1
10
-9.84005628377636
20
0.430785798097901
30
0
41
1
10
-9.83931959826043
20
0.428130012762523
30
0
41
1
10
-9.83628141918076
20
0.42020718810565
30
0
41
1
10
-9.83310183810713
20
0.414823368519507
30
0
41
1
10
-9.82543633707969
20
0.404451510867119
30
0
41
1
10
-9.82095703569023
20
0.399428903016116
30
0
41
1
10
-9.81603258289498
20
0.394519052838319
30
0
0
SPLINE
5
17B
100
AcDbEntity
8
1
62
256
6
ByLayer
370
18
48
1
60
0
100
AcDbSpline
70
4
71
3
72
8
73
4
40
0
40
0
40
0
40
0
40
1
40
1
40
1
40
1
41
1
10
-6.93594876110136
20
-0.249980947161703
30
0
41
1
10
-7.72871488352833
20
-0.0625343625468133
30
0
41
1
10
-8.51106941926359
20
0.153363501317045
30
0
41
1
10
-9.2841810453084
20
0.394519052838319
30
0
0
SPLINE
5
17C
100
AcDbEntity
8
1
62
256
6
ByLayer
370
18
48
1
60
0
100
AcDbSpline
70
4
71
3
72
16
73
12
40
0
40
0
40
0
40
0
40
0.124999999999998
40
0.124999999999998
40
0.249999999999997
40
0.249999999999997
40
0.499999999999998
40
0.499999999999998
40
0.749999999999999
40
0.749999999999999
40
1
40
1
40
1
40
1
41
1
10
-6.37324688789337
20
-0.324980947161691
30
0
41
1
10
-6.39622554762155
20
-0.324980947161777
30
0
41
1
10
-6.41933984890954
20
-0.324326836591211
30
0
41
1
10
-6.46575063303879
20
-0.322103275723606
30
0
41
1
10
-6.48904860821469
20
-0.320527259459766
30
0
41
1
10
-6.55915724759689
20
-0.31468517028145
30
0
41
1
10
-6.60624700046333
20
-0.30931152451268
30
0
41
1
10
-6.70053768771602
20
-0.296247688555923
30
0
41
1
10
-6.74765569510397
20
-0.288561641840119
30
0
41
1
10
-6.84183988712428
20
-0.270989081156273
30
0
41
1
10
-6.88890603212442
20
-0.261104024483615
30
0
41
1
10
-6.93594876110134
20
-0.249980947162044
30
0
0
SPLINE
5
17D
100
AcDbEntity
8
1
62
256
6
ByLayer
370
18
48
1
60
0
100
AcDbSpline
70
4
71
3
72
32
73
28
40
0
40
0
40
0
40
0
40
0.0624999999999984
40
0.0624999999999984
40
0.124999999999997
40
0.124999999999997
40
0.156249999999996
40
0.156249999999996
40
0.187499999999995
40
0.187499999999995
40
0.218749999999994
40
0.218749999999994
40
0.249999999999994
40
0.249999999999994
40
0.281249999999993
40
0.281249999999993
40
0.312499999999992
40
0.312499999999992
40
0.37499999999999
40
0.37499999999999
40
0.499999999999994
40
0.499999999999994
40
0.624999999999998
40
0.624999999999998
40
0.750000000000001
40
0.750000000000001
40
1
40
1
40
1
40
1
41
1
10
-5.61238790983072
20
-0.249980947161674
30
0
41
1
10
-5.60765302916408
20
-0.25308918492064
30
0
41
1
10
-5.60312924602138
20
-0.256357332105779
30
0
41
1
10
-5.59482555714965
20
-0.263458431072081
30
0
41
1
10
-5.59105027515611
20
-0.26728590672252
30
0
41
1
10
-5.58688499125805
20
-0.273464681357837
30
0
41
1
10
-5.58578591563983
20
-0.275548359099446
30
0
41
1
10
-5.58431463660077
20
-0.279764544741255
30
0
41
1
10
-5.58395291309176
20
-0.281932408544151
30
0
41
1
10
-5.58411087529191
20
-0.286034279942328
30
0
41
1
10
-5.58461644419515
20
-0.288011152822236
30
0
41
1
10
-5.58637613485089
20
-0.291729229057779
30
0
41
1
10
-5.5875947313595
20
-0.293421247005341
30
0
41
1
10
-5.59053069476536
20
-0.296559073188945
30
0
41
1
10
-5.59225727253889
20
-0.298005436744717
30
0
41
1
10
-5.59597133164448
20
-0.300628566677915
30
0
41
1
10
-5.59797251939438
20
-0.30182026104319
30
0
41
1
10
-5.60429163701178
20
-0.30513253057245
30
0
41
1
10
-5.60894278908543
20
-0.306999070165233
30
0
41
1
10
-5.62327045301896
20
-0.311839387041061
30
0
41
1
10
-5.63344455078987
20
-0.314152801215727
30
0
41
1
10
-5.65436067839303
20
-0.317936657222759
30
0
41
1
10
-5.66515582305115
20
-0.319378401561352
30
0
41
1
10
-5.68692929171778
20
-0.321677238196486
30
0
41
1
10
-5.69791907592236
20
-0.32253227345069
30
0
41
1
10
-5.73109936285263
20
-0.324485004299049
30
0
41
1
10
-5.75349694670444
20
-0.324980947161691
30
0
41
1
10
-5.77605947760026
20
-0.324980947161691
30
0
0
SPLINE
5
17E
100
AcDbEntity
8
1
62
256
6
ByLayer
370
18
48
1
60
0
100
AcDbSpline
70
4
71
3
72
8
73
4
40
0
40
0
40
0
40
0
40
1
40
1
40
1
40
1
41
1
10
-6.54187806553895
20
0.394519052838319
30
0
41
1
10
-6.23806730610465
20
0.173174989895386
30
0
41
1
10
-5.92880201540666
20
-0.0422692138213847
30
0
41
1
10
-5.61238790983074
20
-0.249980947161703
30
0
0
SPLINE
5
17F
100
AcDbEntity
8
1
62
256
6
ByLayer
370
18
48
1
60
0
100
AcDbSpline
70
4
71
3
72
42
73
38
40
0
40
0
40
0
40
0
40
0.250000000000004
40
0.250000000000004
40
0.375000000000006
40
0.375000000000006
40
0.500000000000008
40
0.500000000000008
40
0.62500000000001
40
0.62500000000001
40
0.687500000000013
40
0.687500000000013
40
0.750000000000015
40
0.750000000000015
40
0.812500000000017
40
0.812500000000017
40
0.843750000000019
40
0.843750000000019
40
0.87500000000002
40
0.87500000000002
40
0.906250000000021
40
0.906250000000021
40
0.921875000000022
40
0.921875000000022
40
0.937500000000024
40
0.937500000000024
40
0.945312500000021
40
0.945312500000021
40
0.953125000000018
40
0.953125000000018
40
0.960937500000016
40
0.960937500000016
40
0.968750000000013
40
0.968750000000013
40
0.984375000000007
40
0.984375000000007
40
1
40
1
40
1
40
1
41
1
10
-5.63509935370516
20
0.394519052838319
30
0
41
1
10
-5.72190542173044
20
0.41048912882053
30
0
41
1
10
-5.80868288459695
20
0.424733471319001
30
0
41
1
10
-5.93880564924044
20
0.443353543084044
30
0
41
1
10
-5.9821471639614
20
0.449088887548072
30
0
41
1
10
-6.06857569510589
20
0.459429533412248
30
0
41
1
10
-6.11168761760081
20
0.464042436826361
30
0
41
1
10
-6.19766252675518
20
0.471813512737214
30
0
41
1
10
-6.2405273446623
20
0.474985904312462
30
0
41
1
10
-6.3045665585008
20
0.478102801442105
30
0
41
1
10
-6.32586637804098
20
0.478863267139729
30
0
41
1
10
-6.36813982915069
20
0.479628898773399
30
0
41
1
10
-6.38913744363762
20
0.479640522332318
30
0
41
1
10
-6.43073070040577
20
0.478558744535746
30
0
41
1
10
-6.45138968921583
20
0.477480842671042
30
0
41
1
10
-6.48167377269934
20
0.474423628354543
30
0
41
1
10
-6.49161165409663
20
0.473164616848663
30
0
41
1
10
-6.51102817672674
20
0.469936618638428
30
0
41
1
10
-6.52051396104336
20
0.467978904086635
30
0
41
1
10
-6.53870820348467
20
0.462851168792327
30
0
41
1
10
-6.54747415553975
20
0.459688354136972
30
0
41
1
10
-6.55865084378891
20
0.453273183167141
30
0
41
1
10
-6.56208225390402
20
0.450813268369984
30
0
41
1
10
-6.56760145856258
20
0.445164968140489
30
0
41
1
10
-6.56972718234782
20
0.441898806140671
30
0
41
1
10
-6.57125941384879
20
0.436516137352527
30
0
41
1
10
-6.57150328364483
20
0.434610744631584
30
0
41
1
10
-6.57139923706534
20
0.430734829804351
30
0
41
1
10
-6.5710601097003
20
0.428773985692999
30
0
41
1
10
-6.56985184236829
20
0.42481000434347
30
0
41
1
10
-6.56897326203293
20
0.422798454423315
30
0
41
1
10
-6.56682641679652
20
0.418892726543106
30
0
41
1
10
-6.56555403553973
20
0.416977450053451
30
0
41
1
10
-6.56125565118423
20
0.411322623198941
30
0
41
1
10
-6.55776397299188
20
0.407698427918291
30
0
41
1
10
-6.55024111986286
20
0.40088211066481
30
0
41
1
10
-6.5461660120209
20
0.397643074837191
30
0
41
1
10
-6.54187806553904
20
0.394519052838291
30
0
0
SPLINE
5
180
100
AcDbEntity
8
1
62
256
6
ByLayer
370
18
48
1
60
0
100
AcDbSpline
70
4
71
3
72
44
73
40
40
0
40
0
40
0
40
0
40
0.0156249999999963
40
0.0156249999999963
40
0.0312499999999926
40
0.0312499999999926
40
0.0468749999999889
40
0.0468749999999889
40
0.0624999999999852
40
0.0624999999999852
40
0.0703124999999836
40
0.0703124999999836
40
0.078124999999982
40
0.078124999999982
40
0.0937499999999845
40
0.0937499999999845
40
0.109374999999987
40
0.109374999999987
40
0.124999999999989
40
0.124999999999989
40
0.156249999999989
40
0.156249999999989
40
0.187499999999989
40
0.187499999999989
40
0.218749999999989
40
0.218749999999989
40
0.249999999999989
40
0.249999999999989
40
0.312499999999991
40
0.312499999999991
40
0.374999999999993
40
0.374999999999993
40
0.499999999999994
40
0.499999999999994
40
0.624999999999995
40
0.624999999999995
40
0.749999999999996
40
0.749999999999996
40
1
40
1
40
1
40
1
41
1
10
6.54187806555927
20
0.394519052853127
30
0
41
1
10
6.54614546779433
20
0.397628107157004
30
0
41
1
10
6.55021756356101
20
0.400861465452749
30
0
41
1
10
6.55777056206958
20
0.40770370119742
30
0
41
1
10
6.56129598643099
20
0.411363114125379
30
0
41
1
10
6.56705748724204
20
0.418968163507202
30
0
41
1
10
6.56932722932973
20
0.42299567193345
30
0
41
1
10
6.57168490957017
20
0.430920997183961
30
0
41
1
10
6.57175717462627
20
0.434925051400341
30
0
41
1
10
6.5701513930448
20
0.440322606181525
30
0
41
1
10
6.56933658674424
20
0.44205574470837
30
0
41
1
10
6.56726874995545
20
0.445298049905773
30
0
41
1
10
6.56602804539187
20
0.44680046393438
30
0
41
1
10
6.56181730098192
20
0.451027436641311
30
0
41
1
10
6.55833373982034
20
0.453484973406518
30
0
41
1
10
6.55080044529808
20
0.457746368327434
30
0
41
1
10
6.54671767385005
20
0.459580952860534
30
0
41
1
10
6.53813304768289
20
0.462858852853742
30
0
41
1
10
6.53361639847407
20
0.464301094258389
30
0
41
1
10
6.51984953257082
20
0.468133342855225
30
0
41
1
10
6.51030376473568
20
0.47007738808864
30
0
41
1
10
6.49079444448432
20
0.473278464499373
30
0
41
1
10
6.48082394217565
20
0.474523817516115
30
0
41
1
10
6.46058932392802
20
0.476536430526124
30
0
41
1
10
6.45030212179418
20
0.477301669748783
30
0
41
1
10
6.42961236265592
20
0.478467690200063
30
0
41
1
10
6.41922412124967
20
0.478867771469453
30
0
41
1
10
6.38795856659991
20
0.479649983083448
30
0
41
1
10
6.36698186331029
20
0.479620519913681
30
0
41
1
10
6.32484567668092
20
0.478831518110468
30
0
41
1
10
6.30368495098878
20
0.47806642369909
30
0
41
1
10
6.23998913389488
20
0.474946284754424
30
0
41
1
10
6.1972434203974
20
0.471779858008944
30
0
41
1
10
6.11135271730848
20
0.464007901333162
30
0
41
1
10
6.06816168315737
20
0.459383828874394
30
0
41
1
10
5.98166173485384
20
0.449026939424954
30
0
41
1
10
5.93839049291049
20
0.443296531767231
30
0
41
1
10
5.80851432815447
20
0.4247045318414
30
0
41
1
10
5.72184695483156
20
0.410478372420215
30
0
41
1
10
5.63509935370516
20
0.394519052838348
30
0
0
SPLINE
5
181
100
AcDbEntity
8
1
62
256
6
ByLayer
370
18
48
1
60
0
100
AcDbSpline
70
4
71
3
72
8
73
4
40
0
40
0
40
0
40
0
40
1
40
1
40
1
40
1
41
1
10
5.61238790983109
20
-0.249980947161447
30
0
41
1
10
5.92880201541394
20
-0.0422692138165814
30
0
41
1
10
6.23806730611855
20
0.173174989905078
30
0
41
1
10
6.54187806555927
20
0.394519052853127
30
0
0
SPLINE
5
182
100
AcDbEntity
8
1
62
256
6
ByLayer
370
18
48
1
60
0
100
AcDbSpline
70
4
71
3
72
30
73
26
40
0
40
0
40
0
40
0
40
0.250000000000034
40
0.250000000000034
40
0.375000000000058
40
0.375000000000058
40
0.500000000000082
40
0.500000000000082
40
0.625000000000105
40
0.625000000000105
40
0.687500000000113
40
0.687500000000113
40
0.750000000000122
40
0.750000000000122
40
0.781250000000111
40
0.781250000000111
40
0.8125000000001
40
0.8125000000001
40
0.843750000000089
40
0.843750000000089
40
0.875000000000078
40
0.875000000000078
40
0.937500000000039
40
0.937500000000039
40
1
40
1
40
1
40
1
41
1
10
5.77605947760026
20
-0.324980947161691
30
0
41
1
10
5.75348207034327
20
-0.324980947161691
30
0
41
1
10
5.73107070305846
20
-0.324484360437935
30
0
41
1
10
5.69787250034997
20
-0.322529009528012
30
0
41
1
10
5.68687721032143
20
-0.321672821768942
30
0
41
1
10
5.66509411678842
20
-0.3193707986525
30
0
41
1
10
5.6542865791387
20
-0.31792659946683
30
0
41
1
10
5.63331780876885
20
-0.31412649334905
30
0
41
1
10
5.62309598237721
20
-0.311798232781058
30
0
41
1
10
5.60871185823672
20
-0.306911863318533
30
0
41
1
10
5.6041455916058
20
-0.305066689942009
30
0
41
1
10
5.59577508366937
20
-0.300657420183342
30
0
41
1
10
5.59190833607622
20
-0.298055354480226
30
0
41
1
10
5.58753904531321
20
-0.293349354747391
30
0
41
1
10
5.58631061121667
20
-0.291617982905677
30
0
41
1
10
5.58459914277955
20
-0.28794605759029
30
0
41
1
10
5.58410136075491
20
-0.286000156232347
30
0
41
1
10
5.58395805840715
20
-0.281846846797293
30
0
41
1
10
5.58432091561428
20
-0.27973412365381
30
0
41
1
10
5.58580546243638
20
-0.27550499097211
30
0
41
1
10
5.58693477365927
20
-0.273383741368946
30
0
41
1
10
5.5910508389166
20
-0.267299518675458
30
0
41
1
10
5.59482596376839
20
-0.263460724263382
30
0
41
1
10
5.60307603158662
20
-0.256400215582772
30
0
41
1
10
5.60761618345623
20
-0.253113372482801
30
0
41
1
10
5.61238790983106
20
-0.249980947161447
30
0
0
SPLINE
5
183
100
AcDbEntity
8
1
62
256
6
ByLayer
370
18
48
1
60
0
100
AcDbSpline
70
4
71
3
72
16
73
12
40
0
40
0
40
0
40
0
40
0.249999999999999
40
0.249999999999999
40
0.499999999999998
40
0.499999999999998
40
0.749999999999997
40
0.749999999999997
40
0.874999999999998
40
0.874999999999998
40
1
40
1
40
1
40
1
41
1
10
6.93594876110134
20
-0.249980947161845
30
0
41
1
10
6.88889586647392
20
-0.261106428113465
30
0
41
1
10
6.84180134307147
20
-0.270997589283866
30
0
41
1
10
6.74752829299007
20
-0.28858409305434
30
0
41
1
10
6.70028861513458
20
-0.296286256727456
30
0
41
1
10
6.60600611195241
20
-0.30934081857896
30
0
41
1
10
6.55906062392077
20
-0.314694231797262
30
0
41
1
10
6.489025074133
20
-0.320528714779613
30
0
41
1
10
6.46574452041284
20
-0.322103532762128
30
0
41
1
10
6.4193513210578
20
-0.324326322771526
30
0
41
1
10
6.39623729139331
20
-0.324980947161777
30
0
41
1
10
6.37324688789337
20
-0.324980947161691
30
0
0
SPLINE
5
184
100
AcDbEntity
8
1
62
256
6
ByLayer
370
18
48
1
60
0
100
AcDbSpline
70
4
71
3
72
8
73
4
40
0
40
0
40
0
40
0
40
1
40
1
40
1
40
1
41
1
10
9.2841810453084
20
0.394519052838319
30
0
41
1
10
8.51106941926361
20
0.153363501317045
30
0
41
1
10
7.72871488352834
20
-0.0625343625468133
30
0
41
1
10
6.93594876110137
20
-0.249980947161703
30
0
0
SPLINE
5
185
100
AcDbEntity
8
1
62
256
6
ByLayer
370
18
48
1
60
0
100
AcDbSpline
70
4
71
3
72
40
73
36
40
0
40
0
40
0
40
0
40
0.0312500000000034
40
0.0312500000000034
40
0.0625000000000069
40
0.0625000000000069
40
0.0781250000000049
40
0.0781250000000049
40
0.0937500000000028
40
0.0937500000000028
40
0.109375000000001
40
0.109375000000001
40
0.124999999999999
40
0.124999999999999
40
0.156249999999995
40
0.156249999999995
40
0.187499999999991
40
0.187499999999991
40
0.249999999999988
40
0.249999999999988
40
0.312499999999985
40
0.312499999999985
40
0.374999999999982
40
0.374999999999982
40
0.437499999999979
40
0.437499999999979
40
0.499999999999976
40
0.499999999999976
40
0.624999999999982
40
0.624999999999982
40
0.749999999999988
40
0.749999999999988
40
0.874999999999994
40
0.874999999999994
40
1
40
1
40
1
40
1
41
1
10
9.8160325828969
20
0.394519052837552
30
0
41
1
10
9.82098195223347
20
0.399453745670826
30
0
41
1
10
9.8255668829454
20
0.404602539074745
30
0
41
1
10
9.83325114814545
20
0.415051948253478
30
0
41
1
10
9.83638059560761
20
0.420378652246569
30
0
41
1
10
9.83940873940759
20
0.428409088717331
30
0
41
1
10
9.84011456011223
20
0.431030341943966
30
0
41
1
10
9.84087800321672
20
0.43615432775411
30
0
41
1
10
9.84093087921795
20
0.438682333081204
30
0
41
1
10
9.84035685513882
20
0.44347090089758
30
0
41
1
10
9.83974008264053
20
0.445725814987299
30
0
41
1
10
9.83790623184572
20
0.449982263740196
30
0
41
1
10
9.83667511604253
20
0.451996393124347
30
0
41
1
10
9.83230034394296
20
0.457522482393898
30
0
41
1
10
9.8284838541814
20
0.460585485218417
30
0
41
1
10
9.81960368743447
20
0.465853786827211
30
0
41
1
10
9.81467620295791
20
0.467977995038012
30
0
41
1
10
9.7989514958669
20
0.473342775126554
30
0
41
1
10
9.78712100451713
20
0.475600029742935
30
0
41
1
10
9.76283016137606
20
0.47854552376856
30
0
41
1
10
9.75026244320495
20
0.479243914143836
30
0
41
1
10
9.72458674972188
20
0.47966188106983
30
0
41
1
10
9.71147318768166
20
0.479370998879574
30
0
41
1
10
9.68483745942677
20
0.478057041979355
30
0
41
1
10
9.67129728761574
20
0.477027476641609
30
0
41
1
10
9.64421248948497
20
0.474417261577855
30
0
41
1
10
9.63062287134736
20
0.472833887959126
30
0
41
1
10
9.58973686994528
20
0.467407407483734
30
0
41
1
10
9.56232469000275
20
0.462896755182072
30
0
41
1
10
9.50725848501213
20
0.452524028495901
30
0
41
1
10
9.47960346504195
20
0.446655482458595
30
0
41
1
10
9.42407905641585
20
0.433737715187703
30
0
41
1
10
9.39620939340276
20
0.426686741656397
30
0
41
1
10
9.3402636981107
20
0.411446491895219
30
0
41
1
10
9.31218172106821
20
0.403253261687809
30
0
41
1
10
9.2841810453084
20
0.394519052838319
30
0
0
SPLINE
5
186
100
AcDbEntity
8
1
62
256
6
ByLayer
370
18
48
1
60
0
100
AcDbSpline
70
4
71
3
72
8
73
4
40
0
40
0
40
0
40
0
40
1
40
1
40
1
40
1
41
1
10
9.16192765464842
20
-0.249980947161674
30
0
41
1
10
9.38150318819592
20
-0.0363202513296415
30
0
41
1
10
9.59945084308978
20
0.178579548917355
30
0
41
1
10
9.81603258289493
20
0.394519052838319
30
0
0
SPLINE
5
187
100
AcDbEntity
8
1
62
256
6
ByLayer
370
18
48
1
60
0
100
AcDbSpline
70
4
71
3
72
26
73
22
40
0
40
0
40
0
40
0
40
0.25000000000006
40
0.25000000000006
40
0.37500000000008
40
0.37500000000008
40
0.5000000000001
40
0.5000000000001
40
0.562500000000092
40
0.562500000000092
40
0.625000000000084
40
0.625000000000084
40
0.687500000000076
40
0.687500000000076
40
0.750000000000069
40
0.750000000000069
40
0.812500000000061
40
0.812500000000061
40
0.875000000000053
40
0.875000000000053
40
1
40
1
40
1
40
1
41
1
10
9.24203289085631
20
-0.324980947161663
30
0
41
1
10
9.22681846497238
20
-0.324980947161663
30
0
41
1
10
9.211953192377
20
-0.324305164641998
30
0
41
1
10
9.19059288824326
20
-0.321504563341364
30
0
41
1
10
9.1836709094483
20
-0.320269721185071
30
0
41
1
10
9.17054086661491
20
-0.316946194301352
30
0
41
1
10
9.1642649129623
20
-0.3148363382507
30
0
41
1
10
9.15599732501141
20
-0.310762869504856
30
0
41
1
10
9.15342589019343
20
-0.309251451722815
30
0
41
1
10
9.14876447288793
20
-0.305828546272068
30
0
41
1
10
9.14666152309883
20
-0.30390484096003
30
0
41
1
10
9.14317602879879
20
-0.299559795826326
30
0
41
1
10
9.14183367160857
20
-0.297191208615885
30
0
41
1
10
9.14011111824311
20
-0.291983727565139
30
0
41
1
10
9.13975376954048
20
-0.28914247162993
30
0
41
1
10
9.14012473484789
20
-0.283283573994225
30
0
41
1
10
9.14085462438072
20
-0.280188457343087
30
0
41
1
10
9.1432485736552
20
-0.273973881768512
30
0
41
1
10
9.14489040353692
20
-0.270868207717939
30
0
41
1
10
9.15089358034206
20
-0.261555053522642
30
0
41
1
10
9.15608552735691
20
-0.25566570156937
30
0
41
1
10
9.16192765464814
20
-0.249980947161589
30
0
0
SPLINE
5
188
100
AcDbEntity
8
1
62
256
6
ByLayer
370
18
48
1
60
0
100
AcDbSpline
70
4
71
3
72
18
73
14
40
0
40
0
40
0
40
0
40
0.250000000000004
40
0.250000000000004
40
0.500000000000008
40
0.500000000000008
40
0.625000000000006
40
0.625000000000006
40
0.750000000000004
40
0.750000000000004
40
0.875000000000002
40
0.875000000000002
40
1
40
1
40
1
40
1
41
1
10
9.95818080364234
20
-0.249980947161987
30
0
41
1
10
9.92749994234364
20
-0.26071314772193
30
0
41
1
10
9.89687592587646
20
-0.27038180066279
30
0
41
1
10
9.83572596896019
20
-0.287746386430427
30
0
41
1
10
9.80520000776735
20
-0.295443207372898
30
0
41
1
10
9.75949165829152
20
-0.305362247104569
30
0
41
1
10
9.74426915486944
20
-0.308394975835455
30
0
41
1
10
9.7138557687901
20
-0.313841643015138
30
0
41
1
10
9.69862277638646
20
-0.316261825895964
30
0
41
1
10
9.66843979450144
20
-0.320325245372089
30
0
41
1
10
9.65349518651499
20
-0.321971785451893
30
0
41
1
10
9.62397991030193
20
-0.324296253793733
30
0
41
1
10
9.60940649911069
20
-0.324980947161464
30
0
41
1
10
9.59510119943221
20
-0.324980947161663
30
0
0
SPLINE
5
189
100
AcDbEntity
8
1
62
256
6
ByLayer
370
18
48
1
60
0
100
AcDbSpline
70
4
71
3
72
8
73
4
40
0
40
0
40
0
40
0
40
1
40
1
40
1
40
1
41
1
10
11.5338810822459
20
0.340722418969364
30
0
41
1
10
11.0140865548918
20
0.133000688012913
30
0
41
1
10
10.4890458043938
20
-0.0642837594961065
30
0
41
1
10
9.95818080364236
20
-0.249980947161674
30
0
0
SPLINE
5
18A
100
AcDbEntity
8
1
62
256
6
ByLayer
370
18
48
1
60
0
100
AcDbSpline
70
4
71
3
72
8
73
4
40
0
40
0
40
0
40
0
40
1
40
1
40
1
40
1
41
1
10
11.5338810822459
20
0.340722418969364
30
0
41
1
10
11.6008761018298
20
0.385414396367224
30
0
41
1
10
11.6678402108236
20
0.430173904668862
30
0
41
1
10
11.7347738412619
20
0.475000000000477
30
0
0
SPLINE
5
18B
100
AcDbEntity
8
1
62
256
6
ByLayer
370
18
48
1
60
0
100
AcDbSpline
70
4
71
3
72
8
73
4
40
0
40
0
40
0
40
0
40
1
40
1
40
1
40
1
41
1
10
11.871308760417
20
0.675000000000011
30
0
41
1
10
11.825798519862
20
0.608331258506041
30
0
41
1
10
11.7802868943198
20
0.54166457068726
30
0
41
1
10
11.7347738412623
20
0.474999999999994
30
0
0
SPLINE
5
18C
100
AcDbEntity
8
1
62
256
6
ByLayer
370
18
48
1
60
0
100
AcDbSpline
70
4
71
3
72
8
73
4
40
0
40
0
40
0
40
0
40
1
40
1
40
1
40
1
41
1
10
-19
20
0.675000000000011
30
0
41
1
10
-18.6666167702326
20
0.341616770232548
30
0
41
1
10
-18.3332883074241
20
0.0082883074240954
30
0
41
1
10
-18.0000190528383
20
-0.324980947161691
30
0
0
SPLINE
5
18D
100
AcDbEntity
8
1
62
256
6
ByLayer
370
18
48
1
60
0
100
AcDbSpline
70
4
71
3
72
8
73
4
40
0
40
0
40
0
40
0
40
1
40
1
40
1
40
1
41
1
10
19.2870625622058
20
0.129903810567669
30
0
41
1
10
19.4703205128146
20
0.311580759106135
30
0
41
1
10
19.653556200176
20
0.493280087502797
30
0
41
1
10
19.8367714106908
20
0.675000000000011
30
0
0
SPLINE
5
18E
100
AcDbEntity
8
1
62
256
6
ByLayer
370
18
48
1
60
0
100
AcDbSpline
70
4
71
3
72
8
73
4
40
0
40
0
40
0
40
0
40
1
40
1
40
1
40
1
41
1
10
18.8729219314525
20
-0.249980947161674
30
0
41
1
10
19.0113201534983
20
-0.123639035795151
30
0
41
1
10
19.1493610312483
20
0.0029941060164731
30
0
41
1
10
19.2870625622058
20
0.129903810567669
30
0
0
SPLINE
5
18F
100
AcDbEntity
8
1
62
256
6
ByLayer
370
18
48
1
60
0
100
AcDbSpline
70
4
71
3
72
20
73
16
40
0
40
0
40
0
40
0
40
0.125000000000004
40
0.125000000000004
40
0.250000000000009
40
0.250000000000009
40
0.375000000000013
40
0.375000000000013
40
0.500000000000018
40
0.500000000000018
40
0.625000000000022
40
0.625000000000022
40
0.750000000000027
40
0.750000000000027
40
1
40
1
40
1
40
1
41
1
10
18.7775181327357
20
-0.324980947161691
30
0
41
1
10
18.7787010242645
20
-0.324980947161691
30
0
41
1
10
18.7804472864332
20
-0.324397783309394
30
0
41
1
10
18.7849851214943
20
-0.322149113157053
30
0
41
1
10
18.7877652228033
20
-0.320483944021561
30
0
41
1
10
18.7940419579248
20
-0.31632025809796
30
0
41
1
10
18.7975633120804
20
-0.313808713729202
30
0
41
1
10
18.8052728850999
20
-0.308032368047549
30
0
41
1
10
18.8093760264562
20
-0.304831757523772
30
0
41
1
10
18.8179958139009
20
-0.297911309070372
30
0
41
1
10
18.8225131770649
20
-0.294190567740913
30
0
41
1
10
18.8319167921744
20
-0.286286962265336
30
0
41
1
10
18.8368284752011
20
-0.282081584144691
30
0
41
1
10
18.8518338885015
20
-0.269034872976135
30
0
41
1
10
18.8622168298091
20
-0.259753493246421
30
0
41
1
10
18.8729219314525
20
-0.249980947161674
30
0
0
SPLINE
5
190
100
AcDbEntity
8
1
62
256
6
ByLayer
370
18
48
1
60
0
100
AcDbSpline
70
4
71
3
72
34
73
30
40
0
40
0
40
0
40
0
40
0.0493246741800707
40
0.0493246741800707
40
0.11270302923473
40
0.11270302923473
40
0.23945973934405
40
0.23945973934405
40
0.271148916871381
40
0.271148916871381
40
0.302838094398712
40
0.302838094398712
40
0.366216449453373
40
0.366216449453373
40
0.492973159562692
40
0.492973159562692
40
0.524662337090022
40
0.524662337090022
40
0.556351514617352
40
0.556351514617352
40
0.619729869672014
40
0.619729869672014
40
0.746486579781342
40
0.746486579781342
40
0.809864934836007
40
0.809864934836007
40
0.873243289890673
40
0.873243289890673
40
1
40
1
40
1
40
1
41
1
10
18.9216989336577
20
17.676218308781
30
0
41
1
10
18.9348000265869
20
17.6762166216785
30
0
41
1
10
18.9496131407903
20
17.6760332634788
30
0
41
1
10
18.9872287603159
20
17.675231016895
30
0
41
1
10
19.011117967633
20
17.674502959177
30
0
41
1
10
19.0908946120185
20
17.6715723580444
30
0
41
1
10
19.1548306695775
20
17.6686228946815
30
0
41
1
10
19.2487418346958
20
17.663966321156
30
0
41
1
10
19.2681391350817
20
17.6629909817478
30
0
41
1
10
19.3080101513748
20
17.6609695216964
30
0
41
1
10
19.3285047915287
20
17.6599223620964
30
0
41
1
10
19.391643303794
20
17.6566870613686
30
0
41
1
10
19.4359388390295
20
17.6544051979674
30
0
41
1
10
19.5753625400337
20
17.6473031654654
30
0
41
1
10
19.6769787458202
20
17.642225936044
30
0
41
1
10
19.8153061617746
20
17.6358368713726
30
0
41
1
10
19.84340318131
20
17.6345634223844
30
0
41
1
10
19.900269140744
20
17.6320429060603
30
0
41
1
10
19.9290663859992
20
17.6307945262037
30
0
41
1
10
20.0165369565673
20
17.6270985542054
30
0
41
1
10
20.0762872226438
20
17.6247002394727
30
0
41
1
10
20.2598069363194
20
17.6178052245718
30
0
41
1
10
20.3878133408531
20
17.6136083819567
30
0
41
1
10
20.5887065189095
20
17.6083072739333
30
0
41
1
10
20.6562640612044
20
17.6067300762366
30
0
41
1
10
20.7923084107077
20
17.6039939141154
30
0
41
1
10
20.8608324480354
20
17.6028339231334
30
0
41
1
10
21.0678955836374
20
17.6000206667179
30
0
41
1
10
21.2079146737537
20
17.599035242027
30
0
41
1
10
21.3500000000001
20
17.599035242027
30
0
0
SPLINE
5
191
100
AcDbEntity
8
1
62
256
6
ByLayer
370
18
48
1
60
0
100
AcDbSpline
70
4
71
3
72
145
73
141
40
0
40
0
40
0
40
0
40
0.03125
40
0.03125
40
0.0390625
40
0.0390625
40
0.046875
40
0.046875
40
0.0624999999999999
40
0.0624999999999999
40
0.0937499999999999
40
0.0937499999999999
40
0.0976562499999999
40
0.0976562499999999
40
0.1015625
40
0.109375
40
0.109375
40
0.125
40
0.140625
40
0.140625
40
0.1484375
40
0.1484375
40
0.15625
40
0.15625
40
0.187500000000001
40
0.187500000000001
40
0.203125000000001
40
0.207031250000001
40
0.207031250000001
40
0.210937500000001
40
0.210937500000001
40
0.218750000000001
40
0.218750000000001
40
0.250000000000001
40
0.250000000000001
40
0.265625000000001
40
0.265625000000001
40
0.273437500000001
40
0.273437500000001
40
0.281250000000001
40
0.281250000000001
40
0.312500000000002
40
0.312500000000002
40
0.320312500000002
40
0.320312500000002
40
0.328125000000002
40
0.328125000000002
40
0.343750000000002
40
0.343750000000002
40
0.375000000000002
40
0.375000000000002
40
0.378906250000002
40
0.378906250000002
40
0.382812500000002
40
0.382812500000002
40
0.390625000000002
40
0.390625000000002
40
0.406250000000002
40
0.406250000000002
40
0.437500000000002
40
0.437500000000002
40
0.445312500000002
40
0.445312500000002
40
0.453125000000002
40
0.453125000000002
40
0.468750000000003
40
0.484375000000003
40
0.484375000000003
40
0.492187500000003
40
0.492187500000003
40
0.500000000000003
40
0.500000000000003
40
0.531250000000003
40
0.531250000000003
40
0.539062500000003
40
0.539062500000003
40
0.546875000000003
40
0.546875000000003
40
0.562500000000003
40
0.578125000000003
40
0.578125000000003
40
0.585937500000003
40
0.585937500000003
40
0.593750000000004
40
0.593750000000004
40
0.625000000000003
40
0.625000000000003
40
0.640625000000003
40
0.644531250000003
40
0.644531250000003
40
0.648437500000003
40
0.648437500000003
40
0.656250000000003
40
0.656250000000003
40
0.687500000000003
40
0.687500000000003
40
0.703125000000003
40
0.703125000000003
40
0.710937500000002
40
0.710937500000002
40
0.718750000000002
40
0.718750000000002
40
0.750000000000002
40
0.750000000000002
40
0.757812500000002
40
0.757812500000002
40
0.765625000000002
40
0.765625000000002
40
0.781250000000002
40
0.781250000000002
40
0.812500000000001
40
0.812500000000001
40
0.816406250000001
40
0.816406250000001
40
0.820312500000001
40
0.820312500000001
40
0.828125000000001
40
0.828125000000001
40
0.843750000000001
40
0.843750000000001
40
0.875000000000001
40
0.875000000000001
40
0.890625000000001
40
0.890625000000001
40
0.90625
40
0.921875
40
0.921875
40
0.9296875
40
0.9296875
40
0.93359375
40
0.93359375
40
0.9375
40
0.9375
40
0.96875
40
0.96875
40
0.984375
40
0.984375
40
0.9921875
40
0.9921875
40
1
40
1
40
1
40
1
41
1
10
2.56024768413366
20
17.6700626340584
30
0
41
1
10
2.52473814651148
20
17.666484072902
30
0
41
1
10
2.47512438953638
20
17.6614388863811
30
0
41
1
10
2.39516101750482
20
17.6535988767913
30
0
41
1
10
2.37824403346161
20
17.6519523257371
30
0
41
1
10
2.34264796844991
20
17.6485219291802
30
0
41
1
10
2.32407027690718
20
17.6467478571038
30
0
41
1
10
2.26604477957866
20
17.6412699266881
30
0
41
1
10
2.22430943449095
20
17.6374104580742
30
0
41
1
10
2.09013305992042
20
17.6253704102039
30
0
41
1
10
1.98879991846758
20
17.6167261659972
30
0
41
1
10
1.86093497498976
20
17.6067884447371
30
0
41
1
10
1.84651892758097
20
17.605680253583
30
0
41
1
10
1.81743866075914
20
17.6034707230573
30
0
41
1
10
1.77340455335059
20
17.6001634150153
30
0
41
1
10
1.72814226917623
20
17.5968849883485
30
0
41
1
10
1.63600404372048
20
17.5903872143934
30
0
41
1
10
1.50885675841062
20
17.581881148961
30
0
41
1
10
1.37320144083904
20
17.5739042435592
30
0
41
1
10
1.26821919969504
20
17.5682002516347
30
0
41
1
10
1.23268413662836
20
17.566345404318
30
0
41
1
10
1.16051287370755
20
17.562742501505
30
0
41
1
10
1.12379209430335
20
17.5609908901206
30
0
41
1
10
0.939150153181458
20
17.5526135195686
30
0
41
1
10
0.787228703650356
20
17.5470792363989
30
0
41
1
10
0.553201475611417
20
17.5409019222012
30
0
41
1
10
0.454401755298932
20
17.5387702103534
30
0
41
1
10
0.353951217009154
20
17.5372397688842
30
0
41
1
10
0.313637100498454
20
17.5366767118915
30
0
41
1
10
0.293386645166834
20
17.5364194643269
30
0
41
1
10
0.232694793614854
20
17.5357257350963
30
0
41
1
10
0.192287254470671
20
17.5353665900846
30
0
41
1
10
-0.0094870341099522
20
17.5340836390857
30
0
41
1
10
-0.170070115201383
20
17.5346983833788
30
0
41
1
10
-0.409705727222814
20
17.5380055540571
30
0
41
1
10
-0.489376493156925
20
17.5395054142557
30
0
41
1
10
-0.60856090855313
20
17.542340924316
30
0
41
1
10
-0.648053664573013
20
17.5433796887839
30
0
41
1
10
-0.72618650304247
20
17.5456243852123
30
0
41
1
10
-0.764888491989552
20
17.5468317722708
30
0
41
1
10
-0.956604253597021
20
17.5532679554095
30
0
41
1
10
-1.10428050019007
20
17.5596944867993
30
0
41
1
10
-1.28174224354757
20
17.5689184686155
30
0
41
1
10
-1.31687509318095
20
17.5708227718931
30
0
41
1
10
-1.38640983154284
20
17.5747398743653
30
0
41
1
10
-1.42086241763315
20
17.5767560829565
30
0
41
1
10
-1.52207363311746
20
17.5828870716395
30
0
41
1
10
-1.5870169584297
20
17.5871015112283
30
0
41
1
10
-1.77446611362549
20
17.5999543876756
30
0
41
1
10
-1.88965350212382
20
17.6088039169668
30
0
41
1
10
-2.00800736918549
20
17.6185692045371
30
0
41
1
10
-2.02100047246384
20
17.6196515607699
30
0
41
1
10
-2.0466688772423
20
17.6218090840122
30
0
41
1
10
-2.05935784213372
20
17.6228854354881
30
0
41
1
10
-2.09676604268424
20
17.6260857152059
30
0
41
1
10
-2.12087065597228
20
17.6281844419817
30
0
41
1
10
-2.19072827062126
20
17.634357737917
30
0
41
1
10
-2.23403024539931
20
17.6383093545691
30
0
41
1
10
-2.35429894890095
20
17.6495291399849
30
0
41
1
10
-2.42171356078106
20
17.6561644734531
30
0
41
1
10
-2.48934401282605
20
17.6629200768736
30
0
41
1
10
-2.50194570765265
20
17.6641855234147
30
0
41
1
10
-2.52526965778929
20
17.6665333283368
30
0
41
1
10
-2.5360030485069
20
17.667616804183
30
0
41
1
10
-2.56545579407862
20
17.6705888752288
30
0
41
1
10
-2.59741110275897
20
17.6738093476933
30
0
41
1
10
-2.61485959124727
20
17.6754710576547
30
0
41
1
10
-2.62241293760735
20
17.6761046488067
30
0
41
1
10
-2.62400707944821
20
17.6762137146128
30
0
41
1
10
-2.62531406303856
20
17.6762226886056
30
0
41
1
10
-2.6250213167352
20
17.67612196362
30
0
41
1
10
-2.61884483158426
20
17.6750978796389
30
0
41
1
10
-2.59899041682664
20
17.672616123776
30
0
41
1
10
-2.55542961880292
20
17.6675641617533
30
0
41
1
10
-2.54579231941969
20
17.6664586180589
30
0
41
1
10
-2.52480385091363
20
17.6640790994541
30
0
41
1
10
-2.51343814381889
20
17.6628034336132
30
0
41
1
10
-2.476766581958
20
17.6587340324683
30
0
41
1
10
-2.42101673712105
20
17.652661943509
30
0
41
1
10
-2.35171387496433
20
17.6454559939349
30
0
41
1
10
-2.29458208494574
20
17.6396861043918
30
0
41
1
10
-2.27467769113778
20
17.6377019151915
30
0
41
1
10
-2.23311878739594
20
17.6336220189056
30
0
41
1
10
-2.21141493458882
20
17.6315217386069
30
0
41
1
10
-2.0995486762113
20
17.620874562284
30
0
41
1
10
-1.99885670825705
20
17.6118333905288
30
0
41
1
10
-1.83150105785001
20
17.5981604015075
30
0
41
1
10
-1.75834794657021
20
17.5924396134927
30
0
41
1
10
-1.68081288230491
20
17.5867780752875
30
0
41
1
10
-1.6494434300906
20
17.5845200847939
30
0
41
1
10
-1.63356015859691
20
17.5833929304505
30
0
41
1
10
-1.58556608199859
20
17.580037679626
30
0
41
1
10
-1.55310739863029
20
17.5778353131776
30
0
41
1
10
-1.38854258536352
20
17.5670270216943
30
0
41
1
10
-1.24967961514667
20
17.5590322412657
30
0
41
1
10
-1.03065592921064
20
17.5485974848045
30
0
41
1
10
-0.955848723025383
20
17.5453786537409
30
0
41
1
10
-0.840844251136502
20
17.5410148989723
30
0
41
1
10
-0.802230146118347
20
17.5396451906934
30
0
41
1
10
-0.724787751507506
20
17.5370934711238
30
0
41
1
10
-0.685906396906745
20
17.535909428574
30
0
41
1
10
-0.49070969242743
20
17.5304605538364
30
0
41
1
10
-0.332044279628405
20
17.5276096306178
30
0
41
1
10
-0.130550099430991
20
17.526124182436
30
0
41
1
10
-0.0900919033203991
20
17.5259310257463
30
0
41
1
10
-0.0088509743447958
20
17.5257576013348
30
0
41
1
10
0.0319609619519667
20
17.5257780819964
30
0
41
1
10
0.153596293162224
20
17.5261586349763
30
0
41
1
10
0.234046432119811
20
17.5268358552538
30
0
41
1
10
0.473527560003561
20
17.5300793555546
30
0
41
1
10
0.630704809556335
20
17.5338579242603
30
0
41
1
10
0.804680600573647
20
17.5397544576756
30
0
41
1
10
0.823971349182131
20
17.5404324753443
30
0
41
1
10
0.862472255282341
20
17.5418335823958
30
0
41
1
10
0.881691699395418
20
17.5425571003327
30
0
41
1
10
0.938926985692632
20
17.5447822150029
30
0
41
1
10
0.976618589145971
20
17.5463418233414
30
0
41
1
10
1.08832449074095
20
17.5512302089056
30
0
41
1
10
1.16097275963713
20
17.5547684539457
30
0
41
1
10
1.37355522098818
20
17.5660744771481
30
0
41
1
10
1.50817393794321
20
17.5745353020742
30
0
41
1
10
1.69903362828123
20
17.588026519381
30
0
41
1
10
1.75986737034722
20
17.5925904422304
30
0
41
1
10
1.87593587067678
20
17.6017196994886
30
0
41
1
10
1.98647903091214
20
17.6108559860851
30
0
41
1
10
2.08607506655469
20
17.619783020856
30
0
41
1
10
2.15659981431958
20
17.62631606048
30
0
41
1
10
2.17941156617204
20
17.6284666634043
30
0
41
1
10
2.21256549690455
20
17.6316411220284
30
0
41
1
10
2.22345328077156
20
17.6326920490345
30
0
41
1
10
2.24478936305928
20
17.6347670295092
30
0
41
1
10
2.25523690799764
20
17.6357909800251
30
0
41
1
10
2.3473007259513
20
17.6448787968773
30
0
41
1
10
2.41528609468435
20
17.6520470087961
30
0
41
1
10
2.49697865290128
20
17.660955375143
30
0
41
1
10
2.5208069744009
20
17.6636177947038
30
0
41
1
10
2.55130764186427
20
17.6670900255647
30
0
41
1
10
2.56061894485629
20
17.6681628071464
30
0
41
1
10
2.57731260362027
20
17.670107770668
30
0
41
1
10
2.58470839388656
20
17.6709814107207
30
0
41
1
10
2.5911697536209
20
17.6717553977514
30
0
0
SPLINE
5
192
100
AcDbEntity
8
1
62
256
6
ByLayer
370
18
48
1
60
0
100
AcDbSpline
70
4
71
3
72
17
73
13
40
0
40
0
40
0
40
0
40
0.250000000000019
40
0.250000000000019
40
0.500000000000038
40
0.500000000000038
40
0.562500000000037
40
0.562500000000037
40
0.625000000000036
40
0.750000000000026
40
0.750000000000026
40
1
40
1
40
1
40
1
41
1
10
18.3564173719113
20
6.50873565785122
30
0
41
1
10
18.3853753963689
20
6.53690104320893
30
0
41
1
10
18.4122309410963
20
6.56712760415377
30
0
41
1
10
18.4617197383669
20
6.63193168540539
30
0
41
1
10
18.4843572921868
20
6.66650266688461
30
0
41
1
10
18.5097894773875
20
6.71286485016176
30
0
41
1
10
18.514742447963
20
6.72231865220706
30
0
41
1
10
18.5242836416445
20
6.74142808590474
30
0
41
1
10
18.5380498884725
20
6.77039132507019
30
0
41
1
10
18.5501769665484
20
6.80026708527501
30
0
41
1
10
18.5721909236731
20
6.86130397409656
30
0
41
1
10
18.5839044979644
20
6.90369516475138
30
0
41
1
10
18.5922620637003
20
6.94811206864193
30
0
0
SPLINE
5
193
100
AcDbEntity
8
1
62
256
6
ByLayer
370
18
48
1
60
0
100
AcDbSpline
70
4
71
3
72
18
73
14
40
0
40
0
40
0
40
0
40
0.249999999999978
40
0.249999999999978
40
0.374999999999973
40
0.374999999999973
40
0.437499999999975
40
0.437499999999975
40
0.499999999999976
40
0.499999999999976
40
0.749999999999988
40
0.749999999999988
40
1
40
1
40
1
40
1
41
1
10
18.5922620637003
20
7.25359465539486
30
0
41
1
10
18.583902976565
20
7.29801964487575
30
0
41
1
10
18.5721940761372
20
7.34038208970122
30
0
41
1
10
18.5502147004155
20
7.40134095995802
30
0
41
1
10
18.5421460177694
20
7.42122617487126
30
0
41
1
10
18.5289590937532
20
7.45043850826187
30
0
41
1
10
18.524382525553
20
7.46007320547565
30
0
41
1
10
18.5148692909951
20
7.47914123762789
30
0
41
1
10
18.509920875856
20
7.48859539184321
30
0
41
1
10
18.4844501468565
20
7.53506215389612
30
0
41
1
10
18.4617830025328
20
7.56968670587344
30
0
41
1
10
18.4122494705404
20
7.63456033732811
30
0
41
1
10
18.3853786034381
20
7.66480256154259
30
0
41
1
10
18.3564173719113
20
7.69297106618561
30
0
0
SPLINE
5
194
100
AcDbEntity
8
1
62
256
6
ByLayer
370
18
48
1
60
0
100
AcDbSpline
70
4
71
3
72
24
73
20
40
0
40
0
40
0
40
0
40
0.124999999999985
40
0.124999999999985
40
0.187499999999981
40
0.187499999999981
40
0.249999999999977
40
0.249999999999977
40
0.374999999999982
40
0.374999999999982
40
0.499999999999988
40
0.499999999999988
40
0.624999999999993
40
0.624999999999993
40
0.68749999999999
40
0.68749999999999
40
0.749999999999987
40
0.749999999999987
40
1
40
1
40
1
40
1
41
1
10
18.3018189416603
20
8.09643025161358
30
0
41
1
10
18.2920717429747
20
8.07980420459234
30
0
41
1
10
18.2838642633102
20
8.06249161083804
30
0
41
1
10
18.2738342365024
20
8.03550591823111
30
0
41
1
10
18.2708640587043
20
8.02630599089997
30
0
41
1
10
18.2657514504449
20
8.00770882719107
30
0
41
1
10
18.263630410734
20
7.9984024414552
30
0
41
1
10
18.258503655387
20
7.97046232790021
30
0
41
1
10
18.2567259261732
20
7.95180770226222
30
0
41
1
10
18.2563184965417
20
7.91445342007648
30
0
41
1
10
18.2577395219957
20
7.89561443959204
30
0
41
1
10
18.263512705097
20
7.85943825709791
30
0
41
1
10
18.2678413753687
20
7.84192288846543
30
0
41
1
10
18.2763479036088
20
7.81646448519999
30
0
41
1
10
18.2795208606013
20
7.80811486420535
30
0
41
1
10
18.2865370155301
20
7.79168942116726
30
0
41
1
10
18.2903971485728
20
7.78358661742718
30
0
41
1
10
18.311015358693
20
7.74443749049786
30
0
41
1
10
18.3317858476265
20
7.71692837634134
30
0
41
1
10
18.3564173719113
20
7.69297106618561
30
0
0
SPLINE
5
195
100
AcDbEntity
8
1
62
256
6
ByLayer
370
18
48
1
60
0
100
AcDbSpline
70
4
71
3
72
24
73
20
40
0
40
0
40
0
40
0
40
0.249999999999986
40
0.249999999999986
40
0.312499999999986
40
0.312499999999986
40
0.374999999999986
40
0.374999999999986
40
0.499999999999992
40
0.499999999999992
40
0.624999999999998
40
0.624999999999998
40
0.750000000000004
40
0.750000000000004
40
0.812500000000007
40
0.812500000000007
40
0.875000000000009
40
0.875000000000009
40
1
40
1
40
1
40
1
41
1
10
18.3564173719113
20
6.50873565785122
30
0
41
1
10
18.3317858476265
20
6.48477834769548
30
0
41
1
10
18.311015358693
20
6.45726923353897
30
0
41
1
10
18.2903971485728
20
6.41812010660965
30
0
41
1
10
18.2865370155301
20
6.41001730286953
30
0
41
1
10
18.2795208606013
20
6.39359185983145
30
0
41
1
10
18.2763479036088
20
6.38524223883684
30
0
41
1
10
18.2678413753687
20
6.35978383557139
30
0
41
1
10
18.263512705097
20
6.34226846693892
30
0
41
1
10
18.2577395219957
20
6.30609228444479
30
0
41
1
10
18.2563184965417
20
6.28725330396031
30
0
41
1
10
18.2567259261732
20
6.24989902177461
30
0
41
1
10
18.258503655387
20
6.23124439613662
30
0
41
1
10
18.263630410734
20
6.20330428258163
30
0
41
1
10
18.2657514504449
20
6.19399789684576
30
0
41
1
10
18.2708640587043
20
6.17540073313685
30
0
41
1
10
18.2738342365024
20
6.16620080580569
30
0
41
1
10
18.2838642633102
20
6.13921511319876
30
0
41
1
10
18.2920717429747
20
6.12190251944446
30
0
41
1
10
18.3018189416603
20
6.10527647242324
30
0
0
SPLINE
5
196
100
AcDbEntity
8
1
62
256
6
ByLayer
370
18
48
1
60
0
100
AcDbSpline
70
4
71
3
72
18
73
14
40
0
40
0
40
0
40
0
40
0.249999999999982
40
0.249999999999982
40
0.374999999999979
40
0.374999999999979
40
0.437499999999979
40
0.437499999999979
40
0.49999999999998
40
0.49999999999998
40
0.74999999999999
40
0.74999999999999
40
1
40
1
40
1
40
1
41
1
10
21.4077379362999
20
6.94811206864193
30
0
41
1
10
21.4160970234352
20
6.90368707916073
30
0
41
1
10
21.4278059238631
20
6.86132463433518
30
0
41
1
10
21.4497852995847
20
6.80036576407852
30
0
41
1
10
21.4578539822308
20
6.78048054916539
30
0
41
1
10
21.4710409062469
20
6.75126821577499
30
0
41
1
10
21.4756174744471
20
6.74163351856126
30
0
41
1
10
21.4851307090049
20
6.72256548640917
30
0
41
1
10
21.4900791241439
20
6.71311133219393
30
0
41
1
10
21.5155498531436
20
6.66664457014082
30
0
41
1
10
21.5382169974673
20
6.63202001816342
30
0
41
1
10
21.5877505294598
20
6.56714638670866
30
0
41
1
10
21.614621396562
20
6.53690416249418
30
0
41
1
10
21.6435826280888
20
6.50873565785122
30
0
0
SPLINE
5
197
100
AcDbEntity
8
1
62
256
6
ByLayer
370
18
48
1
60
0
100
AcDbSpline
70
4
71
3
72
24
73
20
40
0
40
0
40
0
40
0
40
0.124999999999996
40
0.124999999999996
40
0.187499999999995
40
0.187499999999995
40
0.249999999999994
40
0.249999999999994
40
0.374999999999994
40
0.374999999999994
40
0.499999999999994
40
0.499999999999994
40
0.624999999999994
40
0.624999999999994
40
0.687499999999991
40
0.687499999999991
40
0.749999999999988
40
0.749999999999988
40
1
40
1
40
1
40
1
41
1
10
21.6981810583398
20
6.10527647242324
30
0
41
1
10
21.7079282570254
20
6.12190251944446
30
0
41
1
10
21.7161357366899
20
6.13921511319876
30
0
41
1
10
21.7261657634977
20
6.16620080580569
30
0
41
1
10
21.7291359412958
20
6.17540073313685
30
0
41
1
10
21.7342485495552
20
6.19399789684576
30
0
41
1
10
21.7363695892661
20
6.20330428258163
30
0
41
1
10
21.7414963446131
20
6.23124439613662
30
0
41
1
10
21.743274073827
20
6.24989902177461
30
0
41
1
10
21.7436815034584
20
6.28725330396031
30
0
41
1
10
21.7422604780044
20
6.30609228444479
30
0
41
1
10
21.7364872949031
20
6.34226846693892
30
0
41
1
10
21.7321586246315
20
6.35978383557139
30
0
41
1
10
21.7236520963913
20
6.38524223883684
30
0
41
1
10
21.7204791393988
20
6.39359185983145
30
0
41
1
10
21.71346298447
20
6.41001730286953
30
0
41
1
10
21.7096028514273
20
6.41812010660965
30
0
41
1
10
21.6889846413071
20
6.45726923353897
30
0
41
1
10
21.6682141523736
20
6.48477834769548
30
0
41
1
10
21.6435826280888
20
6.50873565785122
30
0
0
SPLINE
5
198
100
AcDbEntity
8
1
62
256
6
ByLayer
370
18
48
1
60
0
100
AcDbSpline
70
4
71
3
72
24
73
20
40
0
40
0
40
0
40
0
40
0.249999999999984
40
0.249999999999984
40
0.312499999999984
40
0.312499999999984
40
0.374999999999983
40
0.374999999999983
40
0.499999999999993
40
0.499999999999993
40
0.625000000000003
40
0.625000000000003
40
0.750000000000013
40
0.750000000000013
40
0.812500000000012
40
0.812500000000012
40
0.875000000000011
40
0.875000000000011
40
1
40
1
40
1
40
1
41
1
10
21.6435826280888
20
7.69297106618561
30
0
41
1
10
21.6682141523736
20
7.71692837634134
30
0
41
1
10
21.6889846413071
20
7.74443749049786
30
0
41
1
10
21.7096028514274
20
7.78358661742718
30
0
41
1
10
21.7134629844701
20
7.79168942116726
30
0
41
1
10
21.7204791393988
20
7.80811486420535
30
0
41
1
10
21.7236520963913
20
7.81646448519999
30
0
41
1
10
21.7321586246315
20
7.84192288846543
30
0
41
1
10
21.7364872949032
20
7.85943825709791
30
0
41
1
10
21.7422604780044
20
7.89561443959204
30
0
41
1
10
21.7436815034584
20
7.91445342007648
30
0
41
1
10
21.743274073827
20
7.95180770226222
30
0
41
1
10
21.7414963446131
20
7.97046232790021
30
0
41
1
10
21.7363695892661
20
7.9984024414552
30
0
41
1
10
21.7342485495552
20
8.00770882719107
30
0
41
1
10
21.7291359412958
20
8.02630599089997
30
0
41
1
10
21.7261657634977
20
8.03550591823111
30
0
41
1
10
21.7161357366899
20
8.06249161083807
30
0
41
1
10
21.7079282570254
20
8.07980420459234
30
0
41
1
10
21.6981810583398
20
8.09643025161358
30
0
0
SPLINE
5
199
100
AcDbEntity
8
1
62
256
6
ByLayer
370
18
48
1
60
0
100
AcDbSpline
70
4
71
3
72
17
73
13
40
0
40
0
40
0
40
0
40
0.249999999999989
40
0.249999999999989
40
0.499999999999978
40
0.499999999999978
40
0.562499999999982
40
0.562499999999982
40
0.624999999999985
40
0.749999999999988
40
0.749999999999988
40
1
40
1
40
1
40
1
41
1
10
21.6435826280888
20
7.69297106618561
30
0
41
1
10
21.6146246036311
20
7.66480568082784
30
0
41
1
10
21.5877690589037
20
7.63457911988294
30
0
41
1
10
21.5382802616331
20
7.56977503863121
30
0
41
1
10
21.5156427078131
20
7.53520405715193
30
0
41
1
10
21.4902105226124
20
7.48884187387469
30
0
41
1
10
21.4852575520369
20
7.47938807182936
30
0
41
1
10
21.4757163583555
20
7.46027863813165
30
0
41
1
10
21.4619501115274
20
7.43131539896618
30
0
41
1
10
21.4498230334516
20
7.40143963876136
30
0
41
1
10
21.4278090763269
20
7.34040274993987
30
0
41
1
10
21.4160955020357
20
7.29801155928519
30
0
41
1
10
21.4077379362999
20
7.25359465539486
30
0
0
SPLINE
5
19A
100
AcDbEntity
8
1
62
256
6
ByLayer
370
18
48
1
60
0
100
AcDbSpline
70
4
71
3
72
34
73
30
40
0
40
0
40
0
40
0
40
0.124999999999985
40
0.124999999999985
40
0.187499999999978
40
0.187499999999978
40
0.218749999999974
40
0.218749999999974
40
0.249999999999971
40
0.249999999999971
40
0.374999999999956
40
0.374999999999956
40
0.406249999999956
40
0.406249999999956
40
0.437499999999956
40
0.499999999999962
40
0.562499999999969
40
0.562499999999969
40
0.624999999999975
40
0.624999999999975
40
0.687499999999981
40
0.687499999999981
40
0.749999999999988
40
0.749999999999988
40
0.874999999999995
40
0.874999999999995
40
0.937499999999997
40
0.937499999999997
40
1
40
1
40
1
40
1
41
1
10
21.3281523379786
20
5.95340232843353
30
0
41
1
10
21.2791605406677
20
5.96651890023966
30
0
41
1
10
21.229054901581
20
5.97515117790905
30
0
41
1
10
21.1518976275394
20
5.98106132241816
30
0
41
1
10
21.1258420498826
20
5.9818498856541
30
0
41
1
10
21.0861721053907
20
5.9811228526585
30
0
41
1
10
21.0728201914697
20
5.98055916286512
30
0
41
1
10
21.0460462641007
20
5.9787692389063
30
0
41
1
10
21.03266781006
20
5.97754746049128
30
0
41
1
10
20.9658054580946
20
5.96978664607289
30
0
41
1
10
20.9124105635003
20
5.95836351373885
30
0
41
1
10
20.8455886245497
20
5.93662071228221
30
0
41
1
10
20.8322038067761
20
5.93188421697212
30
0
41
1
10
20.8058521630067
20
5.92178871357157
30
0
41
1
10
20.7667940070402
20
5.90566307668786
30
0
41
1
10
20.70401393338
20
5.87392872168732
30
0
41
1
10
20.6562753174228
20
5.84332255837577
30
0
41
1
10
20.6098302684517
20
5.81000366956926
30
0
41
1
10
20.5878136047357
20
5.79238904206946
30
0
41
1
10
20.5460507829755
20
5.75540734324372
30
0
41
1
10
20.5262970086683
20
5.736033811689
30
0
41
1
10
20.4889396946713
20
5.69556845691628
30
0
41
1
10
20.4712931406015
20
5.67439383912694
30
0
41
1
10
20.4226269571249
20
5.60986915614839
30
0
41
1
10
20.395360151626
20
5.56508020718744
30
0
41
1
10
20.3612075572781
20
5.49528415698992
30
0
41
1
10
20.3509341260478
20
5.47150251675578
30
0
41
1
10
20.3327806188033
20
5.42346220701515
30
0
41
1
10
20.3248979334757
20
5.39922412179115
30
0
41
1
10
20.3181619695469
20
5.37475792187408
30
0
0
SPLINE
5
19B
100
AcDbEntity
8
1
62
256
6
ByLayer
370
18
48
1
60
0
100
AcDbSpline
70
4
71
3
72
26
73
22
40
0
40
0
40
0
40
0
40
0.124999999999978
40
0.124999999999978
40
0.249999999999956
40
0.249999999999956
40
0.312499999999955
40
0.312499999999955
40
0.374999999999954
40
0.374999999999954
40
0.499999999999977
40
0.499999999999977
40
0.56249999999998
40
0.56249999999998
40
0.624999999999983
40
0.624999999999983
40
0.749999999999988
40
0.749999999999988
40
0.874999999999994
40
0.874999999999994
40
1
40
1
40
1
40
1
41
1
10
20.0000000000001
20
5.13235336201839
30
0
41
1
10
20.0187420838797
20
5.13235336201839
30
0
41
1
10
20.0377900241211
20
5.1339905665138
30
0
41
1
10
20.0746705458544
20
5.14036808133548
30
0
41
1
10
20.0926468374794
20
5.14508057035292
30
0
41
1
10
20.1189272305609
20
5.15438797591523
30
0
41
1
10
20.127613610563
20
5.15788583692307
30
0
41
1
10
20.144482547616
20
5.16551923178235
30
0
41
1
10
20.1526773955159
20
5.16965426275354
30
0
41
1
10
20.1765732518196
20
5.18297103260267
30
0
41
1
10
20.1915899369246
20
5.19305879952506
30
0
41
1
10
20.2127755394085
20
5.20994865493219
30
0
41
1
10
20.2195919185691
20
5.21586074463397
30
0
41
1
10
20.2325595895108
20
5.22805599017553
30
0
41
1
10
20.2387403827712
20
5.23436206523303
30
0
41
1
10
20.2564090822014
20
5.25387700924261
30
0
41
1
10
20.2670282709711
20
5.26767923435634
30
0
41
1
10
20.2860013809462
20
5.29680782877847
30
0
41
1
10
20.2941811588046
20
5.31187606783217
30
0
41
1
10
20.308022019824
20
5.34273561431851
30
0
41
1
10
20.3137019836555
20
5.35855847253029
30
0
41
1
10
20.3181619695469
20
5.37475792187408
30
0
0
SPLINE
5
19C
100
AcDbEntity
8
1
62
256
6
ByLayer
370
18
48
1
60
0
100
AcDbSpline
70
4
71
3
72
24
73
20
40
0
40
0
40
0
40
0
40
0.0625000000000041
40
0.0625000000000041
40
0.125000000000008
40
0.125000000000008
40
0.250000000000007
40
0.250000000000007
40
0.312500000000004
40
0.312500000000004
40
0.375000000000002
40
0.375000000000002
40
0.500000000000002
40
0.500000000000002
40
0.625000000000003
40
0.625000000000003
40
0.750000000000003
40
0.750000000000003
40
1
40
1
40
1
40
1
41
1
10
21.6981810583398
20
6.10527647242324
30
0
41
1
10
21.6934313378225
20
6.09717475220526
30
0
41
1
10
21.6882897889865
20
6.08920355279105
30
0
41
1
10
21.677355321586
20
6.07376029631749
30
0
41
1
10
21.671600827775
20
6.06633566688163
30
0
41
1
10
21.6535070564051
20
6.04492061039076
30
0
41
1
10
21.6403431053359
20
6.03178312249332
30
0
41
1
10
21.6189603728398
20
6.0137728840422
30
0
41
1
10
21.6115431209206
20
6.00804800756256
30
0
41
1
10
21.5964570188403
20
5.99738244851986
30
0
41
1
10
21.5887541685169
20
5.9924108275037
30
0
41
1
10
21.5651865615504
20
5.97853813165818
30
0
41
1
10
21.5488655560664
20
5.97067264428995
30
0
41
1
10
21.5150376500416
20
5.95766303445848
30
0
41
1
10
21.497973394896
20
5.95268830111658
30
0
41
1
10
21.4636029977597
20
5.94552936953511
30
0
41
1
10
21.4462370587481
20
5.9433440550998
30
0
41
1
10
21.3941694441301
20
5.94091415197235
30
0
41
1
10
21.3606039107085
20
5.94471407024957
30
0
41
1
10
21.3281523379786
20
5.95340232843353
30
0
0
SPLINE
5
19D
100
AcDbEntity
8
1
62
256
6
ByLayer
370
18
48
1
60
0
100
AcDbSpline
70
4
71
3
72
26
73
22
40
0
40
0
40
0
40
0
40
0.249999999999994
40
0.249999999999994
40
0.312499999999994
40
0.312499999999994
40
0.374999999999994
40
0.374999999999994
40
0.499999999999994
40
0.499999999999994
40
0.562499999999996
40
0.562499999999996
40
0.624999999999998
40
0.624999999999998
40
0.749999999999988
40
0.749999999999988
40
0.812499999999985
40
0.812499999999985
40
0.874999999999983
40
0.874999999999983
40
1
40
1
40
1
40
1
41
1
10
20.3181619695469
20
8.82694880216272
30
0
41
1
10
20.309219230547
20
8.85943039536741
30
0
41
1
10
20.2954876322591
20
8.89031705175029
30
0
41
1
10
20.2718353388291
20
8.9266518793402
30
0
41
1
10
20.2667495067732
20
8.93383081944256
30
0
41
1
10
20.2560530091764
20
8.94771275657894
30
0
41
1
10
20.2504333990712
20
8.95443495646532
30
0
41
1
10
20.2327595033494
20
8.97394008832745
30
0
41
1
10
20.2198957841169
20
8.98606617065485
30
0
41
1
10
20.198881054868
20
9.00284276876761
30
0
41
1
10
20.1915883106091
20
9.00819847921164
30
0
41
1
10
20.1763916134439
20
9.01840492805479
30
0
41
1
10
20.1685411707113
20
9.02321547492269
30
0
41
1
10
20.1445437728382
20
9.03657785495693
30
0
41
1
10
20.1278334996497
20
9.04415026606313
30
0
41
1
10
20.1016705104134
20
9.05343734186977
30
0
41
1
10
20.0927656700965
20
9.0561860936011
30
0
41
1
10
20.0745707697433
20
9.06095505612231
30
0
41
1
10
20.06528459895
20
9.06296788752294
30
0
41
1
10
20.0374812768526
20
9.06775694573179
30
0
41
1
10
20.0188089532901
20
9.0693533620184
30
0
41
1
10
20.0000000000001
20
9.0693533620184
30
0
0
SPLINE
5
19E
100
AcDbEntity
8
1
62
256
6
ByLayer
370
18
48
1
60
0
100
AcDbSpline
70
4
71
3
72
34
73
30
40
0
40
0
40
0
40
0
40
0.125000000000004
40
0.125000000000004
40
0.187500000000006
40
0.187500000000006
40
0.218750000000009
40
0.218750000000009
40
0.250000000000011
40
0.250000000000011
40
0.375000000000001
40
0.375000000000001
40
0.406249999999998
40
0.406249999999998
40
0.437499999999995
40
0.499999999999995
40
0.562499999999996
40
0.562499999999996
40
0.624999999999996
40
0.624999999999996
40
0.687499999999996
40
0.687499999999996
40
0.749999999999997
40
0.749999999999997
40
0.874999999999997
40
0.874999999999997
40
0.937499999999999
40
0.937499999999999
40
1
40
1
40
1
40
1
41
1
10
20.3181619695469
20
8.82694880216272
30
0
41
1
10
20.3316243955843
20
8.77805091460277
30
0
41
1
10
20.3495186520746
20
8.73046008871415
30
0
41
1
10
20.3834427074957
20
8.66090914850898
30
0
41
1
10
20.3959401462236
20
8.63803276291517
30
0
41
1
10
20.4166305781722
20
8.60417808458811
30
0
41
1
10
20.4238696464605
20
8.59294477326091
30
0
41
1
10
20.4389547957834
20
8.57075276574363
30
0
41
1
10
20.4467750039595
20
8.55982939166449
30
0
41
1
10
20.4872859904912
20
8.50607379684297
30
0
41
1
10
20.5241451570226
20
8.46578850687271
30
0
41
1
10
20.5766976577683
20
8.4191392175382
30
0
41
1
10
20.5875531522009
20
8.40998793594579
30
0
41
1
10
20.6095897675602
20
8.39236080342926
30
0
41
1
10
20.6432548145305
20
8.36682181078388
30
0
41
1
10
20.702382443831
20
8.3287123591644
30
0
41
1
10
20.7529298677765
20
8.30300877093606
30
0
41
1
10
20.8051631063884
20
8.27979282472106
30
0
41
1
10
20.8314938663051
20
8.26970821087343
30
0
41
1
10
20.8845188699142
20
8.2523840003411
30
0
41
1
10
20.9112225356448
20
8.24514110190253
30
0
41
1
10
20.9650247101004
20
8.23337929743852
30
0
41
1
10
20.9922163970771
20
8.22886515785726
30
0
41
1
10
21.0724935208944
20
8.21951554748304
30
0
41
1
10
21.1249222467065
20
8.21864527516439
30
0
41
1
10
21.2024065588862
20
8.22448222997113
30
0
41
1
10
21.2281182805367
20
8.22764723141233
30
0
41
1
10
21.2787427947224
20
8.23628318764835
30
0
41
1
10
21.30363915096
20
8.24174148108747
30
0
41
1
10
21.3281523379786
20
8.24830439560327
30
0
0
SPLINE
5
19F
100
AcDbEntity
8
1
62
256
6
ByLayer
370
18
48
1
60
0
100
AcDbSpline
70
4
71
3
72
24
73
20
40
0
40
0
40
0
40
0
40
0.0624999999999996
40
0.0624999999999996
40
0.124999999999999
40
0.124999999999999
40
0.250000000000012
40
0.250000000000012
40
0.312500000000015
40
0.312500000000015
40
0.375000000000018
40
0.375000000000018
40
0.500000000000015
40
0.500000000000015
40
0.625000000000013
40
0.625000000000013
40
0.75000000000001
40
0.75000000000001
40
1
40
1
40
1
40
1
41
1
10
21.6981810583398
20
8.09643025161358
30
0
41
1
10
21.6934313378225
20
8.10453197183156
30
0
41
1
10
21.6882897889865
20
8.11250317124575
30
0
41
1
10
21.6773553215861
20
8.12794642771931
30
0
41
1
10
21.671600827775
20
8.1353710571552
30
0
41
1
10
21.6535070564051
20
8.15678611364606
30
0
41
1
10
21.6403431053359
20
8.1699236015435
30
0
41
1
10
21.6189603728398
20
8.18793383999463
30
0
41
1
10
21.6115431209206
20
8.19365871647426
30
0
41
1
10
21.5964570188403
20
8.20432427551694
30
0
41
1
10
21.5887541685169
20
8.20929589653309
30
0
41
1
10
21.5651865615504
20
8.22316859237864
30
0
41
1
10
21.5488655560664
20
8.23103407974688
30
0
41
1
10
21.5150376500416
20
8.24404368957835
30
0
41
1
10
21.497973394896
20
8.24901842292022
30
0
41
1
10
21.4636029977597
20
8.25617735450172
30
0
41
1
10
21.4462370587481
20
8.25836266893702
30
0
41
1
10
21.3941694441301
20
8.26079257206447
30
0
41
1
10
21.3606039107085
20
8.25699265378722
30
0
41
1
10
21.3281523379786
20
8.24830439560327
30
0
0
SPLINE
5
1A0
100
AcDbEntity
8
1
62
256
6
ByLayer
370
18
48
1
60
0
100
AcDbSpline
70
4
71
3
72
34
73
30
40
0
40
0
40
0
40
0
40
0.124999999999966
40
0.124999999999966
40
0.187499999999949
40
0.187499999999949
40
0.218749999999941
40
0.218749999999941
40
0.249999999999932
40
0.249999999999932
40
0.374999999999924
40
0.374999999999924
40
0.406249999999926
40
0.406249999999926
40
0.437499999999927
40
0.499999999999934
40
0.562499999999941
40
0.562499999999941
40
0.624999999999948
40
0.624999999999948
40
0.687499999999956
40
0.687499999999956
40
0.749999999999963
40
0.749999999999963
40
0.874999999999985
40
0.874999999999985
40
0.937499999999992
40
0.937499999999992
40
1
40
1
40
1
40
1
41
1
10
18.6718476620215
20
8.24830439560327
30
0
41
1
10
18.7208394593324
20
8.23518782379713
30
0
41
1
10
18.7709450984191
20
8.22655554612774
30
0
41
1
10
18.8481023724607
20
8.22064540161867
30
0
41
1
10
18.8741579501175
20
8.21985683838273
30
0
41
1
10
18.9138278946094
20
8.2205838713783
30
0
41
1
10
18.9271798085304
20
8.2211475611717
30
0
41
1
10
18.9539537358994
20
8.22293748513053
30
0
41
1
10
18.9673321899402
20
8.22415926354552
30
0
41
1
10
19.0341945419055
20
8.23192007796391
30
0
41
1
10
19.0875894364999
20
8.24334321029798
30
0
41
1
10
19.1544113754505
20
8.26508601175462
30
0
41
1
10
19.167796193224
20
8.2698225070647
30
0
41
1
10
19.1941478369935
20
8.27991801046525
30
0
41
1
10
19.2332059929599
20
8.29604364734897
30
0
41
1
10
19.2959860666201
20
8.32777800234948
30
0
41
1
10
19.3437246825773
20
8.35838416566102
30
0
41
1
10
19.3901697315484
20
8.39170305446757
30
0
41
1
10
19.4121863952644
20
8.40931768196734
30
0
41
1
10
19.4539492170246
20
8.44629938079308
30
0
41
1
10
19.4737029913319
20
8.4656729123478
30
0
41
1
10
19.5110603053288
20
8.50613826712052
30
0
41
1
10
19.5287068593986
20
8.52731288490986
30
0
41
1
10
19.5773730428752
20
8.59183756788843
30
0
41
1
10
19.6046398483741
20
8.63662651684939
30
0
41
1
10
19.638792442722
20
8.70642256704687
30
0
41
1
10
19.6490658739523
20
8.73020420728102
30
0
41
1
10
19.6672193811968
20
8.77824451702168
30
0
41
1
10
19.6751020665244
20
8.80248260224565
30
0
41
1
10
19.6818380304532
20
8.82694880216272
30
0
0
SPLINE
5
1A1
100
AcDbEntity
8
1
62
256
6
ByLayer
370
18
48
1
60
0
100
AcDbSpline
70
4
71
3
72
26
73
22
40
0
40
0
40
0
40
0
40
0.125000000000008
40
0.125000000000008
40
0.250000000000016
40
0.250000000000016
40
0.312500000000029
40
0.312500000000029
40
0.375000000000043
40
0.375000000000043
40
0.500000000000048
40
0.500000000000048
40
0.562500000000042
40
0.562500000000042
40
0.625000000000036
40
0.625000000000036
40
0.750000000000024
40
0.750000000000024
40
0.875000000000012
40
0.875000000000012
40
1
40
1
40
1
40
1
41
1
10
20.0000000000001
20
9.0693533620184
30
0
41
1
10
19.9812579161204
20
9.0693533620184
30
0
41
1
10
19.9622099758791
20
9.06771615752299
30
0
41
1
10
19.9253294541457
20
9.06133864270134
30
0
41
1
10
19.9073531625207
20
9.05662615368391
30
0
41
1
10
19.8810727694392
20
9.04731874812157
30
0
41
1
10
19.8723863894371
20
9.04382088711375
30
0
41
1
10
19.8555174523841
20
9.03618749225444
30
0
41
1
10
19.8473226044842
20
9.03205246128329
30
0
41
1
10
19.8234267481806
20
9.01873569143413
30
0
41
1
10
19.8084100630755
20
9.00864792451176
30
0
41
1
10
19.7872244605917
20
8.99175806910463
30
0
41
1
10
19.780408081431
20
8.98584597940285
30
0
41
1
10
19.7674404104893
20
8.97365073386129
30
0
41
1
10
19.7612596172289
20
8.96734465880377
30
0
41
1
10
19.7435909177987
20
8.94782971479421
30
0
41
1
10
19.732971729029
20
8.93402748968046
30
0
41
1
10
19.7139986190539
20
8.90489889525833
30
0
41
1
10
19.7058188411955
20
8.88983065620465
30
0
41
1
10
19.6919779801761
20
8.85897110971831
30
0
41
1
10
19.6862980163446
20
8.84314825150651
30
0
41
1
10
19.6818380304532
20
8.82694880216272
30
0
0
SPLINE
5
1A2
100
AcDbEntity
8
1
62
256
6
ByLayer
370
18
48
1
60
0
100
AcDbSpline
70
4
71
3
72
24
73
20
40
0
40
0
40
0
40
0
40
0.0625
40
0.0625
40
0.125
40
0.125
40
0.250000000000001
40
0.250000000000001
40
0.312499999999998
40
0.312499999999998
40
0.374999999999995
40
0.374999999999995
40
0.499999999999997
40
0.499999999999997
40
0.624999999999999
40
0.624999999999999
40
0.75
40
0.75
40
1
40
1
40
1
40
1
41
1
10
18.3018189416603
20
8.09643025161358
30
0
41
1
10
18.3065686621776
20
8.10453197183156
30
0
41
1
10
18.3117102110136
20
8.11250317124575
30
0
41
1
10
18.322644678414
20
8.12794642771931
30
0
41
1
10
18.3283991722251
20
8.1353710571552
30
0
41
1
10
18.346492943595
20
8.15678611364606
30
0
41
1
10
18.3596568946642
20
8.1699236015435
30
0
41
1
10
18.3810396271603
20
8.18793383999463
30
0
41
1
10
18.3884568790795
20
8.19365871647426
30
0
41
1
10
18.4035429811598
20
8.20432427551697
30
0
41
1
10
18.4112458314833
20
8.20929589653309
30
0
41
1
10
18.4348134384498
20
8.22316859237864
30
0
41
1
10
18.4511344439337
20
8.23103407974688
30
0
41
1
10
18.4849623499585
20
8.24404368957835
30
0
41
1
10
18.5020266051041
20
8.24901842292022
30
0
41
1
10
18.5363970022404
20
8.25617735450172
30
0
41
1
10
18.553762941252
20
8.25836266893702
30
0
41
1
10
18.60583055587
20
8.26079257206447
30
0
41
1
10
18.6393960892916
20
8.25699265378722
30
0
41
1
10
18.6718476620215
20
8.24830439560327
30
0
0
SPLINE
5
1A3
100
AcDbEntity
8
1
62
256
6
ByLayer
370
18
48
1
60
0
100
AcDbSpline
70
4
71
3
72
34
73
30
40
0
40
0
40
0
40
0
40
0.124999999999988
40
0.124999999999988
40
0.187499999999983
40
0.187499999999983
40
0.21874999999998
40
0.21874999999998
40
0.249999999999977
40
0.249999999999977
40
0.374999999999965
40
0.374999999999965
40
0.406249999999963
40
0.406249999999963
40
0.437499999999962
40
0.499999999999966
40
0.56249999999997
40
0.56249999999997
40
0.624999999999974
40
0.624999999999974
40
0.687499999999978
40
0.687499999999978
40
0.749999999999982
40
0.749999999999982
40
0.87499999999999
40
0.87499999999999
40
0.937499999999995
40
0.937499999999995
40
1
40
1
40
1
40
1
41
1
10
19.6818380304532
20
5.37475792187408
30
0
41
1
10
19.6683756044158
20
5.42365580943405
30
0
41
1
10
19.6504813479255
20
5.47124663532267
30
0
41
1
10
19.6165572925044
20
5.54079757552785
30
0
41
1
10
19.6040598537765
20
5.56367396112165
30
0
41
1
10
19.5833694218279
20
5.59752863944868
30
0
41
1
10
19.5761303535396
20
5.60876195077591
30
0
41
1
10
19.5610452042167
20
5.63095395829319
30
0
41
1
10
19.5532249960406
20
5.64187733237233
30
0
41
1
10
19.512714009509
20
5.69563292719386
30
0
41
1
10
19.4758548429776
20
5.73591821716411
30
0
41
1
10
19.4233023422318
20
5.78256750649859
30
0
41
1
10
19.4124468477993
20
5.79171878809103
30
0
41
1
10
19.3904102324399
20
5.80934592060754
30
0
41
1
10
19.3567451854696
20
5.83488491325292
30
0
41
1
10
19.2976173881465
20
5.8729941038257
30
0
41
1
10
19.2470701322236
20
5.89869795310074
30
0
41
1
10
19.1948368936117
20
5.92191389931577
30
0
41
1
10
19.168506133695
20
5.93199851316339
30
0
41
1
10
19.115481130086
20
5.9493227236957
30
0
41
1
10
19.0887774643553
20
5.95656562213426
30
0
41
1
10
19.0349752898997
20
5.96832742659831
30
0
41
1
10
19.007783602923
20
5.97284156617957
30
0
41
1
10
18.9275064791057
20
5.98219117655376
30
0
41
1
10
18.8750777532936
20
5.98306144887243
30
0
41
1
10
18.7975934411139
20
5.97722449406567
30
0
41
1
10
18.7718817194634
20
5.97405949262446
30
0
41
1
10
18.7212572052777
20
5.96542353638847
30
0
41
1
10
18.6963608490401
20
5.95996524294932
30
0
41
1
10
18.6718476620215
20
5.95340232843353
30
0
0
SPLINE
5
1A4
100
AcDbEntity
8
1
62
256
6
ByLayer
370
18
48
1
60
0
100
AcDbSpline
70
4
71
3
72
24
73
20
40
0
40
0
40
0
40
0
40
0.062500000000007
40
0.062500000000007
40
0.125000000000014
40
0.125000000000014
40
0.250000000000017
40
0.250000000000017
40
0.312500000000018
40
0.312500000000018
40
0.375000000000019
40
0.375000000000019
40
0.500000000000016
40
0.500000000000016
40
0.625000000000014
40
0.625000000000014
40
0.750000000000011
40
0.750000000000011
40
1
40
1
40
1
40
1
41
1
10
18.3018189416603
20
6.10527647242324
30
0
41
1
10
18.3065686621777
20
6.09717475220526
30
0
41
1
10
18.3117102110136
20
6.08920355279105
30
0
41
1
10
18.322644678414
20
6.07376029631749
30
0
41
1
10
18.3283991722251
20
6.06633566688163
30
0
41
1
10
18.346492943595
20
6.04492061039076
30
0
41
1
10
18.3596568946642
20
6.03178312249332
30
0
41
1
10
18.3810396271603
20
6.01377288404217
30
0
41
1
10
18.3884568790795
20
6.00804800756256
30
0
41
1
10
18.4035429811598
20
5.99738244851986
30
0
41
1
10
18.4112458314833
20
5.9924108275037
30
0
41
1
10
18.4348134384498
20
5.97853813165818
30
0
41
1
10
18.4511344439337
20
5.97067264428992
30
0
41
1
10
18.4849623499585
20
5.95766303445848
30
0
41
1
10
18.5020266051041
20
5.95268830111658
30
0
41
1
10
18.5363970022404
20
5.94552936953511
30
0
41
1
10
18.553762941252
20
5.9433440550998
30
0
41
1
10
18.60583055587
20
5.94091415197235
30
0
41
1
10
18.6393960892916
20
5.94471407024957
30
0
41
1
10
18.6718476620215
20
5.95340232843353
30
0
0
SPLINE
5
1A5
100
AcDbEntity
8
1
62
256
6
ByLayer
370
18
48
1
60
0
100
AcDbSpline
70
4
71
3
72
26
73
22
40
0
40
0
40
0
40
0
40
0.250000000000033
40
0.250000000000033
40
0.31250000000003
40
0.31250000000003
40
0.375000000000028
40
0.375000000000028
40
0.500000000000027
40
0.500000000000027
40
0.562500000000028
40
0.562500000000028
40
0.625000000000029
40
0.625000000000029
40
0.750000000000011
40
0.750000000000011
40
0.812500000000003
40
0.812500000000003
40
0.874999999999994
40
0.874999999999994
40
1
40
1
40
1
40
1
41
1
10
19.6818380304532
20
5.37475792187408
30
0
41
1
10
19.6907807694531
20
5.34227632866939
30
0
41
1
10
19.704512367741
20
5.31138967228651
30
0
41
1
10
19.728164661171
20
5.2750548446966
30
0
41
1
10
19.7332504932269
20
5.26787590459423
30
0
41
1
10
19.7439469908237
20
5.25399396745789
30
0
41
1
10
19.7495666009289
20
5.24727176757148
30
0
41
1
10
19.7672404966507
20
5.22776663570937
30
0
41
1
10
19.7801042158832
20
5.21564055338195
30
0
41
1
10
19.8011189451321
20
5.19886395526922
30
0
41
1
10
19.808411689391
20
5.19350824482518
30
0
41
1
10
19.8236083865562
20
5.18330179598203
30
0
41
1
10
19.8314588292888
20
5.17849124911413
30
0
41
1
10
19.855456227162
20
5.16512886907989
30
0
41
1
10
19.8721665003505
20
5.15755645797367
30
0
41
1
10
19.8983294895867
20
5.14826938216706
30
0
41
1
10
19.9072343299036
20
5.1455206304357
30
0
41
1
10
19.9254292302568
20
5.14075166791451
30
0
41
1
10
19.9347154010501
20
5.13873883651388
30
0
41
1
10
19.9625187231475
20
5.13394977830501
30
0
41
1
10
19.98119104671
20
5.13235336201839
30
0
41
1
10
20.0000000000001
20
5.13235336201839
30
0
0
LINE
5
7D
100
AcDbEntity
8
81
62
256
6
ByLayer
370
18
48
1
60
0
100
AcDbLine
10
45.1
20
18
30
0
11
50.1
21
18
31
0
39
0
210
0
220
0
230
1
0
LINE
5
7E
100
AcDbEntity
8
80
62
256
6
ByLayer
370
18
48
1
60
0
100
AcDbLine
10
0
20
0
30
0
11
0
21
-5
31
0
39
0
210
0
220
0
230
1
0
LINE
5
7F
100
AcDbEntity
8
1
62
256
6
ByLayer
370
18
48
1
60
0
100
AcDbLine
10
20
20
0.675
30
0
11
20
21
0.875
31
0
39
0
210
0
220
0
230
1
0
LINE
5
80
100
AcDbEntity
8
1
62
256
6
ByLayer
370
18
48
1
60
0
100
AcDbLine
10
18.924605
20
17.676218
30
0
11
17.449642
21
17.676218
31
0
39
0
210
0
220
0
230
1
0
LINE
5
81
100
AcDbEntity
8
1
62
256
6
ByLayer
370
18
48
1
60
0
100
AcDbLine
10
-2.621616
20
17.676218
30
0
11
-7.423782
21
17.676218
31
0
39
0
210
0
220
0
230
1
0
LINE
5
82
100
AcDbEntity
8
1
62
256
6
ByLayer
370
18
48
1
60
0
100
AcDbLine
10
41.1
20
14.163598
30
0
11
40.68649
21
14.402193
31
0
39
0
210
0
220
0
230
1
0
LINE
5
83
100
AcDbEntity
8
1
62
256
6
ByLayer
370
13
48
1
60
0
100
AcDbLine
10
37.100085
20
16.045361
30
0
11
38.037861
21
16.045361
31
0
39
0
210
0
220
0
230
1
0
LINE
5
84
100
AcDbEntity
8
1
62
256
6
ByLayer
370
13
48
1
60
0
100
AcDbLine
10
37.099235
20
16.005386
30
0
11
38.037861
21
16.005386
31
0
39
0
210
0
220
0
230
1
0
LINE
5
85
100
AcDbEntity
8
1
62
256
6
ByLayer
370
13
48
1
60
0
100
AcDbLine
10
37.104414
20
16.236292
30
0
11
38.028946
21
16.236292
31
0
39
0
210
0
220
0
230
1
0
LINE
5
86
100
AcDbEntity
8
1
62
256
6
ByLayer
370
13
48
1
60
0
100
AcDbLine
10
37.094998
20
15.815078
30
0
11
38.028946
21
15.815078
31
0
39
0
210
0
220
0
230
1
0
LINE
5
87
100
AcDbEntity
8
1
62
256
6
ByLayer
370
13
48
1
60
0
100
AcDbLine
10
37.03011
20
16.459439
30
0
11
37.848945
21
16.459439
31
0
39
0
210
0
220
0
230
1
0
LINE
5
88
100
AcDbEntity
8
1
62
256
6
ByLayer
370
13
48
1
60
0
100
AcDbLine
10
36.971469
20
15.604495
30
0
11
37.848945
21
15.604495
31
0
39
0
210
0
220
0
230
1
0
LINE
5
89
100
AcDbEntity
8
1
62
256
6
ByLayer
370
13
48
1
60
0
100
AcDbLine
10
37.690119
20
16.520301
30
0
11
36.913876
21
16.520301
31
0
39
0
210
0
220
0
230
1
0
LINE
5
8A
100
AcDbEntity
8
1
62
256
6
ByLayer
370
13
48
1
60
0
100
AcDbLine
10
37.690119
20
15.554719
30
0
11
36.857725
21
15.554719
31
0
39
0
210
0
220
0
230
1
0
LINE
5
8B
100
AcDbEntity
8
1
62
256
6
ByLayer
370
13
48
1
60
0
100
AcDbLine
10
36.863533
20
16.552501
30
0
11
37.649523
21
16.552501
31
0
39
0
210
0
220
0
230
1
0
LINE
5
8C
100
AcDbEntity
8
1
62
256
6
ByLayer
370
13
48
1
60
0
100
AcDbLine
10
36.852815
20
16.646729
30
0
11
37.577691
21
16.646729
31
0
39
0
210
0
220
0
230
1
0
LINE
5
8D
100
AcDbEntity
8
1
62
256
6
ByLayer
370
13
48
1
60
0
100
AcDbLine
10
36.835445
20
15.525352
30
0
11
37.649523
21
15.525352
31
0
39
0
210
0
220
0
230
1
0
LINE
5
8E
100
AcDbEntity
8
1
62
256
6
ByLayer
370
13
48
1
60
0
100
AcDbLine
10
36.820149
20
15.436137
30
0
11
37.577691
21
15.436137
31
0
39
0
210
0
220
0
230
1
0
LINE
5
8F
100
AcDbEntity
8
1
62
256
6
ByLayer
370
13
48
1
60
0
100
AcDbLine
10
36.847886
20
16.69166
30
0
11
37.557959
21
16.69166
31
0
39
0
210
0
220
0
230
1
0
LINE
5
90
100
AcDbEntity
8
1
62
256
6
ByLayer
370
13
48
1
60
0
100
AcDbLine
10
36.767657
20
17.404351
30
0
11
37.434518
21
17.404351
31
0
39
0
210
0
220
0
230
1
0
LINE
5
91
100
AcDbEntity
8
1
62
256
6
ByLayer
370
13
48
1
60
0
100
AcDbLine
10
36.769571
20
17.386944
30
0
11
37.436037
21
17.386944
31
0
39
0
210
0
220
0
230
1
0
LINE
5
92
100
AcDbEntity
8
1
62
256
6
ByLayer
370
13
48
1
60
0
100
AcDbLine
10
36.812716
20
15.392584
30
0
11
37.557959
21
15.392584
31
0
39
0
210
0
220
0
230
1
0
LINE
5
93
100
AcDbEntity
8
1
62
256
6
ByLayer
370
13
48
1
60
0
100
AcDbLine
10
36.69023
20
14.70581
30
0
11
37.436037
21
14.70581
31
0
39
0
210
0
220
0
230
1
0
LINE
5
94
100
AcDbEntity
8
1
62
256
6
ByLayer
370
13
48
1
60
0
100
AcDbLine
10
36.686981
20
14.688509
30
0
11
37.434518
21
14.688509
31
0
39
0
210
0
220
0
230
1
0
LINE
5
95
100
AcDbEntity
8
1
62
256
6
ByLayer
370
18
48
1
60
0
100
AcDbLine
10
37.434518
20
17.645455
30
0
11
37.434518
21
17.404351
31
0
39
0
210
0
220
0
230
1
0
LINE
5
96
100
AcDbEntity
8
1
62
256
6
ByLayer
370
18
48
1
60
0
100
AcDbLine
10
37.436037
20
17.386944
30
0
11
37.557959
21
16.69166
31
0
39
0
210
0
220
0
230
1
0
LINE
5
97
100
AcDbEntity
8
1
62
256
6
ByLayer
370
18
48
1
60
0
100
AcDbLine
10
37.577691
20
16.646729
30
0
11
37.649523
21
16.552501
31
0
39
0
210
0
220
0
230
1
0
LINE
5
98
100
AcDbEntity
8
1
62
256
6
ByLayer
370
18
48
1
60
0
100
AcDbLine
10
38.037861
20
16.005386
30
0
11
38.037861
21
16.045361
31
0
39
0
210
0
220
0
230
1
0
LINE
5
99
100
AcDbEntity
8
1
62
256
6
ByLayer
370
18
48
1
60
0
100
AcDbLine
10
37.577691
20
15.436137
30
0
11
37.649523
21
15.525352
31
0
39
0
210
0
220
0
230
1
0
LINE
5
9A
100
AcDbEntity
8
1
62
256
6
ByLayer
370
18
48
1
60
0
100
AcDbLine
10
37.436037
20
14.70581
30
0
11
37.557959
21
15.392584
31
0
39
0
210
0
220
0
230
1
0
LINE
5
9B
100
AcDbEntity
8
1
62
256
6
ByLayer
370
18
48
1
60
0
100
AcDbLine
10
37.434518
20
14.447405
30
0
11
37.434518
21
14.688509
31
0
39
0
210
0
220
0
230
1
0
LINE
5
9C
100
AcDbEntity
8
1
62
256
6
ByLayer
370
18
48
1
60
0
100
AcDbLine
10
38.73
20
14.402193
30
0
11
38.73
21
17.600244
31
0
39
0
210
0
220
0
230
1
0
LINE
5
9D
100
AcDbEntity
8
1
62
256
6
ByLayer
370
18
48
1
60
0
100
AcDbLine
10
38.73
20
14.402193
30
0
11
37.434518
21
14.447405
31
0
39
0
210
0
220
0
230
1
0
LINE
5
9E
100
AcDbEntity
8
1
62
256
6
ByLayer
370
18
48
1
60
0
100
AcDbLine
10
36.640298
20
14.447405
30
0
11
37.434518
21
14.447405
31
0
39
0
210
0
220
0
230
1
0
LINE
5
9F
100
AcDbEntity
8
1
62
256
6
ByLayer
370
18
48
1
60
0
100
AcDbLine
10
38.73
20
14.402193
30
0
11
40.68649
21
14.402193
31
0
39
0
210
0
220
0
230
1
0
LINE
5
A0
100
AcDbEntity
8
1
62
256
6
ByLayer
370
18
48
1
60
0
100
AcDbLine
10
27.765482
20
17.645455
30
0
11
27.765482
21
17.624287
31
0
39
0
210
0
220
0
230
1
0
LINE
5
A1
100
AcDbEntity
8
1
62
256
6
ByLayer
370
18
48
1
60
0
100
AcDbLine
10
24.1
20
17.838839
30
0
11
24.476773
21
17.621441
31
0
39
0
210
0
220
0
230
1
0
LINE
5
A2
100
AcDbEntity
8
1
62
256
6
ByLayer
370
18
48
1
60
0
100
AcDbLine
10
41.1
20
17.838839
30
0
11
40.68649
21
17.600244
31
0
39
0
210
0
220
0
230
1
0
LINE
5
A3
100
AcDbEntity
8
1
62
256
6
ByLayer
370
18
48
1
60
0
100
AcDbLine
10
20.1
20
17.623942
30
0
11
20.1
21
17.700183
31
0
39
0
210
0
220
0
230
1
0
LINE
5
A4
100
AcDbEntity
8
1
62
256
6
ByLayer
370
18
48
1
60
0
100
AcDbLine
10
45.1
20
14.302254
30
0
11
45.1
21
17.700183
31
0
39
0
210
0
220
0
230
1
0
LINE
5
A5
100
AcDbEntity
8
1
62
256
6
ByLayer
370
18
48
1
60
0
100
AcDbLine
10
44.786914
20
14.002722
30
0
11
41.1
21
14.163598
31
0
39
0
210
0
220
0
230
1
0
LINE
5
A6
100
AcDbEntity
8
1
62
256
6
ByLayer
370
18
48
1
60
0
100
AcDbLine
10
20.413086
20
17.999715
30
0
11
24.1
21
17.838839
31
0
39
0
210
0
220
0
230
1
0
LINE
5
A7
100
AcDbEntity
8
1
62
256
6
ByLayer
370
18
48
1
60
0
100
AcDbLine
10
44.786914
20
17.999715
30
0
11
41.1
21
17.838839
31
0
39
0
210
0
220
0
230
1
0
LINE
5
A8
100
AcDbEntity
8
1
62
256
6
ByLayer
370
18
48
1
60
0
100
AcDbLine
10
40.958303
20
14.245303
30
0
11
36.135352
21
14.245303
31
0
39
0
210
0
220
0
230
1
0
LINE
5
A9
100
AcDbEntity
8
1
62
256
6
ByLayer
370
18
48
1
60
0
100
AcDbLine
10
38.73
20
17.600244
30
0
11
40.68649
21
17.600244
31
0
39
0
210
0
220
0
230
1
0
LINE
5
AA
100
AcDbEntity
8
1
62
256
6
ByLayer
370
18
48
1
60
0
100
AcDbLine
10
27.143731
20
17.623757
30
0
11
27.765482
21
17.645455
31
0
39
0
210
0
220
0
230
1
0
LINE
5
AB
100
AcDbEntity
8
1
62
256
6
ByLayer
370
18
48
1
60
0
100
AcDbLine
10
27.765482
20
17.645455
30
0
11
37.434518
21
17.645455
31
0
39
0
210
0
220
0
230
1
0
LINE
5
AC
100
AcDbEntity
8
1
62
256
6
ByLayer
370
18
48
1
60
0
100
AcDbLine
10
38.73
20
17.600244
30
0
11
37.434518
21
17.645455
31
0
39
0
210
0
220
0
230
1
0
LINE
5
AD
100
AcDbEntity
8
1
62
256
6
ByLayer
370
18
48
1
60
0
100
AcDbLine
10
9.863043
20
-0.324981
30
0
11
11.476486
21
-0.324981
31
0
39
0
210
0
220
0
230
1
0
LINE
5
AE
100
AcDbEntity
8
1
62
256
6
ByLayer
370
18
48
1
60
0
100
AcDbLine
10
11.476746
20
-0.324981
30
0
11
11.592073
21
-0.324981
31
0
39
0
210
0
220
0
230
1
0
LINE
5
AF
100
AcDbEntity
8
1
62
256
6
ByLayer
370
18
48
1
60
0
100
AcDbLine
10
44.1
20
13.949856
30
0
11
44.1
21
12.772936
31
0
39
0
210
0
220
0
230
1
0
LINE
5
B0
100
AcDbEntity
8
1
62
256
6
ByLayer
370
18
48
1
60
0
100
AcDbLine
10
37.033824
20
3.765924
30
0
11
27.1
21
3.765924
31
0
39
0
210
0
220
0
230
1
0
LINE
5
B1
100
AcDbEntity
8
1
62
256
6
ByLayer
370
18
48
1
60
0
100
AcDbLine
10
35.4362
20
13.941129
30
0
11
33.670103
21
13.941129
31
0
39
0
210
0
220
0
230
1
0
LINE
5
B2
100
AcDbEntity
8
1
62
256
6
ByLayer
370
18
48
1
60
0
100
AcDbLine
10
35.4362
20
13.941129
30
0
11
35.435772
21
14.182142
31
0
39
0
210
0
220
0
230
1
0
LINE
5
B3
100
AcDbEntity
8
1
62
256
6
ByLayer
370
18
48
1
60
0
100
AcDbLine
10
44.1
20
13.949856
30
0
11
44.1
21
14.032697
31
0
39
0
210
0
220
0
230
1
0
LINE
5
B4
100
AcDbEntity
8
1
62
256
6
ByLayer
370
18
48
1
60
0
100
AcDbLine
10
37.905822
20
13.949856
30
0
11
37.905298
21
14.245323
31
0
39
0
210
0
220
0
230
1
0
LINE
5
B5
100
AcDbEntity
8
1
62
256
6
ByLayer
370
18
48
1
60
0
100
AcDbLine
10
44.1
20
13.949856
30
0
11
37.905822
21
13.949856
31
0
39
0
210
0
220
0
230
1
0
LINE
5
B6
100
AcDbEntity
8
1
62
256
6
ByLayer
370
18
48
1
60
0
100
AcDbLine
10
11.700309
20
-0.324981
30
0
11
12.078907
21
-0.324981
31
0
39
0
210
0
220
0
230
1
0
LINE
5
B7
100
AcDbEntity
8
1
62
256
6
ByLayer
370
13
48
1
60
0
100
AcDbLine
10
27.1
20
12.356742
30
0
11
27.1
21
3.765924
31
0
39
0
210
0
220
0
230
1
0
LINE
5
B8
100
AcDbEntity
8
1
62
256
6
ByLayer
370
18
48
1
60
0
100
AcDbLine
10
12.159145
20
-0.324981
30
0
11
18.777518
21
-0.324981
31
0
39
0
210
0
220
0
230
1
0
LINE
5
B9
100
AcDbEntity
8
1
62
256
6
ByLayer
370
18
48
1
60
0
100
AcDbLine
10
10.085407
20
-0.25
30
0
11
12.112448
21
-0.25
31
0
39
0
210
0
220
0
230
1
0
LINE
5
BA
100
AcDbEntity
8
1
62
256
6
ByLayer
370
13
48
1
60
0
100
AcDbLine
10
10.085505
20
-0.249981
30
0
11
18.872922
21
-0.249981
31
0
39
0
210
0
220
0
230
1
0
LINE
5
BB
100
AcDbEntity
8
1
62
256
6
ByLayer
370
18
48
1
60
0
100
AcDbLine
10
19.287063
20
0.129904
30
0
11
10.971714
21
0.129904
31
0
39
0
210
0
220
0
230
1
0
LINE
5
BC
100
AcDbEntity
8
1
62
256
6
ByLayer
370
18
48
1
60
0
100
AcDbLine
10
-17.993925
20
-0.324981
30
0
11
-17.500052
21
-0.324981
31
0
39
0
210
0
220
0
230
1
0
LINE
5
BD
100
AcDbEntity
8
1
62
256
6
ByLayer
370
18
48
1
60
0
100
AcDbLine
10
-12.088254
20
-0.324981
30
0
11
-11.914321
21
-0.324981
31
0
39
0
210
0
220
0
230
1
0
LINE
5
BE
100
AcDbEntity
8
1
62
256
6
ByLayer
370
13
48
1
60
0
100
AcDbLine
10
-18.028729
20
-0.249981
30
0
11
-17.635485
21
-0.249981
31
0
39
0
210
0
220
0
230
1
0
LINE
5
BF
100
AcDbEntity
8
1
62
256
6
ByLayer
370
13
48
1
60
0
100
AcDbLine
10
-18.581248
20
0.394519
30
0
11
-18.473911
21
0.394519
31
0
39
0
210
0
220
0
230
1
0
LINE
5
C0
100
AcDbEntity
8
1
62
256
6
ByLayer
370
18
48
1
60
0
100
AcDbLine
10
-17.413473
20
-0.324981
30
0
11
-16.786972
21
-0.324981
31
0
39
0
210
0
220
0
230
1
0
LINE
5
C1
100
AcDbEntity
8
1
62
256
6
ByLayer
370
18
48
1
60
0
100
AcDbLine
10
-13.593357
20
-0.324981
30
0
11
-13.533459
21
-0.324981
31
0
39
0
210
0
220
0
230
1
0
LINE
5
C2
100
AcDbEntity
8
1
62
256
6
ByLayer
370
13
48
1
60
0
100
AcDbLine
10
-17.438264
20
-0.249981
30
0
11
-16.939731
21
-0.249981
31
0
39
0
210
0
220
0
230
1
0
LINE
5
C3
100
AcDbEntity
8
1
62
256
6
ByLayer
370
13
48
1
60
0
100
AcDbLine
10
-17.977888
20
0.394519
30
0
11
-17.842224
21
0.394519
31
0
39
0
210
0
220
0
230
1
0
LINE
5
C4
100
AcDbEntity
8
1
62
256
6
ByLayer
370
18
48
1
60
0
100
AcDbLine
10
-16.678631
20
-0.324981
30
0
11
-15.90146
21
-0.324981
31
0
39
0
210
0
220
0
230
1
0
LINE
5
C5
100
AcDbEntity
8
1
62
256
6
ByLayer
370
13
48
1
60
0
100
AcDbLine
10
-16.692843
20
-0.249981
30
0
11
-16.07471
21
-0.249981
31
0
39
0
210
0
220
0
230
1
0
LINE
5
C6
100
AcDbEntity
8
1
62
256
6
ByLayer
370
13
48
1
60
0
100
AcDbLine
10
-17.223418
20
0.394519
30
0
11
-17.055876
21
0.394519
31
0
39
0
210
0
220
0
230
1
0
LINE
5
C7
100
AcDbEntity
8
1
62
256
6
ByLayer
370
18
48
1
60
0
100
AcDbLine
10
-15.767828
20
-0.324981
30
0
11
-14.812472
21
-0.324981
31
0
39
0
210
0
220
0
230
1
0
LINE
5
C8
100
AcDbEntity
8
1
62
256
6
ByLayer
370
13
48
1
60
0
100
AcDbLine
10
-15.77051
20
-0.249981
30
0
11
-15.011304
21
-0.249981
31
0
39
0
210
0
220
0
230
1
0
LINE
5
C9
100
AcDbEntity
8
1
62
256
6
ByLayer
370
13
48
1
60
0
100
AcDbLine
10
-16.296865
20
0.394519
30
0
11
-16.09229
21
0.394519
31
0
39
0
210
0
220
0
230
1
0
LINE
5
CA
100
AcDbEntity
8
1
62
256
6
ByLayer
370
18
48
1
60
0
100
AcDbLine
10
-14.64828
20
-0.324981
30
0
11
-13.593304
21
-0.324981
31
0
39
0
210
0
220
0
230
1
0
LINE
5
CB
100
AcDbEntity
8
1
62
256
6
ByLayer
370
13
48
1
60
0
100
AcDbLine
10
-14.637861
20
-0.249981
30
0
11
-13.703342
21
-0.249981
31
0
39
0
210
0
220
0
230
1
0
LINE
5
CC
100
AcDbEntity
8
1
62
256
6
ByLayer
370
13
48
1
60
0
100
AcDbLine
10
-15.166723
20
0.394519
30
0
11
-14.917111
21
0.394519
31
0
39
0
210
0
220
0
230
1
0
LINE
5
CD
100
AcDbEntity
8
1
62
256
6
ByLayer
370
18
48
1
60
0
100
AcDbLine
10
-13.267245
20
-0.324981
30
0
11
-12.088194
21
-0.324981
31
0
39
0
210
0
220
0
230
1
0
LINE
5
CE
100
AcDbEntity
8
1
62
256
6
ByLayer
370
13
48
1
60
0
100
AcDbLine
10
-13.241033
20
-0.249981
30
0
11
-12.071604
21
-0.249981
31
0
39
0
210
0
220
0
230
1
0
LINE
5
CF
100
AcDbEntity
8
1
62
256
6
ByLayer
370
13
48
1
60
0
100
AcDbLine
10
-13.783002
20
0.394519
30
0
11
-13.474849
21
0.394519
31
0
39
0
210
0
220
0
230
1
0
LINE
5
D0
100
AcDbEntity
8
1
62
256
6
ByLayer
370
18
48
1
60
0
100
AcDbLine
10
13.932861
20
0.675
30
0
11
13.198176
21
0.675
31
0
39
0
210
0
220
0
230
1
0
LINE
5
D1
100
AcDbEntity
8
1
62
256
6
ByLayer
370
18
48
1
60
0
100
AcDbLine
10
14.272209
20
1.375
30
0
11
14.39618
21
1.375
31
0
39
0
210
0
220
0
230
1
0
LINE
5
D2
100
AcDbEntity
8
1
62
256
6
ByLayer
370
18
48
1
60
0
100
AcDbLine
10
13.932861
20
0.675
30
0
11
13.932861
21
0.875
31
0
39
0
210
0
220
0
230
1
0
LINE
5
D3
100
AcDbEntity
8
1
62
256
6
ByLayer
370
18
48
1
60
0
100
AcDbLine
10
6.439659
20
16.372125
30
0
11
6.439659
21
16.829499
31
0
39
0
210
0
220
0
230
1
0
LINE
5
D4
100
AcDbEntity
8
1
62
256
6
ByLayer
370
18
48
1
60
0
100
AcDbLine
10
21.312101
20
1.375
30
0
11
14.39618
21
1.375
31
0
39
0
210
0
220
0
230
1
0
LINE
5
D5
100
AcDbEntity
8
1
62
256
6
ByLayer
370
18
48
1
60
0
100
AcDbLine
10
14.39618
20
12.407888
30
0
11
14.39618
21
1.375
31
0
39
0
210
0
220
0
230
1
0
LINE
5
D6
100
AcDbEntity
8
1
62
256
6
ByLayer
370
18
48
1
60
0
100
AcDbLine
10
21.312101
20
1.375
30
0
11
25.5
21
1.375
31
0
39
0
210
0
220
0
230
1
0
LINE
5
D7
100
AcDbEntity
8
1
62
256
6
ByLayer
370
18
48
1
60
0
100
AcDbLine
10
21.312101
20
1.375
30
0
11
21.312101
21
2.744147
31
0
39
0
210
0
220
0
230
1
0
LINE
5
D8
100
AcDbEntity
8
1
62
256
6
ByLayer
370
18
48
1
60
0
100
AcDbLine
10
25.5
20
1.375
30
0
11
25.5
21
9.980073
31
0
39
0
210
0
220
0
230
1
0
LINE
5
D9
100
AcDbEntity
8
1
62
256
6
ByLayer
370
18
48
1
60
0
100
AcDbLine
10
33.6
20
17.230456
30
0
11
33.6
21
13.929125
31
0
39
0
210
0
220
0
230
1
0
LINE
5
DA
100
AcDbEntity
8
1
62
256
6
ByLayer
370
18
48
1
60
0
100
AcDbLine
10
21.312101
20
11.45756
30
0
11
21.312101
21
12.407888
31
0
39
0
210
0
220
0
230
1
0
LINE
5
DB
100
AcDbEntity
8
1
62
256
6
ByLayer
370
18
48
1
60
0
100
AcDbLine
10
-7.970065
20
17.129935
30
0
11
-12.42385
21
12.67615
31
0
39
0
210
0
220
0
230
1
0
LINE
5
DC
100
AcDbEntity
8
1
62
256
6
ByLayer
370
18
48
1
60
0
100
AcDbLine
10
-11.531153
20
-0.324981
30
0
11
-9.594947
21
-0.324981
31
0
39
0
210
0
220
0
230
1
0
LINE
5
DD
100
AcDbEntity
8
1
62
256
6
ByLayer
370
13
48
1
60
0
100
AcDbLine
10
-11.48403
20
-0.249981
30
0
11
-9.957988
21
-0.249981
31
0
39
0
210
0
220
0
230
1
0
LINE
5
DE
100
AcDbEntity
8
1
62
256
6
ByLayer
370
13
48
1
60
0
100
AcDbLine
10
9.958064
20
-0.249981
30
0
11
10.085459
21
-0.249981
31
0
39
0
210
0
220
0
230
1
0
LINE
5
DF
100
AcDbEntity
8
1
62
256
6
ByLayer
370
13
48
1
60
0
100
AcDbLine
10
-12.058724
20
0.394519
30
0
11
-11.667722
21
0.394519
31
0
39
0
210
0
220
0
230
1
0
LINE
5
E0
100
AcDbEntity
8
1
62
256
6
ByLayer
370
18
48
1
60
0
100
AcDbLine
10
-9.242033
20
-0.324981
30
0
11
-6.372959
21
-0.324981
31
0
39
0
210
0
220
0
230
1
0
LINE
5
E1
100
AcDbEntity
8
1
62
256
6
ByLayer
370
18
48
1
60
0
100
AcDbLine
10
6.372959
20
-0.324981
30
0
11
9.242033
21
-0.324981
31
0
39
0
210
0
220
0
230
1
0
LINE
5
E2
100
AcDbEntity
8
1
62
256
6
ByLayer
370
13
48
1
60
0
100
AcDbLine
10
-9.161928
20
-0.249981
30
0
11
-6.935866
21
-0.249981
31
0
39
0
210
0
220
0
230
1
0
LINE
5
E3
100
AcDbEntity
8
1
62
256
6
ByLayer
370
13
48
1
60
0
100
AcDbLine
10
6.935866
20
-0.249981
30
0
11
9.161928
21
-0.249981
31
0
39
0
210
0
220
0
230
1
0
LINE
5
E4
100
AcDbEntity
8
1
62
256
6
ByLayer
370
13
48
1
60
0
100
AcDbLine
10
-9.816033
20
0.394519
30
0
11
-9.284126
21
0.394519
31
0
39
0
210
0
220
0
230
1
0
LINE
5
E5
100
AcDbEntity
8
1
62
256
6
ByLayer
370
13
48
1
60
0
100
AcDbLine
10
9.284126
20
0.394519
30
0
11
9.816033
21
0.394519
31
0
39
0
210
0
220
0
230
1
0
LINE
5
E6
100
AcDbEntity
8
1
62
256
6
ByLayer
370
18
48
1
60
0
100
AcDbLine
10
-5.776059
20
-0.324981
30
0
11
5.776059
21
-0.324981
31
0
39
0
210
0
220
0
230
1
0
LINE
5
E7
100
AcDbEntity
8
1
62
256
6
ByLayer
370
13
48
1
60
0
100
AcDbLine
10
-5.612388
20
-0.249981
30
0
11
5.612388
21
-0.249981
31
0
39
0
210
0
220
0
230
1
0
LINE
5
E8
100
AcDbEntity
8
1
62
256
6
ByLayer
370
13
48
1
60
0
100
AcDbLine
10
-6.541878
20
0.394519
30
0
11
-5.63501
21
0.394519
31
0
39
0
210
0
220
0
230
1
0
LINE
5
E9
100
AcDbEntity
8
1
62
256
6
ByLayer
370
13
48
1
60
0
100
AcDbLine
10
5.63501
20
0.394519
30
0
11
6.541878
21
0.394519
31
0
39
0
210
0
220
0
230
1
0
LINE
5
EA
100
AcDbEntity
8
1
62
256
6
ByLayer
370
18
48
1
60
0
100
AcDbLine
10
-19
20
0.675
30
0
11
-19
21
0.875
31
0
39
0
210
0
220
0
230
1
0
LINE
5
EB
100
AcDbEntity
8
1
62
256
6
ByLayer
370
18
48
1
60
0
100
AcDbLine
10
11.871309
20
0.675
30
0
11
13.198251
21
0.675
31
0
39
0
210
0
220
0
230
1
0
LINE
5
EC
100
AcDbEntity
8
1
62
256
6
ByLayer
370
18
48
1
60
0
100
AcDbLine
10
13.198251
20
0.875
30
0
11
13.198251
21
0.675
31
0
39
0
210
0
220
0
230
1
0
LINE
5
ED
100
AcDbEntity
8
1
62
256
6
ByLayer
370
18
48
1
60
0
100
AcDbLine
10
-13.020448
20
12.079552
30
0
11
-19
21
6.1
31
0
39
0
210
0
220
0
230
1
0
LINE
5
EE
100
AcDbEntity
8
1
62
256
6
ByLayer
370
18
48
1
60
0
100
AcDbLine
10
-19
20
6.1
30
0
11
-19
21
1.092945
31
0
39
0
210
0
220
0
230
1
0
LINE
5
EF
100
AcDbEntity
8
1
62
256
6
ByLayer
370
13
48
1
60
0
100
AcDbLine
10
13.198251
20
0.875
30
0
11
-19
21
0.875
31
0
39
0
210
0
220
0
230
1
0
LINE
5
F0
100
AcDbEntity
8
1
62
256
6
ByLayer
370
18
48
1
60
0
100
AcDbLine
10
0
20
1.092945
30
0
11
-19
21
1.092945
31
0
39
0
210
0
220
0
230
1
0
LINE
5
F1
100
AcDbEntity
8
1
62
256
6
ByLayer
370
13
48
1
60
0
100
AcDbLine
10
0
20
6.527737
30
0
11
0
21
1.092945
31
0
39
0
210
0
220
0
230
1
0
LINE
5
F2
100
AcDbEntity
8
1
62
256
6
ByLayer
370
18
48
1
60
0
100
AcDbLine
10
8.2521
20
1.375
30
0
11
4.271709
21
1.375
31
0
39
0
210
0
220
0
230
1
0
LINE
5
F3
100
AcDbEntity
8
1
62
256
6
ByLayer
370
18
48
1
60
0
100
AcDbLine
10
-12.418743
20
12.681257
30
0
11
-13.020448
21
12.079552
31
0
39
0
210
0
220
0
230
1
0
LINE
5
F4
100
AcDbEntity
8
1
62
256
6
ByLayer
370
18
48
1
60
0
100
AcDbLine
10
8.2521
20
6.527737
30
0
11
0
21
6.527737
31
0
39
0
210
0
220
0
230
1
0
LINE
5
F5
100
AcDbEntity
8
1
62
256
6
ByLayer
370
18
48
1
60
0
100
AcDbLine
10
21.312101
20
12.407888
30
0
11
14.39618
21
12.407888
31
0
39
0
210
0
220
0
230
1
0
LINE
5
F6
100
AcDbEntity
8
1
62
256
6
ByLayer
370
18
48
1
60
0
100
AcDbLine
10
21.35
20
17.599035
30
0
11
22.65
21
17.599035
31
0
39
0
210
0
220
0
230
1
0
LINE
5
F7
100
AcDbEntity
8
1
62
256
6
ByLayer
370
18
48
1
60
0
100
AcDbLine
10
8.2521
20
6.527737
30
0
11
8.2521
21
1.375
31
0
39
0
210
0
220
0
230
1
0
LINE
5
F8
100
AcDbEntity
8
1
62
256
6
ByLayer
370
18
48
1
60
0
100
AcDbLine
10
11.008951
20
1.375
30
0
11
8.2521
21
1.375
31
0
39
0
210
0
220
0
230
1
0
LINE
5
F9
100
AcDbEntity
8
1
62
256
6
ByLayer
370
18
48
1
60
0
100
AcDbLine
10
13.235223
20
1.10195
30
0
11
13.235223
21
12.230317
31
0
39
0
210
0
220
0
230
1
0
LINE
5
FA
100
AcDbEntity
8
1
62
256
6
ByLayer
370
18
48
1
60
0
100
AcDbLine
10
-17.993925
20
-0.324981
30
0
11
-18.000019
21
-0.324981
31
0
39
0
210
0
220
0
230
1
0
LINE
5
FB
100
AcDbEntity
8
1
62
256
6
ByLayer
370
18
48
1
60
0
100
AcDbLine
10
-17.413473
20
-0.324981
30
0
11
-17.50006
21
-0.324981
31
0
39
0
210
0
220
0
230
1
0
LINE
5
FC
100
AcDbEntity
8
1
62
256
6
ByLayer
370
18
48
1
60
0
100
AcDbLine
10
-16.678631
20
-0.324981
30
0
11
-16.787031
21
-0.324981
31
0
39
0
210
0
220
0
230
1
0
LINE
5
FD
100
AcDbEntity
8
1
62
256
6
ByLayer
370
18
48
1
60
0
100
AcDbLine
10
-15.767828
20
-0.324981
30
0
11
-15.901469
21
-0.324981
31
0
39
0
210
0
220
0
230
1
0
LINE
5
FE
100
AcDbEntity
8
1
62
256
6
ByLayer
370
18
48
1
60
0
100
AcDbLine
10
-14.64828
20
-0.324981
30
0
11
-14.812462
21
-0.324981
31
0
39
0
210
0
220
0
230
1
0
LINE
5
FF
100
AcDbEntity
8
1
62
256
6
ByLayer
370
18
48
1
60
0
100
AcDbLine
10
-13.267245
20
-0.324981
30
0
11
-13.470759
21
-0.324981
31
0
39
0
210
0
220
0
230
1
0
LINE
5
100
100
AcDbEntity
8
1
62
256
6
ByLayer
370
18
48
1
60
0
100
AcDbLine
10
-11.531153
20
-0.324981
30
0
11
-11.790405
21
-0.324981
31
0
39
0
210
0
220
0
230
1
0
LINE
5
101
100
AcDbEntity
8
1
62
256
6
ByLayer
370
18
48
1
60
0
100
AcDbLine
10
-9.242033
20
-0.324981
30
0
11
-9.595101
21
-0.324981
31
0
39
0
210
0
220
0
230
1
0
LINE
5
102
100
AcDbEntity
8
1
62
256
6
ByLayer
370
18
48
1
60
0
100
AcDbLine
10
-5.776059
20
-0.324981
30
0
11
-6.373247
21
-0.324981
31
0
39
0
210
0
220
0
230
1
0
LINE
5
103
100
AcDbEntity
8
1
62
256
6
ByLayer
370
18
48
1
60
0
100
AcDbLine
10
6.373247
20
-0.324981
30
0
11
5.776059
21
-0.324981
31
0
39
0
210
0
220
0
230
1
0
LINE
5
104
100
AcDbEntity
8
1
62
256
6
ByLayer
370
18
48
1
60
0
100
AcDbLine
10
9.595101
20
-0.324981
30
0
11
9.242033
21
-0.324981
31
0
39
0
210
0
220
0
230
1
0
LINE
5
105
100
AcDbEntity
8
1
62
256
6
ByLayer
370
18
48
1
60
0
100
AcDbLine
10
-19
20
0.675
30
0
11
11.871309
21
0.675
31
0
39
0
210
0
220
0
230
1
0
LINE
5
106
100
AcDbEntity
8
1
62
256
6
ByLayer
370
18
48
1
60
0
100
AcDbLine
10
20
20
0.675
30
0
11
13.932861
21
0.675
31
0
39
0
210
0
220
0
230
1
0
LINE
5
107
100
AcDbEntity
8
1
62
256
6
ByLayer
370
13
48
1
60
0
100
AcDbLine
10
20
20
0.875
30
0
11
13.932861
21
0.875
31
0
39
0
210
0
220
0
230
1
0
LINE
5
108
100
AcDbEntity
8
1
62
256
6
ByLayer
370
18
48
1
60
0
100
AcDbLine
10
-7.423782
20
17.676218
30
0
11
-7.970065
21
17.129935
31
0
39
0
210
0
220
0
230
1
0
MTEXT
5
1A6
100
AcDbEntity
8
SK6
62
256
6
ByLayer
370
18
48
1
60
0
100
AcDbMText
10
-19.2645
20
-47.717366
30
0
210
0
220
0
230
1
1
\W0.7948;C2A-SL40-LGH18A-040GB
40
3.5
41
0
44
1.084337
50
0
71
7
72
5
7
iso_b_vert
0
DIMENSION
5
1AB
100
AcDbEntity
8
2
62
256
6
ByLayer
370
18
48
1
60
0
100
AcDbDimension
2
_U0
10
45.1
20
-19.75
30
0
11
22.55
21
-19.75
31
0
70
32
71
1
72
1
41
1
210
0
220
0
230
1
3
Standard
100
AcDbAlignedDimension
13
0
23
0
33
0
14
45.1
24
18
34
0
50
0
100
AcDbRotatedDimension
1001
ACAD
1000
DSTYLE
1002
{
1070
   371
1070
    13
1070
   372
1070
    13
1070
   170
1070
     0
1070
   144
1040
1.0
1070
   277
1070
     2
1070
   284
1070
     8
1070
   278
1070
    46
1070
   146
1040
1.0
1070
   345
1005
16
1070
   347
1005
16
1070
   346
1005
16
1070
   344
1005
0
1070
   343
1005
0
1070
   172
1070
     1
1070
    76
1070
     0
1070
    75
1070
     0
1070
   282
1070
     0
1070
   281
1070
     0
1070
    71
1070
     0
1070
    74
1070
     0
1070
   279
1070
     0
1070
   173
1070
     1
1070
   340
1005
1A7
1070
   271
1070
     2
1070
   272
1070
     2
1070
    77
1070
     1
1070
    73
1070
     1
1070
   171
1070
     3
1070
   274
1070
     4
1070
   177
1070
     2
1070
   176
1070
     2
1070
   178
1070
     2
1070
    78
1070
     8
1070
    48
1040
-0.1
1070
    41
1040
3.5
1070
   147
1040
1.75
1070
    42
1040
1.5875
1070
    44
1040
2.0
1070
   140
1040
3.5
1002
}
1001
ACAD_DSTYLE_DIM_LINETYPE
1070
   380
1005
16
1001
ACAD_DSTYLE_DIM_EXT1_LINETYPE
1070
   381
1005
16
1001
ACAD_DSTYLE_DIM_EXT2_LINETYPE
1070
   382
1005
16
0
DIMENSION
5
1C5
100
AcDbEntity
8
2
62
256
6
ByLayer
370
18
48
1
60
0
100
AcDbDimension
2
_U1
10
45.1
20
-11.75
30
0
11
36.1
21
-11.75
31
0
70
32
71
1
72
1
41
1
210
0
220
0
230
1
3
Standard
100
AcDbAlignedDimension
13
27.1
23
14.326218
33
0
14
45.1
24
18
34
0
50
0
100
AcDbRotatedDimension
1001
ACAD
1000
DSTYLE
1002
{
1070
   371
1070
    13
1070
   372
1070
    13
1070
   170
1070
     0
1070
   144
1040
1.0
1070
   277
1070
     2
1070
   284
1070
     8
1070
   278
1070
    46
1070
   146
1040
1.0
1070
   345
1005
16
1070
   347
1005
16
1070
   346
1005
16
1070
   344
1005
0
1070
   343
1005
0
1070
   172
1070
     1
1070
    76
1070
     0
1070
    75
1070
     0
1070
   282
1070
     0
1070
   281
1070
     0
1070
    71
1070
     0
1070
    74
1070
     0
1070
   279
1070
     0
1070
   173
1070
     1
1070
   340
1005
1A7
1070
   271
1070
     2
1070
   272
1070
     2
1070
    77
1070
     1
1070
    73
1070
     1
1070
   171
1070
     3
1070
   274
1070
     4
1070
   177
1070
     2
1070
   176
1070
     2
1070
   178
1070
     2
1070
    78
1070
     8
1070
    48
1040
-0.1
1070
    41
1040
3.5
1070
   147
1040
1.75
1070
    42
1040
1.5875
1070
    44
1040
2.0
1070
   140
1040
3.5
1002
}
1001
ACAD_DSTYLE_DIM_LINETYPE
1070
   380
1005
16
1001
ACAD_DSTYLE_DIM_EXT1_LINETYPE
1070
   381
1005
16
1001
ACAD_DSTYLE_DIM_EXT2_LINETYPE
1070
   382
1005
16
0
DIMENSION
5
1DD
100
AcDbEntity
8
2
62
256
6
ByLayer
370
18
48
1
60
0
100
AcDbDimension
2
_U2
10
69.85
20
0
30
0
11
69.85
21
9
31
0
70
32
71
1
72
1
41
1
210
0
220
0
230
1
3
Standard
100
AcDbAlignedDimension
13
45.1
23
18
33
0
14
0
24
0
34
0
50
90
100
AcDbRotatedDimension
1001
ACAD
1000
DSTYLE
1002
{
1070
   371
1070
    13
1070
   372
1070
    13
1070
   170
1070
     0
1070
   144
1040
1.0
1070
   277
1070
     2
1070
   284
1070
     8
1070
   278
1070
    46
1070
   146
1040
1.0
1070
   345
1005
16
1070
   347
1005
16
1070
   346
1005
16
1070
   344
1005
0
1070
   343
1005
0
1070
   172
1070
     1
1070
    76
1070
     0
1070
    75
1070
     0
1070
   282
1070
     0
1070
   281
1070
     0
1070
    71
1070
     0
1070
    74
1070
     0
1070
   279
1070
     0
1070
   173
1070
     1
1070
   340
1005
1A7
1070
   271
1070
     2
1070
   272
1070
     2
1070
    77
1070
     1
1070
    73
1070
     0
1070
   171
1070
     3
1070
   274
1070
     4
1070
   177
1070
     2
1070
   176
1070
     2
1070
   178
1070
     2
1070
    78
1070
     8
1070
    48
1040
-0.1
1070
    41
1040
3.5
1070
   147
1040
1.75
1070
    42
1040
1.5875
1070
    44
1040
2.0
1070
   140
1040
3.5
1002
}
1001
ACAD_DSTYLE_DIM_LINETYPE
1070
   380
1005
16
1001
ACAD_DSTYLE_DIM_EXT1_LINETYPE
1070
   381
1005
16
1001
ACAD_DSTYLE_DIM_EXT2_LINETYPE
1070
   382
1005
16
0
DIMENSION
5
1F5
100
AcDbEntity
8
2
62
256
6
ByLayer
370
18
48
1
60
0
100
AcDbDimension
2
_U3
10
56.85
20
14
30
0
11
56.85
21
16
31
0
70
32
71
1
72
1
41
1
210
0
220
0
230
1
3
Standard
100
AcDbAlignedDimension
13
45.1
23
18
33
0
14
45.1
24
14
34
0
50
90
100
AcDbRotatedDimension
1001
ACAD
1000
DSTYLE
1002
{
1070
   371
1070
    13
1070
   372
1070
    13
1070
   170
1070
     0
1070
   144
1040
1.0
1070
   277
1070
     2
1070
   284
1070
     8
1070
   278
1070
    46
1070
   146
1040
1.0
1070
   345
1005
16
1070
   347
1005
16
1070
   346
1005
16
1070
   344
1005
0
1070
   343
1005
0
1070
   172
1070
     1
1070
    76
1070
     0
1070
    75
1070
     0
1070
   282
1070
     0
1070
   281
1070
     0
1070
    71
1070
     0
1070
    74
1070
     0
1070
   279
1070
     0
1070
   173
1070
     1
1070
   340
1005
1A7
1070
   271
1070
     2
1070
   272
1070
     2
1070
    77
1070
     1
1070
    73
1070
     0
1070
   171
1070
     3
1070
   274
1070
     4
1070
   177
1070
     2
1070
   176
1070
     2
1070
   178
1070
     2
1070
    78
1070
     8
1070
    48
1040
-0.1
1070
    41
1040
3.5
1070
   147
1040
1.75
1070
    42
1040
1.5875
1070
    44
1040
2.0
1070
   140
1040
3.5
1002
}
1001
ACAD_DSTYLE_DIM_LINETYPE
1070
   380
1005
16
1001
ACAD_DSTYLE_DIM_EXT1_LINETYPE
1070
   381
1005
16
1001
ACAD_DSTYLE_DIM_EXT2_LINETYPE
1070
   382
1005
16
0
ENDSEC
0
SECTION
2
OBJECTS
0
DICTIONARY
5
27b
330
0
100
AcDbDictionary
280
0
281
1
3
ACAD_GROUP
350
27c
3
ACAD_MLINESTYLE
350
27d
0
DICTIONARY
5
27c
330
0
100
AcDbDictionary
280
0
281
1
0
DICTIONARY
5
27d
330
0
100
AcDbDictionary
280
0
281
1
3
Standard
350
18
0
MLINESTYLE
5
18
330
27d
100
AcDbMlineStyle
2
Standard
70
0
3

62
256
51
90
52
90
71
2
49
-0.5
62
256
6
ByLayer
49
0.5
62
256
6
ByLayer
0
RASTERVARIABLES
5
26c
330

100
AcDbRasterVariables
90
0
70
1
71
1
72
1
0
ENDSEC
0
EOF
