0
SECTION
2
HEADER
9
$ACADVER
1
AC1015
9
$DWGCODEPAGE
3
ANSI_1252
9
$HANDSEED
5
271
9
$ANGBASE
50
0
9
$ANGDIR
70
0
9
$ATTMODE
70
1
9
$AUNITS
70
0
9
$AUPREC
70
0
9
$CECOLOR
62
256
9
$CELTSCALE
40
1
9
$CELTYPE
6
ByLayer
9
$CELWEIGHT
370
18
9
$CLAYER
8
0
9
$CMLJUST
70
0
9
$CMLSCALE
40
1
9
$CMLSTYLE
2
Standard
9
$DIMSTYLE
2
Standard
9
$TEXTSIZE
40
0.2
9
$TEXTSTYLE
7
Standard
9
$LUNITS
70
2
9
$LUPREC
70
4
9
$EXTNAMES
290
1
9
$INSUNITS
70
4
9
$LTSCALE
40
1
9
$LWDISPLAY
290
1
9
$PDMODE
70
0
9
$PDSIZE
40
0
9
$PLINEGEN
70
0
0
ENDSEC
0
SECTION
2
CLASSES
0
CLASS
1
RASTERVARIABLES
2
AcDbRasterVariables
3
ISM
90
0
280
0
281
0
0
ENDSEC
0
SECTION
2
TABLES
0
TABLE
2
VPORT
5
267
100
AcDbSymbolTable
0
VPORT
5
1
100
AcDbSymbolTableRecord
100
AcDbViewportTableRecord
2
*Active
70
0
10
0
20
0
11
1
21
1
12
-1
22
1
13
0
23
0
14
0.5
24
0.5
15
10
25
10
16
0
26
0
36
1
17
0
27
0
37
0
0
ENDTAB
0
TABLE
2
LTYPE
5
268
100
AcDbSymbolTable
0
LTYPE
5
14
100
AcDbSymbolTableRecord
100
AcDbLinetypeTableRecord
70
0
2
ByBlock
3

72
65
73
0
40
0
0
LTYPE
5
15
100
AcDbSymbolTableRecord
100
AcDbLinetypeTableRecord
70
0
2
ByLayer
3

72
65
73
0
40
0
0
LTYPE
5
16
100
AcDbSymbolTableRecord
100
AcDbLinetypeTableRecord
70
0
2
Continuous
3
Solid line
72
65
73
0
40
0
0
LTYPE
5
6E
100
AcDbSymbolTableRecord
100
AcDbLinetypeTableRecord
70
0
2
CENTER
3
____ _ ____ _ ____ _ ____
72
65
73
4
40
47.5
49
22
74
0
49
-8.5
74
0
49
8.5
74
0
49
-8.5
74
0
0
LTYPE
5
6F
100
AcDbSymbolTableRecord
100
AcDbLinetypeTableRecord
70
0
2
DASHED
3
__ __ __ __ __ __ __ __ __
72
65
73
2
40
25.72
49
12.86
74
0
49
-12.86
74
0
0
ENDTAB
0
TABLE
2
LAYER
5
269
100
AcDbSymbolTable
0
LAYER
5
10
100
AcDbSymbolTableRecord
100
AcDbLayerTableRecord
2
0
70
0
62
7
6
Continuous
290
1
370
-3
390
0
0
LAYER
5
71
100
AcDbSymbolTableRecord
100
AcDbLayerTableRecord
2
81
70
0
62
-3
6
Continuous
290
1
370
-3
390
0
0
LAYER
5
73
100
AcDbSymbolTableRecord
100
AcDbLayerTableRecord
2
80
70
0
62
-6
6
Continuous
290
1
370
-3
390
0
0
LAYER
5
75
100
AcDbSymbolTableRecord
100
AcDbLayerTableRecord
2
1
70
0
62
4
6
Continuous
290
1
370
-3
390
0
0
LAYER
5
197
100
AcDbSymbolTableRecord
100
AcDbLayerTableRecord
2
Defpoints
70
0
62
7
6
Continuous
290
0
370
-3
390
0
0
LAYER
5
1A4
100
AcDbSymbolTableRecord
100
AcDbLayerTableRecord
2
2
70
0
62
7
6
Continuous
290
1
370
-3
390
0
0
LAYER
5
256
100
AcDbSymbolTableRecord
100
AcDbLayerTableRecord
2
SK6
70
0
62
5
6
Continuous
290
1
370
-3
390
0
0
ENDTAB
0
TABLE
2
STYLE
5
26a
100
AcDbSymbolTable
0
STYLE
5
11
100
AcDbSymbolTableRecord
100
AcDbTextStyleTableRecord
2
Standard
3
txt
70
0
71
0
40
0
41
1
42
0
50
0
0
STYLE
5
190
100
AcDbSymbolTableRecord
100
AcDbTextStyleTableRecord
2
iso_b_vert
3
simplex.shx
70
0
71
0
40
0
41
1
42
0
50
0
0
STYLE
5
191
100
AcDbSymbolTableRecord
100
AcDbTextStyleTableRecord
2
DWGDirectTextStyle
3
simplex
70
0
71
0
40
0
41
1
42
0
50
0
0
ENDTAB
0
TABLE
2
DIMSTYLE
5
26b
100
AcDbSymbolTable
100
AcDbDimStyleTable
0
DIMSTYLE
105
27
100
AcDbSymbolTableRecord
100
AcDbDimStyleTableRecord
2
Standard
70
0
3
<>
41
0.18
42
0.0625
44
0.18
140
0.18
147
0.09
73
0
74
0
77
1
271
2
275
0
278
52
280
0
340
11
0
ENDTAB
0
TABLE
2
VIEW
5
26c
100
AcDbSymbolTable
0
ENDTAB
0
TABLE
2
UCS
5
26d
100
AcDbSymbolTable
0
ENDTAB
0
TABLE
2
APPID
5
26e
100
AcDbSymbolTable
0
APPID
5
12
100
AcDbSymbolTableRecord
100
AcDbRegAppTableRecord
2
ACAD
70
0
0
APPID
5
193
100
AcDbSymbolTableRecord
100
AcDbRegAppTableRecord
2
ACAD_DSTYLE_DIMBREAK
70
0
0
APPID
5
215
100
AcDbSymbolTableRecord
100
AcDbRegAppTableRecord
2
ACAD_DSTYLE_DIM_LINETYPE
70
0
0
APPID
5
216
100
AcDbSymbolTableRecord
100
AcDbRegAppTableRecord
2
ACAD_DSTYLE_DIM_EXT1_LINETYPE
70
0
0
APPID
5
217
100
AcDbSymbolTableRecord
100
AcDbRegAppTableRecord
2
ACAD_DSTYLE_DIM_EXT2_LINETYPE
70
0
0
APPID
5
252
100
AcDbSymbolTableRecord
100
AcDbRegAppTableRecord
2
ACAD_MLEADERVER
70
0
0
ENDTAB
0
TABLE
2
BLOCK_RECORD
5
26f
100
AcDbSymbolTable
0
BLOCK_RECORD
5
1F
100
AcDbSymbolTableRecord
100
AcDbBlockTableRecord
2
*Model_Space
340
0
70
0
0
BLOCK_RECORD
5
1B
100
AcDbSymbolTableRecord
100
AcDbBlockTableRecord
2
*Paper_Space
340
0
70
0
0
BLOCK_RECORD
5
23
100
AcDbSymbolTableRecord
100
AcDbBlockTableRecord
2
*Paper_Space0
340
0
70
0
0
BLOCK_RECORD
5
198
100
AcDbSymbolTableRecord
100
AcDbBlockTableRecord
2
*D1
340
0
70
0
0
BLOCK_RECORD
5
1A5
100
AcDbSymbolTableRecord
100
AcDbBlockTableRecord
2
_U0
340
0
70
0
0
BLOCK_RECORD
5
1B1
100
AcDbSymbolTableRecord
100
AcDbBlockTableRecord
2
*D3
340
0
70
0
0
BLOCK_RECORD
5
1BD
100
AcDbSymbolTableRecord
100
AcDbBlockTableRecord
2
_U1
340
0
70
0
0
BLOCK_RECORD
5
1C9
100
AcDbSymbolTableRecord
100
AcDbBlockTableRecord
2
*D5
340
0
70
0
0
BLOCK_RECORD
5
1D5
100
AcDbSymbolTableRecord
100
AcDbBlockTableRecord
2
_U2
340
0
70
0
0
BLOCK_RECORD
5
1E1
100
AcDbSymbolTableRecord
100
AcDbBlockTableRecord
2
*D7
340
0
70
0
0
BLOCK_RECORD
5
1EE
100
AcDbSymbolTableRecord
100
AcDbBlockTableRecord
2
_U3
340
0
70
0
0
ENDTAB
0
ENDSEC
0
SECTION
2
BLOCKS
0
BLOCK
5
20
100
AcDbEntity
8
0
100
AcDbBlockBegin
2
*Model_Space
70
0
10
0
20
0
30
0
3
*Model_Space
0
ENDBLK
5
21
100
AcDbEntity
8
0
100
AcDbBlockEnd
0
BLOCK
5
1C
100
AcDbEntity
8
0
100
AcDbBlockBegin
2
*Paper_Space
70
0
10
0
20
0
30
0
3
*Paper_Space
0
ENDBLK
5
1D
100
AcDbEntity
8
0
100
AcDbBlockEnd
0
BLOCK
5
24
100
AcDbEntity
8
0
100
AcDbBlockBegin
2
*Paper_Space0
70
0
10
0
20
0
30
0
3
*Paper_Space0
0
ENDBLK
5
25
100
AcDbEntity
8
0
100
AcDbBlockEnd
0
BLOCK
5
199
100
AcDbEntity
8
0
100
AcDbBlockBegin
2
*D1
70
1
10
0
20
0
30
0
3
*D1
0
LINE
5
19B
100
AcDbEntity
8
0
62
256
6
ByLayer
370
-2
48
1
60
0
100
AcDbLine
10
0
20
1.5875
30
0
11
0
21
18.25
31
0
39
0
210
0
220
0
230
1
0
LINE
5
19C
100
AcDbEntity
8
0
62
256
6
ByLayer
370
-2
48
1
60
0
100
AcDbLine
10
41.1
20
-16.4125
30
0
11
41.1
21
18.25
31
0
39
0
210
0
220
0
230
1
0
LINE
5
19D
100
AcDbEntity
8
0
62
256
6
ByLayer
370
-2
48
1
60
0
100
AcDbLine
10
3.5
20
16.25
30
0
11
37.6
21
16.25
31
0
39
0
210
0
220
0
230
1
0
SOLID
5
19E
100
AcDbEntity
8
0
62
256
6
ByLayer
370
-1
48
1
60
0
100
AcDbTrace
10
3.5
20
16.833333
30
0
11
3.5
21
15.666667
31
0
12
0
22
16.25
32
0
13
0
23
16.25
33
0
39
0
210
0
220
0
230
1
0
SOLID
5
19F
100
AcDbEntity
8
0
62
256
6
ByLayer
370
-1
48
1
60
0
100
AcDbTrace
10
37.6
20
15.666667
30
0
11
37.6
21
16.833333
31
0
12
41.1
22
16.25
32
0
13
41.1
23
16.25
33
0
39
0
210
0
220
0
230
1
0
MTEXT
5
1A0
100
AcDbEntity
8
0
62
256
6
ByLayer
370
18
48
1
60
0
100
AcDbMText
10
20.55
20
23.25
30
0
210
0
220
0
230
1
1
\A1;41.1
40
3.5
41
0
44
1
50
0
71
5
72
5
7
iso_b_vert
0
POINT
5
1A1
100
AcDbEntity
8
Defpoints
62
0
6
ByLayer
370
-1
48
1
60
0
100
AcDbPoint
10
0
20
0
30
0
39
0
210
0
220
0
230
1
50
360
0
POINT
5
1A2
100
AcDbEntity
8
Defpoints
62
0
6
ByLayer
370
-1
48
1
60
0
100
AcDbPoint
10
41.1
20
-18
30
0
39
0
210
0
220
0
230
1
50
360
0
POINT
5
1A3
100
AcDbEntity
8
Defpoints
62
0
6
ByLayer
370
-1
48
1
60
0
100
AcDbPoint
10
41.1
20
16.25
30
0
39
0
210
0
220
0
230
1
50
360
0
ENDBLK
5
19A
100
AcDbEntity
8
0
100
AcDbBlockEnd
0
BLOCK
5
1AC
100
AcDbEntity
8
0
100
AcDbBlockBegin
2
_U0
70
0
10
0
20
0
30
0
3
_U0
0
MTEXT
5
1A6
100
AcDbEntity
8
2
62
256
6
ByLayer
370
18
48
1
60
0
100
AcDbMText
10
17.318901
20
17.282634
30
0
210
0
220
0
230
1
1
\W0.6670;41.1
40
3.5
41
0
44
1.084337
50
0
71
7
72
5
7
iso_b_vert
0
LINE
5
1A7
100
AcDbEntity
8
2
62
256
6
ByLayer
370
13
48
1
60
0
100
AcDbLine
10
0
20
1.5875
30
0
11
0
21
18.25
31
0
39
0
210
0
220
0
230
1
0
LINE
5
1A8
100
AcDbEntity
8
2
62
256
6
ByLayer
370
13
48
1
60
0
100
AcDbLine
10
41.1
20
-16.4125
30
0
11
41.1
21
18.25
31
0
39
0
210
0
220
0
230
1
0
LINE
5
1A9
100
AcDbEntity
8
2
62
256
6
ByLayer
370
13
48
1
60
0
100
AcDbLine
10
0
20
16.25
30
0
11
41.1
21
16.25
31
0
39
0
210
0
220
0
230
1
0
SOLID
5
1AA
100
AcDbEntity
8
2
62
256
6
ByLayer
370
18
48
1
60
0
100
AcDbTrace
10
0
20
16.25
30
0
11
3.499998
21
16.710784
31
0
12
3.500002
22
15.789216
32
0
13
3.500002
23
15.789216
33
0
39
0
210
0
220
0
230
1
0
SOLID
5
1AB
100
AcDbEntity
8
2
62
256
6
ByLayer
370
18
48
1
60
0
100
AcDbTrace
10
41.1
20
16.25
30
0
11
37.600002
21
15.789216
31
0
12
37.599998
22
16.710784
32
0
13
37.599998
23
16.710784
33
0
39
0
210
0
220
0
230
1
0
ENDBLK
5
1AD
100
AcDbEntity
8
0
100
AcDbBlockEnd
0
BLOCK
5
1B2
100
AcDbEntity
8
0
100
AcDbBlockBegin
2
*D3
70
1
10
0
20
0
30
0
3
*D3
0
LINE
5
1B4
100
AcDbEntity
8
0
62
256
6
ByLayer
370
-2
48
1
60
0
100
AcDbLine
10
23.1
20
-12.7375
30
0
11
23.1
21
10.25
31
0
39
0
210
0
220
0
230
1
0
LINE
5
1B5
100
AcDbEntity
8
0
62
256
6
ByLayer
370
-2
48
1
60
0
100
AcDbLine
10
41.1
20
-16.4125
30
0
11
41.1
21
10.25
31
0
39
0
210
0
220
0
230
1
0
LINE
5
1B6
100
AcDbEntity
8
0
62
256
6
ByLayer
370
-2
48
1
60
0
100
AcDbLine
10
26.6
20
8.25
30
0
11
37.6
21
8.25
31
0
39
0
210
0
220
0
230
1
0
SOLID
5
1B7
100
AcDbEntity
8
0
62
256
6
ByLayer
370
-1
48
1
60
0
100
AcDbTrace
10
26.6
20
8.833333
30
0
11
26.6
21
7.666667
31
0
12
23.1
22
8.25
32
0
13
23.1
23
8.25
33
0
39
0
210
0
220
0
230
1
0
SOLID
5
1B8
100
AcDbEntity
8
0
62
256
6
ByLayer
370
-1
48
1
60
0
100
AcDbTrace
10
37.6
20
7.666667
30
0
11
37.6
21
8.833333
31
0
12
41.1
22
8.25
32
0
13
41.1
23
8.25
33
0
39
0
210
0
220
0
230
1
0
MTEXT
5
1B9
100
AcDbEntity
8
0
62
256
6
ByLayer
370
18
48
1
60
0
100
AcDbMText
10
32.1
20
15.25
30
0
210
0
220
0
230
1
1
\A1;18
40
3.5
41
0
44
1
50
0
71
5
72
5
7
iso_b_vert
0
POINT
5
1BA
100
AcDbEntity
8
Defpoints
62
0
6
ByLayer
370
-1
48
1
60
0
100
AcDbPoint
10
23.1
20
-14.325
30
0
39
0
210
0
220
0
230
1
50
360
0
POINT
5
1BB
100
AcDbEntity
8
Defpoints
62
0
6
ByLayer
370
-1
48
1
60
0
100
AcDbPoint
10
41.1
20
-18
30
0
39
0
210
0
220
0
230
1
50
360
0
POINT
5
1BC
100
AcDbEntity
8
Defpoints
62
0
6
ByLayer
370
-1
48
1
60
0
100
AcDbPoint
10
41.1
20
8.25
30
0
39
0
210
0
220
0
230
1
50
360
0
ENDBLK
5
1B3
100
AcDbEntity
8
0
100
AcDbBlockEnd
0
BLOCK
5
1C4
100
AcDbEntity
8
0
100
AcDbBlockBegin
2
_U1
70
0
10
0
20
0
30
0
3
_U1
0
MTEXT
5
1BE
100
AcDbEntity
8
2
62
256
6
ByLayer
370
18
48
1
60
0
100
AcDbMText
10
30.632467
20
9.282634
30
0
210
0
220
0
230
1
1
\W0.5321;18
40
3.5
41
0
44
1.084337
50
0
71
7
72
5
7
iso_b_vert
0
LINE
5
1BF
100
AcDbEntity
8
2
62
256
6
ByLayer
370
13
48
1
60
0
100
AcDbLine
10
23.1
20
-12.7375
30
0
11
23.1
21
10.25
31
0
39
0
210
0
220
0
230
1
0
LINE
5
1C0
100
AcDbEntity
8
2
62
256
6
ByLayer
370
13
48
1
60
0
100
AcDbLine
10
41.1
20
-16.4125
30
0
11
41.1
21
10.25
31
0
39
0
210
0
220
0
230
1
0
LINE
5
1C1
100
AcDbEntity
8
2
62
256
6
ByLayer
370
13
48
1
60
0
100
AcDbLine
10
23.1
20
8.25
30
0
11
41.1
21
8.25
31
0
39
0
210
0
220
0
230
1
0
SOLID
5
1C2
100
AcDbEntity
8
2
62
256
6
ByLayer
370
18
48
1
60
0
100
AcDbTrace
10
23.1
20
8.25
30
0
11
26.599998
21
8.710784
31
0
12
26.600002
22
7.789216
32
0
13
26.600002
23
7.789216
33
0
39
0
210
0
220
0
230
1
0
SOLID
5
1C3
100
AcDbEntity
8
2
62
256
6
ByLayer
370
18
48
1
60
0
100
AcDbTrace
10
41.1
20
8.25
30
0
11
37.600002
21
7.789216
31
0
12
37.599998
22
8.710784
32
0
13
37.599998
23
8.710784
33
0
39
0
210
0
220
0
230
1
0
ENDBLK
5
1C5
100
AcDbEntity
8
0
100
AcDbBlockEnd
0
BLOCK
5
1CA
100
AcDbEntity
8
0
100
AcDbBlockBegin
2
*D5
70
1
10
0
20
0
30
0
3
*D5
0
LINE
5
1CC
100
AcDbEntity
8
0
62
256
6
ByLayer
370
-2
48
1
60
0
100
AcDbLine
10
42.6875
20
-18
30
0
11
67.85
21
-18
31
0
39
0
210
0
220
0
230
1
0
LINE
5
1CD
100
AcDbEntity
8
0
62
256
6
ByLayer
370
-2
48
1
60
0
100
AcDbLine
10
1.5875
20
0
30
0
11
67.85
21
0
31
0
39
0
210
0
220
0
230
1
0
LINE
5
1CE
100
AcDbEntity
8
0
62
256
6
ByLayer
370
-2
48
1
60
0
100
AcDbLine
10
65.85
20
-14.5
30
0
11
65.85
21
-3.5
31
0
39
0
210
0
220
0
230
1
0
SOLID
5
1CF
100
AcDbEntity
8
0
62
256
6
ByLayer
370
-1
48
1
60
0
100
AcDbTrace
10
65.266667
20
-14.5
30
0
11
66.433333
21
-14.5
31
0
12
65.85
22
-18
32
0
13
65.85
23
-18
33
0
39
0
210
0
220
0
230
1
0
SOLID
5
1D0
100
AcDbEntity
8
0
62
256
6
ByLayer
370
-1
48
1
60
0
100
AcDbTrace
10
66.433333
20
-3.5
30
0
11
65.266667
21
-3.5
31
0
12
65.85
22
0
32
0
13
65.85
23
0
33
0
39
0
210
0
220
0
230
1
0
MTEXT
5
1D1
100
AcDbEntity
8
0
62
256
6
ByLayer
370
18
48
1
60
0
100
AcDbMText
10
58.85
20
-9
30
0
210
0
220
0
230
1
1
\A1;18
40
3.5
41
0
44
1
50
90
71
5
72
5
7
iso_b_vert
0
POINT
5
1D2
100
AcDbEntity
8
Defpoints
62
0
6
ByLayer
370
-1
48
1
60
0
100
AcDbPoint
10
41.1
20
-18
30
0
39
0
210
0
220
0
230
1
50
360
0
POINT
5
1D3
100
AcDbEntity
8
Defpoints
62
0
6
ByLayer
370
-1
48
1
60
0
100
AcDbPoint
10
0
20
0
30
0
39
0
210
0
220
0
230
1
50
360
0
POINT
5
1D4
100
AcDbEntity
8
Defpoints
62
0
6
ByLayer
370
-1
48
1
60
0
100
AcDbPoint
10
65.85
20
0
30
0
39
0
210
0
220
0
230
1
50
360
0
ENDBLK
5
1CB
100
AcDbEntity
8
0
100
AcDbBlockEnd
0
BLOCK
5
1DC
100
AcDbEntity
8
0
100
AcDbBlockBegin
2
_U2
70
0
10
0
20
0
30
0
3
_U2
0
MTEXT
5
1D6
100
AcDbEntity
8
2
62
256
6
ByLayer
370
18
48
1
60
0
100
AcDbMText
10
65.160366
20
-10.495533
30
0
210
0
220
0
230
1
1
\W0.5321;18
40
3.5
41
0
44
1.084337
50
90
71
7
72
5
7
iso_b_vert
0
LINE
5
1D7
100
AcDbEntity
8
2
62
256
6
ByLayer
370
13
48
1
60
0
100
AcDbLine
10
42.6875
20
-18
30
0
11
67.85
21
-18
31
0
39
0
210
0
220
0
230
1
0
LINE
5
1D8
100
AcDbEntity
8
2
62
256
6
ByLayer
370
13
48
1
60
0
100
AcDbLine
10
1.5875
20
0
30
0
11
67.85
21
0
31
0
39
0
210
0
220
0
230
1
0
LINE
5
1D9
100
AcDbEntity
8
2
62
256
6
ByLayer
370
13
48
1
60
0
100
AcDbLine
10
65.85
20
-18
30
0
11
65.85
21
0
31
0
39
0
210
0
220
0
230
1
0
SOLID
5
1DA
100
AcDbEntity
8
2
62
256
6
ByLayer
370
18
48
1
60
0
100
AcDbTrace
10
65.85
20
-18
30
0
11
65.389216
21
-14.500002
31
0
12
66.310784
22
-14.499998
32
0
13
66.310784
23
-14.499998
33
0
39
0
210
0
220
0
230
1
0
SOLID
5
1DB
100
AcDbEntity
8
2
62
256
6
ByLayer
370
18
48
1
60
0
100
AcDbTrace
10
65.85
20
0
30
0
11
66.310784
21
-3.499998
31
0
12
65.389216
22
-3.500002
32
0
13
65.389216
23
-3.500002
33
0
39
0
210
0
220
0
230
1
0
ENDBLK
5
1DD
100
AcDbEntity
8
0
100
AcDbBlockEnd
0
BLOCK
5
1E2
100
AcDbEntity
8
0
100
AcDbBlockBegin
2
*D7
70
1
10
0
20
0
30
0
3
*D7
0
LINE
5
1E4
100
AcDbEntity
8
0
62
256
6
ByLayer
370
-2
48
1
60
0
100
AcDbLine
10
42.6875
20
-18
30
0
11
54.85
21
-18
31
0
39
0
210
0
220
0
230
1
0
LINE
5
1E5
100
AcDbEntity
8
0
62
256
6
ByLayer
370
-2
48
1
60
0
100
AcDbLine
10
42.6875
20
-14
30
0
11
54.85
21
-14
31
0
39
0
210
0
220
0
230
1
0
LINE
5
1E6
100
AcDbEntity
8
0
62
256
6
ByLayer
370
-2
48
1
60
0
100
AcDbLine
10
52.85
20
-21.5
30
0
11
52.85
21
-25
31
0
39
0
210
0
220
0
230
1
0
LINE
5
1E7
100
AcDbEntity
8
0
62
256
6
ByLayer
370
-2
48
1
60
0
100
AcDbLine
10
52.85
20
-10.5
30
0
11
52.85
21
-7
31
0
39
0
210
0
220
0
230
1
0
SOLID
5
1E8
100
AcDbEntity
8
0
62
256
6
ByLayer
370
-1
48
1
60
0
100
AcDbTrace
10
53.433333
20
-21.5
30
0
11
52.266667
21
-21.5
31
0
12
52.85
22
-18
32
0
13
52.85
23
-18
33
0
39
0
210
0
220
0
230
1
0
SOLID
5
1E9
100
AcDbEntity
8
0
62
256
6
ByLayer
370
-1
48
1
60
0
100
AcDbTrace
10
52.266667
20
-10.5
30
0
11
53.433333
21
-10.5
31
0
12
52.85
22
-14
32
0
13
52.85
23
-14
33
0
39
0
210
0
220
0
230
1
0
MTEXT
5
1EA
100
AcDbEntity
8
0
62
256
6
ByLayer
370
18
48
1
60
0
100
AcDbMText
10
45.85
20
-16
30
0
210
0
220
0
230
1
1
\A1;4
40
3.5
41
0
44
1
50
90
71
5
72
5
7
iso_b_vert
0
POINT
5
1EB
100
AcDbEntity
8
Defpoints
62
0
6
ByLayer
370
-1
48
1
60
0
100
AcDbPoint
10
41.1
20
-18
30
0
39
0
210
0
220
0
230
1
50
360
0
POINT
5
1EC
100
AcDbEntity
8
Defpoints
62
0
6
ByLayer
370
-1
48
1
60
0
100
AcDbPoint
10
41.1
20
-14
30
0
39
0
210
0
220
0
230
1
50
360
0
POINT
5
1ED
100
AcDbEntity
8
Defpoints
62
0
6
ByLayer
370
-1
48
1
60
0
100
AcDbPoint
10
52.85
20
-14
30
0
39
0
210
0
220
0
230
1
50
360
0
ENDBLK
5
1E3
100
AcDbEntity
8
0
100
AcDbBlockEnd
0
BLOCK
5
1F5
100
AcDbEntity
8
0
100
AcDbBlockBegin
2
_U3
70
0
10
0
20
0
30
0
3
_U3
0
MTEXT
5
1EF
100
AcDbEntity
8
2
62
256
6
ByLayer
370
18
48
1
60
0
100
AcDbMText
10
52.160366
20
-16.8095
30
0
210
0
220
0
230
1
1
\W0.6380;4
40
3.5
41
0
44
1.084337
50
90
71
7
72
5
7
iso_b_vert
0
LINE
5
1F0
100
AcDbEntity
8
2
62
256
6
ByLayer
370
13
48
1
60
0
100
AcDbLine
10
42.6875
20
-18
30
0
11
54.85
21
-18
31
0
39
0
210
0
220
0
230
1
0
LINE
5
1F1
100
AcDbEntity
8
2
62
256
6
ByLayer
370
13
48
1
60
0
100
AcDbLine
10
42.6875
20
-14
30
0
11
54.85
21
-14
31
0
39
0
210
0
220
0
230
1
0
LINE
5
1F2
100
AcDbEntity
8
2
62
256
6
ByLayer
370
13
48
1
60
0
100
AcDbLine
10
52.85
20
-26.75
30
0
11
52.85
21
-5.25
31
0
39
0
210
0
220
0
230
1
0
SOLID
5
1F3
100
AcDbEntity
8
2
62
256
6
ByLayer
370
18
48
1
60
0
100
AcDbTrace
10
52.85
20
-18
30
0
11
53.310784
21
-21.499998
31
0
12
52.389216
22
-21.500002
32
0
13
52.389216
23
-21.500002
33
0
39
0
210
0
220
0
230
1
0
SOLID
5
1F4
100
AcDbEntity
8
2
62
256
6
ByLayer
370
18
48
1
60
0
100
AcDbTrace
10
52.85
20
-14
30
0
11
52.389216
21
-10.500002
31
0
12
53.310784
22
-10.499998
32
0
13
53.310784
23
-10.499998
33
0
39
0
210
0
220
0
230
1
0
ENDBLK
5
1F6
100
AcDbEntity
8
0
100
AcDbBlockEnd
0
ENDSEC
0
SECTION
2
ENTITIES
0
ARC
5
FE
100
AcDbEntity
8
1
62
256
6
ByLayer
370
18
48
1
60
0
100
AcDbCircle
39
0
10
16.5
20
-0.875
30
0
40
0.5
210
0
220
0
230
1
100
AcDbArc
50
180
51
270
0
ARC
5
FF
100
AcDbEntity
8
1
62
256
6
ByLayer
370
18
48
1
60
0
100
AcDbCircle
39
0
10
16.4
20
-17.7
30
0
40
0.3
210
0
220
0
230
1
100
AcDbArc
50
180
51
272.5
0
ARC
5
100
100
AcDbEntity
8
1
62
256
6
ByLayer
370
18
48
1
60
0
100
AcDbCircle
39
0
10
40.8
20
-17.7
30
0
40
0.3
210
0
220
0
230
1
100
AcDbArc
50
267.5
51
0
0
ARC
5
101
100
AcDbEntity
8
1
62
256
6
ByLayer
370
18
48
1
60
0
100
AcDbCircle
39
0
10
40.8
20
-14.3
30
0
40
0.3
210
0
220
0
230
1
100
AcDbArc
50
0
51
92.5
0
ARC
5
102
100
AcDbEntity
8
1
62
256
6
ByLayer
370
18
48
1
60
0
100
AcDbCircle
39
0
10
33.65644
20
-15.332701
30
0
40
0.100000000026212
210
0
220
0
230
1
100
AcDbArc
50
190.000001
51
218.049181
0
ARC
5
103
100
AcDbEntity
8
1
62
256
6
ByLayer
370
18
48
1
60
0
100
AcDbCircle
39
0
10
33.65644
20
-16.667299
30
0
40
0.10000000002549
210
0
220
0
230
1
100
AcDbArc
50
141.950819
51
169.999999
0
ARC
5
104
100
AcDbEntity
8
1
62
256
6
ByLayer
370
18
48
1
60
0
100
AcDbCircle
39
0
10
16
20
-7.1
30
0
40
1.416
210
0
220
0
230
1
100
AcDbArc
50
6.192438
51
60.190711
0
ARC
5
105
100
AcDbEntity
8
1
62
256
6
ByLayer
370
18
48
1
60
0
100
AcDbCircle
39
0
10
16
20
-7.1
30
0
40
1.416
210
0
220
0
230
1
100
AcDbArc
50
119.809289
51
173.807562
0
ARC
5
106
100
AcDbEntity
8
1
62
256
6
ByLayer
370
18
48
1
60
0
100
AcDbCircle
39
0
10
16
20
-7.1
30
0
40
1.416
210
0
220
0
230
1
100
AcDbArc
50
186.192438
51
240.190711
0
ARC
5
107
100
AcDbEntity
8
1
62
256
6
ByLayer
370
18
48
1
60
0
100
AcDbCircle
39
0
10
16
20
-7.1
30
0
40
1.416
210
0
220
0
230
1
100
AcDbArc
50
240.190711
51
299.809289
0
ARC
5
108
100
AcDbEntity
8
1
62
256
6
ByLayer
370
18
48
1
60
0
100
AcDbCircle
39
0
10
16
20
-7.1
30
0
40
1.416
210
0
220
0
230
1
100
AcDbArc
50
299.809289
51
353.807562
0
ARC
5
109
100
AcDbEntity
8
1
62
256
6
ByLayer
370
18
48
1
60
0
100
AcDbCircle
39
0
10
16
20
-7.1
30
0
40
1.416
210
0
220
0
230
1
100
AcDbArc
50
60.190711
51
119.809289
0
ARC
5
10A
100
AcDbEntity
8
1
62
256
6
ByLayer
370
18
48
1
60
0
100
AcDbCircle
39
0
10
16
20
-7.1
30
0
40
1.416
210
0
220
0
230
1
100
AcDbArc
50
353.807562
51
6.192438
0
ARC
5
10B
100
AcDbEntity
8
1
62
256
6
ByLayer
370
18
48
1
60
0
100
AcDbCircle
39
0
10
16
20
-7.1
30
0
40
1.9685
210
0
220
0
230
1
100
AcDbArc
50
329.618578
51
30.381422
0
ARC
5
10E
100
AcDbEntity
8
1
62
256
6
ByLayer
370
18
48
1
60
0
100
AcDbCircle
39
0
10
16
20
-7.1
30
0
40
1.9685
210
0
220
0
230
1
100
AcDbArc
50
149.618578
51
210.381422
0
ARC
5
10F
100
AcDbEntity
8
1
62
256
6
ByLayer
370
18
48
1
60
0
100
AcDbCircle
39
0
10
16
20
-7.1
30
0
40
1.416
210
0
220
0
230
1
100
AcDbArc
50
173.807562
51
186.192438
0
ARC
5
110
100
AcDbEntity
8
1
62
256
6
ByLayer
370
18
48
1
60
0
100
AcDbCircle
39
0
10
16
20
-7.1
30
0
40
1.9685
210
0
220
0
230
1
100
AcDbArc
50
30.381422
51
90
0
ARC
5
111
100
AcDbEntity
8
1
62
256
6
ByLayer
370
18
48
1
60
0
100
AcDbCircle
39
0
10
16
20
-7.1
30
0
40
1.9685
210
0
220
0
230
1
100
AcDbArc
50
90
51
149.618578
0
ARC
5
112
100
AcDbEntity
8
1
62
256
6
ByLayer
370
18
48
1
60
0
100
AcDbCircle
39
0
10
16
20
-7.1
30
0
40
1.9685
210
0
220
0
230
1
100
AcDbArc
50
270
51
329.618578
0
ARC
5
113
100
AcDbEntity
8
1
62
256
6
ByLayer
370
18
48
1
60
0
100
AcDbCircle
39
0
10
16
20
-7.1
30
0
40
1.9685
210
0
220
0
230
1
100
AcDbArc
50
210.381422
51
270
0
ARC
5
114
100
AcDbEntity
8
1
62
256
6
ByLayer
370
18
48
1
60
0
100
AcDbCircle
39
0
10
16
20
-7.1
30
0
40
4.55000000000125
210
0
220
0
230
1
100
AcDbArc
50
331.705621
51
28.294379
0
ARC
5
115
100
AcDbEntity
8
1
62
256
6
ByLayer
370
18
48
1
60
0
100
AcDbCircle
39
0
10
16
20
-7.1
30
0
40
4.55
210
0
220
0
230
1
100
AcDbArc
50
28.294379
51
331.705621
0
CIRCLE
5
10C
100
AcDbEntity
8
1
62
256
6
ByLayer
370
18
48
1
60
0
100
AcDbCircle
10
16
20
-7.1
30
0
40
4.25
39
0
210
0
220
0
230
1
0
CIRCLE
5
10D
100
AcDbEntity
8
1
62
256
6
ByLayer
370
18
48
1
60
0
100
AcDbCircle
10
16
20
-7.1
30
0
40
3.75
39
0
210
0
220
0
230
1
0
ELLIPSE
5
116
100
AcDbEntity
8
1
62
256
6
ByLayer
370
18
48
1
60
0
100
AcDbEllipse
10
33.534518
20
-17.358749
30
0
11
-0.010448393335759
21
-0.0994526568016828
31
0
210
0
220
0
230
1
40
1
41
-1.64065427166875
42
-1.46612134537859
0
ELLIPSE
5
117
100
AcDbEntity
8
1
62
256
6
ByLayer
370
18
48
1
60
0
100
AcDbEllipse
10
33.534518
20
-14.641251
30
0
11
0.0103663242204916
21
-0.0994612446510659
31
0
210
0
220
0
230
1
40
1
41
-1.67464613603759
42
-1.50011320972264
0
ELLIPSE
5
118
100
AcDbEntity
8
1
62
256
6
ByLayer
370
18
48
1
60
0
100
AcDbEllipse
10
45.305332
20
52.2
30
0
11
4.68660287213494E-14
21
-66.525000005683
31
0
210
0
220
0
230
1
40
0.57735
41
-0.288071499167661
42
-0.135944839786354
0
ELLIPSE
5
119
100
AcDbEntity
8
1
62
256
6
ByLayer
370
18
48
1
60
0
100
AcDbEllipse
10
34.164609
20
52.199999
30
0
11
67.4801301533004
21
0
31
0
210
0
220
0
230
1
40
0.985846
41
-1.63849176275369
42
-1.592803611
0
ELLIPSE
5
11A
100
AcDbEntity
8
1
62
256
6
ByLayer
370
18
48
1
60
0
100
AcDbEllipse
10
34.962891
20
52.2
30
0
11
79.2814076832923
21
0
31
0
210
0
220
0
230
1
40
0.8391
41
-1.72099055641773
42
-1.63849176228459
0
ELLIPSE
5
11B
100
AcDbEntity
8
1
62
256
6
ByLayer
370
18
48
1
60
0
100
AcDbEllipse
10
11.884652
20
31.9998
30
0
11
1474.87688219467
21
0
31
0
210
0
220
0
230
1
40
0.033681
41
-1.57709678638205
42
-1.57079639377265
0
ELLIPSE
5
11C
100
AcDbEntity
8
1
62
256
6
ByLayer
370
18
48
1
60
0
100
AcDbEllipse
10
-525.1383
20
31.982327
30
0
11
3852.52272758743
21
-8.62404488842584
31
0
210
0
220
0
230
1
40
0.012694
41
-1.4288133177849
42
-1.42548330895114
0
ELLIPSE
5
11D
100
AcDbEntity
8
1
62
256
6
ByLayer
370
18
48
1
60
0
100
AcDbEllipse
10
34.164609
20
32
30
0
11
50.3882073466299
21
0
31
0
210
0
220
0
230
1
40
0.985846
41
-1.66150951428553
42
-1.60015451419536
0
ELLIPSE
5
11E
100
AcDbEntity
8
1
62
256
6
ByLayer
370
18
48
1
60
0
100
AcDbEllipse
10
34.962891
20
32
30
0
11
59.2003597138774
21
0
31
0
210
0
220
0
230
1
40
0.8391
41
-1.82620637304668
42
-1.66150951435085
0
ELLIPSE
5
11F
100
AcDbEntity
8
1
62
256
6
ByLayer
370
18
48
1
60
0
100
AcDbEllipse
10
0.708583
20
32
30
0
11
3.49954149033166E-14
21
-49.674999998058
31
0
210
0
220
0
230
1
40
0.771313
41
0.134909532697594
42
0.255410046264138
0
ELLIPSE
5
120
100
AcDbEntity
8
1
62
256
6
ByLayer
370
18
48
1
60
0
100
AcDbEllipse
10
-0.55432
20
32
30
0
11
3.49954149148646E-14
21
-49.67500001445
31
0
210
0
220
0
230
1
40
0.771313
41
0.147327901118586
42
0.26405716829117
0
ELLIPSE
5
121
100
AcDbEntity
8
1
62
256
6
ByLayer
370
18
48
1
60
0
100
AcDbEllipse
10
22.411
20
32
30
0
11
49.6749999733722
21
0
31
0
210
0
220
0
230
1
40
1
41
-1.89767343590164
42
-1.83485349523954
0
POINT
5
70
100
AcDbEntity
8
81
62
256
6
ByLayer
370
18
48
1
60
0
100
AcDbPoint
10
41.1
20
-18
30
0
39
0
210
0
220
0
230
1
50
360
0
POINT
5
72
100
AcDbEntity
8
80
62
256
6
ByLayer
370
18
48
1
60
0
100
AcDbPoint
10
0
20
0
30
0
39
0
210
0
220
0
230
1
50
360
0
POINT
5
74
100
AcDbEntity
8
1
62
256
6
ByLayer
370
18
48
1
60
1
100
AcDbPoint
10
0
20
0
30
0
39
0
210
0
220
0
230
1
50
360
0
POINT
5
76
100
AcDbEntity
8
1
62
256
6
ByLayer
370
18
48
1
60
1
100
AcDbPoint
10
41.1
20
-18
30
0
39
0
210
0
220
0
230
1
50
360
0
POINT
5
77
100
AcDbEntity
8
1
62
256
6
ByLayer
370
18
48
1
60
1
100
AcDbPoint
10
23.1
20
-14.325
30
0
39
0
210
0
220
0
230
1
50
360
0
POINT
5
78
100
AcDbEntity
8
1
62
256
6
ByLayer
370
18
48
1
60
1
100
AcDbPoint
10
41.1
20
-18
30
0
39
0
210
0
220
0
230
1
50
360
0
POINT
5
79
100
AcDbEntity
8
1
62
256
6
ByLayer
370
18
48
1
60
1
100
AcDbPoint
10
41.1
20
-18
30
0
39
0
210
0
220
0
230
1
50
360
0
POINT
5
7A
100
AcDbEntity
8
1
62
256
6
ByLayer
370
18
48
1
60
1
100
AcDbPoint
10
0
20
0
30
0
39
0
210
0
220
0
230
1
50
360
0
POINT
5
7B
100
AcDbEntity
8
1
62
256
6
ByLayer
370
18
48
1
60
1
100
AcDbPoint
10
41.1
20
-18
30
0
39
0
210
0
220
0
230
1
50
360
0
POINT
5
7C
100
AcDbEntity
8
1
62
256
6
ByLayer
370
18
48
1
60
1
100
AcDbPoint
10
41.1
20
-14
30
0
39
0
210
0
220
0
230
1
50
360
0
SPLINE
5
122
100
AcDbEntity
8
1
62
256
6
ByLayer
370
18
48
1
60
0
100
AcDbSpline
70
4
71
3
72
18
73
14
40
0
40
0
40
0
40
0
40
0.106502320877576
40
0.209819720888374
40
0.309970050664487
40
0.406972922400283
40
0.500849920825854
40
0.591624858696233
40
0.679324076625897
40
0.763976789997903
40
0.845615488386068
40
0.924276395492369
40
1
40
1
40
1
40
1
41
1
10
33.69011863841
20
-15.516914648177
30
0
41
1
10
33.6885415273357
20
-15.5162356963494
30
0
41
1
10
33.6854344682343
20
-15.5148980965508
30
0
41
1
10
33.6809243323185
20
-15.5125950376114
30
0
41
1
10
33.6766153234623
20
-15.5101336525213
30
0
41
1
10
33.672512622517
20
-15.5075098420597
30
0
41
1
10
33.6686149102103
20
-15.5047475341628
30
0
41
1
10
33.6649224452295
20
-15.5018629608244
30
0
41
1
10
33.6614353720448
20
-15.4988731471596
30
0
41
1
10
33.6581528367139
20
-15.4957956455299
30
0
41
1
10
33.6550778698625
20
-15.4926415847493
30
0
41
1
10
33.6521996835921
20
-15.4894420074179
30
0
41
1
10
33.6504035869187
20
-15.4872081231617
30
0
41
1
10
33.64952262475
20
-15.4861124318507
30
0
0
SPLINE
5
123
100
AcDbEntity
8
1
62
256
6
ByLayer
370
18
48
1
60
0
100
AcDbSpline
70
4
71
3
72
16
73
12
40
0
40
0
40
0
40
0
40
0.117319552192523
40
0.233085853411053
40
0.347299362420226
40
0.459960556948126
40
0.571069934744738
40
0.680628014712996
40
0.788635338118826
40
0.895092469888322
40
1
40
1
40
1
40
1
41
1
10
33.84894541545
20
-15.572267476298
30
0
41
1
10
33.8426777667126
20
-15.5704446731299
30
0
41
1
10
33.830225449707
20
-15.566823199777
30
0
41
1
10
33.8117192560249
20
-15.5611085912359
30
0
41
1
10
33.7934972967187
20
-15.5552431101864
30
0
41
1
10
33.7755628433777
20
-15.5492133266125
30
0
41
1
10
33.7579151153779
20
-15.5430337309317
30
0
41
1
10
33.7405540288848
20
-15.5367130798226
30
0
41
1
10
33.723480658135
20
-15.5302550550507
30
0
41
1
10
33.7066908752588
20
-15.5236879439445
30
0
41
1
10
33.6956156516797
20
-15.5191613513213
30
0
41
1
10
33.69011863841
20
-15.51691464817
30
0
0
SPLINE
5
124
100
AcDbEntity
8
1
62
256
6
ByLayer
370
18
48
1
60
0
100
AcDbSpline
70
4
71
2
72
10
73
7
40
0
40
0
40
0
40
0.5
40
0.5
40
0.75
40
0.75
40
1
40
1
40
1
41
1
10
33.8489454154435
20
-15.572267476262
30
0
41
1
10
33.9165392416659
20
-15.5917621635151
30
0
41
1
10
33.964235482769
20
-15.6434857110098
30
0
41
1
10
33.9902224727208
20
-15.671666952926
30
0
41
1
10
34.0068593747304
20
-15.7075223538963
30
0
41
1
10
34.0248252361523
20
-15.7462418922267
30
0
41
1
10
34.028946197083
20
-15.789264413028
30
0
0
SPLINE
5
125
100
AcDbEntity
8
1
62
256
6
ByLayer
370
18
48
1
60
0
100
AcDbSpline
70
4
71
2
72
6
73
3
40
0
40
0
40
0
40
1
40
1
40
1
41
1
10
34.0289461971205
20
-15.789264412942
30
0
41
1
10
34.0378374892931
20
-15.8844834459601
30
0
41
1
10
34.0378609595315
20
-15.9799999993024
30
0
0
SPLINE
5
126
100
AcDbEntity
8
1
62
256
6
ByLayer
370
18
48
1
60
0
100
AcDbSpline
70
4
71
3
72
17
73
13
40
0
40
0
40
0
40
0
40
0.10031741181703
40
0.200541310293655
40
0.300680278273646
40
0.400742920447668
40
0.500737861201916
40
0.600673742442875
40
0.700559221399285
40
0.800402968404953
40
0.900213664663637
40
1
40
1
40
1
40
1
41
1
10
34.02894619712
20
-16.210735587058
30
0
41
1
10
34.0295231228817
20
-16.2043912298246
30
0
41
1
10
34.0306764366097
20
-16.1917084294062
30
0
41
1
10
34.0321818251213
20
-16.1726539472122
30
0
41
1
10
34.0335216262512
20
-16.1535914790204
30
0
41
1
10
34.0346798037513
20
-16.1345196957169
30
0
41
1
10
34.0356607269913
20
-16.1154410706663
30
0
41
1
10
34.0364629358429
20
-16.0963570587512
30
0
41
1
10
34.0370879043616
20
-16.0772693864804
30
0
41
1
10
34.037531197509
20
-16.058179706331
30
0
41
1
10
34.0378090731845
20
-16.0390896896565
30
0
41
1
10
34.0378436654889
20
-16.0263627125725
30
0
41
1
10
34.03786095953
20
-16.0200000006976
30
0
0
SPLINE
5
127
100
AcDbEntity
8
1
62
256
6
ByLayer
370
18
48
1
60
0
100
AcDbSpline
70
4
71
3
72
38
73
34
40
0
40
0
40
0
40
0
40
0.0320161803202293
40
0.0634137556517326
40
0.0941938978135387
40
0.124357850632114
40
0.153906935796008
40
0.182842559298705
40
0.211166218540736
40
0.238879510169556
40
0.265984138747594
40
0.292481926351475
40
0.318374823219172
40
0.343664919578665
40
0.368354458810697
40
0.392445852120265
40
0.415941694916222
40
0.438844785127741
40
0.461158143719637
40
0.482885037706414
40
0.504029006008711
40
0.551366811163476
40
0.597409666800778
40
0.642207857911435
40
0.685815975457816
40
0.728293199080115
40
0.769703557232113
40
0.810116149643936
40
0.849605314211504
40
0.888250718111325
40
0.926137351649965
40
0.963355403684978
40
1
40
1
40
1
40
1
41
1
10
33.84894541544
20
-16.427732523738
30
0
41
1
10
33.8515736233648
20
-16.4269514392852
30
0
41
1
10
33.856779257937
20
-16.4254043622094
30
0
41
1
10
33.8644507904023
20
-16.4227682841381
30
0
41
1
10
33.8719249095622
20
-16.4199441000572
30
0
41
1
10
33.8791975153458
20
-16.416921089855
30
0
41
1
10
33.8862696764354
20
-16.4137183659082
30
0
41
1
10
33.8931411178642
20
-16.4103470598266
30
0
41
1
10
33.8998119140361
20
-16.4068201212966
30
0
41
1
10
33.9062820488634
20
-16.4031497437452
30
0
41
1
10
33.9125515300023
20
-16.399348007265
30
0
41
1
10
33.9186203592458
20
-16.3954266889405
30
0
41
1
10
33.9244885401635
20
-16.3913972918273
30
0
41
1
10
33.9301560763678
20
-16.3872710198155
30
0
41
1
10
33.9356229711881
20
-16.3830587686772
30
0
41
1
10
33.940889230658
20
-16.3787711161078
30
0
41
1
10
33.9459548524165
20
-16.3744183110024
30
0
41
1
10
33.9508198658027
20
-16.3700102765178
30
0
41
1
10
33.9554841879108
20
-16.3655565701326
30
0
41
1
10
33.9599481402181
20
-16.3610665051889
30
0
41
1
10
33.9660095567999
20
-16.354641969507
30
0
41
1
10
33.9734588192032
20
-16.3460531831904
30
0
41
1
10
33.9820027422797
20
-16.3349799163678
30
0
41
1
10
33.9898489226435
20
-16.3235305586926
30
0
41
1
10
33.9969976055379
20
-16.3117506191717
30
0
41
1
10
34.0034486190906
20
-16.2996846186172
30
0
41
1
10
34.0092017357358
20
-16.2873766525563
30
0
41
1
10
34.0142571546107
20
-16.2748701653709
30
0
41
1
10
34.0186132961071
20
-16.2622074528295
30
0
41
1
10
34.0222748801839
20
-16.2494310234884
30
0
41
1
10
34.0252236999947
20
-16.2365780883644
30
0
41
1
10
34.0275246334318
20
-16.2237000583365
30
0
41
1
10
34.028474801506
20
-16.2150346518978
30
0
41
1
10
34.02894619708
20
-16.210735586972
30
0
0
SPLINE
5
128
100
AcDbEntity
8
1
62
256
6
ByLayer
370
18
48
1
60
0
100
AcDbSpline
70
4
71
2
72
6
73
3
40
0
40
0
40
0
40
1
40
1
40
1
41
1
10
33.848945415452
20
-16.427732523702
30
0
41
1
10
33.7679467190156
20
-16.450984756672
30
0
41
1
10
33.6901186384125
20
-16.48308535183
30
0
0
SPLINE
5
129
100
AcDbEntity
8
1
62
256
6
ByLayer
370
18
48
1
60
0
100
AcDbSpline
70
4
71
2
72
6
73
3
40
0
40
0
40
0
40
1
40
1
40
1
41
1
10
33.6901186384115
20
-16.483085351823
30
0
41
1
10
33.6658197594191
20
-16.4932546708632
30
0
41
1
10
33.6495226247505
20
-16.513887568149
30
0
0
SPLINE
5
12A
100
AcDbEntity
8
1
62
256
6
ByLayer
370
18
48
1
60
0
100
AcDbSpline
70
4
71
3
72
24
73
20
40
0
40
0
40
0
40
0
40
0.124999999999981
40
0.124999999999981
40
0.187499999999976
40
0.187499999999976
40
0.249999999999971
40
0.249999999999971
40
0.374999999999971
40
0.374999999999971
40
0.499999999999971
40
0.499999999999971
40
0.624999999999971
40
0.624999999999971
40
0.687499999999975
40
0.687499999999975
40
0.749999999999979
40
0.749999999999979
40
1
40
1
40
1
40
1
41
1
10
17.6981810583398
20
-8.09557688959518
30
0
41
1
10
17.7079282570253
20
-8.07895084257396
30
0
41
1
10
17.7161357366898
20
-8.06163824881966
30
0
41
1
10
17.7261657634977
20
-8.03465255621273
30
0
41
1
10
17.7291359412957
20
-8.02545262888157
30
0
41
1
10
17.7342485495551
20
-8.00685546517266
30
0
41
1
10
17.7363695892661
20
-7.99754907943679
30
0
41
1
10
17.741496344613
20
-7.9696089658818
30
0
41
1
10
17.7432740738269
20
-7.95095434024381
30
0
41
1
10
17.7436815034583
20
-7.91360005805811
30
0
41
1
10
17.7422604780044
20
-7.89476107757363
30
0
41
1
10
17.7364872949031
20
-7.8585848950795
30
0
41
1
10
17.7321586246314
20
-7.84106952644703
30
0
41
1
10
17.7236520963912
20
-7.81561112318158
30
0
41
1
10
17.7204791393988
20
-7.80726150218698
30
0
41
1
10
17.71346298447
20
-7.79083605914889
30
0
41
1
10
17.7096028514273
20
-7.78273325540877
30
0
41
1
10
17.6889846413071
20
-7.74358412847945
30
0
41
1
10
17.6682141523735
20
-7.71607501432294
30
0
41
1
10
17.6435826280888
20
-7.6921177041672
30
0
0
SPLINE
5
12B
100
AcDbEntity
8
1
62
256
6
ByLayer
370
18
48
1
60
0
100
AcDbSpline
70
4
71
3
72
24
73
20
40
0
40
0
40
0
40
0
40
0.249999999999985
40
0.249999999999985
40
0.312499999999988
40
0.312499999999988
40
0.374999999999992
40
0.374999999999992
40
0.499999999999996
40
0.499999999999996
40
0.625
40
0.625
40
0.750000000000004
40
0.750000000000004
40
0.812500000000007
40
0.812500000000007
40
0.875000000000009
40
0.875000000000009
40
1
40
1
40
1
40
1
41
1
10
17.6435826280888
20
-6.50788229583281
30
0
41
1
10
17.6682141523735
20
-6.48392498567708
30
0
41
1
10
17.6889846413071
20
-6.45641587152056
30
0
41
1
10
17.7096028514273
20
-6.41726674459125
30
0
41
1
10
17.71346298447
20
-6.40916394085116
30
0
41
1
10
17.7204791393988
20
-6.39273849781307
30
0
41
1
10
17.7236520963912
20
-6.38438887681843
30
0
41
1
10
17.7321586246314
20
-6.35893047355299
30
0
41
1
10
17.7364872949031
20
-6.34141510492052
30
0
41
1
10
17.7422604780044
20
-6.30523892242638
30
0
41
1
10
17.7436815034583
20
-6.28639994194194
30
0
41
1
10
17.7432740738269
20
-6.24904565975621
30
0
41
1
10
17.741496344613
20
-6.23039103411824
30
0
41
1
10
17.7363695892661
20
-6.20245092056322
30
0
41
1
10
17.7342485495551
20
-6.19314453482735
30
0
41
1
10
17.7291359412957
20
-6.17454737111845
30
0
41
1
10
17.7261657634977
20
-6.16534744378731
30
0
41
1
10
17.7161357366898
20
-6.13836175118036
30
0
41
1
10
17.7079282570253
20
-6.12104915742609
30
0
41
1
10
17.6981810583398
20
-6.10442311040484
30
0
0
SPLINE
5
12C
100
AcDbEntity
8
1
62
256
6
ByLayer
370
18
48
1
60
0
100
AcDbSpline
70
4
71
3
72
17
73
13
40
0
40
0
40
0
40
0
40
0.250000000000012
40
0.250000000000012
40
0.500000000000024
40
0.500000000000024
40
0.562500000000024
40
0.562500000000024
40
0.625000000000025
40
0.750000000000019
40
0.750000000000019
40
1
40
1
40
1
40
1
41
1
10
17.6435826280888
20
-6.50788229583281
30
0
41
1
10
17.6146246036311
20
-6.53604768119055
30
0
41
1
10
17.5877690589037
20
-6.56627424213536
30
0
41
1
10
17.5382802616331
20
-6.63107832338702
30
0
41
1
10
17.5156427078132
20
-6.66564930486624
30
0
41
1
10
17.4902105226126
20
-6.71201148814339
30
0
41
1
10
17.485257552037
20
-6.72146529018866
30
0
41
1
10
17.4757163583556
20
-6.74057472388637
30
0
41
1
10
17.4619501115276
20
-6.76953796305182
30
0
41
1
10
17.4498230334517
20
-6.79941372325664
30
0
41
1
10
17.4278090763269
20
-6.86045061207818
30
0
41
1
10
17.4160955020356
20
-6.90284180273298
30
0
41
1
10
17.4077379362998
20
-6.94725870662356
30
0
0
SPLINE
5
12D
100
AcDbEntity
8
1
62
256
6
ByLayer
370
18
48
1
60
0
100
AcDbSpline
70
4
71
3
72
18
73
14
40
0
40
0
40
0
40
0
40
0.250000000000005
40
0.250000000000005
40
0.375000000000011
40
0.375000000000011
40
0.437500000000014
40
0.437500000000014
40
0.500000000000017
40
0.500000000000017
40
0.750000000000008
40
0.750000000000008
40
1
40
1
40
1
40
1
41
1
10
17.4077379362998
20
-7.25274129337649
30
0
41
1
10
17.4160970234351
20
-7.29716628285735
30
0
41
1
10
17.4278059238629
20
-7.33952872768285
30
0
41
1
10
17.4497852995845
20
-7.40048759793965
30
0
41
1
10
17.4578539822307
20
-7.42037281285286
30
0
41
1
10
17.4710409062469
20
-7.44958514624346
30
0
41
1
10
17.475617474447
20
-7.45921984345725
30
0
41
1
10
17.4851307090049
20
-7.47828787560948
30
0
41
1
10
17.490079124144
20
-7.48774202982483
30
0
41
1
10
17.5155498531436
20
-7.53420879187772
30
0
41
1
10
17.5382169974673
20
-7.56883334385503
30
0
41
1
10
17.5877505294597
20
-7.63370697530971
30
0
41
1
10
17.6146213965619
20
-7.66394919952418
30
0
41
1
10
17.6435826280888
20
-7.6921177041672
30
0
0
SPLINE
5
12E
100
AcDbEntity
8
1
62
256
6
ByLayer
370
18
48
1
60
0
100
AcDbSpline
70
4
71
3
72
18
73
14
40
0
40
0
40
0
40
0
40
0.250000000000009
40
0.250000000000009
40
0.375000000000011
40
0.375000000000011
40
0.437500000000013
40
0.437500000000013
40
0.500000000000014
40
0.500000000000014
40
0.750000000000007
40
0.750000000000007
40
1
40
1
40
1
40
1
41
1
10
14.5922620637002
20
-6.94725870662356
30
0
41
1
10
14.5839029765648
20
-6.90283371714236
30
0
41
1
10
14.572194076137
20
-6.8604712723168
30
0
41
1
10
14.5502147004153
20
-6.79951240206012
30
0
41
1
10
14.5421460177692
20
-6.77962718714699
30
0
41
1
10
14.5289590937531
20
-6.75041485375658
30
0
41
1
10
14.524382525553
20
-6.74078015654285
30
0
41
1
10
14.5148692909952
20
-6.72171212439079
30
0
41
1
10
14.5099208758561
20
-6.71225797017553
30
0
41
1
10
14.4844501468565
20
-6.66579120812241
30
0
41
1
10
14.4617830025327
20
-6.63116665614501
30
0
41
1
10
14.4122494705402
20
-6.56629302469025
30
0
41
1
10
14.385378603438
20
-6.53605080047581
30
0
41
1
10
14.3564173719112
20
-6.50788229583281
30
0
0
SPLINE
5
12F
100
AcDbEntity
8
1
62
256
6
ByLayer
370
18
48
1
60
0
100
AcDbSpline
70
4
71
3
72
24
73
20
40
0
40
0
40
0
40
0
40
0.125000000000007
40
0.125000000000007
40
0.187500000000005
40
0.187500000000005
40
0.250000000000004
40
0.250000000000004
40
0.375000000000001
40
0.375000000000001
40
0.499999999999999
40
0.499999999999999
40
0.624999999999996
40
0.624999999999996
40
0.687499999999996
40
0.687499999999996
40
0.749999999999996
40
0.749999999999996
40
1
40
1
40
1
40
1
41
1
10
14.3018189416602
20
-6.10442311040484
30
0
41
1
10
14.2920717429747
20
-6.12104915742609
30
0
41
1
10
14.2838642633101
20
-6.13836175118036
30
0
41
1
10
14.2738342365023
20
-6.16534744378731
30
0
41
1
10
14.2708640587043
20
-6.17454737111845
30
0
41
1
10
14.2657514504448
20
-6.19314453482735
30
0
41
1
10
14.2636304107339
20
-6.20245092056322
30
0
41
1
10
14.258503655387
20
-6.23039103411821
30
0
41
1
10
14.2567259261731
20
-6.24904565975621
30
0
41
1
10
14.2563184965416
20
-6.28639994194194
30
0
41
1
10
14.2577395219956
20
-6.30523892242638
30
0
41
1
10
14.2635127050969
20
-6.34141510492052
30
0
41
1
10
14.2678413753686
20
-6.35893047355299
30
0
41
1
10
14.2763479036087
20
-6.38438887681843
30
0
41
1
10
14.2795208606012
20
-6.39273849781307
30
0
41
1
10
14.28653701553
20
-6.40916394085116
30
0
41
1
10
14.2903971485727
20
-6.41726674459125
30
0
41
1
10
14.3110153586929
20
-6.45641587152056
30
0
41
1
10
14.3317858476264
20
-6.48392498567708
30
0
41
1
10
14.3564173719112
20
-6.50788229583281
30
0
0
SPLINE
5
130
100
AcDbEntity
8
1
62
256
6
ByLayer
370
18
48
1
60
0
100
AcDbSpline
70
4
71
3
72
24
73
20
40
0
40
0
40
0
40
0
40
0.249999999999995
40
0.249999999999995
40
0.312499999999997
40
0.312499999999997
40
0.375
40
0.375
40
0.500000000000003
40
0.500000000000003
40
0.625000000000007
40
0.625000000000007
40
0.750000000000011
40
0.750000000000011
40
0.812500000000007
40
0.812500000000007
40
0.875000000000003
40
0.875000000000003
40
1
40
1
40
1
40
1
41
1
10
14.3564173719112
20
-7.6921177041672
30
0
41
1
10
14.3317858476264
20
-7.71607501432294
30
0
41
1
10
14.3110153586929
20
-7.74358412847945
30
0
41
1
10
14.2903971485727
20
-7.78273325540877
30
0
41
1
10
14.28653701553
20
-7.79083605914889
30
0
41
1
10
14.2795208606012
20
-7.80726150218698
30
0
41
1
10
14.2763479036087
20
-7.81561112318158
30
0
41
1
10
14.2678413753686
20
-7.84106952644703
30
0
41
1
10
14.2635127050969
20
-7.8585848950795
30
0
41
1
10
14.2577395219956
20
-7.89476107757363
30
0
41
1
10
14.2563184965416
20
-7.91360005805811
30
0
41
1
10
14.2567259261731
20
-7.95095434024381
30
0
41
1
10
14.258503655387
20
-7.9696089658818
30
0
41
1
10
14.2636304107339
20
-7.99754907943679
30
0
41
1
10
14.2657514504448
20
-8.00685546517266
30
0
41
1
10
14.2708640587043
20
-8.02545262888157
30
0
41
1
10
14.2738342365023
20
-8.03465255621273
30
0
41
1
10
14.2838642633101
20
-8.06163824881966
30
0
41
1
10
14.2920717429747
20
-8.07895084257396
30
0
41
1
10
14.3018189416602
20
-8.09557688959518
30
0
0
SPLINE
5
131
100
AcDbEntity
8
1
62
256
6
ByLayer
370
18
48
1
60
0
100
AcDbSpline
70
4
71
3
72
17
73
13
40
0
40
0
40
0
40
0
40
0.250000000000003
40
0.250000000000003
40
0.500000000000007
40
0.500000000000007
40
0.562500000000003
40
0.562500000000003
40
0.624999999999999
40
0.749999999999999
40
0.749999999999999
40
1
40
1
40
1
40
1
41
1
10
14.3564173719112
20
-7.6921177041672
30
0
41
1
10
14.3853753963689
20
-7.66395231880944
30
0
41
1
10
14.4122309410964
20
-7.63372575786457
30
0
41
1
10
14.461719738367
20
-7.5689216766128
30
0
41
1
10
14.4843572921869
20
-7.53435069513353
30
0
41
1
10
14.5097894773876
20
-7.48798851185629
30
0
41
1
10
14.5147424479631
20
-7.47853470981096
30
0
41
1
10
14.5242836416446
20
-7.45942527611325
30
0
41
1
10
14.5380498884726
20
-7.43046203694777
30
0
41
1
10
14.5501769665485
20
-7.40058627674296
30
0
41
1
10
14.5721909236732
20
-7.33954938792149
30
0
41
1
10
14.5839044979644
20
-7.29715819726681
30
0
41
1
10
14.5922620637002
20
-7.25274129337649
30
0
0
SPLINE
5
132
100
AcDbEntity
8
1
62
256
6
ByLayer
370
18
48
1
60
0
100
AcDbSpline
70
4
71
3
72
26
73
22
40
0
40
0
40
0
40
0
40
0.250000000000015
40
0.250000000000015
40
0.312500000000021
40
0.312500000000021
40
0.375000000000027
40
0.375000000000027
40
0.500000000000038
40
0.500000000000038
40
0.562500000000038
40
0.562500000000038
40
0.625000000000039
40
0.625000000000039
40
0.75000000000002
40
0.75000000000002
40
0.812500000000009
40
0.812500000000009
40
0.874999999999999
40
0.874999999999999
40
1
40
1
40
1
40
1
41
1
10
16.3181619695468
20
-5.3739045598557
30
0
41
1
10
16.3092192305469
20
-5.34142296665098
30
0
41
1
10
16.295487632259
20
-5.31053631026813
30
0
41
1
10
16.271835338829
20
-5.27420148267822
30
0
41
1
10
16.2667495067731
20
-5.26702254257586
30
0
41
1
10
16.2560530091763
20
-5.25314060543948
30
0
41
1
10
16.2504333990711
20
-5.24641840555307
30
0
41
1
10
16.2327595033493
20
-5.22691327369097
30
0
41
1
10
16.2198957841168
20
-5.21478719136357
30
0
41
1
10
16.1988810548679
20
-5.19801059325081
30
0
41
1
10
16.1915883106091
20
-5.19265488280678
30
0
41
1
10
16.1763916134438
20
-5.18244843396363
30
0
41
1
10
16.1685411707113
20
-5.17763788709573
30
0
41
1
10
16.1445437728381
20
-5.16427550706149
30
0
41
1
10
16.1278334996496
20
-5.15670309595529
30
0
41
1
10
16.1016705104134
20
-5.14741602014865
30
0
41
1
10
16.0927656700964
20
-5.14466726841732
30
0
41
1
10
16.0745707697433
20
-5.13989830589611
30
0
41
1
10
16.0652845989499
20
-5.13788547449548
30
0
41
1
10
16.0374812768526
20
-5.13309641628661
30
0
41
1
10
16.01880895329
20
-5.13150000000002
30
0
41
1
10
16
20
-5.13150000000002
30
0
0
SPLINE
5
133
100
AcDbEntity
8
1
62
256
6
ByLayer
370
18
48
1
60
0
100
AcDbSpline
70
4
71
3
72
34
73
30
40
0
40
0
40
0
40
0
40
0.124999999999998
40
0.124999999999998
40
0.187499999999999
40
0.187499999999999
40
0.21875
40
0.21875
40
0.250000000000001
40
0.250000000000001
40
0.375000000000006
40
0.375000000000006
40
0.406250000000009
40
0.406250000000009
40
0.437500000000012
40
0.500000000000011
40
0.562500000000009
40
0.562500000000009
40
0.625000000000008
40
0.625000000000008
40
0.687500000000007
40
0.687500000000007
40
0.750000000000006
40
0.750000000000006
40
0.875000000000002
40
0.875000000000002
40
0.937500000000001
40
0.937500000000001
40
1
40
1
40
1
40
1
41
1
10
16.3181619695468
20
-5.3739045598557
30
0
41
1
10
16.3316243955842
20
-5.42280244741565
30
0
41
1
10
16.3495186520746
20
-5.47039327330427
30
0
41
1
10
16.3834427074956
20
-5.53994421350944
30
0
41
1
10
16.3959401462236
20
-5.56282059910328
30
0
41
1
10
16.4166305781722
20
-5.59667527743031
30
0
41
1
10
16.4238696464604
20
-5.60790858875751
30
0
41
1
10
16.4389547957833
20
-5.63010059627479
30
0
41
1
10
16.4467750039595
20
-5.64102397035393
30
0
41
1
10
16.4872859904911
20
-5.69477956517545
30
0
41
1
10
16.5241451570225
20
-5.73506485514571
30
0
41
1
10
16.5766976577683
20
-5.78171414448022
30
0
41
1
10
16.5875531522008
20
-5.79086542607263
30
0
41
1
10
16.6095897675602
20
-5.80849255858917
30
0
41
1
10
16.6432548145305
20
-5.83403155123455
30
0
41
1
10
16.7023826118536
20
-5.87214074180733
30
0
41
1
10
16.7529298677765
20
-5.89784459108236
30
0
41
1
10
16.8051631063883
20
-5.92106053729736
30
0
41
1
10
16.831493866305
20
-5.93114515114499
30
0
41
1
10
16.8845188699141
20
-5.94846936167733
30
0
41
1
10
16.9112225356447
20
-5.95571226011589
30
0
41
1
10
16.9650247101004
20
-5.9674740645799
30
0
41
1
10
16.992216397077
20
-5.97198820416116
30
0
41
1
10
17.0724935208943
20
-5.98133781453538
30
0
41
1
10
17.1249222467064
20
-5.98220808685403
30
0
41
1
10
17.2024065588861
20
-5.97637113204726
30
0
41
1
10
17.2281182805367
20
-5.97320613060609
30
0
41
1
10
17.2787427947224
20
-5.96457017437007
30
0
41
1
10
17.30363915096
20
-5.95911188093095
30
0
41
1
10
17.3281523379786
20
-5.95254896641515
30
0
0
SPLINE
5
134
100
AcDbEntity
8
1
62
256
6
ByLayer
370
18
48
1
60
0
100
AcDbSpline
70
4
71
3
72
24
73
20
40
0
40
0
40
0
40
0
40
0.062500000000004
40
0.062500000000004
40
0.125000000000008
40
0.125000000000008
40
0.250000000000006
40
0.250000000000006
40
0.312500000000005
40
0.312500000000005
40
0.375000000000005
40
0.375000000000005
40
0.500000000000003
40
0.500000000000003
40
0.625000000000001
40
0.625000000000001
40
0.749999999999999
40
0.749999999999999
40
1
40
1
40
1
40
1
41
1
10
17.6981810583398
20
-6.10442311040484
30
0
41
1
10
17.6934313378224
20
-6.09632139018686
30
0
41
1
10
17.6882897889864
20
-6.08835019077267
30
0
41
1
10
17.677355321586
20
-6.07290693429911
30
0
41
1
10
17.6716008277749
20
-6.06548230486322
30
0
41
1
10
17.653507056405
20
-6.04406724837236
30
0
41
1
10
17.6403431053359
20
-6.03092976047492
30
0
41
1
10
17.6189603728398
20
-6.01291952202379
30
0
41
1
10
17.6115431209205
20
-6.00719464554416
30
0
41
1
10
17.5964570188402
20
-5.99652908650145
30
0
41
1
10
17.5887541685168
20
-5.99155746548533
30
0
41
1
10
17.5651865615503
20
-5.97768476963978
30
0
41
1
10
17.5488655560664
20
-5.96981928227154
30
0
41
1
10
17.5150376500416
20
-5.95680967244007
30
0
41
1
10
17.497973394896
20
-5.95183493909821
30
0
41
1
10
17.4636029977596
20
-5.9446760075167
30
0
41
1
10
17.446237058748
20
-5.9424906930814
30
0
41
1
10
17.39416944413
20
-5.94006078995395
30
0
41
1
10
17.3606039107084
20
-5.9438607082312
30
0
41
1
10
17.3281523379786
20
-5.95254896641515
30
0
0
SPLINE
5
135
100
AcDbEntity
8
1
62
256
6
ByLayer
370
18
48
1
60
0
100
AcDbSpline
70
4
71
3
72
26
73
22
40
0
40
0
40
0
40
0
40
0.124999999999985
40
0.124999999999985
40
0.249999999999971
40
0.249999999999971
40
0.312499999999975
40
0.312499999999975
40
0.37499999999998
40
0.37499999999998
40
0.500000000000003
40
0.500000000000003
40
0.562500000000004
40
0.562500000000004
40
0.625000000000005
40
0.625000000000005
40
0.750000000000003
40
0.750000000000003
40
0.875000000000002
40
0.875000000000002
40
1
40
1
40
1
40
1
41
1
10
16
20
-5.13150000000002
30
0
41
1
10
15.9812579161203
20
-5.13150000000002
30
0
41
1
10
15.962209975879
20
-5.13313720449543
30
0
41
1
10
15.9253294541456
20
-5.13951471931708
30
0
41
1
10
15.9073531625206
20
-5.14422720833451
30
0
41
1
10
15.8810727694392
20
-5.15353461389685
30
0
41
1
10
15.872386389437
20
-5.15703247490467
30
0
41
1
10
15.855517452384
20
-5.16466586976398
30
0
41
1
10
15.8473226044842
20
-5.16880090073514
30
0
41
1
10
15.8234267481805
20
-5.18211767058429
30
0
41
1
10
15.8084100630755
20
-5.19220543750666
30
0
41
1
10
15.7872244605916
20
-5.20909529291379
30
0
41
1
10
15.7804080814309
20
-5.21500738261557
30
0
41
1
10
15.7674404104893
20
-5.22720262815713
30
0
41
1
10
15.7612596172288
20
-5.23350870321465
30
0
41
1
10
15.7435909177987
20
-5.25302364722421
30
0
41
1
10
15.7329717290289
20
-5.26682587233793
30
0
41
1
10
15.7139986190539
20
-5.29595446676009
30
0
41
1
10
15.7058188411954
20
-5.31102270581377
30
0
41
1
10
15.691977980176
20
-5.34188225230011
30
0
41
1
10
15.6862980163446
20
-5.35770511051192
30
0
41
1
10
15.6818380304532
20
-5.3739045598557
30
0
0
SPLINE
5
136
100
AcDbEntity
8
1
62
256
6
ByLayer
370
18
48
1
60
0
100
AcDbSpline
70
4
71
3
72
34
73
30
40
0
40
0
40
0
40
0
40
0.124999999999997
40
0.124999999999997
40
0.187499999999994
40
0.187499999999994
40
0.218749999999992
40
0.218749999999992
40
0.249999999999991
40
0.249999999999991
40
0.374999999999984
40
0.374999999999984
40
0.406249999999983
40
0.406249999999983
40
0.437499999999982
40
0.499999999999984
40
0.562499999999986
40
0.562499999999986
40
0.624999999999988
40
0.624999999999988
40
0.687499999999989
40
0.687499999999989
40
0.749999999999991
40
0.749999999999991
40
0.874999999999995
40
0.874999999999995
40
0.937499999999997
40
0.937499999999997
40
1
40
1
40
1
40
1
41
1
10
14.6718476620214
20
-5.95254896641515
30
0
41
1
10
14.7208394593323
20
-5.96566553822129
30
0
41
1
10
14.770945098419
20
-5.97429781589068
30
0
41
1
10
14.8481023724607
20
-5.98020796039975
30
0
41
1
10
14.8741579501174
20
-5.9809965236357
30
0
41
1
10
14.9138278946093
20
-5.98026949064013
30
0
41
1
10
14.9271798085303
20
-5.97970580084672
30
0
41
1
10
14.9539537358994
20
-5.97791587688789
30
0
41
1
10
14.9673321899401
20
-5.97669409847288
30
0
41
1
10
15.0341945419054
20
-5.96893328405449
30
0
41
1
10
15.0875894364998
20
-5.95751015172044
30
0
41
1
10
15.1544113754504
20
-5.9357673502638
30
0
41
1
10
15.1677961932239
20
-5.93103085495372
30
0
41
1
10
15.1941478369934
20
-5.92093535155317
30
0
41
1
10
15.2332059929598
20
-5.90480971466945
30
0
41
1
10
15.2959860666201
20
-5.87307535966895
30
0
41
1
10
15.3437246825773
20
-5.8424691963574
30
0
41
1
10
15.3901697315483
20
-5.80915030755085
30
0
41
1
10
15.4121863952644
20
-5.79153568005108
30
0
41
1
10
15.4539492170245
20
-5.75455398122534
30
0
41
1
10
15.4737029913318
20
-5.73518044967059
30
0
41
1
10
15.5110603053287
20
-5.6947150948979
30
0
41
1
10
15.5287068593985
20
-5.67354047710856
30
0
41
1
10
15.5773730428752
20
-5.60901579412999
30
0
41
1
10
15.6046398483741
20
-5.56422684516903
30
0
41
1
10
15.638792442722
20
-5.49443079497155
30
0
41
1
10
15.6490658739522
20
-5.4706491547374
30
0
41
1
10
15.6672193811967
20
-5.42260884499674
30
0
41
1
10
15.6751020665243
20
-5.39837075977275
30
0
41
1
10
15.6818380304532
20
-5.3739045598557
30
0
0
SPLINE
5
137
100
AcDbEntity
8
1
62
256
6
ByLayer
370
18
48
1
60
0
100
AcDbSpline
70
4
71
3
72
24
73
20
40
0
40
0
40
0
40
0
40
0.0625000000000027
40
0.0625000000000027
40
0.125000000000005
40
0.125000000000005
40
0.250000000000013
40
0.250000000000013
40
0.312500000000016
40
0.312500000000016
40
0.37500000000002
40
0.37500000000002
40
0.500000000000015
40
0.500000000000015
40
0.62500000000001
40
0.62500000000001
40
0.750000000000005
40
0.750000000000005
40
1
40
1
40
1
40
1
41
1
10
14.3018189416602
20
-6.10442311040484
30
0
41
1
10
14.3065686621776
20
-6.09632139018686
30
0
41
1
10
14.3117102110135
20
-6.08835019077267
30
0
41
1
10
14.322644678414
20
-6.07290693429911
30
0
41
1
10
14.3283991722251
20
-6.06548230486322
30
0
41
1
10
14.3464929435949
20
-6.04406724837236
30
0
41
1
10
14.3596568946641
20
-6.03092976047492
30
0
41
1
10
14.3810396271602
20
-6.01291952202379
30
0
41
1
10
14.3884568790795
20
-6.00719464554416
30
0
41
1
10
14.4035429811598
20
-5.99652908650145
30
0
41
1
10
14.4112458314832
20
-5.99155746548533
30
0
41
1
10
14.4348134384497
20
-5.97768476963978
30
0
41
1
10
14.4511344439336
20
-5.96981928227154
30
0
41
1
10
14.4849623499584
20
-5.95680967244007
30
0
41
1
10
14.502026605104
20
-5.95183493909821
30
0
41
1
10
14.5363970022404
20
-5.9446760075167
30
0
41
1
10
14.553762941252
20
-5.9424906930814
30
0
41
1
10
14.60583055587
20
-5.94006078995395
30
0
41
1
10
14.6393960892915
20
-5.9438607082312
30
0
41
1
10
14.6718476620214
20
-5.95254896641515
30
0
0
SPLINE
5
138
100
AcDbEntity
8
1
62
256
6
ByLayer
370
18
48
1
60
0
100
AcDbSpline
70
4
71
3
72
34
73
30
40
0
40
0
40
0
40
0
40
0.124999999999985
40
0.124999999999985
40
0.187499999999977
40
0.187499999999977
40
0.218749999999973
40
0.218749999999973
40
0.24999999999997
40
0.24999999999997
40
0.374999999999977
40
0.374999999999977
40
0.406249999999975
40
0.406249999999975
40
0.437499999999973
40
0.499999999999975
40
0.562499999999977
40
0.562499999999977
40
0.624999999999979
40
0.624999999999979
40
0.687499999999981
40
0.687499999999981
40
0.749999999999983
40
0.749999999999983
40
0.874999999999995
40
0.874999999999995
40
0.937499999999997
40
0.937499999999997
40
1
40
1
40
1
40
1
41
1
10
17.3281523379786
20
-8.24745103358487
30
0
41
1
10
17.2791605406677
20
-8.23433446177876
30
0
41
1
10
17.229054901581
20
-8.22570218410937
30
0
41
1
10
17.1518976275393
20
-8.21979203960026
30
0
41
1
10
17.1258420498826
20
-8.21900347636432
30
0
41
1
10
17.0861721053907
20
-8.21973050935992
30
0
41
1
10
17.0728201914696
20
-8.2202941991533
30
0
41
1
10
17.0460462641006
20
-8.22208412311213
30
0
41
1
10
17.0326678100599
20
-8.22330590152714
30
0
41
1
10
16.9658054580945
20
-8.23106671594553
30
0
41
1
10
16.9124105635002
20
-8.24248984827958
30
0
41
1
10
16.8455886245496
20
-8.26423264973621
30
0
41
1
10
16.832203806776
20
-8.2689691450463
30
0
41
1
10
16.8058521630066
20
-8.27906464844685
30
0
41
1
10
16.7667940070401
20
-8.29519028533056
30
0
41
1
10
16.7040139333799
20
-8.3269246403311
30
0
41
1
10
16.6562753174227
20
-8.35753080364265
30
0
41
1
10
16.6098302684516
20
-8.39084969244917
30
0
41
1
10
16.5878136047356
20
-8.40846431994896
30
0
41
1
10
16.5460507829754
20
-8.4454460187747
30
0
41
1
10
16.5262970086682
20
-8.46481955032942
30
0
41
1
10
16.4889396946712
20
-8.50528490510212
30
0
41
1
10
16.4712931406014
20
-8.52645952289149
30
0
41
1
10
16.4226269571248
20
-8.59098420587003
30
0
41
1
10
16.3953601516259
20
-8.63577315483099
30
0
41
1
10
16.3612075572781
20
-8.7055692050285
30
0
41
1
10
16.3509341260477
20
-8.72935084526264
30
0
41
1
10
16.3327806188033
20
-8.77739115500327
30
0
41
1
10
16.3248979334757
20
-8.80162924022727
30
0
41
1
10
16.3181619695468
20
-8.82609544014434
30
0
0
SPLINE
5
139
100
AcDbEntity
8
1
62
256
6
ByLayer
370
18
48
1
60
0
100
AcDbSpline
70
4
71
3
72
26
73
22
40
0
40
0
40
0
40
0
40
0.12500000000001
40
0.12500000000001
40
0.25000000000002
40
0.25000000000002
40
0.312500000000037
40
0.312500000000037
40
0.375000000000054
40
0.375000000000054
40
0.50000000000006
40
0.50000000000006
40
0.562500000000052
40
0.562500000000052
40
0.625000000000045
40
0.625000000000045
40
0.75000000000003
40
0.75000000000003
40
0.875000000000015
40
0.875000000000015
40
1
40
1
40
1
40
1
41
1
10
16
20
-9.0685
30
0
41
1
10
16.0187420838797
20
-9.06850000000003
30
0
41
1
10
16.037790024121
20
-9.06686279550462
30
0
41
1
10
16.0746705458543
20
-9.06048528068294
30
0
41
1
10
16.0926468374794
20
-9.0557727916655
30
0
41
1
10
16.1189272305608
20
-9.04646538610317
30
0
41
1
10
16.127613610563
20
-9.04296752509535
30
0
41
1
10
16.144482547616
20
-9.03533413023607
30
0
41
1
10
16.1526773955158
20
-9.03119909926488
30
0
41
1
10
16.1765732518195
20
-9.01788232941576
30
0
41
1
10
16.1915899369245
20
-9.00779456249336
30
0
41
1
10
16.2127755394084
20
-8.99090470708623
30
0
41
1
10
16.2195919185691
20
-8.98499261738445
30
0
41
1
10
16.2325595895107
20
-8.97279737184289
30
0
41
1
10
16.2387403827712
20
-8.96649129678539
30
0
41
1
10
16.2564090822013
20
-8.94697635277581
30
0
41
1
10
16.2670282709711
20
-8.93317412766208
30
0
41
1
10
16.2860013809461
20
-8.90404553323992
30
0
41
1
10
16.2941811588046
20
-8.88897729418625
30
0
41
1
10
16.3080220198239
20
-8.85811774769991
30
0
41
1
10
16.3137019836554
20
-8.84229488948813
30
0
41
1
10
16.3181619695468
20
-8.82609544014434
30
0
0
SPLINE
5
13A
100
AcDbEntity
8
1
62
256
6
ByLayer
370
18
48
1
60
0
100
AcDbSpline
70
4
71
3
72
24
73
20
40
0
40
0
40
0
40
0
40
0.0625000000000019
40
0.0625000000000019
40
0.125000000000004
40
0.125000000000004
40
0.250000000000007
40
0.250000000000007
40
0.312500000000005
40
0.312500000000005
40
0.375000000000002
40
0.375000000000002
40
0.500000000000001
40
0.500000000000001
40
0.625
40
0.625
40
0.749999999999998
40
0.749999999999998
40
1
40
1
40
1
40
1
41
1
10
17.6981810583398
20
-8.09557688959518
30
0
41
1
10
17.6934313378224
20
-8.10367860981316
30
0
41
1
10
17.6882897889864
20
-8.11164980922737
30
0
41
1
10
17.677355321586
20
-8.1270930657009
30
0
41
1
10
17.6716008277749
20
-8.13451769513679
30
0
41
1
10
17.653507056405
20
-8.15593275162766
30
0
41
1
10
17.6403431053359
20
-8.1690702395251
30
0
41
1
10
17.6189603728398
20
-8.18708047797625
30
0
41
1
10
17.6115431209205
20
-8.19280535445586
30
0
41
1
10
17.5964570188402
20
-8.20347091349856
30
0
41
1
10
17.5887541685168
20
-8.20844253451472
30
0
41
1
10
17.5651865615503
20
-8.22231523036024
30
0
41
1
10
17.5488655560664
20
-8.2301807177285
30
0
41
1
10
17.5150376500416
20
-8.24319032755994
30
0
41
1
10
17.497973394896
20
-8.24816506090184
30
0
41
1
10
17.4636029977596
20
-8.25532399248331
30
0
41
1
10
17.446237058748
20
-8.25750930691862
30
0
41
1
10
17.39416944413
20
-8.25993921004607
30
0
41
1
10
17.3606039107084
20
-8.25613929176885
30
0
41
1
10
17.3281523379786
20
-8.24745103358489
30
0
0
SPLINE
5
13B
100
AcDbEntity
8
1
62
256
6
ByLayer
370
18
48
1
60
0
100
AcDbSpline
70
4
71
3
72
26
73
22
40
0
40
0
40
0
40
0
40
0.250000000000012
40
0.250000000000012
40
0.312500000000017
40
0.312500000000017
40
0.375000000000022
40
0.375000000000022
40
0.500000000000032
40
0.500000000000032
40
0.56250000000003
40
0.56250000000003
40
0.625000000000027
40
0.625000000000027
40
0.750000000000009
40
0.750000000000009
40
0.812500000000002
40
0.812500000000002
40
0.874999999999995
40
0.874999999999995
40
1
40
1
40
1
40
1
41
1
10
15.6818380304532
20
-8.82609544014434
30
0
41
1
10
15.6907807694531
20
-8.85857703334904
30
0
41
1
10
15.7045123677409
20
-8.88946368973191
30
0
41
1
10
15.728164661171
20
-8.92579851732182
30
0
41
1
10
15.7332504932268
20
-8.93297745742419
30
0
41
1
10
15.7439469908237
20
-8.94685939456053
30
0
41
1
10
15.7495666009289
20
-8.95358159444694
30
0
41
1
10
15.7672404966507
20
-8.97308672630905
30
0
41
1
10
15.7801042158832
20
-8.98521280863648
30
0
41
1
10
15.8011189451321
20
-9.0019894067492
30
0
41
1
10
15.8084116893909
20
-9.00734511719324
30
0
41
1
10
15.8236083865562
20
-9.01755156603639
30
0
41
1
10
15.8314588292887
20
-9.02236211290429
30
0
41
1
10
15.8554562271619
20
-9.03572449293853
30
0
41
1
10
15.8721665003504
20
-9.04329690404475
30
0
41
1
10
15.8983294895866
20
-9.05258397985136
30
0
41
1
10
15.9072343299035
20
-9.05533273158272
30
0
41
1
10
15.9254292302567
20
-9.06010169410391
30
0
41
1
10
15.9347154010501
20
-9.06211452550454
30
0
41
1
10
15.9625187231474
20
-9.06690358371341
30
0
41
1
10
15.98119104671
20
-9.0685
30
0
41
1
10
16
20
-9.0685
30
0
0
SPLINE
5
13C
100
AcDbEntity
8
1
62
256
6
ByLayer
370
18
48
1
60
0
100
AcDbSpline
70
4
71
3
72
34
73
30
40
0
40
0
40
0
40
0
40
0.124999999999999
40
0.124999999999999
40
0.1875
40
0.1875
40
0.218749999999999
40
0.218749999999999
40
0.249999999999998
40
0.249999999999998
40
0.374999999999997
40
0.374999999999997
40
0.406249999999997
40
0.406249999999997
40
0.437499999999997
40
0.499999999999998
40
0.562499999999999
40
0.562499999999999
40
0.625
40
0.625
40
0.6875
40
0.6875
40
0.750000000000001
40
0.750000000000001
40
0.875000000000001
40
0.875000000000001
40
0.937500000000001
40
0.937500000000001
40
1
40
1
40
1
40
1
41
1
10
15.6818380304532
20
-8.82609544014434
30
0
41
1
10
15.6683756044157
20
-8.77719755258437
30
0
41
1
10
15.6504813479254
20
-8.72960672669575
30
0
41
1
10
15.6165572925044
20
-8.66005578649057
30
0
41
1
10
15.6040598537764
20
-8.63717940089677
30
0
41
1
10
15.5833694218278
20
-8.60332472256974
30
0
41
1
10
15.5761303535396
20
-8.59209141124251
30
0
41
1
10
15.5610452042166
20
-8.56989940372523
30
0
41
1
10
15.5532249960405
20
-8.55897602964609
30
0
41
1
10
15.5127140095089
20
-8.50522043482457
30
0
41
1
10
15.4758548429775
20
-8.46493514485431
30
0
41
1
10
15.4233023422318
20
-8.41828585551983
30
0
41
1
10
15.4124468477992
20
-8.40913457392739
30
0
41
1
10
15.3904102324398
20
-8.39150744141088
30
0
41
1
10
15.3567451854695
20
-8.3659684487655
30
0
41
1
10
15.297617556169
20
-8.327858997146
30
0
41
1
10
15.2470701322235
20
-8.30215540891768
30
0
41
1
10
15.1948368936116
20
-8.27893946270265
30
0
41
1
10
15.1685061336949
20
-8.26885484885503
30
0
41
1
10
15.1154811300859
20
-8.25153063832272
30
0
41
1
10
15.0887774643552
20
-8.24428773988416
30
0
41
1
10
15.0349752898997
20
-8.23252593542011
30
0
41
1
10
15.007783602923
20
-8.22801179583885
30
0
41
1
10
14.9275064791056
20
-8.21866218546464
30
0
41
1
10
14.8750777532935
20
-8.21779191314599
30
0
41
1
10
14.7975934411138
20
-8.22362886795275
30
0
41
1
10
14.7718817194633
20
-8.22679386939393
30
0
41
1
10
14.7212572052777
20
-8.23542982562995
30
0
41
1
10
14.69636084904
20
-8.2408881190691
30
0
41
1
10
14.6718476620214
20
-8.24745103358487
30
0
0
SPLINE
5
13D
100
AcDbEntity
8
1
62
256
6
ByLayer
370
18
48
1
60
0
100
AcDbSpline
70
4
71
3
72
24
73
20
40
0
40
0
40
0
40
0
40
0.0624999999999969
40
0.0624999999999969
40
0.124999999999994
40
0.124999999999994
40
0.249999999999981
40
0.249999999999981
40
0.312499999999975
40
0.312499999999975
40
0.374999999999969
40
0.374999999999969
40
0.499999999999974
40
0.499999999999974
40
0.62499999999998
40
0.62499999999998
40
0.749999999999985
40
0.749999999999985
40
1
40
1
40
1
40
1
41
1
10
14.3018189416602
20
-8.09557688959518
30
0
41
1
10
14.3065686621776
20
-8.10367860981316
30
0
41
1
10
14.3117102110135
20
-8.11164980922737
30
0
41
1
10
14.322644678414
20
-8.1270930657009
30
0
41
1
10
14.3283991722251
20
-8.13451769513679
30
0
41
1
10
14.346492943595
20
-8.15593275162766
30
0
41
1
10
14.3596568946641
20
-8.1690702395251
30
0
41
1
10
14.3810396271602
20
-8.18708047797622
30
0
41
1
10
14.3884568790795
20
-8.19280535445586
30
0
41
1
10
14.4035429811598
20
-8.20347091349856
30
0
41
1
10
14.4112458314832
20
-8.20844253451472
30
0
41
1
10
14.4348134384497
20
-8.22231523036024
30
0
41
1
10
14.4511344439336
20
-8.23018071772847
30
0
41
1
10
14.4849623499584
20
-8.24319032755994
30
0
41
1
10
14.502026605104
20
-8.24816506090181
30
0
41
1
10
14.5363970022404
20
-8.25532399248331
30
0
41
1
10
14.553762941252
20
-8.25750930691862
30
0
41
1
10
14.60583055587
20
-8.25993921004607
30
0
41
1
10
14.6393960892915
20
-8.25613929176885
30
0
41
1
10
14.6718476620214
20
-8.24745103358487
30
0
0
SPLINE
5
13E
100
AcDbEntity
8
1
62
256
6
ByLayer
370
18
48
1
60
0
100
AcDbSpline
70
4
71
3
72
12
73
8
40
0
40
0
40
0
40
0
40
0.282123293567931
40
0.282123293567931
40
0.641061646783966
40
0.641061646783966
40
1
40
1
40
1
40
1
41
1
10
9.22962551724876
20
0.312730672053817
30
0
41
1
10
9.22018631298036
20
0.314781589375627
30
0
41
1
10
9.21076689725126
20
0.316635418411352
30
0
41
1
10
9.18954659679824
20
0.320303380455783
30
0
41
1
10
9.17785494090333
20
0.321962244275824
30
0
41
1
10
9.15494813398627
20
0.324297936900479
30
0
41
1
10
9.14372986087079
20
0.324980947161691
30
0
41
1
10
9.13284665391035
20
0.324980947161691
30
0
0
SPLINE
5
13F
100
AcDbEntity
8
1
62
256
6
ByLayer
370
18
48
1
60
0
100
AcDbSpline
70
4
71
3
72
8
73
4
40
0
40
0
40
0
40
0
40
1
40
1
40
1
40
1
41
1
10
8.97509300114021
20
0.269594177820636
30
0
41
1
10
8.97048024229872
20
0.263188796058728
30
0
41
1
10
8.96535566342396
20
0.256648768658465
30
0
41
1
10
8.95982040671319
20
0.249999999999829
30
0
0
SPLINE
5
140
100
AcDbEntity
8
1
62
256
6
ByLayer
370
18
48
1
60
0
100
AcDbSpline
70
4
71
3
72
12
73
8
40
0
40
0
40
0
40
0
40
0.20296180091499
40
0.20296180091499
40
0.601480900449485
40
0.601480900449485
40
1
40
1
40
1
40
1
41
1
10
33.905716064863
20
-14.1671118269144
30
0
41
1
10
33.7386360160618
20
-14.166875478701
30
0
41
1
10
33.5715559676418
20
-14.1666388609112
30
0
41
1
10
33.0764112788999
20
-14.1659368409032
30
0
41
1
10
32.7483466396677
20
-14.1654706688471
30
0
41
1
10
32.0922173641547
20
-14.1645362453726
30
0
41
1
10
31.7641527278706
20
-14.1640679939541
30
0
41
1
10
31.4360880930758
20
-14.1635987026181
30
0
0
SPLINE
5
141
100
AcDbEntity
8
1
62
256
6
ByLayer
370
18
48
1
60
0
100
AcDbSpline
70
4
71
3
72
8
73
4
40
0
40
0
40
0
40
0
40
1
40
1
40
1
40
1
41
1
10
8.94788459874798
20
0.25
30
0
41
1
10
8.95695689263579
20
0.256520867363747
30
0
41
1
10
8.96602634583104
20
0.263052313104737
30
0
41
1
10
8.97509300113904
20
0.269594177821347
30
0
0
SPLINE
5
142
100
AcDbEntity
8
1
62
256
6
ByLayer
370
18
48
1
60
0
100
AcDbSpline
70
4
71
3
72
18
73
14
40
0
40
0
40
0
40
0
40
0.124999999999997
40
0.124999999999997
40
0.249999999999994
40
0.249999999999994
40
0.374999999999991
40
0.374999999999991
40
0.499999999999988
40
0.499999999999988
40
0.749999999999994
40
0.749999999999994
40
1
40
1
40
1
40
1
41
1
10
9.40454881002665
20
0.324980947161663
30
0
41
1
10
9.38759768040057
20
0.324980947161663
30
0
41
1
10
9.37037734087883
20
0.324333802126603
30
0
41
1
10
9.33556537132938
20
0.322240606437305
30
0
41
1
10
9.31797101305719
20
0.320786465321106
30
0
41
1
10
9.28248929533834
20
0.317312073862979
30
0
41
1
10
9.26457702835458
20
0.315286220540855
30
0
41
1
10
9.2286184412612
20
0.310825062109671
30
0
41
1
10
9.21061352336176
20
0.308394804813759
30
0
41
1
10
9.15652522117634
20
0.300657493979827
30
0
41
1
10
9.12036847898457
20
0.294911325240093
30
0
41
1
10
9.04786915185497
20
0.282718617451991
30
0
41
1
10
9.01152644313692
20
0.276266358807078
30
0
41
1
10
8.97509300113904
20
0.269594177821347
30
0
0
SPLINE
5
143
100
AcDbEntity
8
1
62
256
6
ByLayer
370
18
48
1
60
0
100
AcDbSpline
70
4
71
3
72
40
73
36
40
0
40
0
40
0
40
0
40
0.125000000000005
40
0.125000000000005
40
0.156250000000006
40
0.156250000000006
40
0.187500000000007
40
0.187500000000007
40
0.250000000000005
40
0.250000000000005
40
0.374999999999997
40
0.374999999999997
40
0.406249999999995
40
0.406249999999995
40
0.437499999999992
40
0.499999999999988
40
0.562499999999985
40
0.562499999999985
40
0.593749999999984
40
0.593749999999984
40
0.624999999999983
40
0.624999999999983
40
0.749999999999983
40
0.749999999999983
40
0.781249999999985
40
0.781249999999985
40
0.812499999999986
40
0.812499999999986
40
0.874999999999991
40
0.874999999999991
40
0.906249999999993
40
0.906249999999993
40
0.937499999999995
40
0.937499999999995
40
1
40
1
40
1
40
1
41
1
10
23.1
20
-11.5837410709031
30
0
41
1
10
22.9926951159477
20
-11.5837410709031
30
0
41
1
10
22.8867978851008
20
-11.5725953085562
30
0
41
1
10
22.756153576627
20
-11.5449869416543
30
0
41
1
10
22.7301118935717
20
-11.53877499002
30
0
41
1
10
22.6782053841213
20
-11.524950740205
30
0
41
1
10
22.6522653451616
20
-11.5173126591723
30
0
41
1
10
22.5754044795357
20
-11.492482596149
30
0
41
1
10
22.5254203653398
20
-11.4733968647086
30
0
41
1
10
22.3790960398412
20
-11.4088275314741
30
0
41
1
10
22.286349265724
20
-11.3561014853286
30
0
41
1
10
22.1764997280536
20
-11.2779319839929
30
0
41
1
10
22.1549401144552
20
-11.2617498353116
30
0
41
1
10
22.1128530787987
20
-11.2284847937857
30
0
41
1
10
22.0511615020653
20
-11.1771559701474
30
0
41
1
10
21.9553732920389
20
-11.0846145449843
30
0
41
1
10
21.8861040771969
20
-11.0032595212486
30
0
41
1
10
21.8369410854013
20
-10.939469287538
30
0
41
1
10
21.8209800480767
20
-10.9176852738457
30
0
41
1
10
21.7902171173056
20
-10.8734874794142
30
0
41
1
10
21.7754262991243
20
-10.851096950858
30
0
41
1
10
21.7043551478029
20
-10.7377208601549
30
0
41
1
10
21.6566434927215
20
-10.6425045236135
30
0
41
1
10
21.6081576864942
20
-10.5179769461745
30
0
41
1
10
21.5990231435082
20
-10.4927936386038
30
0
41
1
10
21.581892140815
20
-10.4418650962243
30
0
41
1
10
21.5738830059672
20
-10.4160702743247
30
0
41
1
10
21.5517452712814
20
-10.3383871136238
30
0
41
1
10
21.5394582475234
20
-10.2861028474869
30
0
41
1
10
21.5246779203618
20
-10.2069446355432
30
0
41
1
10
21.5203605979085
20
-10.1804363785413
30
0
41
1
10
21.512948210307
20
-10.1271748200501
30
0
41
1
10
21.5098493353957
20
-10.1003778081827
30
0
41
1
10
21.5024309344662
20
-10.0199220846405
30
0
41
1
10
21.5
20
-9.96646024834433
30
0
41
1
10
21.5
20
-9.91316788733289
30
0
0
SPLINE
5
144
100
AcDbEntity
8
1
62
256
6
ByLayer
370
18
48
1
60
0
100
AcDbSpline
70
4
71
3
72
20
73
16
40
0
40
0
40
0
40
0
40
0.25
40
0.25
40
0.375
40
0.375
40
0.5
40
0.5
40
0.625
40
0.625
40
0.75
40
0.75
40
0.875
40
0.875
40
1
40
1
40
1
40
1
41
1
10
9.3844789550599
20
0.25
30
0
41
1
10
9.39682270649575
20
0.259824535101188
30
0
41
1
10
9.40890440191322
20
0.269050270820657
30
0
41
1
10
9.42658457612515
20
0.281897606492294
30
0
41
1
10
9.43240356571505
20
0.286013315481341
30
0
41
1
10
9.44387251607549
20
0.293868908437645
30
0
41
1
10
9.44955246765531
20
0.297627228915957
30
0
41
1
10
9.46048600059484
20
0.304557321014272
30
0
41
1
10
9.46575547887247
20
0.307741778715808
30
0
41
1
10
9.47584069438224
20
0.313466776029827
30
0
41
1
10
9.48067606109115
20
0.316017460644701
30
0
41
1
10
9.48970604367264
20
0.320287538788818
30
0
41
1
10
9.49383752136632
20
0.321978904858042
30
0
41
1
10
9.50120547788177
20
0.324325438354236
30
0
41
1
10
9.50446684643606
20
0.324980947161691
30
0
41
1
10
9.5070945452878
20
0.324980947161691
30
0
0
SPLINE
5
145
100
AcDbEntity
8
1
62
256
6
ByLayer
370
18
48
1
60
0
100
AcDbSpline
70
4
71
2
72
6
73
3
40
0
40
0
40
0
40
1
40
1
40
1
41
1
10
9.50723215695228
20
0.324980947161691
30
0
41
1
10
9.53999786148736
20
0.324980947161691
30
0
41
1
10
9.57062122153147
20
0.324980947161691
30
0
0
SPLINE
5
146
100
AcDbEntity
8
1
62
256
6
ByLayer
370
18
48
1
60
0
100
AcDbSpline
70
4
71
3
72
18
73
14
40
0
40
0
40
0
40
0
40
0.249999999999998
40
0.249999999999998
40
0.374999999999997
40
0.374999999999997
40
0.499999999999996
40
0.499999999999996
40
0.749999999999998
40
0.749999999999998
40
0.874999999999999
40
0.874999999999999
40
1
40
1
40
1
40
1
41
1
10
14.8184692127086
20
0.249980947161674
30
0
41
1
10
14.8074408879534
20
0.25978207251589
30
0
41
1
10
14.7967015141747
20
0.269079983040143
30
0
41
1
10
14.7810985572145
20
0.282134384874752
30
0
41
1
10
14.7760027492335
20
0.286317935978389
30
0
41
1
10
14.7661922846909
20
0.294192871663853
30
0
41
1
10
14.7614560038651
20
0.29790260373386
30
0
41
1
10
14.7478183865456
20
0.308259492032192
30
0
41
1
10
14.7393963271011
20
0.314194627055087
30
0
41
1
10
14.729075461519
20
0.320451985953838
30
0
41
1
10
14.7259716490943
20
0.322125675212874
30
0
41
1
10
14.7207746365131
20
0.324388699392443
30
0
41
1
10
14.7186893510728
20
0.32498094716172
30
0
41
1
10
14.7171680292953
20
0.32498094716172
30
0
0
SPLINE
5
147
100
AcDbEntity
8
1
62
256
6
ByLayer
370
18
48
1
60
0
100
AcDbSpline
70
4
71
3
72
22
73
18
40
0
40
0
40
0
40
0
40
0.125
40
0.125
40
0.25
40
0.25
40
0.375
40
0.375
40
0.5
40
0.5
40
0.625
40
0.625
40
0.75
40
0.75
40
0.875
40
0.875
40
1
40
1
40
1
40
1
41
1
10
9.57048139756094
20
0.324980947060027
30
0
41
1
10
9.57251449079982
20
0.324980699935452
30
0
41
1
10
9.57410536556662
20
0.324533102723962
30
0
41
1
10
9.57628182451117
20
0.322618634072569
30
0
41
1
10
9.57683167984811
20
0.321175545408039
30
0
41
1
10
9.57685514810564
20
0.317350053736362
30
0
41
1
10
9.57631860575586
20
0.314932710155119
30
0
41
1
10
9.5741997112676
20
0.309275100347463
30
0
41
1
10
9.57263907119452
20
0.306067076874996
30
0
41
1
10
9.56861585716385
20
0.298965833156615
30
0
41
1
10
9.56613810398775
20
0.295057128232287
30
0
41
1
10
9.56055905507199
20
0.28690587896952
30
0
41
1
10
9.55744018536603
20
0.282630010692884
30
0
41
1
10
9.55063275024946
20
0.273730195609943
30
0
41
1
10
9.5469222663894
20
0.26908108225922
30
0
41
1
10
9.53914014588514
20
0.259653435704053
30
0
41
1
10
9.53505931314226
20
0.254861141173507
30
0
41
1
10
9.53081289439862
20
0.249999999999943
30
0
0
SPLINE
5
148
100
AcDbEntity
8
1
62
256
6
ByLayer
370
18
48
1
60
0
100
AcDbSpline
70
4
71
3
72
8
73
4
40
0
40
0
40
0
40
0
40
1
40
1
40
1
40
1
41
1
10
15.2430820962789
20
-0.129903810567669
30
0
41
1
10
15.4272614048143
20
-0.311558795603588
30
0
41
1
10
15.6113958294121
20
-0.493259035297626
30
0
41
1
10
15.7954898626159
20
-0.675000000000011
30
0
0
SPLINE
5
149
100
AcDbEntity
8
1
62
256
6
ByLayer
370
18
48
1
60
0
100
AcDbSpline
70
4
71
3
72
8
73
4
40
0
40
0
40
0
40
0
40
1
40
1
40
1
40
1
41
1
10
15.2430820962789
20
-0.129903810567669
30
0
41
1
10
15.1020216400389
20
-0.0028773178347024
30
0
41
1
10
14.9604945734528
20
0.123759749017154
30
0
41
1
10
14.8184692127086
20
0.249980947161674
30
0
0
SPLINE
5
14A
100
AcDbEntity
8
1
62
256
6
ByLayer
370
18
48
1
60
0
100
AcDbSpline
70
4
71
3
72
12
73
8
40
0
40
0
40
0
40
0
40
0.5
40
0.5
40
0.75
40
0.75
40
1
40
1
40
1
40
1
41
1
10
32.8514981939755
20
-16.5
30
0
41
1
10
32.8250866653542
20
-16.6926215230549
30
0
41
1
10
32.7983109309046
20
-16.8851395609691
30
0
41
1
10
32.7570966553736
20
-17.1736180802456
30
0
41
1
10
32.7431801784447
20
-17.2697269004815
30
0
41
1
10
32.7148179060588
20
-17.4617941408276
30
0
41
1
10
32.7003759373058
20
-17.5577536482543
30
0
41
1
10
32.685514673746
20
-17.6535940176037
30
0
0
SPLINE
5
14B
100
AcDbEntity
8
1
62
256
6
ByLayer
370
18
48
1
60
0
100
AcDbSpline
70
4
71
3
72
8
73
4
40
0
40
0
40
0
40
0
40
1
40
1
40
1
40
1
41
1
10
33.0267770172148
20
-16.4159227623864
30
0
41
1
10
32.9684491786964
20
-16.4444004679185
30
0
41
1
10
32.9100586915477
20
-16.4725905278333
30
0
41
1
10
32.8514981939756
20
-16.5
30
0
0
SPLINE
5
14C
100
AcDbEntity
8
1
62
256
6
ByLayer
370
18
48
1
60
0
100
AcDbSpline
70
4
71
3
72
20
73
16
40
0
40
0
40
0
40
0
40
0.250000000000001
40
0.250000000000001
40
0.375
40
0.375
40
0.5
40
0.5
40
0.625
40
0.625
40
0.75
40
0.75
40
0.875
40
0.875
40
1
40
1
40
1
40
1
41
1
10
33.1
20
-16.2749688692686
30
0
41
1
10
33.1
20
-16.2906154703116
30
0
41
1
10
33.0982350113453
20
-16.3058406057954
30
0
41
1
10
33.0929847603154
20
-16.3280567882605
30
0
41
1
10
33.0908173665987
20
-16.3352332079605
30
0
41
1
10
33.0857488603431
20
-16.3489305808315
30
0
41
1
10
33.0828391293578
20
-16.3554880391188
30
0
41
1
10
33.07626083358
20
-16.3680143889908
30
0
41
1
10
33.0726085184946
20
-16.373934553615
30
0
41
1
10
33.0647934677856
20
-16.3848097611125
30
0
41
1
10
33.0606058521869
20
-16.3898139083348
30
0
41
1
10
33.0516728607017
20
-16.3989590351324
30
0
41
1
10
33.0469169098255
20
-16.4030966578375
30
0
41
1
10
33.037112704795
20
-16.4102776284609
30
0
41
1
10
33.0320335073588
20
-16.413356358723
30
0
41
1
10
33.0267770172148
20
-16.4159227623864
30
0
0
SPLINE
5
14D
100
AcDbEntity
8
1
62
256
6
ByLayer
370
18
48
1
60
0
100
AcDbSpline
70
4
71
3
72
20
73
16
40
0
40
0
40
0
40
0
40
0.250000000000026
40
0.250000000000026
40
0.375000000000038
40
0.375000000000038
40
0.500000000000031
40
0.500000000000031
40
0.625000000000023
40
0.625000000000023
40
0.750000000000015
40
0.750000000000015
40
0.875000000000008
40
0.875000000000008
40
1
40
1
40
1
40
1
41
1
10
33.026777017215
20
-15.5840772376137
30
0
41
1
10
33.0372920567318
20
-15.5892110503286
30
0
41
1
10
33.0470416737058
20
-15.5963285347892
30
0
41
1
10
33.0604898085692
20
-15.610053240317
30
0
41
1
10
33.06474386683
20
-15.6151282558027
30
0
41
1
10
33.0725589576125
20
-15.6259895274068
30
0
41
1
10
33.0761569548167
20
-15.6318114046973
30
0
41
1
10
33.0827177390073
20
-15.6442580087266
30
0
41
1
10
33.0856948951848
20
-15.6509378195402
30
0
41
1
10
33.090789802468
20
-15.6646782892514
30
0
41
1
10
33.0929349500253
20
-15.6717765786221
30
0
41
1
10
33.096418551245
20
-15.6864304464582
30
0
41
1
10
33.0977624626886
20
-15.6940447604527
30
0
41
1
10
33.0995500855061
20
-15.7094401787341
30
0
41
1
10
33.1000000000117
20
-15.7172027725805
30
0
41
1
10
33.1000000000118
20
-15.7250311307297
30
0
0
SPLINE
5
14E
100
AcDbEntity
8
1
62
256
6
ByLayer
370
18
48
1
60
0
100
AcDbSpline
70
4
71
3
72
8
73
4
40
0
40
0
40
0
40
0
40
1
40
1
40
1
40
1
41
1
10
32.8514981939756
20
-15.5
30
0
41
1
10
32.9100751308115
20
-15.5274171666291
30
0
41
1
10
32.9684611811007
20
-15.5556053920781
30
0
41
1
10
33.026777017215
20
-15.5840772376137
30
0
0
SPLINE
5
14F
100
AcDbEntity
8
1
62
256
6
ByLayer
370
18
48
1
60
0
100
AcDbSpline
70
4
71
3
72
12
73
8
40
0
40
0
40
0
40
0
40
0.249999999999999
40
0.249999999999999
40
0.499999999999998
40
0.499999999999998
40
1
40
1
40
1
40
1
41
1
10
32.6796740820496
20
-14.3088909378616
30
0
41
1
10
32.6951387149024
20
-14.4078169249946
30
0
41
1
10
32.7101263754707
20
-14.5068823236585
30
0
41
1
10
32.7395246693917
20
-14.7051817770069
30
0
41
1
10
32.7539303272579
20
-14.8044172859483
30
0
41
1
10
32.7965648558447
20
-15.1022940523301
30
0
41
1
10
32.8242251609647
20
-15.30109545221
30
0
41
1
10
32.8514981939756
20
-15.5
30
0
0
SPLINE
5
150
100
AcDbEntity
8
1
62
256
6
ByLayer
370
18
48
1
60
0
100
AcDbSpline
70
4
71
3
72
20
73
16
40
0
40
0
40
0
40
0
40
0.125
40
0.125
40
0.250000000000001
40
0.250000000000001
40
0.500000000000002
40
0.500000000000002
40
0.625000000000001
40
0.625000000000001
40
0.750000000000001
40
0.750000000000001
40
0.875
40
0.875
40
1
40
1
40
1
40
1
41
1
10
-11.1539311130558
20
0.249980947163749
30
0
41
1
10
-11.1604321264514
20
0.254843125490652
30
0
41
1
10
-11.1669160865667
20
0.259584653592839
30
0
41
1
10
-11.1798450150413
20
0.268812423928665
30
0
41
1
10
-11.1863183862468
20
0.273317667880235
30
0
41
1
10
-11.205414819476
20
0.286238759708993
30
0
41
1
10
-11.2177208346944
20
0.29407886125324
30
0
41
1
10
-11.2353751890956
20
0.304408475138501
30
0
41
1
10
-11.2411564914624
20
0.307626792034853
30
0
41
1
10
-11.2522175048208
20
0.313387918152557
30
0
41
1
10
-11.2574809997012
20
0.315925042907423
30
0
41
1
10
-11.2673785357809
20
0.320189385940665
30
0
41
1
10
-11.2720438166112
20
0.32192703352834
30
0
41
1
10
-11.2804336330612
20
0.324326717375243
30
0
41
1
10
-11.2841126650964
20
0.32498094716189
30
0
41
1
10
-11.2871772280887
20
0.324980947161919
30
0
0
SPLINE
5
151
100
AcDbEntity
8
1
62
256
6
ByLayer
370
18
48
1
60
0
100
AcDbSpline
70
4
71
3
72
8
73
4
40
0
40
0
40
0
40
0
40
1
40
1
40
1
40
1
41
1
10
-11.1032350631269
20
0.212243119289184
30
0
41
1
10
-11.1201660472026
20
0.224786456048634
30
0
41
1
10
-11.1370643731012
20
0.237366129676758
30
0
41
1
10
-11.1539311130555
20
0.249980947161646
30
0
0
SPLINE
5
152
100
AcDbEntity
8
1
62
256
6
ByLayer
370
18
48
1
60
0
100
AcDbSpline
70
4
71
3
72
16
73
12
40
0
40
0
40
0
40
0
40
0.250000000000001
40
0.250000000000001
40
0.500000000000003
40
0.500000000000003
40
0.750000000000004
40
0.750000000000004
40
0.875000000000002
40
0.875000000000002
40
1
40
1
40
1
40
1
41
1
10
-9.96637832280616
20
0.249980947161674
30
0
41
1
10
-9.99078675577488
20
0.259909297798572
30
0
41
1
10
-10.0150264157267
20
0.269095229194733
30
0
41
1
10
-10.0631479963767
20
0.285965246733184
30
0
41
1
10
-10.0870307140286
20
0.293653557543223
30
0
41
1
10
-10.1343736234426
20
0.307193150124277
30
0
41
1
10
-10.1578378552941
20
0.313070425791182
30
0
41
1
10
-10.1925916480194
20
0.319751268507474
30
0
41
1
10
-10.2040252939894
20
0.321595212906118
30
0
41
1
10
-10.2261105645492
20
0.324200732781947
30
0
41
1
10
-10.2368176996361
20
0.324980947160697
30
0
41
1
10
-10.2470436468637
20
0.324980947161663
30
0
0
SPLINE
5
153
100
AcDbEntity
8
1
62
256
6
ByLayer
370
18
48
1
60
0
100
AcDbSpline
70
4
71
3
72
8
73
4
40
0
40
0
40
0
40
0
40
1
40
1
40
1
40
1
41
1
10
-9.6602176053169
20
0.133311925562765
30
0
41
1
10
-9.76333499205694
20
0.169915419787401
30
0
41
1
10
-9.86535047200447
20
0.208886956074963
30
0
41
1
10
-9.96637832280624
20
0.249980947161504
30
0
0
SPLINE
5
154
100
AcDbEntity
8
1
62
256
6
ByLayer
370
18
48
1
60
0
100
AcDbSpline
70
4
71
3
72
14
73
10
40
0
40
0
40
0
40
0
40
0.30351339028498
40
0.30351339028498
40
0.60702678056996
40
0.60702678056996
40
0.91054017085494
40
0.91054017085494
40
1
40
1
40
1
40
1
41
1
10
-9.40454881002677
20
0.324980947161663
30
0
41
1
10
-9.38759768042245
20
0.324980947161663
30
0
41
1
10
-9.37037734089566
20
0.324333802127739
30
0
41
1
10
-9.33556537129779
20
0.322240606435287
30
0
41
1
10
-9.31797101298206
20
0.320786465315137
30
0
41
1
10
-9.28248929514582
20
0.317312073842743
30
0
41
1
10
-9.26457702802551
20
0.315286220502202
30
0
41
1
10
-9.24129838173926
20
0.31239818352293
30
0
41
1
10
-9.23599680282317
20
0.311723378500659
30
0
41
1
10
-9.23069302613939
20
0.311032527846322
30
0
0
SPLINE
5
155
100
AcDbEntity
8
1
62
256
6
ByLayer
370
18
48
1
60
0
100
AcDbSpline
70
4
71
3
72
16
73
12
40
0
40
0
40
0
40
0
40
0.22521897400314
40
0.22521897400314
40
0.45043794800628
40
0.45043794800628
40
0.67565692200942
40
0.67565692200942
40
0.90087589601256
40
0.90087589601256
40
1
40
1
40
1
40
1
41
1
10
-11.0234674519049
20
0.324980947168172
30
0
41
1
10
-11.0186481431831
20
0.324980947167972
30
0
41
1
10
-11.0131968590635
20
0.324294057072905
30
0
41
1
10
-11.0013242982397
20
0.321823931556111
30
0
41
1
10
-10.9950506921146
20
0.320074036858045
30
0
41
1
10
-10.9819859246727
20
0.315793026802652
30
0
41
1
10
-10.9751929157508
20
0.313258941423413
30
0
41
1
10
-10.9611695861205
20
0.3075343818509
30
0
41
1
10
-10.9539161602598
20
0.304330463663064
30
0
41
1
10
-10.9433966326858
20
0.299396040292777
30
0
41
1
10
-10.9401655207043
20
0.297843114270307
30
0
41
1
10
-10.9369189903125
20
0.296247252501473
30
0
0
SPLINE
5
156
100
AcDbEntity
8
1
62
256
6
ByLayer
370
18
48
1
60
0
100
AcDbSpline
70
4
71
3
72
20
73
16
40
0
40
0
40
0
40
0
40
0.249999999999982
40
0.249999999999982
40
0.374999999999985
40
0.374999999999985
40
0.499999999999988
40
0.499999999999988
40
0.624999999999991
40
0.624999999999991
40
0.749999999999994
40
0.749999999999994
40
0.874999999999997
40
0.874999999999997
40
1
40
1
40
1
40
1
41
1
10
-11.1114500273988
20
0.249980947154313
30
0
41
1
10
-11.1195900715259
20
0.259735651200032
30
0
41
1
10
-11.1270564922387
20
0.269508992532707
30
0
41
1
10
-11.1360204266698
20
0.283150106968293
30
0
41
1
10
-11.1386768192221
20
0.287590116805859
30
0
41
1
10
-11.1430395672149
20
0.295963435139413
30
0
41
1
10
-11.1447268949469
20
0.29985100455238
30
0
41
1
10
-11.1470034342433
20
0.306969162786601
30
0
41
1
10
-11.1475787917377
20
0.310212274884549
30
0
41
1
10
-11.1474895806123
20
0.31567755487319
30
0
41
1
10
-11.1468471997408
20
0.317947268097811
30
0
41
1
10
-11.1443698180766
20
0.321572915063968
30
0
41
1
10
-11.1425602599156
20
0.322880500925265
30
0
41
1
10
-11.1379995581218
20
0.324581483697585
30
0
41
1
10
-11.1352153779729
20
0.32498094716172
30
0
41
1
10
-11.1320782392769
20
0.32498094716172
30
0
0
SPLINE
5
157
100
AcDbEntity
8
1
62
256
6
ByLayer
370
18
48
1
60
0
100
AcDbSpline
70
4
71
3
72
41
73
37
40
0
40
0
40
0
40
0
40
0.125000000000003
40
0.125000000000003
40
0.187500000000004
40
0.187500000000004
40
0.218750000000005
40
0.218750000000005
40
0.250000000000005
40
0.250000000000005
40
0.374999999999997
40
0.374999999999997
40
0.499999999999989
40
0.499999999999989
40
0.531249999999988
40
0.531249999999988
40
0.562499999999988
40
0.562499999999988
40
0.624999999999984
40
0.624999999999984
40
0.68749999999998
40
0.68749999999998
40
0.718749999999979
40
0.734374999999979
40
0.734374999999979
40
0.74999999999998
40
0.74999999999998
40
0.812499999999983
40
0.812499999999983
40
0.874999999999987
40
0.874999999999987
40
0.90624999999999
40
0.90624999999999
40
0.937499999999993
40
0.937499999999993
40
1
40
1
40
1
40
1
41
1
10
23.1
20
-13.5760638112727
30
0
41
1
10
23.003551913063
20
-13.5638164270266
30
0
41
1
10
22.9084607838114
20
-13.5428406306241
30
0
41
1
10
22.7677899344695
20
-13.4987319570876
30
0
41
1
10
22.7212292832609
20
-13.4819087616718
30
0
41
1
10
22.6518918606318
20
-13.4534349372158
30
0
41
1
10
22.6288634358738
20
-13.4434030278113
30
0
41
1
10
22.5829777808207
20
-13.4222380281419
30
0
41
1
10
22.5601413199806
20
-13.4111118475471
30
0
41
1
10
22.4472549564437
20
-13.3531377267437
30
0
41
1
10
22.3603876569094
20
-13.2990144803797
30
0
41
1
10
22.1936798499277
20
-13.1749578702005
30
0
41
1
10
22.1138298488307
20
-13.1050458668741
30
0
41
1
10
22.0189835144073
20
-13.0064821035155
30
0
41
1
10
22.0002643275108
20
-12.9862043423919
30
0
41
1
10
21.9633563475969
20
-12.944464801791
30
0
41
1
10
21.9453009618206
20
-12.9231536872802
30
0
41
1
10
21.8923486171139
20
-12.8578763809919
30
0
41
1
10
21.8586618810475
20
-12.8125702011257
30
0
41
1
10
21.7946928113888
20
-12.7181884044572
30
0
41
1
10
21.7644091055314
20
-12.6691143070601
30
0
41
1
10
21.7217647254837
20
-12.5924237724545
30
0
41
1
10
21.7011395390924
20
-12.5533067658355
30
0
41
1
10
21.6816218799991
20
-12.5129634781477
30
0
41
1
10
21.6688647511872
20
-12.4857860051056
30
0
41
1
10
21.662606817222
20
-12.4720403687944
30
0
41
1
10
21.6321453208082
20
-12.4029746566437
30
0
41
1
10
21.6103001273434
20
-12.3464098066391
30
0
41
1
10
21.5719612172562
20
-12.2304977661588
30
0
41
1
10
21.5554646012183
20
-12.1711520831475
30
0
41
1
10
21.5351458828576
20
-12.0798322852428
30
0
41
1
10
21.5291128743907
20
-12.0490076649327
30
0
41
1
10
21.5186292793343
20
-11.9865356913434
30
0
41
1
10
21.5142221315787
20
-11.9551243383994
30
0
41
1
10
21.5036216474865
20
-11.86090724968
30
0
41
1
10
21.4999999999999
20
-11.7978893641808
30
0
41
1
10
21.4999999999999
20
-11.7346544189685
30
0
0
SPLINE
5
158
100
AcDbEntity
8
1
62
256
6
ByLayer
370
18
48
1
60
0
100
AcDbSpline
70
4
71
3
72
9
73
5
40
0
40
0
40
0
40
0
40
0.5
40
1
40
1
40
1
40
1
41
1
10
10.3885656683962
20
-1.35753920737761
30
0
41
1
10
10.4223280233231
20
-1.36335541594897
30
0
41
1
10
10.4902926869092
20
-1.37204681272578
30
0
41
1
10
10.5591157419288
20
-1.375
30
0
41
1
10
10.593748156342
20
-1.375
30
0
0
SPLINE
5
159
100
AcDbEntity
8
1
62
256
6
ByLayer
370
18
48
1
60
0
100
AcDbSpline
70
4
71
3
72
30
73
26
40
0
40
0
40
0
40
0
40
0.125000000000007
40
0.125000000000007
40
0.187500000000005
40
0.187500000000005
40
0.250000000000004
40
0.250000000000004
40
0.375000000000001
40
0.375000000000001
40
0.437499999999999
40
0.437499999999999
40
0.499999999999997
40
0.499999999999997
40
0.624999999999997
40
0.624999999999997
40
0.687499999999999
40
0.687499999999999
40
0.75
40
0.75
40
0.875
40
0.875
40
0.9375
40
0.9375
40
1
40
1
40
1
40
1
41
1
10
10.3885656683962
20
-1.35753920737758
30
0
41
1
10
10.3725769510693
20
-1.35043649184078
30
0
41
1
10
10.3570150539348
20
-1.34125326378336
30
0
41
1
10
10.3343194973799
20
-1.3243232448834
30
0
41
1
10
10.3268338465609
20
-1.31812437066793
30
0
41
1
10
10.3122282395104
20
-1.30476318989145
30
0
41
1
10
10.3051385487059
20
-1.29763439598162
30
0
41
1
10
10.2844916116683
20
-1.27493958336478
30
0
41
1
10
10.2715524892908
20
-1.25807357051426
30
0
41
1
10
10.2533890169325
20
-1.23015571156287
30
0
41
1
10
10.2475336035718
20
-1.22039396153269
30
0
41
1
10
10.2362938056151
20
-1.20003653587057
30
0
41
1
10
10.2309673347538
20
-1.18954867316901
30
0
41
1
10
10.2158421101627
20
-1.15718513004282
30
0
41
1
10
10.2068920716582
20
-1.13441526059285
30
0
41
1
10
10.1951674906063
20
-1.09846886889591
30
0
41
1
10
10.1915440776094
20
-1.08618669921529
30
0
41
1
10
10.1848843247539
20
-1.06100383158724
30
0
41
1
10
10.1818836815989
20
-1.04823306186862
30
0
41
1
10
10.1738903460554
20
-1.00959859854385
30
0
41
1
10
10.1698767621814
20
-0.983328367635892
30
0
41
1
10
10.1658189687721
20
-0.943156192910664
30
0
41
1
10
10.1647950576133
20
-0.929637042188773
30
0
41
1
10
10.1634229106751
20
-0.90233473804895
30
0
41
1
10
10.1630807948133
20
-0.888611598389531
30
0
41
1
10
10.1630807948133
20
-0.875
30
0
0
SPLINE
5
15A
100
AcDbEntity
8
1
62
256
6
ByLayer
370
18
48
1
60
0
100
AcDbSpline
70
4
71
3
72
81
73
77
40
0
40
0
40
0
40
0
40
0.0078125000000014
40
0.0078125000000014
40
0.0117187500000022
40
0.0117187500000022
40
0.0156250000000029
40
0.0156250000000029
40
0.0175781250000036
40
0.0175781250000036
40
0.0185546875000047
40
0.0185546875000047
40
0.0195312500000057
40
0.0195312500000057
40
0.021484375000006
40
0.021484375000006
40
0.0234375000000063
40
0.0234375000000063
40
0.027343750000006
40
0.027343750000006
40
0.0312500000000056
40
0.0312500000000056
40
0.0390625000000057
40
0.0390625000000057
40
0.0468750000000058
40
0.0468750000000058
40
0.0625000000000061
40
0.0625000000000061
40
0.0937500000000061
40
0.0937500000000061
40
0.125000000000006
40
0.125000000000006
40
0.187500000000006
40
0.187500000000006
40
0.250000000000007
40
0.250000000000007
40
0.375000000000007
40
0.375000000000007
40
0.500000000000007
40
0.625000000000008
40
0.625000000000008
40
0.687500000000008
40
0.687500000000008
40
0.750000000000008
40
0.750000000000008
40
0.812500000000008
40
0.812500000000008
40
0.875000000000008
40
0.875000000000008
40
0.906250000000008
40
0.906250000000008
40
0.937500000000008
40
0.937500000000008
40
0.953125000000009
40
0.953125000000009
40
0.960937500000009
40
0.960937500000009
40
0.968750000000009
40
0.968750000000009
40
0.972656250000008
40
0.972656250000008
40
0.976562500000008
40
0.976562500000008
40
0.978515625000007
40
0.978515625000007
40
0.980468750000007
40
0.980468750000007
40
0.982421875000007
40
0.982421875000007
40
0.984375000000006
40
0.984375000000006
40
0.988281250000005
40
0.988281250000005
40
0.992187500000003
40
0.992187500000003
40
1
40
1
40
1
40
1
41
1
10
-1.91224221525877
20
-0.394519052838348
30
0
41
1
10
-1.92282156572341
20
-0.397533435195697
30
0
41
1
10
-1.93328703299298
20
-0.400792642800013
30
0
41
1
10
-1.94859288445008
20
-0.406516669262459
30
0
41
1
10
-1.95359149055579
20
-0.408552813285269
30
0
41
1
10
-1.96318270865214
20
-0.413077560163515
30
0
41
1
10
-1.96785173654942
20
-0.415569664711199
30
0
41
1
10
-1.97395171242519
20
-0.420048670860751
30
0
41
1
10
-1.97580369573171
20
-0.421646658949015
30
0
41
1
10
-1.97804087537853
20
-0.424340153169822
30
0
41
1
10
-1.97867307625054
20
-0.425265399838054
30
0
41
1
10
-1.97964165466874
20
-0.427187280234904
30
0
41
1
10
-1.97997556416402
20
-0.428196550109391
30
0
41
1
10
-1.98037246688429
20
-0.43117668739427
30
0
41
1
10
-1.97980883341094
20
-0.433156040210008
30
0
41
1
10
-1.97748212350464
20
-0.436651382667122
30
0
41
1
10
-1.97581374795769
20
-0.438152979130422
30
0
41
1
10
-1.97009904328226
20
-0.442195860936522
30
0
41
1
10
-1.9655580550596
20
-0.444199414509057
30
0
41
1
10
-1.95606843466254
20
-0.44772119324756
30
0
41
1
10
-1.95106731633356
20
-0.449203062644983
30
0
41
1
10
-1.93595107519369
20
-0.45314305633795
30
0
41
1
10
-1.92557687187247
20
-0.455151548859874
30
0
41
1
10
-1.9045789202523
20
-0.458657307765151
30
0
41
1
10
-1.89394318274023
20
-0.460129304204259
30
0
41
1
10
-1.86179262627238
20
-0.464054865240968
30
0
41
1
10
-1.84020397899076
20
-0.466007269746626
30
0
41
1
10
-1.77556093947166
20
-0.470916772337659
30
0
41
1
10
-1.73240444053894
20
-0.472937703046796
30
0
41
1
10
-1.64603636785407
20
-0.476023509055125
30
0
41
1
10
-1.60282241164063
20
-0.477033463499424
30
0
41
1
10
-1.47312342215651
20
-0.479215768728096
30
0
41
1
10
-1.38658196181325
20
-0.479556475236905
30
0
41
1
10
-1.21341185681212
20
-0.479476207823097
30
0
41
1
10
-1.12678156308039
20
-0.479017268009557
30
0
41
1
10
-0.866793441191248
20
-0.477269893009009
30
0
41
1
10
-0.693339956070815
20
-0.475647183276322
30
0
41
1
10
-0.346258593410312
20
-0.473375275194542
30
0
41
1
10
0.0010003507703402
20
-0.47200367055919
30
0
41
1
10
0.34857405178758
20
-0.473386319949782
30
0
41
1
10
0.609388405753833
20
-0.475099760634464
30
0
41
1
10
0.696349175854408
20
-0.475776693033907
30
0
41
1
10
0.870323792927167
20
-0.477166899227512
30
0
41
1
10
0.957329148831519
20
-0.477882761325304
30
0
41
1
10
1.13113690460131
20
-0.479041949024122
30
0
41
1
10
1.21796857575396
20
-0.479493958295478
30
0
41
1
10
1.39143454900756
20
-0.479542216888063
30
0
41
1
10
1.47807229819915
20
-0.479177404442254
30
0
41
1
10
1.60778691374301
20
-0.476925497381728
30
0
41
1
10
1.65098443404136
20
-0.475886802092418
30
0
41
1
10
1.73725264988951
20
-0.472719601202726
30
0
41
1
10
1.78025703058955
20
-0.47064578145492
30
0
41
1
10
1.84417449210775
20
-0.465656248769307
30
0
41
1
10
1.86538741092383
20
-0.463682824017269
30
0
41
1
10
1.896922807263
20
-0.459723906732535
30
0
41
1
10
1.90740435871612
20
-0.458233151164734
30
0
41
1
10
1.92812264321614
20
-0.454664943117905
30
0
41
1
10
1.93832423326464
20
-0.452621312482364
30
0
41
1
10
1.9530654260048
20
-0.448616583755751
30
0
41
1
10
1.957886259075
20
-0.447126197110265
30
0
41
1
10
1.96714261473934
20
-0.443496857369752
30
0
41
1
10
1.97155211298312
20
-0.441419320218785
30
0
41
1
10
1.97684146809385
20
-0.437229800282637
30
0
41
1
10
1.9783365049384
20
-0.435660915574715
30
0
41
1
10
1.98016767343336
20
-0.432084882313745
30
0
41
1
10
1.9804197424285
20
-0.430094718808903
30
0
41
1
10
1.97937553127724
20
-0.426188446354047
30
0
41
1
10
1.97814356823218
20
-0.424317649885836
30
0
41
1
10
1.97498510374817
20
-0.420901794091293
30
0
41
1
10
1.97308244679581
20
-0.419356299912835
30
0
41
1
10
1.96692460319255
20
-0.415043395047604
30
0
41
1
10
1.96229755695148
20
-0.412623793809502
30
0
41
1
10
1.95271325741356
20
-0.408182097958019
30
0
41
1
10
1.94779456186376
20
-0.406204007763876
30
0
41
1
10
1.93283786110663
20
-0.400656000617459
30
0
41
1
10
1.92260027365086
20
-0.397470382277845
30
0
41
1
10
1.91224221527577
20
-0.39451905284318
30
0
0
SPLINE
5
15B
100
AcDbEntity
8
1
62
256
6
ByLayer
370
18
48
1
60
0
100
AcDbSpline
70
4
71
3
72
17
73
13
40
0
40
0
40
0
40
0
40
0.25
40
0.25
40
0.375
40
0.4375
40
0.4375
40
0.5
40
0.5
40
0.75
40
0.75
40
1
40
1
40
1
40
1
41
1
10
1.91224221527679
20
-0.394519052843464
30
0
41
1
10
1.60159777754356
20
-0.306006897427324
30
0
41
1
10
1.28701472260693
20
-0.236782441218367
30
0
41
1
10
0.808326323249872
20
-0.166313521538967
30
0
41
1
10
0.567279119098828
20
-0.139418800322744
30
0
41
1
10
0.323519502227214
20
-0.12580696443888
30
0
41
1
10
0.160394283177027
20
-0.119762754673957
30
0
41
1
10
0.078362911948318
20
-0.118261377257454
30
0
41
1
10
-0.329727668873488
20
-0.118464900509594
30
0
41
1
10
-0.651754427740201
20
-0.143175179431694
30
0
41
1
10
-1.28776911723094
20
-0.236983023929383
30
0
41
1
10
-1.60176192357355
20
-0.306053667681027
30
0
41
1
10
-1.91224221525877
20
-0.394519052838348
30
0
0
SPLINE
5
15C
100
AcDbEntity
8
1
62
256
6
ByLayer
370
18
48
1
60
0
100
AcDbSpline
70
4
71
3
72
8
73
4
40
0
40
0
40
0
40
0
40
1
40
1
40
1
40
1
41
1
10
-14.5615187733781
20
-0.236518773378123
30
0
41
1
10
-14.3513710386801
20
-0.0731431542574228
30
0
41
1
10
-14.1400184018759
20
0.0890594833153955
30
0
41
1
10
-13.9273497265336
20
0.249980947161674
30
0
0
SPLINE
5
15D
100
AcDbEntity
8
1
62
256
6
ByLayer
370
18
48
1
60
0
100
AcDbSpline
70
4
71
3
72
8
73
4
40
0
40
0
40
0
40
0
40
1
40
1
40
1
40
1
41
1
10
-14.5615187733781
20
-0.236518773378123
30
0
41
1
10
-14.7076620247758
20
-0.382662024775755
30
0
41
1
10
-14.8538226741322
20
-0.528822674132243
30
0
41
1
10
-15
20
-0.675000000000011
30
0
0
SPLINE
5
15E
100
AcDbEntity
8
1
62
256
6
ByLayer
370
18
48
1
60
0
100
AcDbSpline
70
4
71
3
72
8
73
4
40
0
40
0
40
0
40
0
40
1
40
1
40
1
40
1
41
1
10
7.81377042360424
20
-0.474999999999994
30
0
41
1
10
7.85488481363834
20
-0.541662508489168
30
0
41
1
10
7.89599665707925
20
-0.608329227881853
30
0
41
1
10
7.93710604868392
20
-0.675000000000011
30
0
0
SPLINE
5
15F
100
AcDbEntity
8
1
62
256
6
ByLayer
370
18
48
1
60
0
100
AcDbSpline
70
4
71
3
72
8
73
4
40
0
40
0
40
0
40
0
40
1
40
1
40
1
40
1
41
1
10
6.6006504881843
20
0.32498094716172
30
0
41
1
10
7.00588166662234
20
0.061815372088347
30
0
41
1
10
7.41022395361119
20
-0.20497133121728
30
0
41
1
10
7.81377042360424
20
-0.474999999999994
30
0
0
SPLINE
5
160
100
AcDbEntity
8
1
62
256
6
ByLayer
370
18
48
1
60
0
100
AcDbSpline
70
4
71
3
72
30
73
26
40
0
40
0
40
0
40
0
40
0.0625000000000002
40
0.0625000000000002
40
0.125
40
0.125
40
0.187500000000001
40
0.187500000000001
40
0.218750000000001
40
0.218750000000001
40
0.25
40
0.25
40
0.312499999999999
40
0.312499999999999
40
0.374999999999997
40
0.374999999999997
40
0.437499999999995
40
0.437499999999995
40
0.499999999999993
40
0.499999999999993
40
0.624999999999995
40
0.624999999999995
40
0.749999999999997
40
0.749999999999997
40
1
40
1
40
1
40
1
41
1
10
6.22292588125003
20
0.249980947131121
30
0
41
1
10
6.21955595240865
20
0.252914908876164
30
0
41
1
10
6.21636758997769
20
0.255939059647659
30
0
41
1
10
6.21051007557585
20
0.262245767396166
30
0
41
1
10
6.20785466491733
20
0.265522644781726
30
0
41
1
10
6.20351609927596
20
0.272168749535751
30
0
41
1
10
6.20179147637555
20
0.275624633340158
30
0
41
1
10
6.20027976527979
20
0.280687054084183
30
0
41
1
10
6.19995012421148
20
0.282353947498052
30
0
41
1
10
6.19966320953691
20
0.285643710974028
30
0
41
1
10
6.19971056995726
20
0.287281667244514
30
0
41
1
10
6.2004140800575
20
0.291948296582604
30
0
41
1
10
6.20160828920962
20
0.294772273174488
30
0
41
1
10
6.20518386142254
20
0.299949113688825
30
0
41
1
10
6.20751976611061
20
0.302231168235778
30
0
41
1
10
6.21287035292437
20
0.30627486682053
30
0
41
1
10
6.21591426295652
20
0.308054038889253
30
0
41
1
10
6.22230861856275
20
0.311160963692004
30
0
41
1
10
6.2256865724155
20
0.312508448027302
30
0
41
1
10
6.2362068230992
20
0.316109021782751
30
0
41
1
10
6.24372854904976
20
0.31792809148601
30
0
41
1
10
6.25939445407607
20
0.320848040210763
30
0
41
1
10
6.26750018480016
20
0.321930725538721
30
0
41
1
10
6.29208157702351
20
0.324377259675799
30
0
41
1
10
6.30895523289027
20
0.324980947161663
30
0
41
1
10
6.32610759209325
20
0.324980947161663
30
0
0
SPLINE
5
161
100
AcDbEntity
8
1
62
256
6
ByLayer
370
18
48
1
60
0
100
AcDbSpline
70
4
71
3
72
8
73
4
40
0
40
0
40
0
40
0
40
1
40
1
40
1
40
1
41
1
10
6.94370199057298
20
-0.394519052838319
30
0
41
1
10
6.70648353684354
20
-0.177135671773783
30
0
41
1
10
6.46649386217231
20
0.0379233125618441
30
0
41
1
10
6.2229258812701
20
0.249980947141125
30
0
0
SPLINE
5
162
100
AcDbEntity
8
1
62
256
6
ByLayer
370
18
48
1
60
0
100
AcDbSpline
70
4
71
3
72
40
73
36
40
0
40
0
40
0
40
0
40
0.249999999999992
40
0.249999999999992
40
0.374999999999988
40
0.374999999999988
40
0.499999999999983
40
0.499999999999983
40
0.562499999999983
40
0.562499999999983
40
0.624999999999983
40
0.624999999999983
40
0.687499999999984
40
0.687499999999984
40
0.749999999999984
40
0.749999999999984
40
0.781249999999982
40
0.781249999999982
40
0.812499999999981
40
0.812499999999981
40
0.84374999999998
40
0.84374999999998
40
0.874999999999979
40
0.874999999999979
40
0.890624999999981
40
0.890624999999981
40
0.906249999999984
40
0.906249999999984
40
0.921874999999986
40
0.921874999999986
40
0.937499999999989
40
0.937499999999989
40
0.968749999999994
40
0.968749999999994
40
1
40
1
40
1
40
1
41
1
10
6.31056345909113
20
-0.394519052838518
30
0
41
1
10
6.37477160274292
20
-0.411379638935813
30
0
41
1
10
6.43873436581833
20
-0.426175341576084
30
0
41
1
10
6.53429778488416
20
-0.445232963789806
30
0
41
1
10
6.56608797546158
20
-0.451051827023463
30
0
41
1
10
6.62952417807892
20
-0.461442125692656
30
0
41
1
10
6.66117064223556
20
-0.466019194826799
30
0
41
1
10
6.70850783880189
20
-0.471655016990979
30
0
41
1
10
6.72426466292015
20
-0.473326678573329
30
0
41
1
10
6.7557261014864
20
-0.476161098836997
30
0
41
1
10
6.77145110599577
20
-0.477324643893013
30
0
41
1
10
6.80250792684535
20
-0.478976540973378
30
0
41
1
10
6.81787500488093
20
-0.479471186456607
30
0
41
1
10
6.84817943934439
20
-0.479560419705763
30
0
41
1
10
6.86312052932414
20
-0.479163283900618
30
0
41
1
10
6.88505053830161
20
-0.477539240813599
30
0
41
1
10
6.8922792992789
20
-0.476824350812876
30
0
41
1
10
6.90651936764425
20
-0.47492561812976
30
0
41
1
10
6.91354439935401
20
-0.473737864933412
30
0
41
1
10
6.92700114264716
20
-0.470750396595264
30
0
41
1
10
6.93346671813322
20
-0.468952428293051
30
0
41
1
10
6.94560309325294
20
-0.464430091165326
30
0
41
1
10
6.9513232003797
20
-0.461676155240184
30
0
41
1
10
6.95851683438016
20
-0.456587871636742
30
0
41
1
10
6.96069380192048
20
-0.454727700184236
30
0
41
1
10
6.96446307291583
20
-0.450572101252135
30
0
41
1
10
6.9660284372105
20
-0.448294122549783
30
0
41
1
10
6.96829725749961
20
-0.443380727673969
30
0
41
1
10
6.96901235433305
20
-0.440690505253485
30
0
41
1
10
6.96943324881519
20
-0.435114089853443
30
0
41
1
10
6.96915785814377
20
-0.432219602519865
30
0
41
1
10
6.96690761888635
20
-0.423224118274902
30
0
41
1
10
6.96353664392529
20
-0.417072710650359
30
0
41
1
10
6.9547696385205
20
-0.405342643436654
30
0
41
1
10
6.94949560394613
20
-0.39982823196766
30
0
41
1
10
6.94370199057298
20
-0.394519052838319
30
0
0
SPLINE
5
163
100
AcDbEntity
8
1
62
256
6
ByLayer
370
18
48
1
60
0
100
AcDbSpline
70
4
71
3
72
8
73
4
40
0
40
0
40
0
40
0
40
1
40
1
40
1
40
1
41
1
10
3.02046224885069
20
0.249980947161674
30
0
41
1
10
4.1359861011274
20
0.107222523982614
30
0
41
1
10
5.23174171602679
20
-0.111228400779481
30
0
41
1
10
6.31056345909118
20
-0.394519052838035
30
0
0
SPLINE
5
164
100
AcDbEntity
8
1
62
256
6
ByLayer
370
18
48
1
60
0
100
AcDbSpline
70
4
71
3
72
14
73
10
40
0
40
0
40
0
40
0
40
0.25
40
0.25
40
0.5
40
0.5
40
0.75
40
0.75
40
1
40
1
40
1
40
1
41
1
10
1.73594520006452
20
0.324980947161691
30
0
41
1
10
1.84309474173762
20
0.324980947161691
30
0
41
1
10
1.95022075456774
20
0.323452236129214
30
0
41
1
10
2.16441448633978
20
0.317526654577222
30
0
41
1
10
2.27148283436821
20
0.313119988055348
30
0
41
1
10
2.48557990191409
20
0.301179376033105
30
0
41
1
10
2.59260836335665
20
0.293649067375753
30
0
41
1
10
2.80666688413962
20
0.274872902970941
30
0
41
1
10
2.91367618098349
20
0.263646823185127
30
0
41
1
10
3.02046224885069
20
0.249980947161873
30
0
0
SPLINE
5
165
100
AcDbEntity
8
1
62
256
6
ByLayer
370
18
48
1
60
0
100
AcDbSpline
70
4
71
3
72
14
73
10
40
0
40
0
40
0
40
0
40
0.25
40
0.25
40
0.5
40
0.5
40
0.75
40
0.75
40
1
40
1
40
1
40
1
41
1
10
-3.02046224885069
20
0.249980947161674
30
0
41
1
10
-2.91364525025705
20
0.263650781524092
30
0
41
1
10
-2.80678930238935
20
0.274859400504965
30
0
41
1
10
-2.5929587792904
20
0.293621089038169
30
0
41
1
10
-2.48598486060513
20
0.301152741664794
30
0
41
1
10
-2.27190023278158
20
0.31310074243703
30
0
41
1
10
-2.16478964220232
20
0.317513647984981
30
0
41
1
10
-1.95042328219981
20
0.323449254272589
30
0
41
1
10
-1.84314979610454
20
0.324980947161777
30
0
41
1
10
-1.73594520006452
20
0.324980947161805
30
0
0
SPLINE
5
166
100
AcDbEntity
8
1
62
256
6
ByLayer
370
18
48
1
60
0
100
AcDbSpline
70
4
71
3
72
8
73
4
40
0
40
0
40
0
40
0
40
1
40
1
40
1
40
1
41
1
10
-6.31056345909118
20
-0.394519052838035
30
0
41
1
10
-5.23174171602679
20
-0.111228400779481
30
0
41
1
10
-4.1359861011274
20
0.107222523982614
30
0
41
1
10
-3.02046224885069
20
0.249980947161674
30
0
0
SPLINE
5
167
100
AcDbEntity
8
1
62
256
6
ByLayer
370
18
48
1
60
0
100
AcDbSpline
70
4
71
3
72
38
73
34
40
0
40
0
40
0
40
0
40
0.0312500000000052
40
0.0312500000000052
40
0.0468750000000062
40
0.0468750000000062
40
0.0625000000000071
40
0.0625000000000071
40
0.0781250000000081
40
0.0781250000000081
40
0.093750000000009
40
0.093750000000009
40
0.125000000000006
40
0.125000000000006
40
0.140625000000004
40
0.140625000000004
40
0.156250000000001
40
0.156250000000001
40
0.187500000000001
40
0.187500000000001
40
0.25
40
0.25
40
0.312499999999999
40
0.312499999999999
40
0.374999999999998
40
0.374999999999998
40
0.499999999999998
40
0.499999999999998
40
0.624999999999999
40
0.624999999999999
40
0.749999999999999
40
0.749999999999999
40
1
40
1
40
1
40
1
41
1
10
-6.94370199056817
20
-0.394519052828656
30
0
41
1
10
-6.9495089607814
20
-0.399840471962022
30
0
41
1
10
-6.95487075364812
20
-0.405468539475009
30
0
41
1
10
-6.96135311380292
20
-0.414155954724294
30
0
41
1
10
-6.96325940255426
20
-0.417097475831469
30
0
41
1
10
-6.96640667043525
20
-0.423099880046607
30
0
41
1
10
-6.96761586971134
20
-0.426116302492147
30
0
41
1
10
-6.96912327073854
20
-0.432023475740436
30
0
41
1
10
-6.96942508964125
20
-0.434972492078259
30
0
41
1
10
-6.96904305703674
20
-0.440519738392709
30
0
41
1
10
-6.96837681671261
20
-0.44313609854143
30
0
41
1
10
-6.96505057587959
20
-0.450546752266519
30
0
41
1
10
-6.96127333729441
20
-0.454550304265439
30
0
41
1
10
-6.95423460305094
20
-0.459654605409497
30
0
41
1
10
-6.95163771382978
20
-0.461207412579711
30
0
41
1
10
-6.94617531052329
20
-0.464004555016857
30
0
41
1
10
-6.94329636121341
20
-0.465259768489347
30
0
41
1
10
-6.9343104346141
20
-0.468687677720766
30
0
41
1
10
-6.92784789140545
20
-0.470525557031891
30
0
41
1
10
-6.90791400683658
20
-0.475054351303299
30
0
41
1
10
-6.8937652828689
20
-0.476844350446214
30
0
41
1
10
-6.86452894475394
20
-0.479103966090861
30
0
41
1
10
-6.84957718700788
20
-0.479534942909794
30
0
41
1
10
-6.81927766291614
20
-0.479502300680736
30
0
41
1
10
-6.80391672916962
20
-0.479030439618185
30
0
41
1
10
-6.75736948056058
20
-0.476614959196013
30
0
41
1
10
-6.72600609437083
20
-0.473707937008868
30
0
41
1
10
-6.66283482364827
20
-0.466246113727465
30
0
41
1
10
-6.63100511188702
20
-0.461668317289963
30
0
41
1
10
-6.56705479949272
20
-0.451225942276523
30
0
41
1
10
-6.53505244750717
20
-0.44537695498147
30
0
41
1
10
-6.43896947048802
20
-0.426235064494222
30
0
41
1
10
-6.37481328661716
20
-0.411390584814342
30
0
41
1
10
-6.31056345909113
20
-0.394519052838348
30
0
0
SPLINE
5
168
100
AcDbEntity
8
1
62
256
6
ByLayer
370
18
48
1
60
0
100
AcDbSpline
70
4
71
3
72
8
73
4
40
0
40
0
40
0
40
0
40
1
40
1
40
1
40
1
41
1
10
-6.2229258812701
20
0.249980947141125
30
0
41
1
10
-6.4664938621694
20
0.0379233125644021
30
0
41
1
10
-6.70648353683777
20
-0.17713567176861
30
0
41
1
10
-6.94370199056442
20
-0.394519052830475
30
0
0
SPLINE
5
169
100
AcDbEntity
8
1
62
256
6
ByLayer
370
18
48
1
60
0
100
AcDbSpline
70
4
71
3
72
28
73
24
40
0
40
0
40
0
40
0
40
0.249999999999992
40
0.249999999999992
40
0.374999999999987
40
0.374999999999987
40
0.499999999999983
40
0.499999999999983
40
0.562499999999985
40
0.562499999999985
40
0.624999999999987
40
0.624999999999987
40
0.687499999999989
40
0.687499999999989
40
0.749999999999992
40
0.749999999999992
40
0.812499999999994
40
0.812499999999994
40
0.874999999999996
40
0.874999999999996
40
0.937499999999998
40
0.937499999999998
40
1
40
1
40
1
40
1
41
1
10
-6.32610759209325
20
0.324980947161663
30
0
41
1
10
-6.30894164051671
20
0.324980947161663
30
0
41
1
10
-6.29206351344484
20
0.324375867069932
30
0
41
1
10
-6.26749588936983
20
0.321930095246671
30
0
41
1
10
-6.2594332674004
20
0.320855188810611
30
0
41
1
10
-6.24369435696326
20
0.317921804204559
30
0
41
1
10
-6.23609002146526
20
0.316080959786547
30
0
41
1
10
-6.22550351037791
20
0.312439632077798
30
0
41
1
10
-6.22210698144582
20
0.311076075105149
30
0
41
1
10
-6.21568609914914
20
0.307929189855884
30
0
41
1
10
-6.21267351534166
20
0.30614672963037
30
0
41
1
10
-6.20738715966201
20
0.302109007415226
30
0
41
1
10
-6.20507139005912
20
0.299823372219606
30
0
41
1
10
-6.20153703134238
20
0.294630037775505
30
0
41
1
10
-6.20034973300679
20
0.291754064168089
30
0
41
1
10
-6.19947715640618
20
0.285483953660503
30
0
41
1
10
-6.19979992398484
20
0.282212586931053
30
0
41
1
10
-6.20188043678124
20
0.275412687019298
30
0
41
1
10
-6.20359999834162
20
0.272014335422199
30
0
41
1
10
-6.20799059239903
20
0.265341649736172
30
0
41
1
10
-6.21065250989122
20
0.262082766471423
30
0
41
1
10
-6.21643658084923
20
0.2558747816623
30
0
41
1
10
-6.21958846278596
20
0.252886604388976
30
0
41
1
10
-6.22292588127033
20
0.249980947140926
30
0
0
SPLINE
5
16A
100
AcDbEntity
8
1
62
256
6
ByLayer
370
18
48
1
60
0
100
AcDbSpline
70
4
71
3
72
17
73
13
40
0
40
0
40
0
40
0
40
0.25
40
0.5
40
0.5
40
0.625
40
0.625
40
0.75
40
0.75
40
0.875
40
0.875
40
1
40
1
40
1
40
1
41
1
10
-7.15410175340969
20
0.249980947161816
30
0
41
1
10
-7.11949273474029
20
0.260870976065661
30
0
41
1
10
-7.05026156071183
20
0.280409342926959
30
0
41
1
10
-6.98098651916527
20
0.295834974764006
30
0
41
1
10
-6.9290120046367
20
0.305730156657205
30
0
41
1
10
-6.91168423969094
20
0.308745403149373
30
0
41
1
10
-6.87726105822415
20
0.314112278634411
30
0
41
1
10
-6.86013732462261
20
0.316470394553619
30
0
41
1
10
-6.82609666353447
20
0.320433354681313
30
0
41
1
10
-6.80917906795581
20
0.322040380930361
30
0
41
1
10
-6.77560867949246
20
0.324310745266985
30
0
41
1
10
-6.75895378391422
20
0.324980947161606
30
0
41
1
10
-6.74249188881707
20
0.324980947161663
30
0
0
SPLINE
5
16B
100
AcDbEntity
8
1
62
256
6
ByLayer
370
18
48
1
60
0
100
AcDbSpline
70
4
71
3
72
8
73
4
40
0
40
0
40
0
40
0
40
1
40
1
40
1
40
1
41
1
10
-8.98692851463423
20
-0.394519052838319
30
0
41
1
10
-8.384783437259
20
-0.160922546217108
30
0
41
1
10
-7.77427580892314
20
0.0548377836275904
30
0
41
1
10
-7.15410175340971
20
0.249980947161674
30
0
0
SPLINE
5
16C
100
AcDbEntity
8
1
62
256
6
ByLayer
370
18
48
1
60
0
100
AcDbSpline
70
4
71
3
72
38
73
34
40
0
40
0
40
0
40
0
40
0.0312499999999898
40
0.0312499999999898
40
0.0624999999999797
40
0.0624999999999797
40
0.0937499999999695
40
0.0937499999999695
40
0.124999999999959
40
0.124999999999959
40
0.140624999999957
40
0.140624999999957
40
0.156249999999955
40
0.156249999999955
40
0.187499999999958
40
0.187499999999958
40
0.21874999999996
40
0.21874999999996
40
0.249999999999963
40
0.249999999999963
40
0.312499999999968
40
0.312499999999968
40
0.374999999999973
40
0.374999999999973
40
0.437499999999978
40
0.437499999999978
40
0.499999999999984
40
0.499999999999984
40
0.62499999999999
40
0.62499999999999
40
0.749999999999997
40
0.749999999999997
40
1
40
1
40
1
40
1
41
1
10
-9.39538846339337
20
-0.394519052837154
30
0
41
1
10
-9.39931252043964
20
-0.398885595145714
30
0
41
1
10
-9.40294265258267
20
-0.403307302163142
30
0
41
1
10
-9.40943685546672
20
-0.41229412988929
30
0
41
1
10
-9.41232312472627
20
-0.416909228814092
30
0
41
1
10
-9.41685123823549
20
-0.425966268108198
30
0
41
1
10
-9.41852742540985
20
-0.430476184279087
30
0
41
1
10
-9.42034760074219
20
-0.439106172816139
30
0
41
1
10
-9.42048798744298
20
-0.44314609700092
30
0
41
1
10
-9.41953665683756
20
-0.448791861472614
30
0
41
1
10
-9.41901882100981
20
-0.450615689000983
30
0
41
1
10
-9.41763416504909
20
-0.454029340103233
30
0
41
1
10
-9.41676860092079
20
-0.455629436905042
30
0
41
1
10
-9.41370522919763
20
-0.460142637892375
30
0
41
1
10
-9.41101084625686
20
-0.462790271628421
30
0
41
1
10
-9.40475722197043
20
-0.467329854200074
30
0
41
1
10
-9.40121470148263
20
-0.469229096419326
30
0
41
1
10
-9.39349606281391
20
-0.472464916766313
30
0
41
1
10
-9.38930097964762
20
-0.473801534714227
30
0
41
1
10
-9.37622144042925
20
-0.477070148566497
30
0
41
1
10
-9.36677891891844
20
-0.478317730661246
30
0
41
1
10
-9.34696068021994
20
-0.479621526876542
30
0
41
1
10
-9.33658051127526
20
-0.479660016760334
30
0
41
1
10
-9.31547973767195
20
-0.478868132934792
30
0
41
1
10
-9.30470496885985
20
-0.478037327116795
30
0
41
1
10
-9.28280754864188
20
-0.475708447562795
30
0
41
1
10
-9.27164840317904
20
-0.474201921571563
30
0
41
1
10
-9.23811409009987
20
-0.468915971092088
30
0
41
1
10
-9.21561276810894
20
-0.464384190703157
30
0
41
1
10
-9.17039514074557
20
-0.453877630445248
30
0
41
1
10
-9.14767753970108
20
-0.447892731526878
30
0
41
1
10
-9.07924677772215
20
-0.428095750861701
30
0
41
1
10
-9.0332619564788
20
-0.412493674837833
30
0
41
1
10
-8.98692851463424
20
-0.394519052838433
30
0
0
SPLINE
5
16D
100
AcDbEntity
8
1
62
256
6
ByLayer
370
18
48
1
60
0
100
AcDbSpline
70
4
71
3
72
8
73
4
40
0
40
0
40
0
40
0
40
1
40
1
40
1
40
1
41
1
10
-8.81287846405296
20
0.249980947156075
30
0
41
1
10
-9.0077785167926
20
0.0356424895420275
30
0
41
1
10
-9.20190632438599
20
-0.179219444300429
30
0
41
1
10
-9.3953884633876
20
-0.394519052838319
30
0
0
SPLINE
5
16E
100
AcDbEntity
8
1
62
256
6
ByLayer
370
18
48
1
60
0
100
AcDbSpline
70
4
71
3
72
28
73
24
40
0
40
0
40
0
40
0
40
0.249999999999976
40
0.249999999999976
40
0.374999999999974
40
0.374999999999974
40
0.499999999999971
40
0.499999999999971
40
0.562499999999975
40
0.562499999999975
40
0.624999999999978
40
0.624999999999978
40
0.687499999999982
40
0.687499999999982
40
0.749999999999986
40
0.749999999999986
40
0.812499999999989
40
0.812499999999989
40
0.874999999999993
40
0.874999999999993
40
0.937499999999996
40
0.937499999999996
40
1
40
1
40
1
40
1
41
1
10
-8.86408179867618
20
0.324980947162231
30
0
41
1
10
-8.85129538935948
20
0.32498094716226
30
0
41
1
10
-8.83894481110525
20
0.324132477893784
30
0
41
1
10
-8.82221699514493
20
0.32075719148483
30
0
41
1
10
-8.81692618508805
20
0.319278475547179
30
0
41
1
10
-8.80719346932879
20
0.315274284744561
30
0
41
1
10
-8.80288537420074
20
0.312803317823807
30
0
41
1
10
-8.79764866346821
20
0.308104402530773
30
0
41
1
10
-8.79609940480201
20
0.306352422583785
30
0
41
1
10
-8.79358803963606
20
0.302536520574051
30
0
41
1
10
-8.79261865796582
20
0.30047339121117
30
0
41
1
10
-8.79132427301086
20
0.295998566424203
30
0
41
1
10
-8.79100712746298
20
0.293571945582585
30
0
41
1
10
-8.79108275102195
20
0.288549776175699
30
0
41
1
10
-8.79146539182062
20
0.285933125165428
30
0
41
1
10
-8.79290203059389
20
0.280494627087478
30
0
41
1
10
-8.79395351452457
20
0.277701759323776
30
0
41
1
10
-8.79656638697136
20
0.272147870695989
30
0
41
1
10
-8.79813432448751
20
0.269361345622173
30
0
41
1
10
-8.80171509926663
20
0.263772010194657
30
0
41
1
10
-8.80374131425189
20
0.260953956620313
30
0
41
1
10
-8.80809426650329
20
0.255412160239644
30
0
41
1
10
-8.81042372701619
20
0.25268050799562
30
0
41
1
10
-8.81287846405201
20
0.249980947155791
30
0
0
SPLINE
5
16F
100
AcDbEntity
8
1
62
256
6
ByLayer
370
18
48
1
60
0
100
AcDbSpline
70
4
71
3
72
18
73
14
40
0
40
0
40
0
40
0
40
0.25
40
0.25
40
0.5
40
0.5
40
0.625
40
0.625
40
0.75
40
0.75
40
0.875
40
0.875
40
1
40
1
40
1
40
1
41
1
10
-9.42014604979882
20
0.249980947161674
30
0
41
1
10
-9.39555423460408
20
0.260573449959651
30
0
41
1
10
-9.3709080164588
20
0.270230194328235
30
0
41
1
10
-9.32201317218862
20
0.287558568041931
30
0
41
1
10
-9.29769042100246
20
0.295264739422492
30
0
41
1
10
-9.2614134877624
20
0.305221378626044
30
0
41
1
10
-9.24935609579742
20
0.308270592014935
30
0
41
1
10
-9.22532162877248
20
0.313754324838584
30
0
41
1
10
-9.21330961472535
20
0.316195905728222
30
0
41
1
10
-9.18954659680884
20
0.320303380454163
30
0
41
1
10
-9.17785494091434
20
0.321962244274374
30
0
41
1
10
-9.15494813399802
20
0.324297936899598
30
0
41
1
10
-9.1437298608829
20
0.324980947161151
30
0
41
1
10
-9.13284665392271
20
0.324980947161691
30
0
0
SPLINE
5
170
100
AcDbEntity
8
1
62
256
6
ByLayer
370
18
48
1
60
0
100
AcDbSpline
70
4
71
3
72
8
73
4
40
0
40
0
40
0
40
0
40
1
40
1
40
1
40
1
41
1
10
-10.8261977204866
20
-0.394519052838319
30
0
41
1
10
-10.3635024894917
20
-0.169886976943701
30
0
41
1
10
-9.89509800998097
20
0.045403532794694
30
0
41
1
10
-9.42014604979882
20
0.249980947161674
30
0
0
SPLINE
5
171
100
AcDbEntity
8
1
62
256
6
ByLayer
370
18
48
1
60
0
100
AcDbSpline
70
4
71
3
72
39
73
35
40
0
40
0
40
0
40
0
40
0.0624999999999838
40
0.0624999999999838
40
0.0937499999999786
40
0.0937499999999786
40
0.124999999999973
40
0.124999999999973
40
0.156249999999968
40
0.156249999999968
40
0.187499999999963
40
0.187499999999963
40
0.218749999999958
40
0.218749999999958
40
0.249999999999952
40
0.281249999999947
40
0.281249999999947
40
0.312499999999942
40
0.312499999999942
40
0.374999999999945
40
0.374999999999945
40
0.437499999999948
40
0.437499999999948
40
0.499999999999951
40
0.499999999999951
40
0.562499999999954
40
0.562499999999954
40
0.624999999999957
40
0.624999999999957
40
0.749999999999971
40
0.749999999999971
40
0.874999999999986
40
0.874999999999986
40
1
40
1
40
1
40
1
41
1
10
-11.1279670839746
20
-0.394519052838319
30
0
41
1
10
-11.1344994067131
20
-0.402327507790147
30
0
41
1
10
-11.1403381258876
20
-0.410305290730918
30
0
41
1
10
-11.147148000852
20
-0.421949799605244
30
0
41
1
10
-11.1491042633321
20
-0.425789142768139
30
0
41
1
10
-11.1522661294609
20
-0.433367252098947
30
0
41
1
10
-11.1534486470362
20
-0.43707126200934
30
0
41
1
10
-11.1548792054188
20
-0.444063384204014
30
0
41
1
10
-11.1551425423024
20
-0.447385299333632
30
0
41
1
10
-11.1547000127545
20
-0.453656662833254
30
0
41
1
10
-11.1540017219895
20
-0.456500109917954
30
0
41
1
10
-11.1517438299298
20
-0.461655824862362
30
0
41
1
10
-11.1501654640366
20
-0.463986118035706
30
0
41
1
10
-11.1462927930953
20
-0.468066856897167
30
0
41
1
10
-11.1417564108312
20
-0.471545769909596
30
0
41
1
10
-11.1361417146117
20
-0.474049581821959
30
0
41
1
10
-11.1300670569308
20
-0.476138633700827
30
0
41
1
10
-11.1267820133678
20
-0.476978430843047
30
0
41
1
10
-11.1164767895555
20
-0.478927144527404
30
0
41
1
10
-11.1090219945275
20
-0.479486703751746
30
0
41
1
10
-11.0932713386151
20
-0.479548725267819
30
0
41
1
10
-11.0849977650711
20
-0.479041057890981
30
0
41
1
10
-11.0681342039558
20
-0.477241484467243
30
0
41
1
10
-11.0594969792525
20
-0.475947166332247
30
0
41
1
10
-11.0418937770116
20
-0.472731225930374
30
0
41
1
10
-11.0329270751786
20
-0.47080817215442
30
0
41
1
10
-11.0147120130597
20
-0.466427265972556
30
0
41
1
10
-11.0054357249662
20
-0.463959959019945
30
0
41
1
10
-10.9775778122249
20
-0.455947419880573
30
0
41
1
10
-10.958882884293
20
-0.449784789803459
30
0
41
1
10
-10.9212952504409
20
-0.436148777585913
30
0
41
1
10
-10.9024018906364
20
-0.428670682946205
30
0
41
1
10
-10.8644350163225
20
-0.412508030361977
30
0
41
1
10
-10.8453613808028
20
-0.403822742416708
30
0
41
1
10
-10.8261977204866
20
-0.394519052838319
30
0
0
SPLINE
5
172
100
AcDbEntity
8
1
62
256
6
ByLayer
370
18
48
1
60
0
100
AcDbSpline
70
4
71
3
72
8
73
4
40
0
40
0
40
0
40
0
40
1
40
1
40
1
40
1
41
1
10
-10.5881465384974
20
0.249980947159912
30
0
41
1
10
-10.7682360652239
20
0.0352414300963915
30
0
41
1
10
-10.9481691234914
20
-0.179596378150762
30
0
41
1
10
-11.1279670839745
20
-0.394519052838319
30
0
0
SPLINE
5
173
100
AcDbEntity
8
1
62
256
6
ByLayer
370
18
48
1
60
0
100
AcDbSpline
70
4
71
3
72
22
73
18
40
0
40
0
40
0
40
0
40
0.125
40
0.125
40
0.25
40
0.25
40
0.375
40
0.375
40
0.5
40
0.5
40
0.625
40
0.625
40
0.75
40
0.75
40
0.875
40
0.875
40
1
40
1
40
1
40
1
41
1
10
-10.6124575382183
20
0.324980947163198
30
0
41
1
10
-10.6072496942067
20
0.324980947163254
30
0
41
1
10
-10.6022321565404
20
0.32471243842005
30
0
41
1
10
-10.5926877142222
20
0.323486343691656
30
0
41
1
10
-10.5882140101569
20
0.322533301974119
30
0
41
1
10
-10.5801191826616
20
0.319788199103215
30
0
41
1
10
-10.5764671398953
20
0.317988035234293
30
0
41
1
10
-10.5703512144501
20
0.313281206585003
30
0
41
1
10
-10.5679631001511
20
0.310436416643597
30
0
41
1
10
-10.5648541823852
20
0.303528393936119
30
0
41
1
10
-10.5642045954565
20
0.299573635406631
30
0
41
1
10
-10.5647901952416
20
0.290809930744786
30
0
41
1
10
-10.5660666715437
20
0.285914845664848
30
0
41
1
10
-10.5701679829123
20
0.275969703602755
30
0
41
1
10
-10.572985089628
20
0.27083784852482
30
0
41
1
10
-10.5798645746344
20
0.260343891665031
30
0
41
1
10
-10.5838159736942
20
0.255144731035841
30
0
41
1
10
-10.588146538497
20
0.249980947159855
30
0
0
SPLINE
5
174
100
AcDbEntity
8
1
62
256
6
ByLayer
370
18
48
1
60
0
100
AcDbSpline
70
4
71
3
72
18
73
14
40
0
40
0
40
0
40
0
40
0.24999999999999
40
0.24999999999999
40
0.374999999999989
40
0.374999999999989
40
0.499999999999988
40
0.499999999999988
40
0.749999999999986
40
0.749999999999986
40
0.874999999999993
40
0.874999999999993
40
1
40
1
40
1
40
1
41
1
10
-11.0361737618139
20
0.249980947161674
30
0
41
1
10
-11.0164600587409
20
0.260339148990965
30
0
41
1
10
-10.9967579988524
20
0.269872232720218
30
0
41
1
10
-10.9672176050399
20
0.282909900397783
30
0
41
1
10
-10.9573700935551
20
0.28704319003694
30
0
41
1
10
-10.9378759446479
20
0.294780090670855
30
0
41
1
10
-10.9282051094205
20
0.298394950509135
30
0
41
1
10
-10.8994387758157
20
0.308419743129093
30
0
41
1
10
-10.8805796347571
20
0.314041022539698
30
0
41
1
10
-10.8529592725556
20
0.320261231068514
30
0
41
1
10
-10.8438730220196
20
0.321952441620653
30
0
41
1
10
-10.8264247732998
20
0.324303802427465
30
0
41
1
10
-10.8180111708273
20
0.324980947160952
30
0
41
1
10
-10.8100221617362
20
0.324980947161663
30
0
0
SPLINE
5
175
100
AcDbEntity
8
1
62
256
6
ByLayer
370
18
48
1
60
0
100
AcDbSpline
70
4
71
3
72
8
73
4
40
0
40
0
40
0
40
0
40
1
40
1
40
1
40
1
41
1
10
-12.21262584537
20
-0.394519052838319
30
0
41
1
10
-11.8249154221808
20
-0.173606852417663
30
0
41
1
10
-11.4329616463351
20
0.0414960685943413
30
0
41
1
10
-11.0361737618139
20
0.249980947161674
30
0
0
SPLINE
5
176
100
AcDbEntity
8
1
62
256
6
ByLayer
370
18
48
1
60
0
100
AcDbSpline
70
4
71
3
72
34
73
30
40
0
40
0
40
0
40
0
40
0.0624999999999971
40
0.0624999999999971
40
0.0937499999999958
40
0.0937499999999958
40
0.124999999999994
40
0.124999999999994
40
0.187499999999999
40
0.187499999999999
40
0.250000000000004
40
0.250000000000004
40
0.281250000000007
40
0.281250000000007
40
0.312500000000011
40
0.312500000000011
40
0.375000000000013
40
0.375000000000013
40
0.500000000000013
40
0.500000000000013
40
0.562500000000012
40
0.562500000000012
40
0.625000000000011
40
0.625000000000011
40
0.750000000000008
40
0.750000000000008
40
0.875000000000004
40
0.875000000000004
40
1
40
1
40
1
40
1
41
1
10
-12.4454802424852
20
-0.394519052838319
30
0
41
1
10
-12.4513585152093
20
-0.401708771010675
30
0
41
1
10
-12.4567374379799
20
-0.408956814071246
30
0
41
1
10
-12.4635248995896
20
-0.419510621874593
30
0
41
1
10
-12.4655825007594
20
-0.422985527209846
30
0
41
1
10
-12.4692288824021
20
-0.429837099363681
30
0
41
1
10
-12.470827460083
20
-0.433240182207101
30
0
41
1
10
-12.4747089449443
20
-0.443053990405275
30
0
41
1
10
-12.4760958204851
20
-0.449081203462839
30
0
41
1
10
-12.4761223246412
20
-0.459769092372454
30
0
41
1
10
-12.4747761141799
20
-0.464180222176765
30
0
41
1
10
-12.4709433497243
20
-0.469557994706776
30
0
41
1
10
-12.4693513853986
20
-0.471142526978696
30
0
41
1
10
-12.4657065335108
20
-0.473834537101368
30
0
41
1
10
-12.4636450953421
20
-0.47495820558143
30
0
41
1
10
-12.4568329303758
20
-0.477746501187454
30
0
41
1
10
-12.4514152534257
20
-0.478821439948945
30
0
41
1
10
-12.4339597259438
20
-0.480156666608053
30
0
41
1
10
-12.4205497597282
20
-0.478701530894455
30
0
41
1
10
-12.3987563531804
20
-0.474318017873884
30
0
41
1
10
-12.3912507161594
20
-0.47248177544077
30
0
41
1
10
-12.3760079072084
20
-0.46823433620375
30
0
41
1
10
-12.3682424193965
20
-0.465816634568256
30
0
41
1
10
-12.3445735365322
20
-0.457805604881315
30
0
41
1
10
-12.3282608368064
20
-0.451436957631131
30
0
41
1
10
-12.2956045495882
20
-0.437386982382037
30
0
41
1
10
-12.2791555920721
20
-0.42966862177019
30
0
41
1
10
-12.2460474242468
20
-0.413010889696807
30
0
41
1
10
-12.2293879167132
20
-0.404069856331262
30
0
41
1
10
-12.21262584537
20
-0.394519052838319
30
0
0
SPLINE
5
177
100
AcDbEntity
8
1
62
256
6
ByLayer
370
18
48
1
60
0
100
AcDbSpline
70
4
71
3
72
8
73
4
40
0
40
0
40
0
40
0
40
1
40
1
40
1
40
1
41
1
10
-11.9185094462047
20
0.249980947160964
30
0
41
1
10
-12.0941736247425
20
0.0351520577178803
30
0
41
1
10
-12.2698302504261
20
-0.179681463779445
30
0
41
1
10
-12.4454802424852
20
-0.394519052838319
30
0
0
SPLINE
5
178
100
AcDbEntity
8
1
62
256
6
ByLayer
370
18
48
1
60
0
100
AcDbSpline
70
4
71
3
72
24
73
20
40
0
40
0
40
0
40
0
40
0.124999999999999
40
0.124999999999999
40
0.249999999999999
40
0.249999999999999
40
0.374999999999998
40
0.374999999999998
40
0.499999999999998
40
0.499999999999998
40
0.624999999999997
40
0.624999999999997
40
0.687499999999994
40
0.687499999999994
40
0.749999999999991
40
0.749999999999991
40
0.874999999999996
40
0.874999999999996
40
1
40
1
40
1
40
1
41
1
10
-11.9237814416149
20
0.324980947161691
30
0
41
1
10
-11.9194457489922
20
0.324980947161691
30
0
41
1
10
-11.9153564824701
20
0.32465661851694
30
0
41
1
10
-11.9079485979119
20
0.323240679223716
30
0
41
1
10
-11.9046064730613
20
0.32215189995452
30
0
41
1
10
-11.8988364705386
20
0.3190154121788
30
0
41
1
10
-11.8964381114455
20
0.31696313099431
30
0
41
1
10
-11.8929836812652
20
0.311879900363635
30
0
41
1
10
-11.8919008982491
20
0.30877759856898
30
0
41
1
10
-11.891274090198
20
0.301756712238841
30
0
41
1
10
-11.8916984067637
20
0.297837448784492
30
0
41
1
10
-11.8934309418025
20
0.291353045960363
30
0
41
1
10
-11.8941940114109
20
0.289092391428142
30
0
41
1
10
-11.8960240148196
20
0.284507876358191
30
0
41
1
10
-11.8970946969525
20
0.282167946486851
30
0
41
1
10
-11.9007316163329
20
0.275018276597791
30
0
41
1
10
-11.9037537286027
20
0.270033424617793
30
0
41
1
10
-11.9105940690077
20
0.260025649179823
30
0
41
1
10
-11.9143984087425
20
0.255008549371979
30
0
41
1
10
-11.9185094462045
20
0.249980947160964
30
0
0
SPLINE
5
179
100
AcDbEntity
8
1
62
256
6
ByLayer
370
18
48
1
60
0
100
AcDbSpline
70
4
71
3
72
18
73
14
40
0
40
0
40
0
40
0
40
0.249999999999999
40
0.249999999999999
40
0.375000000000007
40
0.375000000000007
40
0.500000000000016
40
0.500000000000016
40
0.750000000000016
40
0.750000000000016
40
0.875000000000008
40
0.875000000000008
40
1
40
1
40
1
40
1
41
1
10
-12.2619374897427
20
0.249980947161674
30
0
41
1
10
-12.245175409905
20
0.260187306071543
30
0
41
1
10
-12.2284787618341
20
0.26964953894975
30
0
41
1
10
-12.2035319977382
20
0.282666955587615
30
0
41
1
10
-12.1952158399689
20
0.286815352002606
30
0
41
1
10
-12.1788139447434
20
0.294590398040555
30
0
41
1
10
-12.1707074902565
20
0.298228829183756
30
0
41
1
10
-12.1466956039985
20
0.308331973172614
30
0
41
1
10
-12.1310821815718
20
0.314018794774057
30
0
41
1
10
-12.1085189695399
20
0.320307354028273
30
0
41
1
10
-12.1012908516913
20
0.321980394436167
30
0
41
1
10
-12.0875370462495
20
0.324314999120048
30
0
41
1
10
-12.081008255091
20
0.324980947161094
30
0
41
1
10
-12.0749439034001
20
0.324980947161691
30
0
0
SPLINE
5
17A
100
AcDbEntity
8
1
62
256
6
ByLayer
370
18
48
1
60
0
100
AcDbSpline
70
4
71
3
72
8
73
4
40
0
40
0
40
0
40
0
40
1
40
1
40
1
40
1
41
1
10
-13.2887133686798
20
-0.394519052838319
30
0
41
1
10
-12.9498764087536
20
-0.175597332640279
30
0
41
1
10
-12.6077628641245
20
0.0394093519147987
30
0
41
1
10
-12.2619374897427
20
0.249980947161674
30
0
0
SPLINE
5
17B
100
AcDbEntity
8
1
62
256
6
ByLayer
370
18
48
1
60
0
100
AcDbSpline
70
4
71
3
72
38
73
34
40
0
40
0
40
0
40
0
40
0.0625000000000038
40
0.0625000000000038
40
0.125000000000008
40
0.125000000000008
40
0.156250000000012
40
0.156250000000012
40
0.187500000000016
40
0.187500000000016
40
0.250000000000023
40
0.250000000000023
40
0.281250000000032
40
0.281250000000032
40
0.312500000000042
40
0.312500000000042
40
0.375000000000046
40
0.375000000000046
40
0.406250000000051
40
0.406250000000051
40
0.437500000000056
40
0.437500000000056
40
0.50000000000005
40
0.50000000000005
40
0.562500000000044
40
0.562500000000044
40
0.625000000000037
40
0.625000000000037
40
0.750000000000025
40
0.750000000000025
40
0.875000000000012
40
0.875000000000012
40
1
40
1
40
1
40
1
41
1
10
-13.4702748862137
20
-0.394519052838319
30
0
41
1
10
-13.4757943146983
20
-0.401252651663839
30
0
41
1
10
-13.4809501781441
20
-0.407998820378509
30
0
41
1
10
-13.4900398258229
20
-0.421090866571319
30
0
41
1
10
-13.4939949832354
20
-0.427453269472068
30
0
41
1
10
-13.4988176392413
20
-0.436652706244104
30
0
41
1
10
-13.5002379631945
20
-0.439666430659713
30
0
41
1
10
-13.5025893474109
20
-0.445402644548608
30
0
41
1
10
-13.503532127041
20
-0.448145570507194
30
0
41
1
10
-13.5056210814371
20
-0.455977741753941
30
0
41
1
10
-13.5059946892605
20
-0.460690215559282
30
0
41
1
10
-13.5049704660338
20
-0.466476927786175
30
0
41
1
10
-13.5043739139206
20
-0.468214962997223
30
0
41
1
10
-13.5026851457819
20
-0.471320945690934
30
0
41
1
10
-13.5015835740844
20
-0.472696292951213
30
0
41
1
10
-13.4976100463298
20
-0.476217282345146
30
0
41
1
10
-13.4941255566638
20
-0.477748652573382
30
0
41
1
10
-13.4878873439799
20
-0.479061483870908
30
0
41
1
10
-13.4856250849188
20
-0.47933332242323
30
0
41
1
10
-13.4808583852177
20
-0.479567589455002
30
0
41
1
10
-13.4783549901368
20
-0.479532351315839
30
0
41
1
10
-13.470530542591
20
-0.479028435196653
30
0
41
1
10
-13.4648977094209
20
-0.478164746212002
30
0
41
1
10
-13.4529523427325
20
-0.475578705664162
30
0
41
1
10
-13.4466202325066
20
-0.473845750572934
30
0
41
1
10
-13.433645567981
20
-0.469730324423097
30
0
41
1
10
-13.4269699921963
20
-0.467341554080946
30
0
41
1
10
-13.4064644692924
20
-0.459334429025461
30
0
41
1
10
-13.3920697914073
20
-0.452832519259857
30
0
41
1
10
-13.3631049887933
20
-0.438446193463477
30
0
41
1
10
-13.3484408250735
20
-0.430527273477111
30
0
41
1
10
-13.3188052716474
20
-0.413449436874572
30
0
41
1
10
-13.3038332306426
20
-0.4042879581867
30
0
41
1
10
-13.2887133686798
20
-0.394519052838348
30
0
0
SPLINE
5
17C
100
AcDbEntity
8
1
62
256
6
ByLayer
370
18
48
1
60
0
100
AcDbSpline
70
4
71
3
72
8
73
4
40
0
40
0
40
0
40
0
40
1
40
1
40
1
40
1
41
1
10
-12.941904331197
20
0.249980947161362
30
0
41
1
10
-13.1180471579123
20
0.0351594867746314
30
0
41
1
10
-13.2941699218972
20
-0.179674312264069
30
0
41
1
10
-13.4702748862137
20
-0.394519052838319
30
0
0
SPLINE
5
17D
100
AcDbEntity
8
1
62
256
6
ByLayer
370
18
48
1
60
0
100
AcDbSpline
70
4
71
3
72
23
73
19
40
0
40
0
40
0
40
0
40
0.124999999999995
40
0.124999999999995
40
0.24999999999999
40
0.24999999999999
40
0.374999999999984
40
0.374999999999984
40
0.499999999999979
40
0.562499999999982
40
0.562499999999982
40
0.624999999999984
40
0.624999999999984
40
0.74999999999999
40
0.74999999999999
40
0.874999999999995
40
0.874999999999995
40
1
40
1
40
1
40
1
41
1
10
-12.9317003032968
20
0.324980947161777
30
0
41
1
10
-12.9281546626962
20
0.324980947161777
30
0
41
1
10
-12.9249370215665
20
0.324620114170159
30
0
41
1
10
-12.9192871440886
20
0.32303667882033
30
0
41
1
10
-12.9168431622451
20
0.321793174571212
30
0
41
1
10
-12.9130939065335
20
0.318369971001488
30
0
41
1
10
-12.9117605960214
20
0.316192959110282
30
0
41
1
10
-12.9103315847485
20
0.310777985080392
30
0
41
1
10
-12.9102338827602
20
0.306085646339625
30
0
41
1
10
-12.9115299156306
20
0.300494947426273
30
0
41
1
10
-12.9127048890145
20
0.296567433923769
30
0
41
1
10
-12.9134525305583
20
0.294494826399216
30
0
41
1
10
-12.9160876840443
20
0.288143993684287
30
0
41
1
10
-12.9183740783399
20
0.283688995222491
30
0
41
1
10
-12.9238503710631
20
0.274403028467305
30
0
41
1
10
-12.9270609615909
20
0.26955094003489
30
0
41
1
10
-12.9340500009027
20
0.259832030827397
30
0
41
1
10
-12.9378497028419
20
0.254925918244197
30
0
41
1
10
-12.9419043311969
20
0.249980947161362
30
0
0
SPLINE
5
17E
100
AcDbEntity
8
1
62
256
6
ByLayer
370
18
48
1
60
0
100
AcDbSpline
70
4
71
3
72
18
73
14
40
0
40
0
40
0
40
0
40
0.250000000000005
40
0.250000000000005
40
0.375000000000006
40
0.375000000000006
40
0.500000000000006
40
0.500000000000006
40
0.750000000000007
40
0.750000000000007
40
0.875000000000004
40
0.875000000000004
40
1
40
1
40
1
40
1
41
1
10
-13.2065548385552
20
0.249980947161674
30
0
41
1
10
-13.1918683483694
20
0.260045199607333
30
0
41
1
10
-13.1773484039918
20
0.269403809868607
30
0
41
1
10
-13.1558285169502
20
0.282316542817881
30
0
41
1
10
-13.1486989674189
20
0.286431559643603
30
0
41
1
10
-13.1345354389663
20
0.29424506725934
30
0
41
1
10
-13.1274676194249
20
0.297960016390789
30
0
41
1
10
-13.1067398789887
20
0.308231131630805
30
0
41
1
10
-13.0935302985871
20
0.313958174179788
30
0
41
1
10
-13.0749605537727
20
0.320259096726829
30
0
41
1
10
-13.0689460777358
20
0.321974818101211
30
0
41
1
10
-13.0578276924747
20
0.324325815519529
30
0
41
1
10
-13.0526835673824
20
0.324980947168598
30
0
41
1
10
-13.0480635116142
20
0.324980947169223
30
0
0
SPLINE
5
17F
100
AcDbEntity
8
1
62
256
6
ByLayer
370
18
48
1
60
0
100
AcDbSpline
70
4
71
3
72
8
73
4
40
0
40
0
40
0
40
0
40
1
40
1
40
1
40
1
41
1
10
-14.1255646241437
20
-0.394519052838319
30
0
41
1
10
-13.8219161595784
20
-0.176810910131763
30
0
41
1
10
-13.5156891436444
20
0.0381396122572539
30
0
41
1
10
-13.2065548385552
20
0.249980947161674
30
0
0
SPLINE
5
180
100
AcDbEntity
8
1
62
256
6
ByLayer
370
18
48
1
60
0
100
AcDbSpline
70
4
71
3
72
36
73
32
40
0
40
0
40
0
40
0
40
0.0624999999999994
40
0.0624999999999994
40
0.124999999999999
40
0.124999999999999
40
0.187499999999999
40
0.187499999999999
40
0.218749999999998
40
0.218749999999998
40
0.249999999999998
40
0.249999999999998
40
0.312499999999998
40
0.312499999999998
40
0.374999999999997
40
0.374999999999997
40
0.437499999999997
40
0.437499999999997
40
0.499999999999997
40
0.499999999999997
40
0.562499999999996
40
0.562499999999996
40
0.624999999999996
40
0.624999999999996
40
0.687499999999995
40
0.687499999999995
40
0.749999999999995
40
0.749999999999995
40
0.874999999999997
40
0.874999999999997
40
1
40
1
40
1
40
1
41
1
10
-14.2655750866984
20
-0.394519052838319
30
0
41
1
10
-14.2709152318049
20
-0.400916772801736
30
0
41
1
10
-14.275978382755
20
-0.407293077501066
30
0
41
1
10
-14.2851987194409
20
-0.41968620333094
30
0
41
1
10
-14.2893548863108
20
-0.4256951480927
30
0
41
1
10
-14.2965819676909
20
-0.437266289211095
30
0
41
1
10
-14.2996681948549
20
-0.442875980593413
30
0
41
1
10
-14.303108097956
20
-0.450518030421819
30
0
41
1
10
-14.3040654324165
20
-0.452948725894231
30
0
41
1
10
-14.3055769996615
20
-0.457562174581426
30
0
41
1
10
-14.3061330482862
20
-0.459758935437492
30
0
41
1
10
-14.3071284482325
20
-0.465834428936034
30
0
41
1
10
-14.3069086232189
20
-0.469181053338957
30
0
41
1
10
-14.3047638284419
20
-0.474520523657986
30
0
41
1
10
-14.3028010571971
20
-0.476498487128254
30
0
41
1
10
-14.2974997750462
20
-0.478992735534973
30
0
41
1
10
-14.2941373580524
20
-0.4795548484297
30
0
41
1
10
-14.2862625152793
20
-0.479479731271681
30
0
41
1
10
-14.2818410972795
20
-0.478850703577962
30
0
41
1
10
-14.2722259261514
20
-0.476650936816839
30
0
41
1
10
-14.2670211051816
20
-0.475074458444681
30
0
41
1
10
-14.2559794178474
20
-0.471119640285877
30
0
41
1
10
-14.2502293710657
20
-0.468773718754022
30
0
41
1
10
-14.2383514182247
20
-0.463474796430233
30
0
41
1
10
-14.2322228540822
20
-0.460520725310033
30
0
41
1
10
-14.2196336197054
20
-0.454078795623701
30
0
41
1
10
-14.2131449243124
20
-0.450573991117722
30
0
41
1
10
-14.1935390957799
20
-0.439506751248615
30
0
41
1
10
-14.1802225014732
20
-0.431373754650593
30
0
41
1
10
-14.1531891256639
20
-0.413867112124933
30
0
41
1
10
-14.1394710770359
20
-0.404489622046128
30
0
41
1
10
-14.1255646241437
20
-0.394519052838348
30
0
0
SPLINE
5
181
100
AcDbEntity
8
1
62
256
6
ByLayer
370
18
48
1
60
0
100
AcDbSpline
70
4
71
3
72
8
73
4
40
0
40
0
40
0
40
0
40
1
40
1
40
1
40
1
41
1
10
-13.7271595028412
20
0.249980947161504
30
0
41
1
10
-13.9067347108406
20
0.035212365746446
30
0
41
1
10
-14.0862027304346
20
-0.179623374600055
30
0
41
1
10
-14.2655750866984
20
-0.394519052838319
30
0
0
SPLINE
5
182
100
AcDbEntity
8
1
62
256
6
ByLayer
370
18
48
1
60
0
100
AcDbSpline
70
4
71
3
72
22
73
18
40
0
40
0
40
0
40
0
40
0.125
40
0.125
40
0.25
40
0.25
40
0.375
40
0.375
40
0.5
40
0.5
40
0.625
40
0.625
40
0.75
40
0.75
40
0.875
40
0.875
40
1
40
1
40
1
40
1
41
1
10
-13.7033273915928
20
0.32498094716172
30
0
41
1
10
-13.7004864228397
20
0.32498094716172
30
0
41
1
10
-13.6980030233289
20
0.32457223002757
30
0
41
1
10
-13.6939679064125
20
0.322810804878514
30
0
41
1
10
-13.6924447562857
20
0.321476351282854
30
0
41
1
10
-13.690469285274
20
0.317827037319773
30
0
41
1
10
-13.6900300661806
20
0.31547687530076
30
0
41
1
10
-13.6903199496591
20
0.309978932734424
30
0
41
1
10
-13.6910284293275
20
0.306819145366916
30
0
41
1
10
-13.6935353207013
20
0.299707252978664
30
0
41
1
10
-13.6953495169543
20
0.295745119604987
30
0
41
1
10
-13.699812285762
20
0.287456554264992
30
0
41
1
10
-13.7024739620712
20
0.283086608544551
30
0
41
1
10
-13.7085556247414
20
0.273950228042338
30
0
41
1
10
-13.711950430119
20
0.269226009096116
30
0
41
1
10
-13.719197862038
20
0.259701365260099
30
0
41
1
10
-13.7230711169545
20
0.254870580017553
30
0
41
1
10
-13.7271595028412
20
0.249980947161504
30
0
0
SPLINE
5
183
100
AcDbEntity
8
1
62
256
6
ByLayer
370
18
48
1
60
0
100
AcDbSpline
70
4
71
3
72
16
73
12
40
0
40
0
40
0
40
0
40
0.250000000000002
40
0.250000000000002
40
0.500000000000005
40
0.500000000000005
40
0.750000000000007
40
0.750000000000007
40
0.875000000000004
40
0.875000000000004
40
1
40
1
40
1
40
1
41
1
10
-13.9273497265336
20
0.249980947161674
30
0
41
1
10
-13.9141383585476
20
0.259977683504246
30
0
41
1
10
-13.9010856072335
20
0.269365680292765
30
0
41
1
10
-13.8756867854771
20
0.286560850671492
30
0
41
1
10
-13.8632846302391
20
0.294416067556767
30
0
41
1
10
-13.8392323105369
20
0.308231113448897
30
0
41
1
10
-13.8279050504171
20
0.314006523917868
30
0
41
1
10
-13.8124983254929
20
0.320301845067462
30
0
41
1
10
-13.8075818891419
20
0.322012470654755
30
0
41
1
10
-13.7987038822678
20
0.3243439697697
30
0
41
1
10
-13.7947211231747
20
0.324980947163425
30
0
41
1
10
-13.7912890092361
20
0.324980947163624
30
0
0
SPLINE
5
184
100
AcDbEntity
8
1
62
256
6
ByLayer
370
18
48
1
60
0
100
AcDbSpline
70
4
71
3
72
19
73
15
40
0
40
0
40
0
40
0
40
0.250000000000001
40
0.250000000000001
40
0.500000000000001
40
0.500000000000001
40
0.562500000000001
40
0.562500000000001
40
0.593750000000001
40
0.593750000000001
40
0.625000000000001
40
0.750000000000001
40
0.750000000000001
40
1
40
1
40
1
40
1
41
1
10
-5.71202485741691
20
-15.3879751425831
30
0
41
1
10
-5.26244975487768
20
-15.3341458046959
30
0
41
1
10
-4.80542869492379
20
-15.2856794737493
30
0
41
1
10
-3.87623113431167
20
-15.2008550065429
30
0
41
1
10
-3.4040559650561
20
-15.1644953530994
30
0
41
1
10
-2.80396784687051
20
-15.1275051321754
30
0
41
1
10
-2.68345578339631
20
-15.1205302364597
30
0
41
1
10
-2.50193548509185
20
-15.1107199956796
30
0
41
1
10
-2.44128808867058
20
-15.1075579576062
30
0
41
1
10
-2.31999121195631
20
-15.1014662932712
30
0
41
1
10
-2.01659729846864
20
-15.0868098900359
30
0
41
1
10
-1.71244642908576
20
-15.0750280606538
30
0
41
1
10
-0.981034048437408
20
-15.0523486543522
30
0
41
1
10
-0.491494807195124
20
-15.0446928462712
30
0
41
1
10
0
20
-15.0446928462712
30
0
0
SPLINE
5
185
100
AcDbEntity
8
1
62
256
6
ByLayer
370
18
48
1
60
0
100
AcDbSpline
70
4
71
3
72
40
73
36
40
0
40
0
40
0
40
0
40
0.0312499999999997
40
0.0312499999999997
40
0.0624999999999994
40
0.0624999999999994
40
0.124999999999999
40
0.124999999999999
40
0.249999999999998
40
0.249999999999998
40
0.265624999999997
40
0.265624999999997
40
0.281249999999997
40
0.281249999999997
40
0.312499999999997
40
0.312499999999997
40
0.374999999999997
40
0.374999999999997
40
0.499999999999997
40
0.499999999999997
40
0.531249999999997
40
0.531249999999997
40
0.562499999999997
40
0.562499999999997
40
0.624999999999997
40
0.624999999999997
40
0.749999999999998
40
0.749999999999998
40
0.812499999999998
40
0.812499999999998
40
0.843749999999998
40
0.843749999999998
40
0.874999999999999
40
0.874999999999999
40
1
40
1
40
1
40
1
41
1
10
-3.74992657561771
20
-17.3500734243823
30
0
41
1
10
-3.72323384604442
20
-17.3439117348643
30
0
41
1
10
-3.6975212631047
20
-17.3375770793139
30
0
41
1
10
-3.64854428395387
20
-17.3246758842454
30
0
41
1
10
-3.62521925419964
20
-17.318096204222
30
0
41
1
10
-3.55867824985995
20
-17.2979620996287
30
0
41
1
10
-3.51889107629211
20
-17.2840128021195
30
0
41
1
10
-3.41300053297181
20
-17.2405162418467
30
0
41
1
10
-3.36028554834169
20
-17.2093246047595
30
0
41
1
10
-3.32147318098569
20
-17.1715104344814
30
0
41
1
10
-3.31744704574532
20
-17.1672709426607
30
0
41
1
10
-3.30997184802982
20
-17.1587150711578
30
0
41
1
10
-3.3065195295442
20
-17.1543939784217
30
0
41
1
10
-3.29706261948914
20
-17.1413519785619
30
0
41
1
10
-3.29195971848216
20
-17.1325598530171
30
0
41
1
10
-3.28018947533869
20
-17.1058927364984
30
0
41
1
10
-3.27705503946075
20
-17.0877269735258
30
0
41
1
10
-3.28146854383712
20
-17.0320807935405
30
0
41
1
10
-3.30274910754832
20
-16.9934507343145
30
0
41
1
10
-3.35250389029179
20
-16.9433038460835
30
0
41
1
10
-3.3636192746489
20
-16.9331815616783
30
0
41
1
10
-3.3882124600394
20
-16.9127528573853
30
0
41
1
10
-3.40170655913118
20
-16.9024385048725
30
0
41
1
10
-3.44538687136875
20
-16.8714936825814
30
0
41
1
10
-3.47886081168289
20
-16.850774932979
30
0
41
1
10
-3.59201366977823
20
-16.7884356759337
30
0
41
1
10
-3.68434536715117
20
-16.7466268036087
30
0
41
1
10
-3.84833489839738
20
-16.6839560218821
30
0
41
1
10
-3.90726614658803
20
-16.6630740599382
30
0
41
1
10
-4.00227149900871
20
-16.6318296986178
30
0
41
1
10
-4.03487127456566
20
-16.6214850117739
30
0
41
1
10
-4.10179309486145
20
-16.6009813293265
30
0
41
1
10
-4.1361332683143
20
-16.5908163668523
30
0
41
1
10
-4.31218056216943
20
-16.5404503611103
30
0
41
1
10
-4.46684476652979
20
-16.5016144965582
30
0
41
1
10
-4.63536691002494
20
-16.464633089975
30
0
0
SPLINE
5
186
100
AcDbEntity
8
1
62
256
6
ByLayer
370
18
48
1
60
0
100
AcDbSpline
70
4
71
3
72
79
73
75
40
0
40
0
40
0
40
0
40
0.0156524042339007
40
0.0156524042339007
40
0.0313048084678015
40
0.0313048084678015
40
0.062609616935603
40
0.062609616935603
40
0.125219233871206
40
0.125219233871206
40
0.140871638105107
40
0.140871638105107
40
0.156524042339008
40
0.156524042339008
40
0.187828850806809
40
0.187828850806809
40
0.250438467742412
40
0.250438467742412
40
0.258264669859362
40
0.258264669859362
40
0.266090871976313
40
0.281743276210214
40
0.281743276210214
40
0.313048084678015
40
0.344352893145817
40
0.344352893145817
40
0.360005297379718
40
0.360005297379718
40
0.375657701613619
40
0.375657701613619
40
0.438267318549223
40
0.438267318549223
40
0.469572127017025
40
0.469572127017025
40
0.477398329133975
40
0.477398329133975
40
0.485224531250926
40
0.485224531250926
40
0.500876935484826
40
0.500876935484826
40
0.56348655242043
40
0.56348655242043
40
0.594791360888232
40
0.594791360888232
40
0.602617563005182
40
0.602617563005182
40
0.610443765122133
40
0.626096169356034
40
0.626096169356034
40
0.688705786291637
40
0.688705786291637
40
0.704358190525538
40
0.704358190525538
40
0.720010594759439
40
0.720010594759439
40
0.751315403227241
40
0.751315403227241
40
0.813925020162844
40
0.813925020162844
40
0.821751222279794
40
0.821751222279794
40
0.829577424396745
40
0.829577424396745
40
0.845229828630646
40
0.845229828630646
40
0.876534637098448
40
0.876534637098448
40
0.939144254034052
40
0.939144254034052
40
0.954796658267953
40
0.954796658267953
40
0.970449062501854
40
0.970449062501854
40
1
40
1
40
1
40
1
41
1
10
2.5923114411882
20
-17.6740140630271
30
0
41
1
10
2.58596755924802
20
-17.6737631645055
30
0
41
1
10
2.57869255235235
20
-17.6734647421711
30
0
41
1
10
2.56224913957288
20
-17.6727736990882
30
0
41
1
10
2.55305370293075
20
-17.6723798910934
30
0
41
1
10
2.52285817255608
20
-17.6710714637247
30
0
41
1
10
2.49922884507308
20
-17.6700289694844
30
0
41
1
10
2.41813972627673
20
-17.6664502021168
30
0
41
1
10
2.35056398581585
20
-17.6634622372054
30
0
41
1
10
2.24886451077589
20
-17.6591672644478
30
0
41
1
10
2.22762095223265
20
-17.6582788400878
30
0
41
1
10
2.183517252668
20
-17.6564575616683
30
0
41
1
10
2.16075620801328
20
-17.6555287837491
30
0
41
1
10
2.09038664731867
20
-17.6526985916238
30
0
41
1
10
2.04069610517868
20
-17.6507533732536
30
0
41
1
10
1.88345241785177
20
-17.6448236657703
30
0
41
1
10
1.76779816943525
20
-17.6407441720432
30
0
41
1
10
1.62503974010755
20
-17.6362551682827
30
0
41
1
10
1.60899389901419
20
-17.6357576236688
30
0
41
1
10
1.576715070728
20
-17.6347714041428
30
0
41
1
10
1.52795519428597
20
-17.6333034394742
30
0
41
1
10
1.47818117764109
20
-17.6318729509718
30
0
41
1
10
1.37730096629593
20
-17.6290707038828
30
0
41
1
10
1.23924705946322
20
-17.6254911072381
30
0
41
1
10
1.09417310923644
20
-17.6223153795509
30
0
41
1
10
0.982695564729426
20
-17.6201189123478
30
0
41
1
10
0.945090337490001
20
-17.6194176492774
30
0
41
1
10
0.86897235629209
20
-17.6180826980635
30
0
41
1
10
0.830376530746946
20
-17.6174478964492
30
0
41
1
10
0.636984976850897
20
-17.6144853909272
30
0
41
1
10
0.479862627753903
20
-17.6127704707727
30
0
41
1
10
0.240670712658499
20
-17.6112850191653
30
0
41
1
10
0.160351594238563
20
-17.6109709036855
30
0
41
1
10
0.0591996858584594
20
-17.6108151255246
30
0
41
1
10
0.0389315766332174
20
-17.6107958139464
30
0
41
1
10
-0.001680849850203
20
-17.6107811476923
30
0
41
1
10
-0.0220520931227952
20
-17.6107858252746
30
0
41
1
10
-0.0830427531701332
20
-17.6108359441791
30
0
41
1
10
-0.123534232357571
20
-17.6109172978161
30
0
41
1
10
-0.325163010010897
20
-17.6115578367341
30
0
41
1
10
-0.483835249285534
20
-17.6128183895675
30
0
41
1
10
-0.717948438587825
20
-17.615719278809
30
0
41
1
10
-0.795332943005292
20
-17.6168545836087
30
0
41
1
10
-0.891220618832278
20
-17.6184717524523
30
0
41
1
10
-0.910350053649836
20
-17.6188050198301
30
0
41
1
10
-0.948324029266672
20
-17.619487278935
30
0
41
1
10
-1.00493295926205
20
-17.6205355054117
30
0
41
1
10
-1.06049690287909
20
-17.6216548704887
30
0
41
1
10
-1.24342235491662
20
-17.6255295075863
30
0
41
1
10
-1.3824996744745
20
-17.6290883032879
30
0
41
1
10
-1.54722931948336
20
-17.633879755066
30
0
41
1
10
-1.57971578892386
20
-17.634855164412
30
0
41
1
10
-1.64375395343251
20
-17.6368341999068
30
0
41
1
10
-1.67535352131412
20
-17.6378395123384
30
0
41
1
10
-1.76778895682247
20
-17.6408574001802
30
0
41
1
10
-1.82656366633552
20
-17.6428806725249
30
0
41
1
10
-1.9945708019994
20
-17.6489033511249
30
0
41
1
10
-2.0955561016963
20
-17.6528564689561
30
0
41
1
10
-2.19648850605896
20
-17.6569928694769
30
0
41
1
10
-2.20752567511982
20
-17.6574481348966
30
0
41
1
10
-2.22924132963669
20
-17.658349117367
30
0
41
1
10
-2.23993200521954
20
-17.6587953496237
30
0
41
1
10
-2.27131501164763
20
-17.6601122891686
30
0
41
1
10
-2.29135102280253
20
-17.6609625490132
30
0
41
1
10
-2.34885080571777
20
-17.6634230020962
30
0
41
1
10
-2.38371180958501
20
-17.6649428438099
30
0
41
1
10
-2.47806637027261
20
-17.6690849435621
30
0
41
1
10
-2.52742075433531
20
-17.6712906456777
30
0
41
1
10
-2.57148358006603
20
-17.6731641180172
30
0
41
1
10
-2.57937027114727
20
-17.6734929584825
30
0
41
1
10
-2.59324994658735
20
-17.6740546776601
30
0
41
1
10
-2.59925314805747
20
-17.6742879930393
30
0
41
1
10
-2.61390081891682
20
-17.674822385187
30
0
41
1
10
-2.62016270266616
20
-17.6749996798863
30
0
41
1
10
-2.6230866721252
20
-17.6749999996566
30
0
0
SPLINE
5
187
100
AcDbEntity
8
1
62
256
6
ByLayer
370
18
48
1
60
0
100
AcDbSpline
70
4
71
3
72
38
73
34
40
0
40
0
40
0
40
0
40
0.128938681248084
40
0.128938681248084
40
0.193408021872127
40
0.193408021872127
40
0.225642692184146
40
0.225642692184146
40
0.257877362496166
40
0.257877362496166
40
0.386816043744253
40
0.386816043744253
40
0.451285384368295
40
0.451285384368295
40
0.483520054680316
40
0.483520054680316
40
0.515754724992338
40
0.515754724992338
40
0.644693406240422
40
0.644693406240422
40
0.709162746864464
40
0.709162746864464
40
0.741397417176486
40
0.741397417176486
40
0.773632087488507
40
0.773632087488507
40
0.902570768736591
40
0.902570768736591
40
0.967040109360633
40
0.967040109360633
40
0.999274779672654
40
0.999274779672654
40
1
40
1
40
1
40
1
41
1
10
17.35
20
-17.6388420194118
30
0
41
1
10
17.2061337048522
20
-17.6388420194118
30
0
41
1
10
17.0643685006187
20
-17.6393168679411
30
0
41
1
10
16.8547395381436
20
-17.6406720857859
30
0
41
1
10
16.785369251655
20
-17.6412308444195
30
0
41
1
10
16.6820815449648
20
-17.6422191769772
30
0
41
1
10
16.6477804356144
20
-17.6425736396916
30
0
41
1
10
16.5794380729642
20
-17.6433306857319
30
0
41
1
10
16.545350739092
20
-17.6437338527327
30
0
41
1
10
16.3760834865832
20
-17.6458583980265
30
0
41
1
10
16.2467166921258
20
-17.6478752283018
30
0
41
1
10
16.0613744030309
20
-17.6511829800725
30
0
41
1
10
16.0010532630484
20
-17.6523326376182
30
0
41
1
10
15.9127885790526
20
-17.6541022861213
30
0
41
1
10
15.8837370214851
20
-17.6546996806755
30
0
41
1
10
15.8263847832661
20
-17.6559050083206
30
0
41
1
10
15.7980237426602
20
-17.6565142717929
30
0
41
1
10
15.6588897070922
20
-17.6595585574435
30
0
41
1
10
15.5568712047321
20
-17.661968462274
30
0
41
1
10
15.4172564035906
20
-17.6653157525461
30
0
41
1
10
15.3729663444801
20
-17.6663869736464
30
0
41
1
10
15.3099508214167
20
-17.6678973806599
30
0
41
1
10
15.2895163470728
20
-17.6683847647114
30
0
41
1
10
15.2498064007486
20
-17.6693221889272
30
0
41
1
10
15.2304862628992
20
-17.6697732430027
30
0
41
1
10
15.137515162104
20
-17.6719063937743
30
0
41
1
10
15.074618252309
20
-17.673223766282
30
0
41
1
10
14.9968929638029
20
-17.6744529810945
30
0
41
1
10
14.9737701881787
20
-17.6747382929227
30
0
41
1
10
14.9433283567752
20
-17.674958645307
30
0
41
1
10
14.9338890940955
20
-17.6749974840749
30
0
41
1
10
14.9249730410289
20
-17.6749999357096
30
0
41
1
10
14.9247772183381
20
-17.6749999710969
30
0
41
1
10
14.9245817547774
20
-17.6749999879166
30
0
0
SPLINE
5
188
100
AcDbEntity
8
1
62
256
6
ByLayer
370
18
48
1
60
0
100
AcDbSpline
70
4
71
3
72
18
73
14
40
0
40
0
40
0
40
0
40
0.0624999999999968
40
0.0624999999999968
40
0.124999999999994
40
0.249999999999995
40
0.249999999999995
40
0.499999999999996
40
0.749999999999998
40
0.749999999999998
40
0.874999999999999
40
0.874999999999999
40
1
40
1
40
1
40
1
41
1
10
19.9101310226801
20
-17.6486587190034
30
0
41
1
10
19.885412054056
20
-17.6482859724992
30
0
41
1
10
19.8604560818504
20
-17.6479190557757
30
0
41
1
10
19.810416235378
20
-17.6472033305936
30
0
41
1
10
19.7350760351306
20
-17.6461554954491
30
0
41
1
10
19.658904905553
20
-17.6451898737848
30
0
41
1
10
19.5054726566758
20
-17.6433803134724
30
0
41
1
10
19.2979956968955
20
-17.6412926974253
30
0
41
1
10
19.0847537348325
20
-17.639967502876
30
0
41
1
10
18.9225969800366
20
-17.6392958304478
30
0
41
1
10
18.8680980495251
20
-17.6391256106187
30
0
41
1
10
18.7591414832173
20
-17.6388989510254
30
0
41
1
10
18.7046016088888
20
-17.6388420194118
30
0
41
1
10
18.65
20
-17.6388420194118
30
0
0
SPLINE
5
189
100
AcDbEntity
8
1
62
256
6
ByLayer
370
18
48
1
60
0
100
AcDbSpline
70
4
71
3
72
8
73
4
40
0
40
0
40
0
40
0
40
1
40
1
40
1
40
1
41
1
10
32.685514673746
20
-17.6535940176037
30
0
41
1
10
32.6597278423714
20
-17.6537198546293
30
0
41
1
10
32.6335557254874
20
-17.6537789913064
30
0
41
1
10
32.6069785591193
20
-17.6537688682902
30
0
0
SPLINE
5
18A
100
AcDbEntity
8
1
62
256
6
ByLayer
370
18
48
1
60
0
100
AcDbSpline
70
4
71
3
72
130
73
126
40
0
40
0
40
0
40
0
40
0.0156249999999998
40
0.0156249999999998
40
0.0234374999999997
40
0.0234374999999997
40
0.0312499999999996
40
0.0312499999999996
40
0.0624999999999986
40
0.0624999999999986
40
0.0781249999999981
40
0.0781249999999981
40
0.0859374999999979
40
0.0859374999999979
40
0.0937499999999978
40
0.0937499999999978
40
0.124999999999997
40
0.124999999999997
40
0.140624999999997
40
0.140624999999997
40
0.148437499999997
40
0.148437499999997
40
0.156249999999996
40
0.156249999999996
40
0.187499999999996
40
0.187499999999996
40
0.203124999999996
40
0.203124999999996
40
0.210937499999995
40
0.210937499999995
40
0.218749999999995
40
0.218749999999995
40
0.249999999999994
40
0.249999999999994
40
0.265624999999994
40
0.265624999999994
40
0.273437499999994
40
0.273437499999994
40
0.281249999999993
40
0.281249999999993
40
0.312499999999993
40
0.312499999999993
40
0.328124999999993
40
0.328124999999993
40
0.343749999999993
40
0.343749999999993
40
0.374999999999993
40
0.374999999999993
40
0.382812499999993
40
0.382812499999993
40
0.390624999999993
40
0.390624999999993
40
0.406249999999992
40
0.406249999999992
40
0.437499999999991
40
0.437499999999991
40
0.445312499999991
40
0.445312499999991
40
0.453124999999991
40
0.453124999999991
40
0.468749999999991
40
0.468749999999991
40
0.499999999999991
40
0.499999999999991
40
0.507812499999991
40
0.507812499999991
40
0.515624999999991
40
0.531249999999991
40
0.531249999999991
40
0.562499999999991
40
0.562499999999991
40
0.570312499999991
40
0.570312499999991
40
0.578124999999991
40
0.59374999999999
40
0.60937499999999
40
0.60937499999999
40
0.61718749999999
40
0.61718749999999
40
0.62499999999999
40
0.62499999999999
40
0.656249999999991
40
0.656249999999991
40
0.664062499999991
40
0.664062499999991
40
0.671874999999991
40
0.687499999999991
40
0.687499999999991
40
0.718749999999992
40
0.718749999999992
40
0.726562499999992
40
0.726562499999992
40
0.734374999999992
40
0.749999999999993
40
0.765624999999994
40
0.765624999999994
40
0.773437499999994
40
0.773437499999994
40
0.781249999999994
40
0.781249999999994
40
0.812499999999996
40
0.812499999999996
40
0.828124999999997
40
0.828124999999997
40
0.835937499999997
40
0.835937499999997
40
0.843749999999997
40
0.843749999999997
40
0.874999999999999
40
0.874999999999999
40
0.890624999999999
40
0.890624999999999
40
0.8984375
40
0.8984375
40
0.90625
40
0.90625
40
0.9375
40
0.9375
40
0.953125
40
0.953125
40
0.9609375
40
0.9609375
40
0.96875
40
0.96875
40
1
40
1
40
1
40
1
41
1
10
5.86197479331003
20
-17.2236282700834
30
0
41
1
10
5.89081780493353
20
-17.2291674492727
30
0
41
1
10
5.91785457464786
20
-17.2348252981338
30
0
41
1
10
5.95567506790618
20
-17.243477963617
30
0
41
1
10
5.96782545825263
20
-17.2463898856835
30
0
41
1
10
5.99120085736266
20
-17.2522677228577
30
0
41
1
10
6.00244522238808
20
-17.2552390795434
30
0
41
1
10
6.05608345820033
20
-17.2701654061783
30
0
41
1
10
6.0902596733211
20
-17.282168052264
30
0
41
1
10
6.12893341557267
20
-17.3001847398708
30
0
41
1
10
6.13971337236993
20
-17.3061928907556
30
0
41
1
10
6.15266671897254
20
-17.3152027697929
30
0
41
1
10
6.15644762188583
20
-17.3182056950299
30
0
41
1
10
6.16291751521854
20
-17.3242100506557
30
0
41
1
10
6.16560816181109
20
-17.3272168441277
30
0
41
1
10
6.17618931938625
20
-17.3421039388698
30
0
41
1
10
6.17566466342279
20
-17.3536394496487
30
0
41
1
10
6.16177672605724
20
-17.3703994244137
30
0
41
1
10
6.15495095187518
20
-17.375895429697
30
0
41
1
10
6.14134832343368
20
-17.3840048597848
30
0
41
1
10
6.13625263178687
20
-17.3866855681351
30
0
41
1
10
6.12491623447434
20
-17.3920022838526
30
0
41
1
10
6.1186908550099
20
-17.3946298597074
30
0
41
1
10
6.0850095448462
20
-17.4075354671387
30
0
41
1
10
6.04978028029467
20
-17.417202001538
30
0
41
1
10
5.98476040936413
20
-17.4308145203056
30
0
41
1
10
5.96104596526192
20
-17.4352035234989
30
0
41
1
10
5.92233480786058
20
-17.4415715791013
30
0
41
1
10
5.90887984117785
20
-17.4436622717943
30
0
41
1
10
5.88102611399728
20
-17.447754090147
30
0
41
1
10
5.86667324410078
20
-17.4497489712511
30
0
41
1
10
5.79281709494265
20
-17.4594788552191
30
0
41
1
10
5.72708714711968
20
-17.46648561282
30
0
41
1
10
5.61865141131142
20
-17.4759650819794
30
0
41
1
10
5.5808565624105
20
-17.4789520845492
30
0
41
1
10
5.52161671320837
20
-17.4831812817377
30
0
41
1
10
5.50141238979788
20
-17.4845508390655
30
0
41
1
10
5.46054754801514
20
-17.4871812126123
30
0
41
1
10
5.43984367742684
20
-17.4884453491512
30
0
41
1
10
5.33498872496293
20
-17.4945209106799
30
0
41
1
10
5.2468621326864
20
-17.4986037778711
30
0
41
1
10
5.10833740913455
20
-17.5036699744665
30
0
41
1
10
5.06110063095974
20
-17.5051810288942
30
0
41
1
10
4.96443062076187
20
-17.5078498198939
30
0
41
1
10
4.91569013274082
20
-17.508988298834
30
0
41
1
10
4.7685102940309
20
-17.5118456801676
30
0
41
1
10
4.66902234065199
20
-17.5130150706125
30
0
41
1
10
4.54294412125196
20
-17.5135821833356
30
0
41
1
10
4.51764192656137
20
-17.513650404011
30
0
41
1
10
4.46686160479695
20
-17.5136951375798
30
0
41
1
10
4.44132147046125
20
-17.5136713627799
30
0
41
1
10
4.3650983074771
20
-17.5134618102123
30
0
41
1
10
4.31470632904626
20
-17.5131392822817
30
0
41
1
10
4.16476503795991
20
-17.5116338497668
30
0
41
1
10
4.06644078015376
20
-17.5099190693371
30
0
41
1
10
3.94561168855287
20
-17.5068309516165
30
0
41
1
10
3.92155045272716
20
-17.5061656168235
30
0
41
1
10
3.87364111808952
20
-17.5047361178102
30
0
41
1
10
3.84988685239694
20
-17.5039745562093
30
0
41
1
10
3.77960103809554
20
-17.5015611621374
30
0
41
1
10
3.73388366779841
20
-17.4997761957054
30
0
41
1
10
3.60007212352824
20
-17.4938820435184
30
0
41
1
10
3.51529223133682
20
-17.4892391103802
30
0
41
1
10
3.41499004488648
20
-17.4824272668647
30
0
41
1
10
3.39516650059957
20
-17.4810102591372
30
0
41
1
10
3.35638759599385
20
-17.478091609352
30
0
41
1
10
3.2995313232654
20
-17.4735886663141
30
0
41
1
10
3.24653131624956
20
-17.4687068848911
30
0
41
1
10
3.14557829408932
20
-17.458417127686
30
0
41
1
10
3.08496530755946
20
-17.4508600657794
30
0
41
1
10
3.01784899123433
20
-17.4404118427686
30
0
41
1
10
3.00488556956637
20
-17.4382748405127
30
0
41
1
10
2.98008202121375
20
-17.4339400686375
30
0
41
1
10
2.94446751073969
20
-17.4273321121369
30
0
41
1
10
2.89292244525123
20
-17.4157828946181
30
0
41
1
10
2.85990557918777
20
-17.4059493069944
30
0
41
1
10
2.83825534035387
20
-17.3983395782827
30
0
41
1
10
2.83155807352526
20
-17.3957638749596
30
0
41
1
10
2.81921687036848
20
-17.3905317930311
30
0
41
1
10
2.81356500670509
20
-17.3878711123451
30
0
41
1
10
2.78808551820907
20
-17.3744098905833
30
0
41
1
10
2.77669141595573
20
-17.3632400172921
30
0
41
1
10
2.77360615825839
20
-17.3487561543135
30
0
41
1
10
2.7735534606957
20
-17.3458280253032
30
0
41
1
10
2.77457378497723
20
-17.3399620720635
30
0
41
1
10
2.77778605441429
20
-17.3311381411916
30
0
41
1
10
2.78594598518484
20
-17.3222411711045
30
0
41
1
10
2.80875282547754
20
-17.3043576620609
30
0
41
1
10
2.83255440041086
20
-17.2923147468448
30
0
41
1
10
2.87346275241328
20
-17.2771517741674
30
0
41
1
10
2.88219331188219
20
-17.2741197420118
30
0
41
1
10
2.90060530052196
20
-17.2681054517514
30
0
41
1
10
2.92970496779867
20
-17.2591383222781
30
0
41
1
10
2.98548968665858
20
-17.2444731505917
30
0
41
1
10
3.03780124784888
20
-17.2330681165402
30
0
41
1
10
3.07995241230398
20
-17.2246520077778
30
0
41
1
10
3.09448975926642
20
-17.2218696328084
30
0
41
1
10
3.12455328981414
20
-17.2163540025631
30
0
41
1
10
3.14010044610998
20
-17.2136172181406
30
0
41
1
10
3.22013313891509
20
-17.2001035331873
30
0
41
1
10
3.29021976315181
20
-17.1900370964499
30
0
41
1
10
3.40411999910492
20
-17.1761350748164
30
0
41
1
10
3.44355738299336
20
-17.1717017323333
30
0
41
1
10
3.50495879953061
20
-17.1653730548818
30
0
41
1
10
3.5258007120444
20
-17.1633171269357
30
0
41
1
10
3.56824763890833
20
-17.1593169119104
30
0
41
1
10
3.58990502780665
20
-17.1573683950673
30
0
41
1
10
3.69914414899253
20
-17.1480010294534
30
0
41
1
10
3.78998195249221
20
-17.1416533762555
30
0
41
1
10
3.93126630547673
20
-17.1338983182214
30
0
41
1
10
3.97920404701088
20
-17.1316090641519
30
0
41
1
10
4.05240277516955
20
-17.1286376287107
30
0
41
1
10
4.07701802281298
20
-17.127724318197
30
0
41
1
10
4.12668856350501
20
-17.1260563910006
30
0
41
1
10
4.15166852714512
20
-17.1253046994399
30
0
41
1
10
4.27644906352236
20
-17.1219802049957
30
0
41
1
10
4.37668954441625
20
-17.120673983321
30
0
41
1
10
4.52766098120213
20
-17.1207224254998
30
0
41
1
10
4.57808717932821
20
-17.1210747100225
30
0
41
1
10
4.65388390704891
20
-17.1221185136956
30
0
41
1
10
4.67924010205604
20
-17.1225538852867
30
0
41
1
10
4.72964715558274
20
-17.1235919109296
30
0
41
1
10
4.75468223073145
20
-17.1241936812624
30
0
41
1
10
4.87903090382426
20
-17.1276066429873
30
0
41
1
10
4.97588377082354
20
-17.131622666769
30
0
41
1
10
5.07014842312441
20
-17.1368638181084
30
0
0
SPLINE
5
18B
100
AcDbEntity
8
1
62
256
6
ByLayer
370
18
48
1
60
0
100
AcDbSpline
70
4
71
3
72
22
73
18
40
0
40
0
40
0
40
0
40
0.25
40
0.25
40
0.374999999999999
40
0.374999999999999
40
0.499999999999999
40
0.499999999999999
40
0.624999999999999
40
0.624999999999999
40
0.75
40
0.75
40
0.875
40
0.875
40
0.9375
40
0.9375
40
1
40
1
40
1
40
1
41
1
10
-15
20
-1.09294494718759
30
0
41
1
10
-15
20
-1.07967512164055
30
0
41
1
10
-15
20
-1.06551265539923
30
0
41
1
10
-15
20
-1.04235433752584
30
0
41
1
10
-15
20
-1.03427897453579
30
0
41
1
10
-15
20
-1.0175308391909
30
0
41
1
10
-15
20
-1.00885793975522
30
0
41
1
10
-15
20
-0.99078891893015
30
0
41
1
10
-15
20
-0.981393856273371
30
0
41
1
10
-15
20
-0.961697793674887
30
0
41
1
10
-15
20
-0.951449148566496
30
0
41
1
10
-15
20
-0.930486799286513
30
0
41
1
10
-15
20
-0.919714084930661
30
0
41
1
10
-15
20
-0.903041140446447
30
0
41
1
10
-15
20
-0.897396313717934
30
0
41
1
10
-15
20
-0.88618611265801
30
0
41
1
10
-15
20
-0.880589068055571
30
0
41
1
10
-15
20
-0.875000000001506
30
0
0
SPLINE
5
18C
100
AcDbEntity
8
1
62
256
6
ByLayer
370
18
48
1
60
0
100
AcDbSpline
70
4
71
3
72
16
73
12
40
0
40
0
40
0
40
0
40
0.125
40
0.125
40
0.25
40
0.25
40
0.5
40
0.5
40
0.75
40
0.75
40
1
40
1
40
1
40
1
41
1
10
8.18325005084313
20
-1.375
30
0
41
1
10
8.2364744652283
20
-1.37500000000023
30
0
41
1
10
8.28967629332496
20
-1.37382406147052
30
0
41
1
10
8.39581505821266
20
-1.36943560360865
30
0
41
1
10
8.44879059323313
20
-1.36622218099544
30
0
41
1
10
8.6074674712502
20
-1.35386984907743
30
0
41
1
10
8.71292130173921
20
-1.34204292581458
30
0
41
1
10
8.92327148440828
20
-1.31233480150524
30
0
41
1
10
9.02816810069339
20
-1.29445646866972
30
0
41
1
10
9.23743204999252
20
-1.25295172653057
30
0
41
1
10
9.34180310420965
20
-1.22936572991563
30
0
41
1
10
9.44586314547905
20
-1.20240209734683
30
0
0
SPLINE
5
18D
100
AcDbEntity
8
1
62
256
6
ByLayer
370
18
48
1
60
0
100
AcDbSpline
70
4
71
3
72
18
73
14
40
0
40
0
40
0
40
0
40
0.25
40
0.25
40
0.375
40
0.375
40
0.5
40
0.5
40
0.750000000000002
40
0.750000000000002
40
0.875000000000001
40
0.875000000000001
40
1
40
1
40
1
40
1
41
1
10
9.37125442462687
20
-0.874999999999858
30
0
41
1
10
9.37125442462687
20
-0.904694818135255
30
0
41
1
10
9.37285807557871
20
-0.934194699485403
30
0
41
1
10
9.3776881894521
20
-0.978149787155473
30
0
41
1
10
9.37971768419914
20
-0.992823834800475
30
0
41
1
10
9.38455354037075
20
-1.02167884394626
30
0
41
1
10
9.38735060736528
20
-1.03583546547083
30
0
41
1
10
9.39684924666645
20
-1.07751409954724
30
0
41
1
10
9.404649592807
20
-1.10425107210793
30
0
41
1
10
9.41859288853712
20
-1.14275413634832
30
0
41
1
10
9.4236398786291
20
-1.15536388660846
30
0
41
1
10
9.43430393517238
20
-1.17956393427201
30
0
41
1
10
9.43993646329218
20
-1.19120677842272
30
0
41
1
10
9.44586314547917
20
-1.20240209734692
30
0
0
SPLINE
5
18E
100
AcDbEntity
8
1
62
256
6
ByLayer
370
18
48
1
60
0
100
AcDbSpline
70
4
71
3
72
26
73
22
40
0
40
0
40
0
40
0
40
0.0625
40
0.0625
40
0.125
40
0.125
40
0.25
40
0.25
40
0.375
40
0.375
40
0.5
40
0.5
40
0.75
40
0.75
40
0.8125
40
0.8125
40
0.84375
40
0.84375
40
0.875
40
0.875
40
1
40
1
40
1
40
1
41
1
10
0
20
-1.09294494717704
30
0
41
1
10
0.0798615061981423
20
-1.09294494717704
30
0
41
1
10
0.159774363699597
20
-1.09418805527122
30
0
41
1
10
0.31969693270085
20
-1.09901890502678
30
0
41
1
10
0.399749988067498
20
-1.10260550904388
30
0
41
1
10
0.639631382539051
20
-1.11627509243578
30
0
41
1
10
0.799204148954971
20
-1.12923453082303
30
0
41
1
10
1.11800182548021
20
-1.15899639959054
30
0
41
1
10
1.27722899968975
20
-1.17577381700173
30
0
41
1
10
1.59560357042369
20
-1.21021000714069
30
0
41
1
10
1.75474950260408
20
-1.22788495741705
30
0
41
1
10
2.23233478291988
20
-1.27928046028188
30
0
41
1
10
2.55092030470416
20
-1.31138613870661
30
0
41
1
10
2.95008484346241
20
-1.34121480212659
30
0
41
1
10
3.02996429579406
20
-1.34666632694675
30
0
41
1
10
3.1498673134349
20
-1.35391738932401
30
0
41
1
10
3.18992183086647
20
-1.35618341463495
30
0
41
1
10
3.26956516787257
20
-1.36035344049768
30
0
41
1
10
3.3093884139609
20
-1.36227063710794
30
0
41
1
10
3.50851321889621
20
-1.37094450465955
30
0
41
1
10
3.66784017059436
20
-1.375
30
0
41
1
10
3.82720524665191
20
-1.375
30
0
0
LINE
5
7D
100
AcDbEntity
8
81
62
256
6
ByLayer
370
18
48
1
60
0
100
AcDbLine
10
41.1
20
-18
30
0
11
46.1
21
-18
31
0
39
0
210
0
220
0
230
1
0
LINE
5
7E
100
AcDbEntity
8
80
62
256
6
ByLayer
370
18
48
1
60
0
100
AcDbLine
10
0
20
0
30
0
11
0
21
5
31
0
39
0
210
0
220
0
230
1
0
LINE
5
7F
100
AcDbEntity
8
1
62
256
6
ByLayer
370
18
48
1
60
0
100
AcDbLine
10
16
20
-0.875
30
0
11
16
21
-0.675
31
0
39
0
210
0
220
0
230
1
0
LINE
5
80
100
AcDbEntity
8
1
62
256
6
ByLayer
370
18
48
1
60
0
100
AcDbLine
10
-3.425
20
-17.675
30
0
11
-2.614286
21
-17.675
31
0
39
0
210
0
220
0
230
1
0
LINE
5
81
100
AcDbEntity
8
1
62
256
6
ByLayer
370
18
48
1
60
0
100
AcDbLine
10
11.884652
20
-17.675
30
0
11
14.928749
21
-17.675
31
0
39
0
210
0
220
0
230
1
0
LINE
5
82
100
AcDbEntity
8
1
62
256
6
ByLayer
370
18
48
1
60
0
100
AcDbLine
10
16.1
20
-17.7
30
0
11
16.1
21
-17.650541
31
0
39
0
210
0
220
0
230
1
0
LINE
5
83
100
AcDbEntity
8
1
62
256
6
ByLayer
370
18
48
1
60
0
100
AcDbLine
10
16.413086
20
-17.999714
30
0
11
20.1
21
-17.83874
31
0
39
0
210
0
220
0
230
1
0
LINE
5
84
100
AcDbEntity
8
1
62
256
6
ByLayer
370
18
48
1
60
0
100
AcDbLine
10
20.1
20
-17.83874
30
0
11
20.428851
21
-17.648878
31
0
39
0
210
0
220
0
230
1
0
LINE
5
85
100
AcDbEntity
8
1
62
256
6
ByLayer
370
18
48
1
60
0
100
AcDbLine
10
34.73
20
-14.4
30
0
11
36.68649
21
-14.4
31
0
39
0
210
0
220
0
230
1
0
LINE
5
86
100
AcDbEntity
8
1
62
256
6
ByLayer
370
18
48
1
60
0
100
AcDbLine
10
34.73
20
-17.6
30
0
11
36.68649
21
-17.6
31
0
39
0
210
0
220
0
230
1
0
LINE
5
87
100
AcDbEntity
8
1
62
256
6
ByLayer
370
18
48
1
60
0
100
AcDbLine
10
37.1
20
-17.83874
30
0
11
36.68649
21
-17.6
31
0
39
0
210
0
220
0
230
1
0
LINE
5
88
100
AcDbEntity
8
1
62
256
6
ByLayer
370
18
48
1
60
0
100
AcDbLine
10
40.786914
20
-17.999714
30
0
11
37.1
21
-17.83874
31
0
39
0
210
0
220
0
230
1
0
LINE
5
89
100
AcDbEntity
8
1
62
256
6
ByLayer
370
18
48
1
60
0
100
AcDbLine
10
41.1
20
-17.7
30
0
11
41.1
21
-14.3
31
0
39
0
210
0
220
0
230
1
0
LINE
5
8A
100
AcDbEntity
8
1
62
256
6
ByLayer
370
18
48
1
60
0
100
AcDbLine
10
40.786914
20
-14.000286
30
0
11
37.1
21
-14.16126
31
0
39
0
210
0
220
0
230
1
0
LINE
5
8B
100
AcDbEntity
8
1
62
256
6
ByLayer
370
18
48
1
60
0
100
AcDbLine
10
37.1
20
-14.16126
30
0
11
36.68649
21
-14.4
31
0
39
0
210
0
220
0
230
1
0
LINE
5
8C
100
AcDbEntity
8
1
62
256
6
ByLayer
370
13
48
1
60
0
100
AcDbLine
10
33.1
20
-16.02
30
0
11
34.037861
21
-16.02
31
0
39
0
210
0
220
0
230
1
0
LINE
5
8D
100
AcDbEntity
8
1
62
256
6
ByLayer
370
13
48
1
60
0
100
AcDbLine
10
33.1
20
-15.98
30
0
11
34.037861
21
-15.98
31
0
39
0
210
0
220
0
230
1
0
LINE
5
8E
100
AcDbEntity
8
1
62
256
6
ByLayer
370
13
48
1
60
0
100
AcDbLine
10
33.099918
20
-15.789264
30
0
11
34.028946
21
-15.789264
31
0
39
0
210
0
220
0
230
1
0
LINE
5
8F
100
AcDbEntity
8
1
62
256
6
ByLayer
370
13
48
1
60
0
100
AcDbLine
10
33.099918
20
-16.210736
30
0
11
34.028946
21
-16.210736
31
0
39
0
210
0
220
0
230
1
0
LINE
5
90
100
AcDbEntity
8
1
62
256
6
ByLayer
370
13
48
1
60
0
100
AcDbLine
10
33.002143
20
-16.427733
30
0
11
33.848945
21
-16.427733
31
0
39
0
210
0
220
0
230
1
0
LINE
5
91
100
AcDbEntity
8
1
62
256
6
ByLayer
370
13
48
1
60
0
100
AcDbLine
10
33.002143
20
-15.572267
30
0
11
33.848945
21
-15.572267
31
0
39
0
210
0
220
0
230
1
0
LINE
5
92
100
AcDbEntity
8
1
62
256
6
ByLayer
370
13
48
1
60
0
100
AcDbLine
10
33.690119
20
-16.483085
30
0
11
32.886755
21
-16.483085
31
0
39
0
210
0
220
0
230
1
0
LINE
5
93
100
AcDbEntity
8
1
62
256
6
ByLayer
370
13
48
1
60
0
100
AcDbLine
10
33.690119
20
-15.516915
30
0
11
32.886755
21
-15.516915
31
0
39
0
210
0
220
0
230
1
0
LINE
5
94
100
AcDbEntity
8
1
62
256
6
ByLayer
370
13
48
1
60
0
100
AcDbLine
10
32.849489
20
-15.486112
30
0
11
33.649523
21
-15.486112
31
0
39
0
210
0
220
0
230
1
0
LINE
5
95
100
AcDbEntity
8
1
62
256
6
ByLayer
370
13
48
1
60
0
100
AcDbLine
10
32.849489
20
-16.513888
30
0
11
33.649523
21
-16.513888
31
0
39
0
210
0
220
0
230
1
0
LINE
5
96
100
AcDbEntity
8
1
62
256
6
ByLayer
370
13
48
1
60
0
100
AcDbLine
10
32.836638
20
-15.394335
30
0
11
33.577691
21
-15.394335
31
0
39
0
210
0
220
0
230
1
0
LINE
5
97
100
AcDbEntity
8
1
62
256
6
ByLayer
370
13
48
1
60
0
100
AcDbLine
10
32.836171
20
-16.605665
30
0
11
33.577691
21
-16.605665
31
0
39
0
210
0
220
0
230
1
0
LINE
5
98
100
AcDbEntity
8
1
62
256
6
ByLayer
370
13
48
1
60
0
100
AcDbLine
10
32.829914
20
-16.649934
30
0
11
33.557959
21
-16.649934
31
0
39
0
210
0
220
0
230
1
0
LINE
5
99
100
AcDbEntity
8
1
62
256
6
ByLayer
370
13
48
1
60
0
100
AcDbLine
10
32.830533
20
-15.350066
30
0
11
33.557959
21
-15.350066
31
0
39
0
210
0
220
0
230
1
0
LINE
5
9A
100
AcDbEntity
8
1
62
256
6
ByLayer
370
13
48
1
60
0
100
AcDbLine
10
32.730429
20
-17.341384
30
0
11
33.436037
21
-17.341384
31
0
39
0
210
0
220
0
230
1
0
LINE
5
9B
100
AcDbEntity
8
1
62
256
6
ByLayer
370
13
48
1
60
0
100
AcDbLine
10
32.727923
20
-17.358749
30
0
11
33.434518
21
-17.358749
31
0
39
0
210
0
220
0
230
1
0
LINE
5
9C
100
AcDbEntity
8
1
62
256
6
ByLayer
370
18
48
1
60
0
100
AcDbLine
10
32.693175
20
-17.6
30
0
11
33.434518
21
-17.6
31
0
39
0
210
0
220
0
230
1
0
LINE
5
9D
100
AcDbEntity
8
1
62
256
6
ByLayer
370
18
48
1
60
0
100
AcDbLine
10
32.693024
20
-14.4
30
0
11
33.434518
21
-14.4
31
0
39
0
210
0
220
0
230
1
0
LINE
5
9E
100
AcDbEntity
8
1
62
256
6
ByLayer
370
18
48
1
60
0
100
AcDbLine
10
34.73
20
-14.4
30
0
11
33.434518
21
-14.4
31
0
39
0
210
0
220
0
230
1
0
LINE
5
9F
100
AcDbEntity
8
1
62
256
6
ByLayer
370
18
48
1
60
0
100
AcDbLine
10
33.434518
20
-14.4
30
0
11
33.434518
21
-14.641251
31
0
39
0
210
0
220
0
230
1
0
LINE
5
A0
100
AcDbEntity
8
1
62
256
6
ByLayer
370
18
48
1
60
0
100
AcDbLine
10
33.436037
20
-14.658616
30
0
11
33.557959
21
-15.350066
31
0
39
0
210
0
220
0
230
1
0
LINE
5
A1
100
AcDbEntity
8
1
62
256
6
ByLayer
370
18
48
1
60
0
100
AcDbLine
10
33.577691
20
-15.394335
30
0
11
33.649523
21
-15.486112
31
0
39
0
210
0
220
0
230
1
0
LINE
5
A2
100
AcDbEntity
8
1
62
256
6
ByLayer
370
18
48
1
60
0
100
AcDbLine
10
34.037861
20
-16.02
30
0
11
34.037861
21
-15.98
31
0
39
0
210
0
220
0
230
1
0
LINE
5
A3
100
AcDbEntity
8
1
62
256
6
ByLayer
370
18
48
1
60
0
100
AcDbLine
10
33.577691
20
-16.605665
30
0
11
33.649523
21
-16.513888
31
0
39
0
210
0
220
0
230
1
0
LINE
5
A4
100
AcDbEntity
8
1
62
256
6
ByLayer
370
18
48
1
60
0
100
AcDbLine
10
33.436037
20
-17.341384
30
0
11
33.557959
21
-16.649934
31
0
39
0
210
0
220
0
230
1
0
LINE
5
A5
100
AcDbEntity
8
1
62
256
6
ByLayer
370
18
48
1
60
0
100
AcDbLine
10
33.434518
20
-17.6
30
0
11
33.434518
21
-17.358749
31
0
39
0
210
0
220
0
230
1
0
LINE
5
A6
100
AcDbEntity
8
1
62
256
6
ByLayer
370
18
48
1
60
0
100
AcDbLine
10
34.73
20
-17.6
30
0
11
33.434518
21
-17.6
31
0
39
0
210
0
220
0
230
1
0
LINE
5
A7
100
AcDbEntity
8
1
62
256
6
ByLayer
370
18
48
1
60
0
100
AcDbLine
10
34.73
20
-17.6
30
0
11
34.73
21
-14.4
31
0
39
0
210
0
220
0
230
1
0
LINE
5
A8
100
AcDbEntity
8
1
62
256
6
ByLayer
370
13
48
1
60
0
100
AcDbLine
10
32.728679
20
-14.641251
30
0
11
33.434518
21
-14.641251
31
0
39
0
210
0
220
0
230
1
0
LINE
5
A9
100
AcDbEntity
8
1
62
256
6
ByLayer
370
13
48
1
60
0
100
AcDbLine
10
32.731336
20
-14.658616
30
0
11
33.436037
21
-14.658616
31
0
39
0
210
0
220
0
230
1
0
LINE
5
AA
100
AcDbEntity
8
1
62
256
6
ByLayer
370
18
48
1
60
0
100
AcDbLine
10
9.132847
20
0.324981
30
0
11
6.60048
21
0.324981
31
0
39
0
210
0
220
0
230
1
0
LINE
5
AB
100
AcDbEntity
8
1
62
256
6
ByLayer
370
18
48
1
60
0
100
AcDbLine
10
40.1
20
-13.711222
30
0
11
40.1
21
-14.030275
31
0
39
0
210
0
220
0
230
1
0
LINE
5
AC
100
AcDbEntity
8
1
62
256
6
ByLayer
370
18
48
1
60
0
100
AcDbLine
10
34.393412
20
-11.583741
30
0
11
23.1
21
-11.583741
31
0
39
0
210
0
220
0
230
1
0
LINE
5
AD
100
AcDbEntity
8
1
62
256
6
ByLayer
370
18
48
1
60
0
100
AcDbLine
10
29.443605
20
-14.163599
30
0
11
31.436088
21
-14.163599
31
0
39
0
210
0
220
0
230
1
0
LINE
5
AE
100
AcDbEntity
8
1
62
256
6
ByLayer
370
18
48
1
60
0
100
AcDbLine
10
9.476736
20
0.324981
30
0
11
9.404549
21
0.324981
31
0
39
0
210
0
220
0
230
1
0
LINE
5
AF
100
AcDbEntity
8
1
62
256
6
ByLayer
370
18
48
1
60
0
100
AcDbLine
10
33.905716
20
-14.167112
30
0
11
37.089772
21
-14.167112
31
0
39
0
210
0
220
0
230
1
0
LINE
5
B0
100
AcDbEntity
8
1
62
256
6
ByLayer
370
18
48
1
60
0
100
AcDbLine
10
31.435897
20
-14.270594
30
0
11
31.436088
21
-14.163599
31
0
39
0
210
0
220
0
230
1
0
LINE
5
B1
100
AcDbEntity
8
1
62
256
6
ByLayer
370
18
48
1
60
0
100
AcDbLine
10
33.9053
20
-14.400013
30
0
11
33.905716
21
-14.167112
31
0
39
0
210
0
220
0
230
1
0
LINE
5
B2
100
AcDbEntity
8
1
62
256
6
ByLayer
370
13
48
1
60
0
100
AcDbLine
10
23.1
20
-11.583741
30
0
11
23.1
21
-13.576056
31
0
39
0
210
0
220
0
230
1
0
LINE
5
B3
100
AcDbEntity
8
1
62
256
6
ByLayer
370
18
48
1
60
0
100
AcDbLine
10
9.530813
20
0.25
30
0
11
6.714371
21
0.25
31
0
39
0
210
0
220
0
230
1
0
LINE
5
B4
100
AcDbEntity
8
1
62
256
6
ByLayer
370
18
48
1
60
0
100
AcDbLine
10
14.717168
20
0.324981
30
0
11
9.57055
21
0.324981
31
0
39
0
210
0
220
0
230
1
0
LINE
5
B5
100
AcDbEntity
8
1
62
256
6
ByLayer
370
18
48
1
60
0
100
AcDbLine
10
7.290539
20
-0.129904
30
0
11
15.243082
21
-0.129904
31
0
39
0
210
0
220
0
230
1
0
LINE
5
B6
100
AcDbEntity
8
1
62
256
6
ByLayer
370
13
48
1
60
0
100
AcDbLine
10
14.818469
20
0.249981
30
0
11
6.71446
21
0.249981
31
0
39
0
210
0
220
0
230
1
0
LINE
5
B7
100
AcDbEntity
8
1
62
256
6
ByLayer
370
18
48
1
60
0
100
AcDbLine
10
33.1
20
-15.725031
30
0
11
33.1
21
-16.274969
31
0
39
0
210
0
220
0
230
1
0
LINE
5
B8
100
AcDbEntity
8
1
62
256
6
ByLayer
370
18
48
1
60
0
100
AcDbLine
10
-14.000019
20
0.324981
30
0
11
-14.075019
21
0.249981
31
0
39
0
210
0
220
0
230
1
0
LINE
5
B9
100
AcDbEntity
8
1
62
256
6
ByLayer
370
18
48
1
60
0
100
AcDbLine
10
-9.769771
20
0.324981
30
0
11
-10.247062
21
0.324981
31
0
39
0
210
0
220
0
230
1
0
LINE
5
BA
100
AcDbEntity
8
1
62
256
6
ByLayer
370
18
48
1
60
0
100
AcDbLine
10
-10.810081
20
0.324981
30
0
11
-11.023511
21
0.324981
31
0
39
0
210
0
220
0
230
1
0
LINE
5
BB
100
AcDbEntity
8
1
62
256
6
ByLayer
370
18
48
1
60
0
100
AcDbLine
10
-13.791283
20
0.324981
30
0
11
-14.000019
21
0.324981
31
0
39
0
210
0
220
0
230
1
0
LINE
5
BC
100
AcDbEntity
8
1
62
256
6
ByLayer
370
18
48
1
60
0
100
AcDbLine
10
-14.075019
20
0.249981
30
0
11
-14.559331
21
-0.234331
31
0
39
0
210
0
220
0
230
1
0
LINE
5
BD
100
AcDbEntity
8
1
62
256
6
ByLayer
370
13
48
1
60
0
100
AcDbLine
10
-13.927309
20
0.249981
30
0
11
-14.075019
21
0.249981
31
0
39
0
210
0
220
0
230
1
0
LINE
5
BE
100
AcDbEntity
8
1
62
256
6
ByLayer
370
18
48
1
60
0
100
AcDbLine
10
-11.132078
20
0.324981
30
0
11
-11.287197
21
0.324981
31
0
39
0
210
0
220
0
230
1
0
LINE
5
BF
100
AcDbEntity
8
1
62
256
6
ByLayer
370
18
48
1
60
0
100
AcDbLine
10
-13.048061
20
0.324981
30
0
11
-13.703327
21
0.324981
31
0
39
0
210
0
220
0
230
1
0
LINE
5
C0
100
AcDbEntity
8
1
62
256
6
ByLayer
370
13
48
1
60
0
100
AcDbLine
10
-13.206552
20
0.249981
30
0
11
-13.72716
21
0.249981
31
0
39
0
210
0
220
0
230
1
0
LINE
5
C1
100
AcDbEntity
8
1
62
256
6
ByLayer
370
13
48
1
60
0
100
AcDbLine
10
-14.125544
20
-0.394519
30
0
11
-14.265575
21
-0.394519
31
0
39
0
210
0
220
0
230
1
0
LINE
5
C2
100
AcDbEntity
8
1
62
256
6
ByLayer
370
18
48
1
60
0
100
AcDbLine
10
-12.074956
20
0.324981
30
0
11
-12.9317
21
0.324981
31
0
39
0
210
0
220
0
230
1
0
LINE
5
C3
100
AcDbEntity
8
1
62
256
6
ByLayer
370
13
48
1
60
0
100
AcDbLine
10
-12.261918
20
0.249981
30
0
11
-12.941904
21
0.249981
31
0
39
0
210
0
220
0
230
1
0
LINE
5
C4
100
AcDbEntity
8
1
62
256
6
ByLayer
370
13
48
1
60
0
100
AcDbLine
10
-13.288685
20
-0.394519
30
0
11
-13.470275
21
-0.394519
31
0
39
0
210
0
220
0
230
1
0
LINE
5
C5
100
AcDbEntity
8
1
62
256
6
ByLayer
370
18
48
1
60
0
100
AcDbLine
10
-11.287177
20
0.324981
30
0
11
-11.923781
21
0.324981
31
0
39
0
210
0
220
0
230
1
0
LINE
5
C6
100
AcDbEntity
8
1
62
256
6
ByLayer
370
13
48
1
60
0
100
AcDbLine
10
-11.153931
20
0.249981
30
0
11
-11.918509
21
0.249981
31
0
39
0
210
0
220
0
230
1
0
LINE
5
C7
100
AcDbEntity
8
1
62
256
6
ByLayer
370
13
48
1
60
0
100
AcDbLine
10
-12.212601
20
-0.394519
30
0
11
-12.44548
21
-0.394519
31
0
39
0
210
0
220
0
230
1
0
LINE
5
C8
100
AcDbEntity
8
1
62
256
6
ByLayer
370
18
48
1
60
0
100
AcDbLine
10
-10.247044
20
0.324981
30
0
11
-10.612458
21
0.324981
31
0
39
0
210
0
220
0
230
1
0
LINE
5
C9
100
AcDbEntity
8
1
62
256
6
ByLayer
370
13
48
1
60
0
100
AcDbLine
10
-9.966378
20
0.249981
30
0
11
-10.588147
21
0.249981
31
0
39
0
210
0
220
0
230
1
0
LINE
5
CA
100
AcDbEntity
8
1
62
256
6
ByLayer
370
18
48
1
60
0
100
AcDbLine
10
-9.769771
20
0.324981
30
0
11
-9.404549
21
0.324981
31
0
39
0
210
0
220
0
230
1
0
LINE
5
CB
100
AcDbEntity
8
1
62
256
6
ByLayer
370
18
48
1
60
0
100
AcDbLine
10
-11.132078
20
0.324981
30
0
11
-11.023467
21
0.324981
31
0
39
0
210
0
220
0
230
1
0
LINE
5
CC
100
AcDbEntity
8
1
62
256
6
ByLayer
370
13
48
1
60
0
100
AcDbLine
10
-10.826145
20
-0.394519
30
0
11
-11.127967
21
-0.394519
31
0
39
0
210
0
220
0
230
1
0
LINE
5
CD
100
AcDbEntity
8
1
62
256
6
ByLayer
370
18
48
1
60
0
100
AcDbLine
10
-6.742374
20
0.324981
30
0
11
-8.864082
21
0.324981
31
0
39
0
210
0
220
0
230
1
0
LINE
5
CE
100
AcDbEntity
8
1
62
256
6
ByLayer
370
18
48
1
60
0
100
AcDbLine
10
-4.633327
20
-16.466673
30
0
11
-3.749927
21
-17.350073
31
0
39
0
210
0
220
0
230
1
0
LINE
5
CF
100
AcDbEntity
8
1
62
256
6
ByLayer
370
18
48
1
60
0
100
AcDbLine
10
16
20
-0.675
30
0
11
10.163081
21
-0.675
31
0
39
0
210
0
220
0
230
1
0
LINE
5
D0
100
AcDbEntity
8
1
62
256
6
ByLayer
370
13
48
1
60
0
100
AcDbLine
10
-7.153883
20
0.249981
30
0
11
-8.812878
21
0.249981
31
0
39
0
210
0
220
0
230
1
0
LINE
5
D1
100
AcDbEntity
8
1
62
256
6
ByLayer
370
18
48
1
60
0
100
AcDbLine
10
21.5
20
-1.375
30
0
11
20.006384
21
-1.375
31
0
39
0
210
0
220
0
230
1
0
LINE
5
D2
100
AcDbEntity
8
1
62
256
6
ByLayer
370
18
48
1
60
0
100
AcDbLine
10
29.6
20
-14.172627
30
0
11
29.6
21
-17.470755
31
0
39
0
210
0
220
0
230
1
0
LINE
5
D3
100
AcDbEntity
8
1
62
256
6
ByLayer
370
18
48
1
60
0
100
AcDbLine
10
21.5
20
-11.734654
30
0
11
21.5
21
-1.375
31
0
39
0
210
0
220
0
230
1
0
LINE
5
D4
100
AcDbEntity
8
1
62
256
6
ByLayer
370
18
48
1
60
0
100
AcDbLine
10
20.006384
20
-16.063532
30
0
11
20.006384
21
-9.256708
31
0
39
0
210
0
220
0
230
1
0
LINE
5
D5
100
AcDbEntity
8
1
62
256
6
ByLayer
370
18
48
1
60
0
100
AcDbLine
10
20.006384
20
-4.943292
30
0
11
20.006384
21
-1.375
31
0
39
0
210
0
220
0
230
1
0
LINE
5
D6
100
AcDbEntity
8
1
62
256
6
ByLayer
370
18
48
1
60
0
100
AcDbLine
10
10.593748
20
-1.375
30
0
11
20.006384
21
-1.375
31
0
39
0
210
0
220
0
230
1
0
LINE
5
D7
100
AcDbEntity
8
1
62
256
6
ByLayer
370
13
48
1
60
0
100
AcDbLine
10
16
20
-0.875
30
0
11
10.163081
21
-0.875
31
0
39
0
210
0
220
0
230
1
0
LINE
5
D8
100
AcDbEntity
8
1
62
256
6
ByLayer
370
18
48
1
60
0
100
AcDbLine
10
9.371207
20
-0.675
30
0
11
10.163081
21
-0.675
31
0
39
0
210
0
220
0
230
1
0
LINE
5
D9
100
AcDbEntity
8
1
62
256
6
ByLayer
370
18
48
1
60
0
100
AcDbLine
10
10.163081
20
-0.875
30
0
11
10.163081
21
-0.675
31
0
39
0
210
0
220
0
230
1
0
LINE
5
DA
100
AcDbEntity
8
1
62
256
6
ByLayer
370
18
48
1
60
0
100
AcDbLine
10
5.861975
20
-17.223628
30
0
11
5.861975
21
-16.97333
31
0
39
0
210
0
220
0
230
1
0
LINE
5
DB
100
AcDbEntity
8
1
62
256
6
ByLayer
370
18
48
1
60
0
100
AcDbLine
10
10.388566
20
-1.357539
30
0
11
10.388566
21
-16.063532
31
0
39
0
210
0
220
0
230
1
0
LINE
5
DC
100
AcDbEntity
8
1
62
256
6
ByLayer
370
13
48
1
60
0
100
AcDbLine
10
-8.986697
20
-0.394519
30
0
11
-9.395388
21
-0.394519
31
0
39
0
210
0
220
0
230
1
0
LINE
5
DD
100
AcDbEntity
8
1
62
256
6
ByLayer
370
18
48
1
60
0
100
AcDbLine
10
6.326108
20
0.324981
30
0
11
1.735923
21
0.324981
31
0
39
0
210
0
220
0
230
1
0
LINE
5
DE
100
AcDbEntity
8
1
62
256
6
ByLayer
370
18
48
1
60
0
100
AcDbLine
10
-1.735923
20
0.324981
30
0
11
-6.326108
21
0.324981
31
0
39
0
210
0
220
0
230
1
0
LINE
5
DF
100
AcDbEntity
8
1
62
256
6
ByLayer
370
13
48
1
60
0
100
AcDbLine
10
6.222926
20
0.249981
30
0
11
3.020453
21
0.249981
31
0
39
0
210
0
220
0
230
1
0
LINE
5
E0
100
AcDbEntity
8
1
62
256
6
ByLayer
370
13
48
1
60
0
100
AcDbLine
10
-3.020453
20
0.249981
30
0
11
-6.222926
21
0.249981
31
0
39
0
210
0
220
0
230
1
0
LINE
5
E1
100
AcDbEntity
8
1
62
256
6
ByLayer
370
13
48
1
60
0
100
AcDbLine
10
6.943702
20
-0.394519
30
0
11
6.310523
21
-0.394519
31
0
39
0
210
0
220
0
230
1
0
LINE
5
E2
100
AcDbEntity
8
1
62
256
6
ByLayer
370
13
48
1
60
0
100
AcDbLine
10
-6.310523
20
-0.394519
30
0
11
-6.943702
21
-0.394519
31
0
39
0
210
0
220
0
230
1
0
LINE
5
E3
100
AcDbEntity
8
1
62
256
6
ByLayer
370
13
48
1
60
0
100
AcDbLine
10
1.912242
20
-0.394519
30
0
11
-1.912242
21
-0.394519
31
0
39
0
210
0
220
0
230
1
0
LINE
5
E4
100
AcDbEntity
8
1
62
256
6
ByLayer
370
18
48
1
60
0
100
AcDbLine
10
-15
20
-0.875
30
0
11
-15
21
-0.675
31
0
39
0
210
0
220
0
230
1
0
LINE
5
E5
100
AcDbEntity
8
1
62
256
6
ByLayer
370
18
48
1
60
0
100
AcDbLine
10
9.371254
20
-0.675
30
0
11
9.371254
21
-0.875
31
0
39
0
210
0
220
0
230
1
0
LINE
5
E6
100
AcDbEntity
8
1
62
256
6
ByLayer
370
18
48
1
60
0
100
AcDbLine
10
9.371254
20
-0.675
30
0
11
7.937106
21
-0.675
31
0
39
0
210
0
220
0
230
1
0
LINE
5
E7
100
AcDbEntity
8
1
62
256
6
ByLayer
370
18
48
1
60
0
100
AcDbLine
10
7.937106
20
-0.675
30
0
11
-15
21
-0.675
31
0
39
0
210
0
220
0
230
1
0
LINE
5
E8
100
AcDbEntity
8
1
62
256
6
ByLayer
370
18
48
1
60
0
100
AcDbLine
10
6.326108
20
0.324981
30
0
11
6.60065
21
0.324981
31
0
39
0
210
0
220
0
230
1
0
LINE
5
E9
100
AcDbEntity
8
1
62
256
6
ByLayer
370
18
48
1
60
0
100
AcDbLine
10
-1.735945
20
0.324981
30
0
11
1.735945
21
0.324981
31
0
39
0
210
0
220
0
230
1
0
LINE
5
EA
100
AcDbEntity
8
1
62
256
6
ByLayer
370
18
48
1
60
0
100
AcDbLine
10
-6.742492
20
0.324981
30
0
11
-6.326108
21
0.324981
31
0
39
0
210
0
220
0
230
1
0
LINE
5
EB
100
AcDbEntity
8
1
62
256
6
ByLayer
370
18
48
1
60
0
100
AcDbLine
10
-9.132847
20
0.324981
30
0
11
-8.864082
21
0.324981
31
0
39
0
210
0
220
0
230
1
0
LINE
5
EC
100
AcDbEntity
8
1
62
256
6
ByLayer
370
18
48
1
60
0
100
AcDbLine
10
-10.810022
20
0.324981
30
0
11
-10.612458
21
0.324981
31
0
39
0
210
0
220
0
230
1
0
LINE
5
ED
100
AcDbEntity
8
1
62
256
6
ByLayer
370
18
48
1
60
0
100
AcDbLine
10
-12.074944
20
0.324981
30
0
11
-11.923781
21
0.324981
31
0
39
0
210
0
220
0
230
1
0
LINE
5
EE
100
AcDbEntity
8
1
62
256
6
ByLayer
370
18
48
1
60
0
100
AcDbLine
10
-13.048064
20
0.324981
30
0
11
-12.9317
21
0.324981
31
0
39
0
210
0
220
0
230
1
0
LINE
5
EF
100
AcDbEntity
8
1
62
256
6
ByLayer
370
18
48
1
60
0
100
AcDbLine
10
-13.791289
20
0.324981
30
0
11
-13.703327
21
0.324981
31
0
39
0
210
0
220
0
230
1
0
LINE
5
F0
100
AcDbEntity
8
1
62
256
6
ByLayer
370
18
48
1
60
0
100
AcDbLine
10
6.461
20
-1.375
30
0
11
8.18325
21
-1.375
31
0
39
0
210
0
220
0
230
1
0
LINE
5
F1
100
AcDbEntity
8
1
62
256
6
ByLayer
370
18
48
1
60
0
100
AcDbLine
10
9.445863
20
-15.953215
30
0
11
9.445863
21
-1.202402
31
0
39
0
210
0
220
0
230
1
0
LINE
5
F2
100
AcDbEntity
8
1
62
256
6
ByLayer
370
18
48
1
60
0
100
AcDbLine
10
-15
20
-1.092945
30
0
11
-15
21
-6.1
31
0
39
0
210
0
220
0
230
1
0
LINE
5
F3
100
AcDbEntity
8
1
62
256
6
ByLayer
370
18
48
1
60
0
100
AcDbLine
10
-15
20
-6.1
30
0
11
-5.712025
21
-15.387975
31
0
39
0
210
0
220
0
230
1
0
LINE
5
F4
100
AcDbEntity
8
1
62
256
6
ByLayer
370
18
48
1
60
0
100
AcDbLine
10
-5.712025
20
-15.387975
30
0
11
-4.635367
21
-16.464633
31
0
39
0
210
0
220
0
230
1
0
LINE
5
F5
100
AcDbEntity
8
1
62
256
6
ByLayer
370
18
48
1
60
0
100
AcDbLine
10
-3.425
20
-17.675
30
0
11
-3.749927
21
-17.350073
31
0
39
0
210
0
220
0
230
1
0
LINE
5
F6
100
AcDbEntity
8
1
62
256
6
ByLayer
370
18
48
1
60
0
100
AcDbLine
10
18.65
20
-17.638842
30
0
11
17.35
21
-17.638842
31
0
39
0
210
0
220
0
230
1
0
LINE
5
F7
100
AcDbEntity
8
1
62
256
6
ByLayer
370
18
48
1
60
0
100
AcDbLine
10
10.388566
20
-16.063532
30
0
11
20.006384
21
-16.063532
31
0
39
0
210
0
220
0
230
1
0
LINE
5
F8
100
AcDbEntity
8
1
62
256
6
ByLayer
370
18
48
1
60
0
100
AcDbLine
10
-15
20
-1.092945
30
0
11
0
21
-1.092945
31
0
39
0
210
0
220
0
230
1
0
LINE
5
F9
100
AcDbEntity
8
1
62
256
6
ByLayer
370
13
48
1
60
0
100
AcDbLine
10
-15
20
-0.875
30
0
11
9.371254
21
-0.875
31
0
39
0
210
0
220
0
230
1
0
LINE
5
FA
100
AcDbEntity
8
1
62
256
6
ByLayer
370
13
48
1
60
0
100
AcDbLine
10
0
20
-1.092945
30
0
11
0
21
-15.044693
31
0
39
0
210
0
220
0
230
1
0
LINE
5
FB
100
AcDbEntity
8
1
62
256
6
ByLayer
370
18
48
1
60
0
100
AcDbLine
10
0
20
-15.044693
30
0
11
6.461
21
-15.044693
31
0
39
0
210
0
220
0
230
1
0
LINE
5
FC
100
AcDbEntity
8
1
62
256
6
ByLayer
370
18
48
1
60
0
100
AcDbLine
10
6.461
20
-1.375
30
0
11
6.461
21
-15.044693
31
0
39
0
210
0
220
0
230
1
0
LINE
5
FD
100
AcDbEntity
8
1
62
256
6
ByLayer
370
18
48
1
60
0
100
AcDbLine
10
3.827205
20
-1.375
30
0
11
6.461
21
-1.375
31
0
39
0
210
0
220
0
230
1
0
MTEXT
5
18F
100
AcDbEntity
8
SK6
62
256
6
ByLayer
370
18
48
1
60
0
100
AcDbMText
10
-19.2645
20
-60.717366
30
0
210
0
220
0
230
1
1
\W0.7830;C2A-SL32-RGH18A-092GB
40
3.5
41
0
44
1.084337
50
0
71
7
72
5
7
iso_b_vert
0
DIMENSION
5
194
100
AcDbEntity
8
2
62
256
6
ByLayer
370
18
48
1
60
0
100
AcDbDimension
2
_U0
10
41.1
20
16.25
30
0
11
20.55
21
16.25
31
0
70
32
71
1
72
1
41
1
210
0
220
0
230
1
3
Standard
100
AcDbAlignedDimension
13
0
23
0
33
0
14
41.1
24
-18
34
0
50
0
100
AcDbRotatedDimension
1001
ACAD
1000
DSTYLE
1002
{
1070
   371
1070
    13
1070
   372
1070
    13
1070
   170
1070
     0
1070
   144
1040
1.0
1070
   277
1070
     2
1070
   284
1070
     8
1070
   278
1070
    46
1070
   146
1040
1.0
1070
   345
1005
16
1070
   347
1005
16
1070
   346
1005
16
1070
   344
1005
0
1070
   343
1005
0
1070
   172
1070
     1
1070
    76
1070
     0
1070
    75
1070
     0
1070
   282
1070
     0
1070
   281
1070
     0
1070
    71
1070
     0
1070
    74
1070
     0
1070
   279
1070
     0
1070
   173
1070
     1
1070
   340
1005
190
1070
   271
1070
     2
1070
   272
1070
     2
1070
    77
1070
     1
1070
    73
1070
     1
1070
   171
1070
     3
1070
   274
1070
     4
1070
   177
1070
     2
1070
   176
1070
     2
1070
   178
1070
     2
1070
    78
1070
     8
1070
    48
1040
-0.1
1070
    41
1040
3.5
1070
   147
1040
1.75
1070
    42
1040
1.5875
1070
    44
1040
2.0
1070
   140
1040
3.5
1002
}
1001
ACAD_DSTYLE_DIM_LINETYPE
1070
   380
1005
16
1001
ACAD_DSTYLE_DIM_EXT1_LINETYPE
1070
   381
1005
16
1001
ACAD_DSTYLE_DIM_EXT2_LINETYPE
1070
   382
1005
16
0
DIMENSION
5
1AE
100
AcDbEntity
8
2
62
256
6
ByLayer
370
18
48
1
60
0
100
AcDbDimension
2
_U1
10
41.1
20
8.25
30
0
11
32.1
21
8.25
31
0
70
32
71
1
72
1
41
1
210
0
220
0
230
1
3
Standard
100
AcDbAlignedDimension
13
23.1
23
-14.325
33
0
14
41.1
24
-18
34
0
50
0
100
AcDbRotatedDimension
1001
ACAD
1000
DSTYLE
1002
{
1070
   371
1070
    13
1070
   372
1070
    13
1070
   170
1070
     0
1070
   144
1040
1.0
1070
   277
1070
     2
1070
   284
1070
     8
1070
   278
1070
    46
1070
   146
1040
1.0
1070
   345
1005
16
1070
   347
1005
16
1070
   346
1005
16
1070
   344
1005
0
1070
   343
1005
0
1070
   172
1070
     1
1070
    76
1070
     0
1070
    75
1070
     0
1070
   282
1070
     0
1070
   281
1070
     0
1070
    71
1070
     0
1070
    74
1070
     0
1070
   279
1070
     0
1070
   173
1070
     1
1070
   340
1005
190
1070
   271
1070
     2
1070
   272
1070
     2
1070
    77
1070
     1
1070
    73
1070
     1
1070
   171
1070
     3
1070
   274
1070
     4
1070
   177
1070
     2
1070
   176
1070
     2
1070
   178
1070
     2
1070
    78
1070
     8
1070
    48
1040
-0.1
1070
    41
1040
3.5
1070
   147
1040
1.75
1070
    42
1040
1.5875
1070
    44
1040
2.0
1070
   140
1040
3.5
1002
}
1001
ACAD_DSTYLE_DIM_LINETYPE
1070
   380
1005
16
1001
ACAD_DSTYLE_DIM_EXT1_LINETYPE
1070
   381
1005
16
1001
ACAD_DSTYLE_DIM_EXT2_LINETYPE
1070
   382
1005
16
0
DIMENSION
5
1C6
100
AcDbEntity
8
2
62
256
6
ByLayer
370
18
48
1
60
0
100
AcDbDimension
2
_U2
10
65.85
20
0
30
0
11
65.85
21
-9
31
0
70
32
71
1
72
1
41
1
210
0
220
0
230
1
3
Standard
100
AcDbAlignedDimension
13
41.1
23
-18
33
0
14
0
24
0
34
0
50
90
100
AcDbRotatedDimension
1001
ACAD
1000
DSTYLE
1002
{
1070
   371
1070
    13
1070
   372
1070
    13
1070
   170
1070
     0
1070
   144
1040
1.0
1070
   277
1070
     2
1070
   284
1070
     8
1070
   278
1070
    46
1070
   146
1040
1.0
1070
   345
1005
16
1070
   347
1005
16
1070
   346
1005
16
1070
   344
1005
0
1070
   343
1005
0
1070
   172
1070
     1
1070
    76
1070
     0
1070
    75
1070
     0
1070
   282
1070
     0
1070
   281
1070
     0
1070
    71
1070
     0
1070
    74
1070
     0
1070
   279
1070
     0
1070
   173
1070
     1
1070
   340
1005
190
1070
   271
1070
     2
1070
   272
1070
     2
1070
    77
1070
     1
1070
    73
1070
     0
1070
   171
1070
     3
1070
   274
1070
     4
1070
   177
1070
     2
1070
   176
1070
     2
1070
   178
1070
     2
1070
    78
1070
     8
1070
    48
1040
-0.1
1070
    41
1040
3.5
1070
   147
1040
1.75
1070
    42
1040
1.5875
1070
    44
1040
2.0
1070
   140
1040
3.5
1002
}
1001
ACAD_DSTYLE_DIM_LINETYPE
1070
   380
1005
16
1001
ACAD_DSTYLE_DIM_EXT1_LINETYPE
1070
   381
1005
16
1001
ACAD_DSTYLE_DIM_EXT2_LINETYPE
1070
   382
1005
16
0
DIMENSION
5
1DE
100
AcDbEntity
8
2
62
256
6
ByLayer
370
18
48
1
60
0
100
AcDbDimension
2
_U3
10
52.85
20
-14
30
0
11
52.85
21
-16
31
0
70
32
71
1
72
1
41
1
210
0
220
0
230
1
3
Standard
100
AcDbAlignedDimension
13
41.1
23
-18
33
0
14
41.1
24
-14
34
0
50
90
100
AcDbRotatedDimension
1001
ACAD
1000
DSTYLE
1002
{
1070
   371
1070
    13
1070
   372
1070
    13
1070
   170
1070
     0
1070
   144
1040
1.0
1070
   277
1070
     2
1070
   284
1070
     8
1070
   278
1070
    46
1070
   146
1040
1.0
1070
   345
1005
16
1070
   347
1005
16
1070
   346
1005
16
1070
   344
1005
0
1070
   343
1005
0
1070
   172
1070
     1
1070
    76
1070
     0
1070
    75
1070
     0
1070
   282
1070
     0
1070
   281
1070
     0
1070
    71
1070
     0
1070
    74
1070
     0
1070
   279
1070
     0
1070
   173
1070
     1
1070
   340
1005
190
1070
   271
1070
     2
1070
   272
1070
     2
1070
    77
1070
     1
1070
    73
1070
     0
1070
   171
1070
     3
1070
   274
1070
     4
1070
   177
1070
     2
1070
   176
1070
     2
1070
   178
1070
     2
1070
    78
1070
     8
1070
    48
1040
-0.1
1070
    41
1040
3.5
1070
   147
1040
1.75
1070
    42
1040
1.5875
1070
    44
1040
2.0
1070
   140
1040
3.5
1002
}
1001
ACAD_DSTYLE_DIM_LINETYPE
1070
   380
1005
16
1001
ACAD_DSTYLE_DIM_EXT1_LINETYPE
1070
   381
1005
16
1001
ACAD_DSTYLE_DIM_EXT2_LINETYPE
1070
   382
1005
16
0
ENDSEC
0
SECTION
2
OBJECTS
0
DICTIONARY
5
264
330
0
100
AcDbDictionary
280
0
281
1
3
ACAD_GROUP
350
265
3
ACAD_MLINESTYLE
350
266
0
DICTIONARY
5
265
330
0
100
AcDbDictionary
280
0
281
1
0
DICTIONARY
5
266
330
0
100
AcDbDictionary
280
0
281
1
3
Standard
350
18
0
MLINESTYLE
5
18
330
266
100
AcDbMlineStyle
2
Standard
70
0
3

62
256
51
90
52
90
71
2
49
-0.5
62
256
6
ByLayer
49
0.5
62
256
6
ByLayer
0
RASTERVARIABLES
5
255
330

100
AcDbRasterVariables
90
0
70
1
71
1
72
1
0
ENDSEC
0
EOF
