0
SECTION
2
HEADER
9
$ACADVER
1
AC1015
9
$DWGCODEPAGE
3
ANSI_1252
9
$HANDSEED
5
273
9
$ANGBASE
50
0
9
$ANGDIR
70
0
9
$ATTMODE
70
1
9
$AUNITS
70
0
9
$AUPREC
70
0
9
$CECOLOR
62
256
9
$CELTSCALE
40
1
9
$CELTYPE
6
ByLayer
9
$CELWEIGHT
370
18
9
$CLAYER
8
0
9
$CMLJUST
70
0
9
$CMLSCALE
40
1
9
$CMLSTYLE
2
Standard
9
$DIMSTYLE
2
Standard
9
$TEXTSIZE
40
0.2
9
$TEXTSTYLE
7
Standard
9
$LUNITS
70
2
9
$LUPREC
70
4
9
$EXTNAMES
290
1
9
$INSUNITS
70
4
9
$LTSCALE
40
1
9
$LWDISPLAY
290
1
9
$PDMODE
70
0
9
$PDSIZE
40
0
9
$PLINEGEN
70
0
0
ENDSEC
0
SECTION
2
CLASSES
0
CLASS
1
RASTERVARIABLES
2
AcDbRasterVariables
3
ISM
90
0
280
0
281
0
0
ENDSEC
0
SECTION
2
TABLES
0
TABLE
2
VPORT
5
269
100
AcDbSymbolTable
0
VPORT
5
1
100
AcDbSymbolTableRecord
100
AcDbViewportTableRecord
2
*Active
70
0
10
0
20
0
11
1
21
1
12
-1
22
1
13
0
23
0
14
0.5
24
0.5
15
10
25
10
16
0
26
0
36
1
17
0
27
0
37
0
0
ENDTAB
0
TABLE
2
LTYPE
5
26a
100
AcDbSymbolTable
0
LTYPE
5
14
100
AcDbSymbolTableRecord
100
AcDbLinetypeTableRecord
70
0
2
ByBlock
3

72
65
73
0
40
0
0
LTYPE
5
15
100
AcDbSymbolTableRecord
100
AcDbLinetypeTableRecord
70
0
2
ByLayer
3

72
65
73
0
40
0
0
LTYPE
5
16
100
AcDbSymbolTableRecord
100
AcDbLinetypeTableRecord
70
0
2
Continuous
3
Solid line
72
65
73
0
40
0
0
LTYPE
5
6E
100
AcDbSymbolTableRecord
100
AcDbLinetypeTableRecord
70
0
2
CENTER
3
____ _ ____ _ ____ _ ____
72
65
73
4
40
47.5
49
22
74
0
49
-8.5
74
0
49
8.5
74
0
49
-8.5
74
0
0
LTYPE
5
6F
100
AcDbSymbolTableRecord
100
AcDbLinetypeTableRecord
70
0
2
DASHED
3
__ __ __ __ __ __ __ __ __
72
65
73
2
40
25.72
49
12.86
74
0
49
-12.86
74
0
0
ENDTAB
0
TABLE
2
LAYER
5
26b
100
AcDbSymbolTable
0
LAYER
5
10
100
AcDbSymbolTableRecord
100
AcDbLayerTableRecord
2
0
70
0
62
7
6
Continuous
290
1
370
-3
390
0
0
LAYER
5
71
100
AcDbSymbolTableRecord
100
AcDbLayerTableRecord
2
81
70
0
62
-3
6
Continuous
290
1
370
-3
390
0
0
LAYER
5
73
100
AcDbSymbolTableRecord
100
AcDbLayerTableRecord
2
80
70
0
62
-6
6
Continuous
290
1
370
-3
390
0
0
LAYER
5
75
100
AcDbSymbolTableRecord
100
AcDbLayerTableRecord
2
1
70
0
62
4
6
Continuous
290
1
370
-3
390
0
0
LAYER
5
199
100
AcDbSymbolTableRecord
100
AcDbLayerTableRecord
2
Defpoints
70
0
62
7
6
Continuous
290
0
370
-3
390
0
0
LAYER
5
1A6
100
AcDbSymbolTableRecord
100
AcDbLayerTableRecord
2
2
70
0
62
7
6
Continuous
290
1
370
-3
390
0
0
LAYER
5
258
100
AcDbSymbolTableRecord
100
AcDbLayerTableRecord
2
SK6
70
0
62
5
6
Continuous
290
1
370
-3
390
0
0
ENDTAB
0
TABLE
2
STYLE
5
26c
100
AcDbSymbolTable
0
STYLE
5
11
100
AcDbSymbolTableRecord
100
AcDbTextStyleTableRecord
2
Standard
3
txt
70
0
71
0
40
0
41
1
42
0
50
0
0
STYLE
5
192
100
AcDbSymbolTableRecord
100
AcDbTextStyleTableRecord
2
iso_b_vert
3
simplex.shx
70
0
71
0
40
0
41
1
42
0
50
0
0
STYLE
5
193
100
AcDbSymbolTableRecord
100
AcDbTextStyleTableRecord
2
DWGDirectTextStyle
3
simplex
70
0
71
0
40
0
41
1
42
0
50
0
0
ENDTAB
0
TABLE
2
DIMSTYLE
5
26d
100
AcDbSymbolTable
100
AcDbDimStyleTable
0
DIMSTYLE
105
27
100
AcDbSymbolTableRecord
100
AcDbDimStyleTableRecord
2
Standard
70
0
3
<>
41
0.18
42
0.0625
44
0.18
140
0.18
147
0.09
73
0
74
0
77
1
271
2
275
0
278
52
280
0
340
11
0
ENDTAB
0
TABLE
2
VIEW
5
26e
100
AcDbSymbolTable
0
ENDTAB
0
TABLE
2
UCS
5
26f
100
AcDbSymbolTable
0
ENDTAB
0
TABLE
2
APPID
5
270
100
AcDbSymbolTable
0
APPID
5
12
100
AcDbSymbolTableRecord
100
AcDbRegAppTableRecord
2
ACAD
70
0
0
APPID
5
195
100
AcDbSymbolTableRecord
100
AcDbRegAppTableRecord
2
ACAD_DSTYLE_DIMBREAK
70
0
0
APPID
5
217
100
AcDbSymbolTableRecord
100
AcDbRegAppTableRecord
2
ACAD_DSTYLE_DIM_LINETYPE
70
0
0
APPID
5
218
100
AcDbSymbolTableRecord
100
AcDbRegAppTableRecord
2
ACAD_DSTYLE_DIM_EXT1_LINETYPE
70
0
0
APPID
5
219
100
AcDbSymbolTableRecord
100
AcDbRegAppTableRecord
2
ACAD_DSTYLE_DIM_EXT2_LINETYPE
70
0
0
APPID
5
254
100
AcDbSymbolTableRecord
100
AcDbRegAppTableRecord
2
ACAD_MLEADERVER
70
0
0
ENDTAB
0
TABLE
2
BLOCK_RECORD
5
271
100
AcDbSymbolTable
0
BLOCK_RECORD
5
1F
100
AcDbSymbolTableRecord
100
AcDbBlockTableRecord
2
*Model_Space
340
0
70
0
0
BLOCK_RECORD
5
1B
100
AcDbSymbolTableRecord
100
AcDbBlockTableRecord
2
*Paper_Space
340
0
70
0
0
BLOCK_RECORD
5
23
100
AcDbSymbolTableRecord
100
AcDbBlockTableRecord
2
*Paper_Space0
340
0
70
0
0
BLOCK_RECORD
5
19A
100
AcDbSymbolTableRecord
100
AcDbBlockTableRecord
2
*D1
340
0
70
0
0
BLOCK_RECORD
5
1A7
100
AcDbSymbolTableRecord
100
AcDbBlockTableRecord
2
_U0
340
0
70
0
0
BLOCK_RECORD
5
1B3
100
AcDbSymbolTableRecord
100
AcDbBlockTableRecord
2
*D3
340
0
70
0
0
BLOCK_RECORD
5
1BF
100
AcDbSymbolTableRecord
100
AcDbBlockTableRecord
2
_U1
340
0
70
0
0
BLOCK_RECORD
5
1CB
100
AcDbSymbolTableRecord
100
AcDbBlockTableRecord
2
*D5
340
0
70
0
0
BLOCK_RECORD
5
1D7
100
AcDbSymbolTableRecord
100
AcDbBlockTableRecord
2
_U2
340
0
70
0
0
BLOCK_RECORD
5
1E3
100
AcDbSymbolTableRecord
100
AcDbBlockTableRecord
2
*D7
340
0
70
0
0
BLOCK_RECORD
5
1F0
100
AcDbSymbolTableRecord
100
AcDbBlockTableRecord
2
_U3
340
0
70
0
0
ENDTAB
0
ENDSEC
0
SECTION
2
BLOCKS
0
BLOCK
5
20
100
AcDbEntity
8
0
100
AcDbBlockBegin
2
*Model_Space
70
0
10
0
20
0
30
0
3
*Model_Space
0
ENDBLK
5
21
100
AcDbEntity
8
0
100
AcDbBlockEnd
0
BLOCK
5
1C
100
AcDbEntity
8
0
100
AcDbBlockBegin
2
*Paper_Space
70
0
10
0
20
0
30
0
3
*Paper_Space
0
ENDBLK
5
1D
100
AcDbEntity
8
0
100
AcDbBlockEnd
0
BLOCK
5
24
100
AcDbEntity
8
0
100
AcDbBlockBegin
2
*Paper_Space0
70
0
10
0
20
0
30
0
3
*Paper_Space0
0
ENDBLK
5
25
100
AcDbEntity
8
0
100
AcDbBlockEnd
0
BLOCK
5
19B
100
AcDbEntity
8
0
100
AcDbBlockBegin
2
*D1
70
1
10
0
20
0
30
0
3
*D1
0
LINE
5
19D
100
AcDbEntity
8
0
62
256
6
ByLayer
370
-2
48
1
60
0
100
AcDbLine
10
0
20
-1.5875
30
0
11
0
21
-21.75
31
0
39
0
210
0
220
0
230
1
0
LINE
5
19E
100
AcDbEntity
8
0
62
256
6
ByLayer
370
-2
48
1
60
0
100
AcDbLine
10
41.1
20
16.4125
30
0
11
41.1
21
-21.75
31
0
39
0
210
0
220
0
230
1
0
LINE
5
19F
100
AcDbEntity
8
0
62
256
6
ByLayer
370
-2
48
1
60
0
100
AcDbLine
10
3.5
20
-19.75
30
0
11
37.6
21
-19.75
31
0
39
0
210
0
220
0
230
1
0
SOLID
5
1A0
100
AcDbEntity
8
0
62
256
6
ByLayer
370
-1
48
1
60
0
100
AcDbTrace
10
3.5
20
-19.166667
30
0
11
3.5
21
-20.333333
31
0
12
0
22
-19.75
32
0
13
0
23
-19.75
33
0
39
0
210
0
220
0
230
1
0
SOLID
5
1A1
100
AcDbEntity
8
0
62
256
6
ByLayer
370
-1
48
1
60
0
100
AcDbTrace
10
37.6
20
-20.333333
30
0
11
37.6
21
-19.166667
31
0
12
41.1
22
-19.75
32
0
13
41.1
23
-19.75
33
0
39
0
210
0
220
0
230
1
0
MTEXT
5
1A2
100
AcDbEntity
8
0
62
256
6
ByLayer
370
18
48
1
60
0
100
AcDbMText
10
20.55
20
-12.75
30
0
210
0
220
0
230
1
1
\A1;41.1
40
3.5
41
0
44
1
50
0
71
5
72
5
7
iso_b_vert
0
POINT
5
1A3
100
AcDbEntity
8
Defpoints
62
0
6
ByLayer
370
-1
48
1
60
0
100
AcDbPoint
10
0
20
0
30
0
39
0
210
0
220
0
230
1
50
360
0
POINT
5
1A4
100
AcDbEntity
8
Defpoints
62
0
6
ByLayer
370
-1
48
1
60
0
100
AcDbPoint
10
41.1
20
18
30
0
39
0
210
0
220
0
230
1
50
360
0
POINT
5
1A5
100
AcDbEntity
8
Defpoints
62
0
6
ByLayer
370
-1
48
1
60
0
100
AcDbPoint
10
41.1
20
-19.75
30
0
39
0
210
0
220
0
230
1
50
360
0
ENDBLK
5
19C
100
AcDbEntity
8
0
100
AcDbBlockEnd
0
BLOCK
5
1AE
100
AcDbEntity
8
0
100
AcDbBlockBegin
2
_U0
70
0
10
0
20
0
30
0
3
_U0
0
MTEXT
5
1A8
100
AcDbEntity
8
2
62
256
6
ByLayer
370
18
48
1
60
0
100
AcDbMText
10
17.318901
20
-18.717366
30
0
210
0
220
0
230
1
1
\W0.6670;41.1
40
3.5
41
0
44
1.084337
50
0
71
7
72
5
7
iso_b_vert
0
LINE
5
1A9
100
AcDbEntity
8
2
62
256
6
ByLayer
370
13
48
1
60
0
100
AcDbLine
10
0
20
-1.5875
30
0
11
0
21
-21.75
31
0
39
0
210
0
220
0
230
1
0
LINE
5
1AA
100
AcDbEntity
8
2
62
256
6
ByLayer
370
13
48
1
60
0
100
AcDbLine
10
41.1
20
16.4125
30
0
11
41.1
21
-21.75
31
0
39
0
210
0
220
0
230
1
0
LINE
5
1AB
100
AcDbEntity
8
2
62
256
6
ByLayer
370
13
48
1
60
0
100
AcDbLine
10
0
20
-19.75
30
0
11
41.1
21
-19.75
31
0
39
0
210
0
220
0
230
1
0
SOLID
5
1AC
100
AcDbEntity
8
2
62
256
6
ByLayer
370
18
48
1
60
0
100
AcDbTrace
10
0
20
-19.75
30
0
11
3.499998
21
-19.289216
31
0
12
3.500002
22
-20.210784
32
0
13
3.500002
23
-20.210784
33
0
39
0
210
0
220
0
230
1
0
SOLID
5
1AD
100
AcDbEntity
8
2
62
256
6
ByLayer
370
18
48
1
60
0
100
AcDbTrace
10
41.1
20
-19.75
30
0
11
37.600002
21
-20.210784
31
0
12
37.599998
22
-19.289216
32
0
13
37.599998
23
-19.289216
33
0
39
0
210
0
220
0
230
1
0
ENDBLK
5
1AF
100
AcDbEntity
8
0
100
AcDbBlockEnd
0
BLOCK
5
1B4
100
AcDbEntity
8
0
100
AcDbBlockBegin
2
*D3
70
1
10
0
20
0
30
0
3
*D3
0
LINE
5
1B6
100
AcDbEntity
8
0
62
256
6
ByLayer
370
-2
48
1
60
0
100
AcDbLine
10
23.1
20
12.73761
30
0
11
23.1
21
-13.75
31
0
39
0
210
0
220
0
230
1
0
LINE
5
1B7
100
AcDbEntity
8
0
62
256
6
ByLayer
370
-2
48
1
60
0
100
AcDbLine
10
41.1
20
16.4125
30
0
11
41.1
21
-13.75
31
0
39
0
210
0
220
0
230
1
0
LINE
5
1B8
100
AcDbEntity
8
0
62
256
6
ByLayer
370
-2
48
1
60
0
100
AcDbLine
10
26.6
20
-11.75
30
0
11
37.6
21
-11.75
31
0
39
0
210
0
220
0
230
1
0
SOLID
5
1B9
100
AcDbEntity
8
0
62
256
6
ByLayer
370
-1
48
1
60
0
100
AcDbTrace
10
26.6
20
-11.166667
30
0
11
26.6
21
-12.333333
31
0
12
23.1
22
-11.75
32
0
13
23.1
23
-11.75
33
0
39
0
210
0
220
0
230
1
0
SOLID
5
1BA
100
AcDbEntity
8
0
62
256
6
ByLayer
370
-1
48
1
60
0
100
AcDbTrace
10
37.6
20
-12.333333
30
0
11
37.6
21
-11.166667
31
0
12
41.1
22
-11.75
32
0
13
41.1
23
-11.75
33
0
39
0
210
0
220
0
230
1
0
MTEXT
5
1BB
100
AcDbEntity
8
0
62
256
6
ByLayer
370
18
48
1
60
0
100
AcDbMText
10
32.1
20
-4.75
30
0
210
0
220
0
230
1
1
\A1;18
40
3.5
41
0
44
1
50
0
71
5
72
5
7
iso_b_vert
0
POINT
5
1BC
100
AcDbEntity
8
Defpoints
62
0
6
ByLayer
370
-1
48
1
60
0
100
AcDbPoint
10
23.1
20
14.32511
30
0
39
0
210
0
220
0
230
1
50
360
0
POINT
5
1BD
100
AcDbEntity
8
Defpoints
62
0
6
ByLayer
370
-1
48
1
60
0
100
AcDbPoint
10
41.1
20
18
30
0
39
0
210
0
220
0
230
1
50
360
0
POINT
5
1BE
100
AcDbEntity
8
Defpoints
62
0
6
ByLayer
370
-1
48
1
60
0
100
AcDbPoint
10
41.1
20
-11.75
30
0
39
0
210
0
220
0
230
1
50
360
0
ENDBLK
5
1B5
100
AcDbEntity
8
0
100
AcDbBlockEnd
0
BLOCK
5
1C6
100
AcDbEntity
8
0
100
AcDbBlockBegin
2
_U1
70
0
10
0
20
0
30
0
3
_U1
0
MTEXT
5
1C0
100
AcDbEntity
8
2
62
256
6
ByLayer
370
18
48
1
60
0
100
AcDbMText
10
30.632467
20
-10.717366
30
0
210
0
220
0
230
1
1
\W0.5321;18
40
3.5
41
0
44
1.084337
50
0
71
7
72
5
7
iso_b_vert
0
LINE
5
1C1
100
AcDbEntity
8
2
62
256
6
ByLayer
370
13
48
1
60
0
100
AcDbLine
10
23.1
20
12.73761
30
0
11
23.1
21
-13.75
31
0
39
0
210
0
220
0
230
1
0
LINE
5
1C2
100
AcDbEntity
8
2
62
256
6
ByLayer
370
13
48
1
60
0
100
AcDbLine
10
41.1
20
16.4125
30
0
11
41.1
21
-13.75
31
0
39
0
210
0
220
0
230
1
0
LINE
5
1C3
100
AcDbEntity
8
2
62
256
6
ByLayer
370
13
48
1
60
0
100
AcDbLine
10
23.1
20
-11.75
30
0
11
41.1
21
-11.75
31
0
39
0
210
0
220
0
230
1
0
SOLID
5
1C4
100
AcDbEntity
8
2
62
256
6
ByLayer
370
18
48
1
60
0
100
AcDbTrace
10
23.1
20
-11.75
30
0
11
26.599998
21
-11.289216
31
0
12
26.600002
22
-12.210784
32
0
13
26.600002
23
-12.210784
33
0
39
0
210
0
220
0
230
1
0
SOLID
5
1C5
100
AcDbEntity
8
2
62
256
6
ByLayer
370
18
48
1
60
0
100
AcDbTrace
10
41.1
20
-11.75
30
0
11
37.600002
21
-12.210784
31
0
12
37.599998
22
-11.289216
32
0
13
37.599998
23
-11.289216
33
0
39
0
210
0
220
0
230
1
0
ENDBLK
5
1C7
100
AcDbEntity
8
0
100
AcDbBlockEnd
0
BLOCK
5
1CC
100
AcDbEntity
8
0
100
AcDbBlockBegin
2
*D5
70
1
10
0
20
0
30
0
3
*D5
0
LINE
5
1CE
100
AcDbEntity
8
0
62
256
6
ByLayer
370
-2
48
1
60
0
100
AcDbLine
10
42.6875
20
18
30
0
11
67.85
21
18
31
0
39
0
210
0
220
0
230
1
0
LINE
5
1CF
100
AcDbEntity
8
0
62
256
6
ByLayer
370
-2
48
1
60
0
100
AcDbLine
10
1.5875
20
0
30
0
11
67.85
21
0
31
0
39
0
210
0
220
0
230
1
0
LINE
5
1D0
100
AcDbEntity
8
0
62
256
6
ByLayer
370
-2
48
1
60
0
100
AcDbLine
10
65.85
20
14.5
30
0
11
65.85
21
3.5
31
0
39
0
210
0
220
0
230
1
0
SOLID
5
1D1
100
AcDbEntity
8
0
62
256
6
ByLayer
370
-1
48
1
60
0
100
AcDbTrace
10
66.433333
20
14.5
30
0
11
65.266667
21
14.5
31
0
12
65.85
22
18
32
0
13
65.85
23
18
33
0
39
0
210
0
220
0
230
1
0
SOLID
5
1D2
100
AcDbEntity
8
0
62
256
6
ByLayer
370
-1
48
1
60
0
100
AcDbTrace
10
65.266667
20
3.5
30
0
11
66.433333
21
3.5
31
0
12
65.85
22
0
32
0
13
65.85
23
0
33
0
39
0
210
0
220
0
230
1
0
MTEXT
5
1D3
100
AcDbEntity
8
0
62
256
6
ByLayer
370
18
48
1
60
0
100
AcDbMText
10
58.85
20
9
30
0
210
0
220
0
230
1
1
\A1;18
40
3.5
41
0
44
1
50
90
71
5
72
5
7
iso_b_vert
0
POINT
5
1D4
100
AcDbEntity
8
Defpoints
62
0
6
ByLayer
370
-1
48
1
60
0
100
AcDbPoint
10
41.1
20
18
30
0
39
0
210
0
220
0
230
1
50
360
0
POINT
5
1D5
100
AcDbEntity
8
Defpoints
62
0
6
ByLayer
370
-1
48
1
60
0
100
AcDbPoint
10
0
20
0
30
0
39
0
210
0
220
0
230
1
50
360
0
POINT
5
1D6
100
AcDbEntity
8
Defpoints
62
0
6
ByLayer
370
-1
48
1
60
0
100
AcDbPoint
10
65.85
20
0
30
0
39
0
210
0
220
0
230
1
50
360
0
ENDBLK
5
1CD
100
AcDbEntity
8
0
100
AcDbBlockEnd
0
BLOCK
5
1DE
100
AcDbEntity
8
0
100
AcDbBlockBegin
2
_U2
70
0
10
0
20
0
30
0
3
_U2
0
MTEXT
5
1D8
100
AcDbEntity
8
2
62
256
6
ByLayer
370
18
48
1
60
0
100
AcDbMText
10
65.160366
20
7.504467
30
0
210
0
220
0
230
1
1
\W0.5321;18
40
3.5
41
0
44
1.084337
50
90
71
7
72
5
7
iso_b_vert
0
LINE
5
1D9
100
AcDbEntity
8
2
62
256
6
ByLayer
370
13
48
1
60
0
100
AcDbLine
10
42.6875
20
18
30
0
11
67.85
21
18
31
0
39
0
210
0
220
0
230
1
0
LINE
5
1DA
100
AcDbEntity
8
2
62
256
6
ByLayer
370
13
48
1
60
0
100
AcDbLine
10
1.5875
20
0
30
0
11
67.85
21
0
31
0
39
0
210
0
220
0
230
1
0
LINE
5
1DB
100
AcDbEntity
8
2
62
256
6
ByLayer
370
13
48
1
60
0
100
AcDbLine
10
65.85
20
18
30
0
11
65.85
21
0
31
0
39
0
210
0
220
0
230
1
0
SOLID
5
1DC
100
AcDbEntity
8
2
62
256
6
ByLayer
370
18
48
1
60
0
100
AcDbTrace
10
65.85
20
18
30
0
11
66.310784
21
14.500002
31
0
12
65.389216
22
14.499998
32
0
13
65.389216
23
14.499998
33
0
39
0
210
0
220
0
230
1
0
SOLID
5
1DD
100
AcDbEntity
8
2
62
256
6
ByLayer
370
18
48
1
60
0
100
AcDbTrace
10
65.85
20
0
30
0
11
65.389216
21
3.499998
31
0
12
66.310784
22
3.500002
32
0
13
66.310784
23
3.500002
33
0
39
0
210
0
220
0
230
1
0
ENDBLK
5
1DF
100
AcDbEntity
8
0
100
AcDbBlockEnd
0
BLOCK
5
1E4
100
AcDbEntity
8
0
100
AcDbBlockBegin
2
*D7
70
1
10
0
20
0
30
0
3
*D7
0
LINE
5
1E6
100
AcDbEntity
8
0
62
256
6
ByLayer
370
-2
48
1
60
0
100
AcDbLine
10
42.6875
20
18
30
0
11
54.85
21
18
31
0
39
0
210
0
220
0
230
1
0
LINE
5
1E7
100
AcDbEntity
8
0
62
256
6
ByLayer
370
-2
48
1
60
0
100
AcDbLine
10
42.6875
20
14
30
0
11
54.85
21
14
31
0
39
0
210
0
220
0
230
1
0
LINE
5
1E8
100
AcDbEntity
8
0
62
256
6
ByLayer
370
-2
48
1
60
0
100
AcDbLine
10
52.85
20
21.5
30
0
11
52.85
21
25
31
0
39
0
210
0
220
0
230
1
0
LINE
5
1E9
100
AcDbEntity
8
0
62
256
6
ByLayer
370
-2
48
1
60
0
100
AcDbLine
10
52.85
20
10.5
30
0
11
52.85
21
7
31
0
39
0
210
0
220
0
230
1
0
SOLID
5
1EA
100
AcDbEntity
8
0
62
256
6
ByLayer
370
-1
48
1
60
0
100
AcDbTrace
10
52.266667
20
21.5
30
0
11
53.433333
21
21.5
31
0
12
52.85
22
18
32
0
13
52.85
23
18
33
0
39
0
210
0
220
0
230
1
0
SOLID
5
1EB
100
AcDbEntity
8
0
62
256
6
ByLayer
370
-1
48
1
60
0
100
AcDbTrace
10
53.433333
20
10.5
30
0
11
52.266667
21
10.5
31
0
12
52.85
22
14
32
0
13
52.85
23
14
33
0
39
0
210
0
220
0
230
1
0
MTEXT
5
1EC
100
AcDbEntity
8
0
62
256
6
ByLayer
370
18
48
1
60
0
100
AcDbMText
10
45.85
20
16
30
0
210
0
220
0
230
1
1
\A1;4
40
3.5
41
0
44
1
50
90
71
5
72
5
7
iso_b_vert
0
POINT
5
1ED
100
AcDbEntity
8
Defpoints
62
0
6
ByLayer
370
-1
48
1
60
0
100
AcDbPoint
10
41.1
20
18
30
0
39
0
210
0
220
0
230
1
50
360
0
POINT
5
1EE
100
AcDbEntity
8
Defpoints
62
0
6
ByLayer
370
-1
48
1
60
0
100
AcDbPoint
10
41.1
20
14
30
0
39
0
210
0
220
0
230
1
50
360
0
POINT
5
1EF
100
AcDbEntity
8
Defpoints
62
0
6
ByLayer
370
-1
48
1
60
0
100
AcDbPoint
10
52.85
20
14
30
0
39
0
210
0
220
0
230
1
50
360
0
ENDBLK
5
1E5
100
AcDbEntity
8
0
100
AcDbBlockEnd
0
BLOCK
5
1F7
100
AcDbEntity
8
0
100
AcDbBlockBegin
2
_U3
70
0
10
0
20
0
30
0
3
_U3
0
MTEXT
5
1F1
100
AcDbEntity
8
2
62
256
6
ByLayer
370
18
48
1
60
0
100
AcDbMText
10
52.160366
20
15.1905
30
0
210
0
220
0
230
1
1
\W0.6380;4
40
3.5
41
0
44
1.084337
50
90
71
7
72
5
7
iso_b_vert
0
LINE
5
1F2
100
AcDbEntity
8
2
62
256
6
ByLayer
370
13
48
1
60
0
100
AcDbLine
10
42.6875
20
18
30
0
11
54.85
21
18
31
0
39
0
210
0
220
0
230
1
0
LINE
5
1F3
100
AcDbEntity
8
2
62
256
6
ByLayer
370
13
48
1
60
0
100
AcDbLine
10
42.6875
20
14
30
0
11
54.85
21
14
31
0
39
0
210
0
220
0
230
1
0
LINE
5
1F4
100
AcDbEntity
8
2
62
256
6
ByLayer
370
13
48
1
60
0
100
AcDbLine
10
52.85
20
26.75
30
0
11
52.85
21
5.25
31
0
39
0
210
0
220
0
230
1
0
SOLID
5
1F5
100
AcDbEntity
8
2
62
256
6
ByLayer
370
18
48
1
60
0
100
AcDbTrace
10
52.85
20
18
30
0
11
52.389216
21
21.499998
31
0
12
53.310784
22
21.500002
32
0
13
53.310784
23
21.500002
33
0
39
0
210
0
220
0
230
1
0
SOLID
5
1F6
100
AcDbEntity
8
2
62
256
6
ByLayer
370
18
48
1
60
0
100
AcDbTrace
10
52.85
20
14
30
0
11
53.310784
21
10.500002
31
0
12
52.389216
22
10.499998
32
0
13
52.389216
23
10.499998
33
0
39
0
210
0
220
0
230
1
0
ENDBLK
5
1F8
100
AcDbEntity
8
0
100
AcDbBlockEnd
0
ENDSEC
0
SECTION
2
ENTITIES
0
ARC
5
FF
100
AcDbEntity
8
1
62
256
6
ByLayer
370
18
48
1
60
0
100
AcDbCircle
39
0
10
16.5
20
0.875
30
0
40
0.5
210
0
220
0
230
1
100
AcDbArc
50
90
51
180
0
ARC
5
100
100
AcDbEntity
8
1
62
256
6
ByLayer
370
18
48
1
60
0
100
AcDbCircle
39
0
10
16
20
7.100077
30
0
40
4.5499999999999
210
0
220
0
230
1
100
AcDbArc
50
331.070879
51
28.929121
0
ARC
5
101
100
AcDbEntity
8
1
62
256
6
ByLayer
370
18
48
1
60
0
100
AcDbCircle
39
0
10
16
20
7.100077
30
0
40
4.55
210
0
220
0
230
1
100
AcDbArc
50
28.929121
51
331.070879
0
ARC
5
102
100
AcDbEntity
8
1
62
256
6
ByLayer
370
18
48
1
60
0
100
AcDbCircle
39
0
10
22.452887
20
-11.99989
30
0
40
29.6750000029484
210
0
220
0
230
1
100
AcDbArc
50
115.996477
51
122.608856
0
ARC
5
103
100
AcDbEntity
8
1
62
256
6
ByLayer
370
18
48
1
60
0
100
AcDbCircle
39
0
10
16
20
7.100077
30
0
40
1.416
210
0
220
0
230
1
100
AcDbArc
50
186.192438
51
240.190711
0
ARC
5
104
100
AcDbEntity
8
1
62
256
6
ByLayer
370
18
48
1
60
0
100
AcDbCircle
39
0
10
16
20
7.100077
30
0
40
1.416
210
0
220
0
230
1
100
AcDbArc
50
299.809289
51
353.807562
0
ARC
5
105
100
AcDbEntity
8
1
62
256
6
ByLayer
370
18
48
1
60
0
100
AcDbCircle
39
0
10
16
20
7.100077
30
0
40
1.416
210
0
220
0
230
1
100
AcDbArc
50
6.192438
51
60.190711
0
ARC
5
106
100
AcDbEntity
8
1
62
256
6
ByLayer
370
18
48
1
60
0
100
AcDbCircle
39
0
10
16
20
7.100077
30
0
40
1.416
210
0
220
0
230
1
100
AcDbArc
50
60.190711
51
119.809289
0
ARC
5
107
100
AcDbEntity
8
1
62
256
6
ByLayer
370
18
48
1
60
0
100
AcDbCircle
39
0
10
16
20
7.100077
30
0
40
1.416
210
0
220
0
230
1
100
AcDbArc
50
119.809289
51
173.807562
0
ARC
5
108
100
AcDbEntity
8
1
62
256
6
ByLayer
370
18
48
1
60
0
100
AcDbCircle
39
0
10
16
20
7.100077
30
0
40
1.416
210
0
220
0
230
1
100
AcDbArc
50
240.190711
51
299.809289
0
ARC
5
109
100
AcDbEntity
8
1
62
256
6
ByLayer
370
18
48
1
60
0
100
AcDbCircle
39
0
10
16
20
7.100077
30
0
40
1.416
210
0
220
0
230
1
100
AcDbArc
50
353.807562
51
6.192438
0
ARC
5
10A
100
AcDbEntity
8
1
62
256
6
ByLayer
370
18
48
1
60
0
100
AcDbCircle
39
0
10
16
20
7.100077
30
0
40
1.416
210
0
220
0
230
1
100
AcDbArc
50
173.807562
51
186.192438
0
ARC
5
10B
100
AcDbEntity
8
1
62
256
6
ByLayer
370
18
48
1
60
0
100
AcDbCircle
39
0
10
16
20
7.100077
30
0
40
1.9685
210
0
220
0
230
1
100
AcDbArc
50
329.618578
51
30.381422
0
ARC
5
10C
100
AcDbEntity
8
1
62
256
6
ByLayer
370
18
48
1
60
0
100
AcDbCircle
39
0
10
16
20
7.100077
30
0
40
1.9685
210
0
220
0
230
1
100
AcDbArc
50
149.618578
51
210.381422
0
ARC
5
10F
100
AcDbEntity
8
1
62
256
6
ByLayer
370
18
48
1
60
0
100
AcDbCircle
39
0
10
16
20
7.100077
30
0
40
1.9685
210
0
220
0
230
1
100
AcDbArc
50
90
51
149.618578
0
ARC
5
110
100
AcDbEntity
8
1
62
256
6
ByLayer
370
18
48
1
60
0
100
AcDbCircle
39
0
10
16
20
7.100077
30
0
40
1.9685
210
0
220
0
230
1
100
AcDbArc
50
210.381422
51
270
0
ARC
5
111
100
AcDbEntity
8
1
62
256
6
ByLayer
370
18
48
1
60
0
100
AcDbCircle
39
0
10
16
20
7.100077
30
0
40
1.9685
210
0
220
0
230
1
100
AcDbArc
50
30.381422
51
90
0
ARC
5
112
100
AcDbEntity
8
1
62
256
6
ByLayer
370
18
48
1
60
0
100
AcDbCircle
39
0
10
16
20
7.100077
30
0
40
1.9685
210
0
220
0
230
1
100
AcDbArc
50
270
51
329.618578
0
CIRCLE
5
10D
100
AcDbEntity
8
1
62
256
6
ByLayer
370
18
48
1
60
0
100
AcDbCircle
10
16
20
7.100077
30
0
40
4.25
39
0
210
0
220
0
230
1
0
CIRCLE
5
10E
100
AcDbEntity
8
1
62
256
6
ByLayer
370
18
48
1
60
0
100
AcDbCircle
10
16
20
7.100077
30
0
40
3.75
39
0
210
0
220
0
230
1
0
ELLIPSE
5
113
100
AcDbEntity
8
1
62
256
6
ByLayer
370
18
48
1
60
0
100
AcDbEllipse
10
33.534518
20
17.371303
30
0
11
-0.0710799453124994
21
0.0710799493370987
31
0
210
0
220
0
230
1
40
0.989582
41
0.780162203939644
42
0.954695129180589
0
ELLIPSE
5
114
100
AcDbEntity
8
1
62
256
6
ByLayer
370
18
48
1
60
0
100
AcDbEllipse
10
33.65644
20
16.678614
30
0
11
-0.0710799468905268
21
0.0710799478514266
31
0
210
0
220
0
230
1
40
0.989582
41
0.954695116659242
42
1.44424566245896
0
ELLIPSE
5
115
100
AcDbEntity
8
1
62
256
6
ByLayer
370
18
48
1
60
0
100
AcDbEllipse
10
33.65644
20
15.34409
30
0
11
-0.071079946452551
21
0.0710799482225865
31
0
210
0
220
0
230
1
40
0.989582
41
0.116078707987835
42
0.60562925387076
0
ELLIPSE
5
116
100
AcDbEntity
8
1
62
256
6
ByLayer
370
18
48
1
60
0
100
AcDbEllipse
10
33.534518
20
14.653954
30
0
11
-0.0710799452590768
21
0.071079949382428
31
0
210
0
220
0
230
1
40
0.989582
41
0.605629279423554
42
0.78016220466746
0
ELLIPSE
5
117
100
AcDbEntity
8
1
62
256
6
ByLayer
370
18
48
1
60
0
100
AcDbEllipse
10
40.8
20
14.300203
30
0
11
0.3
21
0
31
0
210
0
220
0
230
1
40
0.999945
41
-1.614429558062
42
0
0
ELLIPSE
5
118
100
AcDbEntity
8
1
62
256
6
ByLayer
370
18
48
1
60
0
100
AcDbEllipse
10
16.4
20
17.700016
30
0
11
0.3
21
0
31
0
210
0
220
0
230
1
40
0.999945
41
1.52716309552781
42
3.14159265358979
0
ELLIPSE
5
119
100
AcDbEntity
8
1
62
256
6
ByLayer
370
18
48
1
60
0
100
AcDbEllipse
10
40.8
20
17.700016
30
0
11
-0.3
21
3.67381906146713E-17
31
0
210
0
220
0
230
1
40
0.999945
41
3.14159265358979
42
-1.52716309552779
0
ELLIPSE
5
11A
100
AcDbEntity
8
1
62
256
6
ByLayer
370
18
48
1
60
0
100
AcDbEllipse
10
522.727089
20
-18.158053
30
0
11
-1630.13408530141
21
5.29963490889203
31
0
210
0
220
0
230
1
40
0.01966
41
-1.26618062476475
42
-1.26459216623968
0
ELLIPSE
5
11B
100
AcDbEntity
8
1
62
256
6
ByLayer
370
18
48
1
60
0
100
AcDbEllipse
10
34.185699
20
-18.19989
30
0
11
-32.9890674001705
21
4.03986215449234E-15
31
0
210
0
220
0
230
1
40
0.985933
41
-1.52447354909538
42
-1.43133810168876
0
ELLIPSE
5
11C
100
AcDbEntity
8
1
62
256
6
ByLayer
370
18
48
1
60
0
100
AcDbEllipse
10
34.987849
20
-18.19989
30
0
11
-38.7596602669126
21
4.74653262348579E-15
31
0
210
0
220
0
230
1
40
0.839146
41
-1.43133810158929
42
-1.25906524228573
0
ELLIPSE
5
11D
100
AcDbEntity
8
1
62
256
6
ByLayer
370
18
48
1
60
0
100
AcDbEllipse
10
-0.586628
20
-11.99989
30
0
11
-3.77180322294898E-14
21
29.6750000000566
31
0
210
0
220
0
230
1
40
0.771313
41
-0.453724125950729
42
-0.249730171928039
0
ELLIPSE
5
11E
100
AcDbEntity
8
1
62
256
6
ByLayer
370
18
48
1
60
0
100
AcDbEllipse
10
0.676275
20
-11.99989
30
0
11
-3.77180322288629E-14
21
29.6749999995634
31
0
210
0
220
0
230
1
40
0.771313
41
-0.438217910360433
42
-0.228545760643147
0
ELLIPSE
5
11F
100
AcDbEntity
8
1
62
256
6
ByLayer
370
18
48
1
60
0
100
AcDbEllipse
10
34.987849
20
-11.99989
30
0
11
-35.3633487590384
21
4.33061815827551E-15
31
0
210
0
220
0
230
1
40
0.839146
41
-1.41784377284047
42
-1.13257841643721
0
ELLIPSE
5
120
100
AcDbEntity
8
1
62
256
6
ByLayer
370
18
48
1
60
0
100
AcDbEllipse
10
34.185699
20
-11.99989
30
0
11
-30.0984035068847
21
3.68586961744407E-15
31
0
210
0
220
0
230
1
40
0.985933
41
-1.5215673168262
42
-1.41784377279169
0
ELLIPSE
5
121
100
AcDbEntity
8
1
62
256
6
ByLayer
370
18
48
1
60
0
100
AcDbEllipse
10
45.293113
20
-18.19989
30
0
11
-4.13404885683648E-14
21
32.5250000001169
31
0
210
0
220
0
230
1
40
0.57735
41
0.280200552910244
42
0.618487645497813
0
ELLIPSE
5
122
100
AcDbEntity
8
1
62
256
6
ByLayer
370
18
48
1
60
0
100
AcDbEllipse
10
-231.911125
20
-12.001455
30
0
11
2301.91118948723
21
4.84821273541242
31
0
210
0
220
0
230
1
40
0.012719
41
1.45560276895205
42
1.46114769190898
0
ELLIPSE
5
123
100
AcDbEntity
8
1
62
256
6
ByLayer
370
18
48
1
60
0
100
AcDbEllipse
10
13.128306
20
-11.999881
30
0
11
-881.068001148542
21
1.07896147235609E-13
31
0
210
0
220
0
230
1
40
0.033681
41
-1.57079618194461
42
-1.55883783386796
0
POINT
5
70
100
AcDbEntity
8
81
62
256
6
ByLayer
370
18
48
1
60
0
100
AcDbPoint
10
41.1
20
18
30
0
39
0
210
0
220
0
230
1
50
360
0
POINT
5
72
100
AcDbEntity
8
80
62
256
6
ByLayer
370
18
48
1
60
0
100
AcDbPoint
10
0
20
0
30
0
39
0
210
0
220
0
230
1
50
360
0
POINT
5
74
100
AcDbEntity
8
1
62
256
6
ByLayer
370
18
48
1
60
1
100
AcDbPoint
10
0
20
0
30
0
39
0
210
0
220
0
230
1
50
360
0
POINT
5
76
100
AcDbEntity
8
1
62
256
6
ByLayer
370
18
48
1
60
1
100
AcDbPoint
10
41.1
20
18
30
0
39
0
210
0
220
0
230
1
50
360
0
POINT
5
77
100
AcDbEntity
8
1
62
256
6
ByLayer
370
18
48
1
60
1
100
AcDbPoint
10
23.1
20
14.32511
30
0
39
0
210
0
220
0
230
1
50
360
0
POINT
5
78
100
AcDbEntity
8
1
62
256
6
ByLayer
370
18
48
1
60
1
100
AcDbPoint
10
41.1
20
18
30
0
39
0
210
0
220
0
230
1
50
360
0
POINT
5
79
100
AcDbEntity
8
1
62
256
6
ByLayer
370
18
48
1
60
1
100
AcDbPoint
10
41.1
20
18
30
0
39
0
210
0
220
0
230
1
50
360
0
POINT
5
7A
100
AcDbEntity
8
1
62
256
6
ByLayer
370
18
48
1
60
1
100
AcDbPoint
10
0
20
0
30
0
39
0
210
0
220
0
230
1
50
360
0
POINT
5
7B
100
AcDbEntity
8
1
62
256
6
ByLayer
370
18
48
1
60
1
100
AcDbPoint
10
41.1
20
18
30
0
39
0
210
0
220
0
230
1
50
360
0
POINT
5
7C
100
AcDbEntity
8
1
62
256
6
ByLayer
370
18
48
1
60
1
100
AcDbPoint
10
41.1
20
14
30
0
39
0
210
0
220
0
230
1
50
360
0
SPLINE
5
124
100
AcDbEntity
8
1
62
256
6
ByLayer
370
18
48
1
60
0
100
AcDbSpline
70
4
71
3
72
18
73
14
40
0
40
0
40
0
40
0
40
0.106502320877474
40
0.209819720888279
40
0.309970050664457
40
0.406972922400204
40
0.500849920825906
40
0.591624858696216
40
0.679324076625903
40
0.763976789997804
40
0.845615488386092
40
0.924276395492369
40
1
40
1
40
1
40
1
41
1
10
33.6901186384102
20
16.4940579383408
30
0
41
1
10
33.6885415273359
20
16.4947533832136
30
0
41
1
10
33.6854344682345
20
16.4961234758829
30
0
41
1
10
33.6809243323186
20
16.4984737762742
30
0
41
1
10
33.6766153234625
20
16.500980286884
30
0
41
1
10
33.6725126225173
20
16.5036470259468
30
0
41
1
10
33.6686149102105
20
16.5064500549964
30
0
41
1
10
33.6649224452297
20
16.5093731311829
30
0
41
1
10
33.661435372045
20
16.5123992314717
30
0
41
1
10
33.6581528367141
20
16.5155108264921
30
0
41
1
10
33.6550778698627
20
16.5186967834487
30
0
41
1
10
33.6521996835923
20
16.5219261974597
30
0
41
1
10
33.6504035869189
20
16.5241787369777
30
0
41
1
10
33.6495226247502
20
16.5252835784532
30
0
0
SPLINE
5
125
100
AcDbEntity
8
1
62
256
6
ByLayer
370
18
48
1
60
0
100
AcDbSpline
70
4
71
3
72
16
73
12
40
0
40
0
40
0
40
0
40
0.117319552192524
40
0.233085853411069
40
0.347299362420242
40
0.459960556948124
40
0.571069934744743
40
0.680628014712994
40
0.788635338118826
40
0.895092469888328
40
1
40
1
40
1
40
1
41
1
10
33.8489454154502
20
16.4370449455295
30
0
41
1
10
33.8426777667127
20
16.4389332839053
30
0
41
1
10
33.8302254497072
20
16.4426849600208
30
0
41
1
10
33.8117192560251
20
16.4485930610076
30
0
41
1
10
33.7934972967189
20
16.4546490478167
30
0
41
1
10
33.7755628433779
20
16.4608663128645
30
0
41
1
10
33.757915115378
20
16.4672303727025
30
0
41
1
10
33.740554028885
20
16.4737324721372
30
0
41
1
10
33.7234806581352
20
16.4803689205671
30
0
41
1
10
33.706690875259
20
16.4871114780228
30
0
41
1
10
33.6956156516799
20
16.491753796491
30
0
41
1
10
33.6901186384102
20
16.4940579383479
30
0
0
SPLINE
5
126
100
AcDbEntity
8
1
62
256
6
ByLayer
370
18
48
1
60
0
100
AcDbSpline
70
4
71
2
72
10
73
7
40
0
40
0
40
0
40
0.5
40
0.5
40
0.75
40
0.75
40
1
40
1
40
1
41
1
10
33.8489454154437
20
16.4370449455656
30
0
41
1
10
33.9165392416661
20
16.4168434992628
30
0
41
1
10
33.9642354827692
20
16.364623323063
30
0
41
1
10
33.990222472721
20
16.3361714961936
30
0
41
1
10
34.0068593747306
20
16.3001438431515
30
0
41
1
10
34.0248252361525
20
16.2612382932157
30
0
41
1
10
34.0289461970832
20
16.2181749775533
30
0
0
SPLINE
5
127
100
AcDbEntity
8
1
62
256
6
ByLayer
370
18
48
1
60
0
100
AcDbSpline
70
4
71
2
72
6
73
3
40
0
40
0
40
0
40
1
40
1
40
1
41
1
10
34.0289461971207
20
16.2181749776388
30
0
41
1
10
34.0378374892933
20
16.1228680578486
30
0
41
1
10
34.0378609595317
20
16.0273564959643
30
0
0
SPLINE
5
128
100
AcDbEntity
8
1
62
256
6
ByLayer
370
18
48
1
60
0
100
AcDbSpline
70
4
71
3
72
17
73
13
40
0
40
0
40
0
40
0
40
0.100317411817088
40
0.20054131029358
40
0.300680278273612
40
0.400742920447673
40
0.500737861201944
40
0.600673742442843
40
0.70055922139927
40
0.800402968404939
40
0.900213664663609
40
1
40
1
40
1
40
1
41
1
10
34.0289461971202
20
15.7967269130547
30
0
41
1
10
34.0295231228819
20
15.8030648791462
30
0
41
1
10
34.0306764366099
20
15.8157349032384
30
0
41
1
10
34.0321818251215
20
15.8347725716722
30
0
41
1
10
34.0335216262514
20
15.8538199608061
30
0
41
1
10
34.0346798037515
20
15.8728785679511
30
0
41
1
10
34.0356607269915
20
15.8919458743075
30
0
41
1
10
34.0364629358431
20
15.9110204403802
30
0
41
1
10
34.0370879043618
20
15.930100524179
30
0
41
1
10
34.0375311975092
20
15.9491845194364
30
0
41
1
10
34.0378090731847
20
15.9682705842307
30
0
41
1
10
34.037843665489
20
15.9809965043417
30
0
41
1
10
34.0378609595302
20
15.9873586877945
30
0
0
SPLINE
5
129
100
AcDbEntity
8
1
62
256
6
ByLayer
370
18
48
1
60
0
100
AcDbSpline
70
4
71
3
72
38
73
34
40
0
40
0
40
0
40
0
40
0.0320161803202272
40
0.0634137556517435
40
0.0941938978135354
40
0.124357850632129
40
0.153906935795977
40
0.182842559298686
40
0.211166218540755
40
0.238879510169575
40
0.265984138747586
40
0.292481926351471
40
0.318374823219166
40
0.343664919578632
40
0.368354458810695
40
0.39244585212029
40
0.415941694916246
40
0.438844785127739
40
0.461158143719599
40
0.482885037706446
40
0.504029006008675
40
0.551366811163473
40
0.597409666800774
40
0.642207857911418
40
0.68581597545782
40
0.728293199080104
40
0.76970355723211
40
0.810116149643949
40
0.849605314211517
40
0.888250718111315
40
0.926137351649977
40
0.96335540368498
40
1
40
1
40
1
40
1
41
1
10
33.8489454154402
20
15.5816268037809
30
0
41
1
10
33.851573623365
20
15.5823803063879
30
0
41
1
10
33.8567792579372
20
15.5838727526986
30
0
41
1
10
33.8644507904025
20
15.5864281435299
30
0
41
1
10
33.8719249095624
20
15.5891736437369
30
0
41
1
10
33.879197515346
20
15.5921200418179
30
0
41
1
10
33.8862696764356
20
15.5952482524333
30
0
41
1
10
33.8931411178644
20
15.5985471731157
30
0
41
1
10
33.8998119140363
20
15.6020038745117
30
0
41
1
10
33.9062820488636
20
15.6056061779383
30
0
41
1
10
33.9125515300026
20
15.6093420120106
30
0
41
1
10
33.918620359246
20
15.6131996028187
30
0
41
1
10
33.9244885401637
20
15.6171674452048
30
0
41
1
10
33.930156076368
20
15.6212343282181
30
0
41
1
10
33.9356229711883
20
15.6253893443638
30
0
41
1
10
33.9408892306582
20
15.6296218998679
30
0
41
1
10
33.9459548524167
20
15.633921725665
30
0
41
1
10
33.9508198658029
20
15.6382788747239
30
0
41
1
10
33.955484187911
20
15.6426837619116
30
0
41
1
10
33.9599481402183
20
15.6471270440052
30
0
41
1
10
33.9660095568001
20
15.6534878962139
30
0
41
1
10
33.9734588192034
20
15.6619981109982
30
0
41
1
10
33.9820027422799
20
15.6729809897319
30
0
41
1
10
33.9898489226437
20
15.6843471548834
30
0
41
1
10
33.9969976055381
20
15.6960512105833
30
0
41
1
10
34.0034486190908
20
15.7080487127465
30
0
41
1
10
34.009201735736
20
15.7202956163841
30
0
41
1
10
34.0142571546109
20
15.7327484944174
30
0
41
1
10
34.0186132961073
20
15.7453650594066
30
0
41
1
10
34.0222748801841
20
15.7581027217557
30
0
41
1
10
34.0252236999949
20
15.7709243959279
30
0
41
1
10
34.027524633432
20
15.7837779359775
30
0
41
1
10
34.0284748015062
20
15.7924329861475
30
0
41
1
10
34.0289461970802
20
15.7967269131411
30
0
0
SPLINE
5
12A
100
AcDbEntity
8
1
62
256
6
ByLayer
370
18
48
1
60
0
100
AcDbSpline
70
4
71
2
72
6
73
3
40
0
40
0
40
0
40
1
40
1
40
1
41
1
10
33.8489454154522
20
15.5816268038168
30
0
41
1
10
33.7679467190158
20
15.5592240466443
30
0
41
1
10
33.6901186384127
20
15.5279402104406
30
0
0
SPLINE
5
12B
100
AcDbEntity
8
1
62
256
6
ByLayer
370
18
48
1
60
0
100
AcDbSpline
70
4
71
2
72
6
73
3
40
0
40
0
40
0
40
1
40
1
40
1
41
1
10
33.6901186384117
20
15.5279402104476
30
0
41
1
10
33.6658197594192
20
15.5180259016126
30
0
41
1
10
33.6495226247507
20
15.4975647957177
30
0
0
SPLINE
5
12C
100
AcDbEntity
8
1
62
256
6
ByLayer
370
18
48
1
60
0
100
AcDbSpline
70
4
71
3
72
8
73
4
40
0
40
0
40
0
40
0
40
1
40
1
40
1
40
1
41
1
10
8.97509300114021
20
-0.269594177820636
30
0
41
1
10
8.97048024229872
20
-0.263188796058728
30
0
41
1
10
8.96535566342396
20
-0.256648768658465
30
0
41
1
10
8.95982040671319
20
-0.249999999999829
30
0
0
SPLINE
5
12D
100
AcDbEntity
8
1
62
256
6
ByLayer
370
18
48
1
60
0
100
AcDbSpline
70
4
71
3
72
8
73
4
40
0
40
0
40
0
40
0
40
1
40
1
40
1
40
1
41
1
10
8.97509300113904
20
-0.269594177821347
30
0
41
1
10
8.96602634583104
20
-0.263052313104737
30
0
41
1
10
8.95695689263579
20
-0.256520867363747
30
0
41
1
10
8.94788459874798
20
-0.25
30
0
0
SPLINE
5
12E
100
AcDbEntity
8
1
62
256
6
ByLayer
370
18
48
1
60
0
100
AcDbSpline
70
4
71
3
72
20
73
16
40
0
40
0
40
0
40
0
40
0.125
40
0.125
40
0.25
40
0.25
40
0.375
40
0.375
40
0.5
40
0.5
40
0.625
40
0.625
40
0.75
40
0.75
40
1
40
1
40
1
40
1
41
1
10
9.5070945452878
20
-0.324980947161691
30
0
41
1
10
9.50446684643606
20
-0.324980947161691
30
0
41
1
10
9.50120547788177
20
-0.324325438354236
30
0
41
1
10
9.49383752136632
20
-0.321978904858042
30
0
41
1
10
9.48970604367264
20
-0.320287538788818
30
0
41
1
10
9.48067606109115
20
-0.316017460644701
30
0
41
1
10
9.47584069438224
20
-0.313466776029827
30
0
41
1
10
9.46575547887247
20
-0.307741778715808
30
0
41
1
10
9.46048600059484
20
-0.304557321014272
30
0
41
1
10
9.44955246765531
20
-0.297627228915957
30
0
41
1
10
9.44387251607549
20
-0.293868908437645
30
0
41
1
10
9.43240356571505
20
-0.286013315481341
30
0
41
1
10
9.42658457612515
20
-0.281897606492294
30
0
41
1
10
9.40890440191322
20
-0.269050270820657
30
0
41
1
10
9.39682270649575
20
-0.259824535101188
30
0
41
1
10
9.3844789550599
20
-0.25
30
0
0
SPLINE
5
12F
100
AcDbEntity
8
1
62
256
6
ByLayer
370
18
48
1
60
0
100
AcDbSpline
70
4
71
2
72
6
73
3
40
0
40
0
40
0
40
1
40
1
40
1
41
1
10
9.57062122153147
20
-0.324980947161691
30
0
41
1
10
9.53999786148736
20
-0.324980947161691
30
0
41
1
10
9.50723215695228
20
-0.324980947161691
30
0
0
SPLINE
5
130
100
AcDbEntity
8
1
62
256
6
ByLayer
370
18
48
1
60
0
100
AcDbSpline
70
4
71
3
72
22
73
18
40
0
40
0
40
0
40
0
40
0.125
40
0.125
40
0.25
40
0.25
40
0.375
40
0.375
40
0.5
40
0.5
40
0.625
40
0.625
40
0.75
40
0.75
40
0.875
40
0.875
40
1
40
1
40
1
40
1
41
1
10
9.53081289439862
20
-0.249999999999943
30
0
41
1
10
9.53505931314226
20
-0.254861141173507
30
0
41
1
10
9.53914014588514
20
-0.259653435704053
30
0
41
1
10
9.5469222663894
20
-0.26908108225922
30
0
41
1
10
9.55063275024946
20
-0.273730195609943
30
0
41
1
10
9.55744018536603
20
-0.282630010692884
30
0
41
1
10
9.56055905507199
20
-0.28690587896952
30
0
41
1
10
9.56613810398775
20
-0.295057128232287
30
0
41
1
10
9.56861585716385
20
-0.298965833156615
30
0
41
1
10
9.57263907119452
20
-0.306067076874996
30
0
41
1
10
9.5741997112676
20
-0.309275100347463
30
0
41
1
10
9.57631860575586
20
-0.314932710155119
30
0
41
1
10
9.57685514810564
20
-0.317350053736362
30
0
41
1
10
9.57683167984811
20
-0.321175545408039
30
0
41
1
10
9.57628182451117
20
-0.322618634072569
30
0
41
1
10
9.57410536556662
20
-0.324533102723962
30
0
41
1
10
9.57251449079982
20
-0.324980699935452
30
0
41
1
10
9.57048139756094
20
-0.324980947060027
30
0
0
SPLINE
5
131
100
AcDbEntity
8
1
62
256
6
ByLayer
370
18
48
1
60
0
100
AcDbSpline
70
4
71
3
72
12
73
8
40
0
40
0
40
0
40
0
40
0.499999999999998
40
0.499999999999998
40
0.749999999999999
40
0.749999999999999
40
1
40
1
40
1
40
1
41
1
10
32.8477314186092
20
15.513677482762
30
0
41
1
10
32.8180201851021
20
15.3091919006297
30
0
41
1
10
32.7877972496887
20
15.1048515387217
30
0
41
1
10
32.7408788282078
20
14.7988192501493
30
0
41
1
10
32.7249707000994
20
14.6968937719267
30
0
41
1
10
32.6923104374765
20
14.4933107463622
30
0
41
1
10
32.6755684881678
20
14.391649965714
30
0
41
1
10
32.6580999783524
20
14.2902198325999
30
0
0
SPLINE
5
132
100
AcDbEntity
8
1
62
256
6
ByLayer
370
18
48
1
60
0
100
AcDbSpline
70
4
71
3
72
8
73
4
40
0
40
0
40
0
40
0
40
1
40
1
40
1
40
1
41
1
10
33.0239180567829
20
15.5959401964741
30
0
41
1
10
32.9653001439808
20
15.5680507583539
30
0
41
1
10
32.9066116530334
20
15.5404593219045
30
0
41
1
10
32.8477314186091
20
15.513677482762
30
0
0
SPLINE
5
133
100
AcDbEntity
8
1
62
256
6
ByLayer
370
18
48
1
60
0
100
AcDbSpline
70
4
71
3
72
20
73
16
40
0
40
0
40
0
40
0
40
0.125
40
0.125
40
0.25
40
0.25
40
0.374999999999999
40
0.374999999999999
40
0.499999999999999
40
0.499999999999999
40
0.624999999999999
40
0.624999999999999
40
0.749999999999998
40
0.749999999999998
40
1
40
1
40
1
40
1
41
1
10
33.0981561488101
20
15.7361353073055
30
0
41
1
10
33.0981036209358
20
15.728309355765
30
0
41
1
10
33.0976016633951
20
15.7205561085061
30
0
41
1
10
33.0957123596831
20
15.7051928433943
30
0
41
1
10
33.094311924191
20
15.6975615656899
30
0
41
1
10
33.0907181555235
20
15.6829142360577
30
0
41
1
10
33.088520510012
20
15.675836845912
30
0
41
1
10
33.0833336935352
20
15.6621684716924
30
0
41
1
10
33.0803111794545
20
15.6555233744344
30
0
41
1
10
33.0736438890837
20
15.6431191708877
30
0
41
1
10
33.0699992196872
20
15.6373341181023
30
0
41
1
10
33.0621095672072
20
15.6265689666366
30
0
41
1
10
33.0578440437008
20
15.6215687314028
30
0
41
1
10
33.0442512078377
20
15.6079475452556
30
0
41
1
10
33.0344423380259
20
15.6009474762706
30
0
41
1
10
33.0239180567829
20
15.5959401964741
30
0
0
SPLINE
5
134
100
AcDbEntity
8
1
62
256
6
ByLayer
370
18
48
1
60
0
100
AcDbSpline
70
4
71
2
72
6
73
3
40
0
40
0
40
0
40
1
40
1
40
1
41
0.500000665654615
10
33.1018404228534
20
16.2860651606527
30
0
41
0.499999334345385
10
33.1000006060441
20
16.0109347947093
30
0
41
0.500000665654615
10
33.0981561488101
20
15.7361353073053
30
0
0
SPLINE
5
135
100
AcDbEntity
8
1
62
256
6
ByLayer
370
18
48
1
60
0
100
AcDbSpline
70
4
71
3
72
18
73
14
40
0
40
0
40
0
40
0
40
0.125000000000011
40
0.125000000000011
40
0.250000000000022
40
0.250000000000022
40
0.375000000000034
40
0.375000000000034
40
0.500000000000045
40
0.500000000000045
40
0.750000000000023
40
0.750000000000023
40
1
40
1
40
1
40
1
41
1
10
33.0296405722346
20
16.4277722491625
30
0
41
1
10
33.0348510942893
20
16.4251626400302
30
0
41
1
10
33.0398892924033
20
16.4220435343553
30
0
41
1
10
33.0496188684345
20
16.4147799072065
30
0
41
1
10
33.0543445376319
20
16.4105971679587
30
0
41
1
10
33.0632295778013
20
16.4013430690337
30
0
41
1
10
33.0673858897327
20
16.3962890532552
30
0
41
1
10
33.0751264402231
20
16.3853276006568
30
0
41
1
10
33.0787312196767
20
16.3793797166337
30
0
41
1
10
33.0884856261154
20
16.3604489432121
30
0
41
1
10
33.0934824800713
20
16.3466685874085
30
0
41
1
10
33.1002899840643
20
16.3169222642728
30
0
41
1
10
33.1019448375661
20
16.3016795728928
30
0
41
1
10
33.1018404228534
20
16.2860651606527
30
0
0
SPLINE
5
136
100
AcDbEntity
8
1
62
256
6
ByLayer
370
18
48
1
60
0
100
AcDbSpline
70
4
71
3
72
8
73
4
40
0
40
0
40
0
40
0
40
1
40
1
40
1
40
1
41
1
10
32.8552956068304
20
16.5136542158539
30
0
41
1
10
32.9135555350639
20
16.4856073345226
30
0
41
1
10
32.9716318236952
20
16.4568250308902
30
0
41
1
10
33.0296405722346
20
16.4277722491625
30
0
0
SPLINE
5
137
100
AcDbEntity
8
1
62
256
6
ByLayer
370
18
48
1
60
0
100
AcDbSpline
70
4
71
3
72
20
73
16
40
0
40
0
40
0
40
0
40
0.125
40
0.125
40
0.250000000000001
40
0.250000000000001
40
0.375000000000001
40
0.375000000000001
40
0.500000000000002
40
0.500000000000002
40
0.625000000000002
40
0.625000000000002
40
0.750000000000002
40
0.750000000000002
40
1
40
1
40
1
40
1
41
1
10
-11.1320782392769
20
-0.32498094716172
30
0
41
1
10
-11.1352153779729
20
-0.32498094716172
30
0
41
1
10
-11.1379995581218
20
-0.324581483697585
30
0
41
1
10
-11.1425602599156
20
-0.322880500925265
30
0
41
1
10
-11.1443698180766
20
-0.321572915063968
30
0
41
1
10
-11.1468471997408
20
-0.317947268097782
30
0
41
1
10
-11.1474895806123
20
-0.31567755487319
30
0
41
1
10
-11.1475787917377
20
-0.310212274884549
30
0
41
1
10
-11.1470034342433
20
-0.306969162786601
30
0
41
1
10
-11.1447268949469
20
-0.29985100455238
30
0
41
1
10
-11.1430395672149
20
-0.295963435139413
30
0
41
1
10
-11.1386768192221
20
-0.287590116805859
30
0
41
1
10
-11.1360204266698
20
-0.283150106968293
30
0
41
1
10
-11.1270564922387
20
-0.269508992532707
30
0
41
1
10
-11.1195900715259
20
-0.259735651200032
30
0
41
1
10
-11.1114500273988
20
-0.249980947154313
30
0
0
SPLINE
5
138
100
AcDbEntity
8
1
62
256
6
ByLayer
370
18
48
1
60
0
100
AcDbSpline
70
4
71
3
72
16
73
12
40
0
40
0
40
0
40
0
40
0.0991241039907019
40
0.0991241039907019
40
0.324343077993026
40
0.324343077993026
40
0.549562051995351
40
0.549562051995351
40
0.774781025997675
40
0.774781025997675
40
1
40
1
40
1
40
1
41
1
10
-10.9369189903121
20
-0.296247252501303
30
0
41
1
10
-10.940165520704
20
-0.297843114270194
30
0
41
1
10
-10.9433966326856
20
-0.299396040292692
30
0
41
1
10
-10.9539161602598
20
-0.304330463663064
30
0
41
1
10
-10.9611695861205
20
-0.3075343818509
30
0
41
1
10
-10.9751929157508
20
-0.313258941423413
30
0
41
1
10
-10.9819859246727
20
-0.315793026802652
30
0
41
1
10
-10.9950506921146
20
-0.320074036858045
30
0
41
1
10
-11.0013242982397
20
-0.321823931556111
30
0
41
1
10
-11.0131968590635
20
-0.324294057072905
30
0
41
1
10
-11.0186481431831
20
-0.324980947167972
30
0
41
1
10
-11.0234674519049
20
-0.324980947168172
30
0
0
SPLINE
5
139
100
AcDbEntity
8
1
62
256
6
ByLayer
370
18
48
1
60
0
100
AcDbSpline
70
4
71
3
72
14
73
10
40
0
40
0
40
0
40
0
40
0.089459829155585
40
0.089459829155585
40
0.392973219437057
40
0.392973219437057
40
0.696486609718528
40
0.696486609718528
40
1
40
1
40
1
40
1
41
1
10
-9.23069302613709
20
-0.311032527846009
30
0
41
1
10
-9.23599680282155
20
-0.311723378500432
30
0
41
1
10
-9.24129838173832
20
-0.312398183522817
30
0
41
1
10
-9.2645770280252
20
-0.315286220502173
30
0
41
1
10
-9.28248929514564
20
-0.317312073842714
30
0
41
1
10
-9.31797101298199
20
-0.320786465315109
30
0
41
1
10
-9.33556537129776
20
-0.322240606435287
30
0
41
1
10
-9.37037734089567
20
-0.324333802127739
30
0
41
1
10
-9.38759768042247
20
-0.324980947161663
30
0
41
1
10
-9.40454881002677
20
-0.324980947161663
30
0
0
SPLINE
5
13A
100
AcDbEntity
8
1
62
256
6
ByLayer
370
18
48
1
60
0
100
AcDbSpline
70
4
71
3
72
8
73
4
40
0
40
0
40
0
40
0
40
1
40
1
40
1
40
1
41
1
10
-9.96637832280624
20
-0.249980947161504
30
0
41
1
10
-9.86535047201168
20
-0.20888695607789
30
0
41
1
10
-9.76333499207151
20
-0.169915419792943
30
0
41
1
10
-9.660217605339
20
-0.133311925570581
30
0
0
SPLINE
5
13B
100
AcDbEntity
8
1
62
256
6
ByLayer
370
18
48
1
60
0
100
AcDbSpline
70
4
71
3
72
16
73
12
40
0
40
0
40
0
40
0
40
0.125000000000008
40
0.125000000000008
40
0.250000000000016
40
0.250000000000016
40
0.500000000000011
40
0.500000000000011
40
0.750000000000005
40
0.750000000000005
40
1
40
1
40
1
40
1
41
1
10
-10.2470436468637
20
-0.324980947161663
30
0
41
1
10
-10.2368176996361
20
-0.324980947160697
30
0
41
1
10
-10.2261105645492
20
-0.324200732781947
30
0
41
1
10
-10.2040252939894
20
-0.321595212906118
30
0
41
1
10
-10.1925916480194
20
-0.319751268507474
30
0
41
1
10
-10.1578378552941
20
-0.313070425791182
30
0
41
1
10
-10.1343736234426
20
-0.307193150124277
30
0
41
1
10
-10.0870307140286
20
-0.293653557543223
30
0
41
1
10
-10.0631479963767
20
-0.285965246733184
30
0
41
1
10
-10.0150264157267
20
-0.269095229194733
30
0
41
1
10
-9.99078675577486
20
-0.259909297798572
30
0
41
1
10
-9.96637832280616
20
-0.249980947161674
30
0
0
SPLINE
5
13C
100
AcDbEntity
8
1
62
256
6
ByLayer
370
18
48
1
60
0
100
AcDbSpline
70
4
71
3
72
8
73
4
40
0
40
0
40
0
40
0
40
1
40
1
40
1
40
1
41
1
10
-11.1539311130555
20
-0.249980947161646
30
0
41
1
10
-11.1370643731009
20
-0.237366129676531
30
0
41
1
10
-11.120166047202
20
-0.224786456048179
30
0
41
1
10
-11.103235063126
20
-0.212243119288502
30
0
0
SPLINE
5
13D
100
AcDbEntity
8
1
62
256
6
ByLayer
370
18
48
1
60
0
100
AcDbSpline
70
4
71
3
72
20
73
16
40
0
40
0
40
0
40
0
40
0.125000000000008
40
0.125000000000008
40
0.250000000000016
40
0.250000000000016
40
0.375000000000024
40
0.375000000000024
40
0.500000000000032
40
0.500000000000032
40
0.750000000000016
40
0.750000000000016
40
0.875000000000008
40
0.875000000000008
40
1
40
1
40
1
40
1
41
1
10
-11.2871772280887
20
-0.324980947161919
30
0
41
1
10
-11.2841126650964
20
-0.32498094716189
30
0
41
1
10
-11.2804336330612
20
-0.324326717375243
30
0
41
1
10
-11.2720438166112
20
-0.32192703352834
30
0
41
1
10
-11.2673785357809
20
-0.320189385940665
30
0
41
1
10
-11.2574809997012
20
-0.315925042907395
30
0
41
1
10
-11.2522175048208
20
-0.313387918152557
30
0
41
1
10
-11.2411564914624
20
-0.307626792034853
30
0
41
1
10
-11.2353751890956
20
-0.304408475138501
30
0
41
1
10
-11.2177208346944
20
-0.29407886125324
30
0
41
1
10
-11.2054148194759
20
-0.286238759708993
30
0
41
1
10
-11.1863183862468
20
-0.273317667880235
30
0
41
1
10
-11.1798450150413
20
-0.268812423928665
30
0
41
1
10
-11.1669160865667
20
-0.259584653592839
30
0
41
1
10
-11.1604321264514
20
-0.254843125490652
30
0
41
1
10
-11.1539311130558
20
-0.249980947163749
30
0
0
SPLINE
5
13E
100
AcDbEntity
8
1
62
256
6
ByLayer
370
18
48
1
60
0
100
AcDbSpline
70
4
71
3
72
40
73
36
40
0
40
0
40
0
40
0
40
0.0625000000000024
40
0.0625000000000024
40
0.0937500000000044
40
0.0937500000000044
40
0.125000000000006
40
0.125000000000006
40
0.18750000000001
40
0.18750000000001
40
0.250000000000014
40
0.250000000000014
40
0.281250000000015
40
0.281250000000015
40
0.312500000000017
40
0.312500000000017
40
0.375000000000019
40
0.375000000000019
40
0.500000000000024
40
0.500000000000024
40
0.531250000000024
40
0.531250000000024
40
0.562500000000023
40
0.562500000000023
40
0.62500000000002
40
0.62500000000002
40
0.750000000000013
40
0.750000000000013
40
0.781250000000011
40
0.781250000000011
40
0.812500000000008
40
0.812500000000008
40
0.875000000000005
40
0.875000000000005
40
1
40
1
40
1
40
1
41
1
10
21.5000000000002
20
10.5794840246313
30
0
41
1
10
21.5000000000002
20
10.6469675768242
30
0
41
1
10
21.5036805989494
20
10.7144144195435
30
0
41
1
10
21.5142765552869
20
10.8155340661258
30
0
41
1
10
21.5186717811529
20
10.8492905733489
30
0
41
1
10
21.5289620658911
20
10.9159099921562
30
0
41
1
10
21.5348652254567
20
10.9488802777291
30
0
41
1
10
21.5546907349952
20
11.0468436212546
30
0
41
1
10
21.5707203090234
20
11.110893109504
30
0
41
1
10
21.6078319367688
20
11.2367296940425
30
0
41
1
10
21.6289171490177
20
11.298515376009
30
0
41
1
10
21.6640975198156
20
11.3896031422338
30
0
41
1
10
21.6764145536148
20
11.4196799445636
30
0
41
1
10
21.7019419006555
20
11.4787307537036
30
0
41
1
10
21.7151814797132
20
11.5077826673577
30
0
41
1
10
21.7562529387858
20
11.5935925497813
30
0
41
1
10
21.7854333382041
20
11.6490088411858
30
0
41
1
10
21.8779567186897
20
11.8103008114713
30
0
41
1
10
21.9462384484735
20
11.9112627995682
30
0
41
1
10
22.0393056501712
20
12.0297893893345
30
0
41
1
10
22.058296321678
20
12.0530876643394
30
0
41
1
10
22.0967446288008
20
12.0985604477795
30
0
41
1
10
22.1162383446214
20
12.1207816597729
30
0
41
1
10
22.1755059448992
20
12.1859422494893
30
0
41
1
10
22.2160645820886
20
12.2273818300995
30
0
41
1
10
22.3407713251613
20
12.3459081329216
30
0
41
1
10
22.4279266248476
20
12.4172475918269
30
0
41
1
10
22.5419100872677
20
12.4967908762927
30
0
41
1
10
22.5649606590129
20
12.5122143263595
30
0
41
1
10
22.611577850674
20
12.5420749698994
30
0
41
1
10
22.6351762844032
20
12.5565289856102
30
0
41
1
10
22.7062777363653
20
12.5981048473051
30
0
41
1
10
22.7542122507382
20
12.6235317502422
30
0
41
1
10
22.8996150685835
20
12.6929473016827
30
0
41
1
10
22.9986674524244
20
12.7301360171693
30
0
41
1
10
23.1000000000002
20
12.7575367440077
30
0
0
SPLINE
5
13F
100
AcDbEntity
8
1
62
256
6
ByLayer
370
18
48
1
60
0
100
AcDbSpline
70
4
71
3
72
9
73
5
40
0
40
0
40
0
40
0
40
0.5
40
1
40
1
40
1
40
1
41
1
10
10.3885656683963
20
1.35753920737764
30
0
41
1
10
10.4223280233232
20
1.36335541594897
30
0
41
1
10
10.4902926869093
20
1.37204681272578
30
0
41
1
10
10.5591157419288
20
1.375
30
0
41
1
10
10.593748156342
20
1.375
30
0
0
SPLINE
5
140
100
AcDbEntity
8
1
62
256
6
ByLayer
370
18
48
1
60
0
100
AcDbSpline
70
4
71
3
72
30
73
26
40
0
40
0
40
0
40
0
40
0.0625000000000003
40
0.0625000000000003
40
0.125000000000001
40
0.125000000000001
40
0.250000000000001
40
0.250000000000001
40
0.3125
40
0.3125
40
0.374999999999999
40
0.374999999999999
40
0.5
40
0.5
40
0.5625
40
0.5625
40
0.625
40
0.625
40
0.749999999999994
40
0.749999999999994
40
0.812499999999995
40
0.812499999999995
40
0.874999999999995
40
0.874999999999995
40
1
40
1
40
1
40
1
41
1
10
10.1630807948134
20
0.875
30
0
41
1
10
10.1630807948134
20
0.888611598389531
30
0
41
1
10
10.1634229106752
20
0.90233473804895
30
0
41
1
10
10.1647950576134
20
0.929637042188801
30
0
41
1
10
10.1658189687722
20
0.943156192910692
30
0
41
1
10
10.1698767621815
20
0.98332836763592
30
0
41
1
10
10.1738903460555
20
1.00959859854387
30
0
41
1
10
10.181883681599
20
1.04823306186864
30
0
41
1
10
10.184884324754
20
1.06100383158727
30
0
41
1
10
10.1915440776095
20
1.08618669921535
30
0
41
1
10
10.1951674906064
20
1.09846886889593
30
0
41
1
10
10.2068920716583
20
1.13441526059287
30
0
41
1
10
10.2158421101628
20
1.15718513004285
30
0
41
1
10
10.2309673347539
20
1.18954867316904
30
0
41
1
10
10.2362938056153
20
1.20003653587059
30
0
41
1
10
10.247533603572
20
1.22039396153275
30
0
41
1
10
10.2533890169326
20
1.2301557115629
30
0
41
1
10
10.2715524892909
20
1.25807357051428
30
0
41
1
10
10.2844916116684
20
1.27493958336484
30
0
41
1
10
10.3051385487061
20
1.29763439598167
30
0
41
1
10
10.3122282395106
20
1.30476318989147
30
0
41
1
10
10.3268338465611
20
1.31812437066796
30
0
41
1
10
10.33431949738
20
1.32432324488343
30
0
41
1
10
10.357015053935
20
1.34125326378339
30
0
41
1
10
10.3725769510695
20
1.35043649184081
30
0
41
1
10
10.3885656683963
20
1.35753920737761
30
0
0
SPLINE
5
141
100
AcDbEntity
8
1
62
256
6
ByLayer
370
18
48
1
60
0
100
AcDbSpline
70
4
71
3
72
81
73
77
40
0
40
0
40
0
40
0
40
0.0078124999999992
40
0.0078124999999992
40
0.0117187499999987
40
0.0117187499999987
40
0.0156249999999984
40
0.0156249999999984
40
0.0175781249999985
40
0.0175781249999985
40
0.0195312499999986
40
0.0195312499999986
40
0.0214843749999987
40
0.0214843749999987
40
0.0234374999999988
40
0.0234374999999988
40
0.027343749999999
40
0.027343749999999
40
0.0312499999999991
40
0.0312499999999991
40
0.0390624999999989
40
0.0390624999999989
40
0.0468749999999987
40
0.0468749999999987
40
0.0624999999999981
40
0.0624999999999981
40
0.0937499999999975
40
0.0937499999999975
40
0.124999999999997
40
0.124999999999997
40
0.187499999999996
40
0.187499999999996
40
0.249999999999994
40
0.249999999999994
40
0.312499999999993
40
0.312499999999993
40
0.374999999999991
40
0.374999999999991
40
0.499999999999988
40
0.624999999999985
40
0.624999999999985
40
0.749999999999982
40
0.749999999999982
40
0.812499999999981
40
0.812499999999981
40
0.874999999999979
40
0.874999999999979
40
0.906249999999979
40
0.906249999999979
40
0.937499999999978
40
0.937499999999978
40
0.953124999999977
40
0.953124999999977
40
0.960937499999977
40
0.960937499999977
40
0.968749999999977
40
0.968749999999977
40
0.972656249999977
40
0.972656249999977
40
0.976562499999976
40
0.976562499999976
40
0.978515624999976
40
0.978515624999976
40
0.980468749999975
40
0.980468749999975
40
0.981445312499976
40
0.981445312499976
40
0.982421874999977
40
0.982421874999977
40
0.98437499999998
40
0.98437499999998
40
0.988281249999985
40
0.988281249999985
40
0.99218749999999
40
0.99218749999999
40
1
40
1
40
1
40
1
41
1
10
1.91224221527588
20
0.394519052843208
30
0
41
1
10
1.922600273651
20
0.397470382277874
30
0
41
1
10
1.93283786110675
20
0.400656000617488
30
0
41
1
10
1.94779456186387
20
0.406204007763904
30
0
41
1
10
1.95271325741365
20
0.408182097958047
30
0
41
1
10
1.9622975569516
20
0.412623793809558
30
0
41
1
10
1.96692460319264
20
0.415043395047661
30
0
41
1
10
1.9730824467959
20
0.419356299912891
30
0
41
1
10
1.97498510374822
20
0.420901794091378
30
0
41
1
10
1.97814356823224
20
0.424317649885921
30
0
41
1
10
1.97937553127733
20
0.426188446354104
30
0
41
1
10
1.98041974242852
20
0.430094718808988
30
0
41
1
10
1.98016767343333
20
0.432084882313831
30
0
41
1
10
1.97833650493834
20
0.435660915574772
30
0
41
1
10
1.97684146809379
20
0.437229800282694
30
0
41
1
10
1.97155211298303
20
0.441419320218841
30
0
41
1
10
1.96714261473923
20
0.443496857369809
30
0
41
1
10
1.95788625907491
20
0.447126197110322
30
0
41
1
10
1.95306542600468
20
0.448616583755779
30
0
41
1
10
1.93832423326452
20
0.452621312482364
30
0
41
1
10
1.92812264321603
20
0.454664943117933
30
0
41
1
10
1.90740435871601
20
0.458233151164762
30
0
41
1
10
1.89692280726288
20
0.459723906732535
30
0
41
1
10
1.86538741092374
20
0.463682824017269
30
0
41
1
10
1.84417449210764
20
0.465656248769335
30
0
41
1
10
1.78025703058944
20
0.47064578145492
30
0
41
1
10
1.7372526498894
20
0.472719601202726
30
0
41
1
10
1.65098443404128
20
0.475886802092447
30
0
41
1
10
1.6077869137429
20
0.476925497381728
30
0
41
1
10
1.47807229819904
20
0.479177404442254
30
0
41
1
10
1.39143454900747
20
0.479542216888063
30
0
41
1
10
1.21796857575387
20
0.479493958295478
30
0
41
1
10
1.13113690460122
20
0.479041949024122
30
0
41
1
10
0.957329148831406
20
0.477882761325304
30
0
41
1
10
0.870323792927081
20
0.477166899227512
30
0
41
1
10
0.696349175854323
20
0.475776693033907
30
0
41
1
10
0.609388405753748
20
0.475099760634464
30
0
41
1
10
0.348574051787495
20
0.473386319949782
30
0
41
1
10
0.001000350770255
20
0.47200367055919
30
0
41
1
10
-0.346258593410397
20
0.473375275194542
30
0
41
1
10
-0.693339956070901
20
0.475647183276322
30
0
41
1
10
-0.866793441191334
20
0.477269893009009
30
0
41
1
10
-1.12678156308047
20
0.479017268009557
30
0
41
1
10
-1.2134118568122
20
0.479476207823097
30
0
41
1
10
-1.38658196181331
20
0.479556475236905
30
0
41
1
10
-1.47312342215656
20
0.479215768728096
30
0
41
1
10
-1.60282241164072
20
0.477033463499424
30
0
41
1
10
-1.64603636785412
20
0.476023509055096
30
0
41
1
10
-1.732404440539
20
0.472937703046796
30
0
41
1
10
-1.77556093947172
20
0.470916772337659
30
0
41
1
10
-1.84020397899081
20
0.466007269746626
30
0
41
1
10
-1.86179262627243
20
0.464054865240968
30
0
41
1
10
-1.89394318274029
20
0.460129304204259
30
0
41
1
10
-1.90457892025233
20
0.458657307765151
30
0
41
1
10
-1.92557687187249
20
0.455151548859845
30
0
41
1
10
-1.93595107519371
20
0.453143056337922
30
0
41
1
10
-1.95106731633359
20
0.449203062644955
30
0
41
1
10
-1.9560684346626
20
0.447721193247531
30
0
41
1
10
-1.96555805505966
20
0.444199414509029
30
0
41
1
10
-1.97009904328232
20
0.442195860936522
30
0
41
1
10
-1.97581374795772
20
0.438152979130393
30
0
41
1
10
-1.97748212350464
20
0.436651382667094
30
0
41
1
10
-1.97980883341094
20
0.43315604020998
30
0
41
1
10
-1.98037246688429
20
0.431176687394242
30
0
41
1
10
-1.97997556416402
20
0.428196550109362
30
0
41
1
10
-1.97964165466871
20
0.427187280234875
30
0
41
1
10
-1.97867307625054
20
0.425265399838025
30
0
41
1
10
-1.9780408753785
20
0.424340153169794
30
0
41
1
10
-1.97580369573168
20
0.421646658948987
30
0
41
1
10
-1.97395171242516
20
0.420048670860723
30
0
41
1
10
-1.96785173654939
20
0.415569664711171
30
0
41
1
10
-1.96318270865211
20
0.413077560163487
30
0
41
1
10
-1.95359149055579
20
0.408552813285269
30
0
41
1
10
-1.94859288445005
20
0.406516669262459
30
0
41
1
10
-1.93328703299298
20
0.400792642800013
30
0
41
1
10
-1.92282156572341
20
0.397533435195697
30
0
41
1
10
-1.91224221525877
20
0.394519052838348
30
0
0
SPLINE
5
142
100
AcDbEntity
8
1
62
256
6
ByLayer
370
18
48
1
60
0
100
AcDbSpline
70
4
71
3
72
17
73
13
40
0
40
0
40
0
40
0
40
0.25
40
0.25
40
0.5
40
0.5
40
0.5625
40
0.5625
40
0.625
40
0.75
40
0.75
40
1
40
1
40
1
40
1
41
1
10
-1.91224221525877
20
0.394519052838319
30
0
41
1
10
-1.60176192357352
20
0.306053667681027
30
0
41
1
10
-1.28776911723091
20
0.236983023929383
30
0
41
1
10
-0.651754427740144
20
0.143175179431694
30
0
41
1
10
-0.329727668873431
20
0.118464900509594
30
0
41
1
10
0.0783629119484033
20
0.118261377257454
30
0
41
1
10
0.160394283177112
20
0.119762754673957
30
0
41
1
10
0.323519502227299
20
0.12580696443888
30
0
41
1
10
0.567279119098941
20
0.139418800322744
30
0
41
1
10
0.808326323249958
20
0.166313521538967
30
0
41
1
10
1.28701472260707
20
0.236782441218367
30
0
41
1
10
1.60159777754367
20
0.306006897427352
30
0
41
1
10
1.9122422152769
20
0.394519052843492
30
0
0
SPLINE
5
143
100
AcDbEntity
8
1
62
256
6
ByLayer
370
18
48
1
60
0
100
AcDbSpline
70
4
71
3
72
8
73
4
40
0
40
0
40
0
40
0
40
1
40
1
40
1
40
1
41
1
10
-13.9273497265336
20
-0.249980947161674
30
0
41
1
10
-14.1400184018759
20
-0.0890594833153955
30
0
41
1
10
-14.3513710386801
20
0.0731431542574228
30
0
41
1
10
-14.5615187733781
20
0.236518773378123
30
0
0
SPLINE
5
144
100
AcDbEntity
8
1
62
256
6
ByLayer
370
18
48
1
60
0
100
AcDbSpline
70
4
71
3
72
16
73
12
40
0
40
0
40
0
40
0
40
0.124999999999996
40
0.124999999999996
40
0.249999999999993
40
0.249999999999993
40
0.499999999999995
40
0.499999999999995
40
0.749999999999998
40
0.749999999999998
40
1
40
1
40
1
40
1
41
1
10
-13.7912890092361
20
-0.324980947163624
30
0
41
1
10
-13.7947211231748
20
-0.324980947163425
30
0
41
1
10
-13.7987038822678
20
-0.3243439697697
30
0
41
1
10
-13.8075818891419
20
-0.322012470654755
30
0
41
1
10
-13.8124983254929
20
-0.320301845067462
30
0
41
1
10
-13.8279050504171
20
-0.314006523917868
30
0
41
1
10
-13.8392323105369
20
-0.308231113448897
30
0
41
1
10
-13.8632846302391
20
-0.294416067556767
30
0
41
1
10
-13.8756867854771
20
-0.286560850671492
30
0
41
1
10
-13.9010856072335
20
-0.269365680292765
30
0
41
1
10
-13.9141383585476
20
-0.259977683504246
30
0
41
1
10
-13.9273497265336
20
-0.249980947161674
30
0
0
SPLINE
5
145
100
AcDbEntity
8
1
62
256
6
ByLayer
370
18
48
1
60
0
100
AcDbSpline
70
4
71
3
72
22
73
18
40
0
40
0
40
0
40
0
40
0.125
40
0.125
40
0.25
40
0.25
40
0.375
40
0.375
40
0.5
40
0.5
40
0.625
40
0.625
40
0.75
40
0.75
40
0.875
40
0.875
40
1
40
1
40
1
40
1
41
1
10
-13.7271595028412
20
-0.249980947161504
30
0
41
1
10
-13.7230711169545
20
-0.254870580017553
30
0
41
1
10
-13.719197862038
20
-0.259701365260099
30
0
41
1
10
-13.711950430119
20
-0.269226009096116
30
0
41
1
10
-13.7085556247414
20
-0.273950228042338
30
0
41
1
10
-13.7024739620712
20
-0.283086608544551
30
0
41
1
10
-13.699812285762
20
-0.287456554264992
30
0
41
1
10
-13.6953495169543
20
-0.295745119604987
30
0
41
1
10
-13.6935353207013
20
-0.299707252978664
30
0
41
1
10
-13.6910284293275
20
-0.306819145366916
30
0
41
1
10
-13.6903199496591
20
-0.309978932734424
30
0
41
1
10
-13.6900300661806
20
-0.31547687530076
30
0
41
1
10
-13.690469285274
20
-0.317827037319773
30
0
41
1
10
-13.6924447562857
20
-0.321476351282854
30
0
41
1
10
-13.6939679064125
20
-0.322810804878514
30
0
41
1
10
-13.6980030233289
20
-0.32457223002757
30
0
41
1
10
-13.7004864228397
20
-0.32498094716172
30
0
41
1
10
-13.7033273915928
20
-0.32498094716172
30
0
0
SPLINE
5
146
100
AcDbEntity
8
1
62
256
6
ByLayer
370
18
48
1
60
0
100
AcDbSpline
70
4
71
3
72
8
73
4
40
0
40
0
40
0
40
0
40
1
40
1
40
1
40
1
41
1
10
-14.2655750866984
20
0.394519052838319
30
0
41
1
10
-14.0862027304346
20
0.179623374600055
30
0
41
1
10
-13.9067347108406
20
-0.035212365746446
30
0
41
1
10
-13.7271595028412
20
-0.249980947161504
30
0
0
SPLINE
5
147
100
AcDbEntity
8
1
62
256
6
ByLayer
370
18
48
1
60
0
100
AcDbSpline
70
4
71
3
72
36
73
32
40
0
40
0
40
0
40
0
40
0.125000000000003
40
0.125000000000003
40
0.250000000000005
40
0.250000000000005
40
0.312500000000005
40
0.312500000000005
40
0.375000000000005
40
0.375000000000005
40
0.437500000000004
40
0.437500000000004
40
0.500000000000004
40
0.500000000000004
40
0.562500000000003
40
0.562500000000003
40
0.625000000000003
40
0.625000000000003
40
0.687500000000003
40
0.687500000000003
40
0.750000000000002
40
0.750000000000002
40
0.781250000000002
40
0.781250000000002
40
0.812500000000002
40
0.812500000000002
40
0.875000000000001
40
0.875000000000001
40
0.937500000000001
40
0.937500000000001
40
1
40
1
40
1
40
1
41
1
10
-14.1255646241437
20
0.394519052838348
30
0
41
1
10
-14.1394710770359
20
0.404489622046128
30
0
41
1
10
-14.1531891256639
20
0.413867112124933
30
0
41
1
10
-14.1802225014732
20
0.431373754650593
30
0
41
1
10
-14.1935390957799
20
0.439506751248615
30
0
41
1
10
-14.2131449243124
20
0.450573991117722
30
0
41
1
10
-14.2196336197054
20
0.454078795623701
30
0
41
1
10
-14.2322228540822
20
0.460520725310033
30
0
41
1
10
-14.2383514182247
20
0.463474796430233
30
0
41
1
10
-14.2502293710657
20
0.468773718754022
30
0
41
1
10
-14.2559794178474
20
0.471119640285877
30
0
41
1
10
-14.2670211051816
20
0.475074458444681
30
0
41
1
10
-14.2722259261514
20
0.476650936816839
30
0
41
1
10
-14.2818410972795
20
0.478850703577962
30
0
41
1
10
-14.2862625152793
20
0.479479731271681
30
0
41
1
10
-14.2941373580524
20
0.4795548484297
30
0
41
1
10
-14.2974997750462
20
0.478992735534973
30
0
41
1
10
-14.3028010571971
20
0.476498487128254
30
0
41
1
10
-14.3047638284419
20
0.474520523657986
30
0
41
1
10
-14.3069086232189
20
0.469181053338957
30
0
41
1
10
-14.3071284482325
20
0.465834428936034
30
0
41
1
10
-14.3061330482862
20
0.459758935437492
30
0
41
1
10
-14.3055769996615
20
0.457562174581426
30
0
41
1
10
-14.3040654324165
20
0.452948725894231
30
0
41
1
10
-14.303108097956
20
0.450518030421819
30
0
41
1
10
-14.2996681948549
20
0.442875980593413
30
0
41
1
10
-14.2965819676909
20
0.437266289211095
30
0
41
1
10
-14.2893548863108
20
0.4256951480927
30
0
41
1
10
-14.2851987194409
20
0.41968620333094
30
0
41
1
10
-14.275978382755
20
0.407293077501066
30
0
41
1
10
-14.2709152318049
20
0.400916772801736
30
0
41
1
10
-14.2655750866984
20
0.394519052838319
30
0
0
SPLINE
5
148
100
AcDbEntity
8
1
62
256
6
ByLayer
370
18
48
1
60
0
100
AcDbSpline
70
4
71
3
72
8
73
4
40
0
40
0
40
0
40
0
40
1
40
1
40
1
40
1
41
1
10
-13.2065548385552
20
-0.249980947161674
30
0
41
1
10
-13.5156891436444
20
-0.0381396122572539
30
0
41
1
10
-13.8219161595784
20
0.176810910131763
30
0
41
1
10
-14.1255646241437
20
0.394519052838319
30
0
0
SPLINE
5
149
100
AcDbEntity
8
1
62
256
6
ByLayer
370
18
48
1
60
0
100
AcDbSpline
70
4
71
3
72
18
73
14
40
0
40
0
40
0
40
0
40
0.124999999999996
40
0.124999999999996
40
0.249999999999992
40
0.249999999999992
40
0.499999999999993
40
0.499999999999993
40
0.624999999999994
40
0.624999999999994
40
0.749999999999994
40
0.749999999999994
40
1
40
1
40
1
40
1
41
1
10
-13.0480635116142
20
-0.324980947169223
30
0
41
1
10
-13.0526835673824
20
-0.324980947168598
30
0
41
1
10
-13.0578276924747
20
-0.324325815519529
30
0
41
1
10
-13.0689460777358
20
-0.321974818101211
30
0
41
1
10
-13.0749605537727
20
-0.320259096726829
30
0
41
1
10
-13.0935302985871
20
-0.313958174179788
30
0
41
1
10
-13.1067398789887
20
-0.308231131630805
30
0
41
1
10
-13.1274676194249
20
-0.297960016390789
30
0
41
1
10
-13.1345354389663
20
-0.29424506725934
30
0
41
1
10
-13.1486989674189
20
-0.286431559643603
30
0
41
1
10
-13.1558285169502
20
-0.282316542817881
30
0
41
1
10
-13.1773484039918
20
-0.269403809868607
30
0
41
1
10
-13.1918683483694
20
-0.260045199607333
30
0
41
1
10
-13.2065548385552
20
-0.249980947161674
30
0
0
SPLINE
5
14A
100
AcDbEntity
8
1
62
256
6
ByLayer
370
18
48
1
60
0
100
AcDbSpline
70
4
71
3
72
23
73
19
40
0
40
0
40
0
40
0
40
0.125000000000001
40
0.125000000000001
40
0.250000000000002
40
0.250000000000002
40
0.375000000000003
40
0.375000000000003
40
0.437500000000003
40
0.437500000000003
40
0.500000000000004
40
0.625000000000003
40
0.625000000000003
40
0.750000000000002
40
0.750000000000002
40
0.875000000000001
40
0.875000000000001
40
1
40
1
40
1
40
1
41
1
10
-12.9419043311969
20
-0.249980947161362
30
0
41
1
10
-12.9378497028419
20
-0.254925918244197
30
0
41
1
10
-12.9340500009027
20
-0.259832030827397
30
0
41
1
10
-12.9270609615909
20
-0.26955094003489
30
0
41
1
10
-12.9238503710631
20
-0.274403028467305
30
0
41
1
10
-12.9183740783399
20
-0.283688995222491
30
0
41
1
10
-12.9160876840443
20
-0.288143993684287
30
0
41
1
10
-12.9134525305583
20
-0.294494826399216
30
0
41
1
10
-12.9127048890145
20
-0.296567433923769
30
0
41
1
10
-12.9115299156306
20
-0.300494947426273
30
0
41
1
10
-12.9102338827602
20
-0.306085646339625
30
0
41
1
10
-12.9103315847485
20
-0.310777985080392
30
0
41
1
10
-12.9117605960215
20
-0.316192959110282
30
0
41
1
10
-12.9130939065335
20
-0.318369971001488
30
0
41
1
10
-12.9168431622451
20
-0.321793174571212
30
0
41
1
10
-12.9192871440886
20
-0.323036678820301
30
0
41
1
10
-12.9249370215665
20
-0.324620114170159
30
0
41
1
10
-12.9281546626962
20
-0.324980947161777
30
0
41
1
10
-12.9317003032968
20
-0.324980947161777
30
0
0
SPLINE
5
14B
100
AcDbEntity
8
1
62
256
6
ByLayer
370
18
48
1
60
0
100
AcDbSpline
70
4
71
3
72
8
73
4
40
0
40
0
40
0
40
0
40
1
40
1
40
1
40
1
41
1
10
-13.4702748862137
20
0.394519052838319
30
0
41
1
10
-13.2941699218972
20
0.179674312264069
30
0
41
1
10
-13.1180471579123
20
-0.0351594867746314
30
0
41
1
10
-12.941904331197
20
-0.249980947161362
30
0
0
SPLINE
5
14C
100
AcDbEntity
8
1
62
256
6
ByLayer
370
18
48
1
60
0
100
AcDbSpline
70
4
71
3
72
38
73
34
40
0
40
0
40
0
40
0
40
0.124999999999995
40
0.124999999999995
40
0.249999999999991
40
0.249999999999991
40
0.374999999999986
40
0.374999999999986
40
0.437499999999984
40
0.437499999999984
40
0.499999999999981
40
0.499999999999981
40
0.562499999999979
40
0.562499999999979
40
0.593749999999979
40
0.593749999999979
40
0.624999999999979
40
0.624999999999979
40
0.687499999999965
40
0.687499999999965
40
0.718749999999965
40
0.718749999999965
40
0.749999999999964
40
0.749999999999964
40
0.812499999999975
40
0.812499999999975
40
0.84374999999998
40
0.84374999999998
40
0.874999999999986
40
0.874999999999986
40
0.937499999999993
40
0.937499999999993
40
1
40
1
40
1
40
1
41
1
10
-13.2887133686798
20
0.394519052838319
30
0
41
1
10
-13.3038332306426
20
0.4042879581867
30
0
41
1
10
-13.3188052716474
20
0.413449436874572
30
0
41
1
10
-13.3484408250735
20
0.430527273477082
30
0
41
1
10
-13.3631049887933
20
0.438446193463477
30
0
41
1
10
-13.3920697914073
20
0.452832519259857
30
0
41
1
10
-13.4064644692924
20
0.459334429025461
30
0
41
1
10
-13.4269699921963
20
0.467341554080946
30
0
41
1
10
-13.433645567981
20
0.469730324423097
30
0
41
1
10
-13.4466202325066
20
0.473845750572934
30
0
41
1
10
-13.4529523427325
20
0.475578705664162
30
0
41
1
10
-13.4648977094209
20
0.478164746212002
30
0
41
1
10
-13.470530542591
20
0.479028435196653
30
0
41
1
10
-13.4783549901368
20
0.479532351315839
30
0
41
1
10
-13.4808583852177
20
0.479567589455002
30
0
41
1
10
-13.4856250849188
20
0.47933332242323
30
0
41
1
10
-13.4878873439799
20
0.479061483870908
30
0
41
1
10
-13.4941255566638
20
0.477748652573382
30
0
41
1
10
-13.4976100463298
20
0.476217282345146
30
0
41
1
10
-13.5015835740844
20
0.472696292951213
30
0
41
1
10
-13.5026851457819
20
0.471320945690934
30
0
41
1
10
-13.5043739139206
20
0.468214962997223
30
0
41
1
10
-13.5049704660338
20
0.466476927786175
30
0
41
1
10
-13.5059946892605
20
0.460690215559282
30
0
41
1
10
-13.5056210814371
20
0.455977741753941
30
0
41
1
10
-13.503532127041
20
0.448145570507194
30
0
41
1
10
-13.5025893474109
20
0.445402644548608
30
0
41
1
10
-13.5002379631945
20
0.439666430659713
30
0
41
1
10
-13.4988176392413
20
0.436652706244104
30
0
41
1
10
-13.4939949832354
20
0.427453269472068
30
0
41
1
10
-13.4900398258229
20
0.421090866571319
30
0
41
1
10
-13.4809501781441
20
0.407998820378509
30
0
41
1
10
-13.4757943146983
20
0.401252651663839
30
0
41
1
10
-13.4702748862137
20
0.394519052838319
30
0
0
SPLINE
5
14D
100
AcDbEntity
8
1
62
256
6
ByLayer
370
18
48
1
60
0
100
AcDbSpline
70
4
71
3
72
8
73
4
40
0
40
0
40
0
40
0
40
1
40
1
40
1
40
1
41
1
10
-12.2619374897427
20
-0.249980947161674
30
0
41
1
10
-12.6077628641245
20
-0.0394093519147987
30
0
41
1
10
-12.9498764087536
20
0.175597332640279
30
0
41
1
10
-13.2887133686798
20
0.394519052838319
30
0
0
SPLINE
5
14E
100
AcDbEntity
8
1
62
256
6
ByLayer
370
18
48
1
60
0
100
AcDbSpline
70
4
71
3
72
18
73
14
40
0
40
0
40
0
40
0
40
0.124999999999999
40
0.124999999999999
40
0.249999999999999
40
0.249999999999999
40
0.499999999999982
40
0.499999999999982
40
0.624999999999982
40
0.624999999999982
40
0.749999999999982
40
0.749999999999982
40
1
40
1
40
1
40
1
41
1
10
-12.0749439034001
20
-0.324980947161691
30
0
41
1
10
-12.081008255091
20
-0.324980947161094
30
0
41
1
10
-12.0875370462495
20
-0.324314999120048
30
0
41
1
10
-12.1012908516913
20
-0.321980394436167
30
0
41
1
10
-12.1085189695399
20
-0.320307354028273
30
0
41
1
10
-12.1310821815718
20
-0.314018794774057
30
0
41
1
10
-12.1466956039985
20
-0.308331973172614
30
0
41
1
10
-12.1707074902565
20
-0.298228829183756
30
0
41
1
10
-12.1788139447434
20
-0.294590398040555
30
0
41
1
10
-12.1952158399689
20
-0.286815352002606
30
0
41
1
10
-12.2035319977382
20
-0.282666955587615
30
0
41
1
10
-12.2284787618341
20
-0.26964953894975
30
0
41
1
10
-12.245175409905
20
-0.260187306071543
30
0
41
1
10
-12.2619374897427
20
-0.249980947161674
30
0
0
SPLINE
5
14F
100
AcDbEntity
8
1
62
256
6
ByLayer
370
18
48
1
60
0
100
AcDbSpline
70
4
71
3
72
24
73
20
40
0
40
0
40
0
40
0
40
0.125000000000011
40
0.125000000000011
40
0.250000000000022
40
0.250000000000022
40
0.312500000000022
40
0.312500000000022
40
0.375000000000022
40
0.375000000000022
40
0.500000000000018
40
0.500000000000018
40
0.625000000000013
40
0.625000000000013
40
0.750000000000009
40
0.750000000000009
40
0.875000000000004
40
0.875000000000004
40
1
40
1
40
1
40
1
41
1
10
-11.9185094462045
20
-0.249980947160964
30
0
41
1
10
-11.9143984087425
20
-0.255008549371979
30
0
41
1
10
-11.9105940690077
20
-0.260025649179823
30
0
41
1
10
-11.9037537286027
20
-0.270033424617793
30
0
41
1
10
-11.9007316163329
20
-0.275018276597791
30
0
41
1
10
-11.8970946969525
20
-0.282167946486851
30
0
41
1
10
-11.8960240148196
20
-0.284507876358191
30
0
41
1
10
-11.8941940114109
20
-0.289092391428142
30
0
41
1
10
-11.8934309418025
20
-0.291353045960363
30
0
41
1
10
-11.8916984067637
20
-0.297837448784492
30
0
41
1
10
-11.891274090198
20
-0.301756712238841
30
0
41
1
10
-11.8919008982491
20
-0.30877759856898
30
0
41
1
10
-11.8929836812652
20
-0.311879900363635
30
0
41
1
10
-11.8964381114455
20
-0.31696313099431
30
0
41
1
10
-11.8988364705386
20
-0.3190154121788
30
0
41
1
10
-11.9046064730613
20
-0.32215189995452
30
0
41
1
10
-11.9079485979119
20
-0.323240679223716
30
0
41
1
10
-11.9153564824701
20
-0.32465661851694
30
0
41
1
10
-11.9194457489922
20
-0.324980947161691
30
0
41
1
10
-11.9237814416149
20
-0.324980947161691
30
0
0
SPLINE
5
150
100
AcDbEntity
8
1
62
256
6
ByLayer
370
18
48
1
60
0
100
AcDbSpline
70
4
71
3
72
8
73
4
40
0
40
0
40
0
40
0
40
1
40
1
40
1
40
1
41
1
10
-12.4454802424852
20
0.394519052838319
30
0
41
1
10
-12.2698302504261
20
0.179681463779445
30
0
41
1
10
-12.0941736247425
20
-0.0351520577178803
30
0
41
1
10
-11.9185094462047
20
-0.249980947160964
30
0
0
SPLINE
5
151
100
AcDbEntity
8
1
62
256
6
ByLayer
370
18
48
1
60
0
100
AcDbSpline
70
4
71
3
72
34
73
30
40
0
40
0
40
0
40
0
40
0.125000000000001
40
0.125000000000001
40
0.250000000000001
40
0.250000000000001
40
0.375000000000002
40
0.375000000000002
40
0.437500000000009
40
0.437500000000009
40
0.500000000000017
40
0.500000000000017
40
0.625000000000032
40
0.625000000000032
40
0.687500000000043
40
0.687500000000043
40
0.718750000000041
40
0.718750000000041
40
0.75000000000004
40
0.75000000000004
40
0.812500000000033
40
0.812500000000033
40
0.875000000000027
40
0.875000000000027
40
0.90625000000002
40
0.90625000000002
40
0.937500000000014
40
0.937500000000014
40
1
40
1
40
1
40
1
41
1
10
-12.21262584537
20
0.394519052838319
30
0
41
1
10
-12.2293879167132
20
0.404069856331262
30
0
41
1
10
-12.2460474242468
20
0.413010889696807
30
0
41
1
10
-12.2791555920721
20
0.42966862177019
30
0
41
1
10
-12.2956045495882
20
0.437386982382037
30
0
41
1
10
-12.3282608368064
20
0.451436957631131
30
0
41
1
10
-12.3445735365322
20
0.457805604881315
30
0
41
1
10
-12.3682424193965
20
0.465816634568256
30
0
41
1
10
-12.3760079072084
20
0.46823433620375
30
0
41
1
10
-12.3912507161594
20
0.47248177544077
30
0
41
1
10
-12.3987563531804
20
0.474318017873884
30
0
41
1
10
-12.4205497597282
20
0.478701530894455
30
0
41
1
10
-12.4339597259438
20
0.480156666608053
30
0
41
1
10
-12.4514152534257
20
0.478821439948945
30
0
41
1
10
-12.4568329303758
20
0.477746501187454
30
0
41
1
10
-12.4636450953421
20
0.47495820558143
30
0
41
1
10
-12.4657065335108
20
0.473834537101368
30
0
41
1
10
-12.4693513853986
20
0.471142526978696
30
0
41
1
10
-12.4709433497243
20
0.469557994706776
30
0
41
1
10
-12.4747761141799
20
0.464180222176765
30
0
41
1
10
-12.4761223246412
20
0.459769092372454
30
0
41
1
10
-12.4760958204851
20
0.449081203462839
30
0
41
1
10
-12.4747089449443
20
0.443053990405275
30
0
41
1
10
-12.470827460083
20
0.433240182207101
30
0
41
1
10
-12.4692288824021
20
0.429837099363681
30
0
41
1
10
-12.4655825007594
20
0.422985527209846
30
0
41
1
10
-12.4635248995896
20
0.419510621874565
30
0
41
1
10
-12.4567374379799
20
0.408956814071246
30
0
41
1
10
-12.4513585152093
20
0.401708771010675
30
0
41
1
10
-12.4454802424852
20
0.394519052838319
30
0
0
SPLINE
5
152
100
AcDbEntity
8
1
62
256
6
ByLayer
370
18
48
1
60
0
100
AcDbSpline
70
4
71
3
72
8
73
4
40
0
40
0
40
0
40
0
40
1
40
1
40
1
40
1
41
1
10
-11.0361737618139
20
-0.249980947161674
30
0
41
1
10
-11.4329616463351
20
-0.0414960685943413
30
0
41
1
10
-11.8249154221808
20
0.173606852417663
30
0
41
1
10
-12.21262584537
20
0.394519052838319
30
0
0
SPLINE
5
153
100
AcDbEntity
8
1
62
256
6
ByLayer
370
18
48
1
60
0
100
AcDbSpline
70
4
71
3
72
18
73
14
40
0
40
0
40
0
40
0
40
0.124999999999992
40
0.124999999999992
40
0.249999999999983
40
0.249999999999983
40
0.499999999999981
40
0.499999999999981
40
0.62499999999998
40
0.62499999999998
40
0.749999999999979
40
0.749999999999979
40
1
40
1
40
1
40
1
41
1
10
-10.8100221617362
20
-0.324980947161663
30
0
41
1
10
-10.8180111708273
20
-0.324980947160952
30
0
41
1
10
-10.8264247732998
20
-0.324303802427465
30
0
41
1
10
-10.8438730220196
20
-0.321952441620653
30
0
41
1
10
-10.8529592725556
20
-0.320261231068514
30
0
41
1
10
-10.8805796347571
20
-0.314041022539698
30
0
41
1
10
-10.8994387758157
20
-0.308419743129093
30
0
41
1
10
-10.9282051094205
20
-0.298394950509135
30
0
41
1
10
-10.9378759446479
20
-0.294780090670855
30
0
41
1
10
-10.9573700935551
20
-0.28704319003694
30
0
41
1
10
-10.9672176050399
20
-0.282909900397783
30
0
41
1
10
-10.9967579988524
20
-0.269872232720218
30
0
41
1
10
-11.0164600587408
20
-0.260339148990965
30
0
41
1
10
-11.0361737618139
20
-0.249980947161674
30
0
0
SPLINE
5
154
100
AcDbEntity
8
1
62
256
6
ByLayer
370
18
48
1
60
0
100
AcDbSpline
70
4
71
3
72
22
73
18
40
0
40
0
40
0
40
0
40
0.125
40
0.125
40
0.25
40
0.25
40
0.375
40
0.375
40
0.5
40
0.5
40
0.625
40
0.625
40
0.75
40
0.75
40
0.875
40
0.875
40
1
40
1
40
1
40
1
41
1
10
-10.588146538497
20
-0.249980947159827
30
0
41
1
10
-10.5838159736942
20
-0.255144731035813
30
0
41
1
10
-10.5798645746344
20
-0.260343891665031
30
0
41
1
10
-10.572985089628
20
-0.27083784852482
30
0
41
1
10
-10.5701679829123
20
-0.275969703602755
30
0
41
1
10
-10.5660666715437
20
-0.285914845664848
30
0
41
1
10
-10.5647901952416
20
-0.290809930744786
30
0
41
1
10
-10.5642045954565
20
-0.299573635406631
30
0
41
1
10
-10.5648541823852
20
-0.303528393936119
30
0
41
1
10
-10.5679631001511
20
-0.310436416643597
30
0
41
1
10
-10.5703512144501
20
-0.313281206585003
30
0
41
1
10
-10.5764671398953
20
-0.317988035234293
30
0
41
1
10
-10.5801191826616
20
-0.319788199103215
30
0
41
1
10
-10.5882140101569
20
-0.322533301974119
30
0
41
1
10
-10.5926877142222
20
-0.323486343691656
30
0
41
1
10
-10.6022321565404
20
-0.32471243842005
30
0
41
1
10
-10.6072496942067
20
-0.324980947163254
30
0
41
1
10
-10.6124575382183
20
-0.324980947163198
30
0
0
SPLINE
5
155
100
AcDbEntity
8
1
62
256
6
ByLayer
370
18
48
1
60
0
100
AcDbSpline
70
4
71
3
72
8
73
4
40
0
40
0
40
0
40
0
40
1
40
1
40
1
40
1
41
1
10
-11.1279670839745
20
0.394519052838319
30
0
41
1
10
-10.9481691234914
20
0.179596378150762
30
0
41
1
10
-10.7682360652239
20
-0.0352414300963915
30
0
41
1
10
-10.5881465384974
20
-0.249980947159912
30
0
0
SPLINE
5
156
100
AcDbEntity
8
1
62
256
6
ByLayer
370
18
48
1
60
0
100
AcDbSpline
70
4
71
3
72
39
73
35
40
0
40
0
40
0
40
0
40
0.125000000000014
40
0.125000000000014
40
0.250000000000029
40
0.250000000000029
40
0.375000000000043
40
0.375000000000043
40
0.437500000000047
40
0.437500000000047
40
0.50000000000005
40
0.50000000000005
40
0.562500000000053
40
0.562500000000053
40
0.625000000000056
40
0.625000000000056
40
0.687500000000059
40
0.687500000000059
40
0.718750000000053
40
0.718750000000053
40
0.750000000000048
40
0.781250000000043
40
0.781250000000043
40
0.812500000000038
40
0.812500000000038
40
0.843750000000032
40
0.843750000000032
40
0.875000000000027
40
0.875000000000027
40
0.906250000000022
40
0.906250000000022
40
0.937500000000016
40
0.937500000000016
40
1
40
1
40
1
40
1
41
1
10
-10.8261977204866
20
0.394519052838319
30
0
41
1
10
-10.8453613808028
20
0.403822742416708
30
0
41
1
10
-10.8644350163225
20
0.412508030361977
30
0
41
1
10
-10.9024018906364
20
0.428670682946205
30
0
41
1
10
-10.9212952504409
20
0.436148777585913
30
0
41
1
10
-10.958882884293
20
0.449784789803459
30
0
41
1
10
-10.9775778122249
20
0.455947419880573
30
0
41
1
10
-11.0054357249662
20
0.463959959019945
30
0
41
1
10
-11.0147120130597
20
0.466427265972556
30
0
41
1
10
-11.0329270751786
20
0.47080817215442
30
0
41
1
10
-11.0418937770116
20
0.472731225930374
30
0
41
1
10
-11.0594969792525
20
0.475947166332247
30
0
41
1
10
-11.0681342039558
20
0.477241484467243
30
0
41
1
10
-11.0849977650711
20
0.479041057890981
30
0
41
1
10
-11.0932713386151
20
0.479548725267819
30
0
41
1
10
-11.1090219945275
20
0.479486703751746
30
0
41
1
10
-11.1164767895555
20
0.478927144527404
30
0
41
1
10
-11.1267820133678
20
0.476978430843047
30
0
41
1
10
-11.1300670569308
20
0.476138633700827
30
0
41
1
10
-11.1361417146117
20
0.474049581821959
30
0
41
1
10
-11.1417564108312
20
0.471545769909596
30
0
41
1
10
-11.1462927930953
20
0.468066856897167
30
0
41
1
10
-11.1501654640366
20
0.463986118035706
30
0
41
1
10
-11.1517438299298
20
0.461655824862362
30
0
41
1
10
-11.1540017219895
20
0.456500109917954
30
0
41
1
10
-11.1547000127545
20
0.453656662833254
30
0
41
1
10
-11.1551425423024
20
0.447385299333632
30
0
41
1
10
-11.1548792054188
20
0.444063384204014
30
0
41
1
10
-11.1534486470362
20
0.43707126200934
30
0
41
1
10
-11.1522661294609
20
0.433367252098947
30
0
41
1
10
-11.1491042633321
20
0.425789142768139
30
0
41
1
10
-11.147148000852
20
0.421949799605244
30
0
41
1
10
-11.1403381258876
20
0.410305290730918
30
0
41
1
10
-11.1344994067131
20
0.402327507790147
30
0
41
1
10
-11.1279670839746
20
0.394519052838319
30
0
0
SPLINE
5
157
100
AcDbEntity
8
1
62
256
6
ByLayer
370
18
48
1
60
0
100
AcDbSpline
70
4
71
3
72
8
73
4
40
0
40
0
40
0
40
0
40
1
40
1
40
1
40
1
41
1
10
-9.42014604979882
20
-0.249980947161674
30
0
41
1
10
-9.89509800998097
20
-0.045403532794694
30
0
41
1
10
-10.3635024894917
20
0.169886976943701
30
0
41
1
10
-10.8261977204866
20
0.394519052838319
30
0
0
SPLINE
5
158
100
AcDbEntity
8
1
62
256
6
ByLayer
370
18
48
1
60
0
100
AcDbSpline
70
4
71
3
72
18
73
14
40
0
40
0
40
0
40
0
40
0.125
40
0.125
40
0.25
40
0.25
40
0.375
40
0.375
40
0.5
40
0.5
40
0.75
40
0.75
40
1
40
1
40
1
40
1
41
1
10
-9.13284665392273
20
-0.324980947161691
30
0
41
1
10
-9.1437298608829
20
-0.324980947161151
30
0
41
1
10
-9.15494813399803
20
-0.324297936899598
30
0
41
1
10
-9.17785494091434
20
-0.321962244274374
30
0
41
1
10
-9.18954659680884
20
-0.320303380454163
30
0
41
1
10
-9.21330961472533
20
-0.316195905728222
30
0
41
1
10
-9.22532162877248
20
-0.313754324838584
30
0
41
1
10
-9.24935609579742
20
-0.308270592014935
30
0
41
1
10
-9.2614134877624
20
-0.305221378626044
30
0
41
1
10
-9.29769042100246
20
-0.295264739422492
30
0
41
1
10
-9.32201317218862
20
-0.287558568041931
30
0
41
1
10
-9.3709080164588
20
-0.270230194328235
30
0
41
1
10
-9.39555423460408
20
-0.260573449959651
30
0
41
1
10
-9.42014604979882
20
-0.249980947161674
30
0
0
SPLINE
5
159
100
AcDbEntity
8
1
62
256
6
ByLayer
370
18
48
1
60
0
100
AcDbSpline
70
4
71
3
72
28
73
24
40
0
40
0
40
0
40
0
40
0.0624999999999969
40
0.0624999999999969
40
0.124999999999994
40
0.124999999999994
40
0.187499999999991
40
0.187499999999991
40
0.249999999999988
40
0.249999999999988
40
0.312499999999985
40
0.312499999999985
40
0.374999999999982
40
0.374999999999982
40
0.437499999999978
40
0.437499999999978
40
0.499999999999975
40
0.499999999999975
40
0.624999999999981
40
0.624999999999981
40
0.749999999999988
40
0.749999999999988
40
1
40
1
40
1
40
1
41
1
10
-8.81287846405201
20
-0.249980947155791
30
0
41
1
10
-8.81042372701619
20
-0.25268050799562
30
0
41
1
10
-8.80809426650329
20
-0.255412160239644
30
0
41
1
10
-8.80374131425189
20
-0.260953956620313
30
0
41
1
10
-8.80171509926663
20
-0.263772010194657
30
0
41
1
10
-8.79813432448751
20
-0.269361345622173
30
0
41
1
10
-8.79656638697138
20
-0.272147870695989
30
0
41
1
10
-8.79395351452457
20
-0.277701759323776
30
0
41
1
10
-8.79290203059389
20
-0.280494627087478
30
0
41
1
10
-8.79146539182062
20
-0.285933125165428
30
0
41
1
10
-8.79108275102193
20
-0.288549776175699
30
0
41
1
10
-8.79100712746298
20
-0.293571945582585
30
0
41
1
10
-8.79132427301086
20
-0.295998566424203
30
0
41
1
10
-8.79261865796582
20
-0.30047339121117
30
0
41
1
10
-8.79358803963606
20
-0.302536520574051
30
0
41
1
10
-8.79609940480202
20
-0.306352422583785
30
0
41
1
10
-8.79764866346821
20
-0.308104402530773
30
0
41
1
10
-8.80288537420074
20
-0.312803317823807
30
0
41
1
10
-8.80719346932879
20
-0.315274284744561
30
0
41
1
10
-8.81692618508805
20
-0.319278475547179
30
0
41
1
10
-8.82221699514493
20
-0.32075719148483
30
0
41
1
10
-8.83894481110525
20
-0.324132477893784
30
0
41
1
10
-8.85129538935948
20
-0.32498094716226
30
0
41
1
10
-8.86408179867618
20
-0.324980947162231
30
0
0
SPLINE
5
15A
100
AcDbEntity
8
1
62
256
6
ByLayer
370
18
48
1
60
0
100
AcDbSpline
70
4
71
3
72
8
73
4
40
0
40
0
40
0
40
0
40
1
40
1
40
1
40
1
41
1
10
-9.3953884633876
20
0.394519052838319
30
0
41
1
10
-9.20190632438599
20
0.179219444300429
30
0
41
1
10
-9.0077785167926
20
-0.0356424895420275
30
0
41
1
10
-8.81287846405296
20
-0.249980947156075
30
0
0
SPLINE
5
15B
100
AcDbEntity
8
1
62
256
6
ByLayer
370
18
48
1
60
0
100
AcDbSpline
70
4
71
3
72
38
73
34
40
0
40
0
40
0
40
0
40
0.250000000000007
40
0.250000000000007
40
0.375000000000008
40
0.375000000000008
40
0.500000000000009
40
0.500000000000009
40
0.562500000000012
40
0.562500000000012
40
0.625000000000014
40
0.625000000000014
40
0.687500000000016
40
0.687500000000016
40
0.750000000000018
40
0.750000000000018
40
0.781250000000016
40
0.781250000000016
40
0.812500000000015
40
0.812500000000015
40
0.843750000000013
40
0.843750000000013
40
0.859375000000008
40
0.859375000000008
40
0.875000000000004
40
0.875000000000004
40
0.906250000000003
40
0.906250000000003
40
0.937500000000002
40
0.937500000000002
40
0.968750000000001
40
0.968750000000001
40
1
40
1
40
1
40
1
41
1
10
-8.98692851463424
20
0.394519052838433
30
0
41
1
10
-9.0332619564788
20
0.412493674837833
30
0
41
1
10
-9.07924677772213
20
0.428095750861701
30
0
41
1
10
-9.14767753970108
20
0.447892731526878
30
0
41
1
10
-9.17039514074557
20
0.453877630445248
30
0
41
1
10
-9.21561276810894
20
0.464384190703157
30
0
41
1
10
-9.23811409009988
20
0.468915971092088
30
0
41
1
10
-9.27164840317904
20
0.474201921571563
30
0
41
1
10
-9.28280754864187
20
0.475708447562795
30
0
41
1
10
-9.30470496885984
20
0.478037327116795
30
0
41
1
10
-9.31547973767194
20
0.478868132934792
30
0
41
1
10
-9.33658051127526
20
0.479660016760334
30
0
41
1
10
-9.34696068021994
20
0.479621526876542
30
0
41
1
10
-9.36677891891844
20
0.478317730661246
30
0
41
1
10
-9.37622144042925
20
0.477070148566497
30
0
41
1
10
-9.38930097964762
20
0.473801534714227
30
0
41
1
10
-9.39349606281391
20
0.472464916766313
30
0
41
1
10
-9.40121470148263
20
0.469229096419326
30
0
41
1
10
-9.40475722197041
20
0.467329854200074
30
0
41
1
10
-9.41101084625686
20
0.462790271628421
30
0
41
1
10
-9.41370522919763
20
0.460142637892375
30
0
41
1
10
-9.41676860092079
20
0.455629436905042
30
0
41
1
10
-9.41763416504909
20
0.454029340103233
30
0
41
1
10
-9.41901882100981
20
0.450615689000983
30
0
41
1
10
-9.41953665683758
20
0.448791861472614
30
0
41
1
10
-9.42048798744298
20
0.44314609700092
30
0
41
1
10
-9.42034760074219
20
0.439106172816139
30
0
41
1
10
-9.41852742540983
20
0.430476184279115
30
0
41
1
10
-9.41685123823549
20
0.425966268108198
30
0
41
1
10
-9.41232312472627
20
0.416909228814092
30
0
41
1
10
-9.40943685546671
20
0.41229412988929
30
0
41
1
10
-9.40294265258267
20
0.403307302163142
30
0
41
1
10
-9.39931252043964
20
0.398885595145714
30
0
41
1
10
-9.39538846339337
20
0.394519052837154
30
0
0
SPLINE
5
15C
100
AcDbEntity
8
1
62
256
6
ByLayer
370
18
48
1
60
0
100
AcDbSpline
70
4
71
3
72
8
73
4
40
0
40
0
40
0
40
0
40
1
40
1
40
1
40
1
41
1
10
-7.15410175340971
20
-0.249980947161674
30
0
41
1
10
-7.77427580892314
20
-0.0548377836275904
30
0
41
1
10
-8.384783437259
20
0.160922546217108
30
0
41
1
10
-8.98692851463423
20
0.394519052838319
30
0
0
SPLINE
5
15D
100
AcDbEntity
8
1
62
256
6
ByLayer
370
18
48
1
60
0
100
AcDbSpline
70
4
71
3
72
17
73
13
40
0
40
0
40
0
40
0
40
0.125
40
0.125
40
0.25
40
0.25
40
0.375
40
0.375
40
0.5
40
0.5
40
0.75
40
1
40
1
40
1
40
1
41
1
10
-6.74249188881707
20
-0.324980947161663
30
0
41
1
10
-6.75895378391422
20
-0.324980947161606
30
0
41
1
10
-6.77560867949246
20
-0.324310745266985
30
0
41
1
10
-6.80917906795581
20
-0.322040380930361
30
0
41
1
10
-6.82609666353447
20
-0.320433354681313
30
0
41
1
10
-6.86013732462261
20
-0.316470394553619
30
0
41
1
10
-6.87726105822415
20
-0.314112278634411
30
0
41
1
10
-6.91168423969094
20
-0.308745403149373
30
0
41
1
10
-6.9290120046367
20
-0.305730156657205
30
0
41
1
10
-6.98098651916527
20
-0.295834974764006
30
0
41
1
10
-7.05026156071183
20
-0.280409342926959
30
0
41
1
10
-7.11949273474029
20
-0.260870976065661
30
0
41
1
10
-7.15410175340969
20
-0.249980947161816
30
0
0
SPLINE
5
15E
100
AcDbEntity
8
1
62
256
6
ByLayer
370
18
48
1
60
0
100
AcDbSpline
70
4
71
3
72
28
73
24
40
0
40
0
40
0
40
0
40
0.0624999999999979
40
0.0624999999999979
40
0.124999999999996
40
0.124999999999996
40
0.187499999999994
40
0.187499999999994
40
0.249999999999992
40
0.249999999999992
40
0.312499999999989
40
0.312499999999989
40
0.374999999999987
40
0.374999999999987
40
0.437499999999985
40
0.437499999999985
40
0.499999999999983
40
0.499999999999983
40
0.624999999999987
40
0.624999999999987
40
0.749999999999991
40
0.749999999999991
40
1
40
1
40
1
40
1
41
1
10
-6.22292588127033
20
-0.249980947140926
30
0
41
1
10
-6.21958846278596
20
-0.252886604389005
30
0
41
1
10
-6.21643658084923
20
-0.2558747816623
30
0
41
1
10
-6.21065250989122
20
-0.262082766471423
30
0
41
1
10
-6.20799059239903
20
-0.265341649736172
30
0
41
1
10
-6.20359999834165
20
-0.272014335422199
30
0
41
1
10
-6.20188043678124
20
-0.275412687019298
30
0
41
1
10
-6.19979992398484
20
-0.282212586931053
30
0
41
1
10
-6.19947715640618
20
-0.285483953660503
30
0
41
1
10
-6.20034973300679
20
-0.291754064168089
30
0
41
1
10
-6.20153703134235
20
-0.294630037775505
30
0
41
1
10
-6.20507139005912
20
-0.299823372219606
30
0
41
1
10
-6.20738715966201
20
-0.302109007415226
30
0
41
1
10
-6.21267351534166
20
-0.30614672963037
30
0
41
1
10
-6.21568609914914
20
-0.307929189855884
30
0
41
1
10
-6.22210698144582
20
-0.31107607510512
30
0
41
1
10
-6.22550351037791
20
-0.312439632077798
30
0
41
1
10
-6.23609002146526
20
-0.316080959786547
30
0
41
1
10
-6.24369435696326
20
-0.317921804204559
30
0
41
1
10
-6.2594332674004
20
-0.320855188810611
30
0
41
1
10
-6.26749588936983
20
-0.321930095246671
30
0
41
1
10
-6.29206351344484
20
-0.324375867069932
30
0
41
1
10
-6.30894164051671
20
-0.324980947161663
30
0
41
1
10
-6.32610759209325
20
-0.324980947161663
30
0
0
SPLINE
5
15F
100
AcDbEntity
8
1
62
256
6
ByLayer
370
18
48
1
60
0
100
AcDbSpline
70
4
71
3
72
8
73
4
40
0
40
0
40
0
40
0
40
1
40
1
40
1
40
1
41
1
10
-6.94370199056442
20
0.394519052830475
30
0
41
1
10
-6.70648353683777
20
0.17713567176861
30
0
41
1
10
-6.4664938621694
20
-0.0379233125644021
30
0
41
1
10
-6.2229258812701
20
-0.249980947141125
30
0
0
SPLINE
5
160
100
AcDbEntity
8
1
62
256
6
ByLayer
370
18
48
1
60
0
100
AcDbSpline
70
4
71
3
72
38
73
34
40
0
40
0
40
0
40
0
40
0.250000000000002
40
0.250000000000002
40
0.375000000000001
40
0.375000000000001
40
0.5
40
0.5
40
0.625
40
0.625
40
0.687499999999998
40
0.687499999999998
40
0.749999999999996
40
0.749999999999996
40
0.812499999999995
40
0.812499999999995
40
0.843749999999994
40
0.843749999999994
40
0.859374999999993
40
0.859374999999993
40
0.874999999999991
40
0.874999999999991
40
0.906249999999993
40
0.906249999999993
40
0.921874999999994
40
0.921874999999994
40
0.937499999999995
40
0.937499999999995
40
0.953124999999995
40
0.953124999999995
40
0.968749999999996
40
0.968749999999996
40
1
40
1
40
1
40
1
41
1
10
-6.31056345909113
20
0.394519052838348
30
0
41
1
10
-6.37481328661716
20
0.411390584814342
30
0
41
1
10
-6.43896947048802
20
0.426235064494222
30
0
41
1
10
-6.53505244750718
20
0.44537695498147
30
0
41
1
10
-6.56705479949272
20
0.451225942276523
30
0
41
1
10
-6.63100511188702
20
0.461668317289963
30
0
41
1
10
-6.66283482364827
20
0.466246113727465
30
0
41
1
10
-6.72600609437083
20
0.473707937008868
30
0
41
1
10
-6.75736948056058
20
0.476614959196013
30
0
41
1
10
-6.80391672916962
20
0.479030439618185
30
0
41
1
10
-6.81927766291614
20
0.479502300680736
30
0
41
1
10
-6.8495771870079
20
0.479534942909794
30
0
41
1
10
-6.86452894475396
20
0.479103966090861
30
0
41
1
10
-6.89376528286891
20
0.476844350446214
30
0
41
1
10
-6.90791400683659
20
0.475054351303299
30
0
41
1
10
-6.92784789140545
20
0.470525557031891
30
0
41
1
10
-6.93431043461412
20
0.468687677720766
30
0
41
1
10
-6.94329636121341
20
0.465259768489347
30
0
41
1
10
-6.9461753105233
20
0.464004555016857
30
0
41
1
10
-6.95163771382978
20
0.461207412579711
30
0
41
1
10
-6.95423460305094
20
0.459654605409469
30
0
41
1
10
-6.96127333729443
20
0.45455030426541
30
0
41
1
10
-6.9650505758796
20
0.450546752266519
30
0
41
1
10
-6.96837681671261
20
0.44313609854143
30
0
41
1
10
-6.96904305703674
20
0.440519738392709
30
0
41
1
10
-6.96942508964125
20
0.434972492078259
30
0
41
1
10
-6.96912327073854
20
0.432023475740436
30
0
41
1
10
-6.96761586971134
20
0.426116302492147
30
0
41
1
10
-6.96640667043525
20
0.423099880046607
30
0
41
1
10
-6.96325940255424
20
0.417097475831469
30
0
41
1
10
-6.96135311380292
20
0.414155954724294
30
0
41
1
10
-6.95487075364811
20
0.405468539475009
30
0
41
1
10
-6.9495089607814
20
0.399840471961994
30
0
41
1
10
-6.94370199056817
20
0.394519052828656
30
0
0
SPLINE
5
161
100
AcDbEntity
8
1
62
256
6
ByLayer
370
18
48
1
60
0
100
AcDbSpline
70
4
71
3
72
8
73
4
40
0
40
0
40
0
40
0
40
1
40
1
40
1
40
1
41
1
10
-3.02046224885069
20
-0.249980947161674
30
0
41
1
10
-4.1359861011274
20
-0.107222523982614
30
0
41
1
10
-5.23174171602679
20
0.111228400779481
30
0
41
1
10
-6.31056345909118
20
0.394519052838035
30
0
0
SPLINE
5
162
100
AcDbEntity
8
1
62
256
6
ByLayer
370
18
48
1
60
0
100
AcDbSpline
70
4
71
3
72
14
73
10
40
0
40
0
40
0
40
0
40
0.25
40
0.25
40
0.5
40
0.5
40
0.75
40
0.75
40
1
40
1
40
1
40
1
41
1
10
-1.73594520006452
20
-0.324980947161805
30
0
41
1
10
-1.84314979610454
20
-0.324980947161777
30
0
41
1
10
-1.95042328219981
20
-0.323449254272589
30
0
41
1
10
-2.16478964220232
20
-0.317513647984981
30
0
41
1
10
-2.27190023278158
20
-0.31310074243703
30
0
41
1
10
-2.48598486060513
20
-0.301152741664794
30
0
41
1
10
-2.5929587792904
20
-0.293621089038169
30
0
41
1
10
-2.80678930238935
20
-0.274859400504965
30
0
41
1
10
-2.91364525025708
20
-0.263650781524092
30
0
41
1
10
-3.02046224885069
20
-0.249980947161674
30
0
0
SPLINE
5
163
100
AcDbEntity
8
1
62
256
6
ByLayer
370
18
48
1
60
0
100
AcDbSpline
70
4
71
3
72
14
73
10
40
0
40
0
40
0
40
0
40
0.25
40
0.25
40
0.5
40
0.5
40
0.75
40
0.75
40
1
40
1
40
1
40
1
41
1
10
3.02046224885069
20
-0.249980947161873
30
0
41
1
10
2.91367618098349
20
-0.263646823185127
30
0
41
1
10
2.80666688413962
20
-0.274872902970912
30
0
41
1
10
2.59260836335665
20
-0.293649067375725
30
0
41
1
10
2.48557990191409
20
-0.301179376033105
30
0
41
1
10
2.27148283436821
20
-0.313119988055348
30
0
41
1
10
2.16441448633978
20
-0.317526654577222
30
0
41
1
10
1.95022075456774
20
-0.323452236129214
30
0
41
1
10
1.84309474173762
20
-0.324980947161691
30
0
41
1
10
1.73594520006452
20
-0.324980947161691
30
0
0
SPLINE
5
164
100
AcDbEntity
8
1
62
256
6
ByLayer
370
18
48
1
60
0
100
AcDbSpline
70
4
71
3
72
8
73
4
40
0
40
0
40
0
40
0
40
1
40
1
40
1
40
1
41
1
10
6.31056345909118
20
0.394519052838035
30
0
41
1
10
5.23174171602679
20
0.111228400779481
30
0
41
1
10
4.1359861011274
20
-0.107222523982614
30
0
41
1
10
3.02046224885069
20
-0.249980947161674
30
0
0
SPLINE
5
165
100
AcDbEntity
8
1
62
256
6
ByLayer
370
18
48
1
60
0
100
AcDbSpline
70
4
71
3
72
40
73
36
40
0
40
0
40
0
40
0
40
0.0312500000000066
40
0.0312500000000066
40
0.0625000000000133
40
0.0625000000000133
40
0.0781250000000163
40
0.0781250000000163
40
0.0937500000000192
40
0.0937500000000192
40
0.109375000000022
40
0.109375000000022
40
0.125000000000025
40
0.125000000000025
40
0.156250000000025
40
0.156250000000025
40
0.187500000000025
40
0.187500000000025
40
0.218750000000024
40
0.218750000000024
40
0.250000000000024
40
0.250000000000024
40
0.312500000000023
40
0.312500000000023
40
0.375000000000023
40
0.375000000000023
40
0.437500000000022
40
0.437500000000022
40
0.500000000000022
40
0.500000000000022
40
0.625000000000016
40
0.625000000000016
40
0.75000000000001
40
0.75000000000001
40
1
40
1
40
1
40
1
41
1
10
6.94370199057298
20
0.394519052838319
30
0
41
1
10
6.94949560394613
20
0.39982823196766
30
0
41
1
10
6.9547696385205
20
0.405342643436654
30
0
41
1
10
6.96353664392529
20
0.417072710650359
30
0
41
1
10
6.96690761888635
20
0.423224118274902
30
0
41
1
10
6.96915785814377
20
0.432219602519865
30
0
41
1
10
6.96943324881519
20
0.435114089853443
30
0
41
1
10
6.96901235433305
20
0.440690505253485
30
0
41
1
10
6.96829725749961
20
0.443380727673969
30
0
41
1
10
6.9660284372105
20
0.448294122549783
30
0
41
1
10
6.96446307291583
20
0.450572101252135
30
0
41
1
10
6.96069380192048
20
0.454727700184236
30
0
41
1
10
6.95851683438016
20
0.456587871636742
30
0
41
1
10
6.9513232003797
20
0.461676155240184
30
0
41
1
10
6.94560309325294
20
0.464430091165326
30
0
41
1
10
6.93346671813322
20
0.468952428293051
30
0
41
1
10
6.92700114264716
20
0.470750396595264
30
0
41
1
10
6.91354439935401
20
0.473737864933412
30
0
41
1
10
6.90651936764425
20
0.47492561812976
30
0
41
1
10
6.8922792992789
20
0.476824350812876
30
0
41
1
10
6.88505053830161
20
0.477539240813599
30
0
41
1
10
6.86312052932414
20
0.479163283900618
30
0
41
1
10
6.84817943934439
20
0.479560419705763
30
0
41
1
10
6.81787500488093
20
0.479471186456607
30
0
41
1
10
6.80250792684535
20
0.478976540973378
30
0
41
1
10
6.77145110599577
20
0.477324643893013
30
0
41
1
10
6.7557261014864
20
0.476161098836997
30
0
41
1
10
6.72426466292015
20
0.473326678573329
30
0
41
1
10
6.70850783880189
20
0.471655016990979
30
0
41
1
10
6.66117064223556
20
0.466019194826799
30
0
41
1
10
6.62952417807892
20
0.461442125692656
30
0
41
1
10
6.56608797546158
20
0.451051827023463
30
0
41
1
10
6.53429778488416
20
0.445232963789806
30
0
41
1
10
6.43873436581833
20
0.426175341576084
30
0
41
1
10
6.37477160274292
20
0.411379638935813
30
0
41
1
10
6.31056345909113
20
0.394519052838518
30
0
0
SPLINE
5
166
100
AcDbEntity
8
1
62
256
6
ByLayer
370
18
48
1
60
0
100
AcDbSpline
70
4
71
3
72
8
73
4
40
0
40
0
40
0
40
0
40
1
40
1
40
1
40
1
41
1
10
6.2229258812701
20
-0.249980947141125
30
0
41
1
10
6.46649386217231
20
-0.0379233125618441
30
0
41
1
10
6.70648353684354
20
0.177135671773783
30
0
41
1
10
6.94370199057298
20
0.394519052838319
30
0
0
SPLINE
5
167
100
AcDbEntity
8
1
62
256
6
ByLayer
370
18
48
1
60
0
100
AcDbSpline
70
4
71
3
72
30
73
26
40
0
40
0
40
0
40
0
40
0.249999999999985
40
0.249999999999985
40
0.374999999999982
40
0.374999999999982
40
0.499999999999979
40
0.499999999999979
40
0.562499999999982
40
0.562499999999982
40
0.624999999999985
40
0.624999999999985
40
0.687499999999988
40
0.687499999999988
40
0.74999999999999
40
0.74999999999999
40
0.781249999999992
40
0.781249999999992
40
0.812499999999993
40
0.812499999999993
40
0.874999999999995
40
0.874999999999995
40
0.937499999999998
40
0.937499999999998
40
1
40
1
40
1
40
1
41
1
10
6.32610759209325
20
-0.324980947161663
30
0
41
1
10
6.30895523289027
20
-0.324980947161663
30
0
41
1
10
6.29208157702351
20
-0.324377259675799
30
0
41
1
10
6.26750018480016
20
-0.321930725538721
30
0
41
1
10
6.25939445407607
20
-0.320848040210734
30
0
41
1
10
6.24372854904974
20
-0.31792809148601
30
0
41
1
10
6.2362068230992
20
-0.316109021782722
30
0
41
1
10
6.2256865724155
20
-0.312508448027302
30
0
41
1
10
6.22230861856275
20
-0.311160963692004
30
0
41
1
10
6.21591426295652
20
-0.308054038889253
30
0
41
1
10
6.21287035292437
20
-0.30627486682053
30
0
41
1
10
6.20751976611061
20
-0.302231168235778
30
0
41
1
10
6.20518386142254
20
-0.299949113688825
30
0
41
1
10
6.20160828920962
20
-0.294772273174488
30
0
41
1
10
6.2004140800575
20
-0.291948296582604
30
0
41
1
10
6.19971056995726
20
-0.287281667244486
30
0
41
1
10
6.19966320953691
20
-0.285643710974028
30
0
41
1
10
6.19995012421148
20
-0.282353947498052
30
0
41
1
10
6.20027976527979
20
-0.280687054084183
30
0
41
1
10
6.20179147637555
20
-0.275624633340158
30
0
41
1
10
6.20351609927599
20
-0.272168749535751
30
0
41
1
10
6.20785466491733
20
-0.265522644781726
30
0
41
1
10
6.21051007557585
20
-0.262245767396166
30
0
41
1
10
6.21636758997769
20
-0.255939059647659
30
0
41
1
10
6.21955595240865
20
-0.252914908876164
30
0
41
1
10
6.22292588125003
20
-0.249980947131121
30
0
0
SPLINE
5
168
100
AcDbEntity
8
1
62
256
6
ByLayer
370
18
48
1
60
0
100
AcDbSpline
70
4
71
3
72
8
73
4
40
0
40
0
40
0
40
0
40
1
40
1
40
1
40
1
41
1
10
7.81377042360438
20
0.474999999999994
30
0
41
1
10
7.41022395361136
20
0.204971331217308
30
0
41
1
10
7.00588166662251
20
-0.0618153720883186
30
0
41
1
10
6.60065048818447
20
-0.324980947161691
30
0
0
SPLINE
5
169
100
AcDbEntity
8
1
62
256
6
ByLayer
370
18
48
1
60
0
100
AcDbSpline
70
4
71
3
72
8
73
4
40
0
40
0
40
0
40
0
40
1
40
1
40
1
40
1
41
1
10
7.93710604868403
20
0.675000000000011
30
0
41
1
10
7.89599665707939
20
0.608329227881853
30
0
41
1
10
7.85488481363848
20
0.541662508489168
30
0
41
1
10
7.81377042360438
20
0.474999999999994
30
0
0
SPLINE
5
16A
100
AcDbEntity
8
1
62
256
6
ByLayer
370
18
48
1
60
0
100
AcDbSpline
70
4
71
3
72
8
73
4
40
0
40
0
40
0
40
0
40
1
40
1
40
1
40
1
41
1
10
-14.5615187733781
20
0.236518773378123
30
0
41
1
10
-14.7076620247758
20
0.382662024775783
30
0
41
1
10
-14.8538226741322
20
0.528822674132243
30
0
41
1
10
-15
20
0.675000000000011
30
0
0
SPLINE
5
16B
100
AcDbEntity
8
1
62
256
6
ByLayer
370
18
48
1
60
0
100
AcDbSpline
70
4
71
3
72
54
73
50
40
0
40
0
40
0
40
0
40
0.0624999999999997
40
0.124999999999999
40
0.124999999999999
40
0.140624999999999
40
0.140624999999999
40
0.15625
40
0.15625
40
0.1875
40
0.1875
40
0.250000000000002
40
0.250000000000002
40
0.312500000000003
40
0.312500000000003
40
0.343750000000003
40
0.343750000000003
40
0.359375000000004
40
0.359375000000004
40
0.375000000000004
40
0.375000000000004
40
0.437500000000006
40
0.500000000000007
40
0.500000000000007
40
0.531250000000007
40
0.546875000000007
40
0.546875000000007
40
0.562500000000008
40
0.562500000000008
40
0.625000000000007
40
0.687500000000006
40
0.687500000000006
40
0.750000000000005
40
0.750000000000005
40
0.765625000000005
40
0.765625000000005
40
0.781250000000005
40
0.781250000000005
40
0.812500000000004
40
0.812500000000004
40
0.875000000000003
40
0.875000000000003
40
0.937500000000001
40
0.937500000000001
40
0.953125000000001
40
0.953125000000001
40
0.968750000000001
40
0.968750000000001
40
1
40
1
40
1
40
1
41
1
10
-5.86986583961414
20
15.2301341603859
30
0
41
1
10
-5.72614668992071
20
15.2592858994309
30
0
41
1
10
-5.44754516850497
20
15.3232161920985
30
0
41
1
10
-5.18614926128393
20
15.3973929671146
30
0
41
1
10
-5.02819599941935
20
15.4467327413878
30
0
41
1
10
-4.99683602243468
20
15.4567638707705
30
0
41
1
10
-4.93501343383033
20
15.4770039607978
30
0
41
1
10
-4.90451901648845
20
15.4872222103591
30
0
41
1
10
-4.81426383300771
20
15.5181565324672
30
0
41
1
10
-4.7557301164608
20
15.5391518744266
30
0
41
1
10
-4.58489677381681
20
15.603146932672
30
0
41
1
10
-4.47735095818186
20
15.6471519847976
30
0
41
1
10
-4.2745579720355
20
15.7373719713065
30
0
41
1
10
-4.179311569536
20
15.7835878416599
30
0
41
1
10
-4.04570859957337
20
15.8542966296052
30
0
41
1
10
-4.00272207789723
20
15.8780978110233
30
0
41
1
10
-3.94060069090386
20
15.9141190632564
30
0
41
1
10
-3.92031674254511
20
15.9261628440397
30
0
41
1
10
-3.88074868087472
20
15.9502222500515
30
0
41
1
10
-3.86144017008408
20
15.962251933806
30
0
41
1
10
-3.76724792984825
20
16.02238754255
30
0
41
1
10
-3.63154076897365
20
16.118517495492
30
0
41
1
10
-3.52512712571956
20
16.2139102604612
30
0
41
1
10
-3.45642057207269
20
16.2850083785096
30
0
41
1
10
-3.42484890327464
20
16.3204462640942
30
0
41
1
10
-3.39752662174661
20
16.3556897649742
30
0
41
1
10
-3.3802686950236
20
16.3791394397819
30
0
41
1
10
-3.37211295402665
20
16.3908507297234
30
0
41
1
10
-3.33395265679869
20
16.4489759364102
30
0
41
1
10
-3.28925343675704
20
16.5396671392867
30
0
41
1
10
-3.27665001707891
20
16.62567183194
30
0
41
1
10
-3.28031846249908
20
16.7093034630782
30
0
41
1
10
-3.29028595588551
20
16.7499327534272
30
0
41
1
10
-3.3133994202241
20
16.7992190774062
30
0
41
1
10
-3.31855203317258
20
16.8089887058798
30
0
41
1
10
-3.32986938561191
20
16.8282717321734
30
0
41
1
10
-3.33603968189271
20
16.8377974382871
30
0
41
1
10
-3.35607510434383
20
16.8660331541169
30
0
41
1
10
-3.37146374469242
20
16.8844018531916
30
0
41
1
10
-3.42367979750324
20
16.9381871825752
30
0
41
1
10
-3.4665413237494
20
16.9722841920853
30
0
41
1
10
-3.56851423545979
20
17.0371642861095
30
0
41
1
10
-3.62762353703451
20
17.0679471057262
30
0
41
1
10
-3.71209436818887
20
17.1044615858553
30
0
41
1
10
-3.72954679355962
20
17.111676839486
30
0
41
1
10
-3.76536802374676
20
17.125850406327
30
0
41
1
10
-3.78373324893846
20
17.1328085387413
30
0
41
1
10
-3.8401800953701
20
17.1533090623914
30
0
41
1
10
-3.8796119551869
20
17.1664777874861
30
0
41
1
10
-3.92082225835679
20
17.1791777416432
30
0
0
SPLINE
5
16C
100
AcDbEntity
8
1
62
256
6
ByLayer
370
18
48
1
60
0
100
AcDbSpline
70
4
71
3
72
128
73
124
40
0
40
0
40
0
40
0
40
0.0156249999999998
40
0.0156249999999998
40
0.0234374999999997
40
0.0234374999999997
40
0.0312499999999995
40
0.0312499999999995
40
0.0624999999999979
40
0.0624999999999979
40
0.078124999999997
40
0.078124999999997
40
0.0859374999999968
40
0.0859374999999968
40
0.0937499999999966
40
0.0937499999999966
40
0.124999999999996
40
0.124999999999996
40
0.140624999999995
40
0.140624999999995
40
0.148437499999995
40
0.148437499999995
40
0.156249999999995
40
0.156249999999995
40
0.187499999999994
40
0.187499999999994
40
0.203124999999994
40
0.203124999999994
40
0.210937499999994
40
0.210937499999994
40
0.218749999999994
40
0.218749999999994
40
0.249999999999995
40
0.249999999999995
40
0.265624999999995
40
0.265624999999995
40
0.273437499999995
40
0.273437499999995
40
0.281249999999995
40
0.281249999999995
40
0.312499999999996
40
0.312499999999996
40
0.328124999999997
40
0.328124999999997
40
0.335937499999997
40
0.335937499999997
40
0.343749999999997
40
0.343749999999997
40
0.374999999999998
40
0.374999999999998
40
0.382812499999998
40
0.382812499999998
40
0.390624999999998
40
0.390624999999998
40
0.406249999999999
40
0.406249999999999
40
0.437499999999999
40
0.437499999999999
40
0.445312499999999
40
0.445312499999999
40
0.453124999999999
40
0.453124999999999
40
0.46875
40
0.46875
40
0.500000000000001
40
0.500000000000001
40
0.507812500000001
40
0.507812500000001
40
0.515625000000001
40
0.531250000000001
40
0.531250000000001
40
0.562500000000002
40
0.562500000000002
40
0.570312500000003
40
0.570312500000003
40
0.578125000000003
40
0.593750000000003
40
0.609375000000003
40
0.609375000000003
40
0.617187500000003
40
0.617187500000003
40
0.625000000000003
40
0.625000000000003
40
0.656250000000003
40
0.656250000000003
40
0.664062500000003
40
0.664062500000003
40
0.671875000000003
40
0.687500000000003
40
0.687500000000003
40
0.718750000000002
40
0.718750000000002
40
0.726562500000002
40
0.726562500000002
40
0.734375000000002
40
0.750000000000002
40
0.750000000000002
40
0.781250000000002
40
0.781250000000002
40
0.789062500000002
40
0.789062500000002
40
0.796875000000002
40
0.812500000000002
40
0.812500000000002
40
0.843750000000003
40
0.843750000000003
40
0.875000000000003
40
0.875000000000003
40
0.890625000000003
40
0.890625000000003
40
0.898437500000003
40
0.898437500000003
40
0.906250000000003
40
0.906250000000003
40
0.937500000000002
40
0.937500000000002
40
0.953125000000001
40
0.953125000000001
40
0.960937500000001
40
0.960937500000001
40
0.968750000000001
40
0.968750000000001
40
1
40
1
40
1
40
1
41
1
10
5.86197479331017
20
16.9034676454873
30
0
41
1
10
5.89067810388471
20
16.9129142631651
30
0
41
1
10
5.91758260629575
20
16.9225564690496
30
0
41
1
10
5.9552232104337
20
16.9372922465838
30
0
41
1
10
5.96731672439864
20
16.9422496710647
30
0
41
1
10
5.99058583683814
20
16.9522530601261
30
0
41
1
10
6.00178485952037
20
16.9573103705604
30
0
41
1
10
6.05514172061257
20
16.9826686596776
30
0
41
1
10
6.08922667539767
20
17.003052297585
30
0
41
1
10
6.12795198661954
20
17.0336429901804
30
0
41
1
10
6.13878077176773
20
17.0438432010516
30
0
41
1
10
6.15185547174502
20
17.0591383575373
30
0
41
1
10
6.15568486026885
20
17.0642359217454
30
0
41
1
10
6.16226811903729
20
17.0744281793798
30
0
41
1
10
6.16502432001116
20
17.0795326353183
30
0
41
1
10
6.17597341351836
20
17.1048141151622
30
0
41
1
10
6.1758623203784
20
17.1244142582181
30
0
41
1
10
6.16273449304538
20
17.1529058888895
30
0
41
1
10
6.15618573363483
20
17.1622514977667
30
0
41
1
10
6.14303213887172
20
17.1760447483174
30
0
41
1
10
6.13809172964508
20
17.1806049625312
30
0
41
1
10
6.12707702482777
20
17.189650585879
30
0
41
1
10
6.12099746161931
20
17.1941368301258
30
0
41
1
10
6.08806158724798
20
17.2161605847279
30
0
41
1
10
6.05344426008659
20
17.2326658128873
30
0
41
1
10
5.98935907492407
20
17.2559200833484
30
0
41
1
10
5.96595917847299
20
17.2634198707594
30
0
41
1
10
5.92772531942381
20
17.2743043739911
30
0
41
1
10
5.91445760203993
20
17.277871622657
30
0
41
1
10
5.88685333900708
20
17.2848856431575
30
0
41
1
10
5.87256901505438
20
17.288318431806
30
0
41
1
10
5.79915737477816
20
17.3050321393695
30
0
41
1
10
5.73373545162238
20
17.3170673297973
30
0
41
1
10
5.62572452659111
20
17.3333526532836
30
0
41
1
10
5.58806504619204
20
17.338484719369
30
0
41
1
10
5.52902345928555
20
17.3457524177588
30
0
41
1
10
5.50887228544352
20
17.3481080264365
30
0
41
1
10
5.46791354491978
20
17.3526530366762
30
0
41
1
10
5.4471609145194
20
17.3548369413385
30
0
41
1
10
5.34205547567151
20
17.3653316936342
30
0
41
1
10
5.25370751048717
20
17.3723801728071
30
0
41
1
10
5.11485738451023
20
17.3811298635016
30
0
41
1
10
5.06751316106053
20
17.3837402577739
30
0
41
1
10
4.99485560646892
20
17.3872004714501
30
0
41
1
10
4.97035203995205
20
17.3882776929952
30
0
41
1
10
4.92130215561028
20
17.3902601244574
30
0
41
1
10
4.89669316001672
20
17.3911684943586
30
0
41
1
10
4.77323443462612
20
17.3953080169924
30
0
41
1
10
4.67315337205062
20
17.397345433798
30
0
41
1
10
4.54641202674981
20
17.3983528222114
30
0
41
1
10
4.5209811378833
20
17.3984765077195
30
0
41
1
10
4.46995164869946
20
17.3985662828973
30
0
41
1
10
4.44430479342634
20
17.39853213021
30
0
41
1
10
4.36744180275696
20
17.3981897668145
30
0
41
1
10
4.31665646724085
20
17.3976452486447
30
0
41
1
10
4.16562727776537
20
17.3950846274239
30
0
41
1
10
4.06669986518207
20
17.3921517604205
30
0
41
1
10
3.94525949868296
20
17.3868666619228
30
0
41
1
10
3.92108320618973
20
17.3857278635322
30
0
41
1
10
3.87295815477705
20
17.3832810766115
30
0
41
1
10
3.84902545085686
20
17.3819733112652
30
0
41
1
10
3.77830050549574
20
17.3778321191794
30
0
41
1
10
3.73233229269471
20
17.3747692691312
30
0
41
1
10
3.59788126151878
20
17.3646579508554
30
0
41
1
10
3.51282500473201
20
17.3566960223668
30
0
41
1
10
3.41234006125072
20
17.3450265220594
30
0
41
1
10
3.39249079810054
20
17.3425999510512
30
0
41
1
10
3.35363264327623
20
17.3375971210796
30
0
41
1
10
3.29668502776633
20
17.3298803326773
30
0
41
1
10
3.24366941955972
20
17.3215199703949
30
0
41
1
10
3.14277100667002
20
17.303907431738
30
0
41
1
10
3.08230895757157
20
17.2909838409809
30
0
41
1
10
3.0154802911749
20
17.2731396306955
30
0
41
1
10
3.00258029062559
20
17.2694913048754
30
0
41
1
10
2.9779077672174
20
17.2620924407957
30
0
41
1
10
2.94249822777544
20
17.2508162584594
30
0
41
1
10
2.89132701132928
20
17.2311223009796
30
0
41
1
10
2.85862231499172
20
17.2143710967742
30
0
41
1
10
2.83720218326184
20
17.2014154277639
30
0
41
1
10
2.83058094032046
20
17.1970314365763
30
0
41
1
10
2.81838873758147
20
17.1881287092059
30
0
41
1
10
2.81280944793812
20
17.1836021145816
30
0
41
1
10
2.78768929077822
20
17.1607175203437
30
0
41
1
10
2.77652069531212
20
17.1417398143452
30
0
41
1
10
2.77359261614049
20
17.1171479192037
30
0
41
1
10
2.77356509657736
20
17.1121780296744
30
0
41
1
10
2.77462060713617
20
17.1022239644958
30
0
41
1
10
2.77786351183738
20
17.087250811035
30
0
41
1
10
2.78598639805034
20
17.0721545877065
30
0
41
1
10
2.80862251716349
20
17.0418105319824
30
0
41
1
10
2.83218286367074
20
17.0213771460299
30
0
41
1
10
2.87259061527587
20
16.995647011128
30
0
41
1
10
2.88123020480452
20
16.9904901721685
30
0
41
1
10
2.8994461878807
20
16.980261425413
30
0
41
1
10
2.92823361050995
20
16.96500775648
30
0
41
1
10
2.96133853972069
20
16.9500307398832
30
0
41
1
10
3.03324102860236
20
16.9204805665929
30
0
41
1
10
3.0887185445992
20
16.9013131103357
30
0
41
1
10
3.16797093426996
20
16.8782133613707
30
0
41
1
10
3.18427910035064
20
16.8736498155021
30
0
41
1
10
3.21757978698477
20
16.8647010472847
30
0
41
1
10
3.26865479694811
20
16.851517243581
30
0
41
1
10
3.3230554627952
20
16.8390607791437
30
0
41
1
10
3.43626766211074
20
16.8151635306833
30
0
41
1
10
3.51759912181319
20
16.8005747342836
30
0
41
1
10
3.69263921915322
20
16.774541123647
30
0
41
1
10
3.78361450576975
20
16.7635056382352
30
0
41
1
10
3.92510887267173
20
16.7500012678963
30
0
41
1
10
3.97311731639638
20
16.7460103374876
30
0
41
1
10
4.0464222469237
20
16.7408217556024
30
0
41
1
10
4.07107292036466
20
16.7392253589178
30
0
41
1
10
4.12081420255257
20
16.7363062707034
30
0
41
1
10
4.14597217246384
20
16.7349807859211
30
0
41
1
10
4.27176911543737
20
16.7291089883679
30
0
41
1
10
4.37270455449018
20
16.7267844607856
30
0
41
1
10
4.52454128200444
20
16.7267893812277
30
0
41
1
10
4.57522622094126
20
16.7273756493311
30
0
41
1
10
4.65136494300361
20
16.7291477839823
30
0
41
1
10
4.67676309678419
20
16.7298874544963
30
0
41
1
10
4.72759729408426
20
16.7316695299544
30
0
41
1
10
4.75284751312518
20
16.7327055151476
30
0
41
1
10
4.87815599027255
20
16.7385863740306
30
0
41
1
10
4.97554315813602
20
16.745525426632
30
0
41
1
10
5.0701484231237
20
16.7545657289399
30
0
0
SPLINE
5
16D
100
AcDbEntity
8
1
62
256
6
ByLayer
370
18
48
1
60
0
100
AcDbSpline
70
4
71
3
72
18
73
14
40
0
40
0
40
0
40
0
40
0.0624999999999947
40
0.0624999999999947
40
0.124999999999989
40
0.249999999999987
40
0.249999999999987
40
0.499999999999988
40
0.74999999999999
40
0.74999999999999
40
0.874999999999995
40
0.874999999999995
40
1
40
1
40
1
40
1
41
1
10
19.9235420795296
20
17.631119355487
30
0
41
1
10
19.898623473922
20
17.6304820931677
30
0
41
1
10
19.8734519238527
20
17.6298543027738
30
0
41
1
10
19.8229177969664
20
17.6286280485702
30
0
41
1
10
19.7468285051093
20
17.626832400488
30
0
41
1
10
19.6698858429785
20
17.6251766470924
30
0
41
1
10
19.5148816249964
20
17.6220728175562
30
0
41
1
10
19.3052319146707
20
17.6184893186469
30
0
41
1
10
19.0896668523132
20
17.6162120999587
30
0
41
1
10
18.9257090861092
20
17.6150575683386
30
0
41
1
10
18.8705924528965
20
17.6147648578155
30
0
41
1
10
18.7603912490235
20
17.6143750743525
30
0
41
1
10
18.7052273484688
20
17.6142771608735
30
0
41
1
10
18.6500000000002
20
17.6142771608735
30
0
0
SPLINE
5
16E
100
AcDbEntity
8
1
62
256
6
ByLayer
370
18
48
1
60
0
100
AcDbSpline
70
4
71
3
72
19
73
15
40
0
40
0
40
0
40
0
40
0.125
40
0.249999999999999
40
0.374999999999999
40
0.374999999999999
40
0.437499999999999
40
0.468749999999999
40
0.468749999999999
40
0.499999999999999
40
0.499999999999999
40
0.75
40
0.75
40
1
40
1
40
1
40
1
41
1
10
-7.11378201582589
20
13.9862179841741
30
0
41
1
10
-6.8453887100266
20
13.9130412113552
30
0
41
1
10
-6.30060531353661
20
13.7721581248911
30
0
41
1
10
-5.45866679654773
20
13.5797825697232
30
0
41
1
10
-4.88015759130894
20
13.4659617261427
30
0
41
1
10
-4.43947258218961
20
13.3867304462621
30
0
41
1
10
-4.21742797666147
20
13.3486492215913
30
0
41
1
10
-3.99275223956516
20
13.3130135045713
30
0
41
1
10
-3.84237407883114
20
13.2898164255305
30
0
41
1
10
-3.7670388906121
20
13.2785214364681
30
0
41
1
10
-3.08841375768307
20
13.1797414769698
30
0
41
1
10
-2.47926449427101
20
13.1121494434625
30
0
41
1
10
-1.24885923363149
20
13.0209841631745
30
0
41
1
10
-0.62760379376013
20
12.9974129321135
30
0
41
1
10
0
20
12.9974129321135
30
0
0
SPLINE
5
16F
100
AcDbEntity
8
1
62
256
6
ByLayer
370
18
48
1
60
0
100
AcDbSpline
70
4
71
3
72
22
73
18
40
0
40
0
40
0
40
0
40
0.0625000000000001
40
0.0625000000000001
40
0.125
40
0.125
40
0.250000000000001
40
0.250000000000001
40
0.375000000000001
40
0.375000000000001
40
0.500000000000001
40
0.500000000000001
40
0.625000000000001
40
0.625000000000001
40
0.750000000000001
40
0.750000000000001
40
1
40
1
40
1
40
1
41
1
10
-15
20
0.875000000001506
30
0
41
1
10
-15
20
0.880589068055571
30
0
41
1
10
-15
20
0.88618611265801
30
0
41
1
10
-15
20
0.897396313717934
30
0
41
1
10
-15
20
0.903041140446447
30
0
41
1
10
-15
20
0.919714084930661
30
0
41
1
10
-15
20
0.930486799286513
30
0
41
1
10
-15
20
0.951449148566496
30
0
41
1
10
-15
20
0.961697793674887
30
0
41
1
10
-15
20
0.981393856273371
30
0
41
1
10
-15
20
0.99078891893015
30
0
41
1
10
-15
20
1.00885793975522
30
0
41
1
10
-15
20
1.0175308391909
30
0
41
1
10
-15
20
1.03427897453579
30
0
41
1
10
-15
20
1.04235433752584
30
0
41
1
10
-15
20
1.06551265539923
30
0
41
1
10
-15
20
1.07967512164055
30
0
41
1
10
-15
20
1.09294494718759
30
0
0
SPLINE
5
170
100
AcDbEntity
8
1
62
256
6
ByLayer
370
18
48
1
60
0
100
AcDbSpline
70
4
71
3
72
18
73
14
40
0
40
0
40
0
40
0
40
0.249999999999997
40
0.249999999999997
40
0.374999999999997
40
0.374999999999997
40
0.499999999999996
40
0.499999999999996
40
0.749999999999998
40
0.749999999999998
40
0.874999999999999
40
0.874999999999999
40
1
40
1
40
1
40
1
41
1
10
9.37125442462698
20
0.874999999999858
30
0
41
1
10
9.37125442462698
20
0.904694818135255
30
0
41
1
10
9.37285807557882
20
0.934194699485374
30
0
41
1
10
9.37768818945221
20
0.978149787155445
30
0
41
1
10
9.37971768419925
20
0.992823834800447
30
0
41
1
10
9.38455354037086
20
1.02167884394623
30
0
41
1
10
9.38735060736536
20
1.03583546547083
30
0
41
1
10
9.39684924666653
20
1.07751409954722
30
0
41
1
10
9.40464959280712
20
1.1042510721079
30
0
41
1
10
9.41859288853723
20
1.14275413634829
30
0
41
1
10
9.42363987862922
20
1.1553638866084
30
0
41
1
10
9.43430393517249
20
1.17956393427198
30
0
41
1
10
9.43993646329227
20
1.1912067784227
30
0
41
1
10
9.44586314547925
20
1.20240209734686
30
0
0
SPLINE
5
171
100
AcDbEntity
8
1
62
256
6
ByLayer
370
18
48
1
60
0
100
AcDbSpline
70
4
71
3
72
16
73
12
40
0
40
0
40
0
40
0
40
0.125
40
0.125
40
0.25
40
0.25
40
0.5
40
0.5
40
0.75
40
0.75
40
1
40
1
40
1
40
1
41
1
10
8.18325005084313
20
1.375
30
0
41
1
10
8.2364744652283
20
1.37500000000023
30
0
41
1
10
8.28967629332499
20
1.37382406147052
30
0
41
1
10
8.39581505821269
20
1.36943560360865
30
0
41
1
10
8.44879059323316
20
1.36622218099544
30
0
41
1
10
8.60746747125023
20
1.35386984907743
30
0
41
1
10
8.71292130173927
20
1.34204292581458
30
0
41
1
10
8.92327148440833
20
1.31233480150524
30
0
41
1
10
9.02816810069345
20
1.29445646866972
30
0
41
1
10
9.23743204999261
20
1.25295172653054
30
0
41
1
10
9.34180310420973
20
1.22936572991563
30
0
41
1
10
9.44586314547917
20
1.20240209734681
30
0
0
SPLINE
5
172
100
AcDbEntity
8
1
62
256
6
ByLayer
370
18
48
1
60
0
100
AcDbSpline
70
4
71
3
72
26
73
22
40
0
40
0
40
0
40
0
40
0.125
40
0.125
40
0.15625
40
0.15625
40
0.1875
40
0.1875
40
0.25
40
0.25
40
0.5
40
0.5
40
0.625
40
0.625
40
0.75
40
0.75
40
0.875
40
0.875
40
0.9375
40
0.9375
40
1
40
1
40
1
40
1
41
1
10
3.82720524665191
20
1.375
30
0
41
1
10
3.66784017059436
20
1.375
30
0
41
1
10
3.50851321889621
20
1.37094450465955
30
0
41
1
10
3.3093884139609
20
1.36227063710794
30
0
41
1
10
3.26956516787257
20
1.36035344049768
30
0
41
1
10
3.18992183086647
20
1.35618341463495
30
0
41
1
10
3.1498673134349
20
1.35391738932401
30
0
41
1
10
3.02996429579406
20
1.34666632694675
30
0
41
1
10
2.95008484346241
20
1.34121480212659
30
0
41
1
10
2.55092030470416
20
1.31138613870661
30
0
41
1
10
2.23233478291988
20
1.27928046028188
30
0
41
1
10
1.75474950260408
20
1.22788495741705
30
0
41
1
10
1.59560357042369
20
1.21021000714069
30
0
41
1
10
1.27722899968975
20
1.17577381700173
30
0
41
1
10
1.11800182548021
20
1.15899639959054
30
0
41
1
10
0.799204148954971
20
1.12923453082303
30
0
41
1
10
0.639631382539051
20
1.11627509243578
30
0
41
1
10
0.399749988067498
20
1.10260550904388
30
0
41
1
10
0.31969693270085
20
1.09901890502678
30
0
41
1
10
0.159774363699597
20
1.09418805527122
30
0
41
1
10
0.0798615061981423
20
1.09294494717704
30
0
41
1
10
0
20
1.09294494717704
30
0
0
SPLINE
5
173
100
AcDbEntity
8
1
62
256
6
ByLayer
370
18
48
1
60
0
100
AcDbSpline
70
4
71
3
72
10
73
6
40
0
40
0
40
0
40
0
40
0.5
40
0.5
40
1
40
1
40
1
40
1
41
1
10
32.7045825663088
20
17.6391583095014
30
0
41
1
10
32.7311064079356
20
17.4519458188466
30
0
41
1
10
32.7565691787691
20
17.2644527489428
30
0
41
1
10
32.8065624820957
20
16.8892200970884
30
0
41
1
10
32.8310630978455
20
16.7014726042449
30
0
41
1
10
32.8552956068304
20
16.5136542158539
30
0
0
SPLINE
5
174
100
AcDbEntity
8
1
62
256
6
ByLayer
370
18
48
1
60
0
100
AcDbSpline
70
4
71
3
72
18
73
14
40
0
40
0
40
0
40
0
40
0.250000000000006
40
0.250000000000006
40
0.500000000000012
40
0.500000000000012
40
0.625000000000009
40
0.625000000000009
40
0.750000000000006
40
0.750000000000006
40
0.875000000000003
40
0.875000000000003
40
1
40
1
40
1
40
1
41
1
10
8.97509300113904
20
-0.269594177821347
30
0
41
1
10
9.01152644313692
20
-0.276266358807078
30
0
41
1
10
9.04786915185497
20
-0.282718617451991
30
0
41
1
10
9.12036847898457
20
-0.294911325240093
30
0
41
1
10
9.15652522117631
20
-0.300657493979827
30
0
41
1
10
9.21061352336176
20
-0.308394804813759
30
0
41
1
10
9.2286184412612
20
-0.310825062109671
30
0
41
1
10
9.26457702835458
20
-0.315286220540855
30
0
41
1
10
9.28248929533834
20
-0.317312073862979
30
0
41
1
10
9.31797101305719
20
-0.320786465321106
30
0
41
1
10
9.33556537132938
20
-0.322240606437305
30
0
41
1
10
9.37037734087883
20
-0.324333802126603
30
0
41
1
10
9.38759768040057
20
-0.324980947161663
30
0
41
1
10
9.40454881002665
20
-0.324980947161663
30
0
0
SPLINE
5
175
100
AcDbEntity
8
1
62
256
6
ByLayer
370
18
48
1
60
0
100
AcDbSpline
70
4
71
3
72
8
73
4
40
0
40
0
40
0
40
0
40
1
40
1
40
1
40
1
41
1
10
15.2430820962789
20
0.129903810567669
30
0
41
1
10
15.4272614048143
20
0.311558795603588
30
0
41
1
10
15.6113958294121
20
0.493259035297626
30
0
41
1
10
15.7954898626159
20
0.675000000000011
30
0
0
SPLINE
5
176
100
AcDbEntity
8
1
62
256
6
ByLayer
370
18
48
1
60
0
100
AcDbSpline
70
4
71
3
72
8
73
4
40
0
40
0
40
0
40
0
40
1
40
1
40
1
40
1
41
1
10
14.8184692127086
20
-0.249980947161674
30
0
41
1
10
14.9604945734528
20
-0.123759749017154
30
0
41
1
10
15.1020216400389
20
0.0028773178347024
30
0
41
1
10
15.2430820962789
20
0.129903810567669
30
0
0
SPLINE
5
177
100
AcDbEntity
8
1
62
256
6
ByLayer
370
18
48
1
60
0
100
AcDbSpline
70
4
71
3
72
18
73
14
40
0
40
0
40
0
40
0
40
0.124999999999999
40
0.124999999999999
40
0.249999999999998
40
0.249999999999998
40
0.500000000000002
40
0.500000000000002
40
0.625000000000001
40
0.625000000000001
40
0.750000000000001
40
0.750000000000001
40
1
40
1
40
1
40
1
41
1
10
14.7171680292953
20
-0.32498094716172
30
0
41
1
10
14.7186893510728
20
-0.32498094716172
30
0
41
1
10
14.7207746365131
20
-0.324388699392443
30
0
41
1
10
14.7259716490943
20
-0.322125675212874
30
0
41
1
10
14.729075461519
20
-0.320451985953838
30
0
41
1
10
14.7393963271011
20
-0.314194627055087
30
0
41
1
10
14.7478183865456
20
-0.308259492032192
30
0
41
1
10
14.7614560038651
20
-0.29790260373386
30
0
41
1
10
14.7661922846909
20
-0.294192871663853
30
0
41
1
10
14.7760027492335
20
-0.286317935978389
30
0
41
1
10
14.7810985572145
20
-0.282134384874752
30
0
41
1
10
14.7967015141747
20
-0.269079983040143
30
0
41
1
10
14.8074408879534
20
-0.25978207251589
30
0
41
1
10
14.8184692127086
20
-0.249980947161674
30
0
0
SPLINE
5
178
100
AcDbEntity
8
1
62
256
6
ByLayer
370
18
48
1
60
0
100
AcDbSpline
70
4
71
3
72
12
73
8
40
0
40
0
40
0
40
0
40
0.358938353212382
40
0.358938353212382
40
0.717876706424764
40
0.717876706424764
40
1
40
1
40
1
40
1
41
1
10
9.13284665391035
20
-0.324980947161691
30
0
41
1
10
9.14372986087079
20
-0.324980947161691
30
0
41
1
10
9.15494813398627
20
-0.324297936900479
30
0
41
1
10
9.17785494090333
20
-0.321962244275824
30
0
41
1
10
9.18954659679824
20
-0.320303380455783
30
0
41
1
10
9.21076689725155
20
-0.316635418411323
30
0
41
1
10
9.22018631298101
20
-0.314781589375485
30
0
41
1
10
9.22962551724976
20
-0.312730672053561
30
0
0
SPLINE
5
179
100
AcDbEntity
8
1
62
256
6
ByLayer
370
18
48
1
60
0
100
AcDbSpline
70
4
71
3
72
8
73
4
40
0
40
0
40
0
40
0
40
1
40
1
40
1
40
1
41
1
10
32.7045825663088
20
17.6391583095014
30
0
41
1
10
32.6725442421017
20
17.6394864251329
30
0
41
1
10
32.63999277911
20
17.6396411852236
30
0
41
1
10
32.6069108821151
20
17.639620194374
30
0
0
SPLINE
5
17A
100
AcDbEntity
8
1
62
256
6
ByLayer
370
18
48
1
60
0
100
AcDbSpline
70
4
71
3
72
36
73
32
40
0
40
0
40
0
40
0
40
0.0131316121577908
40
0.0131316121577908
40
0.0449660762817341
40
0.0449660762817341
40
0.108635004529621
40
0.108635004529621
40
0.235972861025393
40
0.235972861025393
40
0.267807325149336
40
0.267807325149336
40
0.299641789273279
40
0.299641789273279
40
0.363310717521164
40
0.363310717521164
40
0.490648574016933
40
0.490648574016933
40
0.522483038140875
40
0.522483038140875
40
0.554317502264816
40
0.554317502264816
40
0.617986430512699
40
0.617986430512699
40
0.745324287008468
40
0.745324287008468
40
0.808993215256351
40
0.808993215256351
40
0.872662143504234
40
0.872662143504234
40
1
40
1
40
1
40
1
41
1
10
14.923698590591
20
17.6751096263929
30
0
41
1
10
14.9272236816182
20
17.6751091819642
30
0
41
1
10
14.9308690353266
20
17.6750985616806
30
0
41
1
10
14.9437544875068
20
17.6750280265383
30
0
41
1
10
14.9535757561925
20
17.6749195196927
30
0
41
1
10
14.9851066609857
20
17.6744270846754
30
0
41
1
10
15.0088797530132
20
17.6738762962203
30
0
41
1
10
15.0883589020566
20
17.6716239529868
30
0
41
1
10
15.1521640306114
20
17.6693220215597
30
0
41
1
10
15.2460067932162
20
17.665664437997
30
0
41
1
10
15.2653917163741
20
17.6648975581839
30
0
41
1
10
15.3052484487719
20
17.6633065227011
30
0
41
1
10
15.3257399699721
20
17.6624815974734
30
0
41
1
10
15.3888808178796
20
17.6599310312739
30
0
41
1
10
15.4331934856986
20
17.6581296819983
30
0
41
1
10
15.5727128762456
20
17.6525179334511
30
0
41
1
10
15.6744517225641
20
17.6484993810153
30
0
41
1
10
15.8130011964925
20
17.6434386235439
30
0
41
1
10
15.8411330188341
20
17.6424301934387
30
0
41
1
10
15.898081631767
20
17.6404336331236
30
0
41
1
10
15.926921753766
20
17.6394446472256
30
0
41
1
10
16.0145250332469
20
17.6365163948686
30
0
41
1
10
16.0743691991689
20
17.6346159255449
30
0
41
1
10
16.2581828124055
20
17.6291517764535
30
0
41
1
10
16.3864013386107
20
17.6258253520894
30
0
41
1
10
16.5876230528145
20
17.6216239667561
30
0
41
1
10
16.6552754725097
20
17.6203742776039
30
0
41
1
10
16.7915223237357
20
17.6182060973601
30
0
41
1
10
16.8601469925397
20
17.6172869397218
30
0
41
1
10
17.0675093009885
20
17.6150578390619
30
0
41
1
10
17.2077241602387
20
17.6142771608735
30
0
41
1
10
17.3500000000002
20
17.6142771608735
30
0
0
SPLINE
5
17B
100
AcDbEntity
8
1
62
256
6
ByLayer
370
18
48
1
60
0
100
AcDbSpline
70
4
71
3
72
76
73
72
40
0
40
0
40
0
40
0
40
0.003582184233768
40
0.003582184233768
40
0.0658582977191575
40
0.0658582977191575
40
0.128134411204547
40
0.128134411204547
40
0.159272467947241
40
0.159272467947241
40
0.174841496318589
40
0.174841496318589
40
0.182626010504262
40
0.182626010504262
40
0.190410524689936
40
0.190410524689936
40
0.252686638175325
40
0.252686638175325
40
0.28382469491802
40
0.291609209103693
40
0.291609209103693
40
0.299393723289367
40
0.299393723289367
40
0.314962751660715
40
0.314962751660715
40
0.377238865146105
40
0.377238865146105
40
0.4083769218888
40
0.4083769218888
40
0.439514978631495
40
0.439514978631495
40
0.501791092116885
40
0.501791092116885
40
0.517360120488232
40
0.517360120488232
40
0.525144634673906
40
0.525144634673906
40
0.53292914885958
40
0.53292914885958
40
0.564067205602275
40
0.564067205602275
40
0.626343319087665
40
0.626343319087665
40
0.641912347459012
40
0.641912347459012
40
0.65748137583036
40
0.65748137583036
40
0.688619432573055
40
0.71975748931575
40
0.71975748931575
40
0.735326517687097
40
0.735326517687097
40
0.750895546058444
40
0.750895546058444
40
0.813171659543834
40
0.813171659543834
40
0.844309716286528
40
0.844309716286528
40
0.859878744657876
40
0.859878744657876
40
0.867663258843549
40
0.867663258843549
40
0.875447773029223
40
0.875447773029223
40
0.937723886514611
40
0.937723886514611
40
0.968861943257306
40
0.968861943257306
40
0.984430971628653
40
0.984430971628653
40
1
40
1
40
1
40
1
41
1
10
-2.62434954579913
20
17.6751096173616
30
0
41
1
10
-2.62414154466845
20
17.6751095422552
30
0
41
1
10
-2.6238836606793
20
17.6751050460394
30
0
41
1
10
-2.6182266470384
20
17.6749410946912
30
0
41
1
10
-2.5979779104326
20
17.6734557249013
30
0
41
1
10
-2.52742153532077
20
17.6679845956919
30
0
41
1
10
-2.4780206552268
20
17.6640717664083
30
0
41
1
10
-2.38366709227893
20
17.6568227472528
30
0
41
1
10
-2.34881677740646
20
17.6541759600399
30
0
41
1
10
-2.29135786842667
20
17.6499074378644
30
0
41
1
10
-2.27133962840708
20
17.6484348832809
30
0
41
1
10
-2.23999077257568
20
17.6461575762691
30
0
41
1
10
-2.22930630454599
20
17.6453860266726
30
0
41
1
10
-2.20757590343288
20
17.6438271806008
30
0
41
1
10
-2.19653192343935
20
17.6430400089306
30
0
41
1
10
-2.09554387873467
20
17.6358923540489
30
0
41
1
10
-1.9945497241055
20
17.629091963334
30
0
41
1
10
-1.82663498220379
20
17.618759298928
30
0
41
1
10
-1.75322701950236
20
17.614426057036
30
0
41
1
10
-1.67540096964598
20
17.6101286694404
30
0
41
1
10
-1.64391202237525
20
17.6084140809837
30
0
41
1
10
-1.62798995172659
20
17.6075590802629
30
0
41
1
10
-1.57993687186484
20
17.6050161518956
30
0
41
1
10
-1.54743689202377
20
17.603345787698
30
0
41
1
10
-1.38265435895187
20
17.5951436691286
30
0
41
1
10
-1.24358140370742
20
17.589061692603
30
0
41
1
10
-1.02416217181542
20
17.581121440559
30
0
41
1
10
-0.949155180287676
20
17.5786700761629
30
0
41
1
10
-0.795605483697585
20
17.5742473016316
30
0
41
1
10
-0.718168368594917
20
17.5723076977391
30
0
41
1
10
-0.483933865096333
20
17.5673531498914
30
0
41
1
10
-0.325229040382908
20
17.5652024123963
30
0
41
1
10
-0.123625773057483
20
17.5641092332081
30
0
41
1
10
-0.0831427395543187
20
17.5639703593762
30
0
41
1
10
-0.0221699802558248
20
17.5638846591996
30
0
41
1
10
-0.001784204017099
20
17.5638765819958
30
0
41
1
10
0.038867747615825
20
17.5639015135814
30
0
41
1
10
0.0591543902931448
20
17.5639344529491
30
0
41
1
10
0.160392950355799
20
17.5642003353088
30
0
41
1
10
0.240762180560949
20
17.5647368028679
30
0
41
1
10
0.480050757305946
20
17.5672731134663
30
0
41
1
10
0.637166296172126
20
17.57020053873
30
0
41
1
10
0.830467326467129
20
17.5752557391667
30
0
41
1
10
0.869063435136525
20
17.5763394877378
30
0
41
1
10
0.945230508944348
20
17.5786204432479
30
0
41
1
10
0.982854666446002
20
17.5798186615439
30
0
41
1
10
1.09437375108396
20
17.5835717342706
30
0
41
1
10
1.23946249943683
20
17.5889981867076
30
0
41
1
10
1.37746454094039
20
17.5951160760707
30
0
41
1
10
1.47828549594894
20
17.5999066326052
30
0
41
1
10
1.5114450256134
20
17.6015371532969
30
0
41
1
10
1.5768566117909
20
17.6048557348486
30
0
41
1
10
1.6091518260337
20
17.6065461306249
30
0
41
1
10
1.76784185057153
20
17.6150913276483
30
0
41
1
10
1.88349090883497
20
17.6220871512167
30
0
41
1
10
2.04068570212732
20
17.6322782827407
30
0
41
1
10
2.09035286085603
20
17.6356253449592
30
0
41
1
10
2.16068172953618
20
17.6405033591712
30
0
41
1
10
2.18342826969399
20
17.6421055810876
30
0
41
1
10
2.21648348796759
20
17.6444644780114
30
0
41
1
10
2.22732975389977
20
17.6452437692952
30
0
41
1
10
2.24855473056346
20
17.6467781553721
30
0
41
1
10
2.25894740136491
20
17.6475342394753
30
0
41
1
10
2.35052263946568
20
17.65423433074
30
0
41
1
10
2.41811035591397
20
17.6594447279813
30
0
41
1
10
2.49920409666979
20
17.6657581259067
30
0
41
1
10
2.52283260332803
20
17.6676124130075
30
0
41
1
10
2.55302645556449
20
17.6699693821896
30
0
41
1
10
2.56222728567954
20
17.6706852094895
30
0
41
1
10
2.5786840878591
20
17.6719552491836
30
0
41
1
10
2.58596402624031
20
17.6725113456279
30
0
41
1
10
2.5923114411882
20
17.6729878423155
30
0
0
SPLINE
5
17C
100
AcDbEntity
8
1
62
256
6
ByLayer
370
18
48
1
60
0
100
AcDbSpline
70
4
71
3
72
42
73
38
40
0
40
0
40
0
40
0
40
0.062500000000001
40
0.093750000000001
40
0.093750000000001
40
0.125000000000001
40
0.125000000000001
40
0.249999999999999
40
0.249999999999999
40
0.312499999999998
40
0.312499999999998
40
0.343749999999997
40
0.343749999999997
40
0.374999999999995
40
0.374999999999995
40
0.499999999999993
40
0.499999999999993
40
0.531249999999991
40
0.531249999999991
40
0.56249999999999
40
0.56249999999999
40
0.624999999999989
40
0.624999999999989
40
0.687499999999988
40
0.687499999999988
40
0.718749999999987
40
0.718749999999987
40
0.749999999999985
40
0.749999999999985
40
0.812499999999986
40
0.812499999999986
40
0.843749999999987
40
0.843749999999987
40
0.874999999999988
40
0.874999999999988
40
0.937499999999994
40
1
40
1
40
1
40
1
41
1
10
21.5000000000002
20
6.3098465881759
30
0
41
1
10
21.5000000000002
20
6.36846144376699
30
0
41
1
10
21.5030288967834
20
6.45644789589747
30
0
41
1
10
21.5107113151571
20
6.54453293528806
30
0
41
1
10
21.5168909161305
20
6.60327870891976
30
0
41
1
10
21.5205155734135
20
6.6327062637759
30
0
41
1
10
21.5412760854338
20
6.77937551942981
30
0
41
1
10
21.5661181077337
20
6.89440879895125
30
0
41
1
10
21.6162004096327
20
7.06337444003952
30
0
41
1
10
21.6350427401721
20
7.11909567352143
30
0
41
1
10
21.6667100261974
20
7.20172582114927
30
0
41
1
10
21.6778340372237
20
7.2291103207906
30
0
41
1
10
21.7012618395721
20
7.28354945251456
30
0
41
1
10
21.7135624912071
20
7.31058911369794
30
0
41
1
10
21.7776074192176
20
7.44388266800064
30
0
41
1
10
21.837246557862
20
7.54531245850154
30
0
41
1
10
21.9234385205369
20
7.66488784120827
30
0
41
1
10
21.9412644601735
20
7.68843898316052
30
0
41
1
10
21.97814449223
20
7.73478053268752
30
0
41
1
10
21.997241577943
20
7.75761669956694
30
0
41
1
10
22.055961133438
20
7.82435846531862
30
0
41
1
10
22.0970969730357
20
7.86663405177106
30
0
41
1
10
22.1835209649168
20
7.94655400637814
30
0
41
1
10
22.228807714728
20
7.98419993875879
30
0
41
1
10
22.3000930531687
20
8.03692665113905
30
0
41
1
10
22.3244355585763
20
8.05389027439054
30
0
41
1
10
22.3742165360196
20
8.08644642724715
30
0
41
1
10
22.3994746937083
20
8.10192241927663
30
0
41
1
10
22.4763600912405
20
8.14592686968712
30
0
41
1
10
22.5290947393204
20
8.17203947318478
30
0
41
1
10
22.6105041871722
20
8.20617452882402
30
0
41
1
10
22.638026090009
20
8.21671207124547
30
0
41
1
10
22.6938672797343
20
8.23604763122972
30
0
41
1
10
22.7222163971558
20
8.2448539126629
30
0
41
1
10
22.8083266177236
20
8.26849589446581
30
0
41
1
10
22.9239193969176
20
8.29208385361741
30
0
41
1
10
23.0410454923321
20
8.30005691076724
30
0
41
1
10
23.1000000000003
20
8.30005691076721
30
0
0
SPLINE
5
17D
100
AcDbEntity
8
1
62
256
6
ByLayer
370
18
48
1
60
0
100
AcDbSpline
70
4
71
3
72
24
73
20
40
0
40
0
40
0
40
0
40
0.250000000000008
40
0.250000000000008
40
0.312500000000013
40
0.312500000000013
40
0.375000000000019
40
0.375000000000019
40
0.500000000000009
40
0.500000000000009
40
0.624999999999999
40
0.624999999999999
40
0.74999999999999
40
0.74999999999999
40
0.81249999999999
40
0.81249999999999
40
0.874999999999991
40
0.874999999999991
40
1
40
1
40
1
40
1
41
1
10
17.643582628089
20
7.69219447126486
30
0
41
1
10
17.6682141523738
20
7.71615178142059
30
0
41
1
10
17.6889846413073
20
7.74366089557711
30
0
41
1
10
17.7096028514275
20
7.78281002250642
30
0
41
1
10
17.7134629844702
20
7.79091282624654
30
0
41
1
10
17.720479139399
20
7.80733826928463
30
0
41
1
10
17.7236520963915
20
7.81568789027924
30
0
41
1
10
17.7321586246316
20
7.84114629354468
30
0
41
1
10
17.7364872949033
20
7.85866166217715
30
0
41
1
10
17.7422604780046
20
7.89483784467129
30
0
41
1
10
17.7436815034586
20
7.91367682515576
30
0
41
1
10
17.7432740738271
20
7.95103110734146
30
0
41
1
10
17.7414963446132
20
7.96968573297946
30
0
41
1
10
17.7363695892663
20
7.99762584653445
30
0
41
1
10
17.7342485495554
20
8.00693223227032
30
0
41
1
10
17.7291359412959
20
8.02552939597922
30
0
41
1
10
17.7261657634979
20
8.03472932331039
30
0
41
1
10
17.7161357366901
20
8.06171501591732
30
0
41
1
10
17.7079282570255
20
8.07902760967161
30
0
41
1
10
17.69818105834
20
8.09565365669283
30
0
0
SPLINE
5
17E
100
AcDbEntity
8
1
62
256
6
ByLayer
370
18
48
1
60
0
100
AcDbSpline
70
4
71
3
72
24
73
20
40
0
40
0
40
0
40
0
40
0.125000000000007
40
0.125000000000007
40
0.187500000000004
40
0.187500000000004
40
0.250000000000002
40
0.250000000000002
40
0.374999999999996
40
0.374999999999996
40
0.49999999999999
40
0.49999999999999
40
0.624999999999984
40
0.624999999999984
40
0.687499999999989
40
0.687499999999989
40
0.749999999999994
40
0.749999999999994
40
1
40
1
40
1
40
1
41
1
10
17.69818105834
20
6.10449987750249
30
0
41
1
10
17.7079282570255
20
6.12112592452374
30
0
41
1
10
17.7161357366901
20
6.13843851827801
30
0
41
1
10
17.7261657634979
20
6.16542421088496
30
0
41
1
10
17.7291359412959
20
6.1746241382161
30
0
41
1
10
17.7342485495554
20
6.19322130192501
30
0
41
1
10
17.7363695892663
20
6.20252768766088
30
0
41
1
10
17.7414963446132
20
6.23046780121587
30
0
41
1
10
17.7432740738271
20
6.24912242685386
30
0
41
1
10
17.7436815034586
20
6.28647670903959
30
0
41
1
10
17.7422604780046
20
6.30531568952404
30
0
41
1
10
17.7364872949033
20
6.34149187201817
30
0
41
1
10
17.7321586246316
20
6.35900724065064
30
0
41
1
10
17.7236520963915
20
6.38446564391609
30
0
41
1
10
17.720479139399
20
6.39281526491072
30
0
41
1
10
17.7134629844702
20
6.40924070794881
30
0
41
1
10
17.7096028514275
20
6.4173435116889
30
0
41
1
10
17.6889846413073
20
6.45649263861822
30
0
41
1
10
17.6682141523738
20
6.48400175277473
30
0
41
1
10
17.643582628089
20
6.50795906293047
30
0
0
SPLINE
5
17F
100
AcDbEntity
8
1
62
256
6
ByLayer
370
18
48
1
60
0
100
AcDbSpline
70
4
71
3
72
18
73
14
40
0
40
0
40
0
40
0
40
0.249999999999996
40
0.249999999999996
40
0.374999999999993
40
0.374999999999993
40
0.437499999999994
40
0.437499999999994
40
0.499999999999994
40
0.499999999999994
40
0.749999999999997
40
0.749999999999997
40
1
40
1
40
1
40
1
41
1
10
17.4077379363
20
6.94733547372121
30
0
41
1
10
17.4160970234354
20
6.90291048424001
30
0
41
1
10
17.4278059238633
20
6.86054803941443
30
0
41
1
10
17.4497852995849
20
6.79958916915777
30
0
41
1
10
17.457853982231
20
6.77970395424464
30
0
41
1
10
17.4710409062471
20
6.75049162085423
30
0
41
1
10
17.4756174744472
20
6.74085692364051
30
0
41
1
10
17.485130709005
20
6.72178889148844
30
0
41
1
10
17.4900791241441
20
6.71233473727318
30
0
41
1
10
17.5155498531437
20
6.66586797522007
30
0
41
1
10
17.5382169974675
20
6.63124342324267
30
0
41
1
10
17.5877505294599
20
6.56636979178791
30
0
41
1
10
17.6146213965622
20
6.53612756757346
30
0
41
1
10
17.643582628089
20
6.50795906293047
30
0
0
SPLINE
5
180
100
AcDbEntity
8
1
62
256
6
ByLayer
370
18
48
1
60
0
100
AcDbSpline
70
4
71
3
72
17
73
13
40
0
40
0
40
0
40
0
40
0.250000000000015
40
0.250000000000015
40
0.500000000000029
40
0.500000000000029
40
0.562500000000028
40
0.562500000000028
40
0.625000000000027
40
0.75000000000002
40
0.75000000000002
40
1
40
1
40
1
40
1
41
1
10
17.643582628089
20
7.69219447126486
30
0
41
1
10
17.6146246036313
20
7.66402908590709
30
0
41
1
10
17.5877690589038
20
7.63380252496222
30
0
41
1
10
17.5382802616332
20
7.56899844371048
30
0
41
1
10
17.5156427078133
20
7.53442746223118
30
0
41
1
10
17.4902105226126
20
7.48806527895394
30
0
41
1
10
17.4852575520371
20
7.47861147690861
30
0
41
1
10
17.4757163583556
20
7.4595020432109
30
0
41
1
10
17.4619501115276
20
7.43053880404543
30
0
41
1
10
17.4498230334517
20
7.40066304384061
30
0
41
1
10
17.427809076327
20
7.33962615501915
30
0
41
1
10
17.4160955020358
20
7.29723496436446
30
0
41
1
10
17.4077379363
20
7.25281806047414
30
0
0
SPLINE
5
181
100
AcDbEntity
8
1
62
256
6
ByLayer
370
18
48
1
60
0
100
AcDbSpline
70
4
71
3
72
24
73
20
40
0
40
0
40
0
40
0
40
0.124999999999983
40
0.124999999999983
40
0.187499999999977
40
0.187499999999977
40
0.249999999999971
40
0.249999999999971
40
0.374999999999969
40
0.374999999999969
40
0.499999999999968
40
0.499999999999968
40
0.624999999999966
40
0.624999999999966
40
0.687499999999974
40
0.687499999999974
40
0.749999999999982
40
0.749999999999982
40
1
40
1
40
1
40
1
41
1
10
14.3018189416604
20
8.09565365669283
30
0
41
1
10
14.2920717429749
20
8.07902760967161
30
0
41
1
10
14.2838642633103
20
8.06171501591732
30
0
41
1
10
14.2738342365025
20
8.03472932331039
30
0
41
1
10
14.2708640587045
20
8.02552939597922
30
0
41
1
10
14.2657514504451
20
8.00693223227032
30
0
41
1
10
14.2636304107341
20
7.99762584653445
30
0
41
1
10
14.2585036553872
20
7.96968573297946
30
0
41
1
10
14.2567259261733
20
7.95103110734146
30
0
41
1
10
14.2563184965419
20
7.91367682515576
30
0
41
1
10
14.2577395219958
20
7.89483784467129
30
0
41
1
10
14.2635127050971
20
7.85866166217715
30
0
41
1
10
14.2678413753688
20
7.84114629354468
30
0
41
1
10
14.276347903609
20
7.81568789027924
30
0
41
1
10
14.2795208606014
20
7.8073382692846
30
0
41
1
10
14.2865370155302
20
7.79091282624654
30
0
41
1
10
14.2903971485729
20
7.78281002250642
30
0
41
1
10
14.3110153586931
20
7.74366089557711
30
0
41
1
10
14.3317858476267
20
7.71615178142059
30
0
41
1
10
14.3564173719114
20
7.69219447126486
30
0
0
SPLINE
5
182
100
AcDbEntity
8
1
62
256
6
ByLayer
370
18
48
1
60
0
100
AcDbSpline
70
4
71
3
72
24
73
20
40
0
40
0
40
0
40
0
40
0.249999999999997
40
0.249999999999997
40
0.312499999999999
40
0.312499999999999
40
0.375000000000002
40
0.375000000000002
40
0.500000000000001
40
0.500000000000001
40
0.625
40
0.625
40
0.75
40
0.75
40
0.812499999999999
40
0.812499999999999
40
0.874999999999999
40
0.874999999999999
40
1
40
1
40
1
40
1
41
1
10
14.3564173719114
20
6.50795906293047
30
0
41
1
10
14.3317858476267
20
6.48400175277473
30
0
41
1
10
14.3110153586931
20
6.45649263861822
30
0
41
1
10
14.2903971485729
20
6.4173435116889
30
0
41
1
10
14.2865370155302
20
6.40924070794881
30
0
41
1
10
14.2795208606014
20
6.39281526491072
30
0
41
1
10
14.276347903609
20
6.38446564391609
30
0
41
1
10
14.2678413753688
20
6.35900724065064
30
0
41
1
10
14.2635127050971
20
6.34149187201817
30
0
41
1
10
14.2577395219958
20
6.30531568952404
30
0
41
1
10
14.2563184965419
20
6.28647670903959
30
0
41
1
10
14.2567259261733
20
6.24912242685386
30
0
41
1
10
14.2585036553872
20
6.23046780121589
30
0
41
1
10
14.2636304107341
20
6.20252768766088
30
0
41
1
10
14.2657514504451
20
6.19322130192501
30
0
41
1
10
14.2708640587045
20
6.1746241382161
30
0
41
1
10
14.2738342365025
20
6.16542421088496
30
0
41
1
10
14.2838642633104
20
6.13843851827804
30
0
41
1
10
14.2920717429749
20
6.12112592452374
30
0
41
1
10
14.3018189416604
20
6.10449987750249
30
0
0
SPLINE
5
183
100
AcDbEntity
8
1
62
256
6
ByLayer
370
18
48
1
60
0
100
AcDbSpline
70
4
71
3
72
17
73
13
40
0
40
0
40
0
40
0
40
0.249999999999999
40
0.249999999999999
40
0.499999999999999
40
0.499999999999999
40
0.562499999999998
40
0.562499999999998
40
0.624999999999996
40
0.749999999999998
40
0.749999999999998
40
1
40
1
40
1
40
1
41
1
10
14.3564173719114
20
6.50795906293047
30
0
41
1
10
14.3853753963691
20
6.53612444828821
30
0
41
1
10
14.4122309410965
20
6.56635100923302
30
0
41
1
10
14.461719738367
20
6.63115509048464
30
0
41
1
10
14.484357292187
20
6.66572607196389
30
0
41
1
10
14.5097894773877
20
6.71208825524104
30
0
41
1
10
14.5147424479632
20
6.72154205728634
30
0
41
1
10
14.5242836416446
20
6.74065149098402
30
0
41
1
10
14.5380498884726
20
6.76961473014947
30
0
41
1
10
14.5501769665485
20
6.79949049035429
30
0
41
1
10
14.5721909236733
20
6.86052737917584
30
0
41
1
10
14.5839044979646
20
6.90291856983063
30
0
41
1
10
14.5922620637004
20
6.94733547372121
30
0
0
SPLINE
5
184
100
AcDbEntity
8
1
62
256
6
ByLayer
370
18
48
1
60
0
100
AcDbSpline
70
4
71
3
72
18
73
14
40
0
40
0
40
0
40
0
40
0.249999999999995
40
0.249999999999995
40
0.374999999999994
40
0.374999999999994
40
0.437499999999993
40
0.437499999999993
40
0.499999999999992
40
0.499999999999992
40
0.749999999999996
40
0.749999999999996
40
1
40
1
40
1
40
1
41
1
10
14.5922620637004
20
7.25281806047411
30
0
41
1
10
14.5839029765651
20
7.297243049955
30
0
41
1
10
14.5721940761373
20
7.3396054947805
30
0
41
1
10
14.5502147004156
20
7.4005643650373
30
0
41
1
10
14.5421460177695
20
7.42044957995051
30
0
41
1
10
14.5289590937533
20
7.44966191334112
30
0
41
1
10
14.5243825255532
20
7.4592966105549
30
0
41
1
10
14.5148692909953
20
7.47836464270713
30
0
41
1
10
14.5099208758561
20
7.48781879692248
30
0
41
1
10
14.4844501468566
20
7.53428555897537
30
0
41
1
10
14.4617830025329
20
7.56891011095269
30
0
41
1
10
14.4122494705405
20
7.63378374240736
30
0
41
1
10
14.3853786034383
20
7.66402596662184
30
0
41
1
10
14.3564173719114
20
7.69219447126486
30
0
0
SPLINE
5
185
100
AcDbEntity
8
1
62
256
6
ByLayer
370
18
48
1
60
0
100
AcDbSpline
70
4
71
3
72
26
73
22
40
0
40
0
40
0
40
0
40
0.125000000000025
40
0.125000000000025
40
0.250000000000049
40
0.250000000000049
40
0.31250000000005
40
0.31250000000005
40
0.375000000000051
40
0.375000000000051
40
0.500000000000029
40
0.500000000000029
40
0.562500000000026
40
0.562500000000026
40
0.625000000000022
40
0.625000000000022
40
0.750000000000015
40
0.750000000000015
40
0.875000000000007
40
0.875000000000007
40
1
40
1
40
1
40
1
41
1
10
16.0000000000002
20
9.06857676709765
30
0
41
1
10
15.9812579161205
20
9.06857676709765
30
0
41
1
10
15.9622099758792
20
9.06693956260227
30
0
41
1
10
15.9253294541459
20
9.06056204778059
30
0
41
1
10
15.9073531625209
20
9.05584955876316
30
0
41
1
10
15.8810727694394
20
9.04654215320085
30
0
41
1
10
15.8723863894372
20
9.043044292193
30
0
41
1
10
15.8555174523842
20
9.03541089733372
30
0
41
1
10
15.8473226044844
20
9.03127586636253
30
0
41
1
10
15.8234267481807
20
9.01795909651341
30
0
41
1
10
15.8084100630757
20
9.00787132959101
30
0
41
1
10
15.7872244605918
20
8.99098147418388
30
0
41
1
10
15.7804080814311
20
8.9850693844821
30
0
41
1
10
15.7674404104895
20
8.97287413894054
30
0
41
1
10
15.761259617229
20
8.96656806388305
30
0
41
1
10
15.7435909177989
20
8.94705311987346
30
0
41
1
10
15.7329717290292
20
8.93325089475974
30
0
41
1
10
15.7139986190541
20
8.9041223003376
30
0
41
1
10
15.7058188411956
20
8.8890540612839
30
0
41
1
10
15.6919779801763
20
8.85819451479756
30
0
41
1
10
15.6862980163448
20
8.84237165658578
30
0
41
1
10
15.6818380304534
20
8.826172207242
30
0
0
SPLINE
5
186
100
AcDbEntity
8
1
62
256
6
ByLayer
370
18
48
1
60
0
100
AcDbSpline
70
4
71
3
72
34
73
30
40
0
40
0
40
0
40
0
40
0.124999999999996
40
0.124999999999996
40
0.187499999999993
40
0.187499999999993
40
0.218749999999991
40
0.218749999999991
40
0.24999999999999
40
0.24999999999999
40
0.374999999999993
40
0.374999999999993
40
0.406249999999993
40
0.406249999999993
40
0.437499999999994
40
0.499999999999993
40
0.562499999999993
40
0.562499999999993
40
0.624999999999992
40
0.624999999999992
40
0.687499999999992
40
0.687499999999992
40
0.749999999999991
40
0.749999999999991
40
0.874999999999993
40
0.874999999999993
40
0.937499999999996
40
0.937499999999996
40
1
40
1
40
1
40
1
41
1
10
14.6718476620216
20
8.24752780068252
30
0
41
1
10
14.7208394593325
20
8.23441122887641
30
0
41
1
10
14.7709450984193
20
8.22577895120702
30
0
41
1
10
14.8481023724609
20
8.21986880669792
30
0
41
1
10
14.8741579501176
20
8.21908024346197
30
0
41
1
10
14.9138278946095
20
8.21980727645757
30
0
41
1
10
14.9271798085305
20
8.22037096625095
30
0
41
1
10
14.9539537358996
20
8.22216089020978
30
0
41
1
10
14.9673321899403
20
8.22338266862479
30
0
41
1
10
15.0341945419057
20
8.23114348304318
30
0
41
1
10
15.0875894365
20
8.24256661537723
30
0
41
1
10
15.1544113754506
20
8.26430941683387
30
0
41
1
10
15.1677961932242
20
8.26904591214395
30
0
41
1
10
15.1941478369936
20
8.2791414155445
30
0
41
1
10
15.2332059929601
20
8.29526705242822
30
0
41
1
10
15.2959862068404
20
8.32700113045595
30
0
41
1
10
15.3437246825775
20
8.35760757074027
30
0
41
1
10
15.3901697315485
20
8.39092645954682
30
0
41
1
10
15.4121863952646
20
8.40854108704661
30
0
41
1
10
15.4539492170248
20
8.44552278587233
30
0
41
1
10
15.473702991332
20
8.46489631742708
30
0
41
1
10
15.511060305329
20
8.50536167219977
30
0
41
1
10
15.5287068593987
20
8.52653628998914
30
0
41
1
10
15.5773730428754
20
8.59106097296768
30
0
41
1
10
15.6046398483743
20
8.63584992192864
30
0
41
1
10
15.6387924427222
20
8.70564597212615
30
0
41
1
10
15.6490658739525
20
8.7294276123603
30
0
41
1
10
15.6672193811969
20
8.77746792210093
30
0
41
1
10
15.6751020665245
20
8.80170600732492
30
0
41
1
10
15.6818380304534
20
8.826172207242
30
0
0
SPLINE
5
187
100
AcDbEntity
8
1
62
256
6
ByLayer
370
18
48
1
60
0
100
AcDbSpline
70
4
71
3
72
24
73
20
40
0
40
0
40
0
40
0
40
0.062500000000009
40
0.062500000000009
40
0.125000000000018
40
0.125000000000018
40
0.250000000000028
40
0.250000000000028
40
0.312500000000033
40
0.312500000000033
40
0.375000000000038
40
0.375000000000038
40
0.500000000000029
40
0.500000000000029
40
0.625000000000021
40
0.625000000000021
40
0.750000000000012
40
0.750000000000012
40
1
40
1
40
1
40
1
41
1
10
14.3018189416604
20
8.09565365669283
30
0
41
1
10
14.3065686621778
20
8.10375537691081
30
0
41
1
10
14.3117102110138
20
8.11172657632503
30
0
41
1
10
14.3226446784142
20
8.12716983279859
30
0
41
1
10
14.3283991722253
20
8.13459446223445
30
0
41
1
10
14.3464929435952
20
8.15600951872531
30
0
41
1
10
14.3596568946643
20
8.16914700662275
30
0
41
1
10
14.3810396271604
20
8.18715724507391
30
0
41
1
10
14.3884568790796
20
8.19288212155351
30
0
41
1
10
14.40354298116
20
8.20354768059622
30
0
41
1
10
14.4112458314834
20
8.20851930161237
30
0
41
1
10
14.4348134384499
20
8.22239199745789
30
0
41
1
10
14.4511344439338
20
8.23025748482613
30
0
41
1
10
14.4849623499586
20
8.2432670946576
30
0
41
1
10
14.5020266051042
20
8.24824182799946
30
0
41
1
10
14.5363970022406
20
8.25540075958097
30
0
41
1
10
14.5537629412522
20
8.25758607401627
30
0
41
1
10
14.6058305558702
20
8.26001597714372
30
0
41
1
10
14.6393960892918
20
8.2562160588665
30
0
41
1
10
14.6718476620216
20
8.24752780068252
30
0
0
SPLINE
5
188
100
AcDbEntity
8
1
62
256
6
ByLayer
370
18
48
1
60
0
100
AcDbSpline
70
4
71
3
72
34
73
30
40
0
40
0
40
0
40
0
40
0.125000000000004
40
0.125000000000004
40
0.187500000000006
40
0.187500000000006
40
0.218750000000006
40
0.218750000000006
40
0.250000000000007
40
0.250000000000007
40
0.375000000000006
40
0.375000000000006
40
0.406250000000005
40
0.406250000000005
40
0.437500000000004
40
0.500000000000004
40
0.562500000000003
40
0.562500000000003
40
0.625000000000003
40
0.625000000000003
40
0.687500000000003
40
0.687500000000003
40
0.750000000000003
40
0.750000000000003
40
0.875000000000002
40
0.875000000000002
40
0.937500000000001
40
0.937500000000001
40
1
40
1
40
1
40
1
41
1
10
15.6818380304534
20
5.37398132695336
30
0
41
1
10
15.668375604416
20
5.4228792145133
30
0
41
1
10
15.6504813479257
20
5.47047004040192
30
0
41
1
10
15.6165572925046
20
5.5400209806071
30
0
41
1
10
15.6040598537766
20
5.5628973662009
30
0
41
1
10
15.583369421828
20
5.59675204452796
30
0
41
1
10
15.5761303535398
20
5.60798535585516
30
0
41
1
10
15.5610452042169
20
5.63017736337244
30
0
41
1
10
15.5532249960407
20
5.64110073745158
30
0
41
1
10
15.5127140095091
20
5.6948563322731
30
0
41
1
10
15.4758548429777
20
5.73514162224336
30
0
41
1
10
15.423302342232
20
5.78179091157787
30
0
41
1
10
15.4124468477994
20
5.79094219317028
30
0
41
1
10
15.39041023244
20
5.80856932568682
30
0
41
1
10
15.3567451854697
20
5.8341083183322
30
0
41
1
10
15.2976173881466
20
5.87221750890495
30
0
41
1
10
15.2470701322237
20
5.89792135818001
30
0
41
1
10
15.1948368936119
20
5.92113730439502
30
0
41
1
10
15.1685061336952
20
5.93122191824264
30
0
41
1
10
15.1154811300861
20
5.94854612877498
30
0
41
1
10
15.0887774643555
20
5.95578902721351
30
0
41
1
10
15.0349752898998
20
5.96755083167756
30
0
41
1
10
15.0077836029232
20
5.97206497125882
30
0
41
1
10
14.9275064791059
20
5.98141458163303
30
0
41
1
10
14.8750777532938
20
5.98228485395168
30
0
41
1
10
14.7975934411141
20
5.97644789914492
30
0
41
1
10
14.7718817194635
20
5.97328289770374
30
0
41
1
10
14.7212572052778
20
5.96464694146772
30
0
41
1
10
14.6963608490403
20
5.9591886480286
30
0
41
1
10
14.6718476620216
20
5.9526257335128
30
0
0
SPLINE
5
189
100
AcDbEntity
8
1
62
256
6
ByLayer
370
18
48
1
60
0
100
AcDbSpline
70
4
71
3
72
24
73
20
40
0
40
0
40
0
40
0
40
0.0625000000000015
40
0.0625000000000015
40
0.125000000000003
40
0.125000000000003
40
0.250000000000004
40
0.250000000000004
40
0.312500000000006
40
0.312500000000006
40
0.375000000000008
40
0.375000000000008
40
0.500000000000006
40
0.500000000000006
40
0.625000000000003
40
0.625000000000003
40
0.750000000000001
40
0.750000000000001
40
1
40
1
40
1
40
1
41
1
10
14.3018189416604
20
6.10449987750249
30
0
41
1
10
14.3065686621778
20
6.09639815728451
30
0
41
1
10
14.3117102110138
20
6.08842695787033
30
0
41
1
10
14.3226446784142
20
6.07298370139677
30
0
41
1
10
14.3283991722253
20
6.06555907196088
30
0
41
1
10
14.3464929435952
20
6.04414401547001
30
0
41
1
10
14.3596568946643
20
6.03100652757257
30
0
41
1
10
14.3810396271604
20
6.01299628912145
30
0
41
1
10
14.3884568790796
20
6.00727141264181
30
0
41
1
10
14.40354298116
20
5.99660585359911
30
0
41
1
10
14.4112458314834
20
5.99163423258298
30
0
41
1
10
14.4348134384499
20
5.97776153673743
30
0
41
1
10
14.4511344439338
20
5.9698960493692
30
0
41
1
10
14.4849623499586
20
5.95688643953773
30
0
41
1
10
14.5020266051042
20
5.95191170619586
30
0
41
1
10
14.5363970022406
20
5.94475277461436
30
0
41
1
10
14.5537629412522
20
5.94256746017905
30
0
41
1
10
14.6058305558702
20
5.9401375570516
30
0
41
1
10
14.6393960892918
20
5.94393747532885
30
0
41
1
10
14.6718476620216
20
5.9526257335128
30
0
0
SPLINE
5
18A
100
AcDbEntity
8
1
62
256
6
ByLayer
370
18
48
1
60
0
100
AcDbSpline
70
4
71
3
72
26
73
22
40
0
40
0
40
0
40
0
40
0.250000000000045
40
0.250000000000045
40
0.312500000000046
40
0.312500000000046
40
0.375000000000047
40
0.375000000000047
40
0.500000000000054
40
0.500000000000054
40
0.562500000000049
40
0.562500000000049
40
0.625000000000043
40
0.625000000000043
40
0.750000000000052
40
0.750000000000052
40
0.812500000000045
40
0.812500000000045
40
0.875000000000038
40
0.875000000000038
40
1
40
1
40
1
40
1
41
1
10
15.6818380304534
20
5.37398132695336
30
0
41
1
10
15.6907807694533
20
5.34149973374863
30
0
41
1
10
15.7045123677412
20
5.31061307736579
30
0
41
1
10
15.7281646611712
20
5.27427824977588
30
0
41
1
10
15.7332504932271
20
5.26709930967351
30
0
41
1
10
15.7439469908239
20
5.25321737253714
30
0
41
1
10
15.7495666009291
20
5.24649517265073
30
0
41
1
10
15.7672404966509
20
5.22699004078862
30
0
41
1
10
15.7801042158834
20
5.21486395846122
30
0
41
1
10
15.8011189451323
20
5.19808736034847
30
0
41
1
10
15.8084116893911
20
5.19273164990443
30
0
41
1
10
15.8236083865564
20
5.18252520106128
30
0
41
1
10
15.831458829289
20
5.17771465419338
30
0
41
1
10
15.8554562271621
20
5.16435227415914
30
0
41
1
10
15.8721665003506
20
5.15677986305292
30
0
41
1
10
15.8983294895868
20
5.14749278724631
30
0
41
1
10
15.9072343299038
20
5.14474403551498
30
0
41
1
10
15.925429230257
20
5.13997507299376
30
0
41
1
10
15.9347154010503
20
5.13796224159313
30
0
41
1
10
15.9625187231476
20
5.13317318338426
30
0
41
1
10
15.9811910467102
20
5.13157676709767
30
0
41
1
10
16.0000000000002
20
5.13157676709767
30
0
0
SPLINE
5
18B
100
AcDbEntity
8
1
62
256
6
ByLayer
370
18
48
1
60
0
100
AcDbSpline
70
4
71
3
72
26
73
22
40
0
40
0
40
0
40
0
40
0.250000000000049
40
0.250000000000049
40
0.312500000000051
40
0.312500000000051
40
0.375000000000053
40
0.375000000000053
40
0.500000000000058
40
0.500000000000058
40
0.562500000000054
40
0.562500000000054
40
0.625000000000049
40
0.625000000000049
40
0.750000000000054
40
0.750000000000054
40
0.812500000000046
40
0.812500000000046
40
0.875000000000038
40
0.875000000000038
40
1
40
1
40
1
40
1
41
1
10
16.318161969547
20
8.826172207242
30
0
41
1
10
16.3092192305471
20
8.85865380044669
30
0
41
1
10
16.2954876322593
20
8.88954045682956
30
0
41
1
10
16.2718353388292
20
8.92587528441948
30
0
41
1
10
16.2667495067734
20
8.93305422452184
30
0
41
1
10
16.2560530091765
20
8.94693616165819
30
0
41
1
10
16.2504333990713
20
8.9536583615446
30
0
41
1
10
16.2327595033495
20
8.9731634934067
30
0
41
1
10
16.219895784117
20
8.98528957573413
30
0
41
1
10
16.1988810548682
20
9.00206617384686
30
0
41
1
10
16.1915883106093
20
9.00742188429089
30
0
41
1
10
16.1763916134441
20
9.01762833313404
30
0
41
1
10
16.1685411707115
20
9.02243888000194
30
0
41
1
10
16.1445437728383
20
9.03580126003618
30
0
41
1
10
16.1278334996498
20
9.0433736711424
30
0
41
1
10
16.1016705104136
20
9.05266074694902
30
0
41
1
10
16.0927656700967
20
9.05540949868038
30
0
41
1
10
16.0745707697435
20
9.06017846120156
30
0
41
1
10
16.0652845989501
20
9.06219129260219
30
0
41
1
10
16.0374812768528
20
9.06698035081106
30
0
41
1
10
16.0188089532902
20
9.06857676709765
30
0
41
1
10
16.0000000000002
20
9.06857676709765
30
0
0
SPLINE
5
18C
100
AcDbEntity
8
1
62
256
6
ByLayer
370
18
48
1
60
0
100
AcDbSpline
70
4
71
3
72
34
73
30
40
0
40
0
40
0
40
0
40
0.124999999999988
40
0.124999999999988
40
0.187499999999982
40
0.187499999999982
40
0.218749999999981
40
0.218749999999981
40
0.249999999999979
40
0.249999999999979
40
0.374999999999966
40
0.374999999999966
40
0.406249999999964
40
0.406249999999964
40
0.437499999999963
40
0.499999999999968
40
0.562499999999973
40
0.562499999999973
40
0.624999999999977
40
0.624999999999977
40
0.687499999999982
40
0.687499999999982
40
0.749999999999986
40
0.749999999999986
40
0.874999999999994
40
0.874999999999994
40
0.937499999999997
40
0.937499999999997
40
1
40
1
40
1
40
1
41
1
10
16.318161969547
20
8.826172207242
30
0
41
1
10
16.3316243955845
20
8.77727431968202
30
0
41
1
10
16.3495186520748
20
8.7296834937934
30
0
41
1
10
16.3834427074958
20
8.66013255358823
30
0
41
1
10
16.3959401462238
20
8.63725616799442
30
0
41
1
10
16.4166305781724
20
8.60340148966739
30
0
41
1
10
16.4238696464606
20
8.59216817834016
30
0
41
1
10
16.4389547957835
20
8.56997617082288
30
0
41
1
10
16.4467750039597
20
8.55905279674374
30
0
41
1
10
16.4872859904913
20
8.50529720192222
30
0
41
1
10
16.5241451570227
20
8.46501191195196
30
0
41
1
10
16.5766976577684
20
8.41836262261748
30
0
41
1
10
16.587553152201
20
8.40921134102504
30
0
41
1
10
16.6095897675604
20
8.39158420850853
30
0
41
1
10
16.6432548145307
20
8.36604521586312
30
0
41
1
10
16.7023826118538
20
8.32793602529037
30
0
41
1
10
16.7529298677767
20
8.30223217601531
30
0
41
1
10
16.8051631063886
20
8.27901622980031
30
0
41
1
10
16.8314938663053
20
8.26893161595268
30
0
41
1
10
16.8845188699143
20
8.25160740542034
30
0
41
1
10
16.9112225356449
20
8.24436450698181
30
0
41
1
10
16.9650247101006
20
8.23260270251777
30
0
41
1
10
16.9922163970772
20
8.22808856293651
30
0
41
1
10
17.0724935208945
20
8.21873895256229
30
0
41
1
10
17.1249222467067
20
8.21786868024364
30
0
41
1
10
17.2024065588864
20
8.22370563505041
30
0
41
1
10
17.2281182805369
20
8.22687063649158
30
0
41
1
10
17.2787427947226
20
8.2355065927276
30
0
41
1
10
17.3036391509602
20
8.24096488616675
30
0
41
1
10
17.3281523379788
20
8.24752780068252
30
0
0
SPLINE
5
18D
100
AcDbEntity
8
1
62
256
6
ByLayer
370
18
48
1
60
0
100
AcDbSpline
70
4
71
3
72
24
73
20
40
0
40
0
40
0
40
0
40
0.0625000000000032
40
0.0625000000000032
40
0.125000000000006
40
0.125000000000006
40
0.249999999999999
40
0.249999999999999
40
0.312499999999995
40
0.312499999999995
40
0.374999999999991
40
0.374999999999991
40
0.499999999999992
40
0.499999999999992
40
0.624999999999993
40
0.624999999999993
40
0.749999999999994
40
0.749999999999994
40
1
40
1
40
1
40
1
41
1
10
17.69818105834
20
8.09565365669283
30
0
41
1
10
17.6934313378226
20
8.10375537691081
30
0
41
1
10
17.6882897889867
20
8.11172657632503
30
0
41
1
10
17.6773553215862
20
8.12716983279859
30
0
41
1
10
17.6716008277752
20
8.13459446223445
30
0
41
1
10
17.6535070564052
20
8.15600951872531
30
0
41
1
10
17.6403431053361
20
8.16914700662275
30
0
41
1
10
17.61896037284
20
8.18715724507391
30
0
41
1
10
17.6115431209207
20
8.19288212155351
30
0
41
1
10
17.5964570188404
20
8.20354768059622
30
0
41
1
10
17.588754168517
20
8.20851930161237
30
0
41
1
10
17.5651865615505
20
8.22239199745789
30
0
41
1
10
17.5488655560666
20
8.23025748482613
30
0
41
1
10
17.5150376500418
20
8.2432670946576
30
0
41
1
10
17.4979733948962
20
8.24824182799946
30
0
41
1
10
17.4636029977599
20
8.25540075958097
30
0
41
1
10
17.4462370587482
20
8.25758607401627
30
0
41
1
10
17.3941694441302
20
8.26001597714372
30
0
41
1
10
17.3606039107087
20
8.2562160588665
30
0
41
1
10
17.3281523379788
20
8.24752780068252
30
0
0
SPLINE
5
18E
100
AcDbEntity
8
1
62
256
6
ByLayer
370
18
48
1
60
0
100
AcDbSpline
70
4
71
3
72
34
73
30
40
0
40
0
40
0
40
0
40
0.124999999999998
40
0.124999999999998
40
0.187499999999998
40
0.187499999999998
40
0.218749999999997
40
0.218749999999997
40
0.249999999999997
40
0.249999999999997
40
0.374999999999995
40
0.374999999999995
40
0.406249999999998
40
0.406249999999998
40
0.437500000000001
40
0.500000000000001
40
0.562500000000001
40
0.562500000000001
40
0.625000000000001
40
0.625000000000001
40
0.6875
40
0.6875
40
0.75
40
0.75
40
0.875000000000002
40
0.875000000000002
40
0.937500000000001
40
0.937500000000001
40
1
40
1
40
1
40
1
41
1
10
17.3281523379788
20
5.9526257335128
30
0
41
1
10
17.2791605406679
20
5.96574230531894
30
0
41
1
10
17.2290549015812
20
5.9743745829883
30
0
41
1
10
17.1518976275395
20
5.98028472749741
30
0
41
1
10
17.1258420498828
20
5.98107329073335
30
0
41
1
10
17.0861721053909
20
5.98034625773778
30
0
41
1
10
17.0728201914699
20
5.97978256794437
30
0
41
1
10
17.0460462641008
20
5.97799264398554
30
0
41
1
10
17.0326678100601
20
5.97677086557053
30
0
41
1
10
16.9658054580948
20
5.96901005115214
30
0
41
1
10
16.9124105635004
20
5.9575869188181
30
0
41
1
10
16.8455886245498
20
5.93584411736146
30
0
41
1
10
16.8322038067762
20
5.93110762205137
30
0
41
1
10
16.8058521630068
20
5.92101211865082
30
0
41
1
10
16.7667940070404
20
5.90488648176711
30
0
41
1
10
16.7040139333801
20
5.8731521267666
30
0
41
1
10
16.6562753174229
20
5.84254596345505
30
0
41
1
10
16.6098302684519
20
5.8092270746485
30
0
41
1
10
16.5878136047358
20
5.79161244714874
30
0
41
1
10
16.5460507829757
20
5.754630748323
30
0
41
1
10
16.5262970086684
20
5.73525721676825
30
0
41
1
10
16.4889396946715
20
5.69479186199555
30
0
41
1
10
16.4712931406017
20
5.67361724420621
30
0
41
1
10
16.422626957125
20
5.60909256122764
30
0
41
1
10
16.3953601516261
20
5.56430361226668
30
0
41
1
10
16.3612075572782
20
5.4945075620692
30
0
41
1
10
16.3509341260479
20
5.47072592183505
30
0
41
1
10
16.3327806188035
20
5.4226856120944
30
0
41
1
10
16.3248979334759
20
5.3984475268704
30
0
41
1
10
16.318161969547
20
5.37398132695336
30
0
0
SPLINE
5
18F
100
AcDbEntity
8
1
62
256
6
ByLayer
370
18
48
1
60
0
100
AcDbSpline
70
4
71
3
72
26
73
22
40
0
40
0
40
0
40
0
40
0.125000000000025
40
0.125000000000025
40
0.25000000000005
40
0.25000000000005
40
0.312500000000053
40
0.312500000000053
40
0.375000000000056
40
0.375000000000056
40
0.500000000000036
40
0.500000000000036
40
0.562500000000033
40
0.562500000000033
40
0.62500000000003
40
0.62500000000003
40
0.75000000000002
40
0.75000000000002
40
0.87500000000001
40
0.87500000000001
40
1
40
1
40
1
40
1
41
1
10
16.0000000000002
20
5.13157676709767
30
0
41
1
10
16.0187420838799
20
5.13157676709767
30
0
41
1
10
16.0377900241212
20
5.13321397159308
30
0
41
1
10
16.0746705458546
20
5.13959148641473
30
0
41
1
10
16.0926468374795
20
5.14430397543217
30
0
41
1
10
16.118927230561
20
5.15361138099451
30
0
41
1
10
16.1276136105631
20
5.15710924200232
30
0
41
1
10
16.1444825476162
20
5.16474263686163
30
0
41
1
10
16.152677395516
20
5.16887766783279
30
0
41
1
10
16.1765732518197
20
5.18219443768194
30
0
41
1
10
16.1915899369248
20
5.19228220460431
30
0
41
1
10
16.2127755394086
20
5.20917206001144
30
0
41
1
10
16.2195919185693
20
5.21508414971322
30
0
41
1
10
16.2325595895109
20
5.22727939525478
30
0
41
1
10
16.2387403827714
20
5.23358547031231
30
0
41
1
10
16.2564090822015
20
5.25310041432186
30
0
41
1
10
16.2670282709713
20
5.26690263943559
30
0
41
1
10
16.2860013809463
20
5.29603123385775
30
0
41
1
10
16.2941811588048
20
5.31109947291142
30
0
41
1
10
16.3080220198241
20
5.34195901939776
30
0
41
1
10
16.3137019836556
20
5.35778187760957
30
0
41
1
10
16.318161969547
20
5.37398132695336
30
0
0
SPLINE
5
190
100
AcDbEntity
8
1
62
256
6
ByLayer
370
18
48
1
60
0
100
AcDbSpline
70
4
71
3
72
24
73
20
40
0
40
0
40
0
40
0
40
0.062499999999993
40
0.062499999999993
40
0.124999999999986
40
0.124999999999986
40
0.24999999999999
40
0.24999999999999
40
0.312499999999991
40
0.312499999999991
40
0.374999999999991
40
0.374999999999991
40
0.499999999999992
40
0.499999999999992
40
0.624999999999993
40
0.624999999999993
40
0.749999999999993
40
0.749999999999993
40
1
40
1
40
1
40
1
41
1
10
17.69818105834
20
6.10449987750249
30
0
41
1
10
17.6934313378226
20
6.09639815728451
30
0
41
1
10
17.6882897889867
20
6.08842695787033
30
0
41
1
10
17.6773553215862
20
6.07298370139677
30
0
41
1
10
17.6716008277752
20
6.06555907196088
30
0
41
1
10
17.6535070564052
20
6.04414401547001
30
0
41
1
10
17.6403431053361
20
6.03100652757257
30
0
41
1
10
17.61896037284
20
6.01299628912145
30
0
41
1
10
17.6115431209207
20
6.00727141264181
30
0
41
1
10
17.5964570188404
20
5.99660585359911
30
0
41
1
10
17.588754168517
20
5.99163423258298
30
0
41
1
10
17.5651865615505
20
5.97776153673743
30
0
41
1
10
17.5488655560666
20
5.9698960493692
30
0
41
1
10
17.5150376500418
20
5.95688643953773
30
0
41
1
10
17.4979733948962
20
5.95191170619586
30
0
41
1
10
17.4636029977599
20
5.94475277461436
30
0
41
1
10
17.4462370587482
20
5.94256746017905
30
0
41
1
10
17.3941694441302
20
5.9401375570516
30
0
41
1
10
17.3606039107087
20
5.94393747532885
30
0
41
1
10
17.3281523379788
20
5.9526257335128
30
0
0
LINE
5
7D
100
AcDbEntity
8
81
62
256
6
ByLayer
370
18
48
1
60
0
100
AcDbLine
10
41.1
20
18
30
0
11
46.1
21
18
31
0
39
0
210
0
220
0
230
1
0
LINE
5
7E
100
AcDbEntity
8
80
62
256
6
ByLayer
370
18
48
1
60
0
100
AcDbLine
10
0
20
0
30
0
11
0
21
-5
31
0
39
0
210
0
220
0
230
1
0
LINE
5
7F
100
AcDbEntity
8
1
62
256
6
ByLayer
370
18
48
1
60
0
100
AcDbLine
10
16
20
0.675
30
0
11
16
21
0.875
31
0
39
0
210
0
220
0
230
1
0
LINE
5
80
100
AcDbEntity
8
1
62
256
6
ByLayer
370
18
48
1
60
0
100
AcDbLine
10
14.927405
20
17.67511
30
0
11
13.128306
21
17.67511
31
0
39
0
210
0
220
0
230
1
0
LINE
5
81
100
AcDbEntity
8
1
62
256
6
ByLayer
370
18
48
1
60
0
100
AcDbLine
10
-2.618617
20
17.67511
30
0
11
-3.42489
21
17.67511
31
0
39
0
210
0
220
0
230
1
0
LINE
5
82
100
AcDbEntity
8
1
62
256
6
ByLayer
370
18
48
1
60
0
100
AcDbLine
10
37.1
20
14.16147
30
0
11
36.68649
21
14.400197
31
0
39
0
210
0
220
0
230
1
0
LINE
5
83
100
AcDbEntity
8
1
62
256
6
ByLayer
370
13
48
1
60
0
100
AcDbLine
10
33.100085
20
16.027356
30
0
11
34.037861
21
16.027356
31
0
39
0
210
0
220
0
230
1
0
LINE
5
84
100
AcDbEntity
8
1
62
256
6
ByLayer
370
13
48
1
60
0
100
AcDbLine
10
33.09983
20
15.987359
30
0
11
34.037861
21
15.987359
31
0
39
0
210
0
220
0
230
1
0
LINE
5
85
100
AcDbEntity
8
1
62
256
6
ByLayer
370
13
48
1
60
0
100
AcDbLine
10
33.10136
20
16.218175
30
0
11
34.028946
21
16.218175
31
0
39
0
210
0
220
0
230
1
0
LINE
5
86
100
AcDbEntity
8
1
62
256
6
ByLayer
370
13
48
1
60
0
100
AcDbLine
10
33.098561
20
15.796727
30
0
11
34.028946
21
15.796727
31
0
39
0
210
0
220
0
230
1
0
LINE
5
87
100
AcDbEntity
8
1
62
256
6
ByLayer
370
13
48
1
60
0
100
AcDbLine
10
33.010754
20
16.437045
30
0
11
33.848945
21
16.437045
31
0
39
0
210
0
220
0
230
1
0
LINE
5
88
100
AcDbEntity
8
1
62
256
6
ByLayer
370
13
48
1
60
0
100
AcDbLine
10
32.993203
20
15.581627
30
0
11
33.848945
21
15.581627
31
0
39
0
210
0
220
0
230
1
0
LINE
5
89
100
AcDbEntity
8
1
62
256
6
ByLayer
370
13
48
1
60
0
100
AcDbLine
10
33.690119
20
16.494058
30
0
11
32.895026
21
16.494058
31
0
39
0
210
0
220
0
230
1
0
LINE
5
8A
100
AcDbEntity
8
1
62
256
6
ByLayer
370
13
48
1
60
0
100
AcDbLine
10
33.690119
20
15.52794
30
0
11
32.878245
21
15.52794
31
0
39
0
210
0
220
0
230
1
0
LINE
5
8B
100
AcDbEntity
8
1
62
256
6
ByLayer
370
13
48
1
60
0
100
AcDbLine
10
32.853671
20
16.525284
30
0
11
33.649523
21
16.525284
31
0
39
0
210
0
220
0
230
1
0
LINE
5
8C
100
AcDbEntity
8
1
62
256
6
ByLayer
370
13
48
1
60
0
100
AcDbLine
10
32.845307
20
15.497565
30
0
11
33.649523
21
15.497565
31
0
39
0
210
0
220
0
230
1
0
LINE
5
8D
100
AcDbEntity
8
1
62
256
6
ByLayer
370
13
48
1
60
0
100
AcDbLine
10
32.841304
20
16.617808
30
0
11
33.577691
21
16.617808
31
0
39
0
210
0
220
0
230
1
0
LINE
5
8E
100
AcDbEntity
8
1
62
256
6
ByLayer
370
13
48
1
60
0
100
AcDbLine
10
32.831815
20
15.406545
30
0
11
33.577691
21
15.406545
31
0
39
0
210
0
220
0
230
1
0
LINE
5
8F
100
AcDbEntity
8
1
62
256
6
ByLayer
370
13
48
1
60
0
100
AcDbLine
10
32.835336
20
16.662281
30
0
11
33.557959
21
16.662281
31
0
39
0
210
0
220
0
230
1
0
LINE
5
90
100
AcDbEntity
8
1
62
256
6
ByLayer
370
13
48
1
60
0
100
AcDbLine
10
32.740161
20
17.37235
30
0
11
33.434518
21
17.37235
31
0
39
0
210
0
220
0
230
1
0
LINE
5
91
100
AcDbEntity
8
1
62
256
6
ByLayer
370
13
48
1
60
0
100
AcDbLine
10
32.742519
20
17.35497
30
0
11
33.436037
21
17.35497
31
0
39
0
210
0
220
0
230
1
0
LINE
5
92
100
AcDbEntity
8
1
62
256
6
ByLayer
370
13
48
1
60
0
100
AcDbLine
10
32.825265
20
15.362485
30
0
11
33.557959
21
15.362485
31
0
39
0
210
0
220
0
230
1
0
LINE
5
93
100
AcDbEntity
8
1
62
256
6
ByLayer
370
13
48
1
60
0
100
AcDbLine
10
32.719246
20
14.672349
30
0
11
33.436037
21
14.672349
31
0
39
0
210
0
220
0
230
1
0
LINE
5
94
100
AcDbEntity
8
1
62
256
6
ByLayer
370
18
48
1
60
0
100
AcDbLine
10
33.434518
20
17.613588
30
0
11
33.434518
21
17.37235
31
0
39
0
210
0
220
0
230
1
0
LINE
5
95
100
AcDbEntity
8
1
62
256
6
ByLayer
370
18
48
1
60
0
100
AcDbLine
10
33.436037
20
17.35497
30
0
11
33.557959
21
16.662281
31
0
39
0
210
0
220
0
230
1
0
LINE
5
96
100
AcDbEntity
8
1
62
256
6
ByLayer
370
18
48
1
60
0
100
AcDbLine
10
33.577691
20
16.617808
30
0
11
33.649523
21
16.525284
31
0
39
0
210
0
220
0
230
1
0
LINE
5
97
100
AcDbEntity
8
1
62
256
6
ByLayer
370
18
48
1
60
0
100
AcDbLine
10
34.037861
20
15.987359
30
0
11
34.037861
21
16.027356
31
0
39
0
210
0
220
0
230
1
0
LINE
5
98
100
AcDbEntity
8
1
62
256
6
ByLayer
370
18
48
1
60
0
100
AcDbLine
10
33.577691
20
15.406545
30
0
11
33.649523
21
15.497565
31
0
39
0
210
0
220
0
230
1
0
LINE
5
99
100
AcDbEntity
8
1
62
256
6
ByLayer
370
18
48
1
60
0
100
AcDbLine
10
33.436037
20
14.672349
30
0
11
33.557959
21
15.362485
31
0
39
0
210
0
220
0
230
1
0
LINE
5
9A
100
AcDbEntity
8
1
62
256
6
ByLayer
370
18
48
1
60
0
100
AcDbLine
10
34.73
20
14.400197
30
0
11
34.73
21
17.600022
31
0
39
0
210
0
220
0
230
1
0
LINE
5
9B
100
AcDbEntity
8
1
62
256
6
ByLayer
370
13
48
1
60
0
100
AcDbLine
10
32.716592
20
14.655001
30
0
11
33.434518
21
14.655001
31
0
39
0
210
0
220
0
230
1
0
LINE
5
9C
100
AcDbEntity
8
1
62
256
6
ByLayer
370
18
48
1
60
0
100
AcDbLine
10
33.434518
20
14.413763
30
0
11
33.434518
21
14.655001
31
0
39
0
210
0
220
0
230
1
0
LINE
5
9D
100
AcDbEntity
8
1
62
256
6
ByLayer
370
18
48
1
60
0
100
AcDbLine
10
34.73
20
14.400197
30
0
11
33.434518
21
14.413763
31
0
39
0
210
0
220
0
230
1
0
LINE
5
9E
100
AcDbEntity
8
1
62
256
6
ByLayer
370
18
48
1
60
0
100
AcDbLine
10
32.677916
20
14.413763
30
0
11
33.434518
21
14.413763
31
0
39
0
210
0
220
0
230
1
0
LINE
5
9F
100
AcDbEntity
8
1
62
256
6
ByLayer
370
18
48
1
60
0
100
AcDbLine
10
34.73
20
14.400197
30
0
11
36.68649
21
14.400197
31
0
39
0
210
0
220
0
230
1
0
LINE
5
A0
100
AcDbEntity
8
1
62
256
6
ByLayer
370
18
48
1
60
0
100
AcDbLine
10
37.1
20
17.838749
30
0
11
36.68649
21
17.600022
31
0
39
0
210
0
220
0
230
1
0
LINE
5
A1
100
AcDbEntity
8
1
62
256
6
ByLayer
370
18
48
1
60
0
100
AcDbLine
10
20.1
20
17.838749
30
0
11
20.458992
21
17.631497
31
0
39
0
210
0
220
0
230
1
0
LINE
5
A2
100
AcDbEntity
8
1
62
256
6
ByLayer
370
18
48
1
60
0
100
AcDbLine
10
16.1
20
17.633933
30
0
11
16.1
21
17.700016
31
0
39
0
210
0
220
0
230
1
0
LINE
5
A3
100
AcDbEntity
8
1
62
256
6
ByLayer
370
18
48
1
60
0
100
AcDbLine
10
41.1
20
14.300203
30
0
11
41.1
21
17.700016
31
0
39
0
210
0
220
0
230
1
0
LINE
5
A4
100
AcDbEntity
8
1
62
256
6
ByLayer
370
18
48
1
60
0
100
AcDbLine
10
40.786914
20
14.000505
30
0
11
37.1
21
14.16147
31
0
39
0
210
0
220
0
230
1
0
LINE
5
A5
100
AcDbEntity
8
1
62
256
6
ByLayer
370
18
48
1
60
0
100
AcDbLine
10
16.413086
20
17.999714
30
0
11
20.1
21
17.838749
31
0
39
0
210
0
220
0
230
1
0
LINE
5
A6
100
AcDbEntity
8
1
62
256
6
ByLayer
370
18
48
1
60
0
100
AcDbLine
10
40.786914
20
17.999714
30
0
11
37.1
21
17.838749
31
0
39
0
210
0
220
0
230
1
0
LINE
5
A7
100
AcDbEntity
8
1
62
256
6
ByLayer
370
18
48
1
60
0
100
AcDbLine
10
36.767972
20
14.353122
30
0
11
32.66791
21
14.353122
31
0
39
0
210
0
220
0
230
1
0
LINE
5
A8
100
AcDbEntity
8
1
62
256
6
ByLayer
370
18
48
1
60
0
100
AcDbLine
10
34.73
20
17.600022
30
0
11
36.68649
21
17.600022
31
0
39
0
210
0
220
0
230
1
0
LINE
5
A9
100
AcDbEntity
8
1
62
256
6
ByLayer
370
18
48
1
60
0
100
AcDbLine
10
32.707981
20
17.613588
30
0
11
33.434518
21
17.613588
31
0
39
0
210
0
220
0
230
1
0
LINE
5
AA
100
AcDbEntity
8
1
62
256
6
ByLayer
370
18
48
1
60
0
100
AcDbLine
10
34.73
20
17.600022
30
0
11
33.434518
21
17.613588
31
0
39
0
210
0
220
0
230
1
0
LINE
5
AB
100
AcDbEntity
8
1
62
256
6
ByLayer
370
18
48
1
60
0
100
AcDbLine
10
6.60048
20
-0.324981
30
0
11
9.132847
21
-0.324981
31
0
39
0
210
0
220
0
230
1
0
LINE
5
AC
100
AcDbEntity
8
1
62
256
6
ByLayer
370
18
48
1
60
0
100
AcDbLine
10
40.1
20
14.003962
30
0
11
40.1
21
13.056635
31
0
39
0
210
0
220
0
230
1
0
LINE
5
AD
100
AcDbEntity
8
1
62
256
6
ByLayer
370
18
48
1
60
0
100
AcDbLine
10
31.436299
20
13.996683
30
0
11
29.493642
21
13.996683
31
0
39
0
210
0
220
0
230
1
0
LINE
5
AE
100
AcDbEntity
8
1
62
256
6
ByLayer
370
18
48
1
60
0
100
AcDbLine
10
9.404549
20
-0.324981
30
0
11
9.476736
21
-0.324981
31
0
39
0
210
0
220
0
230
1
0
LINE
5
AF
100
AcDbEntity
8
1
62
256
6
ByLayer
370
18
48
1
60
0
100
AcDbLine
10
40.1
20
14.003962
30
0
11
40.1
21
14.030504
31
0
39
0
210
0
220
0
230
1
0
LINE
5
B0
100
AcDbEntity
8
1
62
256
6
ByLayer
370
18
48
1
60
0
100
AcDbLine
10
40.1
20
14.003962
30
0
11
33.905922
21
14.003962
31
0
39
0
210
0
220
0
230
1
0
LINE
5
B1
100
AcDbEntity
8
1
62
256
6
ByLayer
370
18
48
1
60
0
100
AcDbLine
10
33.905922
20
14.003962
30
0
11
33.9053
21
14.353142
31
0
39
0
210
0
220
0
230
1
0
LINE
5
B2
100
AcDbEntity
8
1
62
256
6
ByLayer
370
18
48
1
60
0
100
AcDbLine
10
31.436299
20
13.996683
30
0
11
31.435916
21
14.211927
31
0
39
0
210
0
220
0
230
1
0
LINE
5
B3
100
AcDbEntity
8
1
62
256
6
ByLayer
370
13
48
1
60
0
100
AcDbLine
10
23.1
20
12.757512
30
0
11
23.1
21
8.300057
31
0
39
0
210
0
220
0
230
1
0
LINE
5
B4
100
AcDbEntity
8
1
62
256
6
ByLayer
370
18
48
1
60
0
100
AcDbLine
10
6.714371
20
-0.25
30
0
11
9.530813
21
-0.25
31
0
39
0
210
0
220
0
230
1
0
LINE
5
B5
100
AcDbEntity
8
1
62
256
6
ByLayer
370
18
48
1
60
0
100
AcDbLine
10
9.57055
20
-0.324981
30
0
11
14.717168
21
-0.324981
31
0
39
0
210
0
220
0
230
1
0
LINE
5
B6
100
AcDbEntity
8
1
62
256
6
ByLayer
370
13
48
1
60
0
100
AcDbLine
10
6.71446
20
-0.249981
30
0
11
14.818469
21
-0.249981
31
0
39
0
210
0
220
0
230
1
0
LINE
5
B7
100
AcDbEntity
8
1
62
256
6
ByLayer
370
18
48
1
60
0
100
AcDbLine
10
15.243082
20
0.129904
30
0
11
7.290539
21
0.129904
31
0
39
0
210
0
220
0
230
1
0
LINE
5
B8
100
AcDbEntity
8
1
62
256
6
ByLayer
370
18
48
1
60
0
100
AcDbLine
10
-14.075019
20
-0.249981
30
0
11
-14.000019
21
-0.324981
31
0
39
0
210
0
220
0
230
1
0
LINE
5
B9
100
AcDbEntity
8
1
62
256
6
ByLayer
370
18
48
1
60
0
100
AcDbLine
10
-14.000019
20
-0.324981
30
0
11
-13.791283
21
-0.324981
31
0
39
0
210
0
220
0
230
1
0
LINE
5
BA
100
AcDbEntity
8
1
62
256
6
ByLayer
370
18
48
1
60
0
100
AcDbLine
10
-11.023511
20
-0.324981
30
0
11
-10.810081
21
-0.324981
31
0
39
0
210
0
220
0
230
1
0
LINE
5
BB
100
AcDbEntity
8
1
62
256
6
ByLayer
370
18
48
1
60
0
100
AcDbLine
10
-10.247062
20
-0.324981
30
0
11
-9.769771
21
-0.324981
31
0
39
0
210
0
220
0
230
1
0
LINE
5
BC
100
AcDbEntity
8
1
62
256
6
ByLayer
370
18
48
1
60
0
100
AcDbLine
10
-14.559331
20
0.234331
30
0
11
-14.075019
21
-0.249981
31
0
39
0
210
0
220
0
230
1
0
LINE
5
BD
100
AcDbEntity
8
1
62
256
6
ByLayer
370
13
48
1
60
0
100
AcDbLine
10
-14.075019
20
-0.249981
30
0
11
-13.927309
21
-0.249981
31
0
39
0
210
0
220
0
230
1
0
LINE
5
BE
100
AcDbEntity
8
1
62
256
6
ByLayer
370
18
48
1
60
0
100
AcDbLine
10
-13.703327
20
-0.324981
30
0
11
-13.048061
21
-0.324981
31
0
39
0
210
0
220
0
230
1
0
LINE
5
BF
100
AcDbEntity
8
1
62
256
6
ByLayer
370
18
48
1
60
0
100
AcDbLine
10
-11.287197
20
-0.324981
30
0
11
-11.132078
21
-0.324981
31
0
39
0
210
0
220
0
230
1
0
LINE
5
C0
100
AcDbEntity
8
1
62
256
6
ByLayer
370
13
48
1
60
0
100
AcDbLine
10
-13.72716
20
-0.249981
30
0
11
-13.206552
21
-0.249981
31
0
39
0
210
0
220
0
230
1
0
LINE
5
C1
100
AcDbEntity
8
1
62
256
6
ByLayer
370
13
48
1
60
0
100
AcDbLine
10
-14.265575
20
0.394519
30
0
11
-14.125544
21
0.394519
31
0
39
0
210
0
220
0
230
1
0
LINE
5
C2
100
AcDbEntity
8
1
62
256
6
ByLayer
370
18
48
1
60
0
100
AcDbLine
10
-12.9317
20
-0.324981
30
0
11
-12.074956
21
-0.324981
31
0
39
0
210
0
220
0
230
1
0
LINE
5
C3
100
AcDbEntity
8
1
62
256
6
ByLayer
370
13
48
1
60
0
100
AcDbLine
10
-12.941904
20
-0.249981
30
0
11
-12.261918
21
-0.249981
31
0
39
0
210
0
220
0
230
1
0
LINE
5
C4
100
AcDbEntity
8
1
62
256
6
ByLayer
370
13
48
1
60
0
100
AcDbLine
10
-13.470275
20
0.394519
30
0
11
-13.288685
21
0.394519
31
0
39
0
210
0
220
0
230
1
0
LINE
5
C5
100
AcDbEntity
8
1
62
256
6
ByLayer
370
18
48
1
60
0
100
AcDbLine
10
-11.923781
20
-0.324981
30
0
11
-11.287177
21
-0.324981
31
0
39
0
210
0
220
0
230
1
0
LINE
5
C6
100
AcDbEntity
8
1
62
256
6
ByLayer
370
13
48
1
60
0
100
AcDbLine
10
-11.918509
20
-0.249981
30
0
11
-11.153931
21
-0.249981
31
0
39
0
210
0
220
0
230
1
0
LINE
5
C7
100
AcDbEntity
8
1
62
256
6
ByLayer
370
13
48
1
60
0
100
AcDbLine
10
-12.44548
20
0.394519
30
0
11
-12.212601
21
0.394519
31
0
39
0
210
0
220
0
230
1
0
LINE
5
C8
100
AcDbEntity
8
1
62
256
6
ByLayer
370
18
48
1
60
0
100
AcDbLine
10
-10.612458
20
-0.324981
30
0
11
-10.247044
21
-0.324981
31
0
39
0
210
0
220
0
230
1
0
LINE
5
C9
100
AcDbEntity
8
1
62
256
6
ByLayer
370
13
48
1
60
0
100
AcDbLine
10
-10.588147
20
-0.249981
30
0
11
-9.966378
21
-0.249981
31
0
39
0
210
0
220
0
230
1
0
LINE
5
CA
100
AcDbEntity
8
1
62
256
6
ByLayer
370
18
48
1
60
0
100
AcDbLine
10
-11.023467
20
-0.324981
30
0
11
-11.132078
21
-0.324981
31
0
39
0
210
0
220
0
230
1
0
LINE
5
CB
100
AcDbEntity
8
1
62
256
6
ByLayer
370
18
48
1
60
0
100
AcDbLine
10
-9.404549
20
-0.324981
30
0
11
-9.769771
21
-0.324981
31
0
39
0
210
0
220
0
230
1
0
LINE
5
CC
100
AcDbEntity
8
1
62
256
6
ByLayer
370
13
48
1
60
0
100
AcDbLine
10
-11.127967
20
0.394519
30
0
11
-10.826145
21
0.394519
31
0
39
0
210
0
220
0
230
1
0
LINE
5
CD
100
AcDbEntity
8
1
62
256
6
ByLayer
370
18
48
1
60
0
100
AcDbLine
10
-8.864082
20
-0.324981
30
0
11
-6.742374
21
-0.324981
31
0
39
0
210
0
220
0
230
1
0
LINE
5
CE
100
AcDbEntity
8
1
62
256
6
ByLayer
370
18
48
1
60
0
100
AcDbLine
10
-3.920822
20
17.179178
30
0
11
-5.869322
21
15.230678
31
0
39
0
210
0
220
0
230
1
0
LINE
5
CF
100
AcDbEntity
8
1
62
256
6
ByLayer
370
13
48
1
60
0
100
AcDbLine
10
-8.812878
20
-0.249981
30
0
11
-7.153883
21
-0.249981
31
0
39
0
210
0
220
0
230
1
0
LINE
5
D0
100
AcDbEntity
8
1
62
256
6
ByLayer
370
18
48
1
60
0
100
AcDbLine
10
19.982245
20
1.375
30
0
11
21.5
21
1.375
31
0
39
0
210
0
220
0
230
1
0
LINE
5
D1
100
AcDbEntity
8
1
62
256
6
ByLayer
370
18
48
1
60
0
100
AcDbLine
10
21.5
20
1.375
30
0
11
21.5
21
10.579484
31
0
39
0
210
0
220
0
230
1
0
LINE
5
D2
100
AcDbEntity
8
1
62
256
6
ByLayer
370
18
48
1
60
0
100
AcDbLine
10
29.6
20
17.32867
30
0
11
29.6
21
14.009339
31
0
39
0
210
0
220
0
230
1
0
LINE
5
D3
100
AcDbEntity
8
1
62
256
6
ByLayer
370
18
48
1
60
0
100
AcDbLine
10
19.982245
20
1.375
30
0
11
10.593748
21
1.375
31
0
39
0
210
0
220
0
230
1
0
LINE
5
D4
100
AcDbEntity
8
1
62
256
6
ByLayer
370
18
48
1
60
0
100
AcDbLine
10
19.982245
20
9.301036
30
0
11
19.982245
21
14.871098
31
0
39
0
210
0
220
0
230
1
0
LINE
5
D5
100
AcDbEntity
8
1
62
256
6
ByLayer
370
18
48
1
60
0
100
AcDbLine
10
19.982245
20
1.375
30
0
11
19.982245
21
4.899118
31
0
39
0
210
0
220
0
230
1
0
LINE
5
D6
100
AcDbEntity
8
1
62
256
6
ByLayer
370
18
48
1
60
0
100
AcDbLine
10
10.163081
20
0.675
30
0
11
9.371207
21
0.675
31
0
39
0
210
0
220
0
230
1
0
LINE
5
D7
100
AcDbEntity
8
1
62
256
6
ByLayer
370
18
48
1
60
0
100
AcDbLine
10
10.163081
20
0.675
30
0
11
10.163081
21
0.875
31
0
39
0
210
0
220
0
230
1
0
LINE
5
D8
100
AcDbEntity
8
1
62
256
6
ByLayer
370
18
48
1
60
0
100
AcDbLine
10
10.388566
20
14.871098
30
0
11
10.388566
21
1.357539
31
0
39
0
210
0
220
0
230
1
0
LINE
5
D9
100
AcDbEntity
8
1
62
256
6
ByLayer
370
18
48
1
60
0
100
AcDbLine
10
5.861975
20
16.472906
30
0
11
5.861975
21
16.903468
31
0
39
0
210
0
220
0
230
1
0
LINE
5
DA
100
AcDbEntity
8
1
62
256
6
ByLayer
370
13
48
1
60
0
100
AcDbLine
10
-9.395388
20
0.394519
30
0
11
-8.986697
21
0.394519
31
0
39
0
210
0
220
0
230
1
0
LINE
5
DB
100
AcDbEntity
8
1
62
256
6
ByLayer
370
18
48
1
60
0
100
AcDbLine
10
-6.326108
20
-0.324981
30
0
11
-1.735923
21
-0.324981
31
0
39
0
210
0
220
0
230
1
0
LINE
5
DC
100
AcDbEntity
8
1
62
256
6
ByLayer
370
18
48
1
60
0
100
AcDbLine
10
1.735923
20
-0.324981
30
0
11
6.326108
21
-0.324981
31
0
39
0
210
0
220
0
230
1
0
LINE
5
DD
100
AcDbEntity
8
1
62
256
6
ByLayer
370
13
48
1
60
0
100
AcDbLine
10
-6.222926
20
-0.249981
30
0
11
-3.020453
21
-0.249981
31
0
39
0
210
0
220
0
230
1
0
LINE
5
DE
100
AcDbEntity
8
1
62
256
6
ByLayer
370
13
48
1
60
0
100
AcDbLine
10
3.020453
20
-0.249981
30
0
11
6.222926
21
-0.249981
31
0
39
0
210
0
220
0
230
1
0
LINE
5
DF
100
AcDbEntity
8
1
62
256
6
ByLayer
370
13
48
1
60
0
100
AcDbLine
10
-6.943702
20
0.394519
30
0
11
-6.310523
21
0.394519
31
0
39
0
210
0
220
0
230
1
0
LINE
5
E0
100
AcDbEntity
8
1
62
256
6
ByLayer
370
13
48
1
60
0
100
AcDbLine
10
6.310523
20
0.394519
30
0
11
6.943702
21
0.394519
31
0
39
0
210
0
220
0
230
1
0
LINE
5
E1
100
AcDbEntity
8
1
62
256
6
ByLayer
370
13
48
1
60
0
100
AcDbLine
10
-1.912242
20
0.394519
30
0
11
1.912242
21
0.394519
31
0
39
0
210
0
220
0
230
1
0
LINE
5
E2
100
AcDbEntity
8
1
62
256
6
ByLayer
370
18
48
1
60
0
100
AcDbLine
10
-15
20
0.675
30
0
11
-15
21
0.875
31
0
39
0
210
0
220
0
230
1
0
LINE
5
E3
100
AcDbEntity
8
1
62
256
6
ByLayer
370
18
48
1
60
0
100
AcDbLine
10
7.937106
20
0.675
30
0
11
9.371254
21
0.675
31
0
39
0
210
0
220
0
230
1
0
LINE
5
E4
100
AcDbEntity
8
1
62
256
6
ByLayer
370
18
48
1
60
0
100
AcDbLine
10
9.371254
20
0.875
30
0
11
9.371254
21
0.675
31
0
39
0
210
0
220
0
230
1
0
LINE
5
E5
100
AcDbEntity
8
1
62
256
6
ByLayer
370
18
48
1
60
0
100
AcDbLine
10
-13.703327
20
-0.324981
30
0
11
-13.791289
21
-0.324981
31
0
39
0
210
0
220
0
230
1
0
LINE
5
E6
100
AcDbEntity
8
1
62
256
6
ByLayer
370
18
48
1
60
0
100
AcDbLine
10
-12.9317
20
-0.324981
30
0
11
-13.048064
21
-0.324981
31
0
39
0
210
0
220
0
230
1
0
LINE
5
E7
100
AcDbEntity
8
1
62
256
6
ByLayer
370
18
48
1
60
0
100
AcDbLine
10
-11.923781
20
-0.324981
30
0
11
-12.074944
21
-0.324981
31
0
39
0
210
0
220
0
230
1
0
LINE
5
E8
100
AcDbEntity
8
1
62
256
6
ByLayer
370
18
48
1
60
0
100
AcDbLine
10
-10.612458
20
-0.324981
30
0
11
-10.810022
21
-0.324981
31
0
39
0
210
0
220
0
230
1
0
LINE
5
E9
100
AcDbEntity
8
1
62
256
6
ByLayer
370
18
48
1
60
0
100
AcDbLine
10
-8.864082
20
-0.324981
30
0
11
-9.132847
21
-0.324981
31
0
39
0
210
0
220
0
230
1
0
LINE
5
EA
100
AcDbEntity
8
1
62
256
6
ByLayer
370
18
48
1
60
0
100
AcDbLine
10
-6.326108
20
-0.324981
30
0
11
-6.742492
21
-0.324981
31
0
39
0
210
0
220
0
230
1
0
LINE
5
EB
100
AcDbEntity
8
1
62
256
6
ByLayer
370
18
48
1
60
0
100
AcDbLine
10
1.735945
20
-0.324981
30
0
11
-1.735945
21
-0.324981
31
0
39
0
210
0
220
0
230
1
0
LINE
5
EC
100
AcDbEntity
8
1
62
256
6
ByLayer
370
18
48
1
60
0
100
AcDbLine
10
6.60065
20
-0.324981
30
0
11
6.326108
21
-0.324981
31
0
39
0
210
0
220
0
230
1
0
LINE
5
ED
100
AcDbEntity
8
1
62
256
6
ByLayer
370
18
48
1
60
0
100
AcDbLine
10
-15
20
0.675
30
0
11
7.937106
21
0.675
31
0
39
0
210
0
220
0
230
1
0
LINE
5
EE
100
AcDbEntity
8
1
62
256
6
ByLayer
370
18
48
1
60
0
100
AcDbLine
10
8.18325
20
1.375
30
0
11
6.461
21
1.375
31
0
39
0
210
0
220
0
230
1
0
LINE
5
EF
100
AcDbEntity
8
1
62
256
6
ByLayer
370
18
48
1
60
0
100
AcDbLine
10
9.445863
20
1.202402
30
0
11
9.445863
21
14.672623
31
0
39
0
210
0
220
0
230
1
0
LINE
5
F0
100
AcDbEntity
8
1
62
256
6
ByLayer
370
18
48
1
60
0
100
AcDbLine
10
-5.869866
20
15.230134
30
0
11
-7.113782
21
13.986218
31
0
39
0
210
0
220
0
230
1
0
LINE
5
F1
100
AcDbEntity
8
1
62
256
6
ByLayer
370
18
48
1
60
0
100
AcDbLine
10
19.982245
20
14.871098
30
0
11
10.388566
21
14.871098
31
0
39
0
210
0
220
0
230
1
0
LINE
5
F2
100
AcDbEntity
8
1
62
256
6
ByLayer
370
18
48
1
60
0
100
AcDbLine
10
17.35
20
17.614277
30
0
11
18.65
21
17.614277
31
0
39
0
210
0
220
0
230
1
0
LINE
5
F3
100
AcDbEntity
8
1
62
256
6
ByLayer
370
18
48
1
60
0
100
AcDbLine
10
-7.113782
20
13.986218
30
0
11
-15
21
6.1
31
0
39
0
210
0
220
0
230
1
0
LINE
5
F4
100
AcDbEntity
8
1
62
256
6
ByLayer
370
18
48
1
60
0
100
AcDbLine
10
-15
20
6.1
30
0
11
-15
21
1.092945
31
0
39
0
210
0
220
0
230
1
0
LINE
5
F5
100
AcDbEntity
8
1
62
256
6
ByLayer
370
13
48
1
60
0
100
AcDbLine
10
9.371254
20
0.875
30
0
11
-15
21
0.875
31
0
39
0
210
0
220
0
230
1
0
LINE
5
F6
100
AcDbEntity
8
1
62
256
6
ByLayer
370
18
48
1
60
0
100
AcDbLine
10
0
20
1.092945
30
0
11
-15
21
1.092945
31
0
39
0
210
0
220
0
230
1
0
LINE
5
F7
100
AcDbEntity
8
1
62
256
6
ByLayer
370
13
48
1
60
0
100
AcDbLine
10
0
20
12.997413
30
0
11
0
21
1.092945
31
0
39
0
210
0
220
0
230
1
0
LINE
5
F8
100
AcDbEntity
8
1
62
256
6
ByLayer
370
18
48
1
60
0
100
AcDbLine
10
6.461
20
1.375
30
0
11
3.827205
21
1.375
31
0
39
0
210
0
220
0
230
1
0
LINE
5
F9
100
AcDbEntity
8
1
62
256
6
ByLayer
370
18
48
1
60
0
100
AcDbLine
10
6.461
20
12.997413
30
0
11
6.461
21
1.375
31
0
39
0
210
0
220
0
230
1
0
LINE
5
FA
100
AcDbEntity
8
1
62
256
6
ByLayer
370
18
48
1
60
0
100
AcDbLine
10
6.461
20
12.997413
30
0
11
0
21
12.997413
31
0
39
0
210
0
220
0
230
1
0
LINE
5
FB
100
AcDbEntity
8
1
62
256
6
ByLayer
370
18
48
1
60
0
100
AcDbLine
10
16
20
0.675
30
0
11
10.163081
21
0.675
31
0
39
0
210
0
220
0
230
1
0
LINE
5
FC
100
AcDbEntity
8
1
62
256
6
ByLayer
370
13
48
1
60
0
100
AcDbLine
10
16
20
0.875
30
0
11
10.163081
21
0.875
31
0
39
0
210
0
220
0
230
1
0
LINE
5
FD
100
AcDbEntity
8
1
62
256
6
ByLayer
370
18
48
1
60
0
100
AcDbLine
10
-3.920822
20
17.179178
30
0
11
-3.42489
21
17.67511
31
0
39
0
210
0
220
0
230
1
0
LINE
5
FE
100
AcDbEntity
8
1
62
256
6
ByLayer
370
18
48
1
60
0
100
AcDbLine
10
23.1
20
8.300057
30
0
11
34.405377
21
8.300057
31
0
39
0
210
0
220
0
230
1
0
MTEXT
5
191
100
AcDbEntity
8
SK6
62
256
6
ByLayer
370
18
48
1
60
0
100
AcDbMText
10
-19.2645
20
-47.717366
30
0
210
0
220
0
230
1
1
\W0.7849;C2A-SL32-LGH18A-052GB
40
3.5
41
0
44
1.084337
50
0
71
7
72
5
7
iso_b_vert
0
DIMENSION
5
196
100
AcDbEntity
8
2
62
256
6
ByLayer
370
18
48
1
60
0
100
AcDbDimension
2
_U0
10
41.1
20
-19.75
30
0
11
20.55
21
-19.75
31
0
70
32
71
1
72
1
41
1
210
0
220
0
230
1
3
Standard
100
AcDbAlignedDimension
13
0
23
0
33
0
14
41.1
24
18
34
0
50
0
100
AcDbRotatedDimension
1001
ACAD
1000
DSTYLE
1002
{
1070
   371
1070
    13
1070
   372
1070
    13
1070
   170
1070
     0
1070
   144
1040
1.0
1070
   277
1070
     2
1070
   284
1070
     8
1070
   278
1070
    46
1070
   146
1040
1.0
1070
   345
1005
16
1070
   347
1005
16
1070
   346
1005
16
1070
   344
1005
0
1070
   343
1005
0
1070
   172
1070
     1
1070
    76
1070
     0
1070
    75
1070
     0
1070
   282
1070
     0
1070
   281
1070
     0
1070
    71
1070
     0
1070
    74
1070
     0
1070
   279
1070
     0
1070
   173
1070
     1
1070
   340
1005
192
1070
   271
1070
     2
1070
   272
1070
     2
1070
    77
1070
     1
1070
    73
1070
     1
1070
   171
1070
     3
1070
   274
1070
     4
1070
   177
1070
     2
1070
   176
1070
     2
1070
   178
1070
     2
1070
    78
1070
     8
1070
    48
1040
-0.1
1070
    41
1040
3.5
1070
   147
1040
1.75
1070
    42
1040
1.5875
1070
    44
1040
2.0
1070
   140
1040
3.5
1002
}
1001
ACAD_DSTYLE_DIM_LINETYPE
1070
   380
1005
16
1001
ACAD_DSTYLE_DIM_EXT1_LINETYPE
1070
   381
1005
16
1001
ACAD_DSTYLE_DIM_EXT2_LINETYPE
1070
   382
1005
16
0
DIMENSION
5
1B0
100
AcDbEntity
8
2
62
256
6
ByLayer
370
18
48
1
60
0
100
AcDbDimension
2
_U1
10
41.1
20
-11.75
30
0
11
32.1
21
-11.75
31
0
70
32
71
1
72
1
41
1
210
0
220
0
230
1
3
Standard
100
AcDbAlignedDimension
13
23.1
23
14.32511
33
0
14
41.1
24
18
34
0
50
0
100
AcDbRotatedDimension
1001
ACAD
1000
DSTYLE
1002
{
1070
   371
1070
    13
1070
   372
1070
    13
1070
   170
1070
     0
1070
   144
1040
1.0
1070
   277
1070
     2
1070
   284
1070
     8
1070
   278
1070
    46
1070
   146
1040
1.0
1070
   345
1005
16
1070
   347
1005
16
1070
   346
1005
16
1070
   344
1005
0
1070
   343
1005
0
1070
   172
1070
     1
1070
    76
1070
     0
1070
    75
1070
     0
1070
   282
1070
     0
1070
   281
1070
     0
1070
    71
1070
     0
1070
    74
1070
     0
1070
   279
1070
     0
1070
   173
1070
     1
1070
   340
1005
192
1070
   271
1070
     2
1070
   272
1070
     2
1070
    77
1070
     1
1070
    73
1070
     1
1070
   171
1070
     3
1070
   274
1070
     4
1070
   177
1070
     2
1070
   176
1070
     2
1070
   178
1070
     2
1070
    78
1070
     8
1070
    48
1040
-0.1
1070
    41
1040
3.5
1070
   147
1040
1.75
1070
    42
1040
1.5875
1070
    44
1040
2.0
1070
   140
1040
3.5
1002
}
1001
ACAD_DSTYLE_DIM_LINETYPE
1070
   380
1005
16
1001
ACAD_DSTYLE_DIM_EXT1_LINETYPE
1070
   381
1005
16
1001
ACAD_DSTYLE_DIM_EXT2_LINETYPE
1070
   382
1005
16
0
DIMENSION
5
1C8
100
AcDbEntity
8
2
62
256
6
ByLayer
370
18
48
1
60
0
100
AcDbDimension
2
_U2
10
65.85
20
0
30
0
11
65.85
21
9
31
0
70
32
71
1
72
1
41
1
210
0
220
0
230
1
3
Standard
100
AcDbAlignedDimension
13
41.1
23
18
33
0
14
0
24
0
34
0
50
90
100
AcDbRotatedDimension
1001
ACAD
1000
DSTYLE
1002
{
1070
   371
1070
    13
1070
   372
1070
    13
1070
   170
1070
     0
1070
   144
1040
1.0
1070
   277
1070
     2
1070
   284
1070
     8
1070
   278
1070
    46
1070
   146
1040
1.0
1070
   345
1005
16
1070
   347
1005
16
1070
   346
1005
16
1070
   344
1005
0
1070
   343
1005
0
1070
   172
1070
     1
1070
    76
1070
     0
1070
    75
1070
     0
1070
   282
1070
     0
1070
   281
1070
     0
1070
    71
1070
     0
1070
    74
1070
     0
1070
   279
1070
     0
1070
   173
1070
     1
1070
   340
1005
192
1070
   271
1070
     2
1070
   272
1070
     2
1070
    77
1070
     1
1070
    73
1070
     0
1070
   171
1070
     3
1070
   274
1070
     4
1070
   177
1070
     2
1070
   176
1070
     2
1070
   178
1070
     2
1070
    78
1070
     8
1070
    48
1040
-0.1
1070
    41
1040
3.5
1070
   147
1040
1.75
1070
    42
1040
1.5875
1070
    44
1040
2.0
1070
   140
1040
3.5
1002
}
1001
ACAD_DSTYLE_DIM_LINETYPE
1070
   380
1005
16
1001
ACAD_DSTYLE_DIM_EXT1_LINETYPE
1070
   381
1005
16
1001
ACAD_DSTYLE_DIM_EXT2_LINETYPE
1070
   382
1005
16
0
DIMENSION
5
1E0
100
AcDbEntity
8
2
62
256
6
ByLayer
370
18
48
1
60
0
100
AcDbDimension
2
_U3
10
52.85
20
14
30
0
11
52.85
21
16
31
0
70
32
71
1
72
1
41
1
210
0
220
0
230
1
3
Standard
100
AcDbAlignedDimension
13
41.1
23
18
33
0
14
41.1
24
14
34
0
50
90
100
AcDbRotatedDimension
1001
ACAD
1000
DSTYLE
1002
{
1070
   371
1070
    13
1070
   372
1070
    13
1070
   170
1070
     0
1070
   144
1040
1.0
1070
   277
1070
     2
1070
   284
1070
     8
1070
   278
1070
    46
1070
   146
1040
1.0
1070
   345
1005
16
1070
   347
1005
16
1070
   346
1005
16
1070
   344
1005
0
1070
   343
1005
0
1070
   172
1070
     1
1070
    76
1070
     0
1070
    75
1070
     0
1070
   282
1070
     0
1070
   281
1070
     0
1070
    71
1070
     0
1070
    74
1070
     0
1070
   279
1070
     0
1070
   173
1070
     1
1070
   340
1005
192
1070
   271
1070
     2
1070
   272
1070
     2
1070
    77
1070
     1
1070
    73
1070
     0
1070
   171
1070
     3
1070
   274
1070
     4
1070
   177
1070
     2
1070
   176
1070
     2
1070
   178
1070
     2
1070
    78
1070
     8
1070
    48
1040
-0.1
1070
    41
1040
3.5
1070
   147
1040
1.75
1070
    42
1040
1.5875
1070
    44
1040
2.0
1070
   140
1040
3.5
1002
}
1001
ACAD_DSTYLE_DIM_LINETYPE
1070
   380
1005
16
1001
ACAD_DSTYLE_DIM_EXT1_LINETYPE
1070
   381
1005
16
1001
ACAD_DSTYLE_DIM_EXT2_LINETYPE
1070
   382
1005
16
0
ENDSEC
0
SECTION
2
OBJECTS
0
DICTIONARY
5
266
330
0
100
AcDbDictionary
280
0
281
1
3
ACAD_GROUP
350
267
3
ACAD_MLINESTYLE
350
268
0
DICTIONARY
5
267
330
0
100
AcDbDictionary
280
0
281
1
0
DICTIONARY
5
268
330
0
100
AcDbDictionary
280
0
281
1
3
Standard
350
18
0
MLINESTYLE
5
18
330
268
100
AcDbMlineStyle
2
Standard
70
0
3

62
256
51
90
52
90
71
2
49
-0.5
62
256
6
ByLayer
49
0.5
62
256
6
ByLayer
0
RASTERVARIABLES
5
257
330

100
AcDbRasterVariables
90
0
70
1
71
1
72
1
0
ENDSEC
0
EOF
