0
SECTION
2
HEADER
9
$ACADVER
1
AC1015
9
$DWGCODEPAGE
3
ANSI_1252
9
$HANDSEED
5
277
9
$ANGBASE
50
0
9
$ANGDIR
70
0
9
$ATTMODE
70
1
9
$AUNITS
70
0
9
$AUPREC
70
0
9
$CECOLOR
62
256
9
$CELTSCALE
40
1
9
$CELTYPE
6
ByLayer
9
$CELWEIGHT
370
18
9
$CLAYER
8
0
9
$CMLJUST
70
0
9
$CMLSCALE
40
1
9
$CMLSTYLE
2
Standard
9
$DIMSTYLE
2
Standard
9
$TEXTSIZE
40
0.2
9
$TEXTSTYLE
7
Standard
9
$LUNITS
70
2
9
$LUPREC
70
4
9
$EXTNAMES
290
1
9
$INSUNITS
70
4
9
$LTSCALE
40
1
9
$LWDISPLAY
290
1
9
$PDMODE
70
0
9
$PDSIZE
40
0
9
$PLINEGEN
70
0
0
ENDSEC
0
SECTION
2
CLASSES
0
CLASS
1
RASTERVARIABLES
2
AcDbRasterVariables
3
ISM
90
0
280
0
281
0
0
ENDSEC
0
SECTION
2
TABLES
0
TABLE
2
VPORT
5
26d
100
AcDbSymbolTable
0
VPORT
5
1
100
AcDbSymbolTableRecord
100
AcDbViewportTableRecord
2
*Active
70
0
10
0
20
0
11
1
21
1
12
-1
22
1
13
0
23
0
14
0.5
24
0.5
15
10
25
10
16
0
26
0
36
1
17
0
27
0
37
0
0
ENDTAB
0
TABLE
2
LTYPE
5
26e
100
AcDbSymbolTable
0
LTYPE
5
14
100
AcDbSymbolTableRecord
100
AcDbLinetypeTableRecord
70
0
2
ByBlock
3

72
65
73
0
40
0
0
LTYPE
5
15
100
AcDbSymbolTableRecord
100
AcDbLinetypeTableRecord
70
0
2
ByLayer
3

72
65
73
0
40
0
0
LTYPE
5
16
100
AcDbSymbolTableRecord
100
AcDbLinetypeTableRecord
70
0
2
Continuous
3
Solid line
72
65
73
0
40
0
0
LTYPE
5
6E
100
AcDbSymbolTableRecord
100
AcDbLinetypeTableRecord
70
0
2
CENTER
3
____ _ ____ _ ____ _ ____
72
65
73
4
40
47.5
49
22
74
0
49
-8.5
74
0
49
8.5
74
0
49
-8.5
74
0
0
LTYPE
5
6F
100
AcDbSymbolTableRecord
100
AcDbLinetypeTableRecord
70
0
2
DASHED
3
__ __ __ __ __ __ __ __ __
72
65
73
2
40
25.72
49
12.86
74
0
49
-12.86
74
0
0
ENDTAB
0
TABLE
2
LAYER
5
26f
100
AcDbSymbolTable
0
LAYER
5
10
100
AcDbSymbolTableRecord
100
AcDbLayerTableRecord
2
0
70
0
62
7
6
Continuous
290
1
370
-3
390
0
0
LAYER
5
71
100
AcDbSymbolTableRecord
100
AcDbLayerTableRecord
2
81
70
0
62
-3
6
Continuous
290
1
370
-3
390
0
0
LAYER
5
73
100
AcDbSymbolTableRecord
100
AcDbLayerTableRecord
2
80
70
0
62
-6
6
Continuous
290
1
370
-3
390
0
0
LAYER
5
75
100
AcDbSymbolTableRecord
100
AcDbLayerTableRecord
2
1
70
0
62
4
6
Continuous
290
1
370
-3
390
0
0
LAYER
5
19C
100
AcDbSymbolTableRecord
100
AcDbLayerTableRecord
2
Defpoints
70
0
62
7
6
Continuous
290
0
370
-3
390
0
0
LAYER
5
1A9
100
AcDbSymbolTableRecord
100
AcDbLayerTableRecord
2
2
70
0
62
7
6
Continuous
290
1
370
-3
390
0
0
LAYER
5
25c
100
AcDbSymbolTableRecord
100
AcDbLayerTableRecord
2
SK6
70
0
62
5
6
Continuous
290
1
370
-3
390
0
0
ENDTAB
0
TABLE
2
STYLE
5
270
100
AcDbSymbolTable
0
STYLE
5
11
100
AcDbSymbolTableRecord
100
AcDbTextStyleTableRecord
2
Standard
3
txt
70
0
71
0
40
0
41
1
42
0
50
0
0
STYLE
5
195
100
AcDbSymbolTableRecord
100
AcDbTextStyleTableRecord
2
iso_b_vert
3
simplex.shx
70
0
71
0
40
0
41
1
42
0
50
0
0
STYLE
5
196
100
AcDbSymbolTableRecord
100
AcDbTextStyleTableRecord
2
DWGDirectTextStyle
3
simplex
70
0
71
0
40
0
41
1
42
0
50
0
0
ENDTAB
0
TABLE
2
DIMSTYLE
5
271
100
AcDbSymbolTable
100
AcDbDimStyleTable
0
DIMSTYLE
105
27
100
AcDbSymbolTableRecord
100
AcDbDimStyleTableRecord
2
Standard
70
0
3
<>
41
0.18
42
0.0625
44
0.18
140
0.18
147
0.09
73
0
74
0
77
1
271
2
275
0
278
52
280
0
340
11
0
ENDTAB
0
TABLE
2
VIEW
5
272
100
AcDbSymbolTable
0
ENDTAB
0
TABLE
2
UCS
5
273
100
AcDbSymbolTable
0
ENDTAB
0
TABLE
2
APPID
5
274
100
AcDbSymbolTable
0
APPID
5
12
100
AcDbSymbolTableRecord
100
AcDbRegAppTableRecord
2
ACAD
70
0
0
APPID
5
198
100
AcDbSymbolTableRecord
100
AcDbRegAppTableRecord
2
ACAD_DSTYLE_DIMBREAK
70
0
0
APPID
5
21B
100
AcDbSymbolTableRecord
100
AcDbRegAppTableRecord
2
ACAD_DSTYLE_DIM_LINETYPE
70
0
0
APPID
5
21C
100
AcDbSymbolTableRecord
100
AcDbRegAppTableRecord
2
ACAD_DSTYLE_DIM_EXT1_LINETYPE
70
0
0
APPID
5
21D
100
AcDbSymbolTableRecord
100
AcDbRegAppTableRecord
2
ACAD_DSTYLE_DIM_EXT2_LINETYPE
70
0
0
APPID
5
258
100
AcDbSymbolTableRecord
100
AcDbRegAppTableRecord
2
ACAD_MLEADERVER
70
0
0
ENDTAB
0
TABLE
2
BLOCK_RECORD
5
275
100
AcDbSymbolTable
0
BLOCK_RECORD
5
1F
100
AcDbSymbolTableRecord
100
AcDbBlockTableRecord
2
*Model_Space
340
0
70
0
0
BLOCK_RECORD
5
1B
100
AcDbSymbolTableRecord
100
AcDbBlockTableRecord
2
*Paper_Space
340
0
70
0
0
BLOCK_RECORD
5
23
100
AcDbSymbolTableRecord
100
AcDbBlockTableRecord
2
*Paper_Space0
340
0
70
0
0
BLOCK_RECORD
5
19D
100
AcDbSymbolTableRecord
100
AcDbBlockTableRecord
2
*D1
340
0
70
0
0
BLOCK_RECORD
5
1AA
100
AcDbSymbolTableRecord
100
AcDbBlockTableRecord
2
_U0
340
0
70
0
0
BLOCK_RECORD
5
1B6
100
AcDbSymbolTableRecord
100
AcDbBlockTableRecord
2
*D3
340
0
70
0
0
BLOCK_RECORD
5
1C2
100
AcDbSymbolTableRecord
100
AcDbBlockTableRecord
2
_U1
340
0
70
0
0
BLOCK_RECORD
5
1CE
100
AcDbSymbolTableRecord
100
AcDbBlockTableRecord
2
*D5
340
0
70
0
0
BLOCK_RECORD
5
1DB
100
AcDbSymbolTableRecord
100
AcDbBlockTableRecord
2
_U2
340
0
70
0
0
BLOCK_RECORD
5
1E7
100
AcDbSymbolTableRecord
100
AcDbBlockTableRecord
2
*D7
340
0
70
0
0
BLOCK_RECORD
5
1F4
100
AcDbSymbolTableRecord
100
AcDbBlockTableRecord
2
_U3
340
0
70
0
0
ENDTAB
0
ENDSEC
0
SECTION
2
BLOCKS
0
BLOCK
5
20
100
AcDbEntity
8
0
100
AcDbBlockBegin
2
*Model_Space
70
0
10
0
20
0
30
0
3
*Model_Space
0
ENDBLK
5
21
100
AcDbEntity
8
0
100
AcDbBlockEnd
0
BLOCK
5
1C
100
AcDbEntity
8
0
100
AcDbBlockBegin
2
*Paper_Space
70
0
10
0
20
0
30
0
3
*Paper_Space
0
ENDBLK
5
1D
100
AcDbEntity
8
0
100
AcDbBlockEnd
0
BLOCK
5
24
100
AcDbEntity
8
0
100
AcDbBlockBegin
2
*Paper_Space0
70
0
10
0
20
0
30
0
3
*Paper_Space0
0
ENDBLK
5
25
100
AcDbEntity
8
0
100
AcDbBlockEnd
0
BLOCK
5
19E
100
AcDbEntity
8
0
100
AcDbBlockBegin
2
*D1
70
1
10
0
20
0
30
0
3
*D1
0
LINE
5
1A0
100
AcDbEntity
8
0
62
256
6
ByLayer
370
-2
48
1
60
0
100
AcDbLine
10
0
20
1.5875
30
0
11
0
21
18.25
31
0
39
0
210
0
220
0
230
1
0
LINE
5
1A1
100
AcDbEntity
8
0
62
256
6
ByLayer
370
-2
48
1
60
0
100
AcDbLine
10
41.1
20
-12.4125
30
0
11
41.1
21
18.25
31
0
39
0
210
0
220
0
230
1
0
LINE
5
1A2
100
AcDbEntity
8
0
62
256
6
ByLayer
370
-2
48
1
60
0
100
AcDbLine
10
3.5
20
16.25
30
0
11
37.6
21
16.25
31
0
39
0
210
0
220
0
230
1
0
SOLID
5
1A3
100
AcDbEntity
8
0
62
256
6
ByLayer
370
-1
48
1
60
0
100
AcDbTrace
10
3.5
20
16.833333
30
0
11
3.5
21
15.666667
31
0
12
0
22
16.25
32
0
13
0
23
16.25
33
0
39
0
210
0
220
0
230
1
0
SOLID
5
1A4
100
AcDbEntity
8
0
62
256
6
ByLayer
370
-1
48
1
60
0
100
AcDbTrace
10
37.6
20
15.666667
30
0
11
37.6
21
16.833333
31
0
12
41.1
22
16.25
32
0
13
41.1
23
16.25
33
0
39
0
210
0
220
0
230
1
0
MTEXT
5
1A5
100
AcDbEntity
8
0
62
256
6
ByLayer
370
18
48
1
60
0
100
AcDbMText
10
20.55
20
23.25
30
0
210
0
220
0
230
1
1
\A1;41.1
40
3.5
41
0
44
1
50
0
71
5
72
5
7
iso_b_vert
0
POINT
5
1A6
100
AcDbEntity
8
Defpoints
62
0
6
ByLayer
370
-1
48
1
60
0
100
AcDbPoint
10
0
20
0
30
0
39
0
210
0
220
0
230
1
50
360
0
POINT
5
1A7
100
AcDbEntity
8
Defpoints
62
0
6
ByLayer
370
-1
48
1
60
0
100
AcDbPoint
10
41.1
20
-14
30
0
39
0
210
0
220
0
230
1
50
360
0
POINT
5
1A8
100
AcDbEntity
8
Defpoints
62
0
6
ByLayer
370
-1
48
1
60
0
100
AcDbPoint
10
41.1
20
16.25
30
0
39
0
210
0
220
0
230
1
50
360
0
ENDBLK
5
19F
100
AcDbEntity
8
0
100
AcDbBlockEnd
0
BLOCK
5
1B1
100
AcDbEntity
8
0
100
AcDbBlockBegin
2
_U0
70
0
10
0
20
0
30
0
3
_U0
0
MTEXT
5
1AB
100
AcDbEntity
8
2
62
256
6
ByLayer
370
18
48
1
60
0
100
AcDbMText
10
17.318901
20
17.282634
30
0
210
0
220
0
230
1
1
\W0.6670;41.1
40
3.5
41
0
44
1.084337
50
0
71
7
72
5
7
iso_b_vert
0
LINE
5
1AC
100
AcDbEntity
8
2
62
256
6
ByLayer
370
13
48
1
60
0
100
AcDbLine
10
0
20
1.5875
30
0
11
0
21
18.25
31
0
39
0
210
0
220
0
230
1
0
LINE
5
1AD
100
AcDbEntity
8
2
62
256
6
ByLayer
370
13
48
1
60
0
100
AcDbLine
10
41.1
20
-12.4125
30
0
11
41.1
21
18.25
31
0
39
0
210
0
220
0
230
1
0
LINE
5
1AE
100
AcDbEntity
8
2
62
256
6
ByLayer
370
13
48
1
60
0
100
AcDbLine
10
0
20
16.25
30
0
11
41.1
21
16.25
31
0
39
0
210
0
220
0
230
1
0
SOLID
5
1AF
100
AcDbEntity
8
2
62
256
6
ByLayer
370
18
48
1
60
0
100
AcDbTrace
10
0
20
16.25
30
0
11
3.499998
21
16.710784
31
0
12
3.500002
22
15.789216
32
0
13
3.500002
23
15.789216
33
0
39
0
210
0
220
0
230
1
0
SOLID
5
1B0
100
AcDbEntity
8
2
62
256
6
ByLayer
370
18
48
1
60
0
100
AcDbTrace
10
41.1
20
16.25
30
0
11
37.600002
21
15.789216
31
0
12
37.599998
22
16.710784
32
0
13
37.599998
23
16.710784
33
0
39
0
210
0
220
0
230
1
0
ENDBLK
5
1B2
100
AcDbEntity
8
0
100
AcDbBlockEnd
0
BLOCK
5
1B7
100
AcDbEntity
8
0
100
AcDbBlockBegin
2
*D3
70
1
10
0
20
0
30
0
3
*D3
0
LINE
5
1B9
100
AcDbEntity
8
0
62
256
6
ByLayer
370
-2
48
1
60
0
100
AcDbLine
10
23.1
20
-9.7375
30
0
11
23.1
21
10.25
31
0
39
0
210
0
220
0
230
1
0
LINE
5
1BA
100
AcDbEntity
8
0
62
256
6
ByLayer
370
-2
48
1
60
0
100
AcDbLine
10
41.1
20
-12.4125
30
0
11
41.1
21
10.25
31
0
39
0
210
0
220
0
230
1
0
LINE
5
1BB
100
AcDbEntity
8
0
62
256
6
ByLayer
370
-2
48
1
60
0
100
AcDbLine
10
26.6
20
8.25
30
0
11
37.6
21
8.25
31
0
39
0
210
0
220
0
230
1
0
SOLID
5
1BC
100
AcDbEntity
8
0
62
256
6
ByLayer
370
-1
48
1
60
0
100
AcDbTrace
10
26.6
20
8.833333
30
0
11
26.6
21
7.666667
31
0
12
23.1
22
8.25
32
0
13
23.1
23
8.25
33
0
39
0
210
0
220
0
230
1
0
SOLID
5
1BD
100
AcDbEntity
8
0
62
256
6
ByLayer
370
-1
48
1
60
0
100
AcDbTrace
10
37.6
20
7.666667
30
0
11
37.6
21
8.833333
31
0
12
41.1
22
8.25
32
0
13
41.1
23
8.25
33
0
39
0
210
0
220
0
230
1
0
MTEXT
5
1BE
100
AcDbEntity
8
0
62
256
6
ByLayer
370
18
48
1
60
0
100
AcDbMText
10
32.1
20
15.25
30
0
210
0
220
0
230
1
1
\A1;18
40
3.5
41
0
44
1
50
0
71
5
72
5
7
iso_b_vert
0
POINT
5
1BF
100
AcDbEntity
8
Defpoints
62
0
6
ByLayer
370
-1
48
1
60
0
100
AcDbPoint
10
23.1
20
-11.325
30
0
39
0
210
0
220
0
230
1
50
360
0
POINT
5
1C0
100
AcDbEntity
8
Defpoints
62
0
6
ByLayer
370
-1
48
1
60
0
100
AcDbPoint
10
41.1
20
-14
30
0
39
0
210
0
220
0
230
1
50
360
0
POINT
5
1C1
100
AcDbEntity
8
Defpoints
62
0
6
ByLayer
370
-1
48
1
60
0
100
AcDbPoint
10
41.1
20
8.25
30
0
39
0
210
0
220
0
230
1
50
360
0
ENDBLK
5
1B8
100
AcDbEntity
8
0
100
AcDbBlockEnd
0
BLOCK
5
1C9
100
AcDbEntity
8
0
100
AcDbBlockBegin
2
_U1
70
0
10
0
20
0
30
0
3
_U1
0
MTEXT
5
1C3
100
AcDbEntity
8
2
62
256
6
ByLayer
370
18
48
1
60
0
100
AcDbMText
10
30.632467
20
9.282634
30
0
210
0
220
0
230
1
1
\W0.5321;18
40
3.5
41
0
44
1.084337
50
0
71
7
72
5
7
iso_b_vert
0
LINE
5
1C4
100
AcDbEntity
8
2
62
256
6
ByLayer
370
13
48
1
60
0
100
AcDbLine
10
23.1
20
-9.7375
30
0
11
23.1
21
10.25
31
0
39
0
210
0
220
0
230
1
0
LINE
5
1C5
100
AcDbEntity
8
2
62
256
6
ByLayer
370
13
48
1
60
0
100
AcDbLine
10
41.1
20
-12.4125
30
0
11
41.1
21
10.25
31
0
39
0
210
0
220
0
230
1
0
LINE
5
1C6
100
AcDbEntity
8
2
62
256
6
ByLayer
370
13
48
1
60
0
100
AcDbLine
10
23.1
20
8.25
30
0
11
41.1
21
8.25
31
0
39
0
210
0
220
0
230
1
0
SOLID
5
1C7
100
AcDbEntity
8
2
62
256
6
ByLayer
370
18
48
1
60
0
100
AcDbTrace
10
23.1
20
8.25
30
0
11
26.599998
21
8.710784
31
0
12
26.600002
22
7.789216
32
0
13
26.600002
23
7.789216
33
0
39
0
210
0
220
0
230
1
0
SOLID
5
1C8
100
AcDbEntity
8
2
62
256
6
ByLayer
370
18
48
1
60
0
100
AcDbTrace
10
41.1
20
8.25
30
0
11
37.600002
21
7.789216
31
0
12
37.599998
22
8.710784
32
0
13
37.599998
23
8.710784
33
0
39
0
210
0
220
0
230
1
0
ENDBLK
5
1CA
100
AcDbEntity
8
0
100
AcDbBlockEnd
0
BLOCK
5
1CF
100
AcDbEntity
8
0
100
AcDbBlockBegin
2
*D5
70
1
10
0
20
0
30
0
3
*D5
0
LINE
5
1D1
100
AcDbEntity
8
0
62
256
6
ByLayer
370
-2
48
1
60
0
100
AcDbLine
10
42.6875
20
-14
30
0
11
67.85
21
-14
31
0
39
0
210
0
220
0
230
1
0
LINE
5
1D2
100
AcDbEntity
8
0
62
256
6
ByLayer
370
-2
48
1
60
0
100
AcDbLine
10
1.5875
20
0
30
0
11
67.85
21
0
31
0
39
0
210
0
220
0
230
1
0
LINE
5
1D3
100
AcDbEntity
8
0
62
256
6
ByLayer
370
-2
48
1
60
0
100
AcDbLine
10
65.85
20
-17.5
30
0
11
65.85
21
-21
31
0
39
0
210
0
220
0
230
1
0
LINE
5
1D4
100
AcDbEntity
8
0
62
256
6
ByLayer
370
-2
48
1
60
0
100
AcDbLine
10
65.85
20
3.5
30
0
11
65.85
21
7
31
0
39
0
210
0
220
0
230
1
0
SOLID
5
1D5
100
AcDbEntity
8
0
62
256
6
ByLayer
370
-1
48
1
60
0
100
AcDbTrace
10
66.433333
20
-17.5
30
0
11
65.266667
21
-17.5
31
0
12
65.85
22
-14
32
0
13
65.85
23
-14
33
0
39
0
210
0
220
0
230
1
0
SOLID
5
1D6
100
AcDbEntity
8
0
62
256
6
ByLayer
370
-1
48
1
60
0
100
AcDbTrace
10
65.266667
20
3.5
30
0
11
66.433333
21
3.5
31
0
12
65.85
22
0
32
0
13
65.85
23
0
33
0
39
0
210
0
220
0
230
1
0
MTEXT
5
1D7
100
AcDbEntity
8
0
62
256
6
ByLayer
370
18
48
1
60
0
100
AcDbMText
10
58.85
20
-7
30
0
210
0
220
0
230
1
1
\A1;14
40
3.5
41
0
44
1
50
90
71
5
72
5
7
iso_b_vert
0
POINT
5
1D8
100
AcDbEntity
8
Defpoints
62
0
6
ByLayer
370
-1
48
1
60
0
100
AcDbPoint
10
41.1
20
-14
30
0
39
0
210
0
220
0
230
1
50
360
0
POINT
5
1D9
100
AcDbEntity
8
Defpoints
62
0
6
ByLayer
370
-1
48
1
60
0
100
AcDbPoint
10
0
20
0
30
0
39
0
210
0
220
0
230
1
50
360
0
POINT
5
1DA
100
AcDbEntity
8
Defpoints
62
0
6
ByLayer
370
-1
48
1
60
0
100
AcDbPoint
10
65.85
20
0
30
0
39
0
210
0
220
0
230
1
50
360
0
ENDBLK
5
1D0
100
AcDbEntity
8
0
100
AcDbBlockEnd
0
BLOCK
5
1E2
100
AcDbEntity
8
0
100
AcDbBlockBegin
2
_U2
70
0
10
0
20
0
30
0
3
_U2
0
MTEXT
5
1DC
100
AcDbEntity
8
2
62
256
6
ByLayer
370
18
48
1
60
0
100
AcDbMText
10
65.160366
20
-8.6798
30
0
210
0
220
0
230
1
1
\W0.5785;14
40
3.5
41
0
44
1.084337
50
90
71
7
72
5
7
iso_b_vert
0
LINE
5
1DD
100
AcDbEntity
8
2
62
256
6
ByLayer
370
13
48
1
60
0
100
AcDbLine
10
42.6875
20
-14
30
0
11
67.85
21
-14
31
0
39
0
210
0
220
0
230
1
0
LINE
5
1DE
100
AcDbEntity
8
2
62
256
6
ByLayer
370
13
48
1
60
0
100
AcDbLine
10
1.5875
20
0
30
0
11
67.85
21
0
31
0
39
0
210
0
220
0
230
1
0
LINE
5
1DF
100
AcDbEntity
8
2
62
256
6
ByLayer
370
13
48
1
60
0
100
AcDbLine
10
65.85
20
-14
30
0
11
65.85
21
0
31
0
39
0
210
0
220
0
230
1
0
SOLID
5
1E0
100
AcDbEntity
8
2
62
256
6
ByLayer
370
18
48
1
60
0
100
AcDbTrace
10
65.85
20
-14
30
0
11
65.389216
21
-10.500002
31
0
12
66.310784
22
-10.499998
32
0
13
66.310784
23
-10.499998
33
0
39
0
210
0
220
0
230
1
0
SOLID
5
1E1
100
AcDbEntity
8
2
62
256
6
ByLayer
370
18
48
1
60
0
100
AcDbTrace
10
65.85
20
0
30
0
11
66.310784
21
-3.499998
31
0
12
65.389216
22
-3.500002
32
0
13
65.389216
23
-3.500002
33
0
39
0
210
0
220
0
230
1
0
ENDBLK
5
1E3
100
AcDbEntity
8
0
100
AcDbBlockEnd
0
BLOCK
5
1E8
100
AcDbEntity
8
0
100
AcDbBlockBegin
2
*D7
70
1
10
0
20
0
30
0
3
*D7
0
LINE
5
1EA
100
AcDbEntity
8
0
62
256
6
ByLayer
370
-2
48
1
60
0
100
AcDbLine
10
42.6875
20
-14
30
0
11
54.85
21
-14
31
0
39
0
210
0
220
0
230
1
0
LINE
5
1EB
100
AcDbEntity
8
0
62
256
6
ByLayer
370
-2
48
1
60
0
100
AcDbLine
10
42.6875
20
-11
30
0
11
54.85
21
-11
31
0
39
0
210
0
220
0
230
1
0
LINE
5
1EC
100
AcDbEntity
8
0
62
256
6
ByLayer
370
-2
48
1
60
0
100
AcDbLine
10
52.85
20
-17.5
30
0
11
52.85
21
-21
31
0
39
0
210
0
220
0
230
1
0
LINE
5
1ED
100
AcDbEntity
8
0
62
256
6
ByLayer
370
-2
48
1
60
0
100
AcDbLine
10
52.85
20
-7.5
30
0
11
52.85
21
-4
31
0
39
0
210
0
220
0
230
1
0
SOLID
5
1EE
100
AcDbEntity
8
0
62
256
6
ByLayer
370
-1
48
1
60
0
100
AcDbTrace
10
53.433333
20
-17.5
30
0
11
52.266667
21
-17.5
31
0
12
52.85
22
-14
32
0
13
52.85
23
-14
33
0
39
0
210
0
220
0
230
1
0
SOLID
5
1EF
100
AcDbEntity
8
0
62
256
6
ByLayer
370
-1
48
1
60
0
100
AcDbTrace
10
52.266667
20
-7.5
30
0
11
53.433333
21
-7.5
31
0
12
52.85
22
-11
32
0
13
52.85
23
-11
33
0
39
0
210
0
220
0
230
1
0
MTEXT
5
1F0
100
AcDbEntity
8
0
62
256
6
ByLayer
370
18
48
1
60
0
100
AcDbMText
10
45.85
20
-12.5
30
0
210
0
220
0
230
1
1
\A1;3
40
3.5
41
0
44
1
50
90
71
5
72
5
7
iso_b_vert
0
POINT
5
1F1
100
AcDbEntity
8
Defpoints
62
0
6
ByLayer
370
-1
48
1
60
0
100
AcDbPoint
10
41.1
20
-14
30
0
39
0
210
0
220
0
230
1
50
360
0
POINT
5
1F2
100
AcDbEntity
8
Defpoints
62
0
6
ByLayer
370
-1
48
1
60
0
100
AcDbPoint
10
41.1
20
-11
30
0
39
0
210
0
220
0
230
1
50
360
0
POINT
5
1F3
100
AcDbEntity
8
Defpoints
62
0
6
ByLayer
370
-1
48
1
60
0
100
AcDbPoint
10
52.85
20
-11
30
0
39
0
210
0
220
0
230
1
50
360
0
ENDBLK
5
1E9
100
AcDbEntity
8
0
100
AcDbBlockEnd
0
BLOCK
5
1FB
100
AcDbEntity
8
0
100
AcDbBlockBegin
2
_U3
70
0
10
0
20
0
30
0
3
_U3
0
MTEXT
5
1F5
100
AcDbEntity
8
2
62
256
6
ByLayer
370
18
48
1
60
0
100
AcDbMText
10
52.160366
20
-13.125233
30
0
210
0
220
0
230
1
1
\W0.5404;3
40
3.5
41
0
44
1.084337
50
90
71
7
72
5
7
iso_b_vert
0
LINE
5
1F6
100
AcDbEntity
8
2
62
256
6
ByLayer
370
13
48
1
60
0
100
AcDbLine
10
42.6875
20
-14
30
0
11
54.85
21
-14
31
0
39
0
210
0
220
0
230
1
0
LINE
5
1F7
100
AcDbEntity
8
2
62
256
6
ByLayer
370
13
48
1
60
0
100
AcDbLine
10
42.6875
20
-11
30
0
11
54.85
21
-11
31
0
39
0
210
0
220
0
230
1
0
LINE
5
1F8
100
AcDbEntity
8
2
62
256
6
ByLayer
370
13
48
1
60
0
100
AcDbLine
10
52.85
20
-22.75
30
0
11
52.85
21
-2.25
31
0
39
0
210
0
220
0
230
1
0
SOLID
5
1F9
100
AcDbEntity
8
2
62
256
6
ByLayer
370
18
48
1
60
0
100
AcDbTrace
10
52.85
20
-14
30
0
11
53.310784
21
-17.499998
31
0
12
52.389216
22
-17.500002
32
0
13
52.389216
23
-17.500002
33
0
39
0
210
0
220
0
230
1
0
SOLID
5
1FA
100
AcDbEntity
8
2
62
256
6
ByLayer
370
18
48
1
60
0
100
AcDbTrace
10
52.85
20
-11
30
0
11
52.389216
21
-7.500002
31
0
12
53.310784
22
-7.499998
32
0
13
53.310784
23
-7.499998
33
0
39
0
210
0
220
0
230
1
0
ENDBLK
5
1FC
100
AcDbEntity
8
0
100
AcDbBlockEnd
0
ENDSEC
0
SECTION
2
ENTITIES
0
ARC
5
FC
100
AcDbEntity
8
1
62
256
6
ByLayer
370
18
48
1
60
0
100
AcDbCircle
39
0
10
16.5
20
-0.875
30
0
40
0.5
210
0
220
0
230
1
100
AcDbArc
50
180
51
270
0
ARC
5
FE
100
AcDbEntity
8
1
62
256
6
ByLayer
370
18
48
1
60
0
100
AcDbCircle
39
0
10
16
20
-6.5
30
0
40
1.416
210
0
220
0
230
1
100
AcDbArc
50
119.809289
51
173.807562
0
ARC
5
FF
100
AcDbEntity
8
1
62
256
6
ByLayer
370
18
48
1
60
0
100
AcDbCircle
39
0
10
16
20
-6.5
30
0
40
1.416
210
0
220
0
230
1
100
AcDbArc
50
240.190711
51
299.809289
0
ARC
5
100
100
AcDbEntity
8
1
62
256
6
ByLayer
370
18
48
1
60
0
100
AcDbCircle
39
0
10
16
20
-6.5
30
0
40
1.416
210
0
220
0
230
1
100
AcDbArc
50
186.192438
51
240.190711
0
ARC
5
101
100
AcDbEntity
8
1
62
256
6
ByLayer
370
18
48
1
60
0
100
AcDbCircle
39
0
10
16
20
-6.5
30
0
40
1.416
210
0
220
0
230
1
100
AcDbArc
50
299.809289
51
353.807562
0
ARC
5
102
100
AcDbEntity
8
1
62
256
6
ByLayer
370
18
48
1
60
0
100
AcDbCircle
39
0
10
16
20
-6.5
30
0
40
1.416
210
0
220
0
230
1
100
AcDbArc
50
60.190711
51
119.809289
0
ARC
5
103
100
AcDbEntity
8
1
62
256
6
ByLayer
370
18
48
1
60
0
100
AcDbCircle
39
0
10
16
20
-6.5
30
0
40
1.416
210
0
220
0
230
1
100
AcDbArc
50
6.192438
51
60.190711
0
ARC
5
104
100
AcDbEntity
8
1
62
256
6
ByLayer
370
18
48
1
60
0
100
AcDbCircle
39
0
10
16
20
-6.5
30
0
40
1.416
210
0
220
0
230
1
100
AcDbArc
50
353.807562
51
6.192438
0
ARC
5
105
100
AcDbEntity
8
1
62
256
6
ByLayer
370
18
48
1
60
0
100
AcDbCircle
39
0
10
16
20
-6.5
30
0
40
1.9685
210
0
220
0
230
1
100
AcDbArc
50
329.618578
51
30.381422
0
ARC
5
108
100
AcDbEntity
8
1
62
256
6
ByLayer
370
18
48
1
60
0
100
AcDbCircle
39
0
10
16
20
-6.5
30
0
40
1.9685
210
0
220
0
230
1
100
AcDbArc
50
30.381422
51
90
0
ARC
5
109
100
AcDbEntity
8
1
62
256
6
ByLayer
370
18
48
1
60
0
100
AcDbCircle
39
0
10
16
20
-6.5
30
0
40
1.9685
210
0
220
0
230
1
100
AcDbArc
50
270
51
329.618578
0
ARC
5
10A
100
AcDbEntity
8
1
62
256
6
ByLayer
370
18
48
1
60
0
100
AcDbCircle
39
0
10
16
20
-6.5
30
0
40
1.9685
210
0
220
0
230
1
100
AcDbArc
50
90
51
149.618578
0
ARC
5
10B
100
AcDbEntity
8
1
62
256
6
ByLayer
370
18
48
1
60
0
100
AcDbCircle
39
0
10
16
20
-6.5
30
0
40
1.9685
210
0
220
0
230
1
100
AcDbArc
50
149.618578
51
210.381422
0
ARC
5
10C
100
AcDbEntity
8
1
62
256
6
ByLayer
370
18
48
1
60
0
100
AcDbCircle
39
0
10
16
20
-6.5
30
0
40
1.416
210
0
220
0
230
1
100
AcDbArc
50
173.807562
51
186.192438
0
ARC
5
10D
100
AcDbEntity
8
1
62
256
6
ByLayer
370
18
48
1
60
0
100
AcDbCircle
39
0
10
16
20
-6.5
30
0
40
1.9685
210
0
220
0
230
1
100
AcDbArc
50
210.381422
51
270
0
CIRCLE
5
FD
100
AcDbEntity
8
1
62
256
6
ByLayer
370
18
48
1
60
0
100
AcDbCircle
10
16
20
-6.5
30
0
40
4.55
39
0
210
0
220
0
230
1
0
CIRCLE
5
106
100
AcDbEntity
8
1
62
256
6
ByLayer
370
18
48
1
60
0
100
AcDbCircle
10
16
20
-6.5
30
0
40
4.25
39
0
210
0
220
0
230
1
0
CIRCLE
5
107
100
AcDbEntity
8
1
62
256
6
ByLayer
370
18
48
1
60
0
100
AcDbCircle
10
16
20
-6.5
30
0
40
3.75
39
0
210
0
220
0
230
1
0
ELLIPSE
5
10E
100
AcDbEntity
8
1
62
256
6
ByLayer
370
18
48
1
60
0
100
AcDbEllipse
10
45.542918
20
136.2
30
0
11
1.03929513214439E-13
21
-147.52499957462
31
0
210
0
220
0
230
1
40
0.57735
41
-0.128466952287294
42
-0.0629278777594283
0
ELLIPSE
5
10F
100
AcDbEntity
8
1
62
256
6
ByLayer
370
18
48
1
60
0
100
AcDbEllipse
10
35.715675
20
136.200018
30
0
11
1.03929526490314E-13
21
-147.525018419348
31
0
210
0
220
0
230
1
40
0.97015
41
-0.0305080349098459
42
-0.00922189733975804
0
ELLIPSE
5
110
100
AcDbEntity
8
1
62
256
6
ByLayer
370
18
48
1
60
0
100
AcDbEllipse
10
36.712891
20
136.199999
30
0
11
175.813448232368
21
0
31
0
210
0
220
0
230
1
40
0.8391
41
-1.64830194373049
42
-1.60130436369765
0
ELLIPSE
5
111
100
AcDbEntity
8
1
62
256
6
ByLayer
370
18
48
1
60
0
100
AcDbEllipse
10
11.884652
20
54.000273
30
0
11
2009.31446071276
21
0
31
0
210
0
220
0
230
1
40
0.033681
41
-1.57542097565861
42
-1.57079635503932
0
ELLIPSE
5
112
100
AcDbEntity
8
1
62
256
6
ByLayer
370
18
48
1
60
0
100
AcDbEllipse
10
-1661.631979
20
53.768615
30
0
11
5465.6364517758
21
-22.2104194737825
31
0
210
0
220
0
230
1
40
0.011651
41
-1.25724671638615
42
-1.25523992611123
0
ELLIPSE
5
113
100
AcDbEntity
8
1
62
256
6
ByLayer
370
18
48
1
60
0
100
AcDbEllipse
10
35.715675
20
54
30
0
11
4.76761893106082E-14
21
-67.6750000094276
31
0
210
0
220
0
230
1
40
0.97015
41
-0.0665433724632343
42
-0.0200068051141494
0
ELLIPSE
5
114
100
AcDbEntity
8
1
62
256
6
ByLayer
370
18
48
1
60
0
100
AcDbEllipse
10
36.712891
20
54
30
0
11
80.6519243825577
21
0
31
0
210
0
220
0
230
1
40
0.8391
41
-1.75732116944712
42
-1.63733969925982
0
ELLIPSE
5
115
100
AcDbEntity
8
1
62
256
6
ByLayer
370
18
48
1
60
0
100
AcDbEllipse
10
0.708583
20
54
30
0
11
4.76761892893943E-14
21
-67.6749999793151
31
0
210
0
220
0
230
1
40
0.771313
41
0.0988876574215035
42
0.186524842689035
0
ELLIPSE
5
116
100
AcDbEntity
8
1
62
256
6
ByLayer
370
18
48
1
60
0
100
AcDbEllipse
10
-0.55432
20
54
30
0
11
4.76761893164373E-14
21
-67.6750000177018
31
0
210
0
220
0
230
1
40
0.771313
41
0.107960866702519
42
0.192771116146078
0
ELLIPSE
5
117
100
AcDbEntity
8
1
62
256
6
ByLayer
370
18
48
1
60
0
100
AcDbEllipse
10
22.411
20
54.000001
30
0
11
4.76761900719107E-14
21
-67.675001090075
31
0
210
0
220
0
230
1
40
1
41
-0.237923630220509
42
-0.192771114727618
0
ELLIPSE
5
118
100
AcDbEntity
8
1
62
256
6
ByLayer
370
18
48
1
60
0
100
AcDbEllipse
10
37.328061
20
-10.55
30
0
11
0.897993681842833
21
0
31
0
210
0
220
0
230
1
40
0.890875
41
-1.5707963267949
42
-1.29515256586028
0
ELLIPSE
5
119
100
AcDbEntity
8
1
62
256
6
ByLayer
370
18
48
1
60
0
100
AcDbEllipse
10
35.723179
20
-11.474562
30
0
11
0.850692273116201
21
0
31
0
210
0
220
0
230
1
40
0.176327
41
3.14159265358979
42
-2.80561677261672
0
ELLIPSE
5
11A
100
AcDbEntity
8
1
62
256
6
ByLayer
370
18
48
1
60
0
100
AcDbEllipse
10
37.195006
20
-12.066064
30
0
11
1.13425636391763
21
0
31
0
210
0
220
0
230
1
40
0.176327
41
-2.80561677258059
42
-1.98717825108446
0
ELLIPSE
5
11B
100
AcDbEntity
8
1
62
256
6
ByLayer
370
18
48
1
60
0
100
AcDbEllipse
10
41.323799
20
-10.419859
30
0
11
-11.3425636708861
21
-3.5475395762789E-09
31
0
210
0
220
0
230
1
40
0.176327
41
1.15441440165642
42
1.2217304753822
0
ELLIPSE
5
11C
100
AcDbEntity
8
1
62
256
6
ByLayer
370
18
48
1
60
0
100
AcDbEllipse
10
37.090371
20
-12.5
30
0
11
1.19096918211259
21
0
31
0
210
0
220
0
230
1
40
0.176327
41
0
42
1.22173047639597
0
ELLIPSE
5
11D
100
AcDbEntity
8
1
62
256
6
ByLayer
370
18
48
1
60
0
100
AcDbEllipse
10
37.090371
20
-12.5
30
0
11
1.1909691821121
21
0
31
0
210
0
220
0
230
1
40
0.176327
41
-1.22173047639622
42
0
0
ELLIPSE
5
11E
100
AcDbEntity
8
1
62
256
6
ByLayer
370
18
48
1
60
0
100
AcDbEllipse
10
41.323799
20
-14.580141
30
0
11
11.3425636699608
21
-3.46275406809144E-09
31
0
210
0
220
0
230
1
40
0.176327
41
1.91986217819144
42
1.98717825192237
0
ELLIPSE
5
11F
100
AcDbEntity
8
1
62
256
6
ByLayer
370
18
48
1
60
0
100
AcDbEllipse
10
37.195006
20
-12.933936
30
0
11
1.13425636391671
21
0
31
0
210
0
220
0
230
1
40
0.176327
41
1.98717825108412
42
2.80561677258086
0
ELLIPSE
5
120
100
AcDbEntity
8
1
62
256
6
ByLayer
370
18
48
1
60
0
100
AcDbEllipse
10
35.723179
20
-13.525438
30
0
11
0.850692273023779
21
0
31
0
210
0
220
0
230
1
40
0.176327
41
2.8056167725982
42
3.14159265358979
0
ELLIPSE
5
121
100
AcDbEntity
8
1
62
256
6
ByLayer
370
18
48
1
60
0
100
AcDbEllipse
10
37.328061
20
-14.45
30
0
11
0.897993681772837
21
0
31
0
210
0
220
0
230
1
40
0.890875
41
1.29515256583861
42
1.5707963267949
0
ELLIPSE
5
122
100
AcDbEntity
8
1
62
256
6
ByLayer
370
18
48
1
60
0
100
AcDbEllipse
10
36.671498
20
-11.75
30
0
11
-2.3287088041805E-17
21
-0.126773189709051
31
0
210
0
220
0
230
1
40
0.984808
41
0
42
6.28318530717959
0
ELLIPSE
5
123
100
AcDbEntity
8
1
62
256
6
ByLayer
370
18
48
1
60
0
100
AcDbEllipse
10
24.871939
20
-14.45
30
0
11
0.897993681821794
21
0
31
0
210
0
220
0
230
1
40
0.890875
41
1.71978580985161
42
1.84644008773602
0
POINT
5
70
100
AcDbEntity
8
81
62
256
6
ByLayer
370
18
48
1
60
0
100
AcDbPoint
10
41.1
20
-14
30
0
39
0
210
0
220
0
230
1
50
360
0
POINT
5
72
100
AcDbEntity
8
80
62
256
6
ByLayer
370
18
48
1
60
0
100
AcDbPoint
10
0
20
0
30
0
39
0
210
0
220
0
230
1
50
360
0
POINT
5
74
100
AcDbEntity
8
1
62
256
6
ByLayer
370
18
48
1
60
1
100
AcDbPoint
10
0
20
0
30
0
39
0
210
0
220
0
230
1
50
360
0
POINT
5
76
100
AcDbEntity
8
1
62
256
6
ByLayer
370
18
48
1
60
1
100
AcDbPoint
10
41.1
20
-14
30
0
39
0
210
0
220
0
230
1
50
360
0
POINT
5
77
100
AcDbEntity
8
1
62
256
6
ByLayer
370
18
48
1
60
1
100
AcDbPoint
10
23.1
20
-11.325
30
0
39
0
210
0
220
0
230
1
50
360
0
POINT
5
78
100
AcDbEntity
8
1
62
256
6
ByLayer
370
18
48
1
60
1
100
AcDbPoint
10
41.1
20
-14
30
0
39
0
210
0
220
0
230
1
50
360
0
POINT
5
79
100
AcDbEntity
8
1
62
256
6
ByLayer
370
18
48
1
60
1
100
AcDbPoint
10
41.1
20
-14
30
0
39
0
210
0
220
0
230
1
50
360
0
POINT
5
7A
100
AcDbEntity
8
1
62
256
6
ByLayer
370
18
48
1
60
1
100
AcDbPoint
10
0
20
0
30
0
39
0
210
0
220
0
230
1
50
360
0
POINT
5
7B
100
AcDbEntity
8
1
62
256
6
ByLayer
370
18
48
1
60
1
100
AcDbPoint
10
41.1
20
-14
30
0
39
0
210
0
220
0
230
1
50
360
0
POINT
5
7C
100
AcDbEntity
8
1
62
256
6
ByLayer
370
18
48
1
60
1
100
AcDbPoint
10
41.1
20
-11
30
0
39
0
210
0
220
0
230
1
50
360
0
SPLINE
5
124
100
AcDbEntity
8
1
62
256
6
ByLayer
370
18
48
1
60
0
100
AcDbSpline
70
4
71
3
72
12
73
8
40
0
40
0
40
0
40
0
40
0.28212329357494
40
0.28212329357494
40
0.64106164678747
40
0.64106164678747
40
1
40
1
40
1
40
1
41
1
10
9.22962551724973
20
0.312730672053561
30
0
41
1
10
9.22018631298099
20
0.314781589375514
30
0
41
1
10
9.21076689725157
20
0.316635418411295
30
0
41
1
10
9.18954659679824
20
0.320303380455783
30
0
41
1
10
9.17785494090333
20
0.321962244275824
30
0
41
1
10
9.15494813398624
20
0.324297936900479
30
0
41
1
10
9.14372986087079
20
0.324980947161691
30
0
41
1
10
9.13284665391035
20
0.324980947161691
30
0
0
SPLINE
5
125
100
AcDbEntity
8
1
62
256
6
ByLayer
370
18
48
1
60
0
100
AcDbSpline
70
4
71
3
72
8
73
4
40
0
40
0
40
0
40
0
40
1
40
1
40
1
40
1
41
1
10
8.97509300114021
20
0.269594177820636
30
0
41
1
10
8.97048024229872
20
0.263188796058728
30
0
41
1
10
8.96535566342396
20
0.256648768658465
30
0
41
1
10
8.95982040671319
20
0.249999999999829
30
0
0
SPLINE
5
126
100
AcDbEntity
8
1
62
256
6
ByLayer
370
18
48
1
60
0
100
AcDbSpline
70
4
71
3
72
12
73
8
40
0
40
0
40
0
40
0
40
0.272831796309031
40
0.272831796309031
40
0.545663592618062
40
0.545663592618062
40
1
40
1
40
1
40
1
41
1
10
35.9162246027709
20
-11.2508288793723
30
0
41
1
10
35.8327034206018
20
-11.2506830164095
30
0
41
1
10
35.7491822388126
20
-11.250536935732
30
0
41
1
10
35.5821398759976
20
-11.2502443389003
30
0
41
1
10
35.4986186949712
20
-11.250097822746
30
0
41
1
10
35.2760128707231
20
-11.2497067384236
30
0
41
1
10
35.1369282281781
20
-11.2494617841424
30
0
41
1
10
34.9978435867008
20
-11.2492162258773
30
0
0
SPLINE
5
127
100
AcDbEntity
8
1
62
256
6
ByLayer
370
18
48
1
60
0
100
AcDbSpline
70
4
71
3
72
8
73
4
40
0
40
0
40
0
40
0
40
1
40
1
40
1
40
1
41
1
10
8.94788459874798
20
0.25
30
0
41
1
10
8.95695689263579
20
0.256520867363747
30
0
41
1
10
8.96602634583104
20
0.263052313104737
30
0
41
1
10
8.97509300113904
20
0.269594177821347
30
0
0
SPLINE
5
128
100
AcDbEntity
8
1
62
256
6
ByLayer
370
18
48
1
60
0
100
AcDbSpline
70
4
71
3
72
18
73
14
40
0
40
0
40
0
40
0
40
0.124999999999997
40
0.124999999999997
40
0.249999999999994
40
0.249999999999994
40
0.374999999999991
40
0.374999999999991
40
0.499999999999988
40
0.499999999999988
40
0.749999999999994
40
0.749999999999994
40
1
40
1
40
1
40
1
41
1
10
9.40454881002665
20
0.324980947161663
30
0
41
1
10
9.38759768040057
20
0.324980947161663
30
0
41
1
10
9.37037734087883
20
0.324333802126603
30
0
41
1
10
9.33556537132938
20
0.322240606437305
30
0
41
1
10
9.31797101305719
20
0.320786465321106
30
0
41
1
10
9.28248929533834
20
0.317312073862979
30
0
41
1
10
9.26457702835458
20
0.315286220540855
30
0
41
1
10
9.2286184412612
20
0.310825062109671
30
0
41
1
10
9.21061352336176
20
0.308394804813759
30
0
41
1
10
9.15652522117634
20
0.300657493979827
30
0
41
1
10
9.12036847898457
20
0.294911325240093
30
0
41
1
10
9.04786915185497
20
0.282718617451991
30
0
41
1
10
9.01152644313692
20
0.276266358807078
30
0
41
1
10
8.97509300113904
20
0.269594177821347
30
0
0
SPLINE
5
129
100
AcDbEntity
8
1
62
256
6
ByLayer
370
18
48
1
60
0
100
AcDbSpline
70
4
71
3
72
20
73
16
40
0
40
0
40
0
40
0
40
0.25
40
0.25
40
0.375
40
0.375
40
0.5
40
0.5
40
0.625
40
0.625
40
0.75
40
0.75
40
0.875
40
0.875
40
1
40
1
40
1
40
1
41
1
10
9.3844789550599
20
0.25
30
0
41
1
10
9.39682270649575
20
0.259824535101188
30
0
41
1
10
9.40890440191322
20
0.269050270820657
30
0
41
1
10
9.42658457612515
20
0.281897606492294
30
0
41
1
10
9.43240356571505
20
0.286013315481341
30
0
41
1
10
9.44387251607549
20
0.293868908437645
30
0
41
1
10
9.44955246765531
20
0.297627228915957
30
0
41
1
10
9.46048600059484
20
0.304557321014272
30
0
41
1
10
9.46575547887247
20
0.307741778715808
30
0
41
1
10
9.47584069438224
20
0.313466776029827
30
0
41
1
10
9.48067606109115
20
0.316017460644701
30
0
41
1
10
9.48970604367264
20
0.320287538788818
30
0
41
1
10
9.49383752136632
20
0.321978904858042
30
0
41
1
10
9.50120547788177
20
0.324325438354236
30
0
41
1
10
9.50446684643606
20
0.324980947161691
30
0
41
1
10
9.5070945452878
20
0.324980947161691
30
0
0
SPLINE
5
12A
100
AcDbEntity
8
1
62
256
6
ByLayer
370
18
48
1
60
0
100
AcDbSpline
70
4
71
2
72
6
73
3
40
0
40
0
40
0
40
1
40
1
40
1
41
1
10
9.50723215695228
20
0.324980947161691
30
0
41
1
10
9.53999786148736
20
0.324980947161691
30
0
41
1
10
9.57062122153147
20
0.324980947161691
30
0
0
SPLINE
5
12B
100
AcDbEntity
8
1
62
256
6
ByLayer
370
18
48
1
60
0
100
AcDbSpline
70
4
71
3
72
18
73
14
40
0
40
0
40
0
40
0
40
0.249999999999997
40
0.249999999999997
40
0.374999999999996
40
0.374999999999996
40
0.499999999999995
40
0.499999999999995
40
0.749999999999998
40
0.749999999999998
40
0.874999999999999
40
0.874999999999999
40
1
40
1
40
1
40
1
41
1
10
14.8184692127086
20
0.249980947161674
30
0
41
1
10
14.8074408879534
20
0.25978207251589
30
0
41
1
10
14.7967015141747
20
0.269079983040143
30
0
41
1
10
14.7810985572145
20
0.282134384874752
30
0
41
1
10
14.7760027492335
20
0.286317935978389
30
0
41
1
10
14.7661922846909
20
0.294192871663853
30
0
41
1
10
14.7614560038651
20
0.29790260373386
30
0
41
1
10
14.7478183865456
20
0.308259492032192
30
0
41
1
10
14.7393963271011
20
0.314194627055087
30
0
41
1
10
14.729075461519
20
0.320451985953838
30
0
41
1
10
14.7259716490943
20
0.322125675212874
30
0
41
1
10
14.7207746365131
20
0.324388699392443
30
0
41
1
10
14.7186893510728
20
0.32498094716172
30
0
41
1
10
14.7171680292953
20
0.32498094716172
30
0
0
SPLINE
5
12C
100
AcDbEntity
8
1
62
256
6
ByLayer
370
18
48
1
60
0
100
AcDbSpline
70
4
71
3
72
22
73
18
40
0
40
0
40
0
40
0
40
0.125
40
0.125
40
0.25
40
0.25
40
0.375
40
0.375
40
0.5
40
0.5
40
0.625
40
0.625
40
0.75
40
0.75
40
0.875
40
0.875
40
1
40
1
40
1
40
1
41
1
10
9.57048139756094
20
0.324980947060027
30
0
41
1
10
9.57251449079982
20
0.324980699935452
30
0
41
1
10
9.57410536556662
20
0.324533102723962
30
0
41
1
10
9.57628182451117
20
0.322618634072569
30
0
41
1
10
9.57683167984811
20
0.321175545408039
30
0
41
1
10
9.57685514810564
20
0.317350053736362
30
0
41
1
10
9.57631860575586
20
0.314932710155119
30
0
41
1
10
9.5741997112676
20
0.309275100347463
30
0
41
1
10
9.57263907119452
20
0.306067076874996
30
0
41
1
10
9.56861585716385
20
0.298965833156615
30
0
41
1
10
9.56613810398775
20
0.295057128232287
30
0
41
1
10
9.56055905507199
20
0.28690587896952
30
0
41
1
10
9.55744018536603
20
0.282630010692884
30
0
41
1
10
9.55063275024946
20
0.273730195609943
30
0
41
1
10
9.5469222663894
20
0.26908108225922
30
0
41
1
10
9.53914014588514
20
0.259653435704053
30
0
41
1
10
9.53505931314226
20
0.254861141173507
30
0
41
1
10
9.53081289439862
20
0.249999999999943
30
0
0
SPLINE
5
12D
100
AcDbEntity
8
1
62
256
6
ByLayer
370
18
48
1
60
0
100
AcDbSpline
70
4
71
3
72
8
73
4
40
0
40
0
40
0
40
0
40
1
40
1
40
1
40
1
41
1
10
15.2430820962789
20
-0.129903810567669
30
0
41
1
10
15.4272614048143
20
-0.311558795603588
30
0
41
1
10
15.6113958294121
20
-0.493259035297626
30
0
41
1
10
15.7954898626159
20
-0.675000000000011
30
0
0
SPLINE
5
12E
100
AcDbEntity
8
1
62
256
6
ByLayer
370
18
48
1
60
0
100
AcDbSpline
70
4
71
3
72
8
73
4
40
0
40
0
40
0
40
0
40
1
40
1
40
1
40
1
41
1
10
15.2430820962789
20
-0.129903810567669
30
0
41
1
10
15.1020216400389
20
-0.0028773178347024
30
0
41
1
10
14.9604945734528
20
0.123759749017154
30
0
41
1
10
14.8184692127086
20
0.249980947161674
30
0
0
SPLINE
5
12F
100
AcDbEntity
8
1
62
256
6
ByLayer
370
18
48
1
60
0
100
AcDbSpline
70
4
71
3
72
41
73
37
40
0
40
0
40
0
40
0
40
0.124999999999996
40
0.124999999999996
40
0.156249999999996
40
0.156249999999996
40
0.187499999999996
40
0.187499999999996
40
0.249999999999995
40
0.312499999999995
40
0.312499999999995
40
0.343749999999995
40
0.343749999999995
40
0.374999999999994
40
0.374999999999994
40
0.499999999999999
40
0.499999999999999
40
0.562500000000002
40
0.562500000000002
40
0.593750000000004
40
0.593750000000004
40
0.625000000000006
40
0.625000000000006
40
0.750000000000008
40
0.750000000000008
40
0.781250000000008
40
0.781250000000008
40
0.812500000000007
40
0.812500000000007
40
0.875000000000003
40
0.875000000000003
40
0.906250000000002
40
0.906250000000002
40
0.937500000000001
40
0.937500000000001
40
1
40
1
40
1
40
1
41
1
10
23.1000000000004
20
-10.1093148948487
30
0
41
1
10
22.9951164826051
20
-10.1093148948487
30
0
41
1
10
22.8910157761053
20
-10.0990164402321
30
0
41
1
10
22.761881069824
20
-10.0731037096362
30
0
41
1
10
22.7360790581436
20
-10.0672568853726
30
0
41
1
10
22.6846828118891
20
-10.0542455578007
30
0
41
1
10
22.659254384317
20
-10.0471244115926
30
0
41
1
10
22.5837607994285
20
-10.0239542094246
30
0
41
1
10
22.4852100262442
20
-9.98825136625112
30
0
41
1
10
22.3907862847676
20
-9.94313006799379
30
0
41
1
10
22.3215283485702
20
-9.90572925620782
30
0
41
1
10
22.2987028097912
20
-9.89266795908219
30
0
41
1
10
22.2535804113264
20
-9.86533884628528
30
0
41
1
10
22.2312245173496
20
-9.85103020185881
30
0
41
1
10
22.1215883795322
20
-9.77694723031834
30
0
41
1
10
22.0410478585432
20
-9.70996278119722
30
0
41
1
10
21.9305894160532
20
-9.5983399359537
30
0
41
1
10
21.8955080353893
20
-9.5592609406313
30
0
41
1
10
21.8455576431766
20
-9.49776590060907
30
0
41
1
10
21.82931718775
20
-9.47673387849963
30
0
41
1
10
21.7980549363805
20
-9.43411779367139
30
0
41
1
10
21.7830034486466
20
-9.41250234714806
30
0
41
1
10
21.7105896483027
20
-9.30291702468836
30
0
41
1
10
21.6616777955525
20
-9.21046554763927
30
0
41
1
10
21.6117714456203
20
-9.08894366592921
30
0
41
1
10
21.6023568656923
20
-9.06433875223911
30
0
41
1
10
21.5846806752695
20
-9.01451746120125
30
0
41
1
10
21.5764142487834
20
-8.98927486673216
30
0
41
1
10
21.5535729416557
20
-8.91328569038942
30
0
41
1
10
21.540871704989
20
-8.86207187783904
30
0
41
1
10
21.5255746775825
20
-8.78442721440237
30
0
41
1
10
21.5211026096119
20
-8.75840808641806
30
0
41
1
10
21.5134202389567
20
-8.7060929536336
30
0
41
1
10
21.5102050162838
20
-8.67973835064603
30
0
41
1
10
21.5025213808006
20
-8.60075016126865
30
0
41
1
10
21.5
20
-8.54823964627002
30
0
41
1
10
21.5
20
-8.49587286788801
30
0
0
SPLINE
5
130
100
AcDbEntity
8
1
62
256
6
ByLayer
370
18
48
1
60
0
100
AcDbSpline
70
4
71
3
72
12
73
8
40
0
40
0
40
0
40
0
40
0.5
40
0.5
40
0.75
40
0.75
40
1
40
1
40
1
40
1
41
1
10
34.6638003328165
20
-12.7500000000002
30
0
41
1
10
34.6226121134157
20
-12.9032763148063
30
0
41
1
10
34.5807850682691
20
-13.0561903437881
30
0
41
1
10
34.516028349074
20
-13.2844180033191
30
0
41
1
10
34.4940998676354
20
-13.360299422334
30
0
41
1
10
34.4491574407535
20
-13.5114466805686
30
0
41
1
10
34.4261489966845
20
-13.586743498378
30
0
41
1
10
34.4022179274068
20
-13.6614562394843
30
0
0
SPLINE
5
131
100
AcDbEntity
8
1
62
256
6
ByLayer
370
18
48
1
60
0
100
AcDbSpline
70
4
71
3
72
8
73
4
40
0
40
0
40
0
40
0
40
1
40
1
40
1
40
1
41
1
10
34.7802715088963
20
-12.6878989908994
30
0
41
1
10
34.7415098707272
20
-12.7088384873171
30
0
41
1
10
34.7026967756915
20
-12.7295797717263
30
0
41
1
10
34.6638003328162
20
-12.75
30
0
0
SPLINE
5
132
100
AcDbEntity
8
1
62
256
6
ByLayer
370
18
48
1
60
0
100
AcDbSpline
70
4
71
3
72
20
73
16
40
0
40
0
40
0
40
0
40
0.249999999999999
40
0.249999999999999
40
0.374999999999999
40
0.374999999999999
40
0.5
40
0.5
40
0.625
40
0.625
40
0.75
40
0.75
40
0.875
40
0.875
40
1
40
1
40
1
40
1
41
1
10
34.85
20
-12.5488189610524
30
0
41
1
10
34.85
20
-12.5641490047044
30
0
41
1
10
34.8483032683748
20
-12.57906272116
30
0
41
1
10
34.8432722054894
20
-12.6008233142706
30
0
41
1
10
34.8411956020291
20
-12.607857468867
30
0
41
1
10
34.8363470925789
20
-12.6212854151622
30
0
41
1
10
34.8335665145094
20
-12.6277165972179
30
0
41
1
10
34.8272922998829
20
-12.6400130523269
30
0
41
1
10
34.8238109198991
20
-12.6458371602263
30
0
41
1
10
34.8163703434729
20
-12.6565662640604
30
0
41
1
10
34.8123875914646
20
-12.661519135205
30
0
41
1
10
34.8039058839995
20
-12.6706151999758
30
0
41
1
10
34.7993925342151
20
-12.6747610157103
30
0
41
1
10
34.7900824753272
20
-12.6820397054276
30
0
41
1
10
34.7852598767438
20
-12.6852042154563
30
0
41
1
10
34.7802715088963
20
-12.6878989908994
30
0
0
SPLINE
5
133
100
AcDbEntity
8
1
62
256
6
ByLayer
370
18
48
1
60
0
100
AcDbSpline
70
4
71
3
72
18
73
14
40
0
40
0
40
0
40
0
40
0.24999999999997
40
0.24999999999997
40
0.374999999999979
40
0.374999999999979
40
0.499999999999989
40
0.499999999999989
40
0.624999999999998
40
0.624999999999998
40
0.750000000000007
40
0.750000000000007
40
1
40
1
40
1
40
1
41
1
10
34.7802715088965
20
-12.3121010091006
30
0
41
1
10
34.7902534965698
20
-12.3174933971678
30
0
41
1
10
34.7995110920796
20
-12.3247001325068
30
0
41
1
10
34.8122681364232
20
-12.3383388568583
30
0
41
1
10
34.8163247014677
20
-12.3433741334294
30
0
41
1
10
34.8237697540224
20
-12.3540973397703
30
0
41
1
10
34.827196025976
20
-12.3598217468452
30
0
41
1
10
34.8334409557019
20
-12.3720146675935
30
0
41
1
10
34.8362812874853
20
-12.3785480546616
30
0
41
1
10
34.8411732159972
20
-12.3920650970702
30
0
41
1
10
34.8432281689773
20
-12.3990283425917
30
0
41
1
10
34.848227700362
20
-12.4205282172852
30
0
41
1
10
34.8500000000053
20
-12.4358324946182
30
0
41
1
10
34.8500000000053
20
-12.4511810389469
30
0
0
SPLINE
5
134
100
AcDbEntity
8
1
62
256
6
ByLayer
370
18
48
1
60
0
100
AcDbSpline
70
4
71
3
72
8
73
4
40
0
40
0
40
0
40
0
40
1
40
1
40
1
40
1
41
1
10
34.6638003328162
20
-12.25
30
0
41
1
10
34.7026987739192
20
-12.2704212773225
30
0
41
1
10
34.741511570766
20
-12.291162431064
30
0
41
1
10
34.7802715088965
20
-12.3121010091006
30
0
0
SPLINE
5
135
100
AcDbEntity
8
1
62
256
6
ByLayer
370
18
48
1
60
0
100
AcDbSpline
70
4
71
3
72
12
73
8
40
0
40
0
40
0
40
0
40
0.249999999999997
40
0.249999999999997
40
0.499999999999995
40
0.499999999999995
40
1
40
1
40
1
40
1
41
1
10
34.3958430769544
20
-11.3187270305791
30
0
41
1
10
34.4204309365894
20
-11.3948265873318
30
0
41
1
10
34.4440290234976
20
-11.4716410734303
30
0
41
1
10
34.4901268149158
20
-11.6260634255494
30
0
41
1
10
34.5126022376313
20
-11.7036494758649
30
0
41
1
10
34.5789141451953
20
-11.9369572756513
30
0
41
1
10
34.621690270952
20
-12.0932931747794
30
0
41
1
10
34.6638003328162
20
-12.25
30
0
0
SPLINE
5
136
100
AcDbEntity
8
1
62
256
6
ByLayer
370
18
48
1
60
0
100
AcDbSpline
70
4
71
3
72
20
73
16
40
0
40
0
40
0
40
0
40
0.125
40
0.125
40
0.250000000000001
40
0.250000000000001
40
0.500000000000002
40
0.500000000000002
40
0.625000000000001
40
0.625000000000001
40
0.750000000000001
40
0.750000000000001
40
0.875
40
0.875
40
1
40
1
40
1
40
1
41
1
10
-11.1539311130558
20
0.249980947163749
30
0
41
1
10
-11.1604321264514
20
0.254843125490652
30
0
41
1
10
-11.1669160865667
20
0.259584653592839
30
0
41
1
10
-11.1798450150413
20
0.268812423928665
30
0
41
1
10
-11.1863183862468
20
0.273317667880235
30
0
41
1
10
-11.205414819476
20
0.286238759708993
30
0
41
1
10
-11.2177208346944
20
0.29407886125324
30
0
41
1
10
-11.2353751890956
20
0.30440847513853
30
0
41
1
10
-11.2411564914624
20
0.307626792034853
30
0
41
1
10
-11.2522175048208
20
0.313387918152557
30
0
41
1
10
-11.2574809997012
20
0.315925042907423
30
0
41
1
10
-11.2673785357809
20
0.320189385940665
30
0
41
1
10
-11.2720438166112
20
0.32192703352834
30
0
41
1
10
-11.2804336330612
20
0.324326717375243
30
0
41
1
10
-11.2841126650964
20
0.32498094716189
30
0
41
1
10
-11.2871772280887
20
0.324980947161919
30
0
0
SPLINE
5
137
100
AcDbEntity
8
1
62
256
6
ByLayer
370
18
48
1
60
0
100
AcDbSpline
70
4
71
3
72
8
73
4
40
0
40
0
40
0
40
0
40
1
40
1
40
1
40
1
41
1
10
-11.1032350631269
20
0.212243119289155
30
0
41
1
10
-11.1201660472026
20
0.224786456048634
30
0
41
1
10
-11.1370643731012
20
0.237366129676758
30
0
41
1
10
-11.1539311130555
20
0.249980947161646
30
0
0
SPLINE
5
138
100
AcDbEntity
8
1
62
256
6
ByLayer
370
18
48
1
60
0
100
AcDbSpline
70
4
71
3
72
16
73
12
40
0
40
0
40
0
40
0
40
0.250000000000001
40
0.250000000000001
40
0.500000000000003
40
0.500000000000003
40
0.750000000000004
40
0.750000000000004
40
0.875000000000002
40
0.875000000000002
40
1
40
1
40
1
40
1
41
1
10
-9.96637832280616
20
0.249980947161674
30
0
41
1
10
-9.99078675577488
20
0.259909297798572
30
0
41
1
10
-10.0150264157267
20
0.269095229194733
30
0
41
1
10
-10.0631479963767
20
0.285965246733184
30
0
41
1
10
-10.0870307140286
20
0.293653557543223
30
0
41
1
10
-10.1343736234426
20
0.307193150124277
30
0
41
1
10
-10.1578378552941
20
0.313070425791182
30
0
41
1
10
-10.1925916480194
20
0.319751268507474
30
0
41
1
10
-10.2040252939894
20
0.321595212906118
30
0
41
1
10
-10.2261105645492
20
0.324200732781947
30
0
41
1
10
-10.2368176996361
20
0.324980947160697
30
0
41
1
10
-10.2470436468637
20
0.324980947161663
30
0
0
SPLINE
5
139
100
AcDbEntity
8
1
62
256
6
ByLayer
370
18
48
1
60
0
100
AcDbSpline
70
4
71
3
72
8
73
4
40
0
40
0
40
0
40
0
40
1
40
1
40
1
40
1
41
1
10
-9.66021760523434
20
0.133311925533462
30
0
41
1
10
-9.76333499200248
20
0.169915419766625
30
0
41
1
10
-9.86535047197751
20
0.20888695606402
30
0
41
1
10
-9.96637832280624
20
0.249980947161504
30
0
0
SPLINE
5
13A
100
AcDbEntity
8
1
62
256
6
ByLayer
370
18
48
1
60
0
100
AcDbSpline
70
4
71
3
72
14
73
10
40
0
40
0
40
0
40
0
40
0.303513390286633
40
0.303513390286633
40
0.607026780573266
40
0.607026780573266
40
0.910540170859898
40
0.910540170859898
40
1
40
1
40
1
40
1
41
1
10
-9.40454881002677
20
0.324980947161663
30
0
41
1
10
-9.38759768042247
20
0.324980947161663
30
0
41
1
10
-9.37037734089567
20
0.324333802127739
30
0
41
1
10
-9.33556537129776
20
0.322240606435287
30
0
41
1
10
-9.31797101298199
20
0.320786465315109
30
0
41
1
10
-9.28248929514564
20
0.317312073842714
30
0
41
1
10
-9.2645770280252
20
0.315286220502173
30
0
41
1
10
-9.24129838173931
20
0.312398183522959
30
0
41
1
10
-9.23599680282356
20
0.311723378500716
30
0
41
1
10
-9.23069302614012
20
0.311032527846436
30
0
0
SPLINE
5
13B
100
AcDbEntity
8
1
62
256
6
ByLayer
370
18
48
1
60
0
100
AcDbSpline
70
4
71
3
72
16
73
12
40
0
40
0
40
0
40
0
40
0.225218974002708
40
0.225218974002708
40
0.450437948005415
40
0.450437948005415
40
0.675656922008123
40
0.675656922008123
40
0.90087589601083
40
0.90087589601083
40
1
40
1
40
1
40
1
41
1
10
-11.0234674519049
20
0.324980947168172
30
0
41
1
10
-11.0186481431831
20
0.324980947167972
30
0
41
1
10
-11.0131968590635
20
0.324294057072905
30
0
41
1
10
-11.0013242982397
20
0.321823931556111
30
0
41
1
10
-10.9950506921146
20
0.320074036858045
30
0
41
1
10
-10.9819859246727
20
0.315793026802652
30
0
41
1
10
-10.9751929157508
20
0.313258941423413
30
0
41
1
10
-10.9611695861205
20
0.3075343818509
30
0
41
1
10
-10.9539161602598
20
0.304330463663064
30
0
41
1
10
-10.9433966326857
20
0.29939604029272
30
0
41
1
10
-10.9401655207042
20
0.297843114270251
30
0
41
1
10
-10.9369189903123
20
0.296247252501416
30
0
0
SPLINE
5
13C
100
AcDbEntity
8
1
62
256
6
ByLayer
370
18
48
1
60
0
100
AcDbSpline
70
4
71
3
72
20
73
16
40
0
40
0
40
0
40
0
40
0.249999999999982
40
0.249999999999982
40
0.374999999999985
40
0.374999999999985
40
0.499999999999988
40
0.499999999999988
40
0.624999999999991
40
0.624999999999991
40
0.749999999999994
40
0.749999999999994
40
0.874999999999997
40
0.874999999999997
40
1
40
1
40
1
40
1
41
1
10
-11.1114500273988
20
0.249980947154313
30
0
41
1
10
-11.1195900715259
20
0.259735651200032
30
0
41
1
10
-11.1270564922387
20
0.269508992532707
30
0
41
1
10
-11.1360204266698
20
0.283150106968293
30
0
41
1
10
-11.1386768192221
20
0.287590116805859
30
0
41
1
10
-11.1430395672149
20
0.295963435139413
30
0
41
1
10
-11.1447268949469
20
0.29985100455238
30
0
41
1
10
-11.1470034342433
20
0.306969162786601
30
0
41
1
10
-11.1475787917377
20
0.310212274884549
30
0
41
1
10
-11.1474895806123
20
0.31567755487319
30
0
41
1
10
-11.1468471997408
20
0.317947268097811
30
0
41
1
10
-11.1443698180766
20
0.321572915063968
30
0
41
1
10
-11.1425602599156
20
0.322880500925265
30
0
41
1
10
-11.1379995581218
20
0.324581483697585
30
0
41
1
10
-11.1352153779729
20
0.32498094716172
30
0
41
1
10
-11.1320782392769
20
0.32498094716172
30
0
0
SPLINE
5
13D
100
AcDbEntity
8
1
62
256
6
ByLayer
370
18
48
1
60
0
100
AcDbSpline
70
4
71
3
72
15
73
11
40
0
40
0
40
0
40
0
40
0.249999999999996
40
0.249999999999996
40
0.374999999999997
40
0.374999999999997
40
0.499999999999997
40
0.499999999999997
40
0.749999999999999
40
1
40
1
40
1
40
1
41
1
10
21.5
20
-9.18432902139077
30
0
41
1
10
21.5
20
-9.26131112181517
30
0
41
1
10
21.5054863291477
20
-9.33767361220967
30
0
41
1
10
21.5218034679683
20
-9.45130395272679
30
0
41
1
10
21.5285956643076
20
-9.48902791207306
30
0
41
1
10
21.5449256711803
20
-9.56416574909764
30
0
41
1
10
21.5544796614575
20
-9.60163468854796
30
0
41
1
10
21.5872826809016
20
-9.71321349478634
30
0
41
1
10
21.6411854754917
20
-9.85707402792139
30
0
41
1
10
21.7146477863298
20
-9.99148480709709
30
0
41
1
10
21.7563835796239
20
-10.0562723149758
30
0
0
SPLINE
5
13E
100
AcDbEntity
8
1
62
256
6
ByLayer
370
18
48
1
60
0
100
AcDbSpline
70
4
71
3
72
30
73
26
40
0
40
0
40
0
40
0
40
0.125000000000007
40
0.125000000000007
40
0.187500000000005
40
0.187500000000005
40
0.250000000000004
40
0.250000000000004
40
0.375000000000001
40
0.375000000000001
40
0.437500000000002
40
0.437500000000002
40
0.500000000000003
40
0.500000000000003
40
0.625000000000004
40
0.625000000000004
40
0.687500000000003
40
0.687500000000003
40
0.750000000000002
40
0.750000000000002
40
0.875000000000002
40
0.875000000000002
40
0.937500000000001
40
0.937500000000001
40
1
40
1
40
1
40
1
41
1
10
10.3885656683962
20
-1.35753920737758
30
0
41
1
10
10.3725769510693
20
-1.35043649184078
30
0
41
1
10
10.3570150539348
20
-1.34125326378336
30
0
41
1
10
10.3343194973799
20
-1.3243232448834
30
0
41
1
10
10.3268338465609
20
-1.31812437066793
30
0
41
1
10
10.3122282395104
20
-1.30476318989145
30
0
41
1
10
10.3051385487059
20
-1.29763439598165
30
0
41
1
10
10.2844916116683
20
-1.27493958336478
30
0
41
1
10
10.2715524892908
20
-1.25807357051426
30
0
41
1
10
10.2533890169325
20
-1.23015571156287
30
0
41
1
10
10.2475336035718
20
-1.22039396153269
30
0
41
1
10
10.2362938056151
20
-1.20003653587057
30
0
41
1
10
10.2309673347538
20
-1.18954867316901
30
0
41
1
10
10.2158421101627
20
-1.15718513004282
30
0
41
1
10
10.2068920716582
20
-1.13441526059285
30
0
41
1
10
10.1951674906063
20
-1.09846886889591
30
0
41
1
10
10.1915440776094
20
-1.08618669921529
30
0
41
1
10
10.1848843247539
20
-1.06100383158724
30
0
41
1
10
10.1818836815989
20
-1.04823306186862
30
0
41
1
10
10.1738903460554
20
-1.00959859854385
30
0
41
1
10
10.1698767621814
20
-0.983328367635892
30
0
41
1
10
10.1658189687721
20
-0.943156192910664
30
0
41
1
10
10.1647950576133
20
-0.929637042188773
30
0
41
1
10
10.1634229106751
20
-0.90233473804895
30
0
41
1
10
10.1630807948133
20
-0.888611598389531
30
0
41
1
10
10.1630807948133
20
-0.875
30
0
0
SPLINE
5
13F
100
AcDbEntity
8
1
62
256
6
ByLayer
370
18
48
1
60
0
100
AcDbSpline
70
4
71
3
72
9
73
5
40
0
40
0
40
0
40
0
40
0.5
40
1
40
1
40
1
40
1
41
1
10
10.3885656683962
20
-1.35753920737761
30
0
41
1
10
10.4223280233231
20
-1.36335541594897
30
0
41
1
10
10.4902926869092
20
-1.37204681272578
30
0
41
1
10
10.5591157419288
20
-1.375
30
0
41
1
10
10.593748156342
20
-1.375
30
0
0
SPLINE
5
140
100
AcDbEntity
8
1
62
256
6
ByLayer
370
18
48
1
60
0
100
AcDbSpline
70
4
71
3
72
25
73
21
40
0
40
0
40
0
40
0
40
0.125
40
0.249999999999999
40
0.249999999999999
40
0.312499999999999
40
0.312499999999999
40
0.374999999999999
40
0.374999999999999
40
0.499999999999997
40
0.499999999999997
40
0.624999999999995
40
0.624999999999995
40
0.749999999999993
40
0.749999999999993
40
0.812499999999994
40
0.812499999999994
40
0.874999999999994
40
0.874999999999994
40
1
40
1
40
1
40
1
41
1
10
23.1
20
-10.8821215337959
30
0
41
1
10
23.0362580883219
20
-10.8779677620162
30
0
41
1
10
22.9096892834967
20
-10.8620475262911
30
0
41
1
10
22.7849115165198
20
-10.8312263685256
30
0
41
1
10
22.6920138670134
20
-10.8024058744987
30
0
41
1
10
22.6611625583183
20
-10.7918458163433
30
0
41
1
10
22.5996952691596
20
-10.7687678365322
30
0
41
1
10
22.5690061439503
20
-10.7562142296661
30
0
41
1
10
22.4781751368906
20
-10.7159088064101
30
0
41
1
10
22.4190821802144
20
-10.6854742882198
30
0
41
1
10
22.303854674208
20
-10.6173881981871
30
0
41
1
10
22.2477193067722
20
-10.5797386221184
30
0
41
1
10
22.1385819351576
20
-10.4967956102641
30
0
41
1
10
22.0855776046215
20
-10.4515078496419
30
0
41
1
10
22.0086893883594
20
-10.3771888990106
30
0
41
1
10
21.9834644967412
20
-10.351310615937
30
0
41
1
10
21.9341051132994
20
-10.2974024202068
30
0
41
1
10
21.910124451439
20
-10.2695443159725
30
0
41
1
10
21.8403606678184
20
-10.1831530872021
30
0
41
1
10
21.7967396892823
20
-10.1218238142379
30
0
41
1
10
21.7563835796236
20
-10.056272314976
30
0
0
SPLINE
5
141
100
AcDbEntity
8
1
62
256
6
ByLayer
370
18
48
1
60
0
100
AcDbSpline
70
4
71
3
72
81
73
77
40
0
40
0
40
0
40
0
40
0.0078124999999972
40
0.0078124999999972
40
0.0117187499999959
40
0.0117187499999959
40
0.0156249999999944
40
0.0156249999999944
40
0.0175781249999934
40
0.0175781249999934
40
0.0185546874999931
40
0.0185546874999931
40
0.0195312499999927
40
0.0195312499999927
40
0.0214843749999919
40
0.0214843749999919
40
0.0234374999999911
40
0.0234374999999911
40
0.0273437499999908
40
0.0273437499999908
40
0.0312499999999903
40
0.0312499999999903
40
0.0390624999999903
40
0.0390624999999903
40
0.0468749999999905
40
0.0468749999999905
40
0.0624999999999907
40
0.0624999999999907
40
0.0937499999999911
40
0.0937499999999911
40
0.124999999999992
40
0.124999999999992
40
0.187499999999992
40
0.187499999999992
40
0.249999999999993
40
0.249999999999993
40
0.374999999999993
40
0.374999999999993
40
0.499999999999994
40
0.624999999999995
40
0.624999999999995
40
0.687499999999995
40
0.687499999999995
40
0.749999999999996
40
0.749999999999996
40
0.812499999999996
40
0.812499999999996
40
0.874999999999996
40
0.874999999999996
40
0.906249999999996
40
0.906249999999996
40
0.937499999999996
40
0.937499999999996
40
0.953124999999996
40
0.953124999999996
40
0.960937499999996
40
0.960937499999996
40
0.968749999999996
40
0.968749999999996
40
0.972656249999996
40
0.972656249999996
40
0.976562499999995
40
0.976562499999995
40
0.978515624999996
40
0.978515624999996
40
0.980468749999997
40
0.980468749999997
40
0.982421874999997
40
0.982421874999997
40
0.984374999999998
40
0.984374999999998
40
0.988281249999998
40
0.988281249999998
40
0.992187499999999
40
0.992187499999999
40
1
40
1
40
1
40
1
41
1
10
-1.91224221525877
20
-0.394519052838348
30
0
41
1
10
-1.92282156572341
20
-0.397533435195697
30
0
41
1
10
-1.93328703299295
20
-0.400792642800013
30
0
41
1
10
-1.94859288445005
20
-0.40651666926243
30
0
41
1
10
-1.95359149055577
20
-0.40855281328524
30
0
41
1
10
-1.96318270865211
20
-0.413077560163487
30
0
41
1
10
-1.96785173654939
20
-0.415569664711171
30
0
41
1
10
-1.97395171242513
20
-0.420048670860723
30
0
41
1
10
-1.97580369573168
20
-0.421646658948987
30
0
41
1
10
-1.9780408753785
20
-0.424340153169766
30
0
41
1
10
-1.97867307625052
20
-0.425265399837997
30
0
41
1
10
-1.97964165466871
20
-0.427187280234875
30
0
41
1
10
-1.97997556416402
20
-0.428196550109362
30
0
41
1
10
-1.98037246688432
20
-0.431176687394242
30
0
41
1
10
-1.97980883341094
20
-0.43315604020998
30
0
41
1
10
-1.97748212350467
20
-0.436651382667065
30
0
41
1
10
-1.97581374795774
20
-0.438152979130365
30
0
41
1
10
-1.97009904328232
20
-0.442195860936493
30
0
41
1
10
-1.96555805505969
20
-0.444199414509029
30
0
41
1
10
-1.95606843466263
20
-0.447721193247531
30
0
41
1
10
-1.95106731633362
20
-0.449203062644955
30
0
41
1
10
-1.93595107519374
20
-0.453143056337922
30
0
41
1
10
-1.92557687187252
20
-0.455151548859845
30
0
41
1
10
-1.90457892025236
20
-0.458657307765151
30
0
41
1
10
-1.89394318274029
20
-0.460129304204259
30
0
41
1
10
-1.86179262627246
20
-0.464054865240968
30
0
41
1
10
-1.84020397899084
20
-0.466007269746626
30
0
41
1
10
-1.77556093947172
20
-0.470916772337659
30
0
41
1
10
-1.73240444053903
20
-0.472937703046796
30
0
41
1
10
-1.64603636785415
20
-0.476023509055096
30
0
41
1
10
-1.60282241164072
20
-0.477033463499424
30
0
41
1
10
-1.47312342215659
20
-0.479215768728096
30
0
41
1
10
-1.38658196181331
20
-0.479556475236905
30
0
41
1
10
-1.2134118568122
20
-0.479476207823097
30
0
41
1
10
-1.12678156308044
20
-0.479017268009557
30
0
41
1
10
-0.866793441191305
20
-0.477269893009009
30
0
41
1
10
-0.693339956070872
20
-0.475647183276322
30
0
41
1
10
-0.346258593410369
20
-0.473375275194542
30
0
41
1
10
0.0010003507703118
20
-0.47200367055919
30
0
41
1
10
0.348574051787551
20
-0.473386319949782
30
0
41
1
10
0.609388405753833
20
-0.475099760634464
30
0
41
1
10
0.696349175854408
20
-0.475776693033907
30
0
41
1
10
0.870323792927167
20
-0.477166899227512
30
0
41
1
10
0.957329148831491
20
-0.477882761325304
30
0
41
1
10
1.13113690460131
20
-0.479041949024122
30
0
41
1
10
1.21796857575396
20
-0.479493958295478
30
0
41
1
10
1.39143454900756
20
-0.479542216888063
30
0
41
1
10
1.47807229819915
20
-0.479177404442254
30
0
41
1
10
1.60778691374301
20
-0.476925497381728
30
0
41
1
10
1.65098443404139
20
-0.475886802092418
30
0
41
1
10
1.73725264988951
20
-0.472719601202726
30
0
41
1
10
1.78025703058955
20
-0.47064578145492
30
0
41
1
10
1.84417449210775
20
-0.465656248769307
30
0
41
1
10
1.86538741092386
20
-0.463682824017269
30
0
41
1
10
1.896922807263
20
-0.459723906732535
30
0
41
1
10
1.90740435871612
20
-0.458233151164734
30
0
41
1
10
1.92812264321614
20
-0.454664943117905
30
0
41
1
10
1.93832423326464
20
-0.452621312482364
30
0
41
1
10
1.9530654260048
20
-0.448616583755751
30
0
41
1
10
1.957886259075
20
-0.447126197110265
30
0
41
1
10
1.96714261473934
20
-0.443496857369752
30
0
41
1
10
1.97155211298315
20
-0.441419320218785
30
0
41
1
10
1.97684146809385
20
-0.437229800282608
30
0
41
1
10
1.97833650493843
20
-0.435660915574715
30
0
41
1
10
1.98016767343336
20
-0.432084882313745
30
0
41
1
10
1.9804197424285
20
-0.430094718808903
30
0
41
1
10
1.97937553127724
20
-0.426188446354018
30
0
41
1
10
1.97814356823216
20
-0.424317649885836
30
0
41
1
10
1.97498510374814
20
-0.420901794091293
30
0
41
1
10
1.97308244679581
20
-0.419356299912806
30
0
41
1
10
1.96692460319252
20
-0.415043395047604
30
0
41
1
10
1.96229755695145
20
-0.412623793809502
30
0
41
1
10
1.95271325741354
20
-0.408182097958019
30
0
41
1
10
1.94779456186373
20
-0.406204007763847
30
0
41
1
10
1.93283786110661
20
-0.400656000617431
30
0
41
1
10
1.92260027365083
20
-0.397470382277845
30
0
41
1
10
1.91224221527574
20
-0.394519052843151
30
0
0
SPLINE
5
142
100
AcDbEntity
8
1
62
256
6
ByLayer
370
18
48
1
60
0
100
AcDbSpline
70
4
71
3
72
17
73
13
40
0
40
0
40
0
40
0
40
0.25
40
0.25
40
0.375
40
0.4375
40
0.4375
40
0.5
40
0.5
40
0.75
40
0.75
40
1
40
1
40
1
40
1
41
1
10
1.91224221527673
20
-0.394519052843464
30
0
41
1
10
1.6015977775435
20
-0.306006897427324
30
0
41
1
10
1.28701472260693
20
-0.236782441218338
30
0
41
1
10
0.808326323249844
20
-0.166313521538967
30
0
41
1
10
0.567279119098828
20
-0.139418800322716
30
0
41
1
10
0.323519502227185
20
-0.12580696443888
30
0
41
1
10
0.160394283176998
20
-0.119762754673957
30
0
41
1
10
0.0783629119482896
20
-0.118261377257454
30
0
41
1
10
-0.329727668873488
20
-0.118464900509594
30
0
41
1
10
-0.651754427740201
20
-0.143175179431694
30
0
41
1
10
-1.28776911723094
20
-0.236983023929383
30
0
41
1
10
-1.60176192357355
20
-0.306053667681027
30
0
41
1
10
-1.91224221525877
20
-0.394519052838319
30
0
0
SPLINE
5
143
100
AcDbEntity
8
1
62
256
6
ByLayer
370
18
48
1
60
0
100
AcDbSpline
70
4
71
3
72
8
73
4
40
0
40
0
40
0
40
0
40
1
40
1
40
1
40
1
41
1
10
-14.5615187733782
20
-0.236518773378151
30
0
41
1
10
-14.3513710386801
20
-0.0731431542574512
30
0
41
1
10
-14.1400184018759
20
0.0890594833153955
30
0
41
1
10
-13.9273497265336
20
0.249980947161674
30
0
0
SPLINE
5
144
100
AcDbEntity
8
1
62
256
6
ByLayer
370
18
48
1
60
0
100
AcDbSpline
70
4
71
3
72
8
73
4
40
0
40
0
40
0
40
0
40
1
40
1
40
1
40
1
41
1
10
-14.5615187733782
20
-0.236518773378151
30
0
41
1
10
-14.7076620247758
20
-0.382662024775783
30
0
41
1
10
-14.8538226741323
20
-0.528822674132243
30
0
41
1
10
-15
20
-0.675000000000011
30
0
0
SPLINE
5
145
100
AcDbEntity
8
1
62
256
6
ByLayer
370
18
48
1
60
0
100
AcDbSpline
70
4
71
3
72
8
73
4
40
0
40
0
40
0
40
0
40
1
40
1
40
1
40
1
41
1
10
7.81377042360424
20
-0.474999999999994
30
0
41
1
10
7.85488481363834
20
-0.541662508489168
30
0
41
1
10
7.89599665707925
20
-0.608329227881853
30
0
41
1
10
7.93710604868392
20
-0.675000000000011
30
0
0
SPLINE
5
146
100
AcDbEntity
8
1
62
256
6
ByLayer
370
18
48
1
60
0
100
AcDbSpline
70
4
71
3
72
8
73
4
40
0
40
0
40
0
40
0
40
1
40
1
40
1
40
1
41
1
10
6.60065048818436
20
0.324980947161691
30
0
41
1
10
7.00588166662237
20
0.0618153720883186
30
0
41
1
10
7.41022395361122
20
-0.204971331217308
30
0
41
1
10
7.81377042360424
20
-0.474999999999994
30
0
0
SPLINE
5
147
100
AcDbEntity
8
1
62
256
6
ByLayer
370
18
48
1
60
0
100
AcDbSpline
70
4
71
3
72
30
73
26
40
0
40
0
40
0
40
0
40
0.0625000000000132
40
0.0625000000000132
40
0.125000000000027
40
0.125000000000027
40
0.18750000000004
40
0.18750000000004
40
0.218750000000047
40
0.218750000000047
40
0.250000000000054
40
0.250000000000054
40
0.31250000000005
40
0.31250000000005
40
0.375000000000045
40
0.375000000000045
40
0.437500000000041
40
0.437500000000041
40
0.500000000000037
40
0.500000000000037
40
0.625000000000028
40
0.625000000000028
40
0.750000000000019
40
0.750000000000019
40
1
40
1
40
1
40
1
41
1
10
6.22292588125003
20
0.249980947131121
30
0
41
1
10
6.21955595240865
20
0.252914908876164
30
0
41
1
10
6.21636758997769
20
0.255939059647659
30
0
41
1
10
6.21051007557585
20
0.262245767396166
30
0
41
1
10
6.20785466491733
20
0.265522644781726
30
0
41
1
10
6.20351609927596
20
0.272168749535751
30
0
41
1
10
6.20179147637555
20
0.275624633340158
30
0
41
1
10
6.20027976527979
20
0.280687054084183
30
0
41
1
10
6.19995012421148
20
0.282353947498052
30
0
41
1
10
6.19966320953691
20
0.285643710974028
30
0
41
1
10
6.19971056995726
20
0.287281667244514
30
0
41
1
10
6.2004140800575
20
0.291948296582604
30
0
41
1
10
6.20160828920962
20
0.294772273174488
30
0
41
1
10
6.20518386142254
20
0.299949113688825
30
0
41
1
10
6.20751976611061
20
0.302231168235778
30
0
41
1
10
6.21287035292437
20
0.30627486682053
30
0
41
1
10
6.21591426295655
20
0.308054038889253
30
0
41
1
10
6.22230861856275
20
0.311160963692004
30
0
41
1
10
6.2256865724155
20
0.312508448027302
30
0
41
1
10
6.2362068230992
20
0.316109021782722
30
0
41
1
10
6.24372854904976
20
0.31792809148601
30
0
41
1
10
6.25939445407607
20
0.320848040210763
30
0
41
1
10
6.26750018480016
20
0.321930725538721
30
0
41
1
10
6.29208157702351
20
0.324377259675799
30
0
41
1
10
6.30895523289027
20
0.324980947161663
30
0
41
1
10
6.32610759209325
20
0.324980947161663
30
0
0
SPLINE
5
148
100
AcDbEntity
8
1
62
256
6
ByLayer
370
18
48
1
60
0
100
AcDbSpline
70
4
71
3
72
8
73
4
40
0
40
0
40
0
40
0
40
1
40
1
40
1
40
1
41
1
10
6.94370199057298
20
-0.394519052838319
30
0
41
1
10
6.70648353684354
20
-0.177135671773783
30
0
41
1
10
6.46649386217231
20
0.0379233125618441
30
0
41
1
10
6.2229258812701
20
0.249980947141125
30
0
0
SPLINE
5
149
100
AcDbEntity
8
1
62
256
6
ByLayer
370
18
48
1
60
0
100
AcDbSpline
70
4
71
3
72
40
73
36
40
0
40
0
40
0
40
0
40
0.249999999999995
40
0.249999999999995
40
0.374999999999994
40
0.374999999999994
40
0.499999999999992
40
0.499999999999992
40
0.562499999999991
40
0.562499999999991
40
0.624999999999989
40
0.624999999999989
40
0.687499999999988
40
0.687499999999988
40
0.749999999999987
40
0.749999999999987
40
0.781249999999986
40
0.781249999999986
40
0.812499999999985
40
0.812499999999985
40
0.843749999999984
40
0.843749999999984
40
0.874999999999983
40
0.874999999999983
40
0.890624999999985
40
0.890624999999985
40
0.906249999999987
40
0.906249999999987
40
0.921874999999989
40
0.921874999999989
40
0.937499999999991
40
0.937499999999991
40
0.968749999999996
40
0.968749999999996
40
1
40
1
40
1
40
1
41
1
10
6.31056345909113
20
-0.394519052838518
30
0
41
1
10
6.37477160274292
20
-0.411379638935813
30
0
41
1
10
6.43873436581833
20
-0.426175341576084
30
0
41
1
10
6.53429778488416
20
-0.445232963789806
30
0
41
1
10
6.56608797546158
20
-0.451051827023463
30
0
41
1
10
6.62952417807892
20
-0.461442125692656
30
0
41
1
10
6.66117064223556
20
-0.466019194826799
30
0
41
1
10
6.70850783880189
20
-0.471655016990979
30
0
41
1
10
6.72426466292015
20
-0.473326678573358
30
0
41
1
10
6.7557261014864
20
-0.476161098836997
30
0
41
1
10
6.77145110599577
20
-0.477324643893013
30
0
41
1
10
6.80250792684535
20
-0.478976540973378
30
0
41
1
10
6.81787500488093
20
-0.479471186456607
30
0
41
1
10
6.84817943934439
20
-0.479560419705763
30
0
41
1
10
6.86312052932414
20
-0.479163283900618
30
0
41
1
10
6.88505053830161
20
-0.477539240813599
30
0
41
1
10
6.8922792992789
20
-0.476824350812876
30
0
41
1
10
6.90651936764425
20
-0.47492561812976
30
0
41
1
10
6.91354439935401
20
-0.473737864933412
30
0
41
1
10
6.92700114264716
20
-0.470750396595264
30
0
41
1
10
6.93346671813322
20
-0.468952428293051
30
0
41
1
10
6.94560309325294
20
-0.464430091165326
30
0
41
1
10
6.9513232003797
20
-0.461676155240184
30
0
41
1
10
6.95851683438016
20
-0.456587871636742
30
0
41
1
10
6.96069380192048
20
-0.454727700184236
30
0
41
1
10
6.96446307291583
20
-0.450572101252135
30
0
41
1
10
6.9660284372105
20
-0.448294122549783
30
0
41
1
10
6.96829725749961
20
-0.443380727673969
30
0
41
1
10
6.96901235433305
20
-0.440690505253485
30
0
41
1
10
6.96943324881519
20
-0.435114089853443
30
0
41
1
10
6.96915785814377
20
-0.432219602519865
30
0
41
1
10
6.96690761888635
20
-0.423224118274902
30
0
41
1
10
6.96353664392529
20
-0.417072710650359
30
0
41
1
10
6.9547696385205
20
-0.405342643436654
30
0
41
1
10
6.94949560394613
20
-0.39982823196766
30
0
41
1
10
6.94370199057298
20
-0.394519052838319
30
0
0
SPLINE
5
14A
100
AcDbEntity
8
1
62
256
6
ByLayer
370
18
48
1
60
0
100
AcDbSpline
70
4
71
3
72
8
73
4
40
0
40
0
40
0
40
0
40
1
40
1
40
1
40
1
41
1
10
3.02046224885069
20
0.249980947161674
30
0
41
1
10
4.1359861011274
20
0.107222523982614
30
0
41
1
10
5.23174171602679
20
-0.111228400779481
30
0
41
1
10
6.31056345909118
20
-0.394519052838035
30
0
0
SPLINE
5
14B
100
AcDbEntity
8
1
62
256
6
ByLayer
370
18
48
1
60
0
100
AcDbSpline
70
4
71
3
72
14
73
10
40
0
40
0
40
0
40
0
40
0.25
40
0.25
40
0.5
40
0.5
40
0.75
40
0.75
40
1
40
1
40
1
40
1
41
1
10
1.73594520006452
20
0.324980947161691
30
0
41
1
10
1.84309474173762
20
0.324980947161691
30
0
41
1
10
1.95022075456774
20
0.323452236129214
30
0
41
1
10
2.16441448633978
20
0.317526654577222
30
0
41
1
10
2.27148283436821
20
0.313119988055348
30
0
41
1
10
2.48557990191409
20
0.301179376033105
30
0
41
1
10
2.59260836335665
20
0.293649067375753
30
0
41
1
10
2.80666688413962
20
0.274872902970941
30
0
41
1
10
2.91367618098349
20
0.263646823185127
30
0
41
1
10
3.02046224885069
20
0.249980947161873
30
0
0
SPLINE
5
14C
100
AcDbEntity
8
1
62
256
6
ByLayer
370
18
48
1
60
0
100
AcDbSpline
70
4
71
3
72
14
73
10
40
0
40
0
40
0
40
0
40
0.25
40
0.25
40
0.5
40
0.5
40
0.75
40
0.75
40
1
40
1
40
1
40
1
41
1
10
-3.02046224885069
20
0.249980947161674
30
0
41
1
10
-2.91364525025705
20
0.263650781524092
30
0
41
1
10
-2.80678930238935
20
0.274859400504965
30
0
41
1
10
-2.5929587792904
20
0.293621089038169
30
0
41
1
10
-2.48598486060513
20
0.301152741664794
30
0
41
1
10
-2.27190023278158
20
0.31310074243703
30
0
41
1
10
-2.16478964220232
20
0.317513647984981
30
0
41
1
10
-1.95042328219981
20
0.323449254272589
30
0
41
1
10
-1.84314979610454
20
0.324980947161777
30
0
41
1
10
-1.73594520006452
20
0.324980947161805
30
0
0
SPLINE
5
14D
100
AcDbEntity
8
1
62
256
6
ByLayer
370
18
48
1
60
0
100
AcDbSpline
70
4
71
3
72
8
73
4
40
0
40
0
40
0
40
0
40
1
40
1
40
1
40
1
41
1
10
-6.31056345909118
20
-0.394519052838035
30
0
41
1
10
-5.23174171602679
20
-0.111228400779481
30
0
41
1
10
-4.1359861011274
20
0.107222523982614
30
0
41
1
10
-3.02046224885069
20
0.249980947161674
30
0
0
SPLINE
5
14E
100
AcDbEntity
8
1
62
256
6
ByLayer
370
18
48
1
60
0
100
AcDbSpline
70
4
71
3
72
38
73
34
40
0
40
0
40
0
40
0
40
0.0312499999999941
40
0.0312499999999941
40
0.0468749999999911
40
0.0468749999999911
40
0.0624999999999882
40
0.0624999999999882
40
0.0781249999999853
40
0.0781249999999853
40
0.0937499999999825
40
0.0937499999999825
40
0.124999999999976
40
0.124999999999976
40
0.140624999999976
40
0.140624999999976
40
0.156249999999975
40
0.156249999999975
40
0.187499999999975
40
0.187499999999975
40
0.249999999999977
40
0.249999999999977
40
0.312499999999979
40
0.312499999999979
40
0.374999999999981
40
0.374999999999981
40
0.499999999999985
40
0.499999999999985
40
0.624999999999989
40
0.624999999999989
40
0.749999999999993
40
0.749999999999993
40
1
40
1
40
1
40
1
41
1
10
-6.94370199058531
20
-0.394519052844345
30
0
41
1
10
-6.94950896079736
20
-0.399840471978024
30
0
41
1
10
-6.95487075366256
20
-0.405468539491409
30
0
41
1
10
-6.96135311381421
20
-0.41415595474092
30
0
41
1
10
-6.9632594025644
20
-0.417097475848209
30
0
41
1
10
-6.96640667044278
20
-0.423099880063631
30
0
41
1
10
-6.96761586971716
20
-0.426116302508717
30
0
41
1
10
-6.96912327074104
20
-0.432023475756551
30
0
41
1
10
-6.96942508964193
20
-0.434972492094005
30
0
41
1
10
-6.96904305703397
20
-0.440519738407147
30
0
41
1
10
-6.96837681670823
20
-0.443136098555243
30
0
41
1
10
-6.96505057587058
20
-0.450546752278541
30
0
41
1
10
-6.96127333728383
20
-0.454550304275358
30
0
41
1
10
-6.95423460303806
20
-0.459654605417683
30
0
41
1
10
-6.95163771381637
20
-0.461207412587328
30
0
41
1
10
-6.94617531050903
20
-0.464004555023422
30
0
41
1
10
-6.9432963611988
20
-0.465259768495429
30
0
41
1
10
-6.93431043459861
20
-0.468687677725654
30
0
41
1
10
-6.92784789138967
20
-0.470525557036069
30
0
41
1
10
-6.90791400682035
20
-0.4750543513058
30
0
41
1
10
-6.89376528285264
20
-0.476844350448005
30
0
41
1
10
-6.86452894473786
20
-0.479103966091572
30
0
41
1
10
-6.84957718699221
20
-0.479534942910078
30
0
41
1
10
-6.81927766290109
20
-0.479502300680395
30
0
41
1
10
-6.80391672915488
20
-0.479030439617617
30
0
41
1
10
-6.75736948054713
20
-0.476614959194904
30
0
41
1
10
-6.72600609435827
20
-0.473707937007589
30
0
41
1
10
-6.66283482363754
20
-0.466246113725987
30
0
41
1
10
-6.6310051118772
20
-0.461668317288456
30
0
41
1
10
-6.56705479948486
20
-0.45122594227513
30
0
41
1
10
-6.53505244750029
20
-0.445376954980162
30
0
41
1
10
-6.4389694704841
20
-0.426235064493312
30
0
41
1
10
-6.37481328661519
20
-0.411390584813802
30
0
41
1
10
-6.31056345909113
20
-0.394519052838348
30
0
0
SPLINE
5
14F
100
AcDbEntity
8
1
62
256
6
ByLayer
370
18
48
1
60
0
100
AcDbSpline
70
4
71
3
72
8
73
4
40
0
40
0
40
0
40
0
40
1
40
1
40
1
40
1
41
1
10
-6.2229258812701
20
0.249980947141125
30
0
41
1
10
-6.46649386217525
20
0.0379233125592862
30
0
41
1
10
-6.70648353684932
20
-0.177135671778956
30
0
41
1
10
-6.94370199058156
20
-0.394519052846164
30
0
0
SPLINE
5
150
100
AcDbEntity
8
1
62
256
6
ByLayer
370
18
48
1
60
0
100
AcDbSpline
70
4
71
3
72
28
73
24
40
0
40
0
40
0
40
0
40
0.249999999999992
40
0.249999999999992
40
0.374999999999987
40
0.374999999999987
40
0.499999999999983
40
0.499999999999983
40
0.562499999999985
40
0.562499999999985
40
0.624999999999987
40
0.624999999999987
40
0.687499999999989
40
0.687499999999989
40
0.749999999999992
40
0.749999999999992
40
0.812499999999994
40
0.812499999999994
40
0.874999999999996
40
0.874999999999996
40
0.937499999999998
40
0.937499999999998
40
1
40
1
40
1
40
1
41
1
10
-6.32610759209325
20
0.324980947161663
30
0
41
1
10
-6.30894164051671
20
0.324980947161663
30
0
41
1
10
-6.29206351344484
20
0.324375867069932
30
0
41
1
10
-6.26749588936983
20
0.321930095246671
30
0
41
1
10
-6.2594332674004
20
0.320855188810611
30
0
41
1
10
-6.24369435696326
20
0.317921804204559
30
0
41
1
10
-6.23609002146526
20
0.316080959786547
30
0
41
1
10
-6.22550351037791
20
0.312439632077798
30
0
41
1
10
-6.22210698144582
20
0.311076075105149
30
0
41
1
10
-6.21568609914914
20
0.307929189855884
30
0
41
1
10
-6.21267351534166
20
0.30614672963037
30
0
41
1
10
-6.20738715966201
20
0.302109007415226
30
0
41
1
10
-6.20507139005912
20
0.299823372219606
30
0
41
1
10
-6.20153703134238
20
0.294630037775505
30
0
41
1
10
-6.20034973300679
20
0.291754064168089
30
0
41
1
10
-6.19947715640618
20
0.285483953660503
30
0
41
1
10
-6.19979992398484
20
0.282212586931053
30
0
41
1
10
-6.20188043678124
20
0.275412687019298
30
0
41
1
10
-6.20359999834162
20
0.272014335422199
30
0
41
1
10
-6.20799059239903
20
0.265341649736172
30
0
41
1
10
-6.21065250989122
20
0.262082766471423
30
0
41
1
10
-6.21643658084923
20
0.2558747816623
30
0
41
1
10
-6.21958846278596
20
0.252886604388976
30
0
41
1
10
-6.22292588127033
20
0.249980947140926
30
0
0
SPLINE
5
151
100
AcDbEntity
8
1
62
256
6
ByLayer
370
18
48
1
60
0
100
AcDbSpline
70
4
71
3
72
17
73
13
40
0
40
0
40
0
40
0
40
0.25
40
0.5
40
0.5
40
0.625
40
0.625
40
0.75
40
0.75
40
0.875
40
0.875
40
1
40
1
40
1
40
1
41
1
10
-7.15410175340969
20
0.249980947161816
30
0
41
1
10
-7.11949273474029
20
0.260870976065661
30
0
41
1
10
-7.05026156071183
20
0.280409342926959
30
0
41
1
10
-6.98098651916527
20
0.295834974764006
30
0
41
1
10
-6.9290120046367
20
0.305730156657205
30
0
41
1
10
-6.91168423969094
20
0.308745403149373
30
0
41
1
10
-6.87726105822415
20
0.314112278634411
30
0
41
1
10
-6.86013732462261
20
0.316470394553619
30
0
41
1
10
-6.82609666353447
20
0.320433354681313
30
0
41
1
10
-6.80917906795581
20
0.322040380930361
30
0
41
1
10
-6.77560867949246
20
0.324310745266985
30
0
41
1
10
-6.75895378391422
20
0.324980947161606
30
0
41
1
10
-6.74249188881707
20
0.324980947161663
30
0
0
SPLINE
5
152
100
AcDbEntity
8
1
62
256
6
ByLayer
370
18
48
1
60
0
100
AcDbSpline
70
4
71
3
72
8
73
4
40
0
40
0
40
0
40
0
40
1
40
1
40
1
40
1
41
1
10
-8.98692851463423
20
-0.394519052838319
30
0
41
1
10
-8.384783437259
20
-0.160922546217108
30
0
41
1
10
-7.77427580892314
20
0.0548377836275904
30
0
41
1
10
-7.15410175340971
20
0.249980947161674
30
0
0
SPLINE
5
153
100
AcDbEntity
8
1
62
256
6
ByLayer
370
18
48
1
60
0
100
AcDbSpline
70
4
71
3
72
38
73
34
40
0
40
0
40
0
40
0
40
0.0312500000000069
40
0.0312500000000069
40
0.0625000000000138
40
0.0625000000000138
40
0.0937500000000205
40
0.0937500000000205
40
0.125000000000027
40
0.125000000000027
40
0.140625000000028
40
0.140625000000028
40
0.156250000000028
40
0.156250000000028
40
0.187500000000022
40
0.187500000000022
40
0.218750000000016
40
0.218750000000016
40
0.25000000000001
40
0.25000000000001
40
0.31250000000001
40
0.31250000000001
40
0.37500000000001
40
0.37500000000001
40
0.43750000000001
40
0.43750000000001
40
0.50000000000001
40
0.50000000000001
40
0.625000000000006
40
0.625000000000006
40
0.750000000000002
40
0.750000000000002
40
1
40
1
40
1
40
1
41
1
10
-9.39538846339337
20
-0.394519052837154
30
0
41
1
10
-9.39931252043964
20
-0.398885595145714
30
0
41
1
10
-9.40294265258267
20
-0.403307302163142
30
0
41
1
10
-9.40943685546671
20
-0.41229412988929
30
0
41
1
10
-9.41232312472627
20
-0.416909228814092
30
0
41
1
10
-9.41685123823549
20
-0.425966268108198
30
0
41
1
10
-9.41852742540985
20
-0.430476184279115
30
0
41
1
10
-9.42034760074219
20
-0.439106172816139
30
0
41
1
10
-9.42048798744298
20
-0.44314609700092
30
0
41
1
10
-9.41953665683756
20
-0.448791861472614
30
0
41
1
10
-9.4190188210098
20
-0.450615689000983
30
0
41
1
10
-9.41763416504909
20
-0.454029340103233
30
0
41
1
10
-9.41676860092079
20
-0.455629436905042
30
0
41
1
10
-9.41370522919763
20
-0.460142637892375
30
0
41
1
10
-9.41101084625686
20
-0.462790271628421
30
0
41
1
10
-9.40475722197043
20
-0.467329854200074
30
0
41
1
10
-9.40121470148263
20
-0.469229096419326
30
0
41
1
10
-9.39349606281391
20
-0.472464916766313
30
0
41
1
10
-9.38930097964762
20
-0.473801534714227
30
0
41
1
10
-9.37622144042925
20
-0.477070148566497
30
0
41
1
10
-9.36677891891844
20
-0.478317730661246
30
0
41
1
10
-9.34696068021994
20
-0.479621526876542
30
0
41
1
10
-9.33658051127524
20
-0.479660016760334
30
0
41
1
10
-9.31547973767195
20
-0.478868132934792
30
0
41
1
10
-9.30470496885984
20
-0.478037327116795
30
0
41
1
10
-9.28280754864188
20
-0.475708447562795
30
0
41
1
10
-9.27164840317904
20
-0.474201921571563
30
0
41
1
10
-9.23811409009988
20
-0.468915971092088
30
0
41
1
10
-9.21561276810894
20
-0.464384190703157
30
0
41
1
10
-9.17039514074557
20
-0.453877630445248
30
0
41
1
10
-9.14767753970106
20
-0.447892731526878
30
0
41
1
10
-9.07924677772215
20
-0.428095750861701
30
0
41
1
10
-9.0332619564788
20
-0.412493674837833
30
0
41
1
10
-8.98692851463424
20
-0.394519052838433
30
0
0
SPLINE
5
154
100
AcDbEntity
8
1
62
256
6
ByLayer
370
18
48
1
60
0
100
AcDbSpline
70
4
71
3
72
8
73
4
40
0
40
0
40
0
40
0
40
1
40
1
40
1
40
1
41
1
10
-8.81287846405296
20
0.249980947156075
30
0
41
1
10
-9.0077785167926
20
0.0356424895419991
30
0
41
1
10
-9.20190632438599
20
-0.179219444300429
30
0
41
1
10
-9.3953884633876
20
-0.394519052838319
30
0
0
SPLINE
5
155
100
AcDbEntity
8
1
62
256
6
ByLayer
370
18
48
1
60
0
100
AcDbSpline
70
4
71
3
72
28
73
24
40
0
40
0
40
0
40
0
40
0.249999999999974
40
0.249999999999974
40
0.37499999999997
40
0.37499999999997
40
0.499999999999966
40
0.499999999999966
40
0.56249999999997
40
0.56249999999997
40
0.624999999999975
40
0.624999999999975
40
0.687499999999979
40
0.687499999999979
40
0.749999999999983
40
0.749999999999983
40
0.812499999999987
40
0.812499999999987
40
0.874999999999992
40
0.874999999999992
40
0.937499999999996
40
0.937499999999996
40
1
40
1
40
1
40
1
41
1
10
-8.86408179867618
20
0.324980947162231
30
0
41
1
10
-8.85129538935948
20
0.32498094716226
30
0
41
1
10
-8.83894481110525
20
0.324132477893784
30
0
41
1
10
-8.82221699514493
20
0.32075719148483
30
0
41
1
10
-8.81692618508805
20
0.319278475547179
30
0
41
1
10
-8.80719346932879
20
0.315274284744561
30
0
41
1
10
-8.80288537420074
20
0.312803317823807
30
0
41
1
10
-8.79764866346821
20
0.308104402530773
30
0
41
1
10
-8.79609940480201
20
0.306352422583785
30
0
41
1
10
-8.79358803963606
20
0.302536520574051
30
0
41
1
10
-8.79261865796582
20
0.30047339121117
30
0
41
1
10
-8.79132427301086
20
0.295998566424203
30
0
41
1
10
-8.79100712746298
20
0.293571945582585
30
0
41
1
10
-8.79108275102195
20
0.288549776175699
30
0
41
1
10
-8.79146539182062
20
0.285933125165428
30
0
41
1
10
-8.79290203059388
20
0.280494627087478
30
0
41
1
10
-8.79395351452457
20
0.277701759323776
30
0
41
1
10
-8.79656638697136
20
0.272147870695989
30
0
41
1
10
-8.79813432448749
20
0.269361345622173
30
0
41
1
10
-8.80171509926663
20
0.263772010194657
30
0
41
1
10
-8.80374131425189
20
0.260953956620313
30
0
41
1
10
-8.80809426650329
20
0.255412160239644
30
0
41
1
10
-8.81042372701619
20
0.25268050799562
30
0
41
1
10
-8.81287846405201
20
0.249980947155791
30
0
0
SPLINE
5
156
100
AcDbEntity
8
1
62
256
6
ByLayer
370
18
48
1
60
0
100
AcDbSpline
70
4
71
3
72
18
73
14
40
0
40
0
40
0
40
0
40
0.25
40
0.25
40
0.5
40
0.5
40
0.625
40
0.625
40
0.75
40
0.75
40
0.875
40
0.875
40
1
40
1
40
1
40
1
41
1
10
-9.42014604979882
20
0.249980947161674
30
0
41
1
10
-9.39555423460408
20
0.260573449959651
30
0
41
1
10
-9.3709080164588
20
0.270230194328235
30
0
41
1
10
-9.32201317218862
20
0.287558568041931
30
0
41
1
10
-9.29769042100246
20
0.295264739422492
30
0
41
1
10
-9.2614134877624
20
0.305221378626044
30
0
41
1
10
-9.24935609579742
20
0.308270592014935
30
0
41
1
10
-9.22532162877248
20
0.313754324838584
30
0
41
1
10
-9.21330961472535
20
0.316195905728222
30
0
41
1
10
-9.18954659680884
20
0.320303380454163
30
0
41
1
10
-9.17785494091434
20
0.321962244274374
30
0
41
1
10
-9.15494813399802
20
0.324297936899598
30
0
41
1
10
-9.1437298608829
20
0.324980947161151
30
0
41
1
10
-9.13284665392271
20
0.324980947161691
30
0
0
SPLINE
5
157
100
AcDbEntity
8
1
62
256
6
ByLayer
370
18
48
1
60
0
100
AcDbSpline
70
4
71
3
72
8
73
4
40
0
40
0
40
0
40
0
40
1
40
1
40
1
40
1
41
1
10
-10.8261977204866
20
-0.394519052838319
30
0
41
1
10
-10.3635024894917
20
-0.169886976943701
30
0
41
1
10
-9.89509800998097
20
0.045403532794694
30
0
41
1
10
-9.42014604979882
20
0.249980947161674
30
0
0
SPLINE
5
158
100
AcDbEntity
8
1
62
256
6
ByLayer
370
18
48
1
60
0
100
AcDbSpline
70
4
71
3
72
39
73
35
40
0
40
0
40
0
40
0
40
0.0624999999999952
40
0.0624999999999952
40
0.0937499999999957
40
0.0937499999999957
40
0.124999999999996
40
0.124999999999996
40
0.156249999999997
40
0.156249999999997
40
0.187499999999997
40
0.187499999999997
40
0.218749999999997
40
0.218749999999997
40
0.249999999999998
40
0.281249999999998
40
0.281249999999998
40
0.312499999999999
40
0.312499999999999
40
0.375000000000001
40
0.375000000000001
40
0.437500000000004
40
0.437500000000004
40
0.500000000000006
40
0.500000000000006
40
0.562500000000008
40
0.562500000000008
40
0.625000000000011
40
0.625000000000011
40
0.750000000000007
40
0.750000000000007
40
0.875000000000004
40
0.875000000000004
40
1
40
1
40
1
40
1
41
1
10
-11.1279670839746
20
-0.394519052838319
30
0
41
1
10
-11.1344994067131
20
-0.402327507790147
30
0
41
1
10
-11.1403381258876
20
-0.410305290730918
30
0
41
1
10
-11.147148000852
20
-0.421949799605244
30
0
41
1
10
-11.1491042633321
20
-0.425789142768139
30
0
41
1
10
-11.1522661294609
20
-0.433367252098947
30
0
41
1
10
-11.1534486470362
20
-0.43707126200934
30
0
41
1
10
-11.1548792054188
20
-0.444063384204014
30
0
41
1
10
-11.1551425423024
20
-0.447385299333632
30
0
41
1
10
-11.1547000127545
20
-0.453656662833254
30
0
41
1
10
-11.1540017219895
20
-0.456500109917954
30
0
41
1
10
-11.1517438299298
20
-0.461655824862362
30
0
41
1
10
-11.1501654640366
20
-0.463986118035706
30
0
41
1
10
-11.1462927930953
20
-0.468066856897167
30
0
41
1
10
-11.1417564108312
20
-0.471545769909596
30
0
41
1
10
-11.1361417146117
20
-0.474049581821959
30
0
41
1
10
-11.1300670569308
20
-0.476138633700827
30
0
41
1
10
-11.1267820133678
20
-0.476978430843047
30
0
41
1
10
-11.1164767895555
20
-0.478927144527404
30
0
41
1
10
-11.1090219945275
20
-0.479486703751746
30
0
41
1
10
-11.0932713386151
20
-0.479548725267819
30
0
41
1
10
-11.0849977650712
20
-0.479041057890981
30
0
41
1
10
-11.0681342039558
20
-0.477241484467243
30
0
41
1
10
-11.0594969792525
20
-0.475947166332247
30
0
41
1
10
-11.0418937770116
20
-0.472731225930374
30
0
41
1
10
-11.0329270751786
20
-0.47080817215442
30
0
41
1
10
-11.0147120130597
20
-0.466427265972556
30
0
41
1
10
-11.0054357249662
20
-0.463959959019945
30
0
41
1
10
-10.9775778122249
20
-0.455947419880573
30
0
41
1
10
-10.958882884293
20
-0.449784789803459
30
0
41
1
10
-10.9212952504409
20
-0.436148777585913
30
0
41
1
10
-10.9024018906364
20
-0.428670682946205
30
0
41
1
10
-10.8644350163225
20
-0.412508030361977
30
0
41
1
10
-10.8453613808028
20
-0.403822742416708
30
0
41
1
10
-10.8261977204866
20
-0.394519052838319
30
0
0
SPLINE
5
159
100
AcDbEntity
8
1
62
256
6
ByLayer
370
18
48
1
60
0
100
AcDbSpline
70
4
71
3
72
8
73
4
40
0
40
0
40
0
40
0
40
1
40
1
40
1
40
1
41
1
10
-10.5881465384974
20
0.249980947159912
30
0
41
1
10
-10.7682360652239
20
0.0352414300963915
30
0
41
1
10
-10.9481691234914
20
-0.179596378150791
30
0
41
1
10
-11.1279670839745
20
-0.394519052838319
30
0
0
SPLINE
5
15A
100
AcDbEntity
8
1
62
256
6
ByLayer
370
18
48
1
60
0
100
AcDbSpline
70
4
71
3
72
22
73
18
40
0
40
0
40
0
40
0
40
0.125
40
0.125
40
0.25
40
0.25
40
0.375
40
0.375
40
0.5
40
0.5
40
0.625
40
0.625
40
0.75
40
0.75
40
0.875
40
0.875
40
1
40
1
40
1
40
1
41
1
10
-10.6124575382183
20
0.324980947163198
30
0
41
1
10
-10.6072496942067
20
0.324980947163254
30
0
41
1
10
-10.6022321565404
20
0.32471243842005
30
0
41
1
10
-10.5926877142222
20
0.323486343691656
30
0
41
1
10
-10.5882140101569
20
0.322533301974119
30
0
41
1
10
-10.5801191826616
20
0.319788199103215
30
0
41
1
10
-10.5764671398953
20
0.317988035234293
30
0
41
1
10
-10.5703512144501
20
0.313281206585003
30
0
41
1
10
-10.5679631001511
20
0.310436416643597
30
0
41
1
10
-10.5648541823852
20
0.303528393936119
30
0
41
1
10
-10.5642045954565
20
0.299573635406631
30
0
41
1
10
-10.5647901952416
20
0.290809930744786
30
0
41
1
10
-10.5660666715437
20
0.285914845664848
30
0
41
1
10
-10.5701679829123
20
0.275969703602755
30
0
41
1
10
-10.572985089628
20
0.27083784852482
30
0
41
1
10
-10.5798645746344
20
0.260343891665031
30
0
41
1
10
-10.5838159736942
20
0.255144731035841
30
0
41
1
10
-10.588146538497
20
0.249980947159855
30
0
0
SPLINE
5
15B
100
AcDbEntity
8
1
62
256
6
ByLayer
370
18
48
1
60
0
100
AcDbSpline
70
4
71
3
72
18
73
14
40
0
40
0
40
0
40
0
40
0.24999999999999
40
0.24999999999999
40
0.374999999999989
40
0.374999999999989
40
0.499999999999988
40
0.499999999999988
40
0.749999999999986
40
0.749999999999986
40
0.874999999999993
40
0.874999999999993
40
1
40
1
40
1
40
1
41
1
10
-11.0361737618139
20
0.249980947161674
30
0
41
1
10
-11.0164600587409
20
0.260339148990965
30
0
41
1
10
-10.9967579988524
20
0.269872232720218
30
0
41
1
10
-10.9672176050399
20
0.282909900397783
30
0
41
1
10
-10.9573700935551
20
0.28704319003694
30
0
41
1
10
-10.9378759446479
20
0.294780090670855
30
0
41
1
10
-10.9282051094205
20
0.298394950509135
30
0
41
1
10
-10.8994387758157
20
0.308419743129093
30
0
41
1
10
-10.8805796347571
20
0.314041022539698
30
0
41
1
10
-10.8529592725556
20
0.320261231068514
30
0
41
1
10
-10.8438730220196
20
0.321952441620653
30
0
41
1
10
-10.8264247732998
20
0.324303802427465
30
0
41
1
10
-10.8180111708273
20
0.324980947160952
30
0
41
1
10
-10.8100221617362
20
0.324980947161663
30
0
0
SPLINE
5
15C
100
AcDbEntity
8
1
62
256
6
ByLayer
370
18
48
1
60
0
100
AcDbSpline
70
4
71
3
72
8
73
4
40
0
40
0
40
0
40
0
40
1
40
1
40
1
40
1
41
1
10
-12.21262584537
20
-0.394519052838319
30
0
41
1
10
-11.8249154221808
20
-0.173606852417663
30
0
41
1
10
-11.4329616463351
20
0.0414960685943413
30
0
41
1
10
-11.0361737618139
20
0.249980947161674
30
0
0
SPLINE
5
15D
100
AcDbEntity
8
1
62
256
6
ByLayer
370
18
48
1
60
0
100
AcDbSpline
70
4
71
3
72
34
73
30
40
0
40
0
40
0
40
0
40
0.0625000000000021
40
0.0625000000000021
40
0.0937500000000033
40
0.0937500000000033
40
0.125000000000005
40
0.125000000000005
40
0.187500000000015
40
0.187500000000015
40
0.250000000000025
40
0.250000000000025
40
0.281250000000024
40
0.281250000000024
40
0.312500000000022
40
0.312500000000022
40
0.375000000000024
40
0.375000000000024
40
0.500000000000023
40
0.500000000000023
40
0.562500000000025
40
0.562500000000025
40
0.625000000000028
40
0.625000000000028
40
0.750000000000019
40
0.750000000000019
40
0.875000000000009
40
0.875000000000009
40
1
40
1
40
1
40
1
41
1
10
-12.4454802424852
20
-0.394519052838319
30
0
41
1
10
-12.4513585152093
20
-0.401708771010675
30
0
41
1
10
-12.4567374379799
20
-0.408956814071246
30
0
41
1
10
-12.4635248995896
20
-0.419510621874565
30
0
41
1
10
-12.4655825007594
20
-0.422985527209846
30
0
41
1
10
-12.4692288824021
20
-0.429837099363681
30
0
41
1
10
-12.470827460083
20
-0.433240182207101
30
0
41
1
10
-12.4747089449443
20
-0.443053990405275
30
0
41
1
10
-12.4760958204851
20
-0.449081203462839
30
0
41
1
10
-12.4761223246412
20
-0.459769092372454
30
0
41
1
10
-12.4747761141799
20
-0.464180222176765
30
0
41
1
10
-12.4709433497243
20
-0.469557994706776
30
0
41
1
10
-12.4693513853986
20
-0.471142526978696
30
0
41
1
10
-12.4657065335108
20
-0.473834537101368
30
0
41
1
10
-12.4636450953421
20
-0.47495820558143
30
0
41
1
10
-12.4568329303758
20
-0.477746501187454
30
0
41
1
10
-12.4514152534257
20
-0.478821439948945
30
0
41
1
10
-12.4339597259438
20
-0.480156666608053
30
0
41
1
10
-12.4205497597282
20
-0.478701530894455
30
0
41
1
10
-12.3987563531804
20
-0.474318017873884
30
0
41
1
10
-12.3912507161594
20
-0.47248177544077
30
0
41
1
10
-12.3760079072084
20
-0.46823433620375
30
0
41
1
10
-12.3682424193965
20
-0.465816634568256
30
0
41
1
10
-12.3445735365322
20
-0.457805604881315
30
0
41
1
10
-12.3282608368064
20
-0.451436957631131
30
0
41
1
10
-12.2956045495882
20
-0.437386982382037
30
0
41
1
10
-12.2791555920721
20
-0.42966862177019
30
0
41
1
10
-12.2460474242468
20
-0.413010889696807
30
0
41
1
10
-12.2293879167132
20
-0.404069856331262
30
0
41
1
10
-12.21262584537
20
-0.394519052838319
30
0
0
SPLINE
5
15E
100
AcDbEntity
8
1
62
256
6
ByLayer
370
18
48
1
60
0
100
AcDbSpline
70
4
71
3
72
8
73
4
40
0
40
0
40
0
40
0
40
1
40
1
40
1
40
1
41
1
10
-11.9185094462047
20
0.249980947160964
30
0
41
1
10
-12.0941736247425
20
0.0351520577178803
30
0
41
1
10
-12.2698302504261
20
-0.179681463779445
30
0
41
1
10
-12.4454802424852
20
-0.394519052838319
30
0
0
SPLINE
5
15F
100
AcDbEntity
8
1
62
256
6
ByLayer
370
18
48
1
60
0
100
AcDbSpline
70
4
71
3
72
24
73
20
40
0
40
0
40
0
40
0
40
0.124999999999999
40
0.124999999999999
40
0.249999999999999
40
0.249999999999999
40
0.374999999999998
40
0.374999999999998
40
0.499999999999998
40
0.499999999999998
40
0.624999999999997
40
0.624999999999997
40
0.687499999999994
40
0.687499999999994
40
0.749999999999991
40
0.749999999999991
40
0.874999999999996
40
0.874999999999996
40
1
40
1
40
1
40
1
41
1
10
-11.9237814416149
20
0.324980947161691
30
0
41
1
10
-11.9194457489922
20
0.324980947161691
30
0
41
1
10
-11.9153564824701
20
0.32465661851694
30
0
41
1
10
-11.9079485979119
20
0.323240679223716
30
0
41
1
10
-11.9046064730613
20
0.32215189995452
30
0
41
1
10
-11.8988364705386
20
0.3190154121788
30
0
41
1
10
-11.8964381114455
20
0.31696313099431
30
0
41
1
10
-11.8929836812652
20
0.311879900363635
30
0
41
1
10
-11.8919008982491
20
0.30877759856898
30
0
41
1
10
-11.891274090198
20
0.301756712238841
30
0
41
1
10
-11.8916984067637
20
0.297837448784492
30
0
41
1
10
-11.8934309418025
20
0.291353045960363
30
0
41
1
10
-11.8941940114109
20
0.289092391428142
30
0
41
1
10
-11.8960240148196
20
0.284507876358191
30
0
41
1
10
-11.8970946969525
20
0.282167946486851
30
0
41
1
10
-11.9007316163329
20
0.275018276597791
30
0
41
1
10
-11.9037537286027
20
0.270033424617793
30
0
41
1
10
-11.9105940690077
20
0.260025649179823
30
0
41
1
10
-11.9143984087425
20
0.255008549371979
30
0
41
1
10
-11.9185094462045
20
0.249980947160964
30
0
0
SPLINE
5
160
100
AcDbEntity
8
1
62
256
6
ByLayer
370
18
48
1
60
0
100
AcDbSpline
70
4
71
3
72
18
73
14
40
0
40
0
40
0
40
0
40
0.249999999999999
40
0.249999999999999
40
0.375000000000007
40
0.375000000000007
40
0.500000000000016
40
0.500000000000016
40
0.750000000000016
40
0.750000000000016
40
0.875000000000008
40
0.875000000000008
40
1
40
1
40
1
40
1
41
1
10
-12.2619374897427
20
0.249980947161674
30
0
41
1
10
-12.245175409905
20
0.260187306071543
30
0
41
1
10
-12.2284787618341
20
0.26964953894975
30
0
41
1
10
-12.2035319977382
20
0.282666955587615
30
0
41
1
10
-12.1952158399689
20
0.286815352002606
30
0
41
1
10
-12.1788139447434
20
0.294590398040555
30
0
41
1
10
-12.1707074902565
20
0.298228829183756
30
0
41
1
10
-12.1466956039985
20
0.308331973172614
30
0
41
1
10
-12.1310821815718
20
0.314018794774057
30
0
41
1
10
-12.1085189695399
20
0.320307354028273
30
0
41
1
10
-12.1012908516913
20
0.321980394436167
30
0
41
1
10
-12.0875370462495
20
0.324314999120048
30
0
41
1
10
-12.081008255091
20
0.324980947161094
30
0
41
1
10
-12.0749439034001
20
0.324980947161691
30
0
0
SPLINE
5
161
100
AcDbEntity
8
1
62
256
6
ByLayer
370
18
48
1
60
0
100
AcDbSpline
70
4
71
3
72
8
73
4
40
0
40
0
40
0
40
0
40
1
40
1
40
1
40
1
41
1
10
-13.2887133686798
20
-0.394519052838319
30
0
41
1
10
-12.9498764087536
20
-0.175597332640279
30
0
41
1
10
-12.6077628641245
20
0.0394093519147987
30
0
41
1
10
-12.2619374897427
20
0.249980947161674
30
0
0
SPLINE
5
162
100
AcDbEntity
8
1
62
256
6
ByLayer
370
18
48
1
60
0
100
AcDbSpline
70
4
71
3
72
38
73
34
40
0
40
0
40
0
40
0
40
0.0625000000000026
40
0.0625000000000026
40
0.125000000000005
40
0.125000000000005
40
0.156250000000007
40
0.156250000000007
40
0.187500000000008
40
0.187500000000008
40
0.250000000000011
40
0.250000000000011
40
0.281250000000017
40
0.281250000000017
40
0.312500000000024
40
0.312500000000024
40
0.37500000000003
40
0.37500000000003
40
0.406250000000036
40
0.406250000000036
40
0.437500000000042
40
0.437500000000042
40
0.500000000000037
40
0.500000000000037
40
0.562500000000032
40
0.562500000000032
40
0.625000000000028
40
0.625000000000028
40
0.750000000000018
40
0.750000000000018
40
0.875000000000009
40
0.875000000000009
40
1
40
1
40
1
40
1
41
1
10
-13.4702748862137
20
-0.394519052838319
30
0
41
1
10
-13.4757943146983
20
-0.401252651663839
30
0
41
1
10
-13.4809501781441
20
-0.407998820378509
30
0
41
1
10
-13.4900398258229
20
-0.421090866571319
30
0
41
1
10
-13.4939949832354
20
-0.427453269472068
30
0
41
1
10
-13.4988176392413
20
-0.436652706244104
30
0
41
1
10
-13.5002379631945
20
-0.439666430659713
30
0
41
1
10
-13.5025893474109
20
-0.445402644548608
30
0
41
1
10
-13.503532127041
20
-0.448145570507165
30
0
41
1
10
-13.5056210814371
20
-0.455977741753941
30
0
41
1
10
-13.5059946892605
20
-0.460690215559282
30
0
41
1
10
-13.5049704660338
20
-0.466476927786175
30
0
41
1
10
-13.5043739139206
20
-0.468214962997223
30
0
41
1
10
-13.5026851457819
20
-0.471320945690934
30
0
41
1
10
-13.5015835740844
20
-0.472696292951213
30
0
41
1
10
-13.4976100463298
20
-0.476217282345146
30
0
41
1
10
-13.4941255566638
20
-0.477748652573382
30
0
41
1
10
-13.4878873439799
20
-0.479061483870908
30
0
41
1
10
-13.4856250849188
20
-0.47933332242323
30
0
41
1
10
-13.4808583852177
20
-0.479567589455002
30
0
41
1
10
-13.4783549901368
20
-0.479532351315839
30
0
41
1
10
-13.4705305425909
20
-0.479028435196653
30
0
41
1
10
-13.4648977094209
20
-0.478164746212002
30
0
41
1
10
-13.4529523427325
20
-0.475578705664162
30
0
41
1
10
-13.4466202325066
20
-0.473845750572934
30
0
41
1
10
-13.433645567981
20
-0.469730324423097
30
0
41
1
10
-13.4269699921963
20
-0.467341554080946
30
0
41
1
10
-13.4064644692924
20
-0.459334429025461
30
0
41
1
10
-13.3920697914073
20
-0.452832519259857
30
0
41
1
10
-13.3631049887933
20
-0.438446193463477
30
0
41
1
10
-13.3484408250735
20
-0.430527273477082
30
0
41
1
10
-13.3188052716474
20
-0.413449436874572
30
0
41
1
10
-13.3038332306426
20
-0.4042879581867
30
0
41
1
10
-13.2887133686798
20
-0.394519052838319
30
0
0
SPLINE
5
163
100
AcDbEntity
8
1
62
256
6
ByLayer
370
18
48
1
60
0
100
AcDbSpline
70
4
71
3
72
8
73
4
40
0
40
0
40
0
40
0
40
1
40
1
40
1
40
1
41
1
10
-12.941904331197
20
0.249980947161362
30
0
41
1
10
-13.1180471579123
20
0.0351594867746314
30
0
41
1
10
-13.2941699218972
20
-0.179674312264069
30
0
41
1
10
-13.4702748862137
20
-0.394519052838319
30
0
0
SPLINE
5
164
100
AcDbEntity
8
1
62
256
6
ByLayer
370
18
48
1
60
0
100
AcDbSpline
70
4
71
3
72
23
73
19
40
0
40
0
40
0
40
0
40
0.124999999999999
40
0.124999999999999
40
0.249999999999998
40
0.249999999999998
40
0.374999999999996
40
0.374999999999996
40
0.499999999999995
40
0.562499999999996
40
0.562499999999996
40
0.624999999999996
40
0.624999999999996
40
0.749999999999998
40
0.749999999999998
40
0.874999999999999
40
0.874999999999999
40
1
40
1
40
1
40
1
41
1
10
-12.9317003032968
20
0.324980947161777
30
0
41
1
10
-12.9281546626962
20
0.324980947161777
30
0
41
1
10
-12.9249370215665
20
0.324620114170159
30
0
41
1
10
-12.9192871440886
20
0.32303667882033
30
0
41
1
10
-12.9168431622451
20
0.321793174571212
30
0
41
1
10
-12.9130939065335
20
0.318369971001488
30
0
41
1
10
-12.9117605960214
20
0.316192959110282
30
0
41
1
10
-12.9103315847485
20
0.310777985080392
30
0
41
1
10
-12.9102338827602
20
0.306085646339625
30
0
41
1
10
-12.9115299156306
20
0.300494947426273
30
0
41
1
10
-12.9127048890145
20
0.296567433923769
30
0
41
1
10
-12.9134525305583
20
0.294494826399216
30
0
41
1
10
-12.9160876840443
20
0.288143993684287
30
0
41
1
10
-12.9183740783399
20
0.283688995222491
30
0
41
1
10
-12.9238503710631
20
0.274403028467305
30
0
41
1
10
-12.9270609615909
20
0.26955094003489
30
0
41
1
10
-12.9340500009027
20
0.259832030827397
30
0
41
1
10
-12.9378497028419
20
0.254925918244197
30
0
41
1
10
-12.9419043311969
20
0.249980947161362
30
0
0
SPLINE
5
165
100
AcDbEntity
8
1
62
256
6
ByLayer
370
18
48
1
60
0
100
AcDbSpline
70
4
71
3
72
18
73
14
40
0
40
0
40
0
40
0
40
0.250000000000005
40
0.250000000000005
40
0.375000000000006
40
0.375000000000006
40
0.500000000000006
40
0.500000000000006
40
0.750000000000007
40
0.750000000000007
40
0.875000000000004
40
0.875000000000004
40
1
40
1
40
1
40
1
41
1
10
-13.2065548385552
20
0.249980947161674
30
0
41
1
10
-13.1918683483694
20
0.260045199607333
30
0
41
1
10
-13.1773484039918
20
0.269403809868607
30
0
41
1
10
-13.1558285169502
20
0.282316542817881
30
0
41
1
10
-13.1486989674189
20
0.286431559643603
30
0
41
1
10
-13.1345354389663
20
0.29424506725934
30
0
41
1
10
-13.1274676194249
20
0.297960016390789
30
0
41
1
10
-13.1067398789887
20
0.308231131630805
30
0
41
1
10
-13.0935302985871
20
0.313958174179788
30
0
41
1
10
-13.0749605537727
20
0.320259096726829
30
0
41
1
10
-13.0689460777358
20
0.321974818101211
30
0
41
1
10
-13.0578276924747
20
0.324325815519529
30
0
41
1
10
-13.0526835673824
20
0.324980947168598
30
0
41
1
10
-13.0480635116142
20
0.324980947169223
30
0
0
SPLINE
5
166
100
AcDbEntity
8
1
62
256
6
ByLayer
370
18
48
1
60
0
100
AcDbSpline
70
4
71
3
72
8
73
4
40
0
40
0
40
0
40
0
40
1
40
1
40
1
40
1
41
1
10
-14.1255646241437
20
-0.394519052838319
30
0
41
1
10
-13.8219161595784
20
-0.176810910131763
30
0
41
1
10
-13.5156891436444
20
0.0381396122572539
30
0
41
1
10
-13.2065548385552
20
0.249980947161674
30
0
0
SPLINE
5
167
100
AcDbEntity
8
1
62
256
6
ByLayer
370
18
48
1
60
0
100
AcDbSpline
70
4
71
3
72
36
73
32
40
0
40
0
40
0
40
0
40
0.0624999999999994
40
0.0624999999999994
40
0.124999999999999
40
0.124999999999999
40
0.187499999999999
40
0.187499999999999
40
0.218749999999998
40
0.218749999999998
40
0.249999999999998
40
0.249999999999998
40
0.312499999999998
40
0.312499999999998
40
0.374999999999997
40
0.374999999999997
40
0.437499999999997
40
0.437499999999997
40
0.499999999999997
40
0.499999999999997
40
0.562499999999996
40
0.562499999999996
40
0.624999999999996
40
0.624999999999996
40
0.687499999999995
40
0.687499999999995
40
0.749999999999995
40
0.749999999999995
40
0.874999999999997
40
0.874999999999997
40
1
40
1
40
1
40
1
41
1
10
-14.2655750866984
20
-0.394519052838319
30
0
41
1
10
-14.2709152318049
20
-0.400916772801736
30
0
41
1
10
-14.275978382755
20
-0.407293077501066
30
0
41
1
10
-14.2851987194409
20
-0.41968620333094
30
0
41
1
10
-14.2893548863108
20
-0.4256951480927
30
0
41
1
10
-14.2965819676909
20
-0.437266289211095
30
0
41
1
10
-14.2996681948549
20
-0.442875980593413
30
0
41
1
10
-14.303108097956
20
-0.450518030421819
30
0
41
1
10
-14.3040654324165
20
-0.452948725894231
30
0
41
1
10
-14.3055769996615
20
-0.457562174581426
30
0
41
1
10
-14.3061330482862
20
-0.459758935437492
30
0
41
1
10
-14.3071284482325
20
-0.465834428936034
30
0
41
1
10
-14.3069086232189
20
-0.469181053338957
30
0
41
1
10
-14.3047638284419
20
-0.474520523657986
30
0
41
1
10
-14.3028010571971
20
-0.476498487128254
30
0
41
1
10
-14.2974997750462
20
-0.478992735534973
30
0
41
1
10
-14.2941373580524
20
-0.4795548484297
30
0
41
1
10
-14.2862625152793
20
-0.479479731271681
30
0
41
1
10
-14.2818410972795
20
-0.478850703577962
30
0
41
1
10
-14.2722259261514
20
-0.476650936816839
30
0
41
1
10
-14.2670211051816
20
-0.475074458444681
30
0
41
1
10
-14.2559794178474
20
-0.471119640285877
30
0
41
1
10
-14.2502293710657
20
-0.468773718754022
30
0
41
1
10
-14.2383514182247
20
-0.463474796430233
30
0
41
1
10
-14.2322228540822
20
-0.460520725310033
30
0
41
1
10
-14.2196336197054
20
-0.454078795623701
30
0
41
1
10
-14.2131449243124
20
-0.450573991117722
30
0
41
1
10
-14.1935390957799
20
-0.439506751248615
30
0
41
1
10
-14.1802225014732
20
-0.431373754650593
30
0
41
1
10
-14.1531891256639
20
-0.413867112124933
30
0
41
1
10
-14.1394710770359
20
-0.404489622046128
30
0
41
1
10
-14.1255646241437
20
-0.394519052838348
30
0
0
SPLINE
5
168
100
AcDbEntity
8
1
62
256
6
ByLayer
370
18
48
1
60
0
100
AcDbSpline
70
4
71
3
72
8
73
4
40
0
40
0
40
0
40
0
40
1
40
1
40
1
40
1
41
1
10
-13.7271595028412
20
0.249980947161504
30
0
41
1
10
-13.9067347108406
20
0.035212365746446
30
0
41
1
10
-14.0862027304346
20
-0.179623374600055
30
0
41
1
10
-14.2655750866984
20
-0.394519052838319
30
0
0
SPLINE
5
169
100
AcDbEntity
8
1
62
256
6
ByLayer
370
18
48
1
60
0
100
AcDbSpline
70
4
71
3
72
22
73
18
40
0
40
0
40
0
40
0
40
0.125
40
0.125
40
0.25
40
0.25
40
0.375
40
0.375
40
0.5
40
0.5
40
0.625
40
0.625
40
0.75
40
0.75
40
0.875
40
0.875
40
1
40
1
40
1
40
1
41
1
10
-13.7033273915928
20
0.32498094716172
30
0
41
1
10
-13.7004864228397
20
0.32498094716172
30
0
41
1
10
-13.6980030233289
20
0.32457223002757
30
0
41
1
10
-13.6939679064125
20
0.322810804878514
30
0
41
1
10
-13.6924447562857
20
0.321476351282854
30
0
41
1
10
-13.690469285274
20
0.317827037319773
30
0
41
1
10
-13.6900300661806
20
0.31547687530076
30
0
41
1
10
-13.6903199496591
20
0.309978932734424
30
0
41
1
10
-13.6910284293275
20
0.306819145366916
30
0
41
1
10
-13.6935353207013
20
0.299707252978664
30
0
41
1
10
-13.6953495169543
20
0.295745119604987
30
0
41
1
10
-13.699812285762
20
0.287456554264992
30
0
41
1
10
-13.7024739620712
20
0.283086608544551
30
0
41
1
10
-13.7085556247414
20
0.273950228042338
30
0
41
1
10
-13.711950430119
20
0.269226009096116
30
0
41
1
10
-13.719197862038
20
0.259701365260099
30
0
41
1
10
-13.7230711169545
20
0.254870580017553
30
0
41
1
10
-13.7271595028412
20
0.249980947161504
30
0
0
SPLINE
5
16A
100
AcDbEntity
8
1
62
256
6
ByLayer
370
18
48
1
60
0
100
AcDbSpline
70
4
71
3
72
16
73
12
40
0
40
0
40
0
40
0
40
0.250000000000002
40
0.250000000000002
40
0.500000000000005
40
0.500000000000005
40
0.750000000000007
40
0.750000000000007
40
0.875000000000004
40
0.875000000000004
40
1
40
1
40
1
40
1
41
1
10
-13.9273497265336
20
0.249980947161674
30
0
41
1
10
-13.9141383585476
20
0.259977683504246
30
0
41
1
10
-13.9010856072335
20
0.269365680292765
30
0
41
1
10
-13.8756867854771
20
0.286560850671492
30
0
41
1
10
-13.8632846302391
20
0.294416067556767
30
0
41
1
10
-13.8392323105369
20
0.308231113448897
30
0
41
1
10
-13.8279050504171
20
0.314006523917868
30
0
41
1
10
-13.8124983254929
20
0.320301845067462
30
0
41
1
10
-13.8075818891419
20
0.322012470654755
30
0
41
1
10
-13.7987038822678
20
0.3243439697697
30
0
41
1
10
-13.7947211231747
20
0.324980947163425
30
0
41
1
10
-13.7912890092361
20
0.324980947163624
30
0
0
SPLINE
5
16B
100
AcDbEntity
8
1
62
256
6
ByLayer
370
18
48
1
60
0
100
AcDbSpline
70
4
71
3
72
98
73
94
40
0
40
0
40
0
40
0
40
0.0156250000000006
40
0.0156250000000006
40
0.0234375000000009
40
0.0234375000000009
40
0.0312500000000013
40
0.0312500000000013
40
0.0625000000000023
40
0.0937500000000034
40
0.0937500000000034
40
0.109375000000004
40
0.109375000000004
40
0.117187500000004
40
0.117187500000004
40
0.125000000000004
40
0.125000000000004
40
0.156250000000005
40
0.156250000000005
40
0.187500000000006
40
0.187500000000006
40
0.218750000000006
40
0.218750000000006
40
0.226562500000006
40
0.226562500000006
40
0.234375000000006
40
0.250000000000007
40
0.250000000000007
40
0.281250000000007
40
0.312500000000007
40
0.312500000000007
40
0.320312500000007
40
0.320312500000007
40
0.328125000000007
40
0.328125000000007
40
0.343750000000008
40
0.343750000000008
40
0.375000000000008
40
0.406250000000008
40
0.406250000000008
40
0.421875000000008
40
0.421875000000008
40
0.429687500000008
40
0.429687500000008
40
0.437500000000008
40
0.437500000000008
40
0.468750000000008
40
0.468750000000008
40
0.500000000000008
40
0.500000000000008
40
0.531250000000008
40
0.531250000000008
40
0.539062500000008
40
0.539062500000008
40
0.546875000000008
40
0.562500000000008
40
0.562500000000008
40
0.593750000000008
40
0.625000000000007
40
0.625000000000007
40
0.632812500000007
40
0.632812500000007
40
0.640625000000007
40
0.640625000000007
40
0.656250000000007
40
0.656250000000007
40
0.687500000000006
40
0.718750000000006
40
0.718750000000006
40
0.734375000000006
40
0.742187500000006
40
0.742187500000006
40
0.750000000000006
40
0.750000000000006
40
0.781250000000005
40
0.781250000000005
40
0.812500000000005
40
0.812500000000005
40
0.843750000000005
40
0.843750000000005
40
0.851562500000005
40
0.851562500000005
40
0.859375000000004
40
0.875000000000004
40
0.875000000000004
40
0.906250000000003
40
0.937500000000002
40
0.937500000000002
40
0.953125000000002
40
0.953125000000002
40
0.968750000000002
40
0.968750000000002
40
1
40
1
40
1
40
1
41
1
10
-7.50007335376975
20
-13.5999266462302
30
0
41
1
10
-7.423770495352
20
-13.5997039219889
30
0
41
1
10
-7.34736526850081
20
-13.599388544338
30
0
41
1
10
-7.23260052012299
20
-13.5987708194171
30
0
41
1
10
-7.19440831510914
20
-13.598541201177
30
0
41
1
10
-7.11837376654668
20
-13.5980356975529
30
0
41
1
10
-7.08049628250596
20
-13.5977596263434
30
0
41
1
10
-6.89180065125842
20
-13.5962620167295
30
0
41
1
10
-6.5943040298734
20
-13.5931192869034
30
0
41
1
10
-6.3054543223025
20
-13.5883860713177
30
0
41
1
10
-6.09209118711095
20
-13.5841644590012
30
0
41
1
10
-6.02151686972411
20
-13.5826448969366
30
0
41
1
10
-5.91648918209324
20
-13.5801836227563
30
0
41
1
10
-5.88161898783696
20
-13.5793328468098
30
0
41
1
10
-5.81215983081086
20
-13.5775679869052
30
0
41
1
10
-5.77755904157851
20
-13.5766534536781
30
0
41
1
10
-5.6062590179568
20
-13.5719438349021
30
0
41
1
10
-5.4738573910075
20
-13.5677197451945
30
0
41
1
10
-5.21804456556302
20
-13.5582527104681
30
0
41
1
10
-5.09463412597628
20
-13.5530099079487
30
0
41
1
10
-4.85680259509823
20
-13.5413586680721
30
0
41
1
10
-4.74238081133981
20
-13.5349506022894
30
0
41
1
10
-4.6051461761748
20
-13.526090169
30
0
41
1
10
-4.57795154407668
20
-13.5242727143965
30
0
41
1
10
-4.52440184440181
20
-13.5205665790326
30
0
41
1
10
-4.44530500685804
20
-13.5148990758853
30
0
41
1
10
-4.36984643549354
20
-13.5088993522228
30
0
41
1
10
-4.22369843431818
20
-13.4964352542353
30
0
41
1
10
-4.04152862807337
20
-13.4785789054518
30
0
41
1
10
-3.88447471820623
20
-13.4579773658285
30
0
41
1
10
-3.79432177042898
20
-13.4441387378374
30
0
41
1
10
-3.77669244006506
20
-13.4413227879401
30
0
41
1
10
-3.74224422534422
20
-13.4355914280039
30
0
41
1
10
-3.72541047854906
20
-13.4326733135155
30
0
41
1
10
-3.67623936585875
20
-13.4237831781806
30
0
41
1
10
-3.64537929138308
20
-13.4177031478259
30
0
41
1
10
-3.55843336076856
20
-13.3989914260604
30
0
41
1
10
-3.45750152446186
20
-13.3727854230851
30
0
41
1
10
-3.38593052124139
20
-13.343923094569
30
0
41
1
10
-3.3433634321531
20
-13.3212163419787
30
0
41
1
10
-3.33102972206331
20
-13.3134706382924
30
0
41
1
10
-3.31535729010031
20
-13.3015776635727
30
0
41
1
10
-3.31060473597719
20
-13.297567592465
30
0
41
1
10
-3.30205326568586
20
-13.2894542916086
30
0
41
1
10
-3.29826499464022
20
-13.2853601787101
30
0
41
1
10
-3.28179373834121
20
-13.2647627686007
30
0
41
1
10
-3.27643793115465
20
-13.2478197858646
30
0
41
1
10
-3.28088706420789
20
-13.2130190858964
30
0
41
1
10
-3.29069318536207
20
-13.1951613448221
30
0
41
1
10
-3.32546082046485
20
-13.1585490395839
30
0
41
1
10
-3.35042110806992
20
-13.1397944352601
30
0
41
1
10
-3.3913838509051
20
-13.1158040466683
30
0
41
1
10
-3.40007464894973
20
-13.1109745147897
30
0
41
1
10
-3.41834140496019
20
-13.1013147669951
30
0
41
1
10
-3.44709784989558
20
-13.0868062989261
30
0
41
1
10
-3.47987553989171
20
-13.0722470059864
30
0
41
1
10
-3.55070705927599
20
-13.0430772661016
30
0
41
1
10
-3.65919271467476
20
-13.0040468848373
30
0
41
1
10
-3.79551948082565
20
-12.9649440496501
30
0
41
1
10
-3.88961924091916
20
-12.9405592205064
30
0
41
1
10
-3.90888506841083
20
-12.935685039596
30
0
41
1
10
-3.94831789208598
20
-12.9259444465293
30
0
41
1
10
-3.9685032144767
20
-12.9210737289278
30
0
41
1
10
-4.03030508745002
20
-12.9065055987225
30
0
41
1
10
-4.07297235884377
20
-12.8968971358951
30
0
41
1
10
-4.20528392053143
20
-12.8684033606425
30
0
41
1
10
-4.3931699514807
20
-12.8312941799239
30
0
41
1
10
-4.60361619016112
20
-12.796216542856
30
0
41
1
10
-4.77003217600364
20
-12.7707972749478
30
0
41
1
10
-4.85538957984701
20
-12.7583103313002
30
0
41
1
10
-4.94403281376455
20
-12.7461859608007
30
0
41
1
10
-5.00386826121121
20
-12.7381871699505
30
0
41
1
10
-5.03416315144503
20
-12.7342292171688
30
0
41
1
10
-5.18660817631101
20
-12.714771251133
30
0
41
1
10
-5.31235325269896
20
-12.7001706488249
30
0
41
1
10
-5.57122066019798
20
-12.672994463188
30
0
41
1
10
-5.7043434708643
20
-12.6604187518061
30
0
41
1
10
-5.9779980244177
20
-12.6374313237394
30
0
41
1
10
-6.1185290502417
20
-12.6270192250177
30
0
41
1
10
-6.29898863328077
20
-12.6154764497231
30
0
41
1
10
-6.33536934204852
20
-12.613238842904
30
0
41
1
10
-6.40837699302952
20
-12.6089288883419
30
0
41
1
10
-6.51812673060414
20
-12.6027188237238
30
0
41
1
10
-6.62858292223048
20
-12.5972711788669
30
0
41
1
10
-6.85042232844589
20
-12.5873915426863
30
0
41
1
10
-7.14867571156533
20
-12.5769239854979
30
0
41
1
10
-7.45182139079726
20
-12.5719370751433
30
0
41
1
10
-7.68105601051843
20
-12.5703192023442
30
0
41
1
10
-7.75778070307695
20
-12.5701340617744
30
0
41
1
10
-7.91187083808973
20
-12.5704889524349
30
0
41
1
10
-7.98857070843967
20
-12.571027562238
30
0
41
1
10
-8.21755089859893
20
-12.5736999284669
30
0
41
1
10
-8.36876267144147
20
-12.5768886003224
30
0
41
1
10
-8.51856404007208
20
-12.5814359599279
30
0
0
SPLINE
5
16C
100
AcDbEntity
8
1
62
256
6
ByLayer
370
18
48
1
60
0
100
AcDbSpline
70
4
71
3
72
79
73
75
40
0
40
0
40
0
40
0
40
0.0156524014566963
40
0.0156524014566963
40
0.0313048029133926
40
0.0313048029133926
40
0.0626096058267851
40
0.0626096058267851
40
0.12521921165357
40
0.12521921165357
40
0.140871613110266
40
0.140871613110266
40
0.156524014566963
40
0.156524014566963
40
0.187828817480355
40
0.187828817480355
40
0.25043842330714
40
0.25043842330714
40
0.258264624035488
40
0.258264624035488
40
0.266090824763836
40
0.281743226220532
40
0.281743226220532
40
0.313048029133924
40
0.344352832047316
40
0.344352832047316
40
0.360005233504012
40
0.360005233504012
40
0.375657634960708
40
0.375657634960708
40
0.438267240787493
40
0.438267240787493
40
0.469572043700884
40
0.469572043700884
40
0.477398244429232
40
0.477398244429232
40
0.48522444515758
40
0.48522444515758
40
0.500876846614276
40
0.500876846614276
40
0.56348645244106
40
0.56348645244106
40
0.594791255354452
40
0.594791255354452
40
0.6026174560828
40
0.6026174560828
40
0.610443656811148
40
0.626096058267844
40
0.626096058267844
40
0.688705664094628
40
0.688705664094628
40
0.704358065551324
40
0.704358065551324
40
0.72001046700802
40
0.72001046700802
40
0.751315269921412
40
0.751315269921412
40
0.813924875748196
40
0.813924875748196
40
0.821751076476544
40
0.821751076476544
40
0.829577277204892
40
0.829577277204892
40
0.845229678661588
40
0.845229678661588
40
0.876534481574979
40
0.876534481574979
40
0.939144087401763
40
0.939144087401763
40
0.954796488858459
40
0.954796488858459
40
0.970448890315155
40
0.970448890315155
40
1
40
1
40
1
40
1
41
1
10
2.5923114411882
20
-13.6742763029928
30
0
41
1
10
2.58596847283832
20
-13.674092165939
30
0
41
1
10
2.57869474333924
20
-13.6738731590971
30
0
41
1
10
2.56225480516491
20
-13.673366037094
30
0
41
1
10
2.55306107780049
20
-13.6730770357274
30
0
41
1
10
2.52286539434846
20
-13.6721166473532
30
0
41
1
10
2.49923609477426
20
-13.6713514639365
30
0
41
1
10
2.41814905308578
20
-13.6687247843917
30
0
41
1
10
2.350577215729
20
-13.6665318621331
30
0
41
1
10
2.24889212936929
20
-13.6633801121371
30
0
41
1
10
2.22765688345143
20
-13.6627283327363
30
0
41
1
10
2.18354619457105
20
-13.6613914636761
30
0
41
1
10
2.16078180263389
20
-13.6607097321741
30
0
41
1
10
2.09040295118263
20
-13.658632407168
30
0
41
1
10
2.04070721239663
20
-13.6572047236794
30
0
41
1
10
1.88345345580103
20
-13.6528529485564
30
0
41
1
10
1.76779962226797
20
-13.6498594470105
30
0
41
1
10
1.62505913475721
20
-13.6465659664367
30
0
41
1
10
1.60901096286409
20
-13.646200831404
30
0
41
1
10
1.57672508441019
20
-13.6454770269034
30
0
41
1
10
1.52795517459847
20
-13.6443996854741
30
0
41
1
10
1.47817285238034
20
-13.6433499203459
30
0
41
1
10
1.37727860914796
20
-13.6412935809921
30
0
41
1
10
1.23921286521488
20
-13.638667060421
30
0
41
1
10
1.09414390843992
20
-13.6363372935436
30
0
41
1
10
0.982677774902584
20
-13.6347260463808
30
0
41
1
10
0.945077631422635
20
-13.6342116467912
30
0
41
1
10
0.868972642671906
20
-13.6332324480748
30
0
41
1
10
0.830379221859943
20
-13.6327667595385
30
0
41
1
10
0.636965053972403
20
-13.630593138534
30
0
41
1
10
0.479841233852255
20
-13.6293351930536
30
0
41
1
10
0.24067409195311
20
-13.6282456076564
30
0
41
1
10
0.16036774781935
20
-13.6280152135519
30
0
41
1
10
0.0592378599975518
20
-13.6279009132983
30
0
41
1
10
0.0389744581522677
20
-13.6278867384046
30
0
41
1
10
-0.0016279341417942
20
-13.6278759544594
30
0
41
1
10
-0.0219931726895766
20
-13.6278793667329
30
0
41
1
10
-0.0829886999285634
20
-13.627916086431
30
0
41
1
10
-0.123482523966345
20
-13.627975740238
30
0
41
1
10
-0.32511871652531
20
-13.6284455042712
30
0
41
1
10
-0.483783227860357
20
-13.6293701319779
30
0
41
1
10
-0.717866226163778
20
-13.6314977451576
30
0
41
1
10
-0.795237541275014
20
-13.6323303952701
30
0
41
1
10
-0.891104856383976
20
-13.633516404064
30
0
41
1
10
-0.910238251411272
20
-13.6337609196516
30
0
41
1
10
-0.948219187786805
20
-13.6342614872869
30
0
41
1
10
-1.00483780261663
20
-13.6350305633968
30
0
41
1
10
-1.06040923720911
20
-13.6358518341754
30
0
41
1
10
-1.24335507002402
20
-13.6386946193589
30
0
41
1
10
-1.382434095153
20
-13.6413056369209
30
0
41
1
10
-1.54715096785827
20
-13.6448208531172
30
0
41
1
10
-1.57963413355188
20
-13.6455364477023
30
0
41
1
10
-1.64366426793325
20
-13.6469883197887
30
0
41
1
10
-1.67526801400516
20
-13.6477260381761
30
0
41
1
10
-1.76773092031937
20
-13.6499410558119
30
0
41
1
10
-1.82651845761543
20
-13.6514260186431
30
0
41
1
10
-1.99455077905395
20
-13.6558461475815
30
0
41
1
10
-2.09553506958449
20
-13.6587471665968
30
0
41
1
10
-2.19645504139959
20
-13.6617824475666
30
0
41
1
10
-2.20749067355402
20
-13.6621165169049
30
0
41
1
10
-2.22920297749874
20
-13.6627776427893
30
0
41
1
10
-2.23989304616961
20
-13.6631051139163
30
0
41
1
10
-2.27128545405572
20
-13.6640719137483
30
0
41
1
10
-2.29132648189014
20
-13.6646960917593
30
0
41
1
10
-2.34883821228601
20
-13.6665022629838
30
0
41
1
10
-2.38370305137411
20
-13.6676178742875
30
0
41
1
10
-2.47806146157683
20
-13.6706581456388
30
0
41
1
10
-2.52740801184191
20
-13.6722768645681
30
0
41
1
10
-2.57146409922674
20
-13.6736518300925
30
0
41
1
10
-2.57935474654076
20
-13.6738933338188
30
0
41
1
10
-2.59323751378781
20
-13.6743057546662
30
0
41
1
10
-2.59924205571537
20
-13.6744770615607
30
0
41
1
10
-2.61389336034824
20
-13.6748694522321
30
0
41
1
10
-2.62015723352761
20
-13.6749996701275
30
0
41
1
10
-2.62308347761669
20
-13.6749999994345
30
0
0
SPLINE
5
16D
100
AcDbEntity
8
1
62
256
6
ByLayer
370
18
48
1
60
0
100
AcDbSpline
70
4
71
3
72
34
73
30
40
0
40
0
40
0
40
0
40
0.137857289246509
40
0.137857289246509
40
0.206785933869763
40
0.206785933869763
40
0.241250256181393
40
0.241250256181393
40
0.275714578493022
40
0.275714578493022
40
0.413571867739541
40
0.413571867739541
40
0.4825005123628
40
0.4825005123628
40
0.516964834674429
40
0.516964834674429
40
0.551429156986057
40
0.551429156986057
40
0.68928644623257
40
0.68928644623257
40
0.758215090855826
40
0.758215090855826
40
0.792679413167454
40
0.792679413167454
40
0.827143735479081
40
0.827143735479081
40
0.96500102472559
40
0.96500102472559
40
1
40
1
40
1
40
1
41
1
10
22.55
20
-13.6568101910356
30
0
41
1
10
22.4169963545743
20
-13.6568101910356
30
0
41
1
10
22.2859432659411
20
-13.6570784432749
30
0
41
1
10
22.0921664884179
20
-13.6578413928445
30
0
41
1
10
22.028044085163
20
-13.6581556763016
30
0
41
1
10
21.9325736050478
20
-13.6587104101133
30
0
41
1
10
21.9008691276579
20
-13.6589091948801
30
0
41
1
10
21.8377016235944
20
-13.6593332504114
30
0
41
1
10
21.8061855103645
20
-13.6595589289441
30
0
41
1
10
21.6498272019797
20
-13.6607454333134
30
0
41
1
10
21.530352751129
20
-13.6618667397009
30
0
41
1
10
21.3592317088943
20
-13.6636865524593
30
0
41
1
10
21.303547567129
20
-13.6643160868109
30
0
41
1
10
21.2220830696495
20
-13.6652785835836
30
0
41
1
10
21.1952723255943
20
-13.6656024362683
30
0
41
1
10
21.1423494852296
20
-13.6662532974823
30
0
41
1
10
21.116175509926
20
-13.6665810987138
30
0
41
1
10
20.9879561547494
20
-13.6682093056042
30
0
41
1
10
20.8939998007358
20
-13.6694742215614
30
0
41
1
10
20.765533447802
20
-13.6711715906657
30
0
41
1
10
20.7248012264701
20
-13.6717040473498
30
0
41
1
10
20.6668854000082
20
-13.6724338998456
30
0
41
1
10
20.6481112685033
20
-13.6726657009101
30
0
41
1
10
20.6116424094612
20
-13.6731030207111
30
0
41
1
10
20.5939117706032
20
-13.6733089148748
30
0
41
1
10
20.5087450098689
20
-13.6742561318753
30
0
41
1
10
20.4512551834008
20
-13.6747564273287
30
0
41
1
10
20.3920833020109
20
-13.6749754078497
30
0
41
1
10
20.3807700630504
20
-13.6749987588052
30
0
41
1
10
20.3701300966844
20
-13.6749999591344
30
0
0
SPLINE
5
16E
100
AcDbEntity
8
1
62
256
6
ByLayer
370
18
48
1
60
0
100
AcDbSpline
70
4
71
3
72
13
73
9
40
0
40
0
40
0
40
0
40
0.499999999999984
40
0.499999999999984
40
0.624999999999984
40
0.624999999999984
40
0.749999999999984
40
1
40
1
40
1
40
1
41
1
10
23.5869497189393
20
-13.6591449622734
30
0
41
1
10
23.4853915228219
20
-13.6584062520792
30
0
41
1
10
23.3811005700516
20
-13.6578185068984
30
0
41
1
10
23.2471818468435
20
-13.6573173091762
30
0
41
1
10
23.2202812650388
20
-13.6572290034
30
0
41
1
10
23.1664576937749
20
-13.6570774328798
30
0
41
1
10
23.0855928076993
20
-13.6568872629302
30
0
41
1
10
23.0043411897272
20
-13.6568101910356
30
0
41
1
10
22.95
20
-13.6568101910356
30
0
0
SPLINE
5
16F
100
AcDbEntity
8
1
62
256
6
ByLayer
370
18
48
1
60
0
100
AcDbSpline
70
4
71
3
72
8
73
4
40
0
40
0
40
0
40
0
40
1
40
1
40
1
40
1
41
1
10
23.9270280283294
20
-13.6586318708439
30
0
41
1
10
23.81201044381
20
-13.6585990021018
30
0
41
1
10
23.6986798059065
20
-13.6587767836597
30
0
41
1
10
23.5869497189393
20
-13.6591449622734
30
0
0
SPLINE
5
170
100
AcDbEntity
8
1
62
256
6
ByLayer
370
18
48
1
60
0
100
AcDbSpline
70
4
71
3
72
8
73
4
40
0
40
0
40
0
40
0
40
1
40
1
40
1
40
1
41
1
10
34.4022179274068
20
-13.6614562394843
30
0
41
1
10
34.3873486306534
20
-13.6614744234187
30
0
41
1
10
34.3724120353778
20
-13.6614816736356
30
0
41
1
10
34.3574066438536
20
-13.6614777735078
30
0
0
SPLINE
5
171
100
AcDbEntity
8
1
62
256
6
ByLayer
370
18
48
1
60
0
100
AcDbSpline
70
4
71
3
72
130
73
126
40
0
40
0
40
0
40
0
40
0.0156250000000002
40
0.0156250000000002
40
0.0234375000000004
40
0.0234375000000004
40
0.0312500000000006
40
0.0312500000000006
40
0.0625000000000013
40
0.0625000000000013
40
0.0781250000000017
40
0.0781250000000017
40
0.085937500000002
40
0.085937500000002
40
0.0937500000000023
40
0.0937500000000023
40
0.125000000000004
40
0.125000000000004
40
0.140625000000005
40
0.140625000000005
40
0.148437500000005
40
0.148437500000005
40
0.156250000000005
40
0.156250000000005
40
0.187500000000006
40
0.187500000000006
40
0.203125000000006
40
0.203125000000006
40
0.210937500000006
40
0.210937500000006
40
0.218750000000007
40
0.218750000000007
40
0.250000000000007
40
0.250000000000007
40
0.265625000000007
40
0.265625000000007
40
0.273437500000007
40
0.273437500000007
40
0.281250000000007
40
0.281250000000007
40
0.312500000000006
40
0.312500000000006
40
0.328125000000006
40
0.328125000000006
40
0.343750000000006
40
0.343750000000006
40
0.375000000000006
40
0.375000000000006
40
0.382812500000006
40
0.382812500000006
40
0.390625000000006
40
0.390625000000006
40
0.406250000000005
40
0.406250000000005
40
0.437500000000005
40
0.437500000000005
40
0.445312500000005
40
0.445312500000005
40
0.453125000000005
40
0.453125000000005
40
0.468750000000004
40
0.468750000000004
40
0.500000000000004
40
0.500000000000004
40
0.507812500000004
40
0.507812500000004
40
0.515625000000005
40
0.531250000000004
40
0.531250000000004
40
0.562500000000005
40
0.562500000000005
40
0.570312500000005
40
0.570312500000005
40
0.578125000000005
40
0.593750000000005
40
0.609375000000006
40
0.609375000000006
40
0.617187500000006
40
0.617187500000006
40
0.625000000000006
40
0.625000000000006
40
0.656250000000006
40
0.656250000000006
40
0.664062500000006
40
0.664062500000006
40
0.671875000000006
40
0.687500000000007
40
0.687500000000007
40
0.718750000000007
40
0.718750000000007
40
0.726562500000007
40
0.726562500000007
40
0.734375000000007
40
0.750000000000007
40
0.765625000000007
40
0.765625000000007
40
0.773437500000008
40
0.773437500000008
40
0.781250000000008
40
0.781250000000008
40
0.812500000000008
40
0.812500000000008
40
0.828125000000008
40
0.828125000000008
40
0.835937500000008
40
0.835937500000008
40
0.843750000000008
40
0.843750000000008
40
0.875000000000007
40
0.875000000000007
40
0.890625000000006
40
0.890625000000006
40
0.898437500000006
40
0.898437500000006
40
0.906250000000005
40
0.906250000000005
40
0.937500000000004
40
0.937500000000004
40
0.953125000000003
40
0.953125000000003
40
0.960937500000002
40
0.960937500000002
40
0.968750000000002
40
0.968750000000002
40
1
40
1
40
1
40
1
41
1
10
5.86197479331003
20
-13.3443804639359
30
0
41
1
10
5.89085180518921
20
-13.3484339559477
30
0
41
1
10
5.91792080379346
20
-13.3525750602462
30
0
41
1
10
5.95578515428747
20
-13.358909318803
30
0
41
1
10
5.9679494156313
20
-13.3610412098073
30
0
41
1
10
5.99135073867859
20
-13.3653449143769
30
0
41
1
10
6.00260548369263
20
-13.3675203577681
30
0
41
1
10
6.05631430808049
20
-13.3784545448752
30
0
41
1
10
6.09051325310409
20
-13.3872480675362
30
0
41
1
10
6.12917395286064
20
-13.4004487869581
30
0
41
1
10
6.13994164778555
20
-13.4048511115944
30
0
41
1
10
6.15286461604998
20
-13.4114531224344
30
0
41
1
10
6.15663339129623
20
-13.4136535639896
30
0
41
1
10
6.16307495384655
20
-13.4180534283377
30
0
41
1
10
6.16574926750619
20
-13.4202567342136
30
0
41
1
10
6.17623887312212
20
-13.4311649872234
30
0
41
1
10
6.17561105559113
20
-13.4396166334814
30
0
41
1
10
6.16153389138159
20
-13.4518949941145
30
0
41
1
10
6.15463920497351
20
-13.4559211855323
30
0
41
1
10
6.1409250197091
20
-13.4618616212737
30
0
41
1
10
6.13579077294563
20
-13.4638252873157
30
0
41
1
10
6.12437456089401
20
-13.467719786876
30
0
41
1
10
6.11811432400771
20
-13.4696424949205
30
0
41
1
10
6.08424808167351
20
-13.4790893306624
30
0
41
1
10
6.04886702963691
20
-13.4861645567874
30
0
41
1
10
5.98361590481693
20
-13.4961271973244
30
0
41
1
10
5.95982373300723
20
-13.4993392529482
30
0
41
1
10
5.92099484529854
20
-13.5039994552808
30
0
41
1
10
5.90749421998015
20
-13.5055300283714
30
0
41
1
10
5.87959292614946
20
-13.5085210098341
30
0
41
1
10
5.86521709646092
20
-13.5099792268561
30
0
41
1
10
5.79124982315545
20
-13.5170916714247
30
0
41
1
10
5.72544271036782
20
-13.5222138623313
30
0
41
1
10
5.61690103300131
20
-13.5291436426605
30
0
41
1
10
5.57907251100158
20
-13.5313272237454
30
0
41
1
10
5.51978356748896
20
-13.5344187936031
30
0
41
1
10
5.49958325761878
20
-13.5354189083228
30
0
41
1
10
5.45873956594821
20
-13.5373393177705
30
0
41
1
10
5.4380467383113
20
-13.5382622980712
30
0
41
1
10
5.33324878882814
20
-13.5426983913843
30
0
41
1
10
5.24517342368114
20
-13.5456800286472
30
0
41
1
10
5.10672508523567
20
-13.5493794298287
30
0
41
1
10
5.05948190669355
20
-13.5504833954196
30
0
41
1
10
4.96292697966902
20
-13.5524304115043
30
0
41
1
10
4.91429094820174
20
-13.5532600920856
30
0
41
1
10
4.76734183646337
20
-13.5553433761593
30
0
41
1
10
4.6679956932156
20
-13.5561954644701
30
0
41
1
10
4.54207707836682
20
-13.5566066175292
30
0
41
1
10
4.51680591780456
20
-13.5566558078154
30
0
41
1
10
4.46608580489118
20
-13.5566871310409
30
0
41
1
10
4.44058262078809
20
-13.5566690404849
30
0
41
1
10
4.36451234319449
20
-13.5565139360975
30
0
41
1
10
4.31421461370576
20
-13.5562770608946
30
0
41
1
10
4.16453467606982
20
-13.5551734533372
30
0
41
1
10
4.06635631063841
20
-13.5539180990953
30
0
41
1
10
3.94567624631122
20
-13.5516578541223
30
0
41
1
10
3.92164313411672
20
-13.5511709028985
30
0
41
1
10
3.87378667771321
20
-13.5501246859259
30
0
41
1
10
3.85007928395103
20
-13.5495678449756
30
0
41
1
10
3.77989950146102
20
-13.5478026276979
30
0
41
1
10
3.73424294694539
20
-13.5464970845735
30
0
41
1
10
3.60058711527387
20
-13.5421858995144
30
0
41
1
10
3.51587556470352
20
-13.5387897396248
30
0
41
1
10
3.41562000136196
20
-13.5338062190858
30
0
41
1
10
3.39580378893524
20
-13.5327694925608
30
0
41
1
10
3.3570443327078
20
-13.5306345352894
30
0
41
1
10
3.3002106731447
20
-13.5273405615689
30
0
41
1
10
3.2472151911482
20
-13.5237690327712
30
0
41
1
10
3.14625062566921
20
-13.5162402855892
30
0
41
1
10
3.08560245457773
20
-13.5107100929301
30
0
41
1
10
3.01841809826192
20
-13.5030622460758
30
0
41
1
10
3.00543918052057
20
-13.5014978368679
30
0
41
1
10
2.9806038817311
20
-13.4983244454328
30
0
41
1
10
2.94493976694804
20
-13.4934866976549
30
0
41
1
10
2.8933044407099
20
-13.4850302840528
30
0
41
1
10
2.86021244364798
20
-13.4778287249542
30
0
41
1
10
2.8385068557576
20
-13.4722551893564
30
0
41
1
10
2.83179131253624
20
-13.4703685902524
30
0
41
1
10
2.81941431235981
20
-13.4665360876131
30
0
41
1
10
2.81374512381603
20
-13.4645871275197
30
0
41
1
10
2.78817866203505
20
-13.4547246188051
30
0
41
1
10
2.77673067807089
20
-13.4465401103875
30
0
41
1
10
2.77360935985973
20
-13.4359261698309
30
0
41
1
10
2.77355102511305
20
-13.4337802690323
30
0
41
1
10
2.77456382437393
20
-13.4294812079053
30
0
41
1
10
2.77777029910052
20
-13.4230143313519
30
0
41
1
10
2.78594123957024
20
-13.4164940601361
30
0
41
1
10
2.80879413440101
20
-13.4033881258557
30
0
41
1
10
2.83265810107514
20
-13.3945627950131
30
0
41
1
10
2.87369409840309
20
-13.3834517667136
30
0
41
1
10
2.8824466931425
20
-13.3812315449885
30
0
41
1
10
2.90090831327555
20
-13.3768270201702
30
0
41
1
10
2.93008690196027
20
-13.3702603785904
30
0
41
1
10
2.98602508300286
20
-13.3595230049718
30
0
41
1
10
3.03848228356534
20
-13.3511748149858
30
0
41
1
10
3.08075125579202
20
-13.3450153886114
30
0
41
1
10
3.0953293021071
20
-13.3429792339476
30
0
41
1
10
3.12547711030797
20
-13.3389432046527
30
0
41
1
10
3.14107818320858
20
-13.3369395054174
30
0
41
1
10
3.22124939298882
20
-13.3270631841601
30
0
41
1
10
3.29144907473585
20
-13.3197088292332
30
0
41
1
10
3.40551874922605
20
-13.3095562217137
30
0
41
1
10
3.44501257612896
20
-13.3063192809259
30
0
41
1
10
3.50649803503254
20
-13.3016995986676
30
0
41
1
10
3.52736785696618
20
-13.3001990476597
30
0
41
1
10
3.56987028480253
20
-13.297279826934
30
0
41
1
10
3.59153957486257
20
-13.2958591574553
30
0
41
1
10
3.70074333675828
20
-13.289035404648
30
0
41
1
10
3.7915501176054
20
-13.284412557237
30
0
41
1
10
3.93278588241827
20
-13.2787671392538
30
0
41
1
10
3.98070706952487
20
-13.2771011328559
30
0
41
1
10
4.05388061417179
20
-13.2749395646482
30
0
41
1
10
4.07848740855619
20
-13.2742753505255
30
0
41
1
10
4.12814095759833
20
-13.2730627245268
30
0
41
1
10
4.15304437162976
20
-13.2725179369148
30
0
41
1
10
4.27758663735156
20
-13.2701059928058
30
0
41
1
10
4.37766325973118
20
-13.2691601998174
30
0
41
1
10
4.52842946553119
20
-13.2692036896631
30
0
41
1
10
4.57879404974125
20
-13.2694629768548
30
0
41
1
10
4.6545089704625
20
-13.2702275860469
30
0
41
1
10
4.67983905152809
20
-13.270546237414
30
0
41
1
10
4.73013972156429
20
-13.2713044476146
30
0
41
1
10
4.75512526287406
20
-13.2717437776673
30
0
41
1
10
4.87924355379886
20
-13.2742347535735
30
0
41
1
10
4.97596698859832
20
-13.2771639394267
30
0
41
1
10
5.07014842312427
20
-13.2809882944605
30
0
0
SPLINE
5
172
100
AcDbEntity
8
1
62
256
6
ByLayer
370
18
48
1
60
0
100
AcDbSpline
70
4
71
3
72
28
73
24
40
0
40
0
40
0
40
0
40
0.125
40
0.125
40
0.15625
40
0.171875
40
0.171875
40
0.187500000000001
40
0.187500000000001
40
0.250000000000001
40
0.250000000000001
40
0.375
40
0.5
40
0.625000000000001
40
0.625000000000001
40
0.750000000000001
40
0.750000000000001
40
0.781250000000001
40
0.781250000000001
40
0.812500000000001
40
0.875
40
0.875
40
1
40
1
40
1
40
1
41
1
10
-8.75516994398052
20
-12.3448300560195
30
0
41
1
10
-8.43446070155713
20
-12.3028224072344
30
0
41
1
10
-8.1054454954628
20
-12.2619848595357
30
0
41
1
10
-7.68350094135194
20
-12.2128433463983
30
0
41
1
10
-7.55611584475471
20
-12.1982439290611
30
0
41
1
10
-7.42751661333728
20
-12.183871959898
30
0
41
1
10
-7.34151255693627
20
-12.1743426461433
30
0
41
1
10
-7.29835357645435
20
-12.1696016861958
30
0
41
1
10
-7.0822632293533
20
-12.1460723801291
30
0
41
1
10
-6.90829709075723
20
-12.127793367401
30
0
41
1
10
-6.38315917630186
20
-12.0746756627517
30
0
41
1
10
-5.67434514615994
20
-12.0084379230313
30
0
41
1
10
-4.58559042682955
20
-11.9241789486673
30
0
41
1
10
-3.84270897705147
20
-11.8789519410282
30
0
41
1
10
-3.09116424255404
20
-11.8396419037044
30
0
41
1
10
-2.71106071507049
20
-11.8229450134917
30
0
41
1
10
-2.23034273729883
20
-11.8060577495312
30
0
41
1
10
-2.13384726421134
20
-11.8028773994981
30
0
41
1
10
-1.94068888745338
20
-11.7969344792751
30
0
41
1
10
-1.6507650191779
20
-11.7886475905705
30
0
41
1
10
-1.36028370300667
20
-11.7822513858095
30
0
41
1
10
-0.778579084333302
20
-11.7720011079357
30
0
41
1
10
-0.389787621982151
20
-11.7685572671319
30
0
41
1
10
0
20
-11.7685572671319
30
0
0
SPLINE
5
173
100
AcDbEntity
8
1
62
256
6
ByLayer
370
18
48
1
60
0
100
AcDbSpline
70
4
71
3
72
22
73
18
40
0
40
0
40
0
40
0
40
0.249999999999999
40
0.249999999999999
40
0.374999999999999
40
0.374999999999999
40
0.499999999999999
40
0.499999999999999
40
0.624999999999999
40
0.624999999999999
40
0.749999999999999
40
0.749999999999999
40
0.875
40
0.875
40
0.9375
40
0.9375
40
1
40
1
40
1
40
1
41
1
10
-15
20
-1.09294494718759
30
0
41
1
10
-15
20
-1.07967512164055
30
0
41
1
10
-15
20
-1.06551265539923
30
0
41
1
10
-15
20
-1.04235433752584
30
0
41
1
10
-15
20
-1.03427897453579
30
0
41
1
10
-15
20
-1.0175308391909
30
0
41
1
10
-15
20
-1.00885793975522
30
0
41
1
10
-15
20
-0.99078891893015
30
0
41
1
10
-15
20
-0.981393856273371
30
0
41
1
10
-15
20
-0.961697793674887
30
0
41
1
10
-15
20
-0.951449148566496
30
0
41
1
10
-15
20
-0.930486799286513
30
0
41
1
10
-15
20
-0.919714084930661
30
0
41
1
10
-15
20
-0.903041140446447
30
0
41
1
10
-15
20
-0.897396313717934
30
0
41
1
10
-15
20
-0.88618611265801
30
0
41
1
10
-15
20
-0.880589068055571
30
0
41
1
10
-15
20
-0.875000000001506
30
0
0
SPLINE
5
174
100
AcDbEntity
8
1
62
256
6
ByLayer
370
18
48
1
60
0
100
AcDbSpline
70
4
71
3
72
26
73
22
40
0
40
0
40
0
40
0
40
0.0625
40
0.0625
40
0.125
40
0.125
40
0.25
40
0.25
40
0.375
40
0.375
40
0.5
40
0.5
40
0.75
40
0.75
40
0.8125
40
0.8125
40
0.84375
40
0.84375
40
0.875
40
0.875
40
1
40
1
40
1
40
1
41
1
10
0
20
-1.09294494717704
30
0
41
1
10
0.0798615061981423
20
-1.09294494717704
30
0
41
1
10
0.159774363699597
20
-1.09418805527122
30
0
41
1
10
0.31969693270085
20
-1.09901890502678
30
0
41
1
10
0.399749988067498
20
-1.10260550904388
30
0
41
1
10
0.639631382539051
20
-1.11627509243578
30
0
41
1
10
0.799204148954971
20
-1.12923453082303
30
0
41
1
10
1.11800182548021
20
-1.15899639959054
30
0
41
1
10
1.27722899968975
20
-1.17577381700173
30
0
41
1
10
1.59560357042369
20
-1.21021000714069
30
0
41
1
10
1.75474950260408
20
-1.22788495741705
30
0
41
1
10
2.23233478291988
20
-1.27928046028188
30
0
41
1
10
2.55092030470416
20
-1.31138613870661
30
0
41
1
10
2.95008484346241
20
-1.34121480212659
30
0
41
1
10
3.02996429579406
20
-1.34666632694675
30
0
41
1
10
3.1498673134349
20
-1.35391738932401
30
0
41
1
10
3.18992183086647
20
-1.35618341463495
30
0
41
1
10
3.26956516787257
20
-1.36035344049768
30
0
41
1
10
3.3093884139609
20
-1.36227063710794
30
0
41
1
10
3.50851321889621
20
-1.37094450465955
30
0
41
1
10
3.66784017059436
20
-1.375
30
0
41
1
10
3.82720524665191
20
-1.375
30
0
0
SPLINE
5
175
100
AcDbEntity
8
1
62
256
6
ByLayer
370
18
48
1
60
0
100
AcDbSpline
70
4
71
3
72
16
73
12
40
0
40
0
40
0
40
0
40
0.125
40
0.125
40
0.25
40
0.25
40
0.5
40
0.5
40
0.75
40
0.75
40
1
40
1
40
1
40
1
41
1
10
8.18325005084313
20
-1.375
30
0
41
1
10
8.2364744652283
20
-1.37500000000023
30
0
41
1
10
8.28967629332496
20
-1.37382406147052
30
0
41
1
10
8.39581505821266
20
-1.36943560360865
30
0
41
1
10
8.44879059323313
20
-1.36622218099544
30
0
41
1
10
8.6074674712502
20
-1.35386984907743
30
0
41
1
10
8.71292130173921
20
-1.34204292581458
30
0
41
1
10
8.92327148440828
20
-1.31233480150524
30
0
41
1
10
9.02816810069339
20
-1.29445646866972
30
0
41
1
10
9.23743204999252
20
-1.25295172653057
30
0
41
1
10
9.34180310420965
20
-1.22936572991563
30
0
41
1
10
9.44586314547905
20
-1.20240209734683
30
0
0
SPLINE
5
176
100
AcDbEntity
8
1
62
256
6
ByLayer
370
18
48
1
60
0
100
AcDbSpline
70
4
71
3
72
18
73
14
40
0
40
0
40
0
40
0
40
0.250000000000001
40
0.250000000000001
40
0.375
40
0.375
40
0.499999999999999
40
0.499999999999999
40
0.749999999999998
40
0.749999999999998
40
0.874999999999999
40
0.874999999999999
40
1
40
1
40
1
40
1
41
1
10
9.37125442462687
20
-0.874999999999858
30
0
41
1
10
9.37125442462687
20
-0.904694818135255
30
0
41
1
10
9.37285807557871
20
-0.934194699485403
30
0
41
1
10
9.3776881894521
20
-0.978149787155473
30
0
41
1
10
9.37971768419914
20
-0.992823834800475
30
0
41
1
10
9.38455354037075
20
-1.02167884394626
30
0
41
1
10
9.38735060736528
20
-1.03583546547083
30
0
41
1
10
9.39684924666645
20
-1.07751409954724
30
0
41
1
10
9.404649592807
20
-1.10425107210793
30
0
41
1
10
9.41859288853715
20
-1.14275413634832
30
0
41
1
10
9.4236398786291
20
-1.15536388660846
30
0
41
1
10
9.43430393517238
20
-1.17956393427201
30
0
41
1
10
9.43993646329218
20
-1.19120677842272
30
0
41
1
10
9.44586314547917
20
-1.20240209734692
30
0
0
SPLINE
5
177
100
AcDbEntity
8
1
62
256
6
ByLayer
370
18
48
1
60
0
100
AcDbSpline
70
4
71
2
72
6
73
3
40
0
40
0
40
0
40
1
40
1
40
1
41
1.03186391735993
10
21.1000100019494
20
-13.8031513524259
30
0
41
0.729637973226922
10
21.1000100019494
20
-14.0031513524259
30
0
41
1.03186391735993
10
21.3000100019494
20
-14.0031513524259
30
0
0
SPLINE
5
178
100
AcDbEntity
8
1
62
256
6
ByLayer
370
18
48
1
60
0
100
AcDbSpline
70
4
71
2
72
6
73
3
40
0
40
0
40
0
40
1
40
1
40
1
41
1.03186391735993
10
21.3000100019494
20
-14.0031513524259
30
0
41
1.03138264657361
10
21.4222210551437
20
-14.0031513524259
30
0
41
1.03186391735993
10
21.5442041600888
20
-13.9956905461133
30
0
0
SPLINE
5
179
100
AcDbEntity
8
1
62
256
6
ByLayer
370
18
48
1
60
0
100
AcDbSpline
70
4
71
2
72
6
73
3
40
0
40
0
40
0
40
1
40
1
40
1
41
1.03186391735993
10
41.0999899980506
20
-13.8031513524259
30
0
41
0.729637973226922
10
41.0999899980506
20
-14.0031513524258
30
0
41
1.03186391735993
10
40.8999899980506
20
-14.0031513524258
30
0
0
SPLINE
5
17A
100
AcDbEntity
8
1
62
256
6
ByLayer
370
18
48
1
60
0
100
AcDbSpline
70
4
71
2
72
6
73
3
40
0
40
0
40
0
40
1
40
1
40
1
41
1.03186391735993
10
40.8999899980506
20
-14.0031513524258
30
0
41
1.03138264657361
10
40.7777789448563
20
-14.0031513524258
30
0
41
1.03186391735993
10
40.6557958399112
20
-13.9956905461133
30
0
0
SPLINE
5
17B
100
AcDbEntity
8
1
62
256
6
ByLayer
370
18
48
1
60
0
100
AcDbSpline
70
4
71
2
72
6
73
3
40
0
40
0
40
0
40
1
40
1
40
1
41
1.03186391735993
10
40.8999899980506
20
-10.9968486475742
30
0
41
0.729637973226922
10
41.0999899980506
20
-10.9968486475742
30
0
41
1.03186391735993
10
41.0999899980506
20
-11.1968486475742
30
0
0
SPLINE
5
17C
100
AcDbEntity
8
1
62
256
6
ByLayer
370
18
48
1
60
0
100
AcDbSpline
70
4
71
2
72
6
73
3
40
0
40
0
40
0
40
1
40
1
40
1
41
1.03186391735993
10
40.6557958399112
20
-11.0043094538867
30
0
41
1.03138264657361
10
40.7777789448563
20
-10.9968486475741
30
0
41
1.03186391735993
10
40.8999899980506
20
-10.9968486475742
30
0
0
SPLINE
5
17D
100
AcDbEntity
8
1
62
256
6
ByLayer
370
18
48
1
60
0
100
AcDbSpline
70
4
71
3
72
8
73
4
40
0
40
0
40
0
40
0
40
1
40
1
40
1
40
1
41
1
10
38.5196694163912
20
-11.081125024782
30
0
41
1
10
38.5324648695621
20
-11.0779008471107
30
0
41
1
10
38.5455611420818
20
-11.0759995976199
30
0
41
1
10
38.558733010777
20
-11.0754385382393
30
0
0
SPLINE
5
17E
100
AcDbEntity
8
1
62
256
6
ByLayer
370
18
48
1
60
0
100
AcDbSpline
70
4
71
3
72
8
73
4
40
0
40
0
40
0
40
0
40
1
40
1
40
1
40
1
41
1
10
38.558733010784
20
-13.924561461761
30
0
41
1
10
38.5455611270319
20
-13.9240004017391
30
0
41
1
10
38.5324648843562
20
-13.9220991566168
30
0
41
1
10
38.5196694163936
20
-13.9188749752186
30
0
0
SPLINE
5
17F
100
AcDbEntity
8
1
62
256
6
ByLayer
370
18
48
1
60
0
100
AcDbSpline
70
4
71
3
72
8
73
4
40
0
40
0
40
0
40
0
40
1
40
1
40
1
40
1
41
1
10
23.641266989223
20
-13.9245614617607
30
0
41
1
10
23.6544387873141
20
-13.9240004053875
30
0
41
1
10
23.6675351982697
20
-13.9220991357971
30
0
41
1
10
23.6803305836088
20
-13.918874975218
30
0
0
SPLINE
5
180
100
AcDbEntity
8
1
62
256
6
ByLayer
370
18
48
1
60
0
100
AcDbSpline
70
4
71
3
72
24
73
20
40
0
40
0
40
0
40
0
40
0.124999999999996
40
0.124999999999996
40
0.187499999999996
40
0.187499999999996
40
0.249999999999995
40
0.249999999999995
40
0.374999999999994
40
0.374999999999994
40
0.499999999999993
40
0.499999999999993
40
0.624999999999991
40
0.624999999999991
40
0.687499999999992
40
0.687499999999992
40
0.749999999999992
40
0.749999999999992
40
1
40
1
40
1
40
1
41
1
10
17.6981810583398
20
-7.49557688959518
30
0
41
1
10
17.7079282570253
20
-7.47895084257394
30
0
41
1
10
17.7161357366898
20
-7.46163824881964
30
0
41
1
10
17.7261657634977
20
-7.43465255621271
30
0
41
1
10
17.7291359412957
20
-7.42545262888157
30
0
41
1
10
17.7342485495551
20
-7.40685546517267
30
0
41
1
10
17.7363695892661
20
-7.3975490794368
30
0
41
1
10
17.741496344613
20
-7.36960896588178
30
0
41
1
10
17.7432740738269
20
-7.35095434024379
30
0
41
1
10
17.7436815034583
20
-7.31360005805809
30
0
41
1
10
17.7422604780044
20
-7.29476107757361
30
0
41
1
10
17.7364872949031
20
-7.25858489507951
30
0
41
1
10
17.7321586246314
20
-7.24106952644703
30
0
41
1
10
17.7236520963912
20
-7.21561112318156
30
0
41
1
10
17.7204791393988
20
-7.20726150218695
30
0
41
1
10
17.71346298447
20
-7.19083605914886
30
0
41
1
10
17.7096028514273
20
-7.18273325540875
30
0
41
1
10
17.6889846413071
20
-7.14358412847946
30
0
41
1
10
17.6682141523735
20
-7.11607501432295
30
0
41
1
10
17.6435826280888
20
-7.09211770416718
30
0
0
SPLINE
5
181
100
AcDbEntity
8
1
62
256
6
ByLayer
370
18
48
1
60
0
100
AcDbSpline
70
4
71
3
72
17
73
13
40
0
40
0
40
0
40
0
40
0.250000000000012
40
0.250000000000012
40
0.500000000000024
40
0.500000000000024
40
0.562500000000024
40
0.562500000000024
40
0.625000000000025
40
0.750000000000019
40
0.750000000000019
40
1
40
1
40
1
40
1
41
1
10
17.6435826280888
20
-5.90788229583282
30
0
41
1
10
17.6146246036311
20
-5.93604768119053
30
0
41
1
10
17.5877690589037
20
-5.96627424213537
30
0
41
1
10
17.5382802616331
20
-6.03107832338699
30
0
41
1
10
17.5156427078132
20
-6.06564930486621
30
0
41
1
10
17.4902105226126
20
-6.11201148814337
30
0
41
1
10
17.485257552037
20
-6.12146529018867
30
0
41
1
10
17.4757163583556
20
-6.14057472388635
30
0
41
1
10
17.4619501115276
20
-6.16953796305179
30
0
41
1
10
17.4498230334517
20
-6.19941372325661
30
0
41
1
10
17.4278090763269
20
-6.26045061207816
30
0
41
1
10
17.4160955020356
20
-6.30284180273296
30
0
41
1
10
17.4077379362998
20
-6.34725870662353
30
0
0
SPLINE
5
182
100
AcDbEntity
8
1
62
256
6
ByLayer
370
18
48
1
60
0
100
AcDbSpline
70
4
71
3
72
18
73
14
40
0
40
0
40
0
40
0
40
0.250000000000005
40
0.250000000000005
40
0.375000000000011
40
0.375000000000011
40
0.437500000000014
40
0.437500000000014
40
0.500000000000017
40
0.500000000000017
40
0.750000000000008
40
0.750000000000008
40
1
40
1
40
1
40
1
41
1
10
17.4077379362998
20
-6.65274129337647
30
0
41
1
10
17.4160970234351
20
-6.69716628285735
30
0
41
1
10
17.4278059238629
20
-6.73952872768282
30
0
41
1
10
17.4497852995845
20
-6.80048759793962
30
0
41
1
10
17.4578539822307
20
-6.82037281285284
30
0
41
1
10
17.4710409062469
20
-6.84958514624344
30
0
41
1
10
17.475617474447
20
-6.85921984345725
30
0
41
1
10
17.4851307090049
20
-6.87828787560949
30
0
41
1
10
17.490079124144
20
-6.88774202982481
30
0
41
1
10
17.5155498531436
20
-6.93420879187772
30
0
41
1
10
17.5382169974673
20
-6.96883334385501
30
0
41
1
10
17.5877505294597
20
-7.03370697530971
30
0
41
1
10
17.6146213965619
20
-7.06394919952419
30
0
41
1
10
17.6435826280888
20
-7.09211770416718
30
0
0
SPLINE
5
183
100
AcDbEntity
8
1
62
256
6
ByLayer
370
18
48
1
60
0
100
AcDbSpline
70
4
71
3
72
24
73
20
40
0
40
0
40
0
40
0
40
0.249999999999985
40
0.249999999999985
40
0.312499999999988
40
0.312499999999988
40
0.374999999999992
40
0.374999999999992
40
0.499999999999996
40
0.499999999999996
40
0.625
40
0.625
40
0.750000000000004
40
0.750000000000004
40
0.812500000000007
40
0.812500000000007
40
0.875000000000009
40
0.875000000000009
40
1
40
1
40
1
40
1
41
1
10
17.6435826280888
20
-5.90788229583282
30
0
41
1
10
17.6682141523735
20
-5.88392498567708
30
0
41
1
10
17.6889846413071
20
-5.85641587152057
30
0
41
1
10
17.7096028514273
20
-5.81726674459125
30
0
41
1
10
17.71346298447
20
-5.80916394085114
30
0
41
1
10
17.7204791393988
20
-5.79273849781305
30
0
41
1
10
17.7236520963912
20
-5.78438887681844
30
0
41
1
10
17.7321586246314
20
-5.75893047355299
30
0
41
1
10
17.7364872949031
20
-5.74141510492052
30
0
41
1
10
17.7422604780044
20
-5.70523892242639
30
0
41
1
10
17.7436815034583
20
-5.68639994194191
30
0
41
1
10
17.7432740738269
20
-5.64904565975621
30
0
41
1
10
17.741496344613
20
-5.63039103411822
30
0
41
1
10
17.7363695892661
20
-5.60245092056323
30
0
41
1
10
17.7342485495551
20
-5.59314453482736
30
0
41
1
10
17.7291359412957
20
-5.57454737111846
30
0
41
1
10
17.7261657634977
20
-5.56534744378729
30
0
41
1
10
17.7161357366898
20
-5.53836175118036
30
0
41
1
10
17.7079282570253
20
-5.52104915742606
30
0
41
1
10
17.6981810583398
20
-5.50442311040484
30
0
0
SPLINE
5
184
100
AcDbEntity
8
1
62
256
6
ByLayer
370
18
48
1
60
0
100
AcDbSpline
70
4
71
3
72
26
73
22
40
0
40
0
40
0
40
0
40
0.250000000000015
40
0.250000000000015
40
0.312500000000021
40
0.312500000000021
40
0.375000000000027
40
0.375000000000027
40
0.500000000000038
40
0.500000000000038
40
0.562500000000038
40
0.562500000000038
40
0.625000000000039
40
0.625000000000039
40
0.75000000000002
40
0.75000000000002
40
0.812500000000009
40
0.812500000000009
40
0.874999999999999
40
0.874999999999999
40
1
40
1
40
1
40
1
41
1
10
16.3181619695468
20
-4.77390455985568
30
0
41
1
10
16.3092192305469
20
-4.74142296665099
30
0
41
1
10
16.295487632259
20
-4.71053631026811
30
0
41
1
10
16.271835338829
20
-4.6742014826782
30
0
41
1
10
16.2667495067731
20
-4.66702254257584
30
0
41
1
10
16.2560530091763
20
-4.65314060543949
30
0
41
1
10
16.2504333990711
20
-4.64641840555308
30
0
41
1
10
16.2327595033493
20
-4.62691327369097
30
0
41
1
10
16.2198957841168
20
-4.61478719136355
30
0
41
1
10
16.1988810548679
20
-4.59801059325082
30
0
41
1
10
16.1915883106091
20
-4.59265488280678
30
0
41
1
10
16.1763916134438
20
-4.58244843396363
30
0
41
1
10
16.1685411707113
20
-4.57763788709573
30
0
41
1
10
16.1445437728381
20
-4.5642755070615
30
0
41
1
10
16.1278334996496
20
-4.55670309595527
30
0
41
1
10
16.1016705104134
20
-4.54741602014866
30
0
41
1
10
16.0927656700964
20
-4.5446672684173
30
0
41
1
10
16.0745707697433
20
-4.53989830589612
30
0
41
1
10
16.0652845989499
20
-4.53788547449548
30
0
41
1
10
16.0374812768526
20
-4.53309641628661
30
0
41
1
10
16.01880895329
20
-4.53149999999999
30
0
41
1
10
16
20
-4.53149999999999
30
0
0
SPLINE
5
185
100
AcDbEntity
8
1
62
256
6
ByLayer
370
18
48
1
60
0
100
AcDbSpline
70
4
71
3
72
34
73
30
40
0
40
0
40
0
40
0
40
0.124999999999998
40
0.124999999999998
40
0.187499999999999
40
0.187499999999999
40
0.21875
40
0.21875
40
0.250000000000001
40
0.250000000000001
40
0.375000000000006
40
0.375000000000006
40
0.406250000000009
40
0.406250000000009
40
0.437500000000012
40
0.500000000000011
40
0.562500000000009
40
0.562500000000009
40
0.625000000000008
40
0.625000000000008
40
0.687500000000007
40
0.687500000000007
40
0.750000000000006
40
0.750000000000006
40
0.875000000000002
40
0.875000000000002
40
0.937500000000001
40
0.937500000000001
40
1
40
1
40
1
40
1
41
1
10
16.3181619695468
20
-4.77390455985568
30
0
41
1
10
16.3316243955842
20
-4.82280244741565
30
0
41
1
10
16.3495186520746
20
-4.87039327330427
30
0
41
1
10
16.3834427074956
20
-4.93994421350945
30
0
41
1
10
16.3959401462236
20
-4.96282059910325
30
0
41
1
10
16.4166305781722
20
-4.99667527743028
30
0
41
1
10
16.4238696464604
20
-5.00790858875749
30
0
41
1
10
16.4389547957833
20
-5.03010059627479
30
0
41
1
10
16.4467750039595
20
-5.04102397035393
30
0
41
1
10
16.4872859904911
20
-5.09477956517546
30
0
41
1
10
16.5241451570225
20
-5.13506485514571
30
0
41
1
10
16.5766976577683
20
-5.1817141444802
30
0
41
1
10
16.5875531522008
20
-5.19086542607263
30
0
41
1
10
16.6095897675602
20
-5.20849255858914
30
0
41
1
10
16.6432548145305
20
-5.23403155123452
30
0
41
1
10
16.7023826118536
20
-5.27214074180731
30
0
41
1
10
16.7529298677765
20
-5.29784459108234
30
0
41
1
10
16.8051631063883
20
-5.32106053729737
30
0
41
1
10
16.831493866305
20
-5.331145151145
30
0
41
1
10
16.8845188699141
20
-5.3484693616773
30
0
41
1
10
16.9112225356447
20
-5.35571226011587
30
0
41
1
10
16.9650247101004
20
-5.36747406457991
30
0
41
1
10
16.992216397077
20
-5.37198820416117
30
0
41
1
10
17.0724935208943
20
-5.38133781453536
30
0
41
1
10
17.1249222467064
20
-5.38220808685404
30
0
41
1
10
17.2024065588861
20
-5.37637113204727
30
0
41
1
10
17.2281182805367
20
-5.37320613060606
30
0
41
1
10
17.2787427947224
20
-5.36457017437007
30
0
41
1
10
17.30363915096
20
-5.35911188093093
30
0
41
1
10
17.3281523379786
20
-5.35254896641513
30
0
0
SPLINE
5
186
100
AcDbEntity
8
1
62
256
6
ByLayer
370
18
48
1
60
0
100
AcDbSpline
70
4
71
3
72
24
73
20
40
0
40
0
40
0
40
0
40
0.062500000000004
40
0.062500000000004
40
0.125000000000008
40
0.125000000000008
40
0.250000000000006
40
0.250000000000006
40
0.312500000000005
40
0.312500000000005
40
0.375000000000005
40
0.375000000000005
40
0.500000000000003
40
0.500000000000003
40
0.625000000000001
40
0.625000000000001
40
0.749999999999999
40
0.749999999999999
40
1
40
1
40
1
40
1
41
1
10
17.6981810583398
20
-5.50442311040484
30
0
41
1
10
17.6934313378224
20
-5.49632139018686
30
0
41
1
10
17.6882897889864
20
-5.48835019077265
30
0
41
1
10
17.677355321586
20
-5.47290693429909
30
0
41
1
10
17.6716008277749
20
-5.46548230486323
30
0
41
1
10
17.653507056405
20
-5.44406724837233
30
0
41
1
10
17.6403431053359
20
-5.4309297604749
30
0
41
1
10
17.6189603728398
20
-5.41291952202377
30
0
41
1
10
17.6115431209205
20
-5.40719464554417
30
0
41
1
10
17.5964570188402
20
-5.39652908650146
30
0
41
1
10
17.5887541685168
20
-5.39155746548531
30
0
41
1
10
17.5651865615503
20
-5.37768476963979
30
0
41
1
10
17.5488655560664
20
-5.36981928227152
30
0
41
1
10
17.5150376500416
20
-5.35680967244005
30
0
41
1
10
17.497973394896
20
-5.35183493909818
30
0
41
1
10
17.4636029977596
20
-5.34467600751668
30
0
41
1
10
17.446237058748
20
-5.3424906930814
30
0
41
1
10
17.39416944413
20
-5.34006078995395
30
0
41
1
10
17.3606039107084
20
-5.34386070823118
30
0
41
1
10
17.3281523379786
20
-5.35254896641513
30
0
0
SPLINE
5
187
100
AcDbEntity
8
1
62
256
6
ByLayer
370
18
48
1
60
0
100
AcDbSpline
70
4
71
3
72
34
73
30
40
0
40
0
40
0
40
0
40
0.124999999999983
40
0.124999999999983
40
0.187499999999975
40
0.187499999999975
40
0.218749999999971
40
0.218749999999971
40
0.249999999999967
40
0.249999999999967
40
0.374999999999972
40
0.374999999999972
40
0.406249999999969
40
0.406249999999969
40
0.437499999999967
40
0.49999999999997
40
0.562499999999972
40
0.562499999999972
40
0.624999999999975
40
0.624999999999975
40
0.687499999999978
40
0.687499999999978
40
0.74999999999998
40
0.74999999999998
40
0.87499999999999
40
0.87499999999999
40
0.937499999999995
40
0.937499999999995
40
1
40
1
40
1
40
1
41
1
10
17.3281523379786
20
-7.64745103358487
30
0
41
1
10
17.2791605406677
20
-7.63433446177874
30
0
41
1
10
17.229054901581
20
-7.62570218410934
30
0
41
1
10
17.1518976275393
20
-7.61979203960024
30
0
41
1
10
17.1258420498826
20
-7.61900347636433
30
0
41
1
10
17.0861721053907
20
-7.6197305093599
30
0
41
1
10
17.0728201914696
20
-7.62029419915328
30
0
41
1
10
17.0460462641006
20
-7.62208412311213
30
0
41
1
10
17.0326678100599
20
-7.62330590152712
30
0
41
1
10
16.9658054580945
20
-7.63106671594551
30
0
41
1
10
16.9124105635002
20
-7.64248984827958
30
0
41
1
10
16.8455886245496
20
-7.66423264973622
30
0
41
1
10
16.832203806776
20
-7.6689691450463
30
0
41
1
10
16.8058521630066
20
-7.67906464844685
30
0
41
1
10
16.7667940070401
20
-7.69519028533057
30
0
41
1
10
16.7040139333799
20
-7.72692464033108
30
0
41
1
10
16.6562753174227
20
-7.75753080364262
30
0
41
1
10
16.6098302684516
20
-7.79084969244917
30
0
41
1
10
16.5878136047356
20
-7.80846431994894
30
0
41
1
10
16.5460507829754
20
-7.84544601877468
30
0
41
1
10
16.5262970086682
20
-7.8648195503294
30
0
41
1
10
16.4889396946712
20
-7.90528490510212
30
0
41
1
10
16.4712931406014
20
-7.92645952289146
30
0
41
1
10
16.4226269571248
20
-7.99098420587003
30
0
41
1
10
16.3953601516259
20
-8.03577315483099
30
0
41
1
10
16.361207557278
20
-8.10556920502847
30
0
41
1
10
16.3509341260477
20
-8.12935084526262
30
0
41
1
10
16.3327806188032
20
-8.17739115500325
30
0
41
1
10
16.3248979334757
20
-8.20162924022725
30
0
41
1
10
16.3181619695468
20
-8.22609544014432
30
0
0
SPLINE
5
188
100
AcDbEntity
8
1
62
256
6
ByLayer
370
18
48
1
60
0
100
AcDbSpline
70
4
71
3
72
26
73
22
40
0
40
0
40
0
40
0
40
0.124999999999985
40
0.124999999999985
40
0.24999999999997
40
0.24999999999997
40
0.312499999999972
40
0.312499999999972
40
0.374999999999975
40
0.374999999999975
40
0.499999999999996
40
0.499999999999996
40
0.562499999999997
40
0.562499999999997
40
0.624999999999997
40
0.624999999999997
40
0.749999999999998
40
0.749999999999998
40
0.874999999999999
40
0.874999999999999
40
1
40
1
40
1
40
1
41
1
10
16
20
-8.46850000000001
30
0
41
1
10
16.0187420838797
20
-8.46850000000001
30
0
41
1
10
16.037790024121
20
-8.4668627955046
30
0
41
1
10
16.0746705458543
20
-8.46048528068295
30
0
41
1
10
16.0926468374794
20
-8.45577279166551
30
0
41
1
10
16.1189272305608
20
-8.44646538610317
30
0
41
1
10
16.1276136105629
20
-8.44296752509536
30
0
41
1
10
16.144482547616
20
-8.43533413023604
30
0
41
1
10
16.1526773955158
20
-8.43119909926489
30
0
41
1
10
16.1765732518195
20
-8.41788232941573
30
0
41
1
10
16.1915899369245
20
-8.40779456249336
30
0
41
1
10
16.2127755394084
20
-8.39090470708621
30
0
41
1
10
16.2195919185691
20
-8.38499261738443
30
0
41
1
10
16.2325595895107
20
-8.37279737184289
30
0
41
1
10
16.2387403827712
20
-8.36649129678537
30
0
41
1
10
16.2564090822013
20
-8.34697635277581
30
0
41
1
10
16.2670282709711
20
-8.33317412766206
30
0
41
1
10
16.2860013809461
20
-8.30404553323993
30
0
41
1
10
16.2941811588046
20
-8.28897729418625
30
0
41
1
10
16.3080220198239
20
-8.25811774769991
30
0
41
1
10
16.3137019836554
20
-8.24229488948811
30
0
41
1
10
16.3181619695468
20
-8.22609544014432
30
0
0
SPLINE
5
189
100
AcDbEntity
8
1
62
256
6
ByLayer
370
18
48
1
60
0
100
AcDbSpline
70
4
71
3
72
24
73
20
40
0
40
0
40
0
40
0
40
0.0625000000000001
40
0.0625000000000001
40
0.125
40
0.125
40
0.250000000000002
40
0.250000000000002
40
0.312500000000002
40
0.312500000000002
40
0.375000000000003
40
0.375000000000003
40
0.500000000000001
40
0.500000000000001
40
0.625
40
0.625
40
0.749999999999998
40
0.749999999999998
40
1
40
1
40
1
40
1
41
1
10
17.6981810583398
20
-7.49557688959518
30
0
41
1
10
17.6934313378224
20
-7.50367860981314
30
0
41
1
10
17.6882897889864
20
-7.51164980922735
30
0
41
1
10
17.677355321586
20
-7.52709306570091
30
0
41
1
10
17.6716008277749
20
-7.53451769513677
30
0
41
1
10
17.653507056405
20
-7.55593275162767
30
0
41
1
10
17.6403431053359
20
-7.5690702395251
30
0
41
1
10
17.6189603728398
20
-7.58708047797623
30
0
41
1
10
17.6115431209205
20
-7.59280535445586
30
0
41
1
10
17.5964570188402
20
-7.60347091349854
30
0
41
1
10
17.5887541685168
20
-7.60844253451469
30
0
41
1
10
17.5651865615503
20
-7.62231523036024
30
0
41
1
10
17.5488655560664
20
-7.63018071772848
30
0
41
1
10
17.5150376500416
20
-7.64319032755995
30
0
41
1
10
17.497973394896
20
-7.64816506090182
30
0
41
1
10
17.4636029977596
20
-7.65532399248332
30
0
41
1
10
17.446237058748
20
-7.65750930691863
30
0
41
1
10
17.39416944413
20
-7.65993921004605
30
0
41
1
10
17.3606039107084
20
-7.65613929176882
30
0
41
1
10
17.3281523379786
20
-7.64745103358487
30
0
0
SPLINE
5
18A
100
AcDbEntity
8
1
62
256
6
ByLayer
370
18
48
1
60
0
100
AcDbSpline
70
4
71
3
72
26
73
22
40
0
40
0
40
0
40
0
40
0.124999999999985
40
0.124999999999985
40
0.249999999999971
40
0.249999999999971
40
0.312499999999975
40
0.312499999999975
40
0.37499999999998
40
0.37499999999998
40
0.500000000000003
40
0.500000000000003
40
0.562500000000004
40
0.562500000000004
40
0.625000000000005
40
0.625000000000005
40
0.750000000000003
40
0.750000000000003
40
0.875000000000002
40
0.875000000000002
40
1
40
1
40
1
40
1
41
1
10
16
20
-4.53149999999999
30
0
41
1
10
15.9812579161203
20
-4.53149999999999
30
0
41
1
10
15.962209975879
20
-4.5331372044954
30
0
41
1
10
15.9253294541456
20
-4.53951471931705
30
0
41
1
10
15.9073531625206
20
-4.54422720833452
30
0
41
1
10
15.8810727694392
20
-4.55353461389683
30
0
41
1
10
15.872386389437
20
-4.55703247490467
30
0
41
1
10
15.855517452384
20
-4.56466586976396
30
0
41
1
10
15.8473226044842
20
-4.56880090073514
30
0
41
1
10
15.8234267481805
20
-4.58211767058427
30
0
41
1
10
15.8084100630755
20
-4.59220543750666
30
0
41
1
10
15.7872244605916
20
-4.60909529291379
30
0
41
1
10
15.7804080814309
20
-4.61500738261557
30
0
41
1
10
15.7674404104893
20
-4.62720262815714
30
0
41
1
10
15.7612596172288
20
-4.63350870321463
30
0
41
1
10
15.7435909177987
20
-4.65302364722419
30
0
41
1
10
15.7329717290289
20
-4.66682587233794
30
0
41
1
10
15.7139986190539
20
-4.69595446676007
30
0
41
1
10
15.7058188411954
20
-4.71102270581378
30
0
41
1
10
15.691977980176
20
-4.74188225230009
30
0
41
1
10
15.6862980163446
20
-4.75770511051189
30
0
41
1
10
15.6818380304532
20
-4.77390455985568
30
0
0
SPLINE
5
18B
100
AcDbEntity
8
1
62
256
6
ByLayer
370
18
48
1
60
0
100
AcDbSpline
70
4
71
3
72
24
73
20
40
0
40
0
40
0
40
0
40
0.0625000000000027
40
0.0625000000000027
40
0.125000000000005
40
0.125000000000005
40
0.250000000000013
40
0.250000000000013
40
0.312500000000016
40
0.312500000000016
40
0.37500000000002
40
0.37500000000002
40
0.500000000000015
40
0.500000000000015
40
0.62500000000001
40
0.62500000000001
40
0.750000000000005
40
0.750000000000005
40
1
40
1
40
1
40
1
41
1
10
14.3018189416602
20
-5.50442311040484
30
0
41
1
10
14.3065686621776
20
-5.49632139018686
30
0
41
1
10
14.3117102110135
20
-5.48835019077265
30
0
41
1
10
14.322644678414
20
-5.47290693429909
30
0
41
1
10
14.3283991722251
20
-5.46548230486323
30
0
41
1
10
14.3464929435949
20
-5.44406724837233
30
0
41
1
10
14.3596568946641
20
-5.43092976047492
30
0
41
1
10
14.3810396271602
20
-5.41291952202377
30
0
41
1
10
14.3884568790795
20
-5.40719464554414
30
0
41
1
10
14.4035429811598
20
-5.39652908650146
30
0
41
1
10
14.4112458314832
20
-5.39155746548531
30
0
41
1
10
14.4348134384497
20
-5.37768476963979
30
0
41
1
10
14.4511344439336
20
-5.36981928227152
30
0
41
1
10
14.4849623499584
20
-5.35680967244005
30
0
41
1
10
14.502026605104
20
-5.35183493909818
30
0
41
1
10
14.5363970022404
20
-5.34467600751668
30
0
41
1
10
14.553762941252
20
-5.3424906930814
30
0
41
1
10
14.60583055587
20
-5.34006078995395
30
0
41
1
10
14.6393960892915
20
-5.34386070823118
30
0
41
1
10
14.6718476620214
20
-5.35254896641513
30
0
0
SPLINE
5
18C
100
AcDbEntity
8
1
62
256
6
ByLayer
370
18
48
1
60
0
100
AcDbSpline
70
4
71
3
72
34
73
30
40
0
40
0
40
0
40
0
40
0.124999999999997
40
0.124999999999997
40
0.187499999999994
40
0.187499999999994
40
0.218749999999992
40
0.218749999999992
40
0.249999999999991
40
0.249999999999991
40
0.374999999999984
40
0.374999999999984
40
0.406249999999983
40
0.406249999999983
40
0.437499999999982
40
0.499999999999984
40
0.562499999999986
40
0.562499999999986
40
0.624999999999988
40
0.624999999999988
40
0.687499999999989
40
0.687499999999989
40
0.749999999999991
40
0.749999999999991
40
0.874999999999995
40
0.874999999999995
40
0.937499999999997
40
0.937499999999997
40
1
40
1
40
1
40
1
41
1
10
14.6718476620214
20
-5.35254896641513
30
0
41
1
10
14.7208394593323
20
-5.36566553822126
30
0
41
1
10
14.770945098419
20
-5.37429781589066
30
0
41
1
10
14.8481023724607
20
-5.38020796039976
30
0
41
1
10
14.8741579501174
20
-5.38099652363567
30
0
41
1
10
14.9138278946093
20
-5.3802694906401
30
0
41
1
10
14.9271798085303
20
-5.37970580084672
30
0
41
1
10
14.9539537358994
20
-5.37791587688787
30
0
41
1
10
14.9673321899401
20
-5.37669409847288
30
0
41
1
10
15.0341945419054
20
-5.36893328405449
30
0
41
1
10
15.0875894364998
20
-5.35751015172042
30
0
41
1
10
15.1544113754504
20
-5.33576735026381
30
0
41
1
10
15.1677961932239
20
-5.33103085495372
30
0
41
1
10
15.1941478369934
20
-5.32093535155318
30
0
41
1
10
15.2332059929598
20
-5.30480971466943
30
0
41
1
10
15.2959860666201
20
-5.27307535966892
30
0
41
1
10
15.3437246825773
20
-5.24246919635738
30
0
41
1
10
15.3901697315483
20
-5.20915030755086
30
0
41
1
10
15.4121863952644
20
-5.19153568005106
30
0
41
1
10
15.4539492170245
20
-5.15455398122532
30
0
41
1
10
15.4737029913318
20
-5.1351804496706
30
0
41
1
10
15.5110603053287
20
-5.09471509489788
30
0
41
1
10
15.5287068593985
20
-5.07354047710854
30
0
41
1
10
15.5773730428752
20
-5.00901579412999
30
0
41
1
10
15.6046398483741
20
-4.96422684516904
30
0
41
1
10
15.638792442722
20
-4.89443079497153
30
0
41
1
10
15.6490658739522
20
-4.87064915473738
30
0
41
1
10
15.6672193811967
20
-4.82260884499675
30
0
41
1
10
15.6751020665243
20
-4.79837075977275
30
0
41
1
10
15.6818380304532
20
-4.77390455985568
30
0
0
SPLINE
5
18D
100
AcDbEntity
8
1
62
256
6
ByLayer
370
18
48
1
60
0
100
AcDbSpline
70
4
71
3
72
18
73
14
40
0
40
0
40
0
40
0
40
0.250000000000009
40
0.250000000000009
40
0.375000000000011
40
0.375000000000011
40
0.437500000000013
40
0.437500000000013
40
0.500000000000014
40
0.500000000000014
40
0.750000000000007
40
0.750000000000007
40
1
40
1
40
1
40
1
41
1
10
14.5922620637002
20
-6.34725870662353
30
0
41
1
10
14.5839029765648
20
-6.30283371714234
30
0
41
1
10
14.572194076137
20
-6.26047127231678
30
0
41
1
10
14.5502147004153
20
-6.19951240206012
30
0
41
1
10
14.5421460177692
20
-6.17962718714699
30
0
41
1
10
14.5289590937531
20
-6.15041485375659
30
0
41
1
10
14.524382525553
20
-6.14078015654286
30
0
41
1
10
14.5148692909952
20
-6.12171212439077
30
0
41
1
10
14.5099208758561
20
-6.11225797017553
30
0
41
1
10
14.4844501468565
20
-6.06579120812242
30
0
41
1
10
14.4617830025327
20
-6.03116665614502
30
0
41
1
10
14.4122494705402
20
-5.96629302469026
30
0
41
1
10
14.385378603438
20
-5.93605080047578
30
0
41
1
10
14.3564173719112
20
-5.90788229583282
30
0
0
SPLINE
5
18E
100
AcDbEntity
8
1
62
256
6
ByLayer
370
18
48
1
60
0
100
AcDbSpline
70
4
71
3
72
24
73
20
40
0
40
0
40
0
40
0
40
0.125000000000007
40
0.125000000000007
40
0.187500000000005
40
0.187500000000005
40
0.250000000000004
40
0.250000000000004
40
0.375000000000001
40
0.375000000000001
40
0.499999999999999
40
0.499999999999999
40
0.624999999999996
40
0.624999999999996
40
0.687499999999996
40
0.687499999999996
40
0.749999999999996
40
0.749999999999996
40
1
40
1
40
1
40
1
41
1
10
14.3018189416602
20
-5.50442311040484
30
0
41
1
10
14.2920717429747
20
-5.52104915742606
30
0
41
1
10
14.2838642633101
20
-5.53836175118036
30
0
41
1
10
14.2738342365023
20
-5.56534744378729
30
0
41
1
10
14.2708640587043
20
-5.57454737111846
30
0
41
1
10
14.2657514504448
20
-5.59314453482736
30
0
41
1
10
14.2636304107339
20
-5.60245092056323
30
0
41
1
10
14.258503655387
20
-5.63039103411822
30
0
41
1
10
14.2567259261731
20
-5.64904565975621
30
0
41
1
10
14.2563184965416
20
-5.68639994194191
30
0
41
1
10
14.2577395219956
20
-5.70523892242639
30
0
41
1
10
14.2635127050969
20
-5.74141510492052
30
0
41
1
10
14.2678413753686
20
-5.75893047355299
30
0
41
1
10
14.2763479036087
20
-5.78438887681844
30
0
41
1
10
14.2795208606012
20
-5.79273849781305
30
0
41
1
10
14.28653701553
20
-5.80916394085114
30
0
41
1
10
14.2903971485727
20
-5.81726674459125
30
0
41
1
10
14.3110153586929
20
-5.85641587152057
30
0
41
1
10
14.3317858476264
20
-5.88392498567708
30
0
41
1
10
14.3564173719112
20
-5.90788229583282
30
0
0
SPLINE
5
18F
100
AcDbEntity
8
1
62
256
6
ByLayer
370
18
48
1
60
0
100
AcDbSpline
70
4
71
3
72
24
73
20
40
0
40
0
40
0
40
0
40
0.249999999999987
40
0.249999999999987
40
0.312499999999987
40
0.312499999999987
40
0.374999999999987
40
0.374999999999987
40
0.499999999999991
40
0.499999999999991
40
0.624999999999996
40
0.624999999999996
40
0.75
40
0.75
40
0.812500000000003
40
0.812500000000003
40
0.875000000000005
40
0.875000000000005
40
1
40
1
40
1
40
1
41
1
10
14.3564173719112
20
-7.09211770416718
30
0
41
1
10
14.3317858476264
20
-7.11607501432295
30
0
41
1
10
14.3110153586929
20
-7.14358412847946
30
0
41
1
10
14.2903971485727
20
-7.18273325540875
30
0
41
1
10
14.28653701553
20
-7.19083605914886
30
0
41
1
10
14.2795208606012
20
-7.20726150218695
30
0
41
1
10
14.2763479036087
20
-7.21561112318156
30
0
41
1
10
14.2678413753686
20
-7.24106952644703
30
0
41
1
10
14.2635127050969
20
-7.25858489507951
30
0
41
1
10
14.2577395219956
20
-7.29476107757361
30
0
41
1
10
14.2563184965416
20
-7.31360005805809
30
0
41
1
10
14.2567259261731
20
-7.35095434024379
30
0
41
1
10
14.258503655387
20
-7.36960896588178
30
0
41
1
10
14.2636304107339
20
-7.3975490794368
30
0
41
1
10
14.2657514504448
20
-7.40685546517267
30
0
41
1
10
14.2708640587043
20
-7.42545262888154
30
0
41
1
10
14.2738342365023
20
-7.43465255621271
30
0
41
1
10
14.2838642633101
20
-7.46163824881964
30
0
41
1
10
14.2920717429747
20
-7.47895084257394
30
0
41
1
10
14.3018189416602
20
-7.49557688959518
30
0
0
SPLINE
5
190
100
AcDbEntity
8
1
62
256
6
ByLayer
370
18
48
1
60
0
100
AcDbSpline
70
4
71
3
72
17
73
13
40
0
40
0
40
0
40
0
40
0.250000000000003
40
0.250000000000003
40
0.500000000000007
40
0.500000000000007
40
0.562500000000003
40
0.562500000000003
40
0.624999999999999
40
0.749999999999999
40
0.749999999999999
40
1
40
1
40
1
40
1
41
1
10
14.3564173719112
20
-7.09211770416718
30
0
41
1
10
14.3853753963689
20
-7.06395231880944
30
0
41
1
10
14.4122309410964
20
-7.03372575786454
30
0
41
1
10
14.461719738367
20
-6.96892167661281
30
0
41
1
10
14.4843572921869
20
-6.9343506951335
30
0
41
1
10
14.5097894773876
20
-6.88798851185626
30
0
41
1
10
14.5147424479631
20
-6.87853470981096
30
0
41
1
10
14.5242836416446
20
-6.85942527611326
30
0
41
1
10
14.5380498884726
20
-6.83046203694775
30
0
41
1
10
14.5501769665485
20
-6.80058627674296
30
0
41
1
10
14.5721909236732
20
-6.73954938792147
30
0
41
1
10
14.5839044979644
20
-6.69715819726679
30
0
41
1
10
14.5922620637002
20
-6.65274129337647
30
0
0
SPLINE
5
191
100
AcDbEntity
8
1
62
256
6
ByLayer
370
18
48
1
60
0
100
AcDbSpline
70
4
71
3
72
26
73
22
40
0
40
0
40
0
40
0
40
0.250000000000021
40
0.250000000000021
40
0.312500000000029
40
0.312500000000029
40
0.375000000000036
40
0.375000000000036
40
0.50000000000005
40
0.50000000000005
40
0.56250000000005
40
0.56250000000005
40
0.62500000000005
40
0.62500000000005
40
0.750000000000026
40
0.750000000000026
40
0.812500000000013
40
0.812500000000013
40
0.875000000000001
40
0.875000000000001
40
1
40
1
40
1
40
1
41
1
10
15.6818380304532
20
-8.22609544014432
30
0
41
1
10
15.6907807694531
20
-8.25857703334901
30
0
41
1
10
15.7045123677409
20
-8.28946368973189
30
0
41
1
10
15.728164661171
20
-8.3257985173218
30
0
41
1
10
15.7332504932268
20
-8.33297745742416
30
0
41
1
10
15.7439469908237
20
-8.34685939456054
30
0
41
1
10
15.7495666009289
20
-8.35358159444692
30
0
41
1
10
15.7672404966507
20
-8.37308672630903
30
0
41
1
10
15.7801042158832
20
-8.38521280863645
30
0
41
1
10
15.8011189451321
20
-8.40198940674921
30
0
41
1
10
15.8084116893909
20
-8.40734511719322
30
0
41
1
10
15.8236083865562
20
-8.41755156603639
30
0
41
1
10
15.8314588292887
20
-8.4223621129043
30
0
41
1
10
15.8554562271619
20
-8.4357244929385
30
0
41
1
10
15.8721665003504
20
-8.44329690404473
30
0
41
1
10
15.8983294895866
20
-8.45258397985134
30
0
41
1
10
15.9072343299035
20
-8.4553327315827
30
0
41
1
10
15.9254292302567
20
-8.46010169410391
30
0
41
1
10
15.9347154010501
20
-8.46211452550455
30
0
41
1
10
15.9625187231474
20
-8.46690358371339
30
0
41
1
10
15.98119104671
20
-8.46850000000001
30
0
41
1
10
16
20
-8.46850000000001
30
0
0
SPLINE
5
192
100
AcDbEntity
8
1
62
256
6
ByLayer
370
18
48
1
60
0
100
AcDbSpline
70
4
71
3
72
34
73
30
40
0
40
0
40
0
40
0
40
0.125000000000013
40
0.125000000000013
40
0.187500000000018
40
0.187500000000018
40
0.218750000000022
40
0.218750000000022
40
0.250000000000025
40
0.250000000000025
40
0.37500000000003
40
0.37500000000003
40
0.406250000000029
40
0.406250000000029
40
0.437500000000028
40
0.500000000000026
40
0.562500000000023
40
0.562500000000023
40
0.62500000000002
40
0.62500000000002
40
0.687500000000017
40
0.687500000000017
40
0.750000000000015
40
0.750000000000015
40
0.875000000000008
40
0.875000000000008
40
0.937500000000004
40
0.937500000000004
40
1
40
1
40
1
40
1
41
1
10
15.6818380304532
20
-8.22609544014432
30
0
41
1
10
15.6683756044158
20
-8.17719755258437
30
0
41
1
10
15.6504813479254
20
-8.12960672669576
30
0
41
1
10
15.6165572925044
20
-8.06005578649058
30
0
41
1
10
15.6040598537764
20
-8.03717940089675
30
0
41
1
10
15.5833694218278
20
-8.00332472256972
30
0
41
1
10
15.5761303535396
20
-7.99209141124251
30
0
41
1
10
15.5610452042166
20
-7.96989940372521
30
0
41
1
10
15.5532249960405
20
-7.95897602964607
30
0
41
1
10
15.5127140095089
20
-7.90522043482457
30
0
41
1
10
15.4758548429775
20
-7.86493514485431
30
0
41
1
10
15.4233023422318
20
-7.8182858555198
30
0
41
1
10
15.4124468477992
20
-7.80913457392739
30
0
41
1
10
15.3904102324398
20
-7.79150744141086
30
0
41
1
10
15.3567451854695
20
-7.76596844876548
30
0
41
1
10
15.2976173881464
20
-7.72785925819269
30
0
41
1
10
15.2470701322235
20
-7.70215540891766
30
0
41
1
10
15.1948368936116
20
-7.67893946270263
30
0
41
1
10
15.1685061336949
20
-7.668854848855
30
0
41
1
10
15.1154811300859
20
-7.6515306383227
30
0
41
1
10
15.0887774643552
20
-7.64428773988413
30
0
41
1
10
15.0349752898997
20
-7.63252593542009
30
0
41
1
10
15.007783602923
20
-7.62801179583886
30
0
41
1
10
14.9275064791057
20
-7.61866218546464
30
0
41
1
10
14.8750777532935
20
-7.61779191314599
30
0
41
1
10
14.7975934411138
20
-7.62362886795273
30
0
41
1
10
14.7718817194633
20
-7.62679386939394
30
0
41
1
10
14.7212572052777
20
-7.63542982562996
30
0
41
1
10
14.69636084904
20
-7.64088811906907
30
0
41
1
10
14.6718476620214
20
-7.64745103358487
30
0
0
SPLINE
5
193
100
AcDbEntity
8
1
62
256
6
ByLayer
370
18
48
1
60
0
100
AcDbSpline
70
4
71
3
72
24
73
20
40
0
40
0
40
0
40
0
40
0.0625000000000072
40
0.0625000000000072
40
0.125000000000014
40
0.125000000000014
40
0.25000000000002
40
0.25000000000002
40
0.312500000000024
40
0.312500000000024
40
0.375000000000027
40
0.375000000000027
40
0.50000000000002
40
0.50000000000002
40
0.625000000000014
40
0.625000000000014
40
0.750000000000008
40
0.750000000000008
40
1
40
1
40
1
40
1
41
1
10
14.3018189416602
20
-7.49557688959518
30
0
41
1
10
14.3065686621776
20
-7.50367860981314
30
0
41
1
10
14.3117102110135
20
-7.51164980922735
30
0
41
1
10
14.322644678414
20
-7.52709306570091
30
0
41
1
10
14.3283991722251
20
-7.5345176951368
30
0
41
1
10
14.346492943595
20
-7.55593275162767
30
0
41
1
10
14.3596568946641
20
-7.5690702395251
30
0
41
1
10
14.3810396271602
20
-7.58708047797623
30
0
41
1
10
14.3884568790795
20
-7.59280535445586
30
0
41
1
10
14.4035429811598
20
-7.60347091349854
30
0
41
1
10
14.4112458314832
20
-7.60844253451469
30
0
41
1
10
14.4348134384497
20
-7.62231523036024
30
0
41
1
10
14.4511344439336
20
-7.63018071772848
30
0
41
1
10
14.4849623499584
20
-7.64319032755995
30
0
41
1
10
14.502026605104
20
-7.64816506090182
30
0
41
1
10
14.5363970022404
20
-7.65532399248332
30
0
41
1
10
14.553762941252
20
-7.65750930691863
30
0
41
1
10
14.60583055587
20
-7.65993921004605
30
0
41
1
10
14.6393960892915
20
-7.65613929176882
30
0
41
1
10
14.6718476620214
20
-7.64745103358487
30
0
0
LINE
5
7D
100
AcDbEntity
8
81
62
256
6
ByLayer
370
18
48
1
60
0
100
AcDbLine
10
41.1
20
-14
30
0
11
46.1
21
-14
31
0
39
0
210
0
220
0
230
1
0
LINE
5
7E
100
AcDbEntity
8
80
62
256
6
ByLayer
370
18
48
1
60
0
100
AcDbLine
10
0
20
0
30
0
11
0
21
5
31
0
39
0
210
0
220
0
230
1
0
LINE
5
7F
100
AcDbEntity
8
1
62
256
6
ByLayer
370
18
48
1
60
0
100
AcDbLine
10
16
20
-0.875
30
0
11
16
21
-0.675
31
0
39
0
210
0
220
0
230
1
0
LINE
5
80
100
AcDbEntity
8
1
62
256
6
ByLayer
370
18
48
1
60
0
100
AcDbLine
10
-7.425
20
-13.675
30
0
11
-2.614354
21
-13.675
31
0
39
0
210
0
220
0
230
1
0
LINE
5
81
100
AcDbEntity
8
1
62
256
6
ByLayer
370
18
48
1
60
0
100
AcDbLine
10
11.884652
20
-13.675
30
0
11
20.377765
21
-13.675
31
0
39
0
210
0
220
0
230
1
0
LINE
5
82
100
AcDbEntity
8
1
62
256
6
ByLayer
370
18
48
1
60
0
100
AcDbLine
10
9.132847
20
0.324981
30
0
11
6.60048
21
0.324981
31
0
39
0
210
0
220
0
230
1
0
LINE
5
83
100
AcDbEntity
8
1
62
256
6
ByLayer
370
18
48
1
60
0
100
AcDbLine
10
34.630998
20
-10.109315
30
0
11
23.1
21
-10.109315
31
0
39
0
210
0
220
0
230
1
0
LINE
5
84
100
AcDbEntity
8
1
62
256
6
ByLayer
370
18
48
1
60
0
100
AcDbLine
10
31.078318
20
-11.249216
30
0
11
34.997844
21
-11.249216
31
0
39
0
210
0
220
0
230
1
0
LINE
5
85
100
AcDbEntity
8
1
62
256
6
ByLayer
370
18
48
1
60
0
100
AcDbLine
10
9.476736
20
0.324981
30
0
11
9.404549
21
0.324981
31
0
39
0
210
0
220
0
230
1
0
LINE
5
86
100
AcDbEntity
8
1
62
256
6
ByLayer
370
18
48
1
60
0
100
AcDbLine
10
35.916225
20
-11.250829
30
0
11
37.84625
21
-11.250829
31
0
39
0
210
0
220
0
230
1
0
LINE
5
87
100
AcDbEntity
8
1
62
256
6
ByLayer
370
18
48
1
60
0
100
AcDbLine
10
34.996886
20
-11.350014
30
0
11
34.997844
21
-11.249216
31
0
39
0
210
0
220
0
230
1
0
LINE
5
88
100
AcDbEntity
8
1
62
256
6
ByLayer
370
18
48
1
60
0
100
AcDbLine
10
35.915282
20
-11.350012
30
0
11
35.916225
21
-11.250829
31
0
39
0
210
0
220
0
230
1
0
LINE
5
89
100
AcDbEntity
8
1
62
256
6
ByLayer
370
18
48
1
60
0
100
AcDbLine
10
9.530813
20
0.25
30
0
11
6.714371
21
0.25
31
0
39
0
210
0
220
0
230
1
0
LINE
5
8A
100
AcDbEntity
8
1
62
256
6
ByLayer
370
18
48
1
60
0
100
AcDbLine
10
14.717168
20
0.324981
30
0
11
9.57055
21
0.324981
31
0
39
0
210
0
220
0
230
1
0
LINE
5
8B
100
AcDbEntity
8
1
62
256
6
ByLayer
370
18
48
1
60
0
100
AcDbLine
10
7.290539
20
-0.129904
30
0
11
15.243082
21
-0.129904
31
0
39
0
210
0
220
0
230
1
0
LINE
5
8C
100
AcDbEntity
8
1
62
256
6
ByLayer
370
13
48
1
60
0
100
AcDbLine
10
14.818469
20
0.249981
30
0
11
6.71446
21
0.249981
31
0
39
0
210
0
220
0
230
1
0
LINE
5
8D
100
AcDbEntity
8
1
62
256
6
ByLayer
370
13
48
1
60
0
100
AcDbLine
10
23.1
20
-10.109315
30
0
11
23.1
21
-10.882116
31
0
39
0
210
0
220
0
230
1
0
LINE
5
8E
100
AcDbEntity
8
1
62
256
6
ByLayer
370
18
48
1
60
0
100
AcDbLine
10
34.85
20
-12.451181
30
0
11
34.85
21
-12.548819
31
0
39
0
210
0
220
0
230
1
0
LINE
5
8F
100
AcDbEntity
8
1
62
256
6
ByLayer
370
18
48
1
60
0
100
AcDbLine
10
-14.000019
20
0.324981
30
0
11
-14.075019
21
0.249981
31
0
39
0
210
0
220
0
230
1
0
LINE
5
90
100
AcDbEntity
8
1
62
256
6
ByLayer
370
18
48
1
60
0
100
AcDbLine
10
-9.769771
20
0.324981
30
0
11
-10.247062
21
0.324981
31
0
39
0
210
0
220
0
230
1
0
LINE
5
91
100
AcDbEntity
8
1
62
256
6
ByLayer
370
18
48
1
60
0
100
AcDbLine
10
-10.810081
20
0.324981
30
0
11
-11.023511
21
0.324981
31
0
39
0
210
0
220
0
230
1
0
LINE
5
92
100
AcDbEntity
8
1
62
256
6
ByLayer
370
18
48
1
60
0
100
AcDbLine
10
-13.791283
20
0.324981
30
0
11
-14.000019
21
0.324981
31
0
39
0
210
0
220
0
230
1
0
LINE
5
93
100
AcDbEntity
8
1
62
256
6
ByLayer
370
18
48
1
60
0
100
AcDbLine
10
-14.075019
20
0.249981
30
0
11
-14.559331
21
-0.234331
31
0
39
0
210
0
220
0
230
1
0
LINE
5
94
100
AcDbEntity
8
1
62
256
6
ByLayer
370
13
48
1
60
0
100
AcDbLine
10
-13.927309
20
0.249981
30
0
11
-14.075019
21
0.249981
31
0
39
0
210
0
220
0
230
1
0
LINE
5
95
100
AcDbEntity
8
1
62
256
6
ByLayer
370
18
48
1
60
0
100
AcDbLine
10
-11.132078
20
0.324981
30
0
11
-11.287197
21
0.324981
31
0
39
0
210
0
220
0
230
1
0
LINE
5
96
100
AcDbEntity
8
1
62
256
6
ByLayer
370
18
48
1
60
0
100
AcDbLine
10
-13.048061
20
0.324981
30
0
11
-13.703327
21
0.324981
31
0
39
0
210
0
220
0
230
1
0
LINE
5
97
100
AcDbEntity
8
1
62
256
6
ByLayer
370
13
48
1
60
0
100
AcDbLine
10
-13.206552
20
0.249981
30
0
11
-13.72716
21
0.249981
31
0
39
0
210
0
220
0
230
1
0
LINE
5
98
100
AcDbEntity
8
1
62
256
6
ByLayer
370
13
48
1
60
0
100
AcDbLine
10
-14.125544
20
-0.394519
30
0
11
-14.265575
21
-0.394519
31
0
39
0
210
0
220
0
230
1
0
LINE
5
99
100
AcDbEntity
8
1
62
256
6
ByLayer
370
18
48
1
60
0
100
AcDbLine
10
-12.074956
20
0.324981
30
0
11
-12.9317
21
0.324981
31
0
39
0
210
0
220
0
230
1
0
LINE
5
9A
100
AcDbEntity
8
1
62
256
6
ByLayer
370
13
48
1
60
0
100
AcDbLine
10
-12.261918
20
0.249981
30
0
11
-12.941904
21
0.249981
31
0
39
0
210
0
220
0
230
1
0
LINE
5
9B
100
AcDbEntity
8
1
62
256
6
ByLayer
370
13
48
1
60
0
100
AcDbLine
10
-13.288685
20
-0.394519
30
0
11
-13.470275
21
-0.394519
31
0
39
0
210
0
220
0
230
1
0
LINE
5
9C
100
AcDbEntity
8
1
62
256
6
ByLayer
370
18
48
1
60
0
100
AcDbLine
10
-11.287177
20
0.324981
30
0
11
-11.923781
21
0.324981
31
0
39
0
210
0
220
0
230
1
0
LINE
5
9D
100
AcDbEntity
8
1
62
256
6
ByLayer
370
13
48
1
60
0
100
AcDbLine
10
-11.153931
20
0.249981
30
0
11
-11.918509
21
0.249981
31
0
39
0
210
0
220
0
230
1
0
LINE
5
9E
100
AcDbEntity
8
1
62
256
6
ByLayer
370
13
48
1
60
0
100
AcDbLine
10
-12.212601
20
-0.394519
30
0
11
-12.44548
21
-0.394519
31
0
39
0
210
0
220
0
230
1
0
LINE
5
9F
100
AcDbEntity
8
1
62
256
6
ByLayer
370
18
48
1
60
0
100
AcDbLine
10
-10.247044
20
0.324981
30
0
11
-10.612458
21
0.324981
31
0
39
0
210
0
220
0
230
1
0
LINE
5
A0
100
AcDbEntity
8
1
62
256
6
ByLayer
370
13
48
1
60
0
100
AcDbLine
10
-9.966378
20
0.249981
30
0
11
-10.588147
21
0.249981
31
0
39
0
210
0
220
0
230
1
0
LINE
5
A1
100
AcDbEntity
8
1
62
256
6
ByLayer
370
18
48
1
60
0
100
AcDbLine
10
-9.769771
20
0.324981
30
0
11
-9.404549
21
0.324981
31
0
39
0
210
0
220
0
230
1
0
LINE
5
A2
100
AcDbEntity
8
1
62
256
6
ByLayer
370
18
48
1
60
0
100
AcDbLine
10
-11.132078
20
0.324981
30
0
11
-11.023467
21
0.324981
31
0
39
0
210
0
220
0
230
1
0
LINE
5
A3
100
AcDbEntity
8
1
62
256
6
ByLayer
370
13
48
1
60
0
100
AcDbLine
10
-10.826145
20
-0.394519
30
0
11
-11.127967
21
-0.394519
31
0
39
0
210
0
220
0
230
1
0
LINE
5
A4
100
AcDbEntity
8
1
62
256
6
ByLayer
370
18
48
1
60
0
100
AcDbLine
10
-6.742374
20
0.324981
30
0
11
-8.864082
21
0.324981
31
0
39
0
210
0
220
0
230
1
0
LINE
5
A5
100
AcDbEntity
8
1
62
256
6
ByLayer
370
18
48
1
60
0
100
AcDbLine
10
-8.521634
20
-12.578366
30
0
11
-7.500073
21
-13.599927
31
0
39
0
210
0
220
0
230
1
0
LINE
5
A6
100
AcDbEntity
8
1
62
256
6
ByLayer
370
18
48
1
60
0
100
AcDbLine
10
16
20
-0.675
30
0
11
10.163081
21
-0.675
31
0
39
0
210
0
220
0
230
1
0
LINE
5
A7
100
AcDbEntity
8
1
62
256
6
ByLayer
370
13
48
1
60
0
100
AcDbLine
10
-7.153883
20
0.249981
30
0
11
-8.812878
21
0.249981
31
0
39
0
210
0
220
0
230
1
0
LINE
5
A8
100
AcDbEntity
8
1
62
256
6
ByLayer
370
18
48
1
60
0
100
AcDbLine
10
21.5
20
-1.375
30
0
11
21.5
21
-9.184329
31
0
39
0
210
0
220
0
230
1
0
LINE
5
A9
100
AcDbEntity
8
1
62
256
6
ByLayer
370
18
48
1
60
0
100
AcDbLine
10
10.593748
20
-1.375
30
0
11
21.5
21
-1.375
31
0
39
0
210
0
220
0
230
1
0
LINE
5
AA
100
AcDbEntity
8
1
62
256
6
ByLayer
370
18
48
1
60
0
100
AcDbLine
10
9.371207
20
-0.675
30
0
11
10.163081
21
-0.675
31
0
39
0
210
0
220
0
230
1
0
LINE
5
AB
100
AcDbEntity
8
1
62
256
6
ByLayer
370
18
48
1
60
0
100
AcDbLine
10
10.163081
20
-0.875
30
0
11
10.163081
21
-0.675
31
0
39
0
210
0
220
0
230
1
0
LINE
5
AC
100
AcDbEntity
8
1
62
256
6
ByLayer
370
18
48
1
60
0
100
AcDbLine
10
5.861975
20
-13.34438
30
0
11
5.861975
21
-13.161664
31
0
39
0
210
0
220
0
230
1
0
LINE
5
AD
100
AcDbEntity
8
1
62
256
6
ByLayer
370
18
48
1
60
0
100
AcDbLine
10
10.388566
20
-1.357539
30
0
11
10.388566
21
-12.501151
31
0
39
0
210
0
220
0
230
1
0
LINE
5
AE
100
AcDbEntity
8
1
62
256
6
ByLayer
370
13
48
1
60
0
100
AcDbLine
10
16
20
-0.875
30
0
11
10.163081
21
-0.875
31
0
39
0
210
0
220
0
230
1
0
LINE
5
AF
100
AcDbEntity
8
1
62
256
6
ByLayer
370
18
48
1
60
0
100
AcDbLine
10
31.35
20
-11.256352
30
0
11
31.35
21
-13.525222
31
0
39
0
210
0
220
0
230
1
0
LINE
5
B0
100
AcDbEntity
8
1
62
256
6
ByLayer
370
18
48
1
60
0
100
AcDbLine
10
21.756384
20
-12.501151
30
0
11
21.756384
21
-10.056272
31
0
39
0
210
0
220
0
230
1
0
LINE
5
B1
100
AcDbEntity
8
1
62
256
6
ByLayer
370
13
48
1
60
0
100
AcDbLine
10
-8.986697
20
-0.394519
30
0
11
-9.395388
21
-0.394519
31
0
39
0
210
0
220
0
230
1
0
LINE
5
B2
100
AcDbEntity
8
1
62
256
6
ByLayer
370
18
48
1
60
0
100
AcDbLine
10
6.326108
20
0.324981
30
0
11
1.735923
21
0.324981
31
0
39
0
210
0
220
0
230
1
0
LINE
5
B3
100
AcDbEntity
8
1
62
256
6
ByLayer
370
18
48
1
60
0
100
AcDbLine
10
-1.735923
20
0.324981
30
0
11
-6.326108
21
0.324981
31
0
39
0
210
0
220
0
230
1
0
LINE
5
B4
100
AcDbEntity
8
1
62
256
6
ByLayer
370
13
48
1
60
0
100
AcDbLine
10
6.222926
20
0.249981
30
0
11
3.020453
21
0.249981
31
0
39
0
210
0
220
0
230
1
0
LINE
5
B5
100
AcDbEntity
8
1
62
256
6
ByLayer
370
13
48
1
60
0
100
AcDbLine
10
-3.020453
20
0.249981
30
0
11
-6.222926
21
0.249981
31
0
39
0
210
0
220
0
230
1
0
LINE
5
B6
100
AcDbEntity
8
1
62
256
6
ByLayer
370
13
48
1
60
0
100
AcDbLine
10
6.943702
20
-0.394519
30
0
11
6.310523
21
-0.394519
31
0
39
0
210
0
220
0
230
1
0
LINE
5
B7
100
AcDbEntity
8
1
62
256
6
ByLayer
370
13
48
1
60
0
100
AcDbLine
10
-6.310523
20
-0.394519
30
0
11
-6.943702
21
-0.394519
31
0
39
0
210
0
220
0
230
1
0
LINE
5
B8
100
AcDbEntity
8
1
62
256
6
ByLayer
370
13
48
1
60
0
100
AcDbLine
10
1.912242
20
-0.394519
30
0
11
-1.912242
21
-0.394519
31
0
39
0
210
0
220
0
230
1
0
LINE
5
B9
100
AcDbEntity
8
1
62
256
6
ByLayer
370
18
48
1
60
0
100
AcDbLine
10
-15
20
-0.875
30
0
11
-15
21
-0.675
31
0
39
0
210
0
220
0
230
1
0
LINE
5
BA
100
AcDbEntity
8
1
62
256
6
ByLayer
370
18
48
1
60
0
100
AcDbLine
10
9.371254
20
-0.675
30
0
11
9.371254
21
-0.875
31
0
39
0
210
0
220
0
230
1
0
LINE
5
BB
100
AcDbEntity
8
1
62
256
6
ByLayer
370
18
48
1
60
0
100
AcDbLine
10
9.371254
20
-0.675
30
0
11
7.937106
21
-0.675
31
0
39
0
210
0
220
0
230
1
0
LINE
5
BC
100
AcDbEntity
8
1
62
256
6
ByLayer
370
18
48
1
60
0
100
AcDbLine
10
7.937106
20
-0.675
30
0
11
-15
21
-0.675
31
0
39
0
210
0
220
0
230
1
0
LINE
5
BD
100
AcDbEntity
8
1
62
256
6
ByLayer
370
18
48
1
60
0
100
AcDbLine
10
6.326108
20
0.324981
30
0
11
6.60065
21
0.324981
31
0
39
0
210
0
220
0
230
1
0
LINE
5
BE
100
AcDbEntity
8
1
62
256
6
ByLayer
370
18
48
1
60
0
100
AcDbLine
10
-1.735945
20
0.324981
30
0
11
1.735945
21
0.324981
31
0
39
0
210
0
220
0
230
1
0
LINE
5
BF
100
AcDbEntity
8
1
62
256
6
ByLayer
370
18
48
1
60
0
100
AcDbLine
10
-6.742492
20
0.324981
30
0
11
-6.326108
21
0.324981
31
0
39
0
210
0
220
0
230
1
0
LINE
5
C0
100
AcDbEntity
8
1
62
256
6
ByLayer
370
18
48
1
60
0
100
AcDbLine
10
-9.132847
20
0.324981
30
0
11
-8.864082
21
0.324981
31
0
39
0
210
0
220
0
230
1
0
LINE
5
C1
100
AcDbEntity
8
1
62
256
6
ByLayer
370
18
48
1
60
0
100
AcDbLine
10
-10.810022
20
0.324981
30
0
11
-10.612458
21
0.324981
31
0
39
0
210
0
220
0
230
1
0
LINE
5
C2
100
AcDbEntity
8
1
62
256
6
ByLayer
370
18
48
1
60
0
100
AcDbLine
10
-12.074944
20
0.324981
30
0
11
-11.923781
21
0.324981
31
0
39
0
210
0
220
0
230
1
0
LINE
5
C3
100
AcDbEntity
8
1
62
256
6
ByLayer
370
18
48
1
60
0
100
AcDbLine
10
-13.048064
20
0.324981
30
0
11
-12.9317
21
0.324981
31
0
39
0
210
0
220
0
230
1
0
LINE
5
C4
100
AcDbEntity
8
1
62
256
6
ByLayer
370
18
48
1
60
0
100
AcDbLine
10
-13.791289
20
0.324981
30
0
11
-13.703327
21
0.324981
31
0
39
0
210
0
220
0
230
1
0
LINE
5
C5
100
AcDbEntity
8
1
62
256
6
ByLayer
370
18
48
1
60
0
100
AcDbLine
10
-8.75517
20
-12.34483
30
0
11
-8.518564
21
-12.581436
31
0
39
0
210
0
220
0
230
1
0
LINE
5
C6
100
AcDbEntity
8
1
62
256
6
ByLayer
370
18
48
1
60
0
100
AcDbLine
10
-7.425
20
-13.675
30
0
11
-7.500073
21
-13.599927
31
0
39
0
210
0
220
0
230
1
0
LINE
5
C7
100
AcDbEntity
8
1
62
256
6
ByLayer
370
18
48
1
60
0
100
AcDbLine
10
22.95
20
-13.65681
30
0
11
22.55
21
-13.65681
31
0
39
0
210
0
220
0
230
1
0
LINE
5
C8
100
AcDbEntity
8
1
62
256
6
ByLayer
370
18
48
1
60
0
100
AcDbLine
10
10.388566
20
-12.501151
30
0
11
21.756384
21
-12.501151
31
0
39
0
210
0
220
0
230
1
0
LINE
5
C9
100
AcDbEntity
8
1
62
256
6
ByLayer
370
18
48
1
60
0
100
AcDbLine
10
6.461
20
-1.375
30
0
11
8.18325
21
-1.375
31
0
39
0
210
0
220
0
230
1
0
LINE
5
CA
100
AcDbEntity
8
1
62
256
6
ByLayer
370
18
48
1
60
0
100
AcDbLine
10
9.445863
20
-12.421464
30
0
11
9.445863
21
-1.202402
31
0
39
0
210
0
220
0
230
1
0
LINE
5
CB
100
AcDbEntity
8
1
62
256
6
ByLayer
370
18
48
1
60
0
100
AcDbLine
10
3.827205
20
-1.375
30
0
11
6.461
21
-1.375
31
0
39
0
210
0
220
0
230
1
0
LINE
5
CC
100
AcDbEntity
8
1
62
256
6
ByLayer
370
18
48
1
60
0
100
AcDbLine
10
0
20
-11.768557
30
0
11
6.461
21
-11.768557
31
0
39
0
210
0
220
0
230
1
0
LINE
5
CD
100
AcDbEntity
8
1
62
256
6
ByLayer
370
18
48
1
60
0
100
AcDbLine
10
6.461
20
-1.375
30
0
11
6.461
21
-11.768557
31
0
39
0
210
0
220
0
230
1
0
LINE
5
CE
100
AcDbEntity
8
1
62
256
6
ByLayer
370
18
48
1
60
0
100
AcDbLine
10
-15
20
-1.092945
30
0
11
-15
21
-6.1
31
0
39
0
210
0
220
0
230
1
0
LINE
5
CF
100
AcDbEntity
8
1
62
256
6
ByLayer
370
18
48
1
60
0
100
AcDbLine
10
-15
20
-6.1
30
0
11
-8.75517
21
-12.34483
31
0
39
0
210
0
220
0
230
1
0
LINE
5
D0
100
AcDbEntity
8
1
62
256
6
ByLayer
370
13
48
1
60
0
100
AcDbLine
10
0
20
-1.092945
30
0
11
0
21
-11.768557
31
0
39
0
210
0
220
0
230
1
0
LINE
5
D1
100
AcDbEntity
8
1
62
256
6
ByLayer
370
18
48
1
60
0
100
AcDbLine
10
-15
20
-1.092945
30
0
11
0
21
-1.092945
31
0
39
0
210
0
220
0
230
1
0
LINE
5
D2
100
AcDbEntity
8
1
62
256
6
ByLayer
370
13
48
1
60
0
100
AcDbLine
10
-15
20
-0.875
30
0
11
9.371254
21
-0.875
31
0
39
0
210
0
220
0
230
1
0
LINE
5
D3
100
AcDbEntity
8
1
62
256
6
ByLayer
370
18
48
1
60
0
100
AcDbLine
10
21.544204
20
-13.995691
30
0
11
22.490989
21
-13.937783
31
0
39
0
210
0
220
0
230
1
0
LINE
5
D4
100
AcDbEntity
8
1
62
256
6
ByLayer
370
18
48
1
60
0
100
AcDbLine
10
21.10001
20
-13.666768
30
0
11
21.10001
21
-13.803151
31
0
39
0
210
0
220
0
230
1
0
LINE
5
D5
100
AcDbEntity
8
1
62
256
6
ByLayer
370
18
48
1
60
0
100
AcDbLine
10
39.709011
20
-11.062217
30
0
11
40.655796
21
-11.004309
31
0
39
0
210
0
220
0
230
1
0
LINE
5
D6
100
AcDbEntity
8
1
62
256
6
ByLayer
370
18
48
1
60
0
100
AcDbLine
10
40.655796
20
-13.995691
30
0
11
39.709011
21
-13.937783
31
0
39
0
210
0
220
0
230
1
0
LINE
5
D7
100
AcDbEntity
8
1
62
256
6
ByLayer
370
18
48
1
60
0
100
AcDbLine
10
41.09999
20
-11.196849
30
0
11
41.09999
21
-13.803151
31
0
39
0
210
0
220
0
230
1
0
LINE
5
D8
100
AcDbEntity
8
1
62
256
6
ByLayer
370
18
48
1
60
0
100
AcDbLine
10
38.951573
20
-11.058705
30
0
11
39.709011
21
-11.062217
31
0
39
0
210
0
220
0
230
1
0
LINE
5
D9
100
AcDbEntity
8
1
62
256
6
ByLayer
370
18
48
1
60
0
100
AcDbLine
10
39.709011
20
-13.937783
30
0
11
38.951573
21
-13.941295
31
0
39
0
210
0
220
0
230
1
0
LINE
5
DA
100
AcDbEntity
8
1
62
256
6
ByLayer
370
18
48
1
60
0
100
AcDbLine
10
39.709011
20
-13.937783
30
0
11
39.709011
21
-11.062217
31
0
39
0
210
0
220
0
230
1
0
LINE
5
DB
100
AcDbEntity
8
1
62
256
6
ByLayer
370
18
48
1
60
0
100
AcDbLine
10
22.490989
20
-13.937783
30
0
11
23.248427
21
-13.941295
31
0
39
0
210
0
220
0
230
1
0
LINE
5
DC
100
AcDbEntity
8
1
62
256
6
ByLayer
370
18
48
1
60
0
100
AcDbLine
10
22.490989
20
-13.937783
30
0
11
22.490989
21
-13.656921
31
0
39
0
210
0
220
0
230
1
0
LINE
5
DD
100
AcDbEntity
8
1
62
256
6
ByLayer
370
13
48
1
60
0
100
AcDbLine
10
38.28134
20
-12.5
30
0
11
34.849782
21
-12.5
31
0
39
0
210
0
220
0
230
1
0
LINE
5
DE
100
AcDbEntity
8
1
62
256
6
ByLayer
370
13
48
1
60
0
100
AcDbLine
10
37.497706
20
-12.697335
30
0
11
34.762487
21
-12.697335
31
0
39
0
210
0
220
0
230
1
0
LINE
5
DF
100
AcDbEntity
8
1
62
256
6
ByLayer
370
13
48
1
60
0
100
AcDbLine
10
34.762487
20
-12.302665
30
0
11
37.497706
21
-12.302665
31
0
39
0
210
0
220
0
230
1
0
LINE
5
E0
100
AcDbEntity
8
1
62
256
6
ByLayer
370
13
48
1
60
0
100
AcDbLine
10
34.755968
20
-12.299244
30
0
11
37.444414
21
-12.299244
31
0
39
0
210
0
220
0
230
1
0
LINE
5
E1
100
AcDbEntity
8
1
62
256
6
ByLayer
370
13
48
1
60
0
100
AcDbLine
10
34.755968
20
-12.700756
30
0
11
37.444414
21
-12.700756
31
0
39
0
210
0
220
0
230
1
0
LINE
5
E2
100
AcDbEntity
8
1
62
256
6
ByLayer
370
13
48
1
60
0
100
AcDbLine
10
34.663344
20
-12.248976
30
0
11
36.736252
21
-12.248976
31
0
39
0
210
0
220
0
230
1
0
LINE
5
E3
100
AcDbEntity
8
1
62
256
6
ByLayer
370
13
48
1
60
0
100
AcDbLine
10
34.663344
20
-12.751024
30
0
11
36.736252
21
-12.751024
31
0
39
0
210
0
220
0
230
1
0
LINE
5
E4
100
AcDbEntity
8
1
62
256
6
ByLayer
370
13
48
1
60
0
100
AcDbLine
10
34.629949
20
-12.867998
30
0
11
36.124167
21
-12.867998
31
0
39
0
210
0
220
0
230
1
0
LINE
5
E5
100
AcDbEntity
8
1
62
256
6
ByLayer
370
13
48
1
60
0
100
AcDbLine
10
34.630734
20
-12.132002
30
0
11
36.124167
21
-12.132002
31
0
39
0
210
0
220
0
230
1
0
LINE
5
E6
100
AcDbEntity
8
1
62
256
6
ByLayer
370
13
48
1
60
0
100
AcDbLine
10
34.456033
20
-13.475984
30
0
11
34.92005
21
-13.475984
31
0
39
0
210
0
220
0
230
1
0
LINE
5
E7
100
AcDbEntity
8
1
62
256
6
ByLayer
370
13
48
1
60
0
100
AcDbLine
10
34.92005
20
-11.524016
30
0
11
34.458898
21
-11.524016
31
0
39
0
210
0
220
0
230
1
0
LINE
5
E8
100
AcDbEntity
8
1
62
256
6
ByLayer
370
18
48
1
60
0
100
AcDbLine
10
37.328061
20
-11.35
30
0
11
34.872487
21
-11.35
31
0
39
0
210
0
220
0
230
1
0
LINE
5
E9
100
AcDbEntity
8
1
62
256
6
ByLayer
370
18
48
1
60
0
100
AcDbLine
10
34.872487
20
-13.65
30
0
11
37.328061
21
-13.65
31
0
39
0
210
0
220
0
230
1
0
LINE
5
EA
100
AcDbEntity
8
1
62
256
6
ByLayer
370
18
48
1
60
0
100
AcDbLine
10
37.572465
20
-11.3198
30
0
11
38.519669
21
-11.081125
31
0
39
0
210
0
220
0
230
1
0
LINE
5
EB
100
AcDbEntity
8
1
62
256
6
ByLayer
370
18
48
1
60
0
100
AcDbLine
10
36.124167
20
-12.132002
30
0
11
34.92005
21
-11.524016
31
0
39
0
210
0
220
0
230
1
0
LINE
5
EC
100
AcDbEntity
8
1
62
256
6
ByLayer
370
18
48
1
60
0
100
AcDbLine
10
37.497706
20
-12.302665
30
0
11
37.444414
21
-12.299244
31
0
39
0
210
0
220
0
230
1
0
LINE
5
ED
100
AcDbEntity
8
1
62
256
6
ByLayer
370
18
48
1
60
0
100
AcDbLine
10
37.444414
20
-12.700756
30
0
11
37.497706
21
-12.697335
31
0
39
0
210
0
220
0
230
1
0
LINE
5
EE
100
AcDbEntity
8
1
62
256
6
ByLayer
370
18
48
1
60
0
100
AcDbLine
10
34.92005
20
-13.475984
30
0
11
36.124167
21
-12.867998
31
0
39
0
210
0
220
0
230
1
0
LINE
5
EF
100
AcDbEntity
8
1
62
256
6
ByLayer
370
18
48
1
60
0
100
AcDbLine
10
38.519669
20
-13.918875
30
0
11
37.572465
21
-13.6802
31
0
39
0
210
0
220
0
230
1
0
LINE
5
F0
100
AcDbEntity
8
1
62
256
6
ByLayer
370
18
48
1
60
0
100
AcDbLine
10
38.951573
20
-13.941295
30
0
11
38.558733
21
-13.924561
31
0
39
0
210
0
220
0
230
1
0
LINE
5
F1
100
AcDbEntity
8
1
62
256
6
ByLayer
370
18
48
1
60
0
100
AcDbLine
10
38.951573
20
-13.941295
30
0
11
38.951573
21
-11.058705
31
0
39
0
210
0
220
0
230
1
0
LINE
5
F2
100
AcDbEntity
8
1
62
256
6
ByLayer
370
18
48
1
60
0
100
AcDbLine
10
38.558733
20
-11.075439
30
0
11
38.951573
21
-11.058705
31
0
39
0
210
0
220
0
230
1
0
LINE
5
F3
100
AcDbEntity
8
1
62
256
6
ByLayer
370
18
48
1
60
0
100
AcDbLine
10
34.872487
20
-11.35
30
0
11
34.405406
21
-11.35
31
0
39
0
210
0
220
0
230
1
0
LINE
5
F4
100
AcDbEntity
8
1
62
256
6
ByLayer
370
13
48
1
60
0
100
AcDbLine
10
34.44372
20
-11.474562
30
0
11
34.872487
21
-11.474562
31
0
39
0
210
0
220
0
230
1
0
LINE
5
F5
100
AcDbEntity
8
1
62
256
6
ByLayer
370
18
48
1
60
0
100
AcDbLine
10
34.872487
20
-11.474562
30
0
11
34.872487
21
-11.35
31
0
39
0
210
0
220
0
230
1
0
LINE
5
F6
100
AcDbEntity
8
1
62
256
6
ByLayer
370
18
48
1
60
0
100
AcDbLine
10
34.40576
20
-13.65
30
0
11
34.872487
21
-13.65
31
0
39
0
210
0
220
0
230
1
0
LINE
5
F7
100
AcDbEntity
8
1
62
256
6
ByLayer
370
18
48
1
60
0
100
AcDbLine
10
34.872487
20
-13.65
30
0
11
34.872487
21
-13.525438
31
0
39
0
210
0
220
0
230
1
0
LINE
5
F8
100
AcDbEntity
8
1
62
256
6
ByLayer
370
13
48
1
60
0
100
AcDbLine
10
34.872487
20
-13.525438
30
0
11
34.441834
21
-13.525438
31
0
39
0
210
0
220
0
230
1
0
LINE
5
F9
100
AcDbEntity
8
1
62
256
6
ByLayer
370
18
48
1
60
0
100
AcDbLine
10
23.248427
20
-13.941295
30
0
11
23.248427
21
-13.657315
31
0
39
0
210
0
220
0
230
1
0
LINE
5
FA
100
AcDbEntity
8
1
62
256
6
ByLayer
370
18
48
1
60
0
100
AcDbLine
10
23.248427
20
-13.941295
30
0
11
23.641267
21
-13.924561
31
0
39
0
210
0
220
0
230
1
0
LINE
5
FB
100
AcDbEntity
8
1
62
256
6
ByLayer
370
18
48
1
60
0
100
AcDbLine
10
23.680331
20
-13.918875
30
0
11
24.627535
21
-13.6802
31
0
39
0
210
0
220
0
230
1
0
MTEXT
5
194
100
AcDbEntity
8
SK6
62
256
6
ByLayer
370
18
48
1
60
0
100
AcDbMText
10
-19.2645
20
-58.724579
30
0
210
0
220
0
230
1
1
\W0.7727;C2A-SL32-RGG18A-130GB
40
3.5
41
0
44
1.084337
50
0
71
7
72
5
7
iso_b_vert
0
DIMENSION
5
199
100
AcDbEntity
8
2
62
256
6
ByLayer
370
18
48
1
60
0
100
AcDbDimension
2
_U0
10
41.1
20
16.25
30
0
11
20.55
21
16.25
31
0
70
32
71
1
72
1
41
1
210
0
220
0
230
1
3
Standard
100
AcDbAlignedDimension
13
0
23
0
33
0
14
41.1
24
-14
34
0
50
0
100
AcDbRotatedDimension
1001
ACAD
1000
DSTYLE
1002
{
1070
   371
1070
    13
1070
   372
1070
    13
1070
   170
1070
     0
1070
   144
1040
1.0
1070
   277
1070
     2
1070
   284
1070
     8
1070
   278
1070
    46
1070
   146
1040
1.0
1070
   345
1005
16
1070
   347
1005
16
1070
   346
1005
16
1070
   344
1005
0
1070
   343
1005
0
1070
   172
1070
     1
1070
    76
1070
     0
1070
    75
1070
     0
1070
   282
1070
     0
1070
   281
1070
     0
1070
    71
1070
     0
1070
    74
1070
     0
1070
   279
1070
     0
1070
   173
1070
     1
1070
   340
1005
195
1070
   271
1070
     2
1070
   272
1070
     2
1070
    77
1070
     1
1070
    73
1070
     1
1070
   171
1070
     3
1070
   274
1070
     4
1070
   177
1070
     2
1070
   176
1070
     2
1070
   178
1070
     2
1070
    78
1070
     8
1070
    48
1040
-0.1
1070
    41
1040
3.5
1070
   147
1040
1.75
1070
    42
1040
1.5875
1070
    44
1040
2.0
1070
   140
1040
3.5
1002
}
1001
ACAD_DSTYLE_DIM_LINETYPE
1070
   380
1005
16
1001
ACAD_DSTYLE_DIM_EXT1_LINETYPE
1070
   381
1005
16
1001
ACAD_DSTYLE_DIM_EXT2_LINETYPE
1070
   382
1005
16
0
DIMENSION
5
1B3
100
AcDbEntity
8
2
62
256
6
ByLayer
370
18
48
1
60
0
100
AcDbDimension
2
_U1
10
41.1
20
8.25
30
0
11
32.1
21
8.25
31
0
70
32
71
1
72
1
41
1
210
0
220
0
230
1
3
Standard
100
AcDbAlignedDimension
13
23.1
23
-11.325
33
0
14
41.1
24
-14
34
0
50
0
100
AcDbRotatedDimension
1001
ACAD
1000
DSTYLE
1002
{
1070
   371
1070
    13
1070
   372
1070
    13
1070
   170
1070
     0
1070
   144
1040
1.0
1070
   277
1070
     2
1070
   284
1070
     8
1070
   278
1070
    46
1070
   146
1040
1.0
1070
   345
1005
16
1070
   347
1005
16
1070
   346
1005
16
1070
   344
1005
0
1070
   343
1005
0
1070
   172
1070
     1
1070
    76
1070
     0
1070
    75
1070
     0
1070
   282
1070
     0
1070
   281
1070
     0
1070
    71
1070
     0
1070
    74
1070
     0
1070
   279
1070
     0
1070
   173
1070
     1
1070
   340
1005
195
1070
   271
1070
     2
1070
   272
1070
     2
1070
    77
1070
     1
1070
    73
1070
     1
1070
   171
1070
     3
1070
   274
1070
     4
1070
   177
1070
     2
1070
   176
1070
     2
1070
   178
1070
     2
1070
    78
1070
     8
1070
    48
1040
-0.1
1070
    41
1040
3.5
1070
   147
1040
1.75
1070
    42
1040
1.5875
1070
    44
1040
2.0
1070
   140
1040
3.5
1002
}
1001
ACAD_DSTYLE_DIM_LINETYPE
1070
   380
1005
16
1001
ACAD_DSTYLE_DIM_EXT1_LINETYPE
1070
   381
1005
16
1001
ACAD_DSTYLE_DIM_EXT2_LINETYPE
1070
   382
1005
16
0
DIMENSION
5
1CB
100
AcDbEntity
8
2
62
256
6
ByLayer
370
18
48
1
60
0
100
AcDbDimension
2
_U2
10
65.85
20
0
30
0
11
65.85
21
-7
31
0
70
32
71
1
72
1
41
1
210
0
220
0
230
1
3
Standard
100
AcDbAlignedDimension
13
41.1
23
-14
33
0
14
0
24
0
34
0
50
90
100
AcDbRotatedDimension
1001
ACAD
1000
DSTYLE
1002
{
1070
   371
1070
    13
1070
   372
1070
    13
1070
   170
1070
     0
1070
   144
1040
1.0
1070
   277
1070
     2
1070
   284
1070
     8
1070
   278
1070
    46
1070
   146
1040
1.0
1070
   345
1005
16
1070
   347
1005
16
1070
   346
1005
16
1070
   344
1005
0
1070
   343
1005
0
1070
   172
1070
     1
1070
    76
1070
     0
1070
    75
1070
     0
1070
   282
1070
     0
1070
   281
1070
     0
1070
    71
1070
     0
1070
    74
1070
     0
1070
   279
1070
     0
1070
   173
1070
     1
1070
   340
1005
195
1070
   271
1070
     2
1070
   272
1070
     2
1070
    77
1070
     1
1070
    73
1070
     0
1070
   171
1070
     3
1070
   274
1070
     4
1070
   177
1070
     2
1070
   176
1070
     2
1070
   178
1070
     2
1070
    78
1070
     8
1070
    48
1040
-0.1
1070
    41
1040
3.5
1070
   147
1040
1.75
1070
    42
1040
1.5875
1070
    44
1040
2.0
1070
   140
1040
3.5
1002
}
1001
ACAD_DSTYLE_DIM_LINETYPE
1070
   380
1005
16
1001
ACAD_DSTYLE_DIM_EXT1_LINETYPE
1070
   381
1005
16
1001
ACAD_DSTYLE_DIM_EXT2_LINETYPE
1070
   382
1005
16
0
DIMENSION
5
1E4
100
AcDbEntity
8
2
62
256
6
ByLayer
370
18
48
1
60
0
100
AcDbDimension
2
_U3
10
52.85
20
-11
30
0
11
52.85
21
-12.5
31
0
70
32
71
1
72
1
41
1
210
0
220
0
230
1
3
Standard
100
AcDbAlignedDimension
13
41.1
23
-14
33
0
14
41.1
24
-11
34
0
50
90
100
AcDbRotatedDimension
1001
ACAD
1000
DSTYLE
1002
{
1070
   371
1070
    13
1070
   372
1070
    13
1070
   170
1070
     0
1070
   144
1040
1.0
1070
   277
1070
     2
1070
   284
1070
     8
1070
   278
1070
    46
1070
   146
1040
1.0
1070
   345
1005
16
1070
   347
1005
16
1070
   346
1005
16
1070
   344
1005
0
1070
   343
1005
0
1070
   172
1070
     1
1070
    76
1070
     0
1070
    75
1070
     0
1070
   282
1070
     0
1070
   281
1070
     0
1070
    71
1070
     0
1070
    74
1070
     0
1070
   279
1070
     0
1070
   173
1070
     1
1070
   340
1005
195
1070
   271
1070
     2
1070
   272
1070
     2
1070
    77
1070
     1
1070
    73
1070
     0
1070
   171
1070
     3
1070
   274
1070
     4
1070
   177
1070
     2
1070
   176
1070
     2
1070
   178
1070
     2
1070
    78
1070
     8
1070
    48
1040
-0.1
1070
    41
1040
3.5
1070
   147
1040
1.75
1070
    42
1040
1.5875
1070
    44
1040
2.0
1070
   140
1040
3.5
1002
}
1001
ACAD_DSTYLE_DIM_LINETYPE
1070
   380
1005
16
1001
ACAD_DSTYLE_DIM_EXT1_LINETYPE
1070
   381
1005
16
1001
ACAD_DSTYLE_DIM_EXT2_LINETYPE
1070
   382
1005
16
0
ENDSEC
0
SECTION
2
OBJECTS
0
DICTIONARY
5
26a
330
0
100
AcDbDictionary
280
0
281
1
3
ACAD_GROUP
350
26b
3
ACAD_MLINESTYLE
350
26c
0
DICTIONARY
5
26b
330
0
100
AcDbDictionary
280
0
281
1
0
DICTIONARY
5
26c
330
0
100
AcDbDictionary
280
0
281
1
3
Standard
350
18
0
MLINESTYLE
5
18
330
26c
100
AcDbMlineStyle
2
Standard
70
0
3

62
256
51
90
52
90
71
2
49
-0.5
62
256
6
ByLayer
49
0.5
62
256
6
ByLayer
0
RASTERVARIABLES
5
25b
330

100
AcDbRasterVariables
90
0
70
1
71
1
72
1
0
ENDSEC
0
EOF
