0
SECTION
2
HEADER
9
$ACADVER
1
AC1015
9
$DWGCODEPAGE
3
ANSI_1252
9
$HANDSEED
5
278
9
$ANGBASE
50
0
9
$ANGDIR
70
0
9
$ATTMODE
70
1
9
$AUNITS
70
0
9
$AUPREC
70
0
9
$CECOLOR
62
256
9
$CELTSCALE
40
1
9
$CELTYPE
6
ByLayer
9
$CELWEIGHT
370
18
9
$CLAYER
8
0
9
$CMLJUST
70
0
9
$CMLSCALE
40
1
9
$CMLSTYLE
2
Standard
9
$DIMSTYLE
2
Standard
9
$TEXTSIZE
40
0.2
9
$TEXTSTYLE
7
Standard
9
$LUNITS
70
2
9
$LUPREC
70
4
9
$EXTNAMES
290
1
9
$INSUNITS
70
4
9
$LTSCALE
40
1
9
$LWDISPLAY
290
1
9
$PDMODE
70
0
9
$PDSIZE
40
0
9
$PLINEGEN
70
0
0
ENDSEC
0
SECTION
2
CLASSES
0
CLASS
1
RASTERVARIABLES
2
AcDbRasterVariables
3
ISM
90
0
280
0
281
0
0
ENDSEC
0
SECTION
2
TABLES
0
TABLE
2
VPORT
5
26e
100
AcDbSymbolTable
0
VPORT
5
1
100
AcDbSymbolTableRecord
100
AcDbViewportTableRecord
2
*Active
70
0
10
0
20
0
11
1
21
1
12
-1
22
1
13
0
23
0
14
0.5
24
0.5
15
10
25
10
16
0
26
0
36
1
17
0
27
0
37
0
0
ENDTAB
0
TABLE
2
LTYPE
5
26f
100
AcDbSymbolTable
0
LTYPE
5
14
100
AcDbSymbolTableRecord
100
AcDbLinetypeTableRecord
70
0
2
ByBlock
3

72
65
73
0
40
0
0
LTYPE
5
15
100
AcDbSymbolTableRecord
100
AcDbLinetypeTableRecord
70
0
2
ByLayer
3

72
65
73
0
40
0
0
LTYPE
5
16
100
AcDbSymbolTableRecord
100
AcDbLinetypeTableRecord
70
0
2
Continuous
3
Solid line
72
65
73
0
40
0
0
LTYPE
5
6E
100
AcDbSymbolTableRecord
100
AcDbLinetypeTableRecord
70
0
2
CENTER
3
____ _ ____ _ ____ _ ____
72
65
73
4
40
47.5
49
22
74
0
49
-8.5
74
0
49
8.5
74
0
49
-8.5
74
0
0
LTYPE
5
6F
100
AcDbSymbolTableRecord
100
AcDbLinetypeTableRecord
70
0
2
DASHED
3
__ __ __ __ __ __ __ __ __
72
65
73
2
40
25.72
49
12.86
74
0
49
-12.86
74
0
0
ENDTAB
0
TABLE
2
LAYER
5
270
100
AcDbSymbolTable
0
LAYER
5
10
100
AcDbSymbolTableRecord
100
AcDbLayerTableRecord
2
0
70
0
62
7
6
Continuous
290
1
370
-3
390
0
0
LAYER
5
71
100
AcDbSymbolTableRecord
100
AcDbLayerTableRecord
2
81
70
0
62
-3
6
Continuous
290
1
370
-3
390
0
0
LAYER
5
73
100
AcDbSymbolTableRecord
100
AcDbLayerTableRecord
2
80
70
0
62
-6
6
Continuous
290
1
370
-3
390
0
0
LAYER
5
75
100
AcDbSymbolTableRecord
100
AcDbLayerTableRecord
2
1
70
0
62
4
6
Continuous
290
1
370
-3
390
0
0
LAYER
5
19D
100
AcDbSymbolTableRecord
100
AcDbLayerTableRecord
2
Defpoints
70
0
62
7
6
Continuous
290
0
370
-3
390
0
0
LAYER
5
1AA
100
AcDbSymbolTableRecord
100
AcDbLayerTableRecord
2
2
70
0
62
7
6
Continuous
290
1
370
-3
390
0
0
LAYER
5
25d
100
AcDbSymbolTableRecord
100
AcDbLayerTableRecord
2
SK6
70
0
62
5
6
Continuous
290
1
370
-3
390
0
0
ENDTAB
0
TABLE
2
STYLE
5
271
100
AcDbSymbolTable
0
STYLE
5
11
100
AcDbSymbolTableRecord
100
AcDbTextStyleTableRecord
2
Standard
3
txt
70
0
71
0
40
0
41
1
42
0
50
0
0
STYLE
5
196
100
AcDbSymbolTableRecord
100
AcDbTextStyleTableRecord
2
iso_b_vert
3
simplex.shx
70
0
71
0
40
0
41
1
42
0
50
0
0
STYLE
5
197
100
AcDbSymbolTableRecord
100
AcDbTextStyleTableRecord
2
DWGDirectTextStyle
3
simplex
70
0
71
0
40
0
41
1
42
0
50
0
0
ENDTAB
0
TABLE
2
DIMSTYLE
5
272
100
AcDbSymbolTable
100
AcDbDimStyleTable
0
DIMSTYLE
105
27
100
AcDbSymbolTableRecord
100
AcDbDimStyleTableRecord
2
Standard
70
0
3
<>
41
0.18
42
0.0625
44
0.18
140
0.18
147
0.09
73
0
74
0
77
1
271
2
275
0
278
52
280
0
340
11
0
ENDTAB
0
TABLE
2
VIEW
5
273
100
AcDbSymbolTable
0
ENDTAB
0
TABLE
2
UCS
5
274
100
AcDbSymbolTable
0
ENDTAB
0
TABLE
2
APPID
5
275
100
AcDbSymbolTable
0
APPID
5
12
100
AcDbSymbolTableRecord
100
AcDbRegAppTableRecord
2
ACAD
70
0
0
APPID
5
199
100
AcDbSymbolTableRecord
100
AcDbRegAppTableRecord
2
ACAD_DSTYLE_DIMBREAK
70
0
0
APPID
5
21C
100
AcDbSymbolTableRecord
100
AcDbRegAppTableRecord
2
ACAD_DSTYLE_DIM_LINETYPE
70
0
0
APPID
5
21D
100
AcDbSymbolTableRecord
100
AcDbRegAppTableRecord
2
ACAD_DSTYLE_DIM_EXT1_LINETYPE
70
0
0
APPID
5
21E
100
AcDbSymbolTableRecord
100
AcDbRegAppTableRecord
2
ACAD_DSTYLE_DIM_EXT2_LINETYPE
70
0
0
APPID
5
259
100
AcDbSymbolTableRecord
100
AcDbRegAppTableRecord
2
ACAD_MLEADERVER
70
0
0
ENDTAB
0
TABLE
2
BLOCK_RECORD
5
276
100
AcDbSymbolTable
0
BLOCK_RECORD
5
1F
100
AcDbSymbolTableRecord
100
AcDbBlockTableRecord
2
*Model_Space
340
0
70
0
0
BLOCK_RECORD
5
1B
100
AcDbSymbolTableRecord
100
AcDbBlockTableRecord
2
*Paper_Space
340
0
70
0
0
BLOCK_RECORD
5
23
100
AcDbSymbolTableRecord
100
AcDbBlockTableRecord
2
*Paper_Space0
340
0
70
0
0
BLOCK_RECORD
5
19E
100
AcDbSymbolTableRecord
100
AcDbBlockTableRecord
2
*D1
340
0
70
0
0
BLOCK_RECORD
5
1AB
100
AcDbSymbolTableRecord
100
AcDbBlockTableRecord
2
_U0
340
0
70
0
0
BLOCK_RECORD
5
1B7
100
AcDbSymbolTableRecord
100
AcDbBlockTableRecord
2
*D3
340
0
70
0
0
BLOCK_RECORD
5
1C3
100
AcDbSymbolTableRecord
100
AcDbBlockTableRecord
2
_U1
340
0
70
0
0
BLOCK_RECORD
5
1CF
100
AcDbSymbolTableRecord
100
AcDbBlockTableRecord
2
*D5
340
0
70
0
0
BLOCK_RECORD
5
1DC
100
AcDbSymbolTableRecord
100
AcDbBlockTableRecord
2
_U2
340
0
70
0
0
BLOCK_RECORD
5
1E8
100
AcDbSymbolTableRecord
100
AcDbBlockTableRecord
2
*D7
340
0
70
0
0
BLOCK_RECORD
5
1F5
100
AcDbSymbolTableRecord
100
AcDbBlockTableRecord
2
_U3
340
0
70
0
0
ENDTAB
0
ENDSEC
0
SECTION
2
BLOCKS
0
BLOCK
5
20
100
AcDbEntity
8
0
100
AcDbBlockBegin
2
*Model_Space
70
0
10
0
20
0
30
0
3
*Model_Space
0
ENDBLK
5
21
100
AcDbEntity
8
0
100
AcDbBlockEnd
0
BLOCK
5
1C
100
AcDbEntity
8
0
100
AcDbBlockBegin
2
*Paper_Space
70
0
10
0
20
0
30
0
3
*Paper_Space
0
ENDBLK
5
1D
100
AcDbEntity
8
0
100
AcDbBlockEnd
0
BLOCK
5
24
100
AcDbEntity
8
0
100
AcDbBlockBegin
2
*Paper_Space0
70
0
10
0
20
0
30
0
3
*Paper_Space0
0
ENDBLK
5
25
100
AcDbEntity
8
0
100
AcDbBlockEnd
0
BLOCK
5
19F
100
AcDbEntity
8
0
100
AcDbBlockBegin
2
*D1
70
1
10
0
20
0
30
0
3
*D1
0
LINE
5
1A1
100
AcDbEntity
8
0
62
256
6
ByLayer
370
-2
48
1
60
0
100
AcDbLine
10
0
20
-1.5875
30
0
11
0
21
-21.75
31
0
39
0
210
0
220
0
230
1
0
LINE
5
1A2
100
AcDbEntity
8
0
62
256
6
ByLayer
370
-2
48
1
60
0
100
AcDbLine
10
41.1
20
12.4125
30
0
11
41.1
21
-21.75
31
0
39
0
210
0
220
0
230
1
0
LINE
5
1A3
100
AcDbEntity
8
0
62
256
6
ByLayer
370
-2
48
1
60
0
100
AcDbLine
10
3.5
20
-19.75
30
0
11
37.6
21
-19.75
31
0
39
0
210
0
220
0
230
1
0
SOLID
5
1A4
100
AcDbEntity
8
0
62
256
6
ByLayer
370
-1
48
1
60
0
100
AcDbTrace
10
3.5
20
-19.166667
30
0
11
3.5
21
-20.333333
31
0
12
0
22
-19.75
32
0
13
0
23
-19.75
33
0
39
0
210
0
220
0
230
1
0
SOLID
5
1A5
100
AcDbEntity
8
0
62
256
6
ByLayer
370
-1
48
1
60
0
100
AcDbTrace
10
37.6
20
-20.333333
30
0
11
37.6
21
-19.166667
31
0
12
41.1
22
-19.75
32
0
13
41.1
23
-19.75
33
0
39
0
210
0
220
0
230
1
0
MTEXT
5
1A6
100
AcDbEntity
8
0
62
256
6
ByLayer
370
18
48
1
60
0
100
AcDbMText
10
20.55
20
-12.75
30
0
210
0
220
0
230
1
1
\A1;41.1
40
3.5
41
0
44
1
50
0
71
5
72
5
7
iso_b_vert
0
POINT
5
1A7
100
AcDbEntity
8
Defpoints
62
0
6
ByLayer
370
-1
48
1
60
0
100
AcDbPoint
10
0
20
0
30
0
39
0
210
0
220
0
230
1
50
360
0
POINT
5
1A8
100
AcDbEntity
8
Defpoints
62
0
6
ByLayer
370
-1
48
1
60
0
100
AcDbPoint
10
41.1
20
14
30
0
39
0
210
0
220
0
230
1
50
360
0
POINT
5
1A9
100
AcDbEntity
8
Defpoints
62
0
6
ByLayer
370
-1
48
1
60
0
100
AcDbPoint
10
41.1
20
-19.75
30
0
39
0
210
0
220
0
230
1
50
360
0
ENDBLK
5
1A0
100
AcDbEntity
8
0
100
AcDbBlockEnd
0
BLOCK
5
1B2
100
AcDbEntity
8
0
100
AcDbBlockBegin
2
_U0
70
0
10
0
20
0
30
0
3
_U0
0
MTEXT
5
1AC
100
AcDbEntity
8
2
62
256
6
ByLayer
370
18
48
1
60
0
100
AcDbMText
10
17.318901
20
-18.717366
30
0
210
0
220
0
230
1
1
\W0.6670;41.1
40
3.5
41
0
44
1.084337
50
0
71
7
72
5
7
iso_b_vert
0
LINE
5
1AD
100
AcDbEntity
8
2
62
256
6
ByLayer
370
13
48
1
60
0
100
AcDbLine
10
0
20
-1.5875
30
0
11
0
21
-21.75
31
0
39
0
210
0
220
0
230
1
0
LINE
5
1AE
100
AcDbEntity
8
2
62
256
6
ByLayer
370
13
48
1
60
0
100
AcDbLine
10
41.1
20
12.4125
30
0
11
41.1
21
-21.75
31
0
39
0
210
0
220
0
230
1
0
LINE
5
1AF
100
AcDbEntity
8
2
62
256
6
ByLayer
370
13
48
1
60
0
100
AcDbLine
10
0
20
-19.75
30
0
11
41.1
21
-19.75
31
0
39
0
210
0
220
0
230
1
0
SOLID
5
1B0
100
AcDbEntity
8
2
62
256
6
ByLayer
370
18
48
1
60
0
100
AcDbTrace
10
0
20
-19.75
30
0
11
3.499998
21
-19.289216
31
0
12
3.500002
22
-20.210784
32
0
13
3.500002
23
-20.210784
33
0
39
0
210
0
220
0
230
1
0
SOLID
5
1B1
100
AcDbEntity
8
2
62
256
6
ByLayer
370
18
48
1
60
0
100
AcDbTrace
10
41.1
20
-19.75
30
0
11
37.600002
21
-20.210784
31
0
12
37.599998
22
-19.289216
32
0
13
37.599998
23
-19.289216
33
0
39
0
210
0
220
0
230
1
0
ENDBLK
5
1B3
100
AcDbEntity
8
0
100
AcDbBlockEnd
0
BLOCK
5
1B8
100
AcDbEntity
8
0
100
AcDbBlockBegin
2
*D3
70
1
10
0
20
0
30
0
3
*D3
0
LINE
5
1BA
100
AcDbEntity
8
0
62
256
6
ByLayer
370
-2
48
1
60
0
100
AcDbLine
10
23.1
20
9.7375
30
0
11
23.1
21
-13.75
31
0
39
0
210
0
220
0
230
1
0
LINE
5
1BB
100
AcDbEntity
8
0
62
256
6
ByLayer
370
-2
48
1
60
0
100
AcDbLine
10
41.1
20
12.4125
30
0
11
41.1
21
-13.75
31
0
39
0
210
0
220
0
230
1
0
LINE
5
1BC
100
AcDbEntity
8
0
62
256
6
ByLayer
370
-2
48
1
60
0
100
AcDbLine
10
26.6
20
-11.75
30
0
11
37.6
21
-11.75
31
0
39
0
210
0
220
0
230
1
0
SOLID
5
1BD
100
AcDbEntity
8
0
62
256
6
ByLayer
370
-1
48
1
60
0
100
AcDbTrace
10
26.6
20
-11.166667
30
0
11
26.6
21
-12.333333
31
0
12
23.1
22
-11.75
32
0
13
23.1
23
-11.75
33
0
39
0
210
0
220
0
230
1
0
SOLID
5
1BE
100
AcDbEntity
8
0
62
256
6
ByLayer
370
-1
48
1
60
0
100
AcDbTrace
10
37.6
20
-12.333333
30
0
11
37.6
21
-11.166667
31
0
12
41.1
22
-11.75
32
0
13
41.1
23
-11.75
33
0
39
0
210
0
220
0
230
1
0
MTEXT
5
1BF
100
AcDbEntity
8
0
62
256
6
ByLayer
370
18
48
1
60
0
100
AcDbMText
10
32.1
20
-4.75
30
0
210
0
220
0
230
1
1
\A1;18
40
3.5
41
0
44
1
50
0
71
5
72
5
7
iso_b_vert
0
POINT
5
1C0
100
AcDbEntity
8
Defpoints
62
0
6
ByLayer
370
-1
48
1
60
0
100
AcDbPoint
10
23.1
20
11.325
30
0
39
0
210
0
220
0
230
1
50
360
0
POINT
5
1C1
100
AcDbEntity
8
Defpoints
62
0
6
ByLayer
370
-1
48
1
60
0
100
AcDbPoint
10
41.1
20
14
30
0
39
0
210
0
220
0
230
1
50
360
0
POINT
5
1C2
100
AcDbEntity
8
Defpoints
62
0
6
ByLayer
370
-1
48
1
60
0
100
AcDbPoint
10
41.1
20
-11.75
30
0
39
0
210
0
220
0
230
1
50
360
0
ENDBLK
5
1B9
100
AcDbEntity
8
0
100
AcDbBlockEnd
0
BLOCK
5
1CA
100
AcDbEntity
8
0
100
AcDbBlockBegin
2
_U1
70
0
10
0
20
0
30
0
3
_U1
0
MTEXT
5
1C4
100
AcDbEntity
8
2
62
256
6
ByLayer
370
18
48
1
60
0
100
AcDbMText
10
30.632467
20
-10.717366
30
0
210
0
220
0
230
1
1
\W0.5321;18
40
3.5
41
0
44
1.084337
50
0
71
7
72
5
7
iso_b_vert
0
LINE
5
1C5
100
AcDbEntity
8
2
62
256
6
ByLayer
370
13
48
1
60
0
100
AcDbLine
10
23.1
20
9.7375
30
0
11
23.1
21
-13.75
31
0
39
0
210
0
220
0
230
1
0
LINE
5
1C6
100
AcDbEntity
8
2
62
256
6
ByLayer
370
13
48
1
60
0
100
AcDbLine
10
41.1
20
12.4125
30
0
11
41.1
21
-13.75
31
0
39
0
210
0
220
0
230
1
0
LINE
5
1C7
100
AcDbEntity
8
2
62
256
6
ByLayer
370
13
48
1
60
0
100
AcDbLine
10
23.1
20
-11.75
30
0
11
41.1
21
-11.75
31
0
39
0
210
0
220
0
230
1
0
SOLID
5
1C8
100
AcDbEntity
8
2
62
256
6
ByLayer
370
18
48
1
60
0
100
AcDbTrace
10
23.1
20
-11.75
30
0
11
26.599998
21
-11.289216
31
0
12
26.600002
22
-12.210784
32
0
13
26.600002
23
-12.210784
33
0
39
0
210
0
220
0
230
1
0
SOLID
5
1C9
100
AcDbEntity
8
2
62
256
6
ByLayer
370
18
48
1
60
0
100
AcDbTrace
10
41.1
20
-11.75
30
0
11
37.600002
21
-12.210784
31
0
12
37.599998
22
-11.289216
32
0
13
37.599998
23
-11.289216
33
0
39
0
210
0
220
0
230
1
0
ENDBLK
5
1CB
100
AcDbEntity
8
0
100
AcDbBlockEnd
0
BLOCK
5
1D0
100
AcDbEntity
8
0
100
AcDbBlockBegin
2
*D5
70
1
10
0
20
0
30
0
3
*D5
0
LINE
5
1D2
100
AcDbEntity
8
0
62
256
6
ByLayer
370
-2
48
1
60
0
100
AcDbLine
10
42.6875
20
14
30
0
11
67.85
21
14
31
0
39
0
210
0
220
0
230
1
0
LINE
5
1D3
100
AcDbEntity
8
0
62
256
6
ByLayer
370
-2
48
1
60
0
100
AcDbLine
10
1.5875
20
0
30
0
11
67.85
21
0
31
0
39
0
210
0
220
0
230
1
0
LINE
5
1D4
100
AcDbEntity
8
0
62
256
6
ByLayer
370
-2
48
1
60
0
100
AcDbLine
10
65.85
20
17.5
30
0
11
65.85
21
21
31
0
39
0
210
0
220
0
230
1
0
LINE
5
1D5
100
AcDbEntity
8
0
62
256
6
ByLayer
370
-2
48
1
60
0
100
AcDbLine
10
65.85
20
-3.5
30
0
11
65.85
21
-7
31
0
39
0
210
0
220
0
230
1
0
SOLID
5
1D6
100
AcDbEntity
8
0
62
256
6
ByLayer
370
-1
48
1
60
0
100
AcDbTrace
10
65.266667
20
17.5
30
0
11
66.433333
21
17.5
31
0
12
65.85
22
14
32
0
13
65.85
23
14
33
0
39
0
210
0
220
0
230
1
0
SOLID
5
1D7
100
AcDbEntity
8
0
62
256
6
ByLayer
370
-1
48
1
60
0
100
AcDbTrace
10
66.433333
20
-3.5
30
0
11
65.266667
21
-3.5
31
0
12
65.85
22
0
32
0
13
65.85
23
0
33
0
39
0
210
0
220
0
230
1
0
MTEXT
5
1D8
100
AcDbEntity
8
0
62
256
6
ByLayer
370
18
48
1
60
0
100
AcDbMText
10
58.85
20
7
30
0
210
0
220
0
230
1
1
\A1;14
40
3.5
41
0
44
1
50
90
71
5
72
5
7
iso_b_vert
0
POINT
5
1D9
100
AcDbEntity
8
Defpoints
62
0
6
ByLayer
370
-1
48
1
60
0
100
AcDbPoint
10
41.1
20
14
30
0
39
0
210
0
220
0
230
1
50
360
0
POINT
5
1DA
100
AcDbEntity
8
Defpoints
62
0
6
ByLayer
370
-1
48
1
60
0
100
AcDbPoint
10
0
20
0
30
0
39
0
210
0
220
0
230
1
50
360
0
POINT
5
1DB
100
AcDbEntity
8
Defpoints
62
0
6
ByLayer
370
-1
48
1
60
0
100
AcDbPoint
10
65.85
20
0
30
0
39
0
210
0
220
0
230
1
50
360
0
ENDBLK
5
1D1
100
AcDbEntity
8
0
100
AcDbBlockEnd
0
BLOCK
5
1E3
100
AcDbEntity
8
0
100
AcDbBlockBegin
2
_U2
70
0
10
0
20
0
30
0
3
_U2
0
MTEXT
5
1DD
100
AcDbEntity
8
2
62
256
6
ByLayer
370
18
48
1
60
0
100
AcDbMText
10
65.160366
20
5.3202
30
0
210
0
220
0
230
1
1
\W0.5785;14
40
3.5
41
0
44
1.084337
50
90
71
7
72
5
7
iso_b_vert
0
LINE
5
1DE
100
AcDbEntity
8
2
62
256
6
ByLayer
370
13
48
1
60
0
100
AcDbLine
10
42.6875
20
14
30
0
11
67.85
21
14
31
0
39
0
210
0
220
0
230
1
0
LINE
5
1DF
100
AcDbEntity
8
2
62
256
6
ByLayer
370
13
48
1
60
0
100
AcDbLine
10
1.5875
20
0
30
0
11
67.85
21
0
31
0
39
0
210
0
220
0
230
1
0
LINE
5
1E0
100
AcDbEntity
8
2
62
256
6
ByLayer
370
13
48
1
60
0
100
AcDbLine
10
65.85
20
14
30
0
11
65.85
21
0
31
0
39
0
210
0
220
0
230
1
0
SOLID
5
1E1
100
AcDbEntity
8
2
62
256
6
ByLayer
370
18
48
1
60
0
100
AcDbTrace
10
65.85
20
14
30
0
11
66.310784
21
10.500002
31
0
12
65.389216
22
10.499998
32
0
13
65.389216
23
10.499998
33
0
39
0
210
0
220
0
230
1
0
SOLID
5
1E2
100
AcDbEntity
8
2
62
256
6
ByLayer
370
18
48
1
60
0
100
AcDbTrace
10
65.85
20
0
30
0
11
65.389216
21
3.499998
31
0
12
66.310784
22
3.500002
32
0
13
66.310784
23
3.500002
33
0
39
0
210
0
220
0
230
1
0
ENDBLK
5
1E4
100
AcDbEntity
8
0
100
AcDbBlockEnd
0
BLOCK
5
1E9
100
AcDbEntity
8
0
100
AcDbBlockBegin
2
*D7
70
1
10
0
20
0
30
0
3
*D7
0
LINE
5
1EB
100
AcDbEntity
8
0
62
256
6
ByLayer
370
-2
48
1
60
0
100
AcDbLine
10
42.6875
20
14
30
0
11
54.85
21
14
31
0
39
0
210
0
220
0
230
1
0
LINE
5
1EC
100
AcDbEntity
8
0
62
256
6
ByLayer
370
-2
48
1
60
0
100
AcDbLine
10
42.6875
20
11
30
0
11
54.85
21
11
31
0
39
0
210
0
220
0
230
1
0
LINE
5
1ED
100
AcDbEntity
8
0
62
256
6
ByLayer
370
-2
48
1
60
0
100
AcDbLine
10
52.85
20
17.5
30
0
11
52.85
21
21
31
0
39
0
210
0
220
0
230
1
0
LINE
5
1EE
100
AcDbEntity
8
0
62
256
6
ByLayer
370
-2
48
1
60
0
100
AcDbLine
10
52.85
20
7.5
30
0
11
52.85
21
4
31
0
39
0
210
0
220
0
230
1
0
SOLID
5
1EF
100
AcDbEntity
8
0
62
256
6
ByLayer
370
-1
48
1
60
0
100
AcDbTrace
10
52.266667
20
17.5
30
0
11
53.433333
21
17.5
31
0
12
52.85
22
14
32
0
13
52.85
23
14
33
0
39
0
210
0
220
0
230
1
0
SOLID
5
1F0
100
AcDbEntity
8
0
62
256
6
ByLayer
370
-1
48
1
60
0
100
AcDbTrace
10
53.433333
20
7.5
30
0
11
52.266667
21
7.5
31
0
12
52.85
22
11
32
0
13
52.85
23
11
33
0
39
0
210
0
220
0
230
1
0
MTEXT
5
1F1
100
AcDbEntity
8
0
62
256
6
ByLayer
370
18
48
1
60
0
100
AcDbMText
10
45.85
20
12.5
30
0
210
0
220
0
230
1
1
\A1;3
40
3.5
41
0
44
1
50
90
71
5
72
5
7
iso_b_vert
0
POINT
5
1F2
100
AcDbEntity
8
Defpoints
62
0
6
ByLayer
370
-1
48
1
60
0
100
AcDbPoint
10
41.1
20
14
30
0
39
0
210
0
220
0
230
1
50
360
0
POINT
5
1F3
100
AcDbEntity
8
Defpoints
62
0
6
ByLayer
370
-1
48
1
60
0
100
AcDbPoint
10
41.1
20
11
30
0
39
0
210
0
220
0
230
1
50
360
0
POINT
5
1F4
100
AcDbEntity
8
Defpoints
62
0
6
ByLayer
370
-1
48
1
60
0
100
AcDbPoint
10
52.85
20
11
30
0
39
0
210
0
220
0
230
1
50
360
0
ENDBLK
5
1EA
100
AcDbEntity
8
0
100
AcDbBlockEnd
0
BLOCK
5
1FC
100
AcDbEntity
8
0
100
AcDbBlockBegin
2
_U3
70
0
10
0
20
0
30
0
3
_U3
0
MTEXT
5
1F6
100
AcDbEntity
8
2
62
256
6
ByLayer
370
18
48
1
60
0
100
AcDbMText
10
52.160366
20
11.874767
30
0
210
0
220
0
230
1
1
\W0.5404;3
40
3.5
41
0
44
1.084337
50
90
71
7
72
5
7
iso_b_vert
0
LINE
5
1F7
100
AcDbEntity
8
2
62
256
6
ByLayer
370
13
48
1
60
0
100
AcDbLine
10
42.6875
20
14
30
0
11
54.85
21
14
31
0
39
0
210
0
220
0
230
1
0
LINE
5
1F8
100
AcDbEntity
8
2
62
256
6
ByLayer
370
13
48
1
60
0
100
AcDbLine
10
42.6875
20
11
30
0
11
54.85
21
11
31
0
39
0
210
0
220
0
230
1
0
LINE
5
1F9
100
AcDbEntity
8
2
62
256
6
ByLayer
370
13
48
1
60
0
100
AcDbLine
10
52.85
20
22.75
30
0
11
52.85
21
2.25
31
0
39
0
210
0
220
0
230
1
0
SOLID
5
1FA
100
AcDbEntity
8
2
62
256
6
ByLayer
370
18
48
1
60
0
100
AcDbTrace
10
52.85
20
14
30
0
11
52.389216
21
17.499998
31
0
12
53.310784
22
17.500002
32
0
13
53.310784
23
17.500002
33
0
39
0
210
0
220
0
230
1
0
SOLID
5
1FB
100
AcDbEntity
8
2
62
256
6
ByLayer
370
18
48
1
60
0
100
AcDbTrace
10
52.85
20
11
30
0
11
53.310784
21
7.500002
31
0
12
52.389216
22
7.499998
32
0
13
52.389216
23
7.499998
33
0
39
0
210
0
220
0
230
1
0
ENDBLK
5
1FD
100
AcDbEntity
8
0
100
AcDbBlockEnd
0
ENDSEC
0
SECTION
2
ENTITIES
0
ARC
5
FD
100
AcDbEntity
8
1
62
256
6
ByLayer
370
18
48
1
60
0
100
AcDbCircle
39
0
10
16.5
20
0.875
30
0
40
0.5
210
0
220
0
230
1
100
AcDbArc
50
90
51
180
0
ARC
5
FF
100
AcDbEntity
8
1
62
256
6
ByLayer
370
18
48
1
60
0
100
AcDbCircle
39
0
10
16
20
6.5
30
0
40
1.416
210
0
220
0
230
1
100
AcDbArc
50
240.190711
51
299.809289
0
ARC
5
100
100
AcDbEntity
8
1
62
256
6
ByLayer
370
18
48
1
60
0
100
AcDbCircle
39
0
10
16
20
6.5
30
0
40
1.416
210
0
220
0
230
1
100
AcDbArc
50
299.809289
51
353.807562
0
ARC
5
101
100
AcDbEntity
8
1
62
256
6
ByLayer
370
18
48
1
60
0
100
AcDbCircle
39
0
10
16
20
6.5
30
0
40
1.416
210
0
220
0
230
1
100
AcDbArc
50
6.192438
51
60.190711
0
ARC
5
102
100
AcDbEntity
8
1
62
256
6
ByLayer
370
18
48
1
60
0
100
AcDbCircle
39
0
10
16
20
6.5
30
0
40
1.416
210
0
220
0
230
1
100
AcDbArc
50
60.190711
51
119.809289
0
ARC
5
103
100
AcDbEntity
8
1
62
256
6
ByLayer
370
18
48
1
60
0
100
AcDbCircle
39
0
10
16
20
6.5
30
0
40
1.416
210
0
220
0
230
1
100
AcDbArc
50
186.192438
51
240.190711
0
ARC
5
104
100
AcDbEntity
8
1
62
256
6
ByLayer
370
18
48
1
60
0
100
AcDbCircle
39
0
10
16
20
6.5
30
0
40
1.416
210
0
220
0
230
1
100
AcDbArc
50
119.809289
51
173.807562
0
ARC
5
105
100
AcDbEntity
8
1
62
256
6
ByLayer
370
18
48
1
60
0
100
AcDbCircle
39
0
10
16
20
6.5
30
0
40
1.416
210
0
220
0
230
1
100
AcDbArc
50
353.807562
51
6.192438
0
ARC
5
108
100
AcDbEntity
8
1
62
256
6
ByLayer
370
18
48
1
60
0
100
AcDbCircle
39
0
10
16
20
6.5
30
0
40
1.9685
210
0
220
0
230
1
100
AcDbArc
50
329.618578
51
30.381422
0
ARC
5
109
100
AcDbEntity
8
1
62
256
6
ByLayer
370
18
48
1
60
0
100
AcDbCircle
39
0
10
16
20
6.5
30
0
40
1.416
210
0
220
0
230
1
100
AcDbArc
50
173.807562
51
186.192438
0
ARC
5
10A
100
AcDbEntity
8
1
62
256
6
ByLayer
370
18
48
1
60
0
100
AcDbCircle
39
0
10
16
20
6.5
30
0
40
1.9685
210
0
220
0
230
1
100
AcDbArc
50
149.618578
51
210.381422
0
ARC
5
10B
100
AcDbEntity
8
1
62
256
6
ByLayer
370
18
48
1
60
0
100
AcDbCircle
39
0
10
16
20
6.5
30
0
40
1.9685
210
0
220
0
230
1
100
AcDbArc
50
270
51
329.618578
0
ARC
5
10C
100
AcDbEntity
8
1
62
256
6
ByLayer
370
18
48
1
60
0
100
AcDbCircle
39
0
10
16
20
6.5
30
0
40
1.9685
210
0
220
0
230
1
100
AcDbArc
50
90
51
149.618578
0
ARC
5
10D
100
AcDbEntity
8
1
62
256
6
ByLayer
370
18
48
1
60
0
100
AcDbCircle
39
0
10
16
20
6.5
30
0
40
1.9685
210
0
220
0
230
1
100
AcDbArc
50
210.381422
51
270
0
ARC
5
10E
100
AcDbEntity
8
1
62
256
6
ByLayer
370
18
48
1
60
0
100
AcDbCircle
39
0
10
16
20
6.5
30
0
40
1.9685
210
0
220
0
230
1
100
AcDbArc
50
30.381422
51
90
0
CIRCLE
5
FE
100
AcDbEntity
8
1
62
256
6
ByLayer
370
18
48
1
60
0
100
AcDbCircle
10
16
20
6.5
30
0
40
4.55
39
0
210
0
220
0
230
1
0
CIRCLE
5
106
100
AcDbEntity
8
1
62
256
6
ByLayer
370
18
48
1
60
0
100
AcDbCircle
10
16
20
6.5
30
0
40
4.25
39
0
210
0
220
0
230
1
0
CIRCLE
5
107
100
AcDbEntity
8
1
62
256
6
ByLayer
370
18
48
1
60
0
100
AcDbCircle
10
16
20
6.5
30
0
40
3.75
39
0
210
0
220
0
230
1
0
ELLIPSE
5
10F
100
AcDbEntity
8
1
62
256
6
ByLayer
370
18
48
1
60
0
100
AcDbEllipse
10
35.715675
20
-66.199999
30
0
11
-9.85371664180434E-14
21
77.5249990686104
31
0
210
0
220
0
230
1
40
0.97015
41
0.0175738342979487
42
0.0580784372987901
0
ELLIPSE
5
110
100
AcDbEntity
8
1
62
256
6
ByLayer
370
18
48
1
60
0
100
AcDbEllipse
10
36.712891
20
-66.2
30
0
11
-92.3906973035519
21
1.1314223495201E-14
31
0
210
0
220
0
230
1
40
0.8391
41
-1.51271788986782
42
-1.42291744655472
0
ELLIPSE
5
111
100
AcDbEntity
8
1
62
256
6
ByLayer
370
18
48
1
60
0
100
AcDbEllipse
10
22.411
20
-34
30
0
11
-47.6749999733247
21
5.83831078858151E-15
31
0
210
0
220
0
230
1
40
1
41
-1.29537923313659
42
-1.22966133512648
0
ELLIPSE
5
112
100
AcDbEntity
8
1
62
256
6
ByLayer
370
18
48
1
60
0
100
AcDbEllipse
10
-0.55432
20
-34
30
0
11
-6.05967038459948E-14
21
47.6750000024497
31
0
210
0
220
0
230
1
40
0.771313
41
-0.275417093527554
42
-0.153556438496349
0
ELLIPSE
5
113
100
AcDbEntity
8
1
62
256
6
ByLayer
370
18
48
1
60
0
100
AcDbEllipse
10
0.708583
20
-34
30
0
11
-6.05967038417365E-14
21
47.6749999990995
31
0
210
0
220
0
230
1
40
0.771313
41
-0.266379840578246
42
-0.140605903621537
0
ELLIPSE
5
114
100
AcDbEntity
8
1
62
256
6
ByLayer
370
18
48
1
60
0
100
AcDbEllipse
10
36.712891
20
-34
30
0
11
-56.816852525398
21
6.95782786067914E-15
31
0
210
0
220
0
230
1
40
0.8391
41
-1.47626651225996
42
-1.3044164862121
0
ELLIPSE
5
115
100
AcDbEntity
8
1
62
256
6
ByLayer
370
18
48
1
60
0
100
AcDbEllipse
10
35.715675
20
-34
30
0
11
-6.05967039537887E-14
21
47.6750000872575
31
0
210
0
220
0
230
1
40
0.97015
41
0.028362760193736
42
0.0945298144462079
0
ELLIPSE
5
116
100
AcDbEntity
8
1
62
256
6
ByLayer
370
18
48
1
60
0
100
AcDbEllipse
10
-1133.681389
20
-33.992811
30
0
11
3857.29288175432
21
15.7180931654838
31
0
210
0
220
0
230
1
40
0.011667
41
1.26310584173684
42
1.26594184658893
0
ELLIPSE
5
117
100
AcDbEntity
8
1
62
256
6
ByLayer
370
18
48
1
60
0
100
AcDbEllipse
10
11.884652
20
-33.99992
30
0
11
-1415.49749437047
21
1.73342722542573E-13
31
0
210
0
220
0
230
1
40
0.033681
41
-1.57079628455531
42
-1.56423156246604
0
ELLIPSE
5
118
100
AcDbEntity
8
1
62
256
6
ByLayer
370
18
48
1
60
0
100
AcDbEllipse
10
45.542918
20
-66.2
30
0
11
-9.85371676172311E-14
21
77.5250000120821
31
0
210
0
220
0
230
1
40
0.57735
41
0.117405945412378
42
0.246274250019214
0
ELLIPSE
5
119
100
AcDbEntity
8
1
62
256
6
ByLayer
370
18
48
1
60
0
100
AcDbEllipse
10
37.328061
20
14.45
30
0
11
-0.897993681842833
21
1.09968876847708E-16
31
0
210
0
220
0
230
1
40
0.890875
41
1.5707963267949
42
1.84644008772952
0
ELLIPSE
5
11A
100
AcDbEntity
8
1
62
256
6
ByLayer
370
18
48
1
60
0
100
AcDbEllipse
10
35.723179
20
13.525438
30
0
11
-0.850692273116201
21
1.0417631628057E-16
31
0
210
0
220
0
230
1
40
0.176327
41
0
42
0.335975880973059
0
ELLIPSE
5
11B
100
AcDbEntity
8
1
62
256
6
ByLayer
370
18
48
1
60
0
100
AcDbEllipse
10
37.195006
20
12.933936
30
0
11
-1.13425636391763
21
1.389017550117E-16
31
0
210
0
220
0
230
1
40
0.176327
41
0.335975881009203
42
1.15441440250533
0
ELLIPSE
5
11C
100
AcDbEntity
8
1
62
256
6
ByLayer
370
18
48
1
60
0
100
AcDbEllipse
10
41.323799
20
14.580141
30
0
11
11.3425636708861
21
3.54754739147003E-09
31
0
210
0
220
0
230
1
40
0.176327
41
-1.98717825193337
42
-1.9198621782076
0
ELLIPSE
5
11D
100
AcDbEntity
8
1
62
256
6
ByLayer
370
18
48
1
60
0
100
AcDbEllipse
10
37.090371
20
12.5
30
0
11
-1.19096918211259
21
1.45846842762172E-16
31
0
210
0
220
0
230
1
40
0.176327
41
3.14159265358979
42
-1.91986217719383
0
ELLIPSE
5
11E
100
AcDbEntity
8
1
62
256
6
ByLayer
370
18
48
1
60
0
100
AcDbEllipse
10
37.090371
20
12.5
30
0
11
-1.1909691821121
21
1.45846842762112E-16
31
0
210
0
220
0
230
1
40
0.176327
41
1.91986217719358
42
3.14159265358979
0
ELLIPSE
5
11F
100
AcDbEntity
8
1
62
256
6
ByLayer
370
18
48
1
60
0
100
AcDbEllipse
10
41.323799
20
10.419859
30
0
11
-11.3425636699608
21
3.46274764196375E-09
31
0
210
0
220
0
230
1
40
0.176327
41
-1.22173047539836
42
-1.15441440166742
0
ELLIPSE
5
120
100
AcDbEntity
8
1
62
256
6
ByLayer
370
18
48
1
60
0
100
AcDbEllipse
10
37.195006
20
12.066064
30
0
11
-1.13425636391671
21
1.38901755011587E-16
31
0
210
0
220
0
230
1
40
0.176327
41
-1.15441440250567
42
-0.335975881008932
0
ELLIPSE
5
121
100
AcDbEntity
8
1
62
256
6
ByLayer
370
18
48
1
60
0
100
AcDbEllipse
10
35.723179
20
11.474562
30
0
11
-0.850692273023779
21
1.04176316269252E-16
31
0
210
0
220
0
230
1
40
0.176327
41
-0.335975880991592
42
0
0
ELLIPSE
5
122
100
AcDbEntity
8
1
62
256
6
ByLayer
370
18
48
1
60
0
100
AcDbEllipse
10
37.328061
20
10.55
30
0
11
-0.897993681828975
21
1.09968876846011E-16
31
0
210
0
220
0
230
1
40
0.890875
41
-1.84644008773378
42
-1.5707963267949
0
ELLIPSE
5
123
100
AcDbEntity
8
1
62
256
6
ByLayer
370
18
48
1
60
0
100
AcDbEllipse
10
36.671498
20
13.25
30
0
11
-2.3287088041805E-17
21
-0.126773189709051
31
0
210
0
220
0
230
1
40
0.984808
41
0
42
6.28318530717959
0
ELLIPSE
5
124
100
AcDbEntity
8
1
62
256
6
ByLayer
370
18
48
1
60
0
100
AcDbEllipse
10
24.871939
20
14.45
30
0
11
-0.897993681821789
21
1.09968876845131E-16
31
0
210
0
220
0
230
1
40
0.890875
41
1.29515256585378
42
1.49678648581783
0
POINT
5
70
100
AcDbEntity
8
81
62
256
6
ByLayer
370
18
48
1
60
0
100
AcDbPoint
10
41.1
20
14
30
0
39
0
210
0
220
0
230
1
50
360
0
POINT
5
72
100
AcDbEntity
8
80
62
256
6
ByLayer
370
18
48
1
60
0
100
AcDbPoint
10
0
20
0
30
0
39
0
210
0
220
0
230
1
50
360
0
POINT
5
74
100
AcDbEntity
8
1
62
256
6
ByLayer
370
18
48
1
60
1
100
AcDbPoint
10
0
20
0
30
0
39
0
210
0
220
0
230
1
50
360
0
POINT
5
76
100
AcDbEntity
8
1
62
256
6
ByLayer
370
18
48
1
60
1
100
AcDbPoint
10
41.1
20
14
30
0
39
0
210
0
220
0
230
1
50
360
0
POINT
5
77
100
AcDbEntity
8
1
62
256
6
ByLayer
370
18
48
1
60
1
100
AcDbPoint
10
23.1
20
11.325
30
0
39
0
210
0
220
0
230
1
50
360
0
POINT
5
78
100
AcDbEntity
8
1
62
256
6
ByLayer
370
18
48
1
60
1
100
AcDbPoint
10
41.1
20
14
30
0
39
0
210
0
220
0
230
1
50
360
0
POINT
5
79
100
AcDbEntity
8
1
62
256
6
ByLayer
370
18
48
1
60
1
100
AcDbPoint
10
41.1
20
14
30
0
39
0
210
0
220
0
230
1
50
360
0
POINT
5
7A
100
AcDbEntity
8
1
62
256
6
ByLayer
370
18
48
1
60
1
100
AcDbPoint
10
0
20
0
30
0
39
0
210
0
220
0
230
1
50
360
0
POINT
5
7B
100
AcDbEntity
8
1
62
256
6
ByLayer
370
18
48
1
60
1
100
AcDbPoint
10
41.1
20
14
30
0
39
0
210
0
220
0
230
1
50
360
0
POINT
5
7C
100
AcDbEntity
8
1
62
256
6
ByLayer
370
18
48
1
60
1
100
AcDbPoint
10
41.1
20
11
30
0
39
0
210
0
220
0
230
1
50
360
0
SPLINE
5
125
100
AcDbEntity
8
1
62
256
6
ByLayer
370
18
48
1
60
0
100
AcDbSpline
70
4
71
3
72
8
73
4
40
0
40
0
40
0
40
0
40
1
40
1
40
1
40
1
41
1
10
8.97509300114021
20
-0.269594177820636
30
0
41
1
10
8.97048024229872
20
-0.263188796058728
30
0
41
1
10
8.96535566342396
20
-0.256648768658465
30
0
41
1
10
8.95982040671319
20
-0.249999999999829
30
0
0
SPLINE
5
126
100
AcDbEntity
8
1
62
256
6
ByLayer
370
18
48
1
60
0
100
AcDbSpline
70
4
71
3
72
12
73
8
40
0
40
0
40
0
40
0
40
0.273409229454538
40
0.273409229454538
40
0.546818458909075
40
0.546818458909075
40
1
40
1
40
1
40
1
41
1
10
34.9985087420386
20
11.179193180948
30
0
41
1
10
35.0822053796002
20
11.1794791864836
30
0
41
1
10
35.1659020186364
20
11.1797647608143
30
0
41
1
10
35.3332952996442
20
11.1803350472621
30
0
41
1
10
35.4169919416179
20
11.1806197593791
30
0
41
1
10
35.6394175296899
20
11.1813752423957
30
0
41
1
10
35.7781464783524
20
11.1818452601608
30
0
41
1
10
35.9168754310102
20
11.182314094228
30
0
0
SPLINE
5
127
100
AcDbEntity
8
1
62
256
6
ByLayer
370
18
48
1
60
0
100
AcDbSpline
70
4
71
3
72
8
73
4
40
0
40
0
40
0
40
0
40
1
40
1
40
1
40
1
41
1
10
8.97509300113904
20
-0.269594177821347
30
0
41
1
10
8.96602634583104
20
-0.263052313104737
30
0
41
1
10
8.95695689263579
20
-0.256520867363747
30
0
41
1
10
8.94788459874798
20
-0.25
30
0
0
SPLINE
5
128
100
AcDbEntity
8
1
62
256
6
ByLayer
370
18
48
1
60
0
100
AcDbSpline
70
4
71
3
72
20
73
16
40
0
40
0
40
0
40
0
40
0.124999999999998
40
0.124999999999998
40
0.249999999999995
40
0.249999999999995
40
0.374999999999993
40
0.374999999999993
40
0.499999999999991
40
0.499999999999991
40
0.624999999999988
40
0.624999999999988
40
0.749999999999986
40
0.749999999999986
40
1
40
1
40
1
40
1
41
1
10
9.5070945452878
20
-0.324980947161691
30
0
41
1
10
9.50446684643609
20
-0.324980947161691
30
0
41
1
10
9.50120547788177
20
-0.324325438354265
30
0
41
1
10
9.49383752136634
20
-0.321978904858042
30
0
41
1
10
9.48970604367264
20
-0.320287538788847
30
0
41
1
10
9.48067606109117
20
-0.316017460644701
30
0
41
1
10
9.47584069438224
20
-0.313466776029827
30
0
41
1
10
9.4657554788725
20
-0.307741778715837
30
0
41
1
10
9.46048600059484
20
-0.304557321014272
30
0
41
1
10
9.44955246765534
20
-0.297627228915957
30
0
41
1
10
9.44387251607552
20
-0.293868908437645
30
0
41
1
10
9.43240356571505
20
-0.286013315481341
30
0
41
1
10
9.42658457612515
20
-0.281897606492322
30
0
41
1
10
9.40890440191322
20
-0.269050270820657
30
0
41
1
10
9.39682270649575
20
-0.259824535101188
30
0
41
1
10
9.3844789550599
20
-0.25
30
0
0
SPLINE
5
129
100
AcDbEntity
8
1
62
256
6
ByLayer
370
18
48
1
60
0
100
AcDbSpline
70
4
71
2
72
6
73
3
40
0
40
0
40
0
40
1
40
1
40
1
41
1
10
9.57062122153147
20
-0.324980947161691
30
0
41
1
10
9.53999786148736
20
-0.324980947161691
30
0
41
1
10
9.50723215695228
20
-0.324980947161691
30
0
0
SPLINE
5
12A
100
AcDbEntity
8
1
62
256
6
ByLayer
370
18
48
1
60
0
100
AcDbSpline
70
4
71
3
72
22
73
18
40
0
40
0
40
0
40
0
40
0.125
40
0.125
40
0.25
40
0.25
40
0.375
40
0.375
40
0.5
40
0.5
40
0.625
40
0.625
40
0.75
40
0.75
40
0.875
40
0.875
40
1
40
1
40
1
40
1
41
1
10
9.53081289439862
20
-0.249999999999943
30
0
41
1
10
9.53505931314226
20
-0.254861141173507
30
0
41
1
10
9.53914014588517
20
-0.259653435704053
30
0
41
1
10
9.54692226638943
20
-0.26908108225922
30
0
41
1
10
9.55063275024946
20
-0.273730195609943
30
0
41
1
10
9.55744018536603
20
-0.282630010692912
30
0
41
1
10
9.56055905507199
20
-0.28690587896952
30
0
41
1
10
9.56613810398775
20
-0.295057128232287
30
0
41
1
10
9.56861585716385
20
-0.298965833156615
30
0
41
1
10
9.57263907119452
20
-0.306067076874996
30
0
41
1
10
9.5741997112676
20
-0.309275100347463
30
0
41
1
10
9.57631860575586
20
-0.314932710155148
30
0
41
1
10
9.57685514810564
20
-0.317350053736362
30
0
41
1
10
9.57683167984814
20
-0.321175545408039
30
0
41
1
10
9.57628182451117
20
-0.322618634072569
30
0
41
1
10
9.57410536556662
20
-0.32453310272399
30
0
41
1
10
9.57251449079982
20
-0.324980699935452
30
0
41
1
10
9.57048139756094
20
-0.324980947060027
30
0
0
SPLINE
5
12B
100
AcDbEntity
8
1
62
256
6
ByLayer
370
18
48
1
60
0
100
AcDbSpline
70
4
71
3
72
12
73
8
40
0
40
0
40
0
40
0
40
0.25
40
0.25
40
0.5
40
0.5
40
1
40
1
40
1
40
1
41
1
10
34.393999634541
20
11.3130289112297
30
0
41
1
10
34.4187981356587
20
11.3895824649748
30
0
41
1
10
34.4425896771273
20
11.466908870524
30
0
41
1
10
34.4890279923124
20
11.6222978049655
30
0
41
1
10
34.5116472514965
20
11.7003280591562
30
0
41
1
10
34.5783911822998
20
11.9350422860005
30
0
41
1
10
34.6214322055378
20
12.0923328197008
30
0
41
1
10
34.6638003328162
20
12.25
30
0
0
SPLINE
5
12C
100
AcDbEntity
8
1
62
256
6
ByLayer
370
18
48
1
60
0
100
AcDbSpline
70
4
71
3
72
8
73
4
40
0
40
0
40
0
40
0
40
1
40
1
40
1
40
1
41
1
10
34.6638003328162
20
12.25
30
0
41
1
10
34.7026987739192
20
12.2704212773225
30
0
41
1
10
34.741511570766
20
12.291162431064
30
0
41
1
10
34.7802715088965
20
12.3121010091006
30
0
0
SPLINE
5
12D
100
AcDbEntity
8
1
62
256
6
ByLayer
370
18
48
1
60
0
100
AcDbSpline
70
4
71
3
72
18
73
14
40
0
40
0
40
0
40
0
40
0.249999999999993
40
0.249999999999993
40
0.375000000000002
40
0.375000000000002
40
0.500000000000011
40
0.500000000000011
40
0.625000000000021
40
0.625000000000021
40
0.75000000000003
40
0.75000000000003
40
1
40
1
40
1
40
1
41
1
10
34.8500000000053
20
12.4511810389469
30
0
41
1
10
34.8500000000053
20
12.4358324946182
30
0
41
1
10
34.848227700362
20
12.4205282172852
30
0
41
1
10
34.8432281689773
20
12.3990283425917
30
0
41
1
10
34.8411732159972
20
12.3920650970702
30
0
41
1
10
34.8362812874853
20
12.3785480546616
30
0
41
1
10
34.8334409557019
20
12.3720146675935
30
0
41
1
10
34.827196025976
20
12.3598217468452
30
0
41
1
10
34.8237697540224
20
12.3540973397703
30
0
41
1
10
34.8163247014677
20
12.3433741334294
30
0
41
1
10
34.8122681364232
20
12.3383388568583
30
0
41
1
10
34.7995110920796
20
12.3247001325068
30
0
41
1
10
34.7902534965698
20
12.3174933971678
30
0
41
1
10
34.7802715088965
20
12.3121010091006
30
0
0
SPLINE
5
12E
100
AcDbEntity
8
1
62
256
6
ByLayer
370
18
48
1
60
0
100
AcDbSpline
70
4
71
3
72
20
73
16
40
0
40
0
40
0
40
0
40
0.125
40
0.125
40
0.25
40
0.25
40
0.375
40
0.375
40
0.5
40
0.5
40
0.625000000000001
40
0.625000000000001
40
0.750000000000001
40
0.750000000000001
40
1
40
1
40
1
40
1
41
1
10
34.7802715088963
20
12.6878989908994
30
0
41
1
10
34.7852598767438
20
12.6852042154563
30
0
41
1
10
34.7900824753272
20
12.6820397054276
30
0
41
1
10
34.7993925342151
20
12.6747610157103
30
0
41
1
10
34.8039058839995
20
12.6706151999758
30
0
41
1
10
34.8123875914646
20
12.661519135205
30
0
41
1
10
34.8163703434729
20
12.6565662640604
30
0
41
1
10
34.8238109198991
20
12.6458371602263
30
0
41
1
10
34.8272922998829
20
12.6400130523269
30
0
41
1
10
34.8335665145094
20
12.6277165972179
30
0
41
1
10
34.8363470925789
20
12.6212854151622
30
0
41
1
10
34.8411956020291
20
12.607857468867
30
0
41
1
10
34.8432722054894
20
12.6008233142706
30
0
41
1
10
34.8483032683748
20
12.57906272116
30
0
41
1
10
34.85
20
12.5641490047044
30
0
41
1
10
34.85
20
12.5488189610524
30
0
0
SPLINE
5
12F
100
AcDbEntity
8
1
62
256
6
ByLayer
370
18
48
1
60
0
100
AcDbSpline
70
4
71
3
72
8
73
4
40
0
40
0
40
0
40
0
40
1
40
1
40
1
40
1
41
1
10
34.6638003328162
20
12.75
30
0
41
1
10
34.7026967756915
20
12.7295797717263
30
0
41
1
10
34.7415098707272
20
12.7088384873171
30
0
41
1
10
34.7802715088963
20
12.6878989908994
30
0
0
SPLINE
5
130
100
AcDbEntity
8
1
62
256
6
ByLayer
370
18
48
1
60
0
100
AcDbSpline
70
4
71
3
72
12
73
8
40
0
40
0
40
0
40
0
40
0.25
40
0.25
40
0.5
40
0.5
40
1
40
1
40
1
40
1
41
1
10
34.4040194052175
20
13.6558252999575
30
0
41
1
10
34.4277544484767
20
13.5815474980462
30
0
41
1
10
34.4505885208224
20
13.5067126403531
30
0
41
1
10
34.4952074253147
20
13.3564910679097
30
0
41
1
10
34.5169857333127
20
13.2810790540361
30
0
41
1
10
34.581309490228
20
13.0542695495829
30
0
41
1
10
34.6228707355519
20
12.9023138879632
30
0
41
1
10
34.6638003328165
20
12.7500000000002
30
0
0
SPLINE
5
131
100
AcDbEntity
8
1
62
256
6
ByLayer
370
18
48
1
60
0
100
AcDbSpline
70
4
71
3
72
20
73
16
40
0
40
0
40
0
40
0
40
0.125
40
0.125
40
0.25
40
0.25
40
0.375
40
0.375
40
0.5
40
0.5
40
0.625
40
0.625
40
0.75
40
0.75
40
1
40
1
40
1
40
1
41
1
10
-11.1320782392769
20
-0.324980947161748
30
0
41
1
10
-11.1352153779729
20
-0.324980947161748
30
0
41
1
10
-11.1379995581219
20
-0.324581483697585
30
0
41
1
10
-11.1425602599156
20
-0.322880500925294
30
0
41
1
10
-11.1443698180766
20
-0.321572915063996
30
0
41
1
10
-11.1468471997408
20
-0.317947268097811
30
0
41
1
10
-11.1474895806123
20
-0.315677554873219
30
0
41
1
10
-11.1475787917377
20
-0.310212274884577
30
0
41
1
10
-11.1470034342433
20
-0.306969162786629
30
0
41
1
10
-11.1447268949469
20
-0.29985100455238
30
0
41
1
10
-11.143039567215
20
-0.295963435139441
30
0
41
1
10
-11.1386768192221
20
-0.287590116805887
30
0
41
1
10
-11.1360204266698
20
-0.283150106968293
30
0
41
1
10
-11.1270564922387
20
-0.269508992532735
30
0
41
1
10
-11.1195900715259
20
-0.259735651200032
30
0
41
1
10
-11.1114500273989
20
-0.249980947154313
30
0
0
SPLINE
5
132
100
AcDbEntity
8
1
62
256
6
ByLayer
370
18
48
1
60
0
100
AcDbSpline
70
4
71
3
72
16
73
12
40
0
40
0
40
0
40
0
40
0.0991241039809844
40
0.0991241039809844
40
0.324343077985738
40
0.324343077985738
40
0.549562051990492
40
0.549562051990492
40
0.774781025995246
40
0.774781025995246
40
1
40
1
40
1
40
1
41
1
10
-10.9369189903132
20
-0.296247252501871
30
0
41
1
10
-10.9401655207047
20
-0.297843114270592
30
0
41
1
10
-10.943396632686
20
-0.299396040292919
30
0
41
1
10
-10.9539161602598
20
-0.304330463663092
30
0
41
1
10
-10.9611695861205
20
-0.307534381850928
30
0
41
1
10
-10.9751929157508
20
-0.313258941423413
30
0
41
1
10
-10.9819859246727
20
-0.31579302680268
30
0
41
1
10
-10.9950506921146
20
-0.320074036858045
30
0
41
1
10
-11.0013242982397
20
-0.321823931556139
30
0
41
1
10
-11.0131968590635
20
-0.324294057072933
30
0
41
1
10
-11.0186481431831
20
-0.324980947168001
30
0
41
1
10
-11.0234674519049
20
-0.324980947168172
30
0
0
SPLINE
5
133
100
AcDbEntity
8
1
62
256
6
ByLayer
370
18
48
1
60
0
100
AcDbSpline
70
4
71
3
72
14
73
10
40
0
40
0
40
0
40
0
40
0.0894598291365996
40
0.0894598291365996
40
0.3929732194244
40
0.3929732194244
40
0.6964866097122
40
0.6964866097122
40
1
40
1
40
1
40
1
41
1
10
-9.23069302614074
20
-0.311032527846464
30
0
41
1
10
-9.23599680282396
20
-0.311723378500744
30
0
41
1
10
-9.24129838173948
20
-0.312398183522987
30
0
41
1
10
-9.26457702802513
20
-0.315286220502173
30
0
41
1
10
-9.28248929514561
20
-0.317312073842714
30
0
41
1
10
-9.317971012982
20
-0.320786465315109
30
0
41
1
10
-9.33556537129778
20
-0.322240606435287
30
0
41
1
10
-9.3703773408957
20
-0.324333802127739
30
0
41
1
10
-9.3875976804225
20
-0.324980947161663
30
0
41
1
10
-9.4045488100268
20
-0.324980947161663
30
0
0
SPLINE
5
134
100
AcDbEntity
8
1
62
256
6
ByLayer
370
18
48
1
60
0
100
AcDbSpline
70
4
71
3
72
8
73
4
40
0
40
0
40
0
40
0
40
1
40
1
40
1
40
1
41
1
10
-9.96637832280624
20
-0.249980947161504
30
0
41
1
10
-9.86535047201168
20
-0.208886956077947
30
0
41
1
10
-9.76333499207151
20
-0.169915419793
30
0
41
1
10
-9.660217605339
20
-0.133311925570609
30
0
0
SPLINE
5
135
100
AcDbEntity
8
1
62
256
6
ByLayer
370
18
48
1
60
0
100
AcDbSpline
70
4
71
3
72
16
73
12
40
0
40
0
40
0
40
0
40
0.124999999999997
40
0.124999999999997
40
0.249999999999994
40
0.249999999999994
40
0.499999999999996
40
0.499999999999996
40
0.749999999999998
40
0.749999999999998
40
1
40
1
40
1
40
1
41
1
10
-10.2470436468637
20
-0.324980947161663
30
0
41
1
10
-10.2368176996361
20
-0.324980947160697
30
0
41
1
10
-10.2261105645492
20
-0.324200732781947
30
0
41
1
10
-10.2040252939894
20
-0.321595212906118
30
0
41
1
10
-10.1925916480194
20
-0.319751268507446
30
0
41
1
10
-10.1578378552941
20
-0.313070425791182
30
0
41
1
10
-10.1343736234426
20
-0.307193150124277
30
0
41
1
10
-10.0870307140286
20
-0.293653557543223
30
0
41
1
10
-10.0631479963767
20
-0.285965246733184
30
0
41
1
10
-10.0150264157267
20
-0.269095229194733
30
0
41
1
10
-9.99078675577488
20
-0.259909297798572
30
0
41
1
10
-9.96637832280616
20
-0.249980947161674
30
0
0
SPLINE
5
136
100
AcDbEntity
8
1
62
256
6
ByLayer
370
18
48
1
60
0
100
AcDbSpline
70
4
71
3
72
8
73
4
40
0
40
0
40
0
40
0
40
1
40
1
40
1
40
1
41
1
10
-11.1539311130555
20
-0.249980947161646
30
0
41
1
10
-11.1370643731009
20
-0.237366129676531
30
0
41
1
10
-11.120166047202
20
-0.224786456048179
30
0
41
1
10
-11.103235063126
20
-0.212243119288502
30
0
0
SPLINE
5
137
100
AcDbEntity
8
1
62
256
6
ByLayer
370
18
48
1
60
0
100
AcDbSpline
70
4
71
3
72
20
73
16
40
0
40
0
40
0
40
0
40
0.124999999999997
40
0.124999999999997
40
0.249999999999994
40
0.249999999999994
40
0.374999999999991
40
0.374999999999991
40
0.499999999999988
40
0.499999999999988
40
0.749999999999997
40
0.749999999999997
40
0.874999999999999
40
0.874999999999999
40
1
40
1
40
1
40
1
41
1
10
-11.2871772280887
20
-0.324980947161947
30
0
41
1
10
-11.2841126650964
20
-0.324980947161919
30
0
41
1
10
-11.2804336330612
20
-0.324326717375243
30
0
41
1
10
-11.2720438166112
20
-0.321927033528368
30
0
41
1
10
-11.2673785357809
20
-0.320189385940665
30
0
41
1
10
-11.2574809997012
20
-0.315925042907423
30
0
41
1
10
-11.2522175048208
20
-0.313387918152586
30
0
41
1
10
-11.2411564914624
20
-0.307626792034881
30
0
41
1
10
-11.2353751890956
20
-0.30440847513853
30
0
41
1
10
-11.2177208346944
20
-0.294078861253268
30
0
41
1
10
-11.205414819476
20
-0.286238759708993
30
0
41
1
10
-11.1863183862468
20
-0.273317667880235
30
0
41
1
10
-11.1798450150413
20
-0.268812423928693
30
0
41
1
10
-11.1669160865667
20
-0.259584653592867
30
0
41
1
10
-11.1604321264514
20
-0.25484312549068
30
0
41
1
10
-11.1539311130558
20
-0.249980947163749
30
0
0
SPLINE
5
138
100
AcDbEntity
8
1
62
256
6
ByLayer
370
18
48
1
60
0
100
AcDbSpline
70
4
71
3
72
30
73
26
40
0
40
0
40
0
40
0
40
0.0624999999999982
40
0.0624999999999982
40
0.124999999999997
40
0.124999999999997
40
0.249999999999993
40
0.249999999999993
40
0.312499999999991
40
0.312499999999991
40
0.37499999999999
40
0.37499999999999
40
0.499999999999983
40
0.499999999999983
40
0.562499999999982
40
0.562499999999982
40
0.624999999999981
40
0.624999999999981
40
0.749999999999984
40
0.749999999999984
40
0.812499999999985
40
0.812499999999985
40
0.874999999999987
40
0.874999999999987
40
1
40
1
40
1
40
1
41
1
10
10.1630807948133
20
0.875
30
0
41
1
10
10.1630807948133
20
0.888611598389531
30
0
41
1
10
10.1634229106751
20
0.90233473804895
30
0
41
1
10
10.1647950576133
20
0.929637042188773
30
0
41
1
10
10.1658189687721
20
0.943156192910664
30
0
41
1
10
10.1698767621814
20
0.983328367635892
30
0
41
1
10
10.1738903460554
20
1.00959859854385
30
0
41
1
10
10.1818836815989
20
1.04823306186862
30
0
41
1
10
10.1848843247539
20
1.06100383158724
30
0
41
1
10
10.1915440776094
20
1.08618669921529
30
0
41
1
10
10.1951674906063
20
1.09846886889591
30
0
41
1
10
10.2068920716582
20
1.13441526059285
30
0
41
1
10
10.2158421101627
20
1.15718513004282
30
0
41
1
10
10.2309673347538
20
1.18954867316901
30
0
41
1
10
10.2362938056151
20
1.20003653587057
30
0
41
1
10
10.2475336035718
20
1.22039396153269
30
0
41
1
10
10.2533890169325
20
1.23015571156287
30
0
41
1
10
10.2715524892908
20
1.25807357051426
30
0
41
1
10
10.2844916116683
20
1.27493958336478
30
0
41
1
10
10.3051385487059
20
1.29763439598165
30
0
41
1
10
10.3122282395104
20
1.30476318989145
30
0
41
1
10
10.3268338465609
20
1.31812437066793
30
0
41
1
10
10.3343194973799
20
1.3243232448834
30
0
41
1
10
10.3570150539348
20
1.34125326378336
30
0
41
1
10
10.3725769510693
20
1.35043649184078
30
0
41
1
10
10.3885656683962
20
1.35753920737758
30
0
0
SPLINE
5
139
100
AcDbEntity
8
1
62
256
6
ByLayer
370
18
48
1
60
0
100
AcDbSpline
70
4
71
3
72
9
73
5
40
0
40
0
40
0
40
0
40
0.5
40
1
40
1
40
1
40
1
41
1
10
10.3885656683962
20
1.35753920737761
30
0
41
1
10
10.4223280233231
20
1.36335541594897
30
0
41
1
10
10.4902926869092
20
1.37204681272578
30
0
41
1
10
10.5591157419288
20
1.375
30
0
41
1
10
10.593748156342
20
1.375
30
0
0
SPLINE
5
13A
100
AcDbEntity
8
1
62
256
6
ByLayer
370
18
48
1
60
0
100
AcDbSpline
70
4
71
3
72
28
73
24
40
0
40
0
40
0
40
0
40
0.0625000000000009
40
0.0625000000000009
40
0.125000000000002
40
0.125000000000002
40
0.250000000000002
40
0.250000000000002
40
0.375000000000002
40
0.375000000000002
40
0.500000000000002
40
0.531250000000002
40
0.531250000000002
40
0.562500000000003
40
0.562500000000003
40
0.625000000000002
40
0.625000000000002
40
0.75
40
0.874999999999998
40
0.874999999999998
40
0.937499999999999
40
0.937499999999999
40
1
40
1
40
1
40
1
41
1
10
21.7563835796167
20
9.56130108122599
30
0
41
1
10
21.7761462190885
20
9.59503030190578
30
0
41
1
10
21.7968064077779
20
9.62796636622477
30
0
41
1
10
21.8398595068078
20
9.69230730395731
30
0
41
1
10
21.8623125201101
20
9.72377985311121
30
0
41
1
10
21.9312199508774
20
9.81470006611926
30
0
41
1
10
21.9794698871881
20
9.87109361531012
30
0
41
1
10
22.0800482101308
20
9.97643548382919
30
0
41
1
10
22.1323804496249
20
10.0253767697398
30
0
41
1
10
22.2408560548235
20
10.1163021130947
30
0
41
1
10
22.3110370890932
20
10.1687788494496
30
0
41
1
10
22.3841343605579
20
10.2159319813614
30
0
41
1
10
22.4136084559788
20
10.2343638994745
30
0
41
1
10
22.4284782497096
20
10.2433742951858
30
0
41
1
10
22.4732036549498
20
10.2696247854325
30
0
41
1
10
22.5032381588603
20
10.2861267547892
30
0
41
1
10
22.593973543043
20
10.3327331682585
30
0
41
1
10
22.716634579309
20
10.3871635751648
30
0
41
1
10
22.8425539297246
20
10.4266424451506
30
0
41
1
10
22.9382301978225
20
10.450576456608
30
0
41
1
10
22.9703289360554
20
10.4576062037454
30
0
41
1
10
23.0349490071317
20
10.4697265237627
30
0
41
1
10
23.0675220428248
20
10.4748192692704
30
0
41
1
10
23.1
20
10.4788789360036
30
0
0
SPLINE
5
13B
100
AcDbEntity
8
1
62
256
6
ByLayer
370
18
48
1
60
0
100
AcDbSpline
70
4
71
3
72
19
73
15
40
0
40
0
40
0
40
0
40
0.0625
40
0.0625
40
0.125
40
0.25
40
0.25
40
0.499999999999998
40
0.499999999999998
40
0.624999999999997
40
0.624999999999997
40
0.749999999999997
40
0.749999999999997
40
1
40
1
40
1
40
1
41
1
10
21.5
20
8.68059244557293
30
0
41
1
10
21.5
20
8.70010129965343
30
0
41
1
10
21.5003490043092
20
8.71968355459802
30
0
41
1
10
21.5017374111181
20
8.75864814710678
30
0
41
1
10
21.504853899107
20
8.81690242494776
30
0
41
1
10
21.5110250045599
20
8.87458762905433
30
0
41
1
10
21.5273758802603
20
8.98921122498371
30
0
41
1
10
21.5436009664108
20
9.06463500342863
30
0
41
1
10
21.5760423799486
20
9.1762609400559
30
0
41
1
10
21.5882161313711
20
9.21322865316273
30
0
41
1
10
21.6153422516387
20
9.28659622361522
30
0
41
1
10
21.6301362151113
20
9.32257009299227
30
0
41
1
10
21.6781139038381
20
9.42841784680098
30
0
41
1
10
21.7148755456559
20
9.49622819009551
30
0
41
1
10
21.7563835796167
20
9.56130108122599
30
0
0
SPLINE
5
13C
100
AcDbEntity
8
1
62
256
6
ByLayer
370
18
48
1
60
0
100
AcDbSpline
70
4
71
3
72
81
73
77
40
0
40
0
40
0
40
0
40
0.0078124999999992
40
0.0078124999999992
40
0.0117187499999987
40
0.0117187499999987
40
0.0156249999999984
40
0.0156249999999984
40
0.0175781249999985
40
0.0175781249999985
40
0.0195312499999986
40
0.0195312499999986
40
0.0214843749999987
40
0.0214843749999987
40
0.0234374999999988
40
0.0234374999999988
40
0.027343749999999
40
0.027343749999999
40
0.0312499999999991
40
0.0312499999999991
40
0.0390624999999989
40
0.0390624999999989
40
0.0468749999999987
40
0.0468749999999987
40
0.0624999999999981
40
0.0624999999999981
40
0.0937499999999975
40
0.0937499999999975
40
0.124999999999997
40
0.124999999999997
40
0.187499999999996
40
0.187499999999996
40
0.249999999999994
40
0.249999999999994
40
0.312499999999993
40
0.312499999999993
40
0.374999999999991
40
0.374999999999991
40
0.499999999999988
40
0.624999999999985
40
0.624999999999985
40
0.749999999999982
40
0.749999999999982
40
0.812499999999981
40
0.812499999999981
40
0.874999999999979
40
0.874999999999979
40
0.906249999999979
40
0.906249999999979
40
0.937499999999978
40
0.937499999999978
40
0.953124999999977
40
0.953124999999977
40
0.960937499999977
40
0.960937499999977
40
0.968749999999977
40
0.968749999999977
40
0.972656249999977
40
0.972656249999977
40
0.976562499999976
40
0.976562499999976
40
0.978515624999976
40
0.978515624999976
40
0.980468749999975
40
0.980468749999975
40
0.981445312499976
40
0.981445312499976
40
0.982421874999977
40
0.982421874999977
40
0.98437499999998
40
0.98437499999998
40
0.988281249999985
40
0.988281249999985
40
0.99218749999999
40
0.99218749999999
40
1
40
1
40
1
40
1
41
1
10
1.91224221527588
20
0.394519052843208
30
0
41
1
10
1.922600273651
20
0.397470382277874
30
0
41
1
10
1.93283786110675
20
0.400656000617488
30
0
41
1
10
1.94779456186387
20
0.406204007763904
30
0
41
1
10
1.95271325741365
20
0.408182097958047
30
0
41
1
10
1.9622975569516
20
0.412623793809558
30
0
41
1
10
1.96692460319264
20
0.415043395047661
30
0
41
1
10
1.9730824467959
20
0.419356299912891
30
0
41
1
10
1.97498510374822
20
0.420901794091378
30
0
41
1
10
1.97814356823224
20
0.424317649885921
30
0
41
1
10
1.97937553127733
20
0.426188446354104
30
0
41
1
10
1.98041974242852
20
0.430094718808988
30
0
41
1
10
1.98016767343333
20
0.432084882313831
30
0
41
1
10
1.97833650493834
20
0.435660915574772
30
0
41
1
10
1.97684146809379
20
0.437229800282694
30
0
41
1
10
1.97155211298303
20
0.441419320218841
30
0
41
1
10
1.96714261473923
20
0.443496857369809
30
0
41
1
10
1.95788625907491
20
0.447126197110322
30
0
41
1
10
1.95306542600468
20
0.448616583755779
30
0
41
1
10
1.93832423326452
20
0.452621312482364
30
0
41
1
10
1.92812264321603
20
0.454664943117933
30
0
41
1
10
1.90740435871601
20
0.458233151164762
30
0
41
1
10
1.89692280726288
20
0.459723906732535
30
0
41
1
10
1.86538741092374
20
0.463682824017269
30
0
41
1
10
1.84417449210764
20
0.465656248769335
30
0
41
1
10
1.78025703058944
20
0.47064578145492
30
0
41
1
10
1.7372526498894
20
0.472719601202726
30
0
41
1
10
1.65098443404128
20
0.475886802092447
30
0
41
1
10
1.6077869137429
20
0.476925497381728
30
0
41
1
10
1.47807229819904
20
0.479177404442254
30
0
41
1
10
1.39143454900747
20
0.479542216888063
30
0
41
1
10
1.21796857575387
20
0.479493958295478
30
0
41
1
10
1.13113690460122
20
0.479041949024122
30
0
41
1
10
0.957329148831406
20
0.477882761325304
30
0
41
1
10
0.870323792927081
20
0.477166899227512
30
0
41
1
10
0.696349175854323
20
0.475776693033907
30
0
41
1
10
0.609388405753748
20
0.475099760634464
30
0
41
1
10
0.348574051787495
20
0.473386319949782
30
0
41
1
10
0.001000350770255
20
0.47200367055919
30
0
41
1
10
-0.346258593410397
20
0.473375275194542
30
0
41
1
10
-0.693339956070901
20
0.475647183276322
30
0
41
1
10
-0.866793441191334
20
0.477269893009009
30
0
41
1
10
-1.12678156308047
20
0.479017268009557
30
0
41
1
10
-1.2134118568122
20
0.479476207823097
30
0
41
1
10
-1.38658196181331
20
0.479556475236905
30
0
41
1
10
-1.47312342215656
20
0.479215768728096
30
0
41
1
10
-1.60282241164072
20
0.477033463499424
30
0
41
1
10
-1.64603636785412
20
0.476023509055096
30
0
41
1
10
-1.732404440539
20
0.472937703046796
30
0
41
1
10
-1.77556093947172
20
0.470916772337659
30
0
41
1
10
-1.84020397899081
20
0.466007269746626
30
0
41
1
10
-1.86179262627243
20
0.464054865240968
30
0
41
1
10
-1.89394318274029
20
0.460129304204259
30
0
41
1
10
-1.90457892025233
20
0.458657307765151
30
0
41
1
10
-1.92557687187249
20
0.455151548859845
30
0
41
1
10
-1.93595107519371
20
0.453143056337922
30
0
41
1
10
-1.95106731633359
20
0.449203062644955
30
0
41
1
10
-1.9560684346626
20
0.447721193247531
30
0
41
1
10
-1.96555805505966
20
0.444199414509029
30
0
41
1
10
-1.97009904328232
20
0.442195860936522
30
0
41
1
10
-1.97581374795772
20
0.438152979130393
30
0
41
1
10
-1.97748212350464
20
0.436651382667094
30
0
41
1
10
-1.97980883341094
20
0.43315604020998
30
0
41
1
10
-1.98037246688429
20
0.431176687394242
30
0
41
1
10
-1.97997556416402
20
0.428196550109362
30
0
41
1
10
-1.97964165466871
20
0.427187280234875
30
0
41
1
10
-1.97867307625054
20
0.425265399838025
30
0
41
1
10
-1.9780408753785
20
0.424340153169794
30
0
41
1
10
-1.97580369573168
20
0.421646658948987
30
0
41
1
10
-1.97395171242516
20
0.420048670860723
30
0
41
1
10
-1.96785173654939
20
0.415569664711171
30
0
41
1
10
-1.96318270865211
20
0.413077560163487
30
0
41
1
10
-1.95359149055579
20
0.408552813285269
30
0
41
1
10
-1.94859288445005
20
0.406516669262459
30
0
41
1
10
-1.93328703299298
20
0.400792642800013
30
0
41
1
10
-1.92282156572341
20
0.397533435195697
30
0
41
1
10
-1.91224221525877
20
0.394519052838348
30
0
0
SPLINE
5
13D
100
AcDbEntity
8
1
62
256
6
ByLayer
370
18
48
1
60
0
100
AcDbSpline
70
4
71
3
72
17
73
13
40
0
40
0
40
0
40
0
40
0.25
40
0.25
40
0.5
40
0.5
40
0.5625
40
0.5625
40
0.625
40
0.75
40
0.75
40
1
40
1
40
1
40
1
41
1
10
-1.91224221525877
20
0.394519052838319
30
0
41
1
10
-1.60176192357352
20
0.306053667681027
30
0
41
1
10
-1.28776911723091
20
0.236983023929383
30
0
41
1
10
-0.651754427740144
20
0.143175179431694
30
0
41
1
10
-0.329727668873431
20
0.118464900509594
30
0
41
1
10
0.0783629119484033
20
0.118261377257454
30
0
41
1
10
0.160394283177112
20
0.119762754673957
30
0
41
1
10
0.323519502227299
20
0.12580696443888
30
0
41
1
10
0.567279119098941
20
0.139418800322744
30
0
41
1
10
0.808326323249958
20
0.166313521538967
30
0
41
1
10
1.28701472260707
20
0.236782441218367
30
0
41
1
10
1.60159777754367
20
0.306006897427352
30
0
41
1
10
1.9122422152769
20
0.394519052843492
30
0
0
SPLINE
5
13E
100
AcDbEntity
8
1
62
256
6
ByLayer
370
18
48
1
60
0
100
AcDbSpline
70
4
71
3
72
8
73
4
40
0
40
0
40
0
40
0
40
1
40
1
40
1
40
1
41
1
10
-13.9273497265336
20
-0.249980947161674
30
0
41
1
10
-14.1400184018759
20
-0.0890594833153955
30
0
41
1
10
-14.3513710386801
20
0.0731431542574512
30
0
41
1
10
-14.5615187733782
20
0.23651877337818
30
0
0
SPLINE
5
13F
100
AcDbEntity
8
1
62
256
6
ByLayer
370
18
48
1
60
0
100
AcDbSpline
70
4
71
3
72
16
73
12
40
0
40
0
40
0
40
0
40
0.124999999999991
40
0.124999999999991
40
0.249999999999982
40
0.249999999999982
40
0.499999999999988
40
0.499999999999988
40
0.749999999999994
40
0.749999999999994
40
1
40
1
40
1
40
1
41
1
10
-13.7912890092361
20
-0.324980947163652
30
0
41
1
10
-13.7947211231747
20
-0.324980947163453
30
0
41
1
10
-13.7987038822678
20
-0.324343969769728
30
0
41
1
10
-13.8075818891419
20
-0.322012470654755
30
0
41
1
10
-13.8124983254929
20
-0.320301845067462
30
0
41
1
10
-13.8279050504171
20
-0.314006523917897
30
0
41
1
10
-13.8392323105369
20
-0.308231113448897
30
0
41
1
10
-13.8632846302391
20
-0.294416067556767
30
0
41
1
10
-13.8756867854771
20
-0.286560850671492
30
0
41
1
10
-13.9010856072335
20
-0.269365680292793
30
0
41
1
10
-13.9141383585476
20
-0.259977683504246
30
0
41
1
10
-13.9273497265336
20
-0.249980947161674
30
0
0
SPLINE
5
140
100
AcDbEntity
8
1
62
256
6
ByLayer
370
18
48
1
60
0
100
AcDbSpline
70
4
71
3
72
22
73
18
40
0
40
0
40
0
40
0
40
0.125
40
0.125
40
0.25
40
0.25
40
0.375
40
0.375
40
0.5
40
0.5
40
0.625
40
0.625
40
0.75
40
0.75
40
0.875
40
0.875
40
1
40
1
40
1
40
1
41
1
10
-13.7271595028412
20
-0.249980947161532
30
0
41
1
10
-13.7230711169545
20
-0.254870580017553
30
0
41
1
10
-13.719197862038
20
-0.259701365260099
30
0
41
1
10
-13.711950430119
20
-0.269226009096144
30
0
41
1
10
-13.7085556247414
20
-0.273950228042338
30
0
41
1
10
-13.7024739620711
20
-0.283086608544579
30
0
41
1
10
-13.699812285762
20
-0.287456554264992
30
0
41
1
10
-13.6953495169543
20
-0.295745119605016
30
0
41
1
10
-13.6935353207012
20
-0.299707252978664
30
0
41
1
10
-13.6910284293275
20
-0.306819145366916
30
0
41
1
10
-13.6903199496591
20
-0.309978932734424
30
0
41
1
10
-13.6900300661806
20
-0.315476875300789
30
0
41
1
10
-13.6904692852739
20
-0.317827037319773
30
0
41
1
10
-13.6924447562857
20
-0.321476351282882
30
0
41
1
10
-13.6939679064125
20
-0.322810804878514
30
0
41
1
10
-13.6980030233289
20
-0.324572230027599
30
0
41
1
10
-13.7004864228397
20
-0.324980947161748
30
0
41
1
10
-13.7033273915927
20
-0.324980947161748
30
0
0
SPLINE
5
141
100
AcDbEntity
8
1
62
256
6
ByLayer
370
18
48
1
60
0
100
AcDbSpline
70
4
71
3
72
8
73
4
40
0
40
0
40
0
40
0
40
1
40
1
40
1
40
1
41
1
10
-14.2655750866984
20
0.394519052838319
30
0
41
1
10
-14.0862027304346
20
0.179623374600055
30
0
41
1
10
-13.9067347108406
20
-0.035212365746446
30
0
41
1
10
-13.7271595028412
20
-0.249980947161504
30
0
0
SPLINE
5
142
100
AcDbEntity
8
1
62
256
6
ByLayer
370
18
48
1
60
0
100
AcDbSpline
70
4
71
3
72
36
73
32
40
0
40
0
40
0
40
0
40
0.125000000000003
40
0.125000000000003
40
0.250000000000005
40
0.250000000000005
40
0.312500000000005
40
0.312500000000005
40
0.375000000000005
40
0.375000000000005
40
0.437500000000004
40
0.437500000000004
40
0.500000000000004
40
0.500000000000004
40
0.562500000000003
40
0.562500000000003
40
0.625000000000003
40
0.625000000000003
40
0.687500000000003
40
0.687500000000003
40
0.750000000000002
40
0.750000000000002
40
0.781250000000002
40
0.781250000000002
40
0.812500000000002
40
0.812500000000002
40
0.875000000000001
40
0.875000000000001
40
0.937500000000001
40
0.937500000000001
40
1
40
1
40
1
40
1
41
1
10
-14.1255646241437
20
0.394519052838348
30
0
41
1
10
-14.1394710770359
20
0.404489622046128
30
0
41
1
10
-14.1531891256639
20
0.413867112124933
30
0
41
1
10
-14.1802225014732
20
0.431373754650593
30
0
41
1
10
-14.1935390957799
20
0.439506751248615
30
0
41
1
10
-14.2131449243124
20
0.450573991117722
30
0
41
1
10
-14.2196336197054
20
0.454078795623701
30
0
41
1
10
-14.2322228540822
20
0.460520725310033
30
0
41
1
10
-14.2383514182247
20
0.463474796430233
30
0
41
1
10
-14.2502293710657
20
0.468773718754022
30
0
41
1
10
-14.2559794178474
20
0.471119640285877
30
0
41
1
10
-14.2670211051816
20
0.475074458444681
30
0
41
1
10
-14.2722259261514
20
0.476650936816839
30
0
41
1
10
-14.2818410972795
20
0.478850703577962
30
0
41
1
10
-14.2862625152793
20
0.479479731271681
30
0
41
1
10
-14.2941373580524
20
0.4795548484297
30
0
41
1
10
-14.2974997750462
20
0.478992735534973
30
0
41
1
10
-14.3028010571971
20
0.476498487128254
30
0
41
1
10
-14.3047638284419
20
0.474520523657986
30
0
41
1
10
-14.3069086232189
20
0.469181053338957
30
0
41
1
10
-14.3071284482325
20
0.465834428936034
30
0
41
1
10
-14.3061330482862
20
0.459758935437492
30
0
41
1
10
-14.3055769996615
20
0.457562174581426
30
0
41
1
10
-14.3040654324165
20
0.452948725894231
30
0
41
1
10
-14.303108097956
20
0.450518030421819
30
0
41
1
10
-14.2996681948549
20
0.442875980593413
30
0
41
1
10
-14.2965819676909
20
0.437266289211095
30
0
41
1
10
-14.2893548863108
20
0.4256951480927
30
0
41
1
10
-14.2851987194409
20
0.41968620333094
30
0
41
1
10
-14.275978382755
20
0.407293077501066
30
0
41
1
10
-14.2709152318049
20
0.400916772801736
30
0
41
1
10
-14.2655750866984
20
0.394519052838319
30
0
0
SPLINE
5
143
100
AcDbEntity
8
1
62
256
6
ByLayer
370
18
48
1
60
0
100
AcDbSpline
70
4
71
3
72
8
73
4
40
0
40
0
40
0
40
0
40
1
40
1
40
1
40
1
41
1
10
-13.2065548385552
20
-0.249980947161674
30
0
41
1
10
-13.5156891436444
20
-0.0381396122572539
30
0
41
1
10
-13.8219161595784
20
0.176810910131763
30
0
41
1
10
-14.1255646241437
20
0.394519052838319
30
0
0
SPLINE
5
144
100
AcDbEntity
8
1
62
256
6
ByLayer
370
18
48
1
60
0
100
AcDbSpline
70
4
71
3
72
18
73
14
40
0
40
0
40
0
40
0
40
0.124999999999999
40
0.124999999999999
40
0.249999999999999
40
0.249999999999999
40
0.499999999999997
40
0.499999999999997
40
0.624999999999997
40
0.624999999999997
40
0.749999999999996
40
0.749999999999996
40
1
40
1
40
1
40
1
41
1
10
-13.0480635116142
20
-0.324980947169223
30
0
41
1
10
-13.0526835673824
20
-0.324980947168598
30
0
41
1
10
-13.0578276924747
20
-0.324325815519529
30
0
41
1
10
-13.0689460777358
20
-0.321974818101211
30
0
41
1
10
-13.0749605537727
20
-0.320259096726829
30
0
41
1
10
-13.0935302985871
20
-0.313958174179788
30
0
41
1
10
-13.1067398789887
20
-0.308231131630805
30
0
41
1
10
-13.1274676194249
20
-0.297960016390789
30
0
41
1
10
-13.1345354389663
20
-0.29424506725934
30
0
41
1
10
-13.1486989674189
20
-0.286431559643603
30
0
41
1
10
-13.1558285169502
20
-0.282316542817881
30
0
41
1
10
-13.1773484039918
20
-0.269403809868607
30
0
41
1
10
-13.1918683483694
20
-0.260045199607333
30
0
41
1
10
-13.2065548385552
20
-0.249980947161674
30
0
0
SPLINE
5
145
100
AcDbEntity
8
1
62
256
6
ByLayer
370
18
48
1
60
0
100
AcDbSpline
70
4
71
3
72
23
73
19
40
0
40
0
40
0
40
0
40
0.125000000000008
40
0.125000000000008
40
0.250000000000015
40
0.250000000000015
40
0.375000000000023
40
0.375000000000023
40
0.437500000000027
40
0.437500000000027
40
0.500000000000031
40
0.625000000000023
40
0.625000000000023
40
0.750000000000016
40
0.750000000000016
40
0.875000000000008
40
0.875000000000008
40
1
40
1
40
1
40
1
41
1
10
-12.9419043311969
20
-0.249980947161362
30
0
41
1
10
-12.9378497028419
20
-0.254925918244197
30
0
41
1
10
-12.9340500009027
20
-0.259832030827397
30
0
41
1
10
-12.9270609615909
20
-0.26955094003489
30
0
41
1
10
-12.9238503710631
20
-0.274403028467305
30
0
41
1
10
-12.9183740783399
20
-0.283688995222491
30
0
41
1
10
-12.9160876840443
20
-0.288143993684287
30
0
41
1
10
-12.9134525305583
20
-0.294494826399216
30
0
41
1
10
-12.9127048890145
20
-0.296567433923769
30
0
41
1
10
-12.9115299156306
20
-0.300494947426273
30
0
41
1
10
-12.9102338827602
20
-0.306085646339625
30
0
41
1
10
-12.9103315847485
20
-0.310777985080392
30
0
41
1
10
-12.9117605960214
20
-0.316192959110282
30
0
41
1
10
-12.9130939065335
20
-0.318369971001488
30
0
41
1
10
-12.9168431622451
20
-0.321793174571212
30
0
41
1
10
-12.9192871440886
20
-0.323036678820301
30
0
41
1
10
-12.9249370215665
20
-0.324620114170159
30
0
41
1
10
-12.9281546626962
20
-0.324980947161777
30
0
41
1
10
-12.9317003032968
20
-0.324980947161777
30
0
0
SPLINE
5
146
100
AcDbEntity
8
1
62
256
6
ByLayer
370
18
48
1
60
0
100
AcDbSpline
70
4
71
3
72
8
73
4
40
0
40
0
40
0
40
0
40
1
40
1
40
1
40
1
41
1
10
-13.4702748862137
20
0.394519052838319
30
0
41
1
10
-13.2941699218972
20
0.179674312264069
30
0
41
1
10
-13.1180471579123
20
-0.0351594867746314
30
0
41
1
10
-12.941904331197
20
-0.249980947161362
30
0
0
SPLINE
5
147
100
AcDbEntity
8
1
62
256
6
ByLayer
370
18
48
1
60
0
100
AcDbSpline
70
4
71
3
72
38
73
34
40
0
40
0
40
0
40
0
40
0.124999999999995
40
0.124999999999995
40
0.249999999999991
40
0.249999999999991
40
0.374999999999986
40
0.374999999999986
40
0.437499999999984
40
0.437499999999984
40
0.499999999999981
40
0.499999999999981
40
0.562499999999979
40
0.562499999999979
40
0.593749999999979
40
0.593749999999979
40
0.624999999999979
40
0.624999999999979
40
0.687499999999965
40
0.687499999999965
40
0.718749999999965
40
0.718749999999965
40
0.749999999999964
40
0.749999999999964
40
0.812499999999975
40
0.812499999999975
40
0.84374999999998
40
0.84374999999998
40
0.874999999999986
40
0.874999999999986
40
0.937499999999993
40
0.937499999999993
40
1
40
1
40
1
40
1
41
1
10
-13.2887133686798
20
0.394519052838319
30
0
41
1
10
-13.3038332306426
20
0.4042879581867
30
0
41
1
10
-13.3188052716474
20
0.413449436874572
30
0
41
1
10
-13.3484408250735
20
0.430527273477082
30
0
41
1
10
-13.3631049887933
20
0.438446193463477
30
0
41
1
10
-13.3920697914073
20
0.452832519259857
30
0
41
1
10
-13.4064644692924
20
0.459334429025461
30
0
41
1
10
-13.4269699921963
20
0.467341554080946
30
0
41
1
10
-13.433645567981
20
0.469730324423097
30
0
41
1
10
-13.4466202325066
20
0.473845750572934
30
0
41
1
10
-13.4529523427325
20
0.475578705664162
30
0
41
1
10
-13.4648977094209
20
0.478164746212002
30
0
41
1
10
-13.470530542591
20
0.479028435196653
30
0
41
1
10
-13.4783549901368
20
0.479532351315839
30
0
41
1
10
-13.4808583852177
20
0.479567589455002
30
0
41
1
10
-13.4856250849188
20
0.47933332242323
30
0
41
1
10
-13.4878873439799
20
0.479061483870908
30
0
41
1
10
-13.4941255566638
20
0.477748652573382
30
0
41
1
10
-13.4976100463298
20
0.476217282345146
30
0
41
1
10
-13.5015835740844
20
0.472696292951213
30
0
41
1
10
-13.5026851457819
20
0.471320945690934
30
0
41
1
10
-13.5043739139206
20
0.468214962997223
30
0
41
1
10
-13.5049704660338
20
0.466476927786175
30
0
41
1
10
-13.5059946892605
20
0.460690215559282
30
0
41
1
10
-13.5056210814371
20
0.455977741753941
30
0
41
1
10
-13.503532127041
20
0.448145570507194
30
0
41
1
10
-13.5025893474109
20
0.445402644548608
30
0
41
1
10
-13.5002379631945
20
0.439666430659713
30
0
41
1
10
-13.4988176392413
20
0.436652706244104
30
0
41
1
10
-13.4939949832354
20
0.427453269472068
30
0
41
1
10
-13.4900398258229
20
0.421090866571319
30
0
41
1
10
-13.4809501781441
20
0.407998820378509
30
0
41
1
10
-13.4757943146983
20
0.401252651663839
30
0
41
1
10
-13.4702748862137
20
0.394519052838319
30
0
0
SPLINE
5
148
100
AcDbEntity
8
1
62
256
6
ByLayer
370
18
48
1
60
0
100
AcDbSpline
70
4
71
3
72
8
73
4
40
0
40
0
40
0
40
0
40
1
40
1
40
1
40
1
41
1
10
-12.2619374897427
20
-0.249980947161674
30
0
41
1
10
-12.6077628641245
20
-0.0394093519147987
30
0
41
1
10
-12.9498764087536
20
0.175597332640279
30
0
41
1
10
-13.2887133686798
20
0.394519052838319
30
0
0
SPLINE
5
149
100
AcDbEntity
8
1
62
256
6
ByLayer
370
18
48
1
60
0
100
AcDbSpline
70
4
71
3
72
18
73
14
40
0
40
0
40
0
40
0
40
0.125000000000003
40
0.125000000000003
40
0.250000000000007
40
0.250000000000007
40
0.5
40
0.5
40
0.625000000000002
40
0.625000000000002
40
0.750000000000004
40
0.750000000000004
40
1
40
1
40
1
40
1
41
1
10
-12.0749439034001
20
-0.324980947161691
30
0
41
1
10
-12.081008255091
20
-0.324980947161094
30
0
41
1
10
-12.0875370462495
20
-0.324314999120077
30
0
41
1
10
-12.1012908516913
20
-0.321980394436167
30
0
41
1
10
-12.1085189695399
20
-0.320307354028273
30
0
41
1
10
-12.1310821815718
20
-0.314018794774086
30
0
41
1
10
-12.1466956039984
20
-0.308331973172642
30
0
41
1
10
-12.1707074902565
20
-0.298228829183756
30
0
41
1
10
-12.1788139447434
20
-0.294590398040555
30
0
41
1
10
-12.1952158399689
20
-0.286815352002634
30
0
41
1
10
-12.2035319977382
20
-0.282666955587643
30
0
41
1
10
-12.2284787618341
20
-0.26964953894975
30
0
41
1
10
-12.245175409905
20
-0.260187306071572
30
0
41
1
10
-12.2619374897427
20
-0.249980947161674
30
0
0
SPLINE
5
14A
100
AcDbEntity
8
1
62
256
6
ByLayer
370
18
48
1
60
0
100
AcDbSpline
70
4
71
3
72
24
73
20
40
0
40
0
40
0
40
0
40
0.12500000000003
40
0.12500000000003
40
0.250000000000061
40
0.250000000000061
40
0.312500000000065
40
0.312500000000065
40
0.37500000000007
40
0.37500000000007
40
0.500000000000056
40
0.500000000000056
40
0.625000000000042
40
0.625000000000042
40
0.750000000000028
40
0.750000000000028
40
0.875000000000014
40
0.875000000000014
40
1
40
1
40
1
40
1
41
1
10
-11.9185094462045
20
-0.249980947160964
30
0
41
1
10
-11.9143984087425
20
-0.255008549371979
30
0
41
1
10
-11.9105940690077
20
-0.260025649179823
30
0
41
1
10
-11.9037537286027
20
-0.270033424617793
30
0
41
1
10
-11.9007316163328
20
-0.275018276597791
30
0
41
1
10
-11.8970946969525
20
-0.282167946486851
30
0
41
1
10
-11.8960240148196
20
-0.284507876358191
30
0
41
1
10
-11.8941940114109
20
-0.289092391428142
30
0
41
1
10
-11.8934309418024
20
-0.291353045960363
30
0
41
1
10
-11.8916984067636
20
-0.297837448784492
30
0
41
1
10
-11.8912740901979
20
-0.30175671223887
30
0
41
1
10
-11.8919008982491
20
-0.30877759856898
30
0
41
1
10
-11.8929836812651
20
-0.311879900363635
30
0
41
1
10
-11.8964381114454
20
-0.316963130994338
30
0
41
1
10
-11.8988364705386
20
-0.319015412178828
30
0
41
1
10
-11.9046064730613
20
-0.322151899954548
30
0
41
1
10
-11.9079485979118
20
-0.323240679223744
30
0
41
1
10
-11.9153564824701
20
-0.32465661851694
30
0
41
1
10
-11.9194457489922
20
-0.32498094716172
30
0
41
1
10
-11.9237814416148
20
-0.32498094716172
30
0
0
SPLINE
5
14B
100
AcDbEntity
8
1
62
256
6
ByLayer
370
18
48
1
60
0
100
AcDbSpline
70
4
71
3
72
8
73
4
40
0
40
0
40
0
40
0
40
1
40
1
40
1
40
1
41
1
10
-12.4454802424852
20
0.394519052838319
30
0
41
1
10
-12.2698302504261
20
0.179681463779445
30
0
41
1
10
-12.0941736247425
20
-0.0351520577178803
30
0
41
1
10
-11.9185094462047
20
-0.249980947160964
30
0
0
SPLINE
5
14C
100
AcDbEntity
8
1
62
256
6
ByLayer
370
18
48
1
60
0
100
AcDbSpline
70
4
71
3
72
34
73
30
40
0
40
0
40
0
40
0
40
0.125000000000001
40
0.125000000000001
40
0.250000000000003
40
0.250000000000003
40
0.375000000000004
40
0.375000000000004
40
0.4375
40
0.4375
40
0.499999999999997
40
0.499999999999997
40
0.624999999999982
40
0.624999999999982
40
0.687499999999978
40
0.687499999999978
40
0.718749999999974
40
0.718749999999974
40
0.74999999999997
40
0.74999999999997
40
0.812499999999973
40
0.812499999999973
40
0.874999999999977
40
0.874999999999977
40
0.906249999999983
40
0.906249999999983
40
0.937499999999988
40
0.937499999999988
40
1
40
1
40
1
40
1
41
1
10
-12.21262584537
20
0.394519052838319
30
0
41
1
10
-12.2293879167132
20
0.404069856331262
30
0
41
1
10
-12.2460474242468
20
0.413010889696807
30
0
41
1
10
-12.2791555920721
20
0.42966862177019
30
0
41
1
10
-12.2956045495882
20
0.437386982382037
30
0
41
1
10
-12.3282608368064
20
0.451436957631131
30
0
41
1
10
-12.3445735365322
20
0.457805604881315
30
0
41
1
10
-12.3682424193965
20
0.465816634568256
30
0
41
1
10
-12.3760079072084
20
0.46823433620375
30
0
41
1
10
-12.3912507161594
20
0.47248177544077
30
0
41
1
10
-12.3987563531804
20
0.474318017873884
30
0
41
1
10
-12.4205497597282
20
0.478701530894455
30
0
41
1
10
-12.4339597259438
20
0.480156666608053
30
0
41
1
10
-12.4514152534257
20
0.478821439948945
30
0
41
1
10
-12.4568329303758
20
0.477746501187454
30
0
41
1
10
-12.4636450953421
20
0.47495820558143
30
0
41
1
10
-12.4657065335108
20
0.473834537101368
30
0
41
1
10
-12.4693513853986
20
0.471142526978696
30
0
41
1
10
-12.4709433497243
20
0.469557994706776
30
0
41
1
10
-12.4747761141799
20
0.464180222176765
30
0
41
1
10
-12.4761223246412
20
0.459769092372454
30
0
41
1
10
-12.4760958204851
20
0.449081203462839
30
0
41
1
10
-12.4747089449443
20
0.443053990405275
30
0
41
1
10
-12.470827460083
20
0.433240182207101
30
0
41
1
10
-12.4692288824021
20
0.429837099363681
30
0
41
1
10
-12.4655825007594
20
0.422985527209846
30
0
41
1
10
-12.4635248995896
20
0.419510621874565
30
0
41
1
10
-12.4567374379799
20
0.408956814071246
30
0
41
1
10
-12.4513585152093
20
0.401708771010675
30
0
41
1
10
-12.4454802424852
20
0.394519052838319
30
0
0
SPLINE
5
14D
100
AcDbEntity
8
1
62
256
6
ByLayer
370
18
48
1
60
0
100
AcDbSpline
70
4
71
3
72
8
73
4
40
0
40
0
40
0
40
0
40
1
40
1
40
1
40
1
41
1
10
-11.0361737618139
20
-0.249980947161674
30
0
41
1
10
-11.4329616463351
20
-0.0414960685943413
30
0
41
1
10
-11.8249154221808
20
0.173606852417663
30
0
41
1
10
-12.21262584537
20
0.394519052838319
30
0
0
SPLINE
5
14E
100
AcDbEntity
8
1
62
256
6
ByLayer
370
18
48
1
60
0
100
AcDbSpline
70
4
71
3
72
18
73
14
40
0
40
0
40
0
40
0
40
0.125
40
0.125
40
0.250000000000001
40
0.250000000000001
40
0.499999999999998
40
0.499999999999998
40
0.624999999999996
40
0.624999999999996
40
0.749999999999994
40
0.749999999999994
40
1
40
1
40
1
40
1
41
1
10
-10.8100221617362
20
-0.324980947161663
30
0
41
1
10
-10.8180111708273
20
-0.324980947160952
30
0
41
1
10
-10.8264247732998
20
-0.324303802427465
30
0
41
1
10
-10.8438730220196
20
-0.321952441620653
30
0
41
1
10
-10.8529592725556
20
-0.320261231068514
30
0
41
1
10
-10.8805796347571
20
-0.314041022539698
30
0
41
1
10
-10.8994387758156
20
-0.308419743129093
30
0
41
1
10
-10.9282051094205
20
-0.298394950509135
30
0
41
1
10
-10.9378759446479
20
-0.294780090670855
30
0
41
1
10
-10.9573700935551
20
-0.28704319003694
30
0
41
1
10
-10.9672176050399
20
-0.282909900397783
30
0
41
1
10
-10.9967579988524
20
-0.269872232720218
30
0
41
1
10
-11.0164600587408
20
-0.260339148990965
30
0
41
1
10
-11.0361737618139
20
-0.249980947161674
30
0
0
SPLINE
5
14F
100
AcDbEntity
8
1
62
256
6
ByLayer
370
18
48
1
60
0
100
AcDbSpline
70
4
71
3
72
22
73
18
40
0
40
0
40
0
40
0
40
0.125
40
0.125
40
0.25
40
0.25
40
0.375
40
0.375
40
0.5
40
0.5
40
0.625
40
0.625
40
0.75
40
0.75
40
0.875
40
0.875
40
1
40
1
40
1
40
1
41
1
10
-10.588146538497
20
-0.249980947159827
30
0
41
1
10
-10.5838159736942
20
-0.255144731035813
30
0
41
1
10
-10.5798645746344
20
-0.260343891665002
30
0
41
1
10
-10.572985089628
20
-0.27083784852482
30
0
41
1
10
-10.5701679829123
20
-0.275969703602726
30
0
41
1
10
-10.5660666715437
20
-0.285914845664848
30
0
41
1
10
-10.5647901952416
20
-0.290809930744786
30
0
41
1
10
-10.5642045954565
20
-0.299573635406631
30
0
41
1
10
-10.5648541823852
20
-0.303528393936119
30
0
41
1
10
-10.5679631001511
20
-0.310436416643597
30
0
41
1
10
-10.5703512144501
20
-0.313281206584975
30
0
41
1
10
-10.5764671398953
20
-0.317988035234265
30
0
41
1
10
-10.5801191826616
20
-0.319788199103215
30
0
41
1
10
-10.5882140101569
20
-0.322533301974119
30
0
41
1
10
-10.5926877142222
20
-0.323486343691656
30
0
41
1
10
-10.6022321565404
20
-0.32471243842005
30
0
41
1
10
-10.6072496942067
20
-0.324980947163254
30
0
41
1
10
-10.6124575382183
20
-0.324980947163198
30
0
0
SPLINE
5
150
100
AcDbEntity
8
1
62
256
6
ByLayer
370
18
48
1
60
0
100
AcDbSpline
70
4
71
3
72
8
73
4
40
0
40
0
40
0
40
0
40
1
40
1
40
1
40
1
41
1
10
-11.1279670839745
20
0.394519052838319
30
0
41
1
10
-10.9481691234914
20
0.179596378150762
30
0
41
1
10
-10.7682360652239
20
-0.0352414300963915
30
0
41
1
10
-10.5881465384974
20
-0.249980947159912
30
0
0
SPLINE
5
151
100
AcDbEntity
8
1
62
256
6
ByLayer
370
18
48
1
60
0
100
AcDbSpline
70
4
71
3
72
39
73
35
40
0
40
0
40
0
40
0
40
0.125000000000014
40
0.125000000000014
40
0.250000000000029
40
0.250000000000029
40
0.375000000000043
40
0.375000000000043
40
0.437500000000047
40
0.437500000000047
40
0.50000000000005
40
0.50000000000005
40
0.562500000000053
40
0.562500000000053
40
0.625000000000056
40
0.625000000000056
40
0.687500000000059
40
0.687500000000059
40
0.718750000000053
40
0.718750000000053
40
0.750000000000048
40
0.781250000000043
40
0.781250000000043
40
0.812500000000038
40
0.812500000000038
40
0.843750000000032
40
0.843750000000032
40
0.875000000000027
40
0.875000000000027
40
0.906250000000022
40
0.906250000000022
40
0.937500000000016
40
0.937500000000016
40
1
40
1
40
1
40
1
41
1
10
-10.8261977204866
20
0.394519052838319
30
0
41
1
10
-10.8453613808028
20
0.403822742416708
30
0
41
1
10
-10.8644350163225
20
0.412508030361977
30
0
41
1
10
-10.9024018906364
20
0.428670682946205
30
0
41
1
10
-10.9212952504409
20
0.436148777585913
30
0
41
1
10
-10.958882884293
20
0.449784789803459
30
0
41
1
10
-10.9775778122249
20
0.455947419880573
30
0
41
1
10
-11.0054357249662
20
0.463959959019945
30
0
41
1
10
-11.0147120130597
20
0.466427265972556
30
0
41
1
10
-11.0329270751786
20
0.47080817215442
30
0
41
1
10
-11.0418937770116
20
0.472731225930374
30
0
41
1
10
-11.0594969792525
20
0.475947166332247
30
0
41
1
10
-11.0681342039558
20
0.477241484467243
30
0
41
1
10
-11.0849977650711
20
0.479041057890981
30
0
41
1
10
-11.0932713386151
20
0.479548725267819
30
0
41
1
10
-11.1090219945275
20
0.479486703751746
30
0
41
1
10
-11.1164767895555
20
0.478927144527404
30
0
41
1
10
-11.1267820133678
20
0.476978430843047
30
0
41
1
10
-11.1300670569308
20
0.476138633700827
30
0
41
1
10
-11.1361417146117
20
0.474049581821959
30
0
41
1
10
-11.1417564108312
20
0.471545769909596
30
0
41
1
10
-11.1462927930953
20
0.468066856897167
30
0
41
1
10
-11.1501654640366
20
0.463986118035706
30
0
41
1
10
-11.1517438299298
20
0.461655824862362
30
0
41
1
10
-11.1540017219895
20
0.456500109917954
30
0
41
1
10
-11.1547000127545
20
0.453656662833254
30
0
41
1
10
-11.1551425423024
20
0.447385299333632
30
0
41
1
10
-11.1548792054188
20
0.444063384204014
30
0
41
1
10
-11.1534486470362
20
0.43707126200934
30
0
41
1
10
-11.1522661294609
20
0.433367252098947
30
0
41
1
10
-11.1491042633321
20
0.425789142768139
30
0
41
1
10
-11.147148000852
20
0.421949799605244
30
0
41
1
10
-11.1403381258876
20
0.410305290730918
30
0
41
1
10
-11.1344994067131
20
0.402327507790147
30
0
41
1
10
-11.1279670839746
20
0.394519052838319
30
0
0
SPLINE
5
152
100
AcDbEntity
8
1
62
256
6
ByLayer
370
18
48
1
60
0
100
AcDbSpline
70
4
71
3
72
8
73
4
40
0
40
0
40
0
40
0
40
1
40
1
40
1
40
1
41
1
10
-9.42014604979882
20
-0.249980947161674
30
0
41
1
10
-9.89509800998097
20
-0.045403532794694
30
0
41
1
10
-10.3635024894917
20
0.169886976943701
30
0
41
1
10
-10.8261977204866
20
0.394519052838319
30
0
0
SPLINE
5
153
100
AcDbEntity
8
1
62
256
6
ByLayer
370
18
48
1
60
0
100
AcDbSpline
70
4
71
3
72
18
73
14
40
0
40
0
40
0
40
0
40
0.125
40
0.125
40
0.25
40
0.25
40
0.375
40
0.375
40
0.5
40
0.5
40
0.75
40
0.75
40
1
40
1
40
1
40
1
41
1
10
-9.1328466539227
20
-0.324980947161691
30
0
41
1
10
-9.14372986088287
20
-0.32498094716118
30
0
41
1
10
-9.154948133998
20
-0.324297936899598
30
0
41
1
10
-9.17785494091433
20
-0.321962244274403
30
0
41
1
10
-9.18954659680881
20
-0.320303380454163
30
0
41
1
10
-9.21330961472532
20
-0.316195905728222
30
0
41
1
10
-9.22532162877246
20
-0.313754324838612
30
0
41
1
10
-9.24935609579741
20
-0.308270592014935
30
0
41
1
10
-9.26141348776238
20
-0.305221378626044
30
0
41
1
10
-9.29769042100246
20
-0.295264739422492
30
0
41
1
10
-9.32201317218862
20
-0.287558568041959
30
0
41
1
10
-9.3709080164588
20
-0.270230194328264
30
0
41
1
10
-9.39555423460408
20
-0.260573449959651
30
0
41
1
10
-9.42014604979882
20
-0.249980947161674
30
0
0
SPLINE
5
154
100
AcDbEntity
8
1
62
256
6
ByLayer
370
18
48
1
60
0
100
AcDbSpline
70
4
71
3
72
28
73
24
40
0
40
0
40
0
40
0
40
0.0624999999999988
40
0.0624999999999988
40
0.124999999999998
40
0.124999999999998
40
0.187499999999996
40
0.187499999999996
40
0.249999999999995
40
0.249999999999995
40
0.312499999999994
40
0.312499999999994
40
0.374999999999993
40
0.374999999999993
40
0.437499999999992
40
0.437499999999992
40
0.49999999999999
40
0.49999999999999
40
0.624999999999998
40
0.624999999999998
40
0.750000000000005
40
0.750000000000005
40
1
40
1
40
1
40
1
41
1
10
-8.81287846405199
20
-0.249980947155791
30
0
41
1
10
-8.81042372701617
20
-0.25268050799562
30
0
41
1
10
-8.80809426650326
20
-0.255412160239644
30
0
41
1
10
-8.80374131425187
20
-0.260953956620313
30
0
41
1
10
-8.80171509926662
20
-0.263772010194657
30
0
41
1
10
-8.79813432448748
20
-0.269361345622173
30
0
41
1
10
-8.79656638697134
20
-0.272147870695989
30
0
41
1
10
-8.79395351452453
20
-0.277701759323776
30
0
41
1
10
-8.79290203059387
20
-0.280494627087478
30
0
41
1
10
-8.79146539182059
20
-0.285933125165428
30
0
41
1
10
-8.79108275102192
20
-0.288549776175699
30
0
41
1
10
-8.79100712746295
20
-0.293571945582585
30
0
41
1
10
-8.79132427301083
20
-0.295998566424203
30
0
41
1
10
-8.79261865796579
20
-0.30047339121117
30
0
41
1
10
-8.79358803963603
20
-0.302536520574051
30
0
41
1
10
-8.79609940480198
20
-0.306352422583785
30
0
41
1
10
-8.79764866346817
20
-0.308104402530773
30
0
41
1
10
-8.80288537420071
20
-0.312803317823807
30
0
41
1
10
-8.80719346932875
20
-0.315274284744561
30
0
41
1
10
-8.81692618508802
20
-0.319278475547208
30
0
41
1
10
-8.82221699514488
20
-0.32075719148483
30
0
41
1
10
-8.83894481110522
20
-0.324132477893784
30
0
41
1
10
-8.85129538935945
20
-0.324980947162288
30
0
41
1
10
-8.86408179867615
20
-0.32498094716226
30
0
0
SPLINE
5
155
100
AcDbEntity
8
1
62
256
6
ByLayer
370
18
48
1
60
0
100
AcDbSpline
70
4
71
3
72
8
73
4
40
0
40
0
40
0
40
0
40
1
40
1
40
1
40
1
41
1
10
-9.3953884633876
20
0.394519052838319
30
0
41
1
10
-9.20190632438599
20
0.179219444300429
30
0
41
1
10
-9.0077785167926
20
-0.0356424895419991
30
0
41
1
10
-8.81287846405296
20
-0.249980947156075
30
0
0
SPLINE
5
156
100
AcDbEntity
8
1
62
256
6
ByLayer
370
18
48
1
60
0
100
AcDbSpline
70
4
71
3
72
38
73
34
40
0
40
0
40
0
40
0
40
0.250000000000003
40
0.250000000000003
40
0.375000000000003
40
0.375000000000003
40
0.500000000000002
40
0.500000000000002
40
0.562500000000005
40
0.562500000000005
40
0.625000000000008
40
0.625000000000008
40
0.687500000000012
40
0.687500000000012
40
0.750000000000015
40
0.750000000000015
40
0.781250000000014
40
0.781250000000014
40
0.812500000000012
40
0.812500000000012
40
0.843750000000011
40
0.843750000000011
40
0.859375000000007
40
0.859375000000007
40
0.875000000000003
40
0.875000000000003
40
0.906250000000002
40
0.906250000000002
40
0.937500000000001
40
0.937500000000001
40
0.968750000000001
40
0.968750000000001
40
1
40
1
40
1
40
1
41
1
10
-8.98692851463424
20
0.394519052838433
30
0
41
1
10
-9.0332619564788
20
0.412493674837833
30
0
41
1
10
-9.07924677772213
20
0.428095750861701
30
0
41
1
10
-9.14767753970106
20
0.447892731526878
30
0
41
1
10
-9.17039514074557
20
0.453877630445248
30
0
41
1
10
-9.21561276810894
20
0.464384190703157
30
0
41
1
10
-9.23811409009988
20
0.468915971092088
30
0
41
1
10
-9.27164840317904
20
0.474201921571563
30
0
41
1
10
-9.28280754864188
20
0.475708447562795
30
0
41
1
10
-9.30470496885984
20
0.478037327116795
30
0
41
1
10
-9.31547973767194
20
0.478868132934792
30
0
41
1
10
-9.33658051127526
20
0.479660016760334
30
0
41
1
10
-9.34696068021994
20
0.479621526876542
30
0
41
1
10
-9.36677891891844
20
0.478317730661246
30
0
41
1
10
-9.37622144042925
20
0.477070148566497
30
0
41
1
10
-9.38930097964762
20
0.473801534714227
30
0
41
1
10
-9.39349606281391
20
0.472464916766313
30
0
41
1
10
-9.40121470148263
20
0.469229096419326
30
0
41
1
10
-9.40475722197043
20
0.467329854200102
30
0
41
1
10
-9.41101084625686
20
0.462790271628449
30
0
41
1
10
-9.41370522919763
20
0.460142637892375
30
0
41
1
10
-9.41676860092079
20
0.455629436905042
30
0
41
1
10
-9.41763416504909
20
0.454029340103233
30
0
41
1
10
-9.41901882100981
20
0.450615689000983
30
0
41
1
10
-9.41953665683756
20
0.448791861472614
30
0
41
1
10
-9.42048798744298
20
0.44314609700092
30
0
41
1
10
-9.42034760074219
20
0.439106172816139
30
0
41
1
10
-9.41852742540985
20
0.430476184279115
30
0
41
1
10
-9.41685123823549
20
0.425966268108198
30
0
41
1
10
-9.41232312472627
20
0.416909228814092
30
0
41
1
10
-9.40943685546671
20
0.41229412988929
30
0
41
1
10
-9.40294265258265
20
0.403307302163142
30
0
41
1
10
-9.39931252043964
20
0.398885595145714
30
0
41
1
10
-9.39538846339337
20
0.394519052837154
30
0
0
SPLINE
5
157
100
AcDbEntity
8
1
62
256
6
ByLayer
370
18
48
1
60
0
100
AcDbSpline
70
4
71
3
72
8
73
4
40
0
40
0
40
0
40
0
40
1
40
1
40
1
40
1
41
1
10
-7.15410175340971
20
-0.249980947161674
30
0
41
1
10
-7.77427580892314
20
-0.0548377836275904
30
0
41
1
10
-8.384783437259
20
0.160922546217108
30
0
41
1
10
-8.98692851463423
20
0.394519052838319
30
0
0
SPLINE
5
158
100
AcDbEntity
8
1
62
256
6
ByLayer
370
18
48
1
60
0
100
AcDbSpline
70
4
71
3
72
17
73
13
40
0
40
0
40
0
40
0
40
0.124999999999998
40
0.124999999999998
40
0.249999999999996
40
0.249999999999996
40
0.374999999999993
40
0.374999999999993
40
0.499999999999991
40
0.499999999999991
40
0.749999999999996
40
1
40
1
40
1
40
1
41
1
10
-6.74249188881706
20
-0.324980947161663
30
0
41
1
10
-6.75895378391421
20
-0.324980947161606
30
0
41
1
10
-6.77560867949244
20
-0.324310745266985
30
0
41
1
10
-6.80917906795578
20
-0.322040380930361
30
0
41
1
10
-6.82609666353444
20
-0.320433354681313
30
0
41
1
10
-6.8601373246226
20
-0.316470394553619
30
0
41
1
10
-6.87726105822414
20
-0.314112278634411
30
0
41
1
10
-6.91168423969093
20
-0.308745403149373
30
0
41
1
10
-6.92901200463669
20
-0.305730156657234
30
0
41
1
10
-6.98098651916526
20
-0.295834974764006
30
0
41
1
10
-7.05026156071182
20
-0.280409342926959
30
0
41
1
10
-7.11949273474029
20
-0.260870976065661
30
0
41
1
10
-7.15410175340969
20
-0.249980947161816
30
0
0
SPLINE
5
159
100
AcDbEntity
8
1
62
256
6
ByLayer
370
18
48
1
60
0
100
AcDbSpline
70
4
71
3
72
28
73
24
40
0
40
0
40
0
40
0
40
0.0624999999999973
40
0.0624999999999973
40
0.124999999999995
40
0.124999999999995
40
0.187499999999992
40
0.187499999999992
40
0.249999999999989
40
0.249999999999989
40
0.312499999999987
40
0.312499999999987
40
0.374999999999984
40
0.374999999999984
40
0.437499999999981
40
0.437499999999981
40
0.499999999999979
40
0.499999999999979
40
0.624999999999981
40
0.624999999999981
40
0.749999999999984
40
0.749999999999984
40
1
40
1
40
1
40
1
41
1
10
-6.22292588127033
20
-0.249980947140926
30
0
41
1
10
-6.21958846278596
20
-0.252886604388976
30
0
41
1
10
-6.21643658084923
20
-0.2558747816623
30
0
41
1
10
-6.21065250989122
20
-0.262082766471423
30
0
41
1
10
-6.20799059239903
20
-0.265341649736172
30
0
41
1
10
-6.20359999834162
20
-0.272014335422199
30
0
41
1
10
-6.20188043678124
20
-0.275412687019298
30
0
41
1
10
-6.19979992398484
20
-0.282212586931053
30
0
41
1
10
-6.1994771564062
20
-0.285483953660503
30
0
41
1
10
-6.20034973300679
20
-0.291754064168089
30
0
41
1
10
-6.20153703134238
20
-0.294630037775505
30
0
41
1
10
-6.20507139005912
20
-0.299823372219606
30
0
41
1
10
-6.20738715966201
20
-0.302109007415226
30
0
41
1
10
-6.21267351534166
20
-0.30614672963037
30
0
41
1
10
-6.21568609914914
20
-0.307929189855884
30
0
41
1
10
-6.22210698144582
20
-0.31107607510512
30
0
41
1
10
-6.22550351037791
20
-0.312439632077798
30
0
41
1
10
-6.23609002146526
20
-0.316080959786547
30
0
41
1
10
-6.24369435696326
20
-0.317921804204559
30
0
41
1
10
-6.2594332674004
20
-0.320855188810611
30
0
41
1
10
-6.26749588936983
20
-0.321930095246671
30
0
41
1
10
-6.29206351344484
20
-0.324375867069932
30
0
41
1
10
-6.30894164051671
20
-0.324980947161663
30
0
41
1
10
-6.32610759209325
20
-0.324980947161663
30
0
0
SPLINE
5
15A
100
AcDbEntity
8
1
62
256
6
ByLayer
370
18
48
1
60
0
100
AcDbSpline
70
4
71
3
72
8
73
4
40
0
40
0
40
0
40
0
40
1
40
1
40
1
40
1
41
1
10
-6.94370199058156
20
0.394519052846192
30
0
41
1
10
-6.70648353684932
20
0.177135671778956
30
0
41
1
10
-6.46649386217525
20
-0.0379233125592862
30
0
41
1
10
-6.2229258812701
20
-0.249980947141125
30
0
0
SPLINE
5
15B
100
AcDbEntity
8
1
62
256
6
ByLayer
370
18
48
1
60
0
100
AcDbSpline
70
4
71
3
72
38
73
34
40
0
40
0
40
0
40
0
40
0.250000000000004
40
0.250000000000004
40
0.375000000000005
40
0.375000000000005
40
0.500000000000007
40
0.500000000000007
40
0.625000000000008
40
0.625000000000008
40
0.687500000000009
40
0.687500000000009
40
0.750000000000009
40
0.750000000000009
40
0.81250000000001
40
0.81250000000001
40
0.843750000000009
40
0.843750000000009
40
0.859375000000008
40
0.859375000000008
40
0.875000000000008
40
0.875000000000008
40
0.906250000000002
40
0.906250000000002
40
0.921875000000002
40
0.921875000000002
40
0.937500000000002
40
0.937500000000002
40
0.953125000000001
40
0.953125000000001
40
0.968750000000001
40
0.968750000000001
40
1
40
1
40
1
40
1
41
1
10
-6.31056345909113
20
0.394519052838348
30
0
41
1
10
-6.37481328661519
20
0.411390584813802
30
0
41
1
10
-6.4389694704841
20
0.426235064493312
30
0
41
1
10
-6.53505244750029
20
0.445376954980162
30
0
41
1
10
-6.56705479948485
20
0.45122594227513
30
0
41
1
10
-6.6310051118772
20
0.461668317288456
30
0
41
1
10
-6.66283482363754
20
0.466246113725987
30
0
41
1
10
-6.72600609435827
20
0.473707937007589
30
0
41
1
10
-6.75736948054713
20
0.476614959194904
30
0
41
1
10
-6.80391672915488
20
0.479030439617617
30
0
41
1
10
-6.81927766290109
20
0.479502300680395
30
0
41
1
10
-6.84957718699221
20
0.479534942910078
30
0
41
1
10
-6.86452894473786
20
0.479103966091572
30
0
41
1
10
-6.89376528285266
20
0.476844350448005
30
0
41
1
10
-6.90791400682035
20
0.4750543513058
30
0
41
1
10
-6.92784789138967
20
0.470525557036069
30
0
41
1
10
-6.93431043459861
20
0.468687677725654
30
0
41
1
10
-6.9432963611988
20
0.465259768495429
30
0
41
1
10
-6.94617531050903
20
0.464004555023422
30
0
41
1
10
-6.95163771381635
20
0.461207412587328
30
0
41
1
10
-6.95423460303806
20
0.459654605417683
30
0
41
1
10
-6.96127333728383
20
0.454550304275358
30
0
41
1
10
-6.96505057587058
20
0.450546752278512
30
0
41
1
10
-6.96837681670823
20
0.443136098555243
30
0
41
1
10
-6.96904305703399
20
0.440519738407147
30
0
41
1
10
-6.96942508964194
20
0.434972492094005
30
0
41
1
10
-6.96912327074104
20
0.432023475756551
30
0
41
1
10
-6.96761586971716
20
0.426116302508717
30
0
41
1
10
-6.96640667044278
20
0.423099880063631
30
0
41
1
10
-6.9632594025644
20
0.417097475848209
30
0
41
1
10
-6.96135311381423
20
0.41415595474092
30
0
41
1
10
-6.95487075366258
20
0.405468539491409
30
0
41
1
10
-6.94950896079736
20
0.399840471978024
30
0
41
1
10
-6.94370199058531
20
0.394519052844345
30
0
0
SPLINE
5
15C
100
AcDbEntity
8
1
62
256
6
ByLayer
370
18
48
1
60
0
100
AcDbSpline
70
4
71
3
72
8
73
4
40
0
40
0
40
0
40
0
40
1
40
1
40
1
40
1
41
1
10
-3.02046224885069
20
-0.249980947161674
30
0
41
1
10
-4.1359861011274
20
-0.107222523982614
30
0
41
1
10
-5.23174171602679
20
0.111228400779481
30
0
41
1
10
-6.31056345909118
20
0.394519052838035
30
0
0
SPLINE
5
15D
100
AcDbEntity
8
1
62
256
6
ByLayer
370
18
48
1
60
0
100
AcDbSpline
70
4
71
3
72
14
73
10
40
0
40
0
40
0
40
0
40
0.25
40
0.25
40
0.5
40
0.5
40
0.75
40
0.75
40
1
40
1
40
1
40
1
41
1
10
-1.73594520006441
20
-0.324980947161805
30
0
41
1
10
-1.84314979610446
20
-0.324980947161805
30
0
41
1
10
-1.95042328219969
20
-0.323449254272617
30
0
41
1
10
-2.16478964220227
20
-0.317513647984981
30
0
41
1
10
-2.27190023278152
20
-0.313100742437058
30
0
41
1
10
-2.4859848606051
20
-0.301152741664794
30
0
41
1
10
-2.59295877929037
20
-0.293621089038197
30
0
41
1
10
-2.80678930238935
20
-0.274859400504965
30
0
41
1
10
-2.91364525025708
20
-0.263650781524092
30
0
41
1
10
-3.02046224885069
20
-0.249980947161674
30
0
0
SPLINE
5
15E
100
AcDbEntity
8
1
62
256
6
ByLayer
370
18
48
1
60
0
100
AcDbSpline
70
4
71
3
72
14
73
10
40
0
40
0
40
0
40
0
40
0.25
40
0.25
40
0.5
40
0.5
40
0.75
40
0.75
40
1
40
1
40
1
40
1
41
1
10
3.02046224885072
20
-0.249980947161873
30
0
41
1
10
2.91367618098349
20
-0.263646823185127
30
0
41
1
10
2.80666688413962
20
-0.274872902970941
30
0
41
1
10
2.59260836335662
20
-0.293649067375753
30
0
41
1
10
2.48557990191407
20
-0.301179376033105
30
0
41
1
10
2.27148283436816
20
-0.313119988055348
30
0
41
1
10
2.1644144863397
20
-0.317526654577222
30
0
41
1
10
1.95022075456762
20
-0.323452236129242
30
0
41
1
10
1.8430947417375
20
-0.324980947161691
30
0
41
1
10
1.73594520006441
20
-0.324980947161691
30
0
0
SPLINE
5
15F
100
AcDbEntity
8
1
62
256
6
ByLayer
370
18
48
1
60
0
100
AcDbSpline
70
4
71
3
72
8
73
4
40
0
40
0
40
0
40
0
40
1
40
1
40
1
40
1
41
1
10
6.31056345909118
20
0.394519052838035
30
0
41
1
10
5.23174171602679
20
0.111228400779481
30
0
41
1
10
4.1359861011274
20
-0.107222523982614
30
0
41
1
10
3.02046224885069
20
-0.249980947161674
30
0
0
SPLINE
5
160
100
AcDbEntity
8
1
62
256
6
ByLayer
370
18
48
1
60
0
100
AcDbSpline
70
4
71
3
72
40
73
36
40
0
40
0
40
0
40
0
40
0.0312500000000087
40
0.0312500000000087
40
0.0625000000000174
40
0.0625000000000174
40
0.0781250000000198
40
0.0781250000000198
40
0.0937500000000222
40
0.0937500000000222
40
0.109375000000025
40
0.109375000000025
40
0.125000000000027
40
0.125000000000027
40
0.156250000000026
40
0.156250000000026
40
0.187500000000024
40
0.187500000000024
40
0.218750000000023
40
0.218750000000023
40
0.250000000000021
40
0.250000000000021
40
0.312500000000021
40
0.312500000000021
40
0.375000000000021
40
0.375000000000021
40
0.437500000000021
40
0.437500000000021
40
0.50000000000002
40
0.50000000000002
40
0.625000000000015
40
0.625000000000015
40
0.750000000000009
40
0.750000000000009
40
1
40
1
40
1
40
1
41
1
10
6.94370199057298
20
0.394519052838319
30
0
41
1
10
6.94949560394613
20
0.39982823196766
30
0
41
1
10
6.9547696385205
20
0.405342643436654
30
0
41
1
10
6.96353664392529
20
0.417072710650359
30
0
41
1
10
6.96690761888635
20
0.423224118274902
30
0
41
1
10
6.96915785814377
20
0.432219602519865
30
0
41
1
10
6.96943324881519
20
0.435114089853443
30
0
41
1
10
6.96901235433305
20
0.440690505253485
30
0
41
1
10
6.96829725749961
20
0.443380727673969
30
0
41
1
10
6.9660284372105
20
0.448294122549783
30
0
41
1
10
6.96446307291583
20
0.450572101252163
30
0
41
1
10
6.96069380192048
20
0.454727700184236
30
0
41
1
10
6.95851683438016
20
0.456587871636742
30
0
41
1
10
6.9513232003797
20
0.461676155240184
30
0
41
1
10
6.94560309325294
20
0.464430091165326
30
0
41
1
10
6.93346671813322
20
0.468952428293051
30
0
41
1
10
6.92700114264716
20
0.470750396595264
30
0
41
1
10
6.91354439935401
20
0.473737864933412
30
0
41
1
10
6.90651936764425
20
0.47492561812976
30
0
41
1
10
6.8922792992789
20
0.476824350812876
30
0
41
1
10
6.88505053830161
20
0.477539240813599
30
0
41
1
10
6.86312052932414
20
0.479163283900618
30
0
41
1
10
6.84817943934439
20
0.479560419705763
30
0
41
1
10
6.81787500488093
20
0.479471186456607
30
0
41
1
10
6.80250792684535
20
0.478976540973378
30
0
41
1
10
6.77145110599577
20
0.477324643893013
30
0
41
1
10
6.7557261014864
20
0.476161098836997
30
0
41
1
10
6.72426466292015
20
0.473326678573329
30
0
41
1
10
6.70850783880189
20
0.471655016990979
30
0
41
1
10
6.66117064223556
20
0.466019194826799
30
0
41
1
10
6.62952417807892
20
0.461442125692656
30
0
41
1
10
6.56608797546158
20
0.451051827023463
30
0
41
1
10
6.53429778488416
20
0.445232963789806
30
0
41
1
10
6.43873436581833
20
0.426175341576084
30
0
41
1
10
6.37477160274292
20
0.411379638935813
30
0
41
1
10
6.31056345909113
20
0.394519052838518
30
0
0
SPLINE
5
161
100
AcDbEntity
8
1
62
256
6
ByLayer
370
18
48
1
60
0
100
AcDbSpline
70
4
71
3
72
8
73
4
40
0
40
0
40
0
40
0
40
1
40
1
40
1
40
1
41
1
10
6.2229258812701
20
-0.249980947141125
30
0
41
1
10
6.46649386217231
20
-0.0379233125618441
30
0
41
1
10
6.70648353684354
20
0.177135671773783
30
0
41
1
10
6.94370199057298
20
0.394519052838319
30
0
0
SPLINE
5
162
100
AcDbEntity
8
1
62
256
6
ByLayer
370
18
48
1
60
0
100
AcDbSpline
70
4
71
3
72
30
73
26
40
0
40
0
40
0
40
0
40
0.249999999999992
40
0.249999999999992
40
0.374999999999982
40
0.374999999999982
40
0.499999999999972
40
0.499999999999972
40
0.562499999999968
40
0.562499999999968
40
0.624999999999963
40
0.624999999999963
40
0.687499999999958
40
0.687499999999958
40
0.749999999999953
40
0.749999999999953
40
0.781249999999959
40
0.781249999999959
40
0.812499999999965
40
0.812499999999965
40
0.874999999999977
40
0.874999999999977
40
0.937499999999988
40
0.937499999999988
40
1
40
1
40
1
40
1
41
1
10
6.32610759209325
20
-0.324980947161663
30
0
41
1
10
6.30895523289027
20
-0.324980947161663
30
0
41
1
10
6.29208157702351
20
-0.324377259675799
30
0
41
1
10
6.26750018480016
20
-0.321930725538721
30
0
41
1
10
6.25939445407607
20
-0.320848040210734
30
0
41
1
10
6.24372854904976
20
-0.31792809148601
30
0
41
1
10
6.2362068230992
20
-0.316109021782722
30
0
41
1
10
6.2256865724155
20
-0.312508448027302
30
0
41
1
10
6.22230861856275
20
-0.311160963692004
30
0
41
1
10
6.21591426295655
20
-0.308054038889253
30
0
41
1
10
6.21287035292437
20
-0.30627486682053
30
0
41
1
10
6.20751976611061
20
-0.302231168235778
30
0
41
1
10
6.20518386142254
20
-0.299949113688825
30
0
41
1
10
6.20160828920962
20
-0.294772273174488
30
0
41
1
10
6.2004140800575
20
-0.291948296582604
30
0
41
1
10
6.19971056995726
20
-0.287281667244486
30
0
41
1
10
6.19966320953691
20
-0.285643710974028
30
0
41
1
10
6.19995012421148
20
-0.282353947498052
30
0
41
1
10
6.20027976527979
20
-0.280687054084183
30
0
41
1
10
6.20179147637555
20
-0.275624633340158
30
0
41
1
10
6.20351609927599
20
-0.272168749535723
30
0
41
1
10
6.20785466491733
20
-0.265522644781726
30
0
41
1
10
6.21051007557585
20
-0.262245767396166
30
0
41
1
10
6.21636758997769
20
-0.255939059647659
30
0
41
1
10
6.21955595240865
20
-0.252914908876164
30
0
41
1
10
6.22292588125003
20
-0.249980947131121
30
0
0
SPLINE
5
163
100
AcDbEntity
8
1
62
256
6
ByLayer
370
18
48
1
60
0
100
AcDbSpline
70
4
71
3
72
8
73
4
40
0
40
0
40
0
40
0
40
1
40
1
40
1
40
1
41
1
10
7.81377042360424
20
0.474999999999994
30
0
41
1
10
7.41022395361122
20
0.204971331217308
30
0
41
1
10
7.00588166662237
20
-0.0618153720883186
30
0
41
1
10
6.60065048818433
20
-0.324980947161691
30
0
0
SPLINE
5
164
100
AcDbEntity
8
1
62
256
6
ByLayer
370
18
48
1
60
0
100
AcDbSpline
70
4
71
3
72
8
73
4
40
0
40
0
40
0
40
0
40
1
40
1
40
1
40
1
41
1
10
7.93710604868392
20
0.675000000000011
30
0
41
1
10
7.89599665707925
20
0.608329227881853
30
0
41
1
10
7.85488481363834
20
0.541662508489168
30
0
41
1
10
7.81377042360424
20
0.474999999999994
30
0
0
SPLINE
5
165
100
AcDbEntity
8
1
62
256
6
ByLayer
370
18
48
1
60
0
100
AcDbSpline
70
4
71
3
72
8
73
4
40
0
40
0
40
0
40
0
40
1
40
1
40
1
40
1
41
1
10
-14.5615187733782
20
0.23651877337818
30
0
41
1
10
-14.7076620247758
20
0.382662024775783
30
0
41
1
10
-14.8538226741323
20
0.528822674132243
30
0
41
1
10
-15
20
0.675000000000011
30
0
0
SPLINE
5
166
100
AcDbEntity
8
1
62
256
6
ByLayer
370
18
48
1
60
0
100
AcDbSpline
70
4
71
3
72
30
73
26
40
0
40
0
40
0
40
0
40
0.125
40
0.125
40
0.156249999999999
40
0.171874999999999
40
0.171874999999999
40
0.187499999999999
40
0.187499999999999
40
0.249999999999999
40
0.249999999999999
40
0.374999999999999
40
0.499999999999999
40
0.499999999999999
40
0.624999999999999
40
0.624999999999999
40
0.687499999999999
40
0.687499999999999
40
0.718749999999999
40
0.734374999999999
40
0.734374999999999
40
0.749999999999999
40
0.749999999999999
40
0.874999999999999
40
1
40
1
40
1
40
1
41
1
10
-9.23858426468057
20
11.8614157353194
30
0
41
1
10
-8.90730609878003
20
11.7951896538367
30
0
41
1
10
-8.56628360220857
20
11.7304142443024
30
0
41
1
10
-8.12739699654495
20
11.6520354419389
30
0
41
1
10
-7.99478388121106
20
11.628716384535
30
0
41
1
10
-7.86073337181568
20
11.605712060495
30
0
41
1
10
-7.77104488264928
20
11.5904483754419
30
0
41
1
10
-7.72601986729883
20
11.5828494934735
30
0
41
1
10
-7.50055067211655
20
11.5451202101483
30
0
41
1
10
-7.31879727490342
20
11.5157371466585
30
0
41
1
10
-6.76944309683984
20
11.4301581817393
30
0
41
1
10
-6.02606548541692
20
11.3229079641522
30
0
41
1
10
-5.26100900104177
20
11.2311426188771
30
0
41
1
10
-4.48499279472472
20
11.1480084133258
30
0
41
1
10
-4.09150520347666
20
11.1107562195022
30
0
41
1
10
-3.49282234212222
20
11.0620317713133
30
0
41
1
10
-3.29185130111245
20
11.0469828090408
30
0
41
1
10
-2.98823617022933
20
11.026285949998
30
0
41
1
10
-2.83588880542615
20
11.0164066995247
30
0
41
1
10
-2.68272211875419
20
11.0072480162197
30
0
41
1
10
-2.5804277463437
20
11.0013042462005
30
0
41
1
10
-2.52917050120646
20
10.9984124157431
30
0
41
1
10
-2.06779817225959
20
10.9731648784738
30
0
41
1
10
-1.24470324557365
20
10.9392327097796
30
0
41
1
10
-0.415869992146753
20
10.9277545065408
30
0
41
1
10
0
20
10.9277545065408
30
0
0
SPLINE
5
167
100
AcDbEntity
8
1
62
256
6
ByLayer
370
18
48
1
60
0
100
AcDbSpline
70
4
71
3
72
130
73
126
40
0
40
0
40
0
40
0
40
0.0156250000000002
40
0.0156250000000002
40
0.0234375000000005
40
0.0234375000000005
40
0.0312500000000007
40
0.0312500000000007
40
0.0625000000000017
40
0.0625000000000017
40
0.0781250000000021
40
0.0781250000000021
40
0.0859375000000024
40
0.0859375000000024
40
0.0937500000000027
40
0.0937500000000027
40
0.125000000000003
40
0.125000000000003
40
0.140625000000003
40
0.140625000000003
40
0.148437500000003
40
0.148437500000003
40
0.156250000000004
40
0.156250000000004
40
0.187500000000004
40
0.187500000000004
40
0.203125000000005
40
0.203125000000005
40
0.210937500000005
40
0.210937500000005
40
0.218750000000005
40
0.218750000000005
40
0.250000000000006
40
0.250000000000006
40
0.265625000000007
40
0.265625000000007
40
0.273437500000007
40
0.273437500000007
40
0.281250000000007
40
0.281250000000007
40
0.312500000000008
40
0.312500000000008
40
0.328125000000008
40
0.328125000000008
40
0.343750000000009
40
0.343750000000009
40
0.375000000000009
40
0.375000000000009
40
0.382812500000009
40
0.382812500000009
40
0.390625000000009
40
0.390625000000009
40
0.406250000000009
40
0.406250000000009
40
0.437500000000009
40
0.437500000000009
40
0.445312500000009
40
0.445312500000009
40
0.453125000000009
40
0.453125000000009
40
0.46875000000001
40
0.46875000000001
40
0.50000000000001
40
0.50000000000001
40
0.507812500000011
40
0.507812500000011
40
0.515625000000011
40
0.531250000000011
40
0.531250000000011
40
0.562500000000012
40
0.562500000000012
40
0.570312500000012
40
0.570312500000012
40
0.578125000000012
40
0.593750000000013
40
0.609375000000013
40
0.609375000000013
40
0.617187500000013
40
0.617187500000013
40
0.625000000000013
40
0.625000000000013
40
0.656250000000014
40
0.656250000000014
40
0.664062500000014
40
0.664062500000014
40
0.671875000000014
40
0.687500000000014
40
0.687500000000014
40
0.718750000000014
40
0.718750000000014
40
0.726562500000014
40
0.726562500000014
40
0.734375000000014
40
0.750000000000013
40
0.765625000000013
40
0.765625000000013
40
0.773437500000012
40
0.773437500000012
40
0.781250000000012
40
0.781250000000012
40
0.81250000000001
40
0.81250000000001
40
0.828125000000009
40
0.828125000000009
40
0.835937500000009
40
0.835937500000009
40
0.843750000000008
40
0.843750000000008
40
0.875000000000007
40
0.875000000000007
40
0.890625000000006
40
0.890625000000006
40
0.898437500000006
40
0.898437500000006
40
0.906250000000005
40
0.906250000000005
40
0.937500000000003
40
0.937500000000003
40
0.953125000000002
40
0.953125000000002
40
0.960937500000002
40
0.960937500000002
40
0.968750000000002
40
0.968750000000002
40
1
40
1
40
1
40
1
41
1
10
5.86197479331003
20
13.204508048187
30
0
41
1
10
5.89081143744269
20
13.2102828844368
30
0
41
1
10
5.91784217456456
20
13.2161812337364
30
0
41
1
10
5.95565446141453
20
13.2252013873923
30
0
41
1
10
5.96780225677605
20
13.2282369306057
30
0
41
1
10
5.99117280671288
20
13.2343641978957
30
0
41
1
10
6.00241519751222
20
13.2374616795433
30
0
41
1
10
6.05604031730681
20
13.2530200411296
30
0
41
1
10
6.09021230562888
20
13.2655306389114
30
0
41
1
10
6.12888847278262
20
13.2843094915269
30
0
41
1
10
6.1396707095017
20
13.2905717562175
30
0
41
1
10
6.15262970600378
20
13.2999626409066
30
0
41
1
10
6.15641286462434
20
13.3030925414776
30
0
41
1
10
6.16288802788566
20
13.309350763867
30
0
41
1
10
6.16558171458095
20
13.312484689532
30
0
41
1
10
6.17617991540203
20
13.3280014151681
30
0
41
1
10
6.17567444929949
20
13.3400250111338
30
0
41
1
10
6.16182172046229
20
13.3574944007491
30
0
41
1
10
6.15500876958575
20
13.3632230879572
30
0
41
1
10
6.14142690424663
20
13.3716759118825
30
0
41
1
10
6.13633838921132
20
13.3744701464526
30
0
41
1
10
6.12501685035696
20
13.3800120444538
30
0
41
1
10
6.11879801376872
20
13.3827514173337
30
0
41
1
10
6.08515112775092
20
13.3962053753399
30
0
41
1
10
6.04995011454869
20
13.4062827951104
30
0
41
1
10
5.98497330373388
20
13.4204741256284
30
0
41
1
10
5.96127333568737
20
13.4250497875186
30
0
41
1
10
5.92258411182971
20
13.4316887217676
30
0
41
1
10
5.9091380378309
20
13.4338681293959
30
0
41
1
10
5.88129314454702
20
13.4381349286327
30
0
41
1
10
5.86694453759191
20
13.440215110704
30
0
41
1
10
5.79310901733197
20
13.4503610155308
30
0
41
1
10
5.72739338292337
20
13.4576672695485
30
0
41
1
10
5.61897731359466
20
13.4675519364803
30
0
41
1
10
5.58118871833284
20
13.4706666190241
30
0
41
1
10
5.52195799529798
20
13.4750766164794
30
0
41
1
10
5.50175362824265
20
13.4765049503855
30
0
41
1
10
5.46088475295011
20
13.4792484227767
30
0
41
1
10
5.4401787792838
20
13.4805669008726
30
0
41
1
10
5.33531298394311
20
13.4869035885674
30
0
41
1
10
5.24717668779152
20
13.4911617935929
30
0
41
1
10
5.10863754389894
20
13.4964456432365
30
0
41
1
10
5.06139597766375
20
13.4980216315444
30
0
41
1
10
4.96471669754303
20
13.5008051941528
30
0
41
1
10
4.91595092326372
20
13.5019931908016
30
0
41
1
10
4.76872771813504
20
13.5049741874328
30
0
41
1
10
4.66921314497324
20
13.5061942970903
30
0
41
1
10
4.54310500911205
20
13.5067865555471
30
0
41
1
10
4.51779699978729
20
13.5068578721653
30
0
41
1
10
4.46700540218305
20
13.5069048817596
30
0
41
1
10
4.44145881904254
20
13.5068802791049
30
0
41
1
10
4.36520696219955
20
13.5066622761516
30
0
41
1
10
4.31479730518532
20
13.5063262514056
30
0
41
1
10
4.16480701863708
20
13.5047572835259
30
0
41
1
10
4.0664554499503
20
13.50296967663
30
0
41
1
10
3.94559850664325
20
13.4997502782746
30
0
41
1
10
3.92153201764435
20
13.4990566543225
30
0
41
1
10
3.87361281179378
20
13.4975663705386
30
0
41
1
10
3.84984992634762
20
13.4967722902748
30
0
41
1
10
3.77954425537348
20
13.4942559836665
30
0
41
1
10
3.73381550579782
20
13.4923948956867
30
0
41
1
10
3.59997485254564
20
13.4862494209798
30
0
41
1
10
3.51518222570215
20
13.4814085608364
30
0
41
1
10
3.41487140783957
20
13.4743065658019
30
0
41
1
10
3.39504653433065
20
13.4728292153202
30
0
41
1
10
3.35626399849792
20
13.4697861588278
30
0
41
1
10
3.29940351150091
20
13.4650913126245
30
0
41
1
10
3.24640268760626
20
13.4600015983212
30
0
41
1
10
3.14545189614631
20
13.4492737572253
30
0
41
1
10
3.08484555504805
20
13.441395193645
30
0
41
1
10
3.01774205038077
20
13.4305029859729
30
0
41
1
10
3.00478152500102
20
13.4282752178997
30
0
41
1
10
2.97998392239637
20
13.4237563582411
30
0
41
1
10
2.94437870489443
20
13.4168678327125
30
0
41
1
10
2.89285056118422
20
13.4048285409451
30
0
41
1
10
2.85984780040525
20
13.3945780445133
30
0
41
1
10
2.83820795534336
20
13.386645849515
30
0
41
1
10
2.83151412144483
20
13.3839610251592
30
0
41
1
10
2.81917964422561
20
13.3785073402366
30
0
41
1
10
2.81353104181667
20
13.3757339728012
30
0
41
1
10
2.78806787172465
20
13.3617031638338
30
0
41
1
10
2.77668392138793
20
13.3500608661657
30
0
41
1
10
2.773605548023
20
13.3349647275578
30
0
41
1
10
2.77355393540719
20
13.3319128549546
30
0
41
1
10
2.77457573097595
20
13.3257990480519
30
0
41
1
10
2.77778918477321
20
13.3166022703904
30
0
41
1
10
2.78594717185848
20
13.3073293321552
30
0
41
1
10
2.80874565174605
20
13.2886900362249
30
0
41
1
10
2.83253575553235
20
13.2761380826813
30
0
41
1
10
2.87342053150078
20
13.2603339926391
30
0
41
1
10
2.88214697013007
20
13.2571733631969
30
0
41
1
10
2.90054977401357
20
13.2509040953682
30
0
41
1
10
2.9296348278514
20
13.2415567027106
30
0
41
1
10
2.98539109308083
20
13.2262691229505
30
0
41
1
10
3.03767560926755
20
13.2143794514483
30
0
41
1
10
3.07980488528835
20
13.2056054669994
30
0
41
1
10
3.09433466835813
20
13.2027047359549
30
0
41
1
10
3.12438253192477
20
13.1969543945758
30
0
41
1
10
3.13991927108293
20
13.1941015060779
30
0
41
1
10
3.21992617946623
20
13.1800095044218
30
0
41
1
10
3.28999173234234
20
13.1695115893076
30
0
41
1
10
3.40386034808634
20
13.1550126325889
30
0
41
1
10
3.44328719192825
20
13.1503887374417
30
0
41
1
10
3.50467290389784
20
13.143787747327
30
0
41
1
10
3.52550959932739
20
13.1416433044331
30
0
41
1
10
3.56794614772951
20
13.1374707600237
30
0
41
1
10
3.58960013450508
20
13.1354380639496
30
0
41
1
10
3.698846003836
20
13.1256638495186
30
0
41
1
10
3.7896896907564
20
13.1190401944898
30
0
41
1
10
3.93098320620626
20
13.1109473004481
30
0
41
1
10
3.9789240611085
20
13.108558188299
30
0
41
1
10
4.05212751228922
20
13.1054568997642
30
0
41
1
10
4.07674434311917
20
13.1045036312575
30
0
41
1
10
4.12641806158524
20
13.1027626272411
30
0
41
1
10
4.15141093673188
20
13.1019775850794
30
0
41
1
10
4.27623640045243
20
13.0985060567932
30
0
41
1
10
4.37650773414791
20
13.0971415667257
30
0
41
1
10
4.52751775576806
20
13.097189924574
30
0
41
1
10
4.57795552606743
20
13.0975568007812
30
0
41
1
10
4.65376760078763
20
13.0986448108987
30
0
41
1
10
4.67912788565059
20
13.0990986769365
30
0
41
1
10
4.72955490715626
20
13.1001812389061
30
0
41
1
10
4.75459927575167
20
13.1008088882118
30
0
41
1
10
4.87899115557337
20
13.1043688108794
30
0
41
1
10
4.97586823909617
20
13.108558282151
30
0
41
1
10
5.07014842312444
20
13.1140253627233
30
0
0
SPLINE
5
168
100
AcDbEntity
8
1
62
256
6
ByLayer
370
18
48
1
60
0
100
AcDbSpline
70
4
71
3
72
8
73
4
40
0
40
0
40
0
40
0
40
1
40
1
40
1
40
1
41
1
10
23.5917145669325
20
13.6525403718637
30
0
41
1
10
23.7018994169232
20
13.6520344543341
30
0
41
1
10
23.8136326748212
20
13.6517907459126
30
0
41
1
10
23.9269969661815
20
13.6518365248034
30
0
0
SPLINE
5
169
100
AcDbEntity
8
1
62
256
6
ByLayer
370
18
48
1
60
0
100
AcDbSpline
70
4
71
3
72
13
73
9
40
0
40
0
40
0
40
0
40
0.499999999999992
40
0.499999999999992
40
0.62499999999999
40
0.62499999999999
40
0.749999999999988
40
1
40
1
40
1
40
1
41
1
10
23.5917145669325
20
13.6525403718637
30
0
41
1
10
23.4894505706142
20
13.6514765948357
30
0
41
1
10
23.3844103286466
20
13.6506296672852
30
0
41
1
10
23.249500195713
20
13.6499072310142
30
0
41
1
10
23.2223869898577
20
13.6497798718874
30
0
41
1
10
23.1681460435015
20
13.6495613065501
30
0
41
1
10
23.086652983729
20
13.6492870697467
30
0
41
1
10
23.004766942589
20
13.6491759133967
30
0
41
1
10
22.95
20
13.6491759133967
30
0
0
SPLINE
5
16A
100
AcDbEntity
8
1
62
256
6
ByLayer
370
18
48
1
60
0
100
AcDbSpline
70
4
71
3
72
101
73
97
40
0
40
0
40
0
40
0
40
0.0312499999999997
40
0.0624999999999996
40
0.0624999999999996
40
0.0703124999999996
40
0.0703124999999996
40
0.0781249999999997
40
0.0781249999999997
40
0.0937499999999997
40
0.0937499999999997
40
0.125
40
0.156249999999999
40
0.156249999999999
40
0.171874999999999
40
0.171874999999999
40
0.179687499999999
40
0.179687499999999
40
0.187499999999999
40
0.187499999999999
40
0.218749999999999
40
0.218749999999999
40
0.249999999999999
40
0.249999999999999
40
0.265624999999999
40
0.2734375
40
0.2734375
40
0.28125
40
0.28125
40
0.3125
40
0.3125
40
0.34375
40
0.375000000000001
40
0.375000000000001
40
0.382812500000001
40
0.382812500000001
40
0.390625000000001
40
0.390625000000001
40
0.406250000000001
40
0.406250000000001
40
0.437500000000002
40
0.468750000000002
40
0.468750000000002
40
0.476562500000002
40
0.476562500000002
40
0.484375000000003
40
0.484375000000003
40
0.500000000000003
40
0.500000000000003
40
0.531250000000003
40
0.562500000000003
40
0.562500000000003
40
0.578125000000003
40
0.578125000000003
40
0.585937500000002
40
0.585937500000002
40
0.593750000000002
40
0.593750000000002
40
0.625000000000002
40
0.656250000000002
40
0.656250000000002
40
0.671875000000002
40
0.679687500000002
40
0.679687500000002
40
0.687500000000002
40
0.687500000000002
40
0.718750000000001
40
0.718750000000001
40
0.750000000000001
40
0.750000000000001
40
0.781250000000001
40
0.781250000000001
40
0.789062500000001
40
0.789062500000001
40
0.796875000000001
40
0.796875000000001
40
0.812500000000001
40
0.812500000000001
40
0.84375
40
0.84375
40
0.875
40
0.875
40
0.8828125
40
0.8828125
40
0.890625
40
0.890625
40
0.90625
40
0.90625
40
0.9375
40
0.96875
40
0.96875
40
0.9765625
40
0.9765625
40
0.984375
40
0.984375
40
1
40
1
40
1
40
1
41
1
10
-8.96485134643271
20
12.1351486535673
30
0
41
1
10
-8.81257342950673
20
12.1243033784519
30
0
41
1
10
-8.50486755508439
20
12.1067474875528
30
0
41
1
10
-8.19089801876358
20
12.0976238105156
30
0
41
1
10
-7.99265664774985
20
12.0946630607002
30
0
41
1
10
-7.95290758460973
20
12.0942082326778
30
0
41
1
10
-7.87320545725348
20
12.0935768785228
30
0
41
1
10
-7.83319767256849
20
12.0934005832545
30
0
41
1
10
-7.71355069788322
20
12.0932942223408
30
0
41
1
10
-7.63413404570044
20
12.0937836803433
30
0
41
1
10
-7.39690493754212
20
12.0968936423863
30
0
41
1
10
-7.08331628710917
20
12.1054122480732
30
0
41
1
10
-6.77505419258648
20
12.1224000075291
30
0
41
1
10
-6.545880422644
20
12.138279925798
30
0
41
1
10
-6.46982696810987
20
12.1440970586366
30
0
41
1
10
-6.35626306662957
20
12.1536100677894
30
0
41
1
10
-6.31851431322823
20
12.1569112078715
30
0
41
1
10
-6.24366222035613
20
12.1637311994874
30
0
41
1
10
-6.20649979228921
20
12.167254895277
30
0
41
1
10
-6.02198775967435
20
12.1854276195245
30
0
41
1
10
-5.87852728110116
20
12.2017356047254
30
0
41
1
10
-5.5996307339588
20
12.2375906234153
30
0
41
1
10
-5.46419531259693
20
12.2571382358953
30
0
41
1
10
-5.26705911277401
20
12.2887283787211
30
0
41
1
10
-5.16999830647765
20
12.305091544469
30
0
41
1
10
-5.07522651686676
20
12.32228453406
30
0
41
1
10
-5.01255919386341
20
12.3339289880331
30
0
41
1
10
-4.98146808935306
20
12.3398456758772
30
0
41
1
10
-4.82822930105559
20
12.369697260306
30
0
41
1
10
-4.71196542368429
20
12.3945692548348
30
0
41
1
10
-4.49158143941193
20
12.445974729409
30
0
41
1
10
-4.28334436137516
20
12.499043068836
30
0
41
1
10
-4.09922317943634
20
12.5549385431875
30
0
41
1
10
-3.99188299532369
20
12.5906358247349
30
0
41
1
10
-3.97077375162172
20
12.5978238740648
30
0
41
1
10
-3.92953472485593
20
12.6122052290377
30
0
41
1
10
-3.90939535490639
20
12.6194011570469
30
0
41
1
10
-3.85040042941893
20
12.6409995250623
30
0
41
1
10
-3.81296702749339
20
12.6554124627441
30
0
41
1
10
-3.70625732192724
20
12.6986554030613
30
0
41
1
10
-3.57885549536925
20
12.7563215627136
30
0
41
1
10
-3.48091298414783
20
12.8136602991339
30
0
41
1
10
-3.42911973173702
20
12.8493062881705
30
0
41
1
10
-3.41923337952844
20
12.8564260057992
30
0
41
1
10
-3.40041578820893
20
12.8706445078936
30
0
41
1
10
-3.39147294709141
20
12.8777533017567
30
0
41
1
10
-3.36619267542429
20
12.8989628513963
30
0
41
1
10
-3.35141022988211
20
12.9129345833297
30
0
41
1
10
-3.31315899025861
20
12.9543398826183
30
0
41
1
10
-3.27838115411629
20
13.0081869346625
30
0
41
1
10
-3.27562708594257
20
13.0592584876254
30
0
41
1
10
-3.28580482900574
20
13.0965037028892
30
0
41
1
10
-3.29124205362751
20
13.1087423882354
30
0
41
1
10
-3.30253335389628
20
13.1268338428219
30
0
41
1
10
-3.30682755723046
20
13.1328283327154
30
0
41
1
10
-3.31642758926341
20
13.1446711744255
30
0
41
1
10
-3.32173327735046
20
13.1505222521273
30
0
41
1
10
-3.35076485380645
20
13.1794322824861
30
0
41
1
10
-3.41319449451822
20
13.2234803286138
30
0
41
1
10
-3.50696626583479
20
13.2633981187051
30
0
41
1
10
-3.58919977943191
20
13.2918759241356
30
0
41
1
10
-3.63329851022576
20
13.3057494867935
30
0
41
1
10
-3.68195438467114
20
13.3190896207575
30
0
41
1
10
-3.71541786424322
20
13.3278659962966
30
0
41
1
10
-3.73267367914301
20
13.3321977575921
30
0
41
1
10
-3.8210140155347
20
13.3534433567789
30
0
41
1
10
-3.89863857943752
20
13.3692228395537
30
0
41
1
10
-4.06740543679155
20
13.3986280435988
30
0
41
1
10
-4.15854859835301
20
13.4122532352062
30
0
41
1
10
-4.35441328406736
20
13.4375733722603
30
0
41
1
10
-4.45913321474154
20
13.449268054928
30
0
41
1
10
-4.59883965645926
20
13.4627925778539
30
0
41
1
10
-4.62716584588776
20
13.4654369871813
30
0
41
1
10
-4.68438158934521
20
13.4705911093631
30
0
41
1
10
-4.71330121250574
20
13.4731037529798
30
0
41
1
10
-4.80098573395745
20
13.4804563064686
30
0
41
1
10
-4.86067563390884
20
13.4851110065148
30
0
41
1
10
-5.04339347131744
20
13.4983906376748
30
0
41
1
10
-5.17005972652927
20
13.5063333152282
30
0
41
1
10
-5.43306415601933
20
13.5206399946341
30
0
41
1
10
-5.56940159780598
20
13.5270037161786
30
0
41
1
10
-5.74604769145668
20
13.5340800990854
30
0
41
1
10
-5.78171412418504
20
13.5354522301171
30
0
41
1
10
-5.85357073297891
20
13.5381064521488
30
0
41
1
10
-5.88965124819774
20
13.5393845794693
30
0
41
1
10
-5.9983438457663
20
13.5430783729008
30
0
41
1
10
-6.07140665166341
20
13.545353645832
30
0
41
1
10
-6.29236601723142
20
13.5516611220472
30
0
41
1
10
-6.5916913983464
20
13.5586942191929
30
0
41
1
10
-6.90034087837516
20
13.5632959270019
30
0
41
1
10
-7.09622692155943
20
13.5654597203559
30
0
41
1
10
-7.13555353913884
20
13.5658566664513
30
0
41
1
10
-7.21450890083032
20
13.5665793006156
30
0
41
1
10
-7.25419789407282
20
13.566905392217
30
0
41
1
10
-7.37318569519395
20
13.5677731016915
30
0
41
1
10
-7.45239952293679
20
13.5682048998295
30
0
41
1
10
-7.53150433490742
20
13.5684956650925
30
0
0
SPLINE
5
16B
100
AcDbEntity
8
1
62
256
6
ByLayer
370
18
48
1
60
0
100
AcDbSpline
70
4
71
3
72
22
73
18
40
0
40
0
40
0
40
0
40
0.0625000000000001
40
0.0625000000000001
40
0.125
40
0.125
40
0.250000000000001
40
0.250000000000001
40
0.375000000000001
40
0.375000000000001
40
0.500000000000001
40
0.500000000000001
40
0.625000000000001
40
0.625000000000001
40
0.750000000000001
40
0.750000000000001
40
1
40
1
40
1
40
1
41
1
10
-15
20
0.875000000001506
30
0
41
1
10
-15
20
0.880589068055571
30
0
41
1
10
-15
20
0.88618611265801
30
0
41
1
10
-15
20
0.897396313717934
30
0
41
1
10
-15
20
0.903041140446447
30
0
41
1
10
-15
20
0.919714084930661
30
0
41
1
10
-15
20
0.930486799286513
30
0
41
1
10
-15
20
0.951449148566496
30
0
41
1
10
-15
20
0.961697793674887
30
0
41
1
10
-15
20
0.981393856273371
30
0
41
1
10
-15
20
0.99078891893015
30
0
41
1
10
-15
20
1.00885793975522
30
0
41
1
10
-15
20
1.0175308391909
30
0
41
1
10
-15
20
1.03427897453579
30
0
41
1
10
-15
20
1.04235433752584
30
0
41
1
10
-15
20
1.06551265539923
30
0
41
1
10
-15
20
1.07967512164055
30
0
41
1
10
-15
20
1.09294494718759
30
0
0
SPLINE
5
16C
100
AcDbEntity
8
1
62
256
6
ByLayer
370
18
48
1
60
0
100
AcDbSpline
70
4
71
3
72
18
73
14
40
0
40
0
40
0
40
0
40
0.250000000000001
40
0.250000000000001
40
0.375
40
0.375
40
0.499999999999999
40
0.499999999999999
40
0.749999999999998
40
0.749999999999998
40
0.874999999999999
40
0.874999999999999
40
1
40
1
40
1
40
1
41
1
10
9.37125442462687
20
0.874999999999858
30
0
41
1
10
9.37125442462687
20
0.904694818135255
30
0
41
1
10
9.37285807557871
20
0.934194699485403
30
0
41
1
10
9.3776881894521
20
0.978149787155473
30
0
41
1
10
9.37971768419914
20
0.992823834800475
30
0
41
1
10
9.38455354037075
20
1.02167884394626
30
0
41
1
10
9.38735060736528
20
1.03583546547083
30
0
41
1
10
9.39684924666645
20
1.07751409954724
30
0
41
1
10
9.404649592807
20
1.10425107210793
30
0
41
1
10
9.41859288853715
20
1.14275413634832
30
0
41
1
10
9.4236398786291
20
1.15536388660846
30
0
41
1
10
9.43430393517238
20
1.17956393427201
30
0
41
1
10
9.43993646329218
20
1.19120677842272
30
0
41
1
10
9.44586314547917
20
1.20240209734692
30
0
0
SPLINE
5
16D
100
AcDbEntity
8
1
62
256
6
ByLayer
370
18
48
1
60
0
100
AcDbSpline
70
4
71
3
72
16
73
12
40
0
40
0
40
0
40
0
40
0.125
40
0.125
40
0.25
40
0.25
40
0.5
40
0.5
40
0.75
40
0.75
40
1
40
1
40
1
40
1
41
1
10
8.18325005084313
20
1.375
30
0
41
1
10
8.2364744652283
20
1.37500000000023
30
0
41
1
10
8.28967629332496
20
1.37382406147052
30
0
41
1
10
8.39581505821266
20
1.36943560360865
30
0
41
1
10
8.44879059323313
20
1.36622218099544
30
0
41
1
10
8.6074674712502
20
1.35386984907743
30
0
41
1
10
8.71292130173921
20
1.34204292581458
30
0
41
1
10
8.92327148440828
20
1.31233480150524
30
0
41
1
10
9.02816810069339
20
1.29445646866972
30
0
41
1
10
9.23743204999252
20
1.25295172653057
30
0
41
1
10
9.34180310420965
20
1.22936572991563
30
0
41
1
10
9.44586314547905
20
1.20240209734683
30
0
0
SPLINE
5
16E
100
AcDbEntity
8
1
62
256
6
ByLayer
370
18
48
1
60
0
100
AcDbSpline
70
4
71
3
72
26
73
22
40
0
40
0
40
0
40
0
40
0.125
40
0.125
40
0.15625
40
0.15625
40
0.1875
40
0.1875
40
0.25
40
0.25
40
0.5
40
0.5
40
0.625
40
0.625
40
0.75
40
0.75
40
0.875
40
0.875
40
0.9375
40
0.9375
40
1
40
1
40
1
40
1
41
1
10
3.82720524665191
20
1.375
30
0
41
1
10
3.66784017059436
20
1.375
30
0
41
1
10
3.50851321889621
20
1.37094450465955
30
0
41
1
10
3.3093884139609
20
1.36227063710794
30
0
41
1
10
3.26956516787257
20
1.36035344049768
30
0
41
1
10
3.18992183086647
20
1.35618341463495
30
0
41
1
10
3.1498673134349
20
1.35391738932401
30
0
41
1
10
3.02996429579406
20
1.34666632694675
30
0
41
1
10
2.95008484346241
20
1.34121480212659
30
0
41
1
10
2.55092030470416
20
1.31138613870661
30
0
41
1
10
2.23233478291988
20
1.27928046028188
30
0
41
1
10
1.75474950260408
20
1.22788495741705
30
0
41
1
10
1.59560357042369
20
1.21021000714069
30
0
41
1
10
1.27722899968975
20
1.17577381700173
30
0
41
1
10
1.11800182548021
20
1.15899639959054
30
0
41
1
10
0.799204148954971
20
1.12923453082303
30
0
41
1
10
0.639631382539051
20
1.11627509243578
30
0
41
1
10
0.399749988067498
20
1.10260550904388
30
0
41
1
10
0.31969693270085
20
1.09901890502678
30
0
41
1
10
0.159774363699597
20
1.09418805527122
30
0
41
1
10
0.0798615061981423
20
1.09294494717704
30
0
41
1
10
0
20
1.09294494717704
30
0
0
SPLINE
5
16F
100
AcDbEntity
8
1
62
256
6
ByLayer
370
18
48
1
60
0
100
AcDbSpline
70
4
71
3
72
18
73
14
40
0
40
0
40
0
40
0
40
0.250000000000006
40
0.250000000000006
40
0.500000000000013
40
0.500000000000013
40
0.625000000000009
40
0.625000000000009
40
0.750000000000006
40
0.750000000000006
40
0.875000000000003
40
0.875000000000003
40
1
40
1
40
1
40
1
41
1
10
8.97509300113904
20
-0.269594177821347
30
0
41
1
10
9.01152644313692
20
-0.276266358807078
30
0
41
1
10
9.04786915185497
20
-0.282718617451991
30
0
41
1
10
9.12036847898457
20
-0.294911325240093
30
0
41
1
10
9.15652522117634
20
-0.300657493979827
30
0
41
1
10
9.21061352336176
20
-0.308394804813759
30
0
41
1
10
9.2286184412612
20
-0.310825062109671
30
0
41
1
10
9.26457702835458
20
-0.315286220540855
30
0
41
1
10
9.28248929533831
20
-0.317312073862979
30
0
41
1
10
9.31797101305719
20
-0.320786465321106
30
0
41
1
10
9.33556537132938
20
-0.322240606437305
30
0
41
1
10
9.37037734087883
20
-0.324333802126603
30
0
41
1
10
9.38759768040057
20
-0.324980947161663
30
0
41
1
10
9.40454881002665
20
-0.324980947161663
30
0
0
SPLINE
5
170
100
AcDbEntity
8
1
62
256
6
ByLayer
370
18
48
1
60
0
100
AcDbSpline
70
4
71
3
72
8
73
4
40
0
40
0
40
0
40
0
40
1
40
1
40
1
40
1
41
1
10
15.2430820962789
20
0.129903810567669
30
0
41
1
10
15.4272614048143
20
0.311558795603588
30
0
41
1
10
15.6113958294121
20
0.493259035297626
30
0
41
1
10
15.7954898626159
20
0.675000000000011
30
0
0
SPLINE
5
171
100
AcDbEntity
8
1
62
256
6
ByLayer
370
18
48
1
60
0
100
AcDbSpline
70
4
71
3
72
8
73
4
40
0
40
0
40
0
40
0
40
1
40
1
40
1
40
1
41
1
10
14.8184692127086
20
-0.249980947161674
30
0
41
1
10
14.9604945734528
20
-0.123759749017154
30
0
41
1
10
15.1020216400389
20
0.0028773178347024
30
0
41
1
10
15.2430820962789
20
0.129903810567669
30
0
0
SPLINE
5
172
100
AcDbEntity
8
1
62
256
6
ByLayer
370
18
48
1
60
0
100
AcDbSpline
70
4
71
3
72
18
73
14
40
0
40
0
40
0
40
0
40
0.125000000000007
40
0.125000000000007
40
0.250000000000013
40
0.250000000000013
40
0.500000000000027
40
0.500000000000027
40
0.625000000000026
40
0.625000000000026
40
0.750000000000024
40
0.750000000000024
40
1
40
1
40
1
40
1
41
1
10
14.7171680292953
20
-0.324980947161748
30
0
41
1
10
14.7186893510728
20
-0.324980947161748
30
0
41
1
10
14.7207746365131
20
-0.324388699392472
30
0
41
1
10
14.7259716490942
20
-0.322125675212902
30
0
41
1
10
14.729075461519
20
-0.320451985953838
30
0
41
1
10
14.7393963271011
20
-0.314194627055087
30
0
41
1
10
14.7478183865456
20
-0.308259492032221
30
0
41
1
10
14.7614560038651
20
-0.297902603733888
30
0
41
1
10
14.7661922846909
20
-0.294192871663853
30
0
41
1
10
14.7760027492335
20
-0.286317935978389
30
0
41
1
10
14.7810985572145
20
-0.28213438487478
30
0
41
1
10
14.7967015141747
20
-0.269079983040143
30
0
41
1
10
14.8074408879534
20
-0.25978207251589
30
0
41
1
10
14.8184692127086
20
-0.249980947161674
30
0
0
SPLINE
5
173
100
AcDbEntity
8
1
62
256
6
ByLayer
370
18
48
1
60
0
100
AcDbSpline
70
4
71
3
72
12
73
8
40
0
40
0
40
0
40
0
40
0.358938353211422
40
0.358938353211422
40
0.717876706422844
40
0.717876706422844
40
1
40
1
40
1
40
1
41
1
10
9.13284665391032
20
-0.324980947161691
30
0
41
1
10
9.14372986087076
20
-0.324980947161691
30
0
41
1
10
9.15494813398624
20
-0.324297936900507
30
0
41
1
10
9.17785494090333
20
-0.321962244275824
30
0
41
1
10
9.18954659679824
20
-0.320303380455783
30
0
41
1
10
9.21076689725166
20
-0.316635418411323
30
0
41
1
10
9.22018631298116
20
-0.314781589375542
30
0
41
1
10
9.22962551725001
20
-0.31273067205359
30
0
0
SPLINE
5
174
100
AcDbEntity
8
1
62
256
6
ByLayer
370
18
48
1
60
0
100
AcDbSpline
70
4
71
3
72
8
73
4
40
0
40
0
40
0
40
0
40
1
40
1
40
1
40
1
41
1
10
34.4040194052175
20
13.6558252999575
30
0
41
1
10
34.3885456996072
20
13.6558532703329
30
0
41
1
10
34.3730000904736
20
13.6558645515359
30
0
41
1
10
34.35738095907
20
13.6558588126575
30
0
0
SPLINE
5
175
100
AcDbEntity
8
1
62
256
6
ByLayer
370
18
48
1
60
0
100
AcDbSpline
70
4
71
3
72
34
73
30
40
0
40
0
40
0
40
0
40
0.0350645561349849
40
0.0350645561349849
40
0.172912476687129
40
0.172912476687129
40
0.207374456825166
40
0.207374456825166
40
0.241836436963203
40
0.241836436963203
40
0.310760397239276
40
0.310760397239276
40
0.448608317791423
40
0.448608317791423
40
0.483070297929457
40
0.483070297929457
40
0.517532278067492
40
0.517532278067492
40
0.586456238343562
40
0.586456238343562
40
0.724304158895697
40
0.724304158895697
40
0.758766139033734
40
0.758766139033734
40
0.793228119171771
40
0.793228119171771
40
0.862152079447847
40
0.862152079447847
40
1
40
1
40
1
40
1
41
1
10
20.3700706449055
20
13.6749999512513
30
0
41
1
10
20.3807290044099
20
13.674998361406
30
0
41
1
10
20.3920632581779
20
13.6749652017752
30
0
41
1
10
20.4512600040134
20
13.6746542008039
30
0
41
1
10
20.5087507950158
20
13.6739439937145
30
0
41
1
10
20.5939174219677
20
13.6725993706833
30
0
41
1
10
20.6116483850841
20
13.6723070871695
30
0
41
1
10
20.648118113132
20
13.6716862696833
30
0
41
1
10
20.666892588857
20
13.6713572063368
30
0
41
1
10
20.724809150076
20
13.6703211135082
30
0
41
1
10
20.7655414626643
20
13.6695652438574
30
0
41
1
10
20.894006740312
20
13.6671556748312
30
0
41
1
10
20.9879605699778
20
13.6653600088183
30
0
41
1
10
21.1161742431397
20
13.6630485792866
30
0
41
1
10
21.1423480301635
20
13.6625832061553
30
0
41
1
10
21.1952702493904
20
13.6616591883964
30
0
41
1
10
21.2220806414812
20
13.6611994167911
30
0
41
1
10
21.3035439869826
20
13.6598329571764
30
0
41
1
10
21.3592272323538
20
13.6589391930381
30
0
41
1
10
21.530345436226
20
13.6563555266557
30
0
41
1
10
21.6498177894696
20
13.6547635066986
30
0
41
1
10
21.8061740877931
20
13.6530788703008
30
0
41
1
10
21.8376906998183
20
13.6527584331567
30
0
41
1
10
21.9008586484716
20
13.6521563266217
30
0
41
1
10
21.9325633823216
20
13.6518740748146
30
0
41
1
10
22.0280347438614
20
13.6510864113581
30
0
41
1
10
22.0921578842941
20
13.6506401557501
30
0
41
1
10
22.2859373913798
20
13.6495568242225
30
0
41
1
10
22.4169929920262
20
13.6491759133967
30
0
41
1
10
22.55
20
13.6491759133967
30
0
0
SPLINE
5
176
100
AcDbEntity
8
1
62
256
6
ByLayer
370
18
48
1
60
0
100
AcDbSpline
70
4
71
3
72
79
73
75
40
0
40
0
40
0
40
0
40
0.0295502025496355
40
0.0295502025496355
40
0.0452026186375446
40
0.0452026186375446
40
0.0608550347254537
40
0.0608550347254537
40
0.12346469907709
40
0.12346469907709
40
0.154769531252908
40
0.154769531252908
40
0.170421947340817
40
0.170421947340817
40
0.178248155384771
40
0.178248155384771
40
0.186074363428726
40
0.186074363428726
40
0.248684027780362
40
0.248684027780362
40
0.27998885995618
40
0.27998885995618
40
0.29564127604409
40
0.29564127604409
40
0.311293692131999
40
0.311293692131999
40
0.373903356483635
40
0.373903356483635
40
0.389555772571545
40
0.397381980615499
40
0.397381980615499
40
0.405208188659454
40
0.405208188659454
40
0.436513020835272
40
0.436513020835272
40
0.499122685186909
40
0.499122685186909
40
0.514775101274818
40
0.514775101274818
40
0.522601309318773
40
0.522601309318773
40
0.530427517362727
40
0.530427517362727
40
0.561732349538546
40
0.561732349538546
40
0.624342013890183
40
0.624342013890183
40
0.639994429978092
40
0.639994429978092
40
0.655646846066001
40
0.655646846066001
40
0.686951678241819
40
0.718256510417638
40
0.718256510417638
40
0.733908926505547
40
0.741735134549502
40
0.741735134549502
40
0.749561342593456
40
0.749561342593456
40
0.812171006945092
40
0.812171006945092
40
0.84347583912091
40
0.84347583912091
40
0.859128255208819
40
0.859128255208819
40
0.874780671296728
40
0.874780671296728
40
0.937390335648364
40
0.937390335648364
40
0.968695167824182
40
0.968695167824182
40
0.984347583912091
40
0.984347583912091
40
1
40
1
40
1
40
1
41
1
10
-2.62308705030571
20
13.6749999996858
30
0
41
1
10
-2.62016341143274
20
13.6749996824142
30
0
41
1
10
-2.61390196942338
20
13.6748149711772
30
0
41
1
10
-2.59925520823401
20
13.6742582053124
30
0
41
1
10
-2.59325225576043
20
13.6740151148613
30
0
41
1
10
-2.57937315469169
20
13.673429859148
30
0
41
1
10
-2.57148723119002
20
13.6730872585897
30
0
41
1
10
-2.52742315223128
20
13.6711351384398
30
0
41
1
10
-2.47806730491661
20
13.6688368215988
30
0
41
1
10
-2.38371343948307
20
13.6645209240311
30
0
41
1
10
-2.34885314004268
20
13.6629373268625
30
0
41
1
10
-2.29135556186367
20
13.6603736929307
30
0
41
1
10
-2.27132047728853
20
13.6594877817423
30
0
41
1
10
-2.23993920850876
20
13.6581156311695
30
0
41
1
10
-2.22924852513091
20
13.657650664314
30
0
41
1
10
-2.20753224453657
20
13.6567118278759
30
0
41
1
10
-2.19649478806346
20
13.6562374357257
30
0
41
1
10
-2.09556005625512
20
13.6519272636792
30
0
41
1
10
-1.99457454822172
20
13.6478081347331
30
0
41
1
10
-1.8265720480064
20
13.641532626119
30
0
41
1
10
-1.76779970502304
20
13.6394244318753
30
0
41
1
10
-1.67536934387093
20
13.6362798928473
30
0
41
1
10
-1.64377069926965
20
13.6352323579173
30
0
41
1
10
-1.57973103368045
20
13.6331700929171
30
0
41
1
10
-1.54724394561291
20
13.632153664481
30
0
41
1
10
-1.38251190217701
20
13.6271607269925
30
0
41
1
10
-1.24343487492436
20
13.6234523146253
30
0
41
1
10
-1.06051317062372
20
13.6194147933094
30
0
41
1
10
-1.00495060649661
20
13.6182483725242
30
0
41
1
10
-0.94834346254973
20
13.6171560806651
30
0
41
1
10
-0.910370771062048
20
13.6164451404961
30
0
41
1
10
-0.891242207251679
20
13.6160978656622
30
0
41
1
10
-0.79535073507995
20
13.6144125831905
30
0
41
1
10
-0.717963769550238
20
13.6132294692978
30
0
41
1
10
-0.48384493910325
20
13.6102064348466
30
0
41
1
10
-0.325171242858971
20
13.608892829959
30
0
41
1
10
-0.123543814884954
20
13.6082253127595
30
0
41
1
10
-0.0830527656850961
20
13.6081405300261
30
0
41
1
10
-0.0220630012657637
20
13.608088290498
30
0
41
1
10
-0.0016907452322812
20
13.608083411116
30
0
41
1
10
0.038923552089841
20
13.608098687677
30
0
41
1
10
0.0591925390932033
20
13.6081188094343
30
0
41
1
10
0.160348554185617
20
13.6082811342569
30
0
41
1
10
0.240670056893663
20
13.608608472982
30
0
41
1
10
0.479866604450876
20
13.6101564436898
30
0
41
1
10
0.636988696132704
20
13.6119435292454
30
0
41
1
10
0.830376067388528
20
13.6150305587449
30
0
41
1
10
0.868972245726127
20
13.6156920604722
30
0
41
1
10
0.945092652067615
20
13.6170831950054
30
0
41
1
10
0.982698829172591
20
13.6178139672929
30
0
41
1
10
1.0941785091884
20
13.6201028446293
30
0
41
1
10
1.2392534062005
20
13.6234121371083
30
0
41
1
10
1.37730513177021
20
13.6271421608469
30
0
41
1
10
1.47818274967872
20
13.6300621161043
30
0
41
1
10
1.52795523002294
20
13.6315526797922
30
0
41
1
10
1.57671324924749
20
13.6330822738941
30
0
41
1
10
1.60899077229635
20
13.6341098934286
30
0
41
1
10
1.62503609082748
20
13.6346283270497
30
0
41
1
10
1.76779787024682
20
13.6393060573108
30
0
41
1
10
1.8834522103308
20
13.6435569372056
30
0
41
1
10
2.0406940485295
20
13.6497356029923
30
0
41
1
10
2.09038363231963
20
13.6517624648624
30
0
41
1
10
2.16075147718658
20
13.6547114125919
30
0
41
1
10
2.18351190331512
20
13.6556791569177
30
0
41
1
10
2.22761431085826
20
13.6575768371817
30
0
41
1
10
2.24885936373678
20
13.6585026202444
30
0
41
1
10
2.35056152191854
20
13.6629779969624
30
0
41
1
10
2.41813799373719
20
13.666091391796
30
0
41
1
10
2.49922750457205
20
13.6698203486714
30
0
41
1
10
2.52285683874879
20
13.6709065845871
30
0
41
1
10
2.55305234199244
20
13.6722699086548
30
0
41
1
10
2.56224808444094
20
13.6726802531897
30
0
41
1
10
2.57869214428325
20
13.6734003175899
30
0
41
1
10
2.58596738908471
20
13.6737112700509
30
0
41
1
10
2.5923114411882
20
13.6739727013998
30
0
0
SPLINE
5
177
100
AcDbEntity
8
1
62
256
6
ByLayer
370
18
48
1
60
0
100
AcDbSpline
70
4
71
3
72
41
73
37
40
0
40
0
40
0
40
0
40
0.0625000000000009
40
0.0625000000000009
40
0.0937500000000019
40
0.0937500000000019
40
0.125000000000003
40
0.125000000000003
40
0.187500000000004
40
0.187500000000004
40
0.218750000000003
40
0.218750000000003
40
0.250000000000002
40
0.250000000000002
40
0.375000000000001
40
0.375000000000001
40
0.406249999999999
40
0.406249999999999
40
0.437499999999998
40
0.437499999999998
40
0.499999999999997
40
0.499999999999997
40
0.624999999999993
40
0.624999999999993
40
0.656249999999992
40
0.656249999999992
40
0.68749999999999
40
0.68749999999999
40
0.749999999999992
40
0.812499999999993
40
0.812499999999993
40
0.843749999999996
40
0.843749999999996
40
0.874999999999998
40
0.874999999999998
40
1
40
1
40
1
40
1
41
1
10
21.5
20
7.33499592030992
30
0
41
1
10
21.5
20
7.38794142400806
30
0
41
1
10
21.5024591228946
20
7.44102464318436
30
0
41
1
10
21.5099496376853
20
7.52086238155948
30
0
41
1
10
21.5130875691769
20
7.54753540380037
30
0
41
1
10
21.5205917675159
20
7.6005062412529
30
0
41
1
10
21.5249616748369
20
7.62685773244303
30
0
41
1
10
21.5399150556198
20
7.70551254038489
30
0
41
1
10
21.5523378154869
20
7.75741713935366
30
0
41
1
10
21.5746921572809
20
7.83446757792822
30
0
41
1
10
21.5827837975201
20
7.86006962553992
30
0
41
1
10
21.6001202224163
20
7.91069109049741
30
0
41
1
10
21.6093597374055
20
7.93570590696666
30
0
41
1
10
21.6583722016894
20
8.05932196880701
30
0
41
1
10
21.7065109459458
20
8.15359000631858
30
0
41
1
10
21.777981569023
20
8.26557347727683
30
0
41
1
10
21.7928455215972
20
8.28767501924438
30
0
41
1
10
21.8237372237308
20
8.33127529444863
30
0
41
1
10
21.839804190088
20
8.35282028575753
30
0
41
1
10
21.8893007261198
20
8.41590964112189
30
0
41
1
10
21.9241211931818
20
8.45607148610227
30
0
41
1
10
22.0339542996063
20
8.57096444211919
30
0
41
1
10
22.1142844762627
20
8.64015936945279
30
0
41
1
10
22.2240501283771
20
8.71691552365391
30
0
41
1
10
22.2464159221325
20
8.73172942526136
30
0
41
1
10
22.2916150951414
20
8.76005984802526
30
0
41
1
10
22.3144992705104
20
8.77361238856628
30
0
41
1
10
22.3839960930929
20
8.81245238520043
30
0
41
1
10
22.4789059136791
20
8.85940080251149
30
0
41
1
10
22.5783091594887
20
8.89667564873812
30
0
41
1
10
22.6545964384208
20
8.92089696164516
30
0
41
1
10
22.6803843173815
20
8.92836446466262
30
0
41
1
10
22.7322043317053
20
8.94192993932376
30
0
41
1
10
22.7581831428211
20
8.94801839384442
30
0
41
1
10
22.8884149490104
20
8.9750525128554
30
0
41
1
10
22.9936712736624
20
8.98587383943874
30
0
41
1
10
23.1
20
8.98587383943871
30
0
0
SPLINE
5
178
100
AcDbEntity
8
1
62
256
6
ByLayer
370
18
48
1
60
0
100
AcDbSpline
70
4
71
3
72
8
73
4
40
0
40
0
40
0
40
0
40
1
40
1
40
1
40
1
41
1
10
38.558733010784
20
11.075438538239
30
0
41
1
10
38.5455611270319
20
11.0759995982608
30
0
41
1
10
38.5324648843562
20
11.0779008433831
30
0
41
1
10
38.5196694163936
20
11.0811250247814
30
0
0
SPLINE
5
179
100
AcDbEntity
8
1
62
256
6
ByLayer
370
18
48
1
60
0
100
AcDbSpline
70
4
71
3
72
8
73
4
40
0
40
0
40
0
40
0
40
1
40
1
40
1
40
1
41
1
10
23.6803305836063
20
13.9188749752186
30
0
41
1
10
23.6675351840277
20
13.9220991393855
30
0
41
1
10
23.6544388017949
20
13.9240004047708
30
0
41
1
10
23.641266989216
20
13.9245614617609
30
0
0
SPLINE
5
17A
100
AcDbEntity
8
1
62
256
6
ByLayer
370
18
48
1
60
0
100
AcDbSpline
70
4
71
3
72
8
73
4
40
0
40
0
40
0
40
0
40
1
40
1
40
1
40
1
41
1
10
38.5196694163912
20
13.918874975218
30
0
41
1
10
38.5324648695621
20
13.9220991528893
30
0
41
1
10
38.5455611420818
20
13.9240004023801
30
0
41
1
10
38.558733010777
20
13.9245614617607
30
0
0
SPLINE
5
17B
100
AcDbEntity
8
1
62
256
6
ByLayer
370
18
48
1
60
0
100
AcDbSpline
70
4
71
2
72
6
73
3
40
0
40
0
40
0
40
1
40
1
40
1
41
1.03186391735993
10
21.3000100019494
20
14.0031513524258
30
0
41
0.729637973226922
10
21.1000100019494
20
14.0031513524258
30
0
41
1.03186391735993
10
21.1000100019494
20
13.8031513524258
30
0
0
SPLINE
5
17C
100
AcDbEntity
8
1
62
256
6
ByLayer
370
18
48
1
60
0
100
AcDbSpline
70
4
71
2
72
6
73
3
40
0
40
0
40
0
40
1
40
1
40
1
41
1.03186391735993
10
41.0999899980506
20
11.1968486475742
30
0
41
0.729637973226922
10
41.0999899980506
20
10.9968486475742
30
0
41
1.03186391735993
10
40.8999899980506
20
10.9968486475742
30
0
0
SPLINE
5
17D
100
AcDbEntity
8
1
62
256
6
ByLayer
370
18
48
1
60
0
100
AcDbSpline
70
4
71
2
72
6
73
3
40
0
40
0
40
0
40
1
40
1
40
1
41
1.03186391735993
10
40.8999899980506
20
14.0031513524258
30
0
41
0.729637973226922
10
41.0999899980506
20
14.0031513524258
30
0
41
1.03186391735993
10
41.0999899980506
20
13.8031513524259
30
0
0
SPLINE
5
17E
100
AcDbEntity
8
1
62
256
6
ByLayer
370
18
48
1
60
0
100
AcDbSpline
70
4
71
2
72
6
73
3
40
0
40
0
40
0
40
1
40
1
40
1
41
1.03186391735993
10
40.6557958399112
20
13.9956905461133
30
0
41
1.03138264657361
10
40.7777789448563
20
14.0031513524258
30
0
41
1.03186391735993
10
40.8999899980506
20
14.0031513524258
30
0
0
SPLINE
5
17F
100
AcDbEntity
8
1
62
256
6
ByLayer
370
18
48
1
60
0
100
AcDbSpline
70
4
71
2
72
6
73
3
40
0
40
0
40
0
40
1
40
1
40
1
41
1.03186391735993
10
21.5442041600888
20
13.9956905461133
30
0
41
1.03138264657361
10
21.4222210551437
20
14.0031513524258
30
0
41
1.03186391735993
10
21.3000100019494
20
14.0031513524258
30
0
0
SPLINE
5
180
100
AcDbEntity
8
1
62
256
6
ByLayer
370
18
48
1
60
0
100
AcDbSpline
70
4
71
2
72
6
73
3
40
0
40
0
40
0
40
1
40
1
40
1
41
1.03186391735993
10
40.8999899980506
20
10.9968486475742
30
0
41
1.03138264657361
10
40.7777789448563
20
10.9968486475742
30
0
41
1.03186391735993
10
40.6557958399112
20
11.0043094538867
30
0
0
SPLINE
5
181
100
AcDbEntity
8
1
62
256
6
ByLayer
370
18
48
1
60
0
100
AcDbSpline
70
4
71
3
72
24
73
20
40
0
40
0
40
0
40
0
40
0.250000000000006
40
0.250000000000006
40
0.312500000000007
40
0.312500000000007
40
0.375000000000007
40
0.375000000000007
40
0.500000000000005
40
0.500000000000005
40
0.625000000000003
40
0.625000000000003
40
0.750000000000001
40
0.750000000000001
40
0.8125
40
0.8125
40
0.874999999999999
40
0.874999999999999
40
1
40
1
40
1
40
1
41
1
10
17.6435826280888
20
7.09211770416718
30
0
41
1
10
17.6682141523735
20
7.11607501432295
30
0
41
1
10
17.6889846413071
20
7.14358412847946
30
0
41
1
10
17.7096028514273
20
7.18273325540875
30
0
41
1
10
17.71346298447
20
7.19083605914886
30
0
41
1
10
17.7204791393988
20
7.20726150218695
30
0
41
1
10
17.7236520963912
20
7.21561112318156
30
0
41
1
10
17.7321586246314
20
7.24106952644703
30
0
41
1
10
17.7364872949031
20
7.25858489507951
30
0
41
1
10
17.7422604780044
20
7.29476107757361
30
0
41
1
10
17.7436815034583
20
7.31360005805809
30
0
41
1
10
17.7432740738269
20
7.35095434024382
30
0
41
1
10
17.741496344613
20
7.36960896588178
30
0
41
1
10
17.7363695892661
20
7.3975490794368
30
0
41
1
10
17.7342485495551
20
7.40685546517267
30
0
41
1
10
17.7291359412957
20
7.42545262888157
30
0
41
1
10
17.7261657634977
20
7.43465255621271
30
0
41
1
10
17.7161357366898
20
7.46163824881964
30
0
41
1
10
17.7079282570253
20
7.47895084257394
30
0
41
1
10
17.6981810583398
20
7.49557688959518
30
0
0
SPLINE
5
182
100
AcDbEntity
8
1
62
256
6
ByLayer
370
18
48
1
60
0
100
AcDbSpline
70
4
71
3
72
18
73
14
40
0
40
0
40
0
40
0
40
0.249999999999982
40
0.249999999999982
40
0.374999999999979
40
0.374999999999979
40
0.437499999999979
40
0.437499999999979
40
0.49999999999998
40
0.49999999999998
40
0.74999999999999
40
0.74999999999999
40
1
40
1
40
1
40
1
41
1
10
17.4077379362998
20
6.34725870662353
30
0
41
1
10
17.4160970234351
20
6.30283371714234
30
0
41
1
10
17.427805923863
20
6.26047127231678
30
0
41
1
10
17.4497852995847
20
6.19951240206012
30
0
41
1
10
17.4578539822308
20
6.17962718714699
30
0
41
1
10
17.4710409062468
20
6.15041485375659
30
0
41
1
10
17.475617474447
20
6.14078015654286
30
0
41
1
10
17.4851307090048
20
6.12171212439077
30
0
41
1
10
17.4900791241439
20
6.11225797017553
30
0
41
1
10
17.5155498531435
20
6.06579120812242
30
0
41
1
10
17.5382169974673
20
6.03116665614502
30
0
41
1
10
17.5877505294597
20
5.96629302469026
30
0
41
1
10
17.6146213965619
20
5.93605080047578
30
0
41
1
10
17.6435826280888
20
5.90788229583282
30
0
0
SPLINE
5
183
100
AcDbEntity
8
1
62
256
6
ByLayer
370
18
48
1
60
0
100
AcDbSpline
70
4
71
3
72
24
73
20
40
0
40
0
40
0
40
0
40
0.124999999999994
40
0.124999999999994
40
0.187499999999992
40
0.187499999999992
40
0.249999999999991
40
0.249999999999991
40
0.374999999999987
40
0.374999999999987
40
0.499999999999983
40
0.499999999999983
40
0.62499999999998
40
0.62499999999998
40
0.687499999999979
40
0.687499999999979
40
0.749999999999979
40
0.749999999999979
40
1
40
1
40
1
40
1
41
1
10
17.6981810583398
20
5.50442311040484
30
0
41
1
10
17.7079282570253
20
5.52104915742606
30
0
41
1
10
17.7161357366898
20
5.53836175118036
30
0
41
1
10
17.7261657634977
20
5.56534744378729
30
0
41
1
10
17.7291359412957
20
5.57454737111846
30
0
41
1
10
17.7342485495551
20
5.59314453482736
30
0
41
1
10
17.7363695892661
20
5.60245092056323
30
0
41
1
10
17.741496344613
20
5.63039103411822
30
0
41
1
10
17.7432740738269
20
5.64904565975621
30
0
41
1
10
17.7436815034583
20
5.68639994194191
30
0
41
1
10
17.7422604780044
20
5.70523892242639
30
0
41
1
10
17.7364872949031
20
5.74141510492052
30
0
41
1
10
17.7321586246314
20
5.75893047355299
30
0
41
1
10
17.7236520963912
20
5.78438887681844
30
0
41
1
10
17.7204791393988
20
5.79273849781305
30
0
41
1
10
17.71346298447
20
5.80916394085114
30
0
41
1
10
17.7096028514273
20
5.81726674459125
30
0
41
1
10
17.6889846413071
20
5.85641587152057
30
0
41
1
10
17.6682141523735
20
5.88392498567708
30
0
41
1
10
17.6435826280888
20
5.90788229583282
30
0
0
SPLINE
5
184
100
AcDbEntity
8
1
62
256
6
ByLayer
370
18
48
1
60
0
100
AcDbSpline
70
4
71
3
72
17
73
13
40
0
40
0
40
0
40
0
40
0.249999999999994
40
0.249999999999994
40
0.499999999999989
40
0.499999999999989
40
0.562499999999991
40
0.562499999999991
40
0.624999999999993
40
0.749999999999993
40
0.749999999999993
40
1
40
1
40
1
40
1
41
1
10
17.6435826280888
20
7.09211770416718
30
0
41
1
10
17.6146246036311
20
7.06395231880944
30
0
41
1
10
17.5877690589036
20
7.03372575786454
30
0
41
1
10
17.538280261633
20
6.96892167661281
30
0
41
1
10
17.5156427078131
20
6.9343506951335
30
0
41
1
10
17.4902105226124
20
6.88798851185626
30
0
41
1
10
17.4852575520369
20
6.87853470981096
30
0
41
1
10
17.4757163583554
20
6.85942527611326
30
0
41
1
10
17.4619501115274
20
6.83046203694778
30
0
41
1
10
17.4498230334515
20
6.80058627674296
30
0
41
1
10
17.4278090763268
20
6.73954938792147
30
0
41
1
10
17.4160955020356
20
6.69715819726679
30
0
41
1
10
17.4077379362998
20
6.65274129337647
30
0
0
SPLINE
5
185
100
AcDbEntity
8
1
62
256
6
ByLayer
370
18
48
1
60
0
100
AcDbSpline
70
4
71
3
72
24
73
20
40
0
40
0
40
0
40
0
40
0.125000000000003
40
0.125000000000003
40
0.1875
40
0.1875
40
0.249999999999996
40
0.249999999999996
40
0.37499999999999
40
0.37499999999999
40
0.499999999999984
40
0.499999999999984
40
0.624999999999977
40
0.624999999999977
40
0.68749999999998
40
0.68749999999998
40
0.749999999999983
40
0.749999999999983
40
1
40
1
40
1
40
1
41
1
10
14.3018189416602
20
7.49557688959518
30
0
41
1
10
14.2920717429747
20
7.47895084257394
30
0
41
1
10
14.2838642633101
20
7.46163824881964
30
0
41
1
10
14.2738342365023
20
7.43465255621271
30
0
41
1
10
14.2708640587043
20
7.42545262888157
30
0
41
1
10
14.2657514504448
20
7.40685546517267
30
0
41
1
10
14.2636304107339
20
7.3975490794368
30
0
41
1
10
14.258503655387
20
7.36960896588178
30
0
41
1
10
14.2567259261731
20
7.35095434024382
30
0
41
1
10
14.2563184965416
20
7.31360005805809
30
0
41
1
10
14.2577395219956
20
7.29476107757361
30
0
41
1
10
14.2635127050969
20
7.25858489507951
30
0
41
1
10
14.2678413753686
20
7.24106952644703
30
0
41
1
10
14.2763479036087
20
7.21561112318156
30
0
41
1
10
14.2795208606013
20
7.20726150218695
30
0
41
1
10
14.28653701553
20
7.19083605914886
30
0
41
1
10
14.2903971485727
20
7.18273325540875
30
0
41
1
10
14.3110153586929
20
7.14358412847943
30
0
41
1
10
14.3317858476264
20
7.11607501432295
30
0
41
1
10
14.3564173719112
20
7.09211770416718
30
0
0
SPLINE
5
186
100
AcDbEntity
8
1
62
256
6
ByLayer
370
18
48
1
60
0
100
AcDbSpline
70
4
71
3
72
17
73
13
40
0
40
0
40
0
40
0
40
0.249999999999999
40
0.249999999999999
40
0.499999999999999
40
0.499999999999999
40
0.562499999999998
40
0.562499999999998
40
0.624999999999996
40
0.749999999999998
40
0.749999999999998
40
1
40
1
40
1
40
1
41
1
10
14.3564173719112
20
5.90788229583282
30
0
41
1
10
14.3853753963689
20
5.93604768119053
30
0
41
1
10
14.4122309410963
20
5.96627424213537
30
0
41
1
10
14.4617197383668
20
6.03107832338699
30
0
41
1
10
14.4843572921867
20
6.06564930486621
30
0
41
1
10
14.5097894773874
20
6.11201148814337
30
0
41
1
10
14.5147424479629
20
6.12146529018867
30
0
41
1
10
14.5242836416444
20
6.14057472388635
30
0
41
1
10
14.5380498884724
20
6.16953796305179
30
0
41
1
10
14.5501769665483
20
6.19941372325661
30
0
41
1
10
14.5721909236731
20
6.26045061207816
30
0
41
1
10
14.5839044979643
20
6.30284180273296
30
0
41
1
10
14.5922620637002
20
6.34725870662353
30
0
0
SPLINE
5
187
100
AcDbEntity
8
1
62
256
6
ByLayer
370
18
48
1
60
0
100
AcDbSpline
70
4
71
3
72
18
73
14
40
0
40
0
40
0
40
0
40
0.249999999999995
40
0.249999999999995
40
0.374999999999994
40
0.374999999999994
40
0.437499999999993
40
0.437499999999993
40
0.499999999999992
40
0.499999999999992
40
0.749999999999996
40
0.749999999999996
40
1
40
1
40
1
40
1
41
1
10
14.5922620637002
20
6.65274129337647
30
0
41
1
10
14.5839029765649
20
6.69716628285735
30
0
41
1
10
14.5721940761371
20
6.73952872768282
30
0
41
1
10
14.5502147004154
20
6.80048759793962
30
0
41
1
10
14.5421460177693
20
6.82037281285284
30
0
41
1
10
14.5289590937531
20
6.84958514624344
30
0
41
1
10
14.5243825255529
20
6.85921984345725
30
0
41
1
10
14.514869290995
20
6.87828787560949
30
0
41
1
10
14.5099208758559
20
6.88774202982481
30
0
41
1
10
14.4844501468564
20
6.93420879187769
30
0
41
1
10
14.4617830025327
20
6.96883334385504
30
0
41
1
10
14.4122494705403
20
7.03370697530971
30
0
41
1
10
14.3853786034381
20
7.06394919952419
30
0
41
1
10
14.3564173719112
20
7.09211770416718
30
0
0
SPLINE
5
188
100
AcDbEntity
8
1
62
256
6
ByLayer
370
18
48
1
60
0
100
AcDbSpline
70
4
71
3
72
24
73
20
40
0
40
0
40
0
40
0
40
0.249999999999997
40
0.249999999999997
40
0.312499999999999
40
0.312499999999999
40
0.375000000000002
40
0.375000000000002
40
0.500000000000001
40
0.500000000000001
40
0.625
40
0.625
40
0.75
40
0.75
40
0.812499999999999
40
0.812499999999999
40
0.874999999999999
40
0.874999999999999
40
1
40
1
40
1
40
1
41
1
10
14.3564173719112
20
5.90788229583282
30
0
41
1
10
14.3317858476264
20
5.88392498567706
30
0
41
1
10
14.3110153586929
20
5.85641587152057
30
0
41
1
10
14.2903971485727
20
5.81726674459125
30
0
41
1
10
14.28653701553
20
5.80916394085114
30
0
41
1
10
14.2795208606012
20
5.79273849781305
30
0
41
1
10
14.2763479036087
20
5.78438887681844
30
0
41
1
10
14.2678413753686
20
5.75893047355299
30
0
41
1
10
14.2635127050969
20
5.74141510492052
30
0
41
1
10
14.2577395219956
20
5.70523892242639
30
0
41
1
10
14.2563184965416
20
5.68639994194191
30
0
41
1
10
14.2567259261731
20
5.64904565975621
30
0
41
1
10
14.258503655387
20
5.63039103411822
30
0
41
1
10
14.2636304107339
20
5.60245092056323
30
0
41
1
10
14.2657514504448
20
5.59314453482736
30
0
41
1
10
14.2708640587043
20
5.57454737111846
30
0
41
1
10
14.2738342365023
20
5.56534744378729
30
0
41
1
10
14.2838642633101
20
5.53836175118036
30
0
41
1
10
14.2920717429747
20
5.52104915742606
30
0
41
1
10
14.3018189416602
20
5.50442311040484
30
0
0
SPLINE
5
189
100
AcDbEntity
8
1
62
256
6
ByLayer
370
18
48
1
60
0
100
AcDbSpline
70
4
71
3
72
26
73
22
40
0
40
0
40
0
40
0
40
0.124999999999985
40
0.124999999999985
40
0.249999999999971
40
0.249999999999971
40
0.312499999999975
40
0.312499999999975
40
0.37499999999998
40
0.37499999999998
40
0.500000000000003
40
0.500000000000003
40
0.562500000000004
40
0.562500000000004
40
0.625000000000005
40
0.625000000000005
40
0.750000000000003
40
0.750000000000003
40
0.875000000000002
40
0.875000000000002
40
1
40
1
40
1
40
1
41
1
10
16
20
4.53149999999999
30
0
41
1
10
16.0187420838797
20
4.53149999999999
30
0
41
1
10
16.037790024121
20
4.5331372044954
30
0
41
1
10
16.0746705458543
20
4.53951471931705
30
0
41
1
10
16.0926468374794
20
4.54422720833452
30
0
41
1
10
16.1189272305608
20
4.55353461389683
30
0
41
1
10
16.1276136105629
20
4.55703247490467
30
0
41
1
10
16.144482547616
20
4.56466586976396
30
0
41
1
10
16.1526773955158
20
4.56880090073514
30
0
41
1
10
16.1765732518195
20
4.58211767058427
30
0
41
1
10
16.1915899369245
20
4.59220543750666
30
0
41
1
10
16.2127755394084
20
4.60909529291379
30
0
41
1
10
16.2195919185691
20
4.61500738261557
30
0
41
1
10
16.2325595895107
20
4.62720262815714
30
0
41
1
10
16.2387403827712
20
4.63350870321463
30
0
41
1
10
16.2564090822013
20
4.65302364722419
30
0
41
1
10
16.2670282709711
20
4.66682587233794
30
0
41
1
10
16.2860013809461
20
4.69595446676007
30
0
41
1
10
16.2941811588046
20
4.71102270581378
30
0
41
1
10
16.3080220198239
20
4.74188225230009
30
0
41
1
10
16.3137019836554
20
4.75770511051189
30
0
41
1
10
16.3181619695468
20
4.77390455985568
30
0
0
SPLINE
5
18A
100
AcDbEntity
8
1
62
256
6
ByLayer
370
18
48
1
60
0
100
AcDbSpline
70
4
71
3
72
34
73
30
40
0
40
0
40
0
40
0
40
0.124999999999986
40
0.124999999999986
40
0.187499999999978
40
0.187499999999978
40
0.218749999999975
40
0.218749999999975
40
0.249999999999971
40
0.249999999999971
40
0.374999999999979
40
0.374999999999979
40
0.406249999999977
40
0.406249999999977
40
0.437499999999975
40
0.499999999999979
40
0.562499999999983
40
0.562499999999983
40
0.624999999999987
40
0.624999999999987
40
0.687499999999991
40
0.687499999999991
40
0.749999999999995
40
0.749999999999995
40
0.874999999999997
40
0.874999999999997
40
0.937499999999998
40
0.937499999999998
40
1
40
1
40
1
40
1
41
1
10
17.3281523379786
20
5.35254896641513
30
0
41
1
10
17.2791605406677
20
5.36566553822126
30
0
41
1
10
17.229054901581
20
5.37429781589066
30
0
41
1
10
17.1518976275393
20
5.38020796039976
30
0
41
1
10
17.1258420498826
20
5.38099652363567
30
0
41
1
10
17.0861721053907
20
5.3802694906401
30
0
41
1
10
17.0728201914696
20
5.37970580084672
30
0
41
1
10
17.0460462641006
20
5.3779158768879
30
0
41
1
10
17.0326678100599
20
5.37669409847288
30
0
41
1
10
16.9658054580945
20
5.36893328405449
30
0
41
1
10
16.9124105635002
20
5.35751015172042
30
0
41
1
10
16.8455886245496
20
5.33576735026381
30
0
41
1
10
16.832203806776
20
5.33103085495372
30
0
41
1
10
16.8058521630066
20
5.32093535155318
30
0
41
1
10
16.7667940070401
20
5.30480971466946
30
0
41
1
10
16.7040139333799
20
5.27307535966892
30
0
41
1
10
16.6562753174227
20
5.24246919635738
30
0
41
1
10
16.6098302684516
20
5.20915030755086
30
0
41
1
10
16.5878136047356
20
5.19153568005106
30
0
41
1
10
16.5460507829754
20
5.15455398122532
30
0
41
1
10
16.5262970086682
20
5.1351804496706
30
0
41
1
10
16.4889396946712
20
5.09471509489788
30
0
41
1
10
16.4712931406015
20
5.07354047710854
30
0
41
1
10
16.4226269571248
20
5.00901579412997
30
0
41
1
10
16.3953601516259
20
4.96422684516904
30
0
41
1
10
16.361207557278
20
4.89443079497153
30
0
41
1
10
16.3509341260477
20
4.87064915473738
30
0
41
1
10
16.3327806188033
20
4.82260884499675
30
0
41
1
10
16.3248979334757
20
4.79837075977275
30
0
41
1
10
16.3181619695468
20
4.77390455985568
30
0
0
SPLINE
5
18B
100
AcDbEntity
8
1
62
256
6
ByLayer
370
18
48
1
60
0
100
AcDbSpline
70
4
71
3
72
24
73
20
40
0
40
0
40
0
40
0
40
0.062500000000006
40
0.062500000000006
40
0.125000000000012
40
0.125000000000012
40
0.250000000000013
40
0.250000000000013
40
0.312500000000011
40
0.312500000000011
40
0.37500000000001
40
0.37500000000001
40
0.500000000000007
40
0.500000000000007
40
0.625000000000004
40
0.625000000000004
40
0.750000000000001
40
0.750000000000001
40
1
40
1
40
1
40
1
41
1
10
17.6981810583398
20
5.50442311040484
30
0
41
1
10
17.6934313378224
20
5.49632139018686
30
0
41
1
10
17.6882897889864
20
5.48835019077265
30
0
41
1
10
17.677355321586
20
5.47290693429909
30
0
41
1
10
17.6716008277749
20
5.46548230486323
30
0
41
1
10
17.653507056405
20
5.44406724837233
30
0
41
1
10
17.6403431053359
20
5.43092976047492
30
0
41
1
10
17.6189603728398
20
5.41291952202377
30
0
41
1
10
17.6115431209205
20
5.40719464554417
30
0
41
1
10
17.5964570188402
20
5.39652908650146
30
0
41
1
10
17.5887541685168
20
5.39155746548531
30
0
41
1
10
17.5651865615503
20
5.37768476963979
30
0
41
1
10
17.5488655560664
20
5.36981928227152
30
0
41
1
10
17.5150376500416
20
5.35680967244005
30
0
41
1
10
17.497973394896
20
5.35183493909818
30
0
41
1
10
17.4636029977596
20
5.34467600751668
30
0
41
1
10
17.446237058748
20
5.3424906930814
30
0
41
1
10
17.39416944413
20
5.34006078995395
30
0
41
1
10
17.3606039107084
20
5.34386070823118
30
0
41
1
10
17.3281523379786
20
5.35254896641513
30
0
0
SPLINE
5
18C
100
AcDbEntity
8
1
62
256
6
ByLayer
370
18
48
1
60
0
100
AcDbSpline
70
4
71
3
72
24
73
20
40
0
40
0
40
0
40
0
40
0.0625000000000081
40
0.0625000000000081
40
0.125000000000016
40
0.125000000000016
40
0.250000000000024
40
0.250000000000024
40
0.312500000000028
40
0.312500000000028
40
0.375000000000032
40
0.375000000000032
40
0.500000000000025
40
0.500000000000025
40
0.625000000000017
40
0.625000000000017
40
0.75000000000001
40
0.75000000000001
40
1
40
1
40
1
40
1
41
1
10
14.3018189416602
20
7.49557688959518
30
0
41
1
10
14.3065686621776
20
7.50367860981314
30
0
41
1
10
14.3117102110135
20
7.51164980922735
30
0
41
1
10
14.322644678414
20
7.52709306570091
30
0
41
1
10
14.3283991722251
20
7.5345176951368
30
0
41
1
10
14.346492943595
20
7.55593275162767
30
0
41
1
10
14.3596568946641
20
7.5690702395251
30
0
41
1
10
14.3810396271602
20
7.58708047797623
30
0
41
1
10
14.3884568790795
20
7.59280535445586
30
0
41
1
10
14.4035429811598
20
7.60347091349857
30
0
41
1
10
14.4112458314832
20
7.60844253451469
30
0
41
1
10
14.4348134384497
20
7.62231523036024
30
0
41
1
10
14.4511344439336
20
7.63018071772848
30
0
41
1
10
14.4849623499584
20
7.64319032755995
30
0
41
1
10
14.502026605104
20
7.64816506090182
30
0
41
1
10
14.5363970022404
20
7.65532399248332
30
0
41
1
10
14.553762941252
20
7.65750930691863
30
0
41
1
10
14.60583055587
20
7.65993921004608
30
0
41
1
10
14.6393960892915
20
7.65613929176882
30
0
41
1
10
14.6718476620214
20
7.64745103358487
30
0
0
SPLINE
5
18D
100
AcDbEntity
8
1
62
256
6
ByLayer
370
18
48
1
60
0
100
AcDbSpline
70
4
71
3
72
34
73
30
40
0
40
0
40
0
40
0
40
0.124999999999998
40
0.124999999999998
40
0.187499999999996
40
0.187499999999996
40
0.218749999999994
40
0.218749999999994
40
0.249999999999993
40
0.249999999999993
40
0.374999999999999
40
0.374999999999999
40
0.406250000000001
40
0.406250000000001
40
0.437500000000003
40
0.500000000000004
40
0.562500000000005
40
0.562500000000005
40
0.625000000000005
40
0.625000000000005
40
0.687500000000004
40
0.687500000000004
40
0.750000000000002
40
0.750000000000002
40
0.875000000000001
40
0.875000000000001
40
0.937500000000001
40
0.937500000000001
40
1
40
1
40
1
40
1
41
1
10
14.6718476620214
20
7.64745103358487
30
0
41
1
10
14.7208394593323
20
7.63433446177874
30
0
41
1
10
14.7709450984191
20
7.62570218410934
30
0
41
1
10
14.8481023724607
20
7.61979203960024
30
0
41
1
10
14.8741579501174
20
7.61900347636433
30
0
41
1
10
14.9138278946093
20
7.6197305093599
30
0
41
1
10
14.9271798085303
20
7.62029419915328
30
0
41
1
10
14.9539537358994
20
7.62208412311213
30
0
41
1
10
14.9673321899401
20
7.62330590152712
30
0
41
1
10
15.0341945419054
20
7.63106671594551
30
0
41
1
10
15.0875894364998
20
7.64248984827958
30
0
41
1
10
15.1544113754504
20
7.66423264973622
30
0
41
1
10
15.1677961932239
20
7.6689691450463
30
0
41
1
10
15.1941478369934
20
7.67906464844685
30
0
41
1
10
15.2332059929598
20
7.69519028533057
30
0
41
1
10
15.2959862068402
20
7.72692436335831
30
0
41
1
10
15.3437246825773
20
7.75753080364262
30
0
41
1
10
15.3901697315483
20
7.79084969244917
30
0
41
1
10
15.4121863952644
20
7.80846431994894
30
0
41
1
10
15.4539492170245
20
7.84544601877468
30
0
41
1
10
15.4737029913318
20
7.8648195503294
30
0
41
1
10
15.5110603053287
20
7.90528490510212
30
0
41
1
10
15.5287068593985
20
7.92645952289146
30
0
41
1
10
15.5773730428752
20
7.99098420587003
30
0
41
1
10
15.6046398483741
20
8.03577315483099
30
0
41
1
10
15.638792442722
20
8.10556920502847
30
0
41
1
10
15.6490658739523
20
8.12935084526262
30
0
41
1
10
15.6672193811967
20
8.17739115500325
30
0
41
1
10
15.6751020665243
20
8.20162924022725
30
0
41
1
10
15.6818380304532
20
8.22609544014432
30
0
0
SPLINE
5
18E
100
AcDbEntity
8
1
62
256
6
ByLayer
370
18
48
1
60
0
100
AcDbSpline
70
4
71
3
72
26
73
22
40
0
40
0
40
0
40
0
40
0.124999999999985
40
0.124999999999985
40
0.24999999999997
40
0.24999999999997
40
0.312499999999972
40
0.312499999999972
40
0.374999999999975
40
0.374999999999975
40
0.499999999999996
40
0.499999999999996
40
0.562499999999997
40
0.562499999999997
40
0.624999999999997
40
0.624999999999997
40
0.749999999999998
40
0.749999999999998
40
0.874999999999999
40
0.874999999999999
40
1
40
1
40
1
40
1
41
1
10
16
20
8.46850000000001
30
0
41
1
10
15.9812579161203
20
8.46850000000001
30
0
41
1
10
15.962209975879
20
8.4668627955046
30
0
41
1
10
15.9253294541456
20
8.46048528068295
30
0
41
1
10
15.9073531625206
20
8.45577279166551
30
0
41
1
10
15.8810727694392
20
8.44646538610317
30
0
41
1
10
15.872386389437
20
8.44296752509536
30
0
41
1
10
15.855517452384
20
8.43533413023604
30
0
41
1
10
15.8473226044842
20
8.43119909926489
30
0
41
1
10
15.8234267481805
20
8.41788232941573
30
0
41
1
10
15.8084100630755
20
8.40779456249336
30
0
41
1
10
15.7872244605916
20
8.39090470708621
30
0
41
1
10
15.7804080814309
20
8.38499261738443
30
0
41
1
10
15.7674404104893
20
8.37279737184289
30
0
41
1
10
15.7612596172288
20
8.36649129678537
30
0
41
1
10
15.7435909177987
20
8.34697635277581
30
0
41
1
10
15.7329717290289
20
8.33317412766206
30
0
41
1
10
15.7139986190539
20
8.30404553323993
30
0
41
1
10
15.7058188411954
20
8.28897729418625
30
0
41
1
10
15.691977980176
20
8.25811774769991
30
0
41
1
10
15.6862980163446
20
8.24229488948811
30
0
41
1
10
15.6818380304532
20
8.22609544014432
30
0
0
SPLINE
5
18F
100
AcDbEntity
8
1
62
256
6
ByLayer
370
18
48
1
60
0
100
AcDbSpline
70
4
71
3
72
26
73
22
40
0
40
0
40
0
40
0
40
0.250000000000015
40
0.250000000000015
40
0.312500000000021
40
0.312500000000021
40
0.375000000000027
40
0.375000000000027
40
0.500000000000038
40
0.500000000000038
40
0.562500000000038
40
0.562500000000038
40
0.625000000000039
40
0.625000000000039
40
0.75000000000002
40
0.75000000000002
40
0.812500000000009
40
0.812500000000009
40
0.874999999999999
40
0.874999999999999
40
1
40
1
40
1
40
1
41
1
10
15.6818380304532
20
4.77390455985568
30
0
41
1
10
15.6907807694531
20
4.74142296665099
30
0
41
1
10
15.7045123677409
20
4.71053631026811
30
0
41
1
10
15.728164661171
20
4.6742014826782
30
0
41
1
10
15.7332504932268
20
4.66702254257584
30
0
41
1
10
15.7439469908237
20
4.65314060543949
30
0
41
1
10
15.7495666009289
20
4.64641840555308
30
0
41
1
10
15.7672404966507
20
4.62691327369097
30
0
41
1
10
15.7801042158832
20
4.61478719136355
30
0
41
1
10
15.8011189451321
20
4.59801059325082
30
0
41
1
10
15.8084116893909
20
4.59265488280678
30
0
41
1
10
15.8236083865562
20
4.58244843396363
30
0
41
1
10
15.8314588292887
20
4.57763788709573
30
0
41
1
10
15.8554562271619
20
4.5642755070615
30
0
41
1
10
15.8721665003504
20
4.55670309595527
30
0
41
1
10
15.8983294895866
20
4.54741602014866
30
0
41
1
10
15.9072343299035
20
4.5446672684173
30
0
41
1
10
15.9254292302567
20
4.53989830589612
30
0
41
1
10
15.9347154010501
20
4.53788547449548
30
0
41
1
10
15.9625187231474
20
4.53309641628661
30
0
41
1
10
15.98119104671
20
4.53149999999999
30
0
41
1
10
16
20
4.53149999999999
30
0
0
SPLINE
5
190
100
AcDbEntity
8
1
62
256
6
ByLayer
370
18
48
1
60
0
100
AcDbSpline
70
4
71
3
72
34
73
30
40
0
40
0
40
0
40
0
40
0.125000000000004
40
0.125000000000004
40
0.187500000000006
40
0.187500000000006
40
0.218750000000006
40
0.218750000000006
40
0.250000000000007
40
0.250000000000007
40
0.375000000000006
40
0.375000000000006
40
0.406250000000005
40
0.406250000000005
40
0.437500000000004
40
0.500000000000004
40
0.562500000000003
40
0.562500000000003
40
0.625000000000003
40
0.625000000000003
40
0.687500000000003
40
0.687500000000003
40
0.750000000000003
40
0.750000000000003
40
0.875000000000002
40
0.875000000000002
40
0.937500000000001
40
0.937500000000001
40
1
40
1
40
1
40
1
41
1
10
15.6818380304532
20
4.77390455985568
30
0
41
1
10
15.6683756044158
20
4.82280244741565
30
0
41
1
10
15.6504813479254
20
4.87039327330427
30
0
41
1
10
15.6165572925044
20
4.93994421350945
30
0
41
1
10
15.6040598537764
20
4.96282059910325
30
0
41
1
10
15.5833694218278
20
4.99667527743028
30
0
41
1
10
15.5761303535396
20
5.00790858875752
30
0
41
1
10
15.5610452042166
20
5.03010059627479
30
0
41
1
10
15.5532249960405
20
5.04102397035393
30
0
41
1
10
15.5127140095089
20
5.09477956517546
30
0
41
1
10
15.4758548429775
20
5.13506485514571
30
0
41
1
10
15.4233023422318
20
5.1817141444802
30
0
41
1
10
15.4124468477992
20
5.19086542607263
30
0
41
1
10
15.3904102324398
20
5.20849255858914
30
0
41
1
10
15.3567451854695
20
5.23403155123452
30
0
41
1
10
15.2976173881464
20
5.27214074180731
30
0
41
1
10
15.2470701322235
20
5.29784459108234
30
0
41
1
10
15.1948368936116
20
5.32106053729737
30
0
41
1
10
15.1685061336949
20
5.331145151145
30
0
41
1
10
15.1154811300859
20
5.3484693616773
30
0
41
1
10
15.0887774643552
20
5.35571226011587
30
0
41
1
10
15.0349752898997
20
5.36747406457991
30
0
41
1
10
15.007783602923
20
5.37198820416117
30
0
41
1
10
14.9275064791056
20
5.38133781453536
30
0
41
1
10
14.8750777532935
20
5.38220808685404
30
0
41
1
10
14.7975934411138
20
5.37637113204727
30
0
41
1
10
14.7718817194633
20
5.37320613060606
30
0
41
1
10
14.7212572052776
20
5.36457017437007
30
0
41
1
10
14.69636084904
20
5.35911188093093
30
0
41
1
10
14.6718476620214
20
5.35254896641513
30
0
0
SPLINE
5
191
100
AcDbEntity
8
1
62
256
6
ByLayer
370
18
48
1
60
0
100
AcDbSpline
70
4
71
3
72
24
73
20
40
0
40
0
40
0
40
0
40
0.0625000000000015
40
0.0625000000000015
40
0.125000000000003
40
0.125000000000003
40
0.250000000000004
40
0.250000000000004
40
0.312500000000006
40
0.312500000000006
40
0.375000000000008
40
0.375000000000008
40
0.500000000000006
40
0.500000000000006
40
0.625000000000003
40
0.625000000000003
40
0.750000000000001
40
0.750000000000001
40
1
40
1
40
1
40
1
41
1
10
14.3018189416602
20
5.50442311040484
30
0
41
1
10
14.3065686621776
20
5.49632139018686
30
0
41
1
10
14.3117102110135
20
5.48835019077265
30
0
41
1
10
14.322644678414
20
5.47290693429909
30
0
41
1
10
14.3283991722251
20
5.46548230486323
30
0
41
1
10
14.3464929435949
20
5.44406724837233
30
0
41
1
10
14.3596568946641
20
5.43092976047492
30
0
41
1
10
14.3810396271602
20
5.41291952202377
30
0
41
1
10
14.3884568790795
20
5.40719464554417
30
0
41
1
10
14.4035429811598
20
5.39652908650146
30
0
41
1
10
14.4112458314832
20
5.39155746548531
30
0
41
1
10
14.4348134384497
20
5.37768476963979
30
0
41
1
10
14.4511344439336
20
5.36981928227152
30
0
41
1
10
14.4849623499584
20
5.35680967244005
30
0
41
1
10
14.502026605104
20
5.35183493909818
30
0
41
1
10
14.5363970022404
20
5.34467600751668
30
0
41
1
10
14.553762941252
20
5.3424906930814
30
0
41
1
10
14.60583055587
20
5.34006078995395
30
0
41
1
10
14.6393960892915
20
5.34386070823118
30
0
41
1
10
14.6718476620214
20
5.35254896641513
30
0
0
SPLINE
5
192
100
AcDbEntity
8
1
62
256
6
ByLayer
370
18
48
1
60
0
100
AcDbSpline
70
4
71
3
72
26
73
22
40
0
40
0
40
0
40
0
40
0.250000000000021
40
0.250000000000021
40
0.312500000000029
40
0.312500000000029
40
0.375000000000036
40
0.375000000000036
40
0.50000000000005
40
0.50000000000005
40
0.56250000000005
40
0.56250000000005
40
0.62500000000005
40
0.62500000000005
40
0.750000000000026
40
0.750000000000026
40
0.812500000000013
40
0.812500000000013
40
0.875000000000001
40
0.875000000000001
40
1
40
1
40
1
40
1
41
1
10
16.3181619695468
20
8.22609544014432
30
0
41
1
10
16.3092192305469
20
8.25857703334904
30
0
41
1
10
16.295487632259
20
8.28946368973189
30
0
41
1
10
16.271835338829
20
8.3257985173218
30
0
41
1
10
16.2667495067731
20
8.33297745742416
30
0
41
1
10
16.2560530091763
20
8.34685939456054
30
0
41
1
10
16.2504333990711
20
8.35358159444692
30
0
41
1
10
16.2327595033493
20
8.37308672630903
30
0
41
1
10
16.2198957841168
20
8.38521280863645
30
0
41
1
10
16.1988810548679
20
8.40198940674921
30
0
41
1
10
16.1915883106091
20
8.40734511719322
30
0
41
1
10
16.1763916134438
20
8.41755156603639
30
0
41
1
10
16.1685411707113
20
8.4223621129043
30
0
41
1
10
16.1445437728381
20
8.43572449293853
30
0
41
1
10
16.1278334996496
20
8.44329690404473
30
0
41
1
10
16.1016705104134
20
8.45258397985134
30
0
41
1
10
16.0927656700964
20
8.4553327315827
30
0
41
1
10
16.0745707697433
20
8.46010169410391
30
0
41
1
10
16.0652845989499
20
8.46211452550455
30
0
41
1
10
16.0374812768526
20
8.46690358371339
30
0
41
1
10
16.01880895329
20
8.46850000000001
30
0
41
1
10
16
20
8.46850000000001
30
0
0
SPLINE
5
193
100
AcDbEntity
8
1
62
256
6
ByLayer
370
18
48
1
60
0
100
AcDbSpline
70
4
71
3
72
34
73
30
40
0
40
0
40
0
40
0
40
0.124999999999976
40
0.124999999999976
40
0.187499999999967
40
0.187499999999967
40
0.218749999999965
40
0.218749999999965
40
0.249999999999962
40
0.249999999999962
40
0.37499999999996
40
0.37499999999996
40
0.40624999999996
40
0.40624999999996
40
0.437499999999959
40
0.499999999999964
40
0.562499999999968
40
0.562499999999968
40
0.624999999999973
40
0.624999999999973
40
0.687499999999978
40
0.687499999999978
40
0.749999999999982
40
0.749999999999982
40
0.87499999999999
40
0.87499999999999
40
0.937499999999995
40
0.937499999999995
40
1
40
1
40
1
40
1
41
1
10
16.3181619695468
20
8.22609544014432
30
0
41
1
10
16.3316243955842
20
8.17719755258437
30
0
41
1
10
16.3495186520746
20
8.12960672669576
30
0
41
1
10
16.3834427074956
20
8.06005578649058
30
0
41
1
10
16.3959401462236
20
8.03717940089675
30
0
41
1
10
16.4166305781722
20
8.00332472256972
30
0
41
1
10
16.4238696464604
20
7.99209141124251
30
0
41
1
10
16.4389547957833
20
7.96989940372521
30
0
41
1
10
16.4467750039595
20
7.95897602964607
30
0
41
1
10
16.4872859904911
20
7.90522043482457
30
0
41
1
10
16.5241451570225
20
7.86493514485431
30
0
41
1
10
16.5766976577682
20
7.8182858555198
30
0
41
1
10
16.5875531522008
20
7.80913457392739
30
0
41
1
10
16.6095897675602
20
7.79150744141086
30
0
41
1
10
16.6432548145305
20
7.76596844876548
30
0
41
1
10
16.7023826118536
20
7.72785925819269
30
0
41
1
10
16.7529298677765
20
7.70215540891766
30
0
41
1
10
16.8051631063883
20
7.67893946270263
30
0
41
1
10
16.831493866305
20
7.66885484885503
30
0
41
1
10
16.8845188699141
20
7.6515306383227
30
0
41
1
10
16.9112225356447
20
7.64428773988413
30
0
41
1
10
16.9650247101003
20
7.63252593542009
30
0
41
1
10
16.992216397077
20
7.62801179583886
30
0
41
1
10
17.0724935208943
20
7.61866218546464
30
0
41
1
10
17.1249222467064
20
7.61779191314599
30
0
41
1
10
17.2024065588861
20
7.62362886795273
30
0
41
1
10
17.2281182805367
20
7.62679386939394
30
0
41
1
10
17.2787427947224
20
7.63542982562996
30
0
41
1
10
17.30363915096
20
7.64088811906907
30
0
41
1
10
17.3281523379786
20
7.64745103358487
30
0
0
SPLINE
5
194
100
AcDbEntity
8
1
62
256
6
ByLayer
370
18
48
1
60
0
100
AcDbSpline
70
4
71
3
72
24
73
20
40
0
40
0
40
0
40
0
40
0.062500000000006
40
0.062500000000006
40
0.125000000000012
40
0.125000000000012
40
0.250000000000013
40
0.250000000000013
40
0.312500000000011
40
0.312500000000011
40
0.37500000000001
40
0.37500000000001
40
0.500000000000007
40
0.500000000000007
40
0.625000000000004
40
0.625000000000004
40
0.750000000000001
40
0.750000000000001
40
1
40
1
40
1
40
1
41
1
10
17.6981810583398
20
7.49557688959518
30
0
41
1
10
17.6934313378224
20
7.50367860981314
30
0
41
1
10
17.6882897889864
20
7.51164980922735
30
0
41
1
10
17.677355321586
20
7.52709306570091
30
0
41
1
10
17.6716008277749
20
7.53451769513677
30
0
41
1
10
17.653507056405
20
7.55593275162767
30
0
41
1
10
17.6403431053359
20
7.5690702395251
30
0
41
1
10
17.6189603728398
20
7.58708047797623
30
0
41
1
10
17.6115431209205
20
7.59280535445586
30
0
41
1
10
17.5964570188402
20
7.60347091349854
30
0
41
1
10
17.5887541685168
20
7.60844253451469
30
0
41
1
10
17.5651865615503
20
7.62231523036024
30
0
41
1
10
17.5488655560664
20
7.63018071772848
30
0
41
1
10
17.5150376500416
20
7.64319032755995
30
0
41
1
10
17.497973394896
20
7.64816506090182
30
0
41
1
10
17.4636029977596
20
7.65532399248332
30
0
41
1
10
17.446237058748
20
7.65750930691863
30
0
41
1
10
17.39416944413
20
7.65993921004608
30
0
41
1
10
17.3606039107084
20
7.65613929176882
30
0
41
1
10
17.3281523379786
20
7.64745103358487
30
0
0
LINE
5
7D
100
AcDbEntity
8
81
62
256
6
ByLayer
370
18
48
1
60
0
100
AcDbLine
10
41.1
20
14
30
0
11
46.1
21
14
31
0
39
0
210
0
220
0
230
1
0
LINE
5
7E
100
AcDbEntity
8
80
62
256
6
ByLayer
370
18
48
1
60
0
100
AcDbLine
10
0
20
0
30
0
11
0
21
-5
31
0
39
0
210
0
220
0
230
1
0
LINE
5
7F
100
AcDbEntity
8
1
62
256
6
ByLayer
370
18
48
1
60
0
100
AcDbLine
10
16
20
0.675
30
0
11
16
21
0.875
31
0
39
0
210
0
220
0
230
1
0
LINE
5
80
100
AcDbEntity
8
1
62
256
6
ByLayer
370
18
48
1
60
0
100
AcDbLine
10
20.377169
20
13.675
30
0
11
11.884652
21
13.675
31
0
39
0
210
0
220
0
230
1
0
LINE
5
81
100
AcDbEntity
8
1
62
256
6
ByLayer
370
18
48
1
60
0
100
AcDbLine
10
-2.614274
20
13.675
30
0
11
-7.425
21
13.675
31
0
39
0
210
0
220
0
230
1
0
LINE
5
82
100
AcDbEntity
8
1
62
256
6
ByLayer
370
18
48
1
60
0
100
AcDbLine
10
6.60048
20
-0.324981
30
0
11
9.132847
21
-0.324981
31
0
39
0
210
0
220
0
230
1
0
LINE
5
83
100
AcDbEntity
8
1
62
256
6
ByLayer
370
18
48
1
60
0
100
AcDbLine
10
40.3
20
11.026066
30
0
11
40.3
21
10.791305
31
0
39
0
210
0
220
0
230
1
0
LINE
5
84
100
AcDbEntity
8
1
62
256
6
ByLayer
370
18
48
1
60
0
100
AcDbLine
10
34.998509
20
11.179193
30
0
11
31.049143
21
11.179193
31
0
39
0
210
0
220
0
230
1
0
LINE
5
85
100
AcDbEntity
8
1
62
256
6
ByLayer
370
18
48
1
60
0
100
AcDbLine
10
9.404549
20
-0.324981
30
0
11
9.476736
21
-0.324981
31
0
39
0
210
0
220
0
230
1
0
LINE
5
86
100
AcDbEntity
8
1
62
256
6
ByLayer
370
18
48
1
60
0
100
AcDbLine
10
38.118026
20
11.182314
30
0
11
35.916875
21
11.182314
31
0
39
0
210
0
220
0
230
1
0
LINE
5
87
100
AcDbEntity
8
1
62
256
6
ByLayer
370
18
48
1
60
0
100
AcDbLine
10
35.916875
20
11.182314
30
0
11
35.915282
21
11.350008
31
0
39
0
210
0
220
0
230
1
0
LINE
5
88
100
AcDbEntity
8
1
62
256
6
ByLayer
370
18
48
1
60
0
100
AcDbLine
10
34.998509
20
11.179193
30
0
11
34.996886
21
11.350004
31
0
39
0
210
0
220
0
230
1
0
LINE
5
89
100
AcDbEntity
8
1
62
256
6
ByLayer
370
18
48
1
60
0
100
AcDbLine
10
9.57055
20
-0.324981
30
0
11
14.717168
21
-0.324981
31
0
39
0
210
0
220
0
230
1
0
LINE
5
8A
100
AcDbEntity
8
1
62
256
6
ByLayer
370
18
48
1
60
0
100
AcDbLine
10
6.714371
20
-0.25
30
0
11
9.530813
21
-0.25
31
0
39
0
210
0
220
0
230
1
0
LINE
5
8B
100
AcDbEntity
8
1
62
256
6
ByLayer
370
13
48
1
60
0
100
AcDbLine
10
6.71446
20
-0.249981
30
0
11
14.818469
21
-0.249981
31
0
39
0
210
0
220
0
230
1
0
LINE
5
8C
100
AcDbEntity
8
1
62
256
6
ByLayer
370
18
48
1
60
0
100
AcDbLine
10
15.243082
20
0.129904
30
0
11
7.290539
21
0.129904
31
0
39
0
210
0
220
0
230
1
0
LINE
5
8D
100
AcDbEntity
8
1
62
256
6
ByLayer
370
13
48
1
60
0
100
AcDbLine
10
23.1
20
10.478858
30
0
11
23.1
21
8.985874
31
0
39
0
210
0
220
0
230
1
0
LINE
5
8E
100
AcDbEntity
8
1
62
256
6
ByLayer
370
18
48
1
60
0
100
AcDbLine
10
34.85
20
12.548819
30
0
11
34.85
21
12.451181
31
0
39
0
210
0
220
0
230
1
0
LINE
5
8F
100
AcDbEntity
8
1
62
256
6
ByLayer
370
18
48
1
60
0
100
AcDbLine
10
-14.075019
20
-0.249981
30
0
11
-14.000019
21
-0.324981
31
0
39
0
210
0
220
0
230
1
0
LINE
5
90
100
AcDbEntity
8
1
62
256
6
ByLayer
370
18
48
1
60
0
100
AcDbLine
10
-14.000019
20
-0.324981
30
0
11
-13.791283
21
-0.324981
31
0
39
0
210
0
220
0
230
1
0
LINE
5
91
100
AcDbEntity
8
1
62
256
6
ByLayer
370
18
48
1
60
0
100
AcDbLine
10
-11.023511
20
-0.324981
30
0
11
-10.810081
21
-0.324981
31
0
39
0
210
0
220
0
230
1
0
LINE
5
92
100
AcDbEntity
8
1
62
256
6
ByLayer
370
18
48
1
60
0
100
AcDbLine
10
-10.247062
20
-0.324981
30
0
11
-9.769771
21
-0.324981
31
0
39
0
210
0
220
0
230
1
0
LINE
5
93
100
AcDbEntity
8
1
62
256
6
ByLayer
370
18
48
1
60
0
100
AcDbLine
10
-14.559331
20
0.234331
30
0
11
-14.075019
21
-0.249981
31
0
39
0
210
0
220
0
230
1
0
LINE
5
94
100
AcDbEntity
8
1
62
256
6
ByLayer
370
13
48
1
60
0
100
AcDbLine
10
-14.075019
20
-0.249981
30
0
11
-13.927309
21
-0.249981
31
0
39
0
210
0
220
0
230
1
0
LINE
5
95
100
AcDbEntity
8
1
62
256
6
ByLayer
370
18
48
1
60
0
100
AcDbLine
10
-13.703327
20
-0.324981
30
0
11
-13.048061
21
-0.324981
31
0
39
0
210
0
220
0
230
1
0
LINE
5
96
100
AcDbEntity
8
1
62
256
6
ByLayer
370
18
48
1
60
0
100
AcDbLine
10
-11.287197
20
-0.324981
30
0
11
-11.132078
21
-0.324981
31
0
39
0
210
0
220
0
230
1
0
LINE
5
97
100
AcDbEntity
8
1
62
256
6
ByLayer
370
13
48
1
60
0
100
AcDbLine
10
-13.72716
20
-0.249981
30
0
11
-13.206552
21
-0.249981
31
0
39
0
210
0
220
0
230
1
0
LINE
5
98
100
AcDbEntity
8
1
62
256
6
ByLayer
370
13
48
1
60
0
100
AcDbLine
10
-14.265575
20
0.394519
30
0
11
-14.125544
21
0.394519
31
0
39
0
210
0
220
0
230
1
0
LINE
5
99
100
AcDbEntity
8
1
62
256
6
ByLayer
370
18
48
1
60
0
100
AcDbLine
10
-12.9317
20
-0.324981
30
0
11
-12.074956
21
-0.324981
31
0
39
0
210
0
220
0
230
1
0
LINE
5
9A
100
AcDbEntity
8
1
62
256
6
ByLayer
370
13
48
1
60
0
100
AcDbLine
10
-12.941904
20
-0.249981
30
0
11
-12.261918
21
-0.249981
31
0
39
0
210
0
220
0
230
1
0
LINE
5
9B
100
AcDbEntity
8
1
62
256
6
ByLayer
370
13
48
1
60
0
100
AcDbLine
10
-13.470275
20
0.394519
30
0
11
-13.288685
21
0.394519
31
0
39
0
210
0
220
0
230
1
0
LINE
5
9C
100
AcDbEntity
8
1
62
256
6
ByLayer
370
18
48
1
60
0
100
AcDbLine
10
-11.923781
20
-0.324981
30
0
11
-11.287177
21
-0.324981
31
0
39
0
210
0
220
0
230
1
0
LINE
5
9D
100
AcDbEntity
8
1
62
256
6
ByLayer
370
13
48
1
60
0
100
AcDbLine
10
-11.918509
20
-0.249981
30
0
11
-11.153931
21
-0.249981
31
0
39
0
210
0
220
0
230
1
0
LINE
5
9E
100
AcDbEntity
8
1
62
256
6
ByLayer
370
13
48
1
60
0
100
AcDbLine
10
-12.44548
20
0.394519
30
0
11
-12.212601
21
0.394519
31
0
39
0
210
0
220
0
230
1
0
LINE
5
9F
100
AcDbEntity
8
1
62
256
6
ByLayer
370
18
48
1
60
0
100
AcDbLine
10
-10.612458
20
-0.324981
30
0
11
-10.247044
21
-0.324981
31
0
39
0
210
0
220
0
230
1
0
LINE
5
A0
100
AcDbEntity
8
1
62
256
6
ByLayer
370
13
48
1
60
0
100
AcDbLine
10
-10.588147
20
-0.249981
30
0
11
-9.966378
21
-0.249981
31
0
39
0
210
0
220
0
230
1
0
LINE
5
A1
100
AcDbEntity
8
1
62
256
6
ByLayer
370
18
48
1
60
0
100
AcDbLine
10
-11.023467
20
-0.324981
30
0
11
-11.132078
21
-0.324981
31
0
39
0
210
0
220
0
230
1
0
LINE
5
A2
100
AcDbEntity
8
1
62
256
6
ByLayer
370
18
48
1
60
0
100
AcDbLine
10
-9.404549
20
-0.324981
30
0
11
-9.769771
21
-0.324981
31
0
39
0
210
0
220
0
230
1
0
LINE
5
A3
100
AcDbEntity
8
1
62
256
6
ByLayer
370
13
48
1
60
0
100
AcDbLine
10
-11.127967
20
0.394519
30
0
11
-10.826145
21
0.394519
31
0
39
0
210
0
220
0
230
1
0
LINE
5
A4
100
AcDbEntity
8
1
62
256
6
ByLayer
370
18
48
1
60
0
100
AcDbLine
10
-8.864082
20
-0.324981
30
0
11
-6.742374
21
-0.324981
31
0
39
0
210
0
220
0
230
1
0
LINE
5
A5
100
AcDbEntity
8
1
62
256
6
ByLayer
370
18
48
1
60
0
100
AcDbLine
10
-7.531504
20
13.568496
30
0
11
-8.965044
21
12.134956
31
0
39
0
210
0
220
0
230
1
0
LINE
5
A6
100
AcDbEntity
8
1
62
256
6
ByLayer
370
13
48
1
60
0
100
AcDbLine
10
-8.812878
20
-0.249981
30
0
11
-7.153883
21
-0.249981
31
0
39
0
210
0
220
0
230
1
0
LINE
5
A7
100
AcDbEntity
8
1
62
256
6
ByLayer
370
18
48
1
60
0
100
AcDbLine
10
21.5
20
1.375
30
0
11
10.593748
21
1.375
31
0
39
0
210
0
220
0
230
1
0
LINE
5
A8
100
AcDbEntity
8
1
62
256
6
ByLayer
370
18
48
1
60
0
100
AcDbLine
10
21.5
20
8.680592
30
0
11
21.5
21
1.375
31
0
39
0
210
0
220
0
230
1
0
LINE
5
A9
100
AcDbEntity
8
1
62
256
6
ByLayer
370
18
48
1
60
0
100
AcDbLine
10
10.163081
20
0.675
30
0
11
9.371207
21
0.675
31
0
39
0
210
0
220
0
230
1
0
LINE
5
AA
100
AcDbEntity
8
1
62
256
6
ByLayer
370
18
48
1
60
0
100
AcDbLine
10
10.163081
20
0.675
30
0
11
10.163081
21
0.875
31
0
39
0
210
0
220
0
230
1
0
LINE
5
AB
100
AcDbEntity
8
1
62
256
6
ByLayer
370
18
48
1
60
0
100
AcDbLine
10
10.388566
20
11.993512
30
0
11
10.388566
21
1.357539
31
0
39
0
210
0
220
0
230
1
0
LINE
5
AC
100
AcDbEntity
8
1
62
256
6
ByLayer
370
18
48
1
60
0
100
AcDbLine
10
5.861975
20
12.943542
30
0
11
5.861975
21
13.204508
31
0
39
0
210
0
220
0
230
1
0
LINE
5
AD
100
AcDbEntity
8
1
62
256
6
ByLayer
370
18
48
1
60
0
100
AcDbLine
10
31.35
20
13.462149
30
0
11
31.35
21
11.194287
31
0
39
0
210
0
220
0
230
1
0
LINE
5
AE
100
AcDbEntity
8
1
62
256
6
ByLayer
370
18
48
1
60
0
100
AcDbLine
10
21.756384
20
9.561301
30
0
11
21.756384
21
11.993512
31
0
39
0
210
0
220
0
230
1
0
LINE
5
AF
100
AcDbEntity
8
1
62
256
6
ByLayer
370
13
48
1
60
0
100
AcDbLine
10
-9.395388
20
0.394519
30
0
11
-8.986697
21
0.394519
31
0
39
0
210
0
220
0
230
1
0
LINE
5
B0
100
AcDbEntity
8
1
62
256
6
ByLayer
370
18
48
1
60
0
100
AcDbLine
10
-6.326108
20
-0.324981
30
0
11
-1.735923
21
-0.324981
31
0
39
0
210
0
220
0
230
1
0
LINE
5
B1
100
AcDbEntity
8
1
62
256
6
ByLayer
370
18
48
1
60
0
100
AcDbLine
10
1.735923
20
-0.324981
30
0
11
6.326108
21
-0.324981
31
0
39
0
210
0
220
0
230
1
0
LINE
5
B2
100
AcDbEntity
8
1
62
256
6
ByLayer
370
13
48
1
60
0
100
AcDbLine
10
-6.222926
20
-0.249981
30
0
11
-3.020453
21
-0.249981
31
0
39
0
210
0
220
0
230
1
0
LINE
5
B3
100
AcDbEntity
8
1
62
256
6
ByLayer
370
13
48
1
60
0
100
AcDbLine
10
3.020453
20
-0.249981
30
0
11
6.222926
21
-0.249981
31
0
39
0
210
0
220
0
230
1
0
LINE
5
B4
100
AcDbEntity
8
1
62
256
6
ByLayer
370
13
48
1
60
0
100
AcDbLine
10
-6.943702
20
0.394519
30
0
11
-6.310523
21
0.394519
31
0
39
0
210
0
220
0
230
1
0
LINE
5
B5
100
AcDbEntity
8
1
62
256
6
ByLayer
370
13
48
1
60
0
100
AcDbLine
10
6.310523
20
0.394519
30
0
11
6.943702
21
0.394519
31
0
39
0
210
0
220
0
230
1
0
LINE
5
B6
100
AcDbEntity
8
1
62
256
6
ByLayer
370
13
48
1
60
0
100
AcDbLine
10
-1.912242
20
0.394519
30
0
11
1.912242
21
0.394519
31
0
39
0
210
0
220
0
230
1
0
LINE
5
B7
100
AcDbEntity
8
1
62
256
6
ByLayer
370
18
48
1
60
0
100
AcDbLine
10
-15
20
0.675
30
0
11
-15
21
0.875
31
0
39
0
210
0
220
0
230
1
0
LINE
5
B8
100
AcDbEntity
8
1
62
256
6
ByLayer
370
18
48
1
60
0
100
AcDbLine
10
7.937106
20
0.675
30
0
11
9.371254
21
0.675
31
0
39
0
210
0
220
0
230
1
0
LINE
5
B9
100
AcDbEntity
8
1
62
256
6
ByLayer
370
18
48
1
60
0
100
AcDbLine
10
9.371254
20
0.875
30
0
11
9.371254
21
0.675
31
0
39
0
210
0
220
0
230
1
0
LINE
5
BA
100
AcDbEntity
8
1
62
256
6
ByLayer
370
18
48
1
60
0
100
AcDbLine
10
-13.703327
20
-0.324981
30
0
11
-13.791289
21
-0.324981
31
0
39
0
210
0
220
0
230
1
0
LINE
5
BB
100
AcDbEntity
8
1
62
256
6
ByLayer
370
18
48
1
60
0
100
AcDbLine
10
-12.9317
20
-0.324981
30
0
11
-13.048064
21
-0.324981
31
0
39
0
210
0
220
0
230
1
0
LINE
5
BC
100
AcDbEntity
8
1
62
256
6
ByLayer
370
18
48
1
60
0
100
AcDbLine
10
-11.923781
20
-0.324981
30
0
11
-12.074944
21
-0.324981
31
0
39
0
210
0
220
0
230
1
0
LINE
5
BD
100
AcDbEntity
8
1
62
256
6
ByLayer
370
18
48
1
60
0
100
AcDbLine
10
-10.612458
20
-0.324981
30
0
11
-10.810022
21
-0.324981
31
0
39
0
210
0
220
0
230
1
0
LINE
5
BE
100
AcDbEntity
8
1
62
256
6
ByLayer
370
18
48
1
60
0
100
AcDbLine
10
-8.864082
20
-0.324981
30
0
11
-9.132847
21
-0.324981
31
0
39
0
210
0
220
0
230
1
0
LINE
5
BF
100
AcDbEntity
8
1
62
256
6
ByLayer
370
18
48
1
60
0
100
AcDbLine
10
-6.326108
20
-0.324981
30
0
11
-6.742492
21
-0.324981
31
0
39
0
210
0
220
0
230
1
0
LINE
5
C0
100
AcDbEntity
8
1
62
256
6
ByLayer
370
18
48
1
60
0
100
AcDbLine
10
1.735945
20
-0.324981
30
0
11
-1.735945
21
-0.324981
31
0
39
0
210
0
220
0
230
1
0
LINE
5
C1
100
AcDbEntity
8
1
62
256
6
ByLayer
370
18
48
1
60
0
100
AcDbLine
10
6.60065
20
-0.324981
30
0
11
6.326108
21
-0.324981
31
0
39
0
210
0
220
0
230
1
0
LINE
5
C2
100
AcDbEntity
8
1
62
256
6
ByLayer
370
18
48
1
60
0
100
AcDbLine
10
-15
20
0.675
30
0
11
7.937106
21
0.675
31
0
39
0
210
0
220
0
230
1
0
LINE
5
C3
100
AcDbEntity
8
1
62
256
6
ByLayer
370
18
48
1
60
0
100
AcDbLine
10
8.18325
20
1.375
30
0
11
6.461
21
1.375
31
0
39
0
210
0
220
0
230
1
0
LINE
5
C4
100
AcDbEntity
8
1
62
256
6
ByLayer
370
18
48
1
60
0
100
AcDbLine
10
9.445863
20
1.202402
30
0
11
9.445863
21
11.878218
31
0
39
0
210
0
220
0
230
1
0
LINE
5
C5
100
AcDbEntity
8
1
62
256
6
ByLayer
370
18
48
1
60
0
100
AcDbLine
10
6.461
20
1.375
30
0
11
3.827205
21
1.375
31
0
39
0
210
0
220
0
230
1
0
LINE
5
C6
100
AcDbEntity
8
1
62
256
6
ByLayer
370
18
48
1
60
0
100
AcDbLine
10
6.461
20
10.927755
30
0
11
6.461
21
1.375
31
0
39
0
210
0
220
0
230
1
0
LINE
5
C7
100
AcDbEntity
8
1
62
256
6
ByLayer
370
13
48
1
60
0
100
AcDbLine
10
0
20
10.927755
30
0
11
0
21
1.092945
31
0
39
0
210
0
220
0
230
1
0
LINE
5
C8
100
AcDbEntity
8
1
62
256
6
ByLayer
370
18
48
1
60
0
100
AcDbLine
10
-9.238584
20
11.861416
30
0
11
-15
21
6.1
31
0
39
0
210
0
220
0
230
1
0
LINE
5
C9
100
AcDbEntity
8
1
62
256
6
ByLayer
370
18
48
1
60
0
100
AcDbLine
10
-15
20
6.1
30
0
11
-15
21
1.092945
31
0
39
0
210
0
220
0
230
1
0
LINE
5
CA
100
AcDbEntity
8
1
62
256
6
ByLayer
370
18
48
1
60
0
100
AcDbLine
10
6.461
20
10.927755
30
0
11
0
21
10.927755
31
0
39
0
210
0
220
0
230
1
0
LINE
5
CB
100
AcDbEntity
8
1
62
256
6
ByLayer
370
18
48
1
60
0
100
AcDbLine
10
21.756384
20
11.993512
30
0
11
10.388566
21
11.993512
31
0
39
0
210
0
220
0
230
1
0
LINE
5
CC
100
AcDbEntity
8
1
62
256
6
ByLayer
370
18
48
1
60
0
100
AcDbLine
10
22.55
20
13.649176
30
0
11
22.95
21
13.649176
31
0
39
0
210
0
220
0
230
1
0
LINE
5
CD
100
AcDbEntity
8
1
62
256
6
ByLayer
370
18
48
1
60
0
100
AcDbLine
10
-8.964851
20
12.135149
30
0
11
-9.238584
21
11.861416
31
0
39
0
210
0
220
0
230
1
0
LINE
5
CE
100
AcDbEntity
8
1
62
256
6
ByLayer
370
13
48
1
60
0
100
AcDbLine
10
9.371254
20
0.875
30
0
11
-15
21
0.875
31
0
39
0
210
0
220
0
230
1
0
LINE
5
CF
100
AcDbEntity
8
1
62
256
6
ByLayer
370
18
48
1
60
0
100
AcDbLine
10
0
20
1.092945
30
0
11
-15
21
1.092945
31
0
39
0
210
0
220
0
230
1
0
LINE
5
D0
100
AcDbEntity
8
1
62
256
6
ByLayer
370
18
48
1
60
0
100
AcDbLine
10
16
20
0.675
30
0
11
10.163081
21
0.675
31
0
39
0
210
0
220
0
230
1
0
LINE
5
D1
100
AcDbEntity
8
1
62
256
6
ByLayer
370
13
48
1
60
0
100
AcDbLine
10
16
20
0.875
30
0
11
10.163081
21
0.875
31
0
39
0
210
0
220
0
230
1
0
LINE
5
D2
100
AcDbEntity
8
1
62
256
6
ByLayer
370
18
48
1
60
0
100
AcDbLine
10
-7.531504
20
13.568496
30
0
11
-7.425
21
13.675
31
0
39
0
210
0
220
0
230
1
0
LINE
5
D3
100
AcDbEntity
8
1
62
256
6
ByLayer
370
18
48
1
60
0
100
AcDbLine
10
23.1
20
8.985874
30
0
11
34.630998
21
8.985874
31
0
39
0
210
0
220
0
230
1
0
LINE
5
D4
100
AcDbEntity
8
1
62
256
6
ByLayer
370
18
48
1
60
0
100
AcDbLine
10
39.709011
20
11.062217
30
0
11
38.951573
21
11.058705
31
0
39
0
210
0
220
0
230
1
0
LINE
5
D5
100
AcDbEntity
8
1
62
256
6
ByLayer
370
18
48
1
60
0
100
AcDbLine
10
39.709011
20
11.062217
30
0
11
39.709011
21
13.937783
31
0
39
0
210
0
220
0
230
1
0
LINE
5
D6
100
AcDbEntity
8
1
62
256
6
ByLayer
370
18
48
1
60
0
100
AcDbLine
10
22.490989
20
13.649328
30
0
11
22.490989
21
13.937783
31
0
39
0
210
0
220
0
230
1
0
LINE
5
D7
100
AcDbEntity
8
1
62
256
6
ByLayer
370
13
48
1
60
0
100
AcDbLine
10
38.28134
20
12.5
30
0
11
34.849782
21
12.5
31
0
39
0
210
0
220
0
230
1
0
LINE
5
D8
100
AcDbEntity
8
1
62
256
6
ByLayer
370
13
48
1
60
0
100
AcDbLine
10
37.497706
20
12.302665
30
0
11
34.762487
21
12.302665
31
0
39
0
210
0
220
0
230
1
0
LINE
5
D9
100
AcDbEntity
8
1
62
256
6
ByLayer
370
13
48
1
60
0
100
AcDbLine
10
34.762487
20
12.697335
30
0
11
37.497706
21
12.697335
31
0
39
0
210
0
220
0
230
1
0
LINE
5
DA
100
AcDbEntity
8
1
62
256
6
ByLayer
370
13
48
1
60
0
100
AcDbLine
10
34.755968
20
12.700756
30
0
11
37.444414
21
12.700756
31
0
39
0
210
0
220
0
230
1
0
LINE
5
DB
100
AcDbEntity
8
1
62
256
6
ByLayer
370
13
48
1
60
0
100
AcDbLine
10
34.755968
20
12.299244
30
0
11
37.444414
21
12.299244
31
0
39
0
210
0
220
0
230
1
0
LINE
5
DC
100
AcDbEntity
8
1
62
256
6
ByLayer
370
13
48
1
60
0
100
AcDbLine
10
34.663344
20
12.751024
30
0
11
36.736252
21
12.751024
31
0
39
0
210
0
220
0
230
1
0
LINE
5
DD
100
AcDbEntity
8
1
62
256
6
ByLayer
370
13
48
1
60
0
100
AcDbLine
10
34.663344
20
12.248976
30
0
11
36.736252
21
12.248976
31
0
39
0
210
0
220
0
230
1
0
LINE
5
DE
100
AcDbEntity
8
1
62
256
6
ByLayer
370
13
48
1
60
0
100
AcDbLine
10
34.630577
20
12.132002
30
0
11
36.124167
21
12.132002
31
0
39
0
210
0
220
0
230
1
0
LINE
5
DF
100
AcDbEntity
8
1
62
256
6
ByLayer
370
13
48
1
60
0
100
AcDbLine
10
34.629949
20
12.867998
30
0
11
36.124167
21
12.867998
31
0
39
0
210
0
220
0
230
1
0
LINE
5
E0
100
AcDbEntity
8
1
62
256
6
ByLayer
370
13
48
1
60
0
100
AcDbLine
10
34.459376
20
11.524016
30
0
11
34.92005
21
11.524016
31
0
39
0
210
0
220
0
230
1
0
LINE
5
E1
100
AcDbEntity
8
1
62
256
6
ByLayer
370
13
48
1
60
0
100
AcDbLine
10
34.92005
20
13.475984
30
0
11
34.456033
21
13.475984
31
0
39
0
210
0
220
0
230
1
0
LINE
5
E2
100
AcDbEntity
8
1
62
256
6
ByLayer
370
18
48
1
60
0
100
AcDbLine
10
34.405406
20
11.35
30
0
11
34.872487
21
11.35
31
0
39
0
210
0
220
0
230
1
0
LINE
5
E3
100
AcDbEntity
8
1
62
256
6
ByLayer
370
13
48
1
60
0
100
AcDbLine
10
34.872487
20
11.474562
30
0
11
34.44431
21
11.474562
31
0
39
0
210
0
220
0
230
1
0
LINE
5
E4
100
AcDbEntity
8
1
62
256
6
ByLayer
370
18
48
1
60
0
100
AcDbLine
10
34.872487
20
11.35
30
0
11
37.328061
21
11.35
31
0
39
0
210
0
220
0
230
1
0
LINE
5
E5
100
AcDbEntity
8
1
62
256
6
ByLayer
370
18
48
1
60
0
100
AcDbLine
10
37.328061
20
13.65
30
0
11
34.872487
21
13.65
31
0
39
0
210
0
220
0
230
1
0
LINE
5
E6
100
AcDbEntity
8
1
62
256
6
ByLayer
370
18
48
1
60
0
100
AcDbLine
10
36.124167
20
12.867998
30
0
11
34.92005
21
13.475984
31
0
39
0
210
0
220
0
230
1
0
LINE
5
E7
100
AcDbEntity
8
1
62
256
6
ByLayer
370
18
48
1
60
0
100
AcDbLine
10
37.497706
20
12.697335
30
0
11
37.444414
21
12.700756
31
0
39
0
210
0
220
0
230
1
0
LINE
5
E8
100
AcDbEntity
8
1
62
256
6
ByLayer
370
18
48
1
60
0
100
AcDbLine
10
37.444414
20
12.299244
30
0
11
37.497706
21
12.302665
31
0
39
0
210
0
220
0
230
1
0
LINE
5
E9
100
AcDbEntity
8
1
62
256
6
ByLayer
370
18
48
1
60
0
100
AcDbLine
10
34.92005
20
11.524016
30
0
11
36.124167
21
12.132002
31
0
39
0
210
0
220
0
230
1
0
LINE
5
EA
100
AcDbEntity
8
1
62
256
6
ByLayer
370
18
48
1
60
0
100
AcDbLine
10
34.872487
20
11.35
30
0
11
34.872487
21
11.474562
31
0
39
0
210
0
220
0
230
1
0
LINE
5
EB
100
AcDbEntity
8
1
62
256
6
ByLayer
370
18
48
1
60
0
100
AcDbLine
10
38.519669
20
11.081125
30
0
11
37.572465
21
11.3198
31
0
39
0
210
0
220
0
230
1
0
LINE
5
EC
100
AcDbEntity
8
1
62
256
6
ByLayer
370
18
48
1
60
0
100
AcDbLine
10
38.951573
20
11.058705
30
0
11
38.558733
21
11.075439
31
0
39
0
210
0
220
0
230
1
0
LINE
5
ED
100
AcDbEntity
8
1
62
256
6
ByLayer
370
18
48
1
60
0
100
AcDbLine
10
38.951573
20
11.058705
30
0
11
38.951573
21
13.941295
31
0
39
0
210
0
220
0
230
1
0
LINE
5
EE
100
AcDbEntity
8
1
62
256
6
ByLayer
370
18
48
1
60
0
100
AcDbLine
10
23.248427
20
13.649928
30
0
11
23.248427
21
13.941295
31
0
39
0
210
0
220
0
230
1
0
LINE
5
EF
100
AcDbEntity
8
1
62
256
6
ByLayer
370
13
48
1
60
0
100
AcDbLine
10
34.441834
20
13.525438
30
0
11
34.872487
21
13.525438
31
0
39
0
210
0
220
0
230
1
0
LINE
5
F0
100
AcDbEntity
8
1
62
256
6
ByLayer
370
18
48
1
60
0
100
AcDbLine
10
34.872487
20
13.525438
30
0
11
34.872487
21
13.65
31
0
39
0
210
0
220
0
230
1
0
LINE
5
F1
100
AcDbEntity
8
1
62
256
6
ByLayer
370
18
48
1
60
0
100
AcDbLine
10
34.872487
20
13.65
30
0
11
34.40576
21
13.65
31
0
39
0
210
0
220
0
230
1
0
LINE
5
F2
100
AcDbEntity
8
1
62
256
6
ByLayer
370
18
48
1
60
0
100
AcDbLine
10
37.572465
20
13.6802
30
0
11
38.519669
21
13.918875
31
0
39
0
210
0
220
0
230
1
0
LINE
5
F3
100
AcDbEntity
8
1
62
256
6
ByLayer
370
18
48
1
60
0
100
AcDbLine
10
24.627535
20
13.6802
30
0
11
23.680331
21
13.918875
31
0
39
0
210
0
220
0
230
1
0
LINE
5
F4
100
AcDbEntity
8
1
62
256
6
ByLayer
370
18
48
1
60
0
100
AcDbLine
10
21.10001
20
13.803151
30
0
11
21.10001
21
13.663348
31
0
39
0
210
0
220
0
230
1
0
LINE
5
F5
100
AcDbEntity
8
1
62
256
6
ByLayer
370
18
48
1
60
0
100
AcDbLine
10
41.09999
20
13.803151
30
0
11
41.09999
21
11.196849
31
0
39
0
210
0
220
0
230
1
0
LINE
5
F6
100
AcDbEntity
8
1
62
256
6
ByLayer
370
18
48
1
60
0
100
AcDbLine
10
22.490989
20
13.937783
30
0
11
21.544204
21
13.995691
31
0
39
0
210
0
220
0
230
1
0
LINE
5
F7
100
AcDbEntity
8
1
62
256
6
ByLayer
370
18
48
1
60
0
100
AcDbLine
10
23.248427
20
13.941295
30
0
11
22.490989
21
13.937783
31
0
39
0
210
0
220
0
230
1
0
LINE
5
F8
100
AcDbEntity
8
1
62
256
6
ByLayer
370
18
48
1
60
0
100
AcDbLine
10
23.641267
20
13.924561
30
0
11
23.248427
21
13.941295
31
0
39
0
210
0
220
0
230
1
0
LINE
5
F9
100
AcDbEntity
8
1
62
256
6
ByLayer
370
18
48
1
60
0
100
AcDbLine
10
40.655796
20
11.004309
30
0
11
39.709011
21
11.062217
31
0
39
0
210
0
220
0
230
1
0
LINE
5
FA
100
AcDbEntity
8
1
62
256
6
ByLayer
370
18
48
1
60
0
100
AcDbLine
10
38.951573
20
13.941295
30
0
11
39.709011
21
13.937783
31
0
39
0
210
0
220
0
230
1
0
LINE
5
FB
100
AcDbEntity
8
1
62
256
6
ByLayer
370
18
48
1
60
0
100
AcDbLine
10
39.709011
20
13.937783
30
0
11
40.655796
21
13.995691
31
0
39
0
210
0
220
0
230
1
0
LINE
5
FC
100
AcDbEntity
8
1
62
256
6
ByLayer
370
18
48
1
60
0
100
AcDbLine
10
38.558733
20
13.924561
30
0
11
38.951573
21
13.941295
31
0
39
0
210
0
220
0
230
1
0
MTEXT
5
195
100
AcDbEntity
8
SK6
62
256
6
ByLayer
370
18
48
1
60
0
100
AcDbMText
10
-19.2645
20
-49.710154
30
0
210
0
220
0
230
1
1
\W0.7867;C2A-SL32-LGG18A-090GB
40
3.5
41
0
44
1.084337
50
0
71
7
72
5
7
iso_b_vert
0
DIMENSION
5
19A
100
AcDbEntity
8
2
62
256
6
ByLayer
370
18
48
1
60
0
100
AcDbDimension
2
_U0
10
41.1
20
-19.75
30
0
11
20.55
21
-19.75
31
0
70
32
71
1
72
1
41
1
210
0
220
0
230
1
3
Standard
100
AcDbAlignedDimension
13
0
23
0
33
0
14
41.1
24
14
34
0
50
0
100
AcDbRotatedDimension
1001
ACAD
1000
DSTYLE
1002
{
1070
   371
1070
    13
1070
   372
1070
    13
1070
   170
1070
     0
1070
   144
1040
1.0
1070
   277
1070
     2
1070
   284
1070
     8
1070
   278
1070
    46
1070
   146
1040
1.0
1070
   345
1005
16
1070
   347
1005
16
1070
   346
1005
16
1070
   344
1005
0
1070
   343
1005
0
1070
   172
1070
     1
1070
    76
1070
     0
1070
    75
1070
     0
1070
   282
1070
     0
1070
   281
1070
     0
1070
    71
1070
     0
1070
    74
1070
     0
1070
   279
1070
     0
1070
   173
1070
     1
1070
   340
1005
196
1070
   271
1070
     2
1070
   272
1070
     2
1070
    77
1070
     1
1070
    73
1070
     1
1070
   171
1070
     3
1070
   274
1070
     4
1070
   177
1070
     2
1070
   176
1070
     2
1070
   178
1070
     2
1070
    78
1070
     8
1070
    48
1040
-0.1
1070
    41
1040
3.5
1070
   147
1040
1.75
1070
    42
1040
1.5875
1070
    44
1040
2.0
1070
   140
1040
3.5
1002
}
1001
ACAD_DSTYLE_DIM_LINETYPE
1070
   380
1005
16
1001
ACAD_DSTYLE_DIM_EXT1_LINETYPE
1070
   381
1005
16
1001
ACAD_DSTYLE_DIM_EXT2_LINETYPE
1070
   382
1005
16
0
DIMENSION
5
1B4
100
AcDbEntity
8
2
62
256
6
ByLayer
370
18
48
1
60
0
100
AcDbDimension
2
_U1
10
41.1
20
-11.75
30
0
11
32.1
21
-11.75
31
0
70
32
71
1
72
1
41
1
210
0
220
0
230
1
3
Standard
100
AcDbAlignedDimension
13
23.1
23
11.325
33
0
14
41.1
24
14
34
0
50
0
100
AcDbRotatedDimension
1001
ACAD
1000
DSTYLE
1002
{
1070
   371
1070
    13
1070
   372
1070
    13
1070
   170
1070
     0
1070
   144
1040
1.0
1070
   277
1070
     2
1070
   284
1070
     8
1070
   278
1070
    46
1070
   146
1040
1.0
1070
   345
1005
16
1070
   347
1005
16
1070
   346
1005
16
1070
   344
1005
0
1070
   343
1005
0
1070
   172
1070
     1
1070
    76
1070
     0
1070
    75
1070
     0
1070
   282
1070
     0
1070
   281
1070
     0
1070
    71
1070
     0
1070
    74
1070
     0
1070
   279
1070
     0
1070
   173
1070
     1
1070
   340
1005
196
1070
   271
1070
     2
1070
   272
1070
     2
1070
    77
1070
     1
1070
    73
1070
     1
1070
   171
1070
     3
1070
   274
1070
     4
1070
   177
1070
     2
1070
   176
1070
     2
1070
   178
1070
     2
1070
    78
1070
     8
1070
    48
1040
-0.1
1070
    41
1040
3.5
1070
   147
1040
1.75
1070
    42
1040
1.5875
1070
    44
1040
2.0
1070
   140
1040
3.5
1002
}
1001
ACAD_DSTYLE_DIM_LINETYPE
1070
   380
1005
16
1001
ACAD_DSTYLE_DIM_EXT1_LINETYPE
1070
   381
1005
16
1001
ACAD_DSTYLE_DIM_EXT2_LINETYPE
1070
   382
1005
16
0
DIMENSION
5
1CC
100
AcDbEntity
8
2
62
256
6
ByLayer
370
18
48
1
60
0
100
AcDbDimension
2
_U2
10
65.85
20
0
30
0
11
65.85
21
7
31
0
70
32
71
1
72
1
41
1
210
0
220
0
230
1
3
Standard
100
AcDbAlignedDimension
13
41.1
23
14
33
0
14
0
24
0
34
0
50
90
100
AcDbRotatedDimension
1001
ACAD
1000
DSTYLE
1002
{
1070
   371
1070
    13
1070
   372
1070
    13
1070
   170
1070
     0
1070
   144
1040
1.0
1070
   277
1070
     2
1070
   284
1070
     8
1070
   278
1070
    46
1070
   146
1040
1.0
1070
   345
1005
16
1070
   347
1005
16
1070
   346
1005
16
1070
   344
1005
0
1070
   343
1005
0
1070
   172
1070
     1
1070
    76
1070
     0
1070
    75
1070
     0
1070
   282
1070
     0
1070
   281
1070
     0
1070
    71
1070
     0
1070
    74
1070
     0
1070
   279
1070
     0
1070
   173
1070
     1
1070
   340
1005
196
1070
   271
1070
     2
1070
   272
1070
     2
1070
    77
1070
     1
1070
    73
1070
     0
1070
   171
1070
     3
1070
   274
1070
     4
1070
   177
1070
     2
1070
   176
1070
     2
1070
   178
1070
     2
1070
    78
1070
     8
1070
    48
1040
-0.1
1070
    41
1040
3.5
1070
   147
1040
1.75
1070
    42
1040
1.5875
1070
    44
1040
2.0
1070
   140
1040
3.5
1002
}
1001
ACAD_DSTYLE_DIM_LINETYPE
1070
   380
1005
16
1001
ACAD_DSTYLE_DIM_EXT1_LINETYPE
1070
   381
1005
16
1001
ACAD_DSTYLE_DIM_EXT2_LINETYPE
1070
   382
1005
16
0
DIMENSION
5
1E5
100
AcDbEntity
8
2
62
256
6
ByLayer
370
18
48
1
60
0
100
AcDbDimension
2
_U3
10
52.85
20
11
30
0
11
52.85
21
12.5
31
0
70
32
71
1
72
1
41
1
210
0
220
0
230
1
3
Standard
100
AcDbAlignedDimension
13
41.1
23
14
33
0
14
41.1
24
11
34
0
50
90
100
AcDbRotatedDimension
1001
ACAD
1000
DSTYLE
1002
{
1070
   371
1070
    13
1070
   372
1070
    13
1070
   170
1070
     0
1070
   144
1040
1.0
1070
   277
1070
     2
1070
   284
1070
     8
1070
   278
1070
    46
1070
   146
1040
1.0
1070
   345
1005
16
1070
   347
1005
16
1070
   346
1005
16
1070
   344
1005
0
1070
   343
1005
0
1070
   172
1070
     1
1070
    76
1070
     0
1070
    75
1070
     0
1070
   282
1070
     0
1070
   281
1070
     0
1070
    71
1070
     0
1070
    74
1070
     0
1070
   279
1070
     0
1070
   173
1070
     1
1070
   340
1005
196
1070
   271
1070
     2
1070
   272
1070
     2
1070
    77
1070
     1
1070
    73
1070
     0
1070
   171
1070
     3
1070
   274
1070
     4
1070
   177
1070
     2
1070
   176
1070
     2
1070
   178
1070
     2
1070
    78
1070
     8
1070
    48
1040
-0.1
1070
    41
1040
3.5
1070
   147
1040
1.75
1070
    42
1040
1.5875
1070
    44
1040
2.0
1070
   140
1040
3.5
1002
}
1001
ACAD_DSTYLE_DIM_LINETYPE
1070
   380
1005
16
1001
ACAD_DSTYLE_DIM_EXT1_LINETYPE
1070
   381
1005
16
1001
ACAD_DSTYLE_DIM_EXT2_LINETYPE
1070
   382
1005
16
0
ENDSEC
0
SECTION
2
OBJECTS
0
DICTIONARY
5
26b
330
0
100
AcDbDictionary
280
0
281
1
3
ACAD_GROUP
350
26c
3
ACAD_MLINESTYLE
350
26d
0
DICTIONARY
5
26c
330
0
100
AcDbDictionary
280
0
281
1
0
DICTIONARY
5
26d
330
0
100
AcDbDictionary
280
0
281
1
3
Standard
350
18
0
MLINESTYLE
5
18
330
26d
100
AcDbMlineStyle
2
Standard
70
0
3

62
256
51
90
52
90
71
2
49
-0.5
62
256
6
ByLayer
49
0.5
62
256
6
ByLayer
0
RASTERVARIABLES
5
25c
330

100
AcDbRasterVariables
90
0
70
1
71
1
72
1
0
ENDSEC
0
EOF
