0
SECTION
2
HEADER
9
$ACADVER
1
AC1015
9
$DWGCODEPAGE
3
ANSI_1252
9
$HANDSEED
5
283
9
$ANGBASE
50
0
9
$ANGDIR
70
0
9
$ATTMODE
70
1
9
$AUNITS
70
0
9
$AUPREC
70
0
9
$CECOLOR
62
256
9
$CELTSCALE
40
1
9
$CELTYPE
6
ByLayer
9
$CELWEIGHT
370
18
9
$CLAYER
8
0
9
$CMLJUST
70
0
9
$CMLSCALE
40
1
9
$CMLSTYLE
2
Standard
9
$DIMSTYLE
2
Standard
9
$TEXTSIZE
40
0.2
9
$TEXTSTYLE
7
Standard
9
$LUNITS
70
2
9
$LUPREC
70
4
9
$EXTNAMES
290
1
9
$INSUNITS
70
4
9
$LTSCALE
40
1
9
$LWDISPLAY
290
1
9
$PDMODE
70
0
9
$PDSIZE
40
0
9
$PLINEGEN
70
0
0
ENDSEC
0
SECTION
2
CLASSES
0
CLASS
1
RASTERVARIABLES
2
AcDbRasterVariables
3
ISM
90
0
280
0
281
0
0
ENDSEC
0
SECTION
2
TABLES
0
TABLE
2
VPORT
5
279
100
AcDbSymbolTable
0
VPORT
5
1
100
AcDbSymbolTableRecord
100
AcDbViewportTableRecord
2
*Active
70
0
10
0
20
0
11
1
21
1
12
-1
22
1
13
0
23
0
14
0.5
24
0.5
15
10
25
10
16
0
26
0
36
1
17
0
27
0
37
0
0
ENDTAB
0
TABLE
2
LTYPE
5
27a
100
AcDbSymbolTable
0
LTYPE
5
14
100
AcDbSymbolTableRecord
100
AcDbLinetypeTableRecord
70
0
2
ByBlock
3

72
65
73
0
40
0
0
LTYPE
5
15
100
AcDbSymbolTableRecord
100
AcDbLinetypeTableRecord
70
0
2
ByLayer
3

72
65
73
0
40
0
0
LTYPE
5
16
100
AcDbSymbolTableRecord
100
AcDbLinetypeTableRecord
70
0
2
Continuous
3
Solid line
72
65
73
0
40
0
0
LTYPE
5
6E
100
AcDbSymbolTableRecord
100
AcDbLinetypeTableRecord
70
0
2
CENTER
3
____ _ ____ _ ____ _ ____
72
65
73
4
40
47.5
49
22
74
0
49
-8.5
74
0
49
8.5
74
0
49
-8.5
74
0
0
LTYPE
5
6F
100
AcDbSymbolTableRecord
100
AcDbLinetypeTableRecord
70
0
2
DASHED
3
__ __ __ __ __ __ __ __ __
72
65
73
2
40
25.72
49
12.86
74
0
49
-12.86
74
0
0
ENDTAB
0
TABLE
2
LAYER
5
27b
100
AcDbSymbolTable
0
LAYER
5
10
100
AcDbSymbolTableRecord
100
AcDbLayerTableRecord
2
0
70
0
62
7
6
Continuous
290
1
370
-3
390
0
0
LAYER
5
71
100
AcDbSymbolTableRecord
100
AcDbLayerTableRecord
2
81
70
0
62
-3
6
Continuous
290
1
370
-3
390
0
0
LAYER
5
73
100
AcDbSymbolTableRecord
100
AcDbLayerTableRecord
2
80
70
0
62
-6
6
Continuous
290
1
370
-3
390
0
0
LAYER
5
75
100
AcDbSymbolTableRecord
100
AcDbLayerTableRecord
2
1
70
0
62
4
6
Continuous
290
1
370
-3
390
0
0
LAYER
5
1A7
100
AcDbSymbolTableRecord
100
AcDbLayerTableRecord
2
Defpoints
70
0
62
7
6
Continuous
290
0
370
-3
390
0
0
LAYER
5
1B4
100
AcDbSymbolTableRecord
100
AcDbLayerTableRecord
2
2
70
0
62
7
6
Continuous
290
1
370
-3
390
0
0
LAYER
5
268
100
AcDbSymbolTableRecord
100
AcDbLayerTableRecord
2
SK6
70
0
62
5
6
Continuous
290
1
370
-3
390
0
0
ENDTAB
0
TABLE
2
STYLE
5
27c
100
AcDbSymbolTable
0
STYLE
5
11
100
AcDbSymbolTableRecord
100
AcDbTextStyleTableRecord
2
Standard
3
txt
70
0
71
0
40
0
41
1
42
0
50
0
0
STYLE
5
1A0
100
AcDbSymbolTableRecord
100
AcDbTextStyleTableRecord
2
iso_b_vert
3
simplex.shx
70
0
71
0
40
0
41
1
42
0
50
0
0
STYLE
5
1A1
100
AcDbSymbolTableRecord
100
AcDbTextStyleTableRecord
2
DWGDirectTextStyle
3
simplex
70
0
71
0
40
0
41
1
42
0
50
0
0
ENDTAB
0
TABLE
2
DIMSTYLE
5
27d
100
AcDbSymbolTable
100
AcDbDimStyleTable
0
DIMSTYLE
105
27
100
AcDbSymbolTableRecord
100
AcDbDimStyleTableRecord
2
Standard
70
0
3
<>
41
0.18
42
0.0625
44
0.18
140
0.18
147
0.09
73
0
74
0
77
1
271
2
275
0
278
52
280
0
340
11
0
ENDTAB
0
TABLE
2
VIEW
5
27e
100
AcDbSymbolTable
0
ENDTAB
0
TABLE
2
UCS
5
27f
100
AcDbSymbolTable
0
ENDTAB
0
TABLE
2
APPID
5
280
100
AcDbSymbolTable
0
APPID
5
12
100
AcDbSymbolTableRecord
100
AcDbRegAppTableRecord
2
ACAD
70
0
0
APPID
5
1A3
100
AcDbSymbolTableRecord
100
AcDbRegAppTableRecord
2
ACAD_DSTYLE_DIMBREAK
70
0
0
APPID
5
227
100
AcDbSymbolTableRecord
100
AcDbRegAppTableRecord
2
ACAD_DSTYLE_DIM_LINETYPE
70
0
0
APPID
5
228
100
AcDbSymbolTableRecord
100
AcDbRegAppTableRecord
2
ACAD_DSTYLE_DIM_EXT1_LINETYPE
70
0
0
APPID
5
229
100
AcDbSymbolTableRecord
100
AcDbRegAppTableRecord
2
ACAD_DSTYLE_DIM_EXT2_LINETYPE
70
0
0
APPID
5
264
100
AcDbSymbolTableRecord
100
AcDbRegAppTableRecord
2
ACAD_MLEADERVER
70
0
0
ENDTAB
0
TABLE
2
BLOCK_RECORD
5
281
100
AcDbSymbolTable
0
BLOCK_RECORD
5
1F
100
AcDbSymbolTableRecord
100
AcDbBlockTableRecord
2
*Model_Space
340
0
70
0
0
BLOCK_RECORD
5
1B
100
AcDbSymbolTableRecord
100
AcDbBlockTableRecord
2
*Paper_Space
340
0
70
0
0
BLOCK_RECORD
5
23
100
AcDbSymbolTableRecord
100
AcDbBlockTableRecord
2
*Paper_Space0
340
0
70
0
0
BLOCK_RECORD
5
1A8
100
AcDbSymbolTableRecord
100
AcDbBlockTableRecord
2
*D1
340
0
70
0
0
BLOCK_RECORD
5
1B5
100
AcDbSymbolTableRecord
100
AcDbBlockTableRecord
2
_U0
340
0
70
0
0
BLOCK_RECORD
5
1C1
100
AcDbSymbolTableRecord
100
AcDbBlockTableRecord
2
*D3
340
0
70
0
0
BLOCK_RECORD
5
1CE
100
AcDbSymbolTableRecord
100
AcDbBlockTableRecord
2
_U1
340
0
70
0
0
BLOCK_RECORD
5
1DA
100
AcDbSymbolTableRecord
100
AcDbBlockTableRecord
2
*D5
340
0
70
0
0
BLOCK_RECORD
5
1E7
100
AcDbSymbolTableRecord
100
AcDbBlockTableRecord
2
_U2
340
0
70
0
0
BLOCK_RECORD
5
1F3
100
AcDbSymbolTableRecord
100
AcDbBlockTableRecord
2
*D7
340
0
70
0
0
BLOCK_RECORD
5
200
100
AcDbSymbolTableRecord
100
AcDbBlockTableRecord
2
_U3
340
0
70
0
0
ENDTAB
0
ENDSEC
0
SECTION
2
BLOCKS
0
BLOCK
5
20
100
AcDbEntity
8
0
100
AcDbBlockBegin
2
*Model_Space
70
0
10
0
20
0
30
0
3
*Model_Space
0
ENDBLK
5
21
100
AcDbEntity
8
0
100
AcDbBlockEnd
0
BLOCK
5
1C
100
AcDbEntity
8
0
100
AcDbBlockBegin
2
*Paper_Space
70
0
10
0
20
0
30
0
3
*Paper_Space
0
ENDBLK
5
1D
100
AcDbEntity
8
0
100
AcDbBlockEnd
0
BLOCK
5
24
100
AcDbEntity
8
0
100
AcDbBlockBegin
2
*Paper_Space0
70
0
10
0
20
0
30
0
3
*Paper_Space0
0
ENDBLK
5
25
100
AcDbEntity
8
0
100
AcDbBlockEnd
0
BLOCK
5
1A9
100
AcDbEntity
8
0
100
AcDbBlockBegin
2
*D1
70
1
10
0
20
0
30
0
3
*D1
0
LINE
5
1AB
100
AcDbEntity
8
0
62
256
6
ByLayer
370
-2
48
1
60
0
100
AcDbLine
10
0
20
-1.5875
30
0
11
0
21
-21.75
31
0
39
0
210
0
220
0
230
1
0
LINE
5
1AC
100
AcDbEntity
8
0
62
256
6
ByLayer
370
-2
48
1
60
0
100
AcDbLine
10
37.35
20
12.4125
30
0
11
37.35
21
-21.75
31
0
39
0
210
0
220
0
230
1
0
LINE
5
1AD
100
AcDbEntity
8
0
62
256
6
ByLayer
370
-2
48
1
60
0
100
AcDbLine
10
3.5
20
-19.75
30
0
11
33.85
21
-19.75
31
0
39
0
210
0
220
0
230
1
0
SOLID
5
1AE
100
AcDbEntity
8
0
62
256
6
ByLayer
370
-1
48
1
60
0
100
AcDbTrace
10
3.5
20
-19.166667
30
0
11
3.5
21
-20.333333
31
0
12
0
22
-19.75
32
0
13
0
23
-19.75
33
0
39
0
210
0
220
0
230
1
0
SOLID
5
1AF
100
AcDbEntity
8
0
62
256
6
ByLayer
370
-1
48
1
60
0
100
AcDbTrace
10
33.85
20
-20.333333
30
0
11
33.85
21
-19.166667
31
0
12
37.35
22
-19.75
32
0
13
37.35
23
-19.75
33
0
39
0
210
0
220
0
230
1
0
MTEXT
5
1B0
100
AcDbEntity
8
0
62
256
6
ByLayer
370
18
48
1
60
0
100
AcDbMText
10
18.675
20
-12.75
30
0
210
0
220
0
230
1
1
\A1;37.35
40
3.5
41
0
44
1
50
0
71
5
72
5
7
iso_b_vert
0
POINT
5
1B1
100
AcDbEntity
8
Defpoints
62
0
6
ByLayer
370
-1
48
1
60
0
100
AcDbPoint
10
0
20
0
30
0
39
0
210
0
220
0
230
1
50
360
0
POINT
5
1B2
100
AcDbEntity
8
Defpoints
62
0
6
ByLayer
370
-1
48
1
60
0
100
AcDbPoint
10
37.35
20
14
30
0
39
0
210
0
220
0
230
1
50
360
0
POINT
5
1B3
100
AcDbEntity
8
Defpoints
62
0
6
ByLayer
370
-1
48
1
60
0
100
AcDbPoint
10
37.35
20
-19.75
30
0
39
0
210
0
220
0
230
1
50
360
0
ENDBLK
5
1AA
100
AcDbEntity
8
0
100
AcDbBlockEnd
0
BLOCK
5
1BC
100
AcDbEntity
8
0
100
AcDbBlockBegin
2
_U0
70
0
10
0
20
0
30
0
3
_U0
0
MTEXT
5
1B6
100
AcDbEntity
8
2
62
256
6
ByLayer
370
18
48
1
60
0
100
AcDbMText
10
13.445568
20
-18.717366
30
0
210
0
220
0
230
1
1
\W0.7468;37.35
40
3.5
41
0
44
1.084337
50
0
71
7
72
5
7
iso_b_vert
0
LINE
5
1B7
100
AcDbEntity
8
2
62
256
6
ByLayer
370
13
48
1
60
0
100
AcDbLine
10
0
20
-1.5875
30
0
11
0
21
-21.75
31
0
39
0
210
0
220
0
230
1
0
LINE
5
1B8
100
AcDbEntity
8
2
62
256
6
ByLayer
370
13
48
1
60
0
100
AcDbLine
10
37.35
20
12.4125
30
0
11
37.35
21
-21.75
31
0
39
0
210
0
220
0
230
1
0
LINE
5
1B9
100
AcDbEntity
8
2
62
256
6
ByLayer
370
13
48
1
60
0
100
AcDbLine
10
0
20
-19.75
30
0
11
37.35
21
-19.75
31
0
39
0
210
0
220
0
230
1
0
SOLID
5
1BA
100
AcDbEntity
8
2
62
256
6
ByLayer
370
18
48
1
60
0
100
AcDbTrace
10
0
20
-19.75
30
0
11
3.499998
21
-19.289216
31
0
12
3.500002
22
-20.210784
32
0
13
3.500002
23
-20.210784
33
0
39
0
210
0
220
0
230
1
0
SOLID
5
1BB
100
AcDbEntity
8
2
62
256
6
ByLayer
370
18
48
1
60
0
100
AcDbTrace
10
37.35
20
-19.75
30
0
11
33.850002
21
-20.210784
31
0
12
33.849998
22
-19.289216
32
0
13
33.849998
23
-19.289216
33
0
39
0
210
0
220
0
230
1
0
ENDBLK
5
1BD
100
AcDbEntity
8
0
100
AcDbBlockEnd
0
BLOCK
5
1C2
100
AcDbEntity
8
0
100
AcDbBlockBegin
2
*D3
70
1
10
0
20
0
30
0
3
*D3
0
LINE
5
1C4
100
AcDbEntity
8
0
62
256
6
ByLayer
370
-2
48
1
60
0
100
AcDbLine
10
22.35
20
10.162654
30
0
11
22.35
21
-13.75
31
0
39
0
210
0
220
0
230
1
0
LINE
5
1C5
100
AcDbEntity
8
0
62
256
6
ByLayer
370
-2
48
1
60
0
100
AcDbLine
10
37.35
20
12.4125
30
0
11
37.35
21
-13.75
31
0
39
0
210
0
220
0
230
1
0
LINE
5
1C6
100
AcDbEntity
8
0
62
256
6
ByLayer
370
-2
48
1
60
0
100
AcDbLine
10
18.85
20
-11.75
30
0
11
15.35
21
-11.75
31
0
39
0
210
0
220
0
230
1
0
LINE
5
1C7
100
AcDbEntity
8
0
62
256
6
ByLayer
370
-2
48
1
60
0
100
AcDbLine
10
40.85
20
-11.75
30
0
11
44.35
21
-11.75
31
0
39
0
210
0
220
0
230
1
0
SOLID
5
1C8
100
AcDbEntity
8
0
62
256
6
ByLayer
370
-1
48
1
60
0
100
AcDbTrace
10
18.85
20
-12.333333
30
0
11
18.85
21
-11.166667
31
0
12
22.35
22
-11.75
32
0
13
22.35
23
-11.75
33
0
39
0
210
0
220
0
230
1
0
SOLID
5
1C9
100
AcDbEntity
8
0
62
256
6
ByLayer
370
-1
48
1
60
0
100
AcDbTrace
10
40.85
20
-11.166667
30
0
11
40.85
21
-12.333333
31
0
12
37.35
22
-11.75
32
0
13
37.35
23
-11.75
33
0
39
0
210
0
220
0
230
1
0
MTEXT
5
1CA
100
AcDbEntity
8
0
62
256
6
ByLayer
370
18
48
1
60
0
100
AcDbMText
10
29.85
20
-4.75
30
0
210
0
220
0
230
1
1
\A1;15
40
3.5
41
0
44
1
50
0
71
5
72
5
7
iso_b_vert
0
POINT
5
1CB
100
AcDbEntity
8
Defpoints
62
0
6
ByLayer
370
-1
48
1
60
0
100
AcDbPoint
10
22.35
20
11.750154
30
0
39
0
210
0
220
0
230
1
50
360
0
POINT
5
1CC
100
AcDbEntity
8
Defpoints
62
0
6
ByLayer
370
-1
48
1
60
0
100
AcDbPoint
10
37.35
20
14
30
0
39
0
210
0
220
0
230
1
50
360
0
POINT
5
1CD
100
AcDbEntity
8
Defpoints
62
0
6
ByLayer
370
-1
48
1
60
0
100
AcDbPoint
10
37.35
20
-11.75
30
0
39
0
210
0
220
0
230
1
50
360
0
ENDBLK
5
1C3
100
AcDbEntity
8
0
100
AcDbBlockEnd
0
BLOCK
5
1D5
100
AcDbEntity
8
0
100
AcDbBlockBegin
2
_U1
70
0
10
0
20
0
30
0
3
_U1
0
MTEXT
5
1CF
100
AcDbEntity
8
2
62
256
6
ByLayer
370
18
48
1
60
0
100
AcDbMText
10
28.382467
20
-10.717366
30
0
210
0
220
0
230
1
1
\W0.5321;15
40
3.5
41
0
44
1.084337
50
0
71
7
72
5
7
iso_b_vert
0
LINE
5
1D0
100
AcDbEntity
8
2
62
256
6
ByLayer
370
13
48
1
60
0
100
AcDbLine
10
22.35
20
10.162654
30
0
11
22.35
21
-13.75
31
0
39
0
210
0
220
0
230
1
0
LINE
5
1D1
100
AcDbEntity
8
2
62
256
6
ByLayer
370
13
48
1
60
0
100
AcDbLine
10
37.35
20
12.4125
30
0
11
37.35
21
-13.75
31
0
39
0
210
0
220
0
230
1
0
LINE
5
1D2
100
AcDbEntity
8
2
62
256
6
ByLayer
370
13
48
1
60
0
100
AcDbLine
10
22.35
20
-11.75
30
0
11
37.35
21
-11.75
31
0
39
0
210
0
220
0
230
1
0
SOLID
5
1D3
100
AcDbEntity
8
2
62
256
6
ByLayer
370
18
48
1
60
0
100
AcDbTrace
10
22.35
20
-11.75
30
0
11
25.849998
21
-11.289216
31
0
12
25.850002
22
-12.210784
32
0
13
25.850002
23
-12.210784
33
0
39
0
210
0
220
0
230
1
0
SOLID
5
1D4
100
AcDbEntity
8
2
62
256
6
ByLayer
370
18
48
1
60
0
100
AcDbTrace
10
37.35
20
-11.75
30
0
11
33.850002
21
-12.210784
31
0
12
33.849998
22
-11.289216
32
0
13
33.849998
23
-11.289216
33
0
39
0
210
0
220
0
230
1
0
ENDBLK
5
1D6
100
AcDbEntity
8
0
100
AcDbBlockEnd
0
BLOCK
5
1DB
100
AcDbEntity
8
0
100
AcDbBlockBegin
2
*D5
70
1
10
0
20
0
30
0
3
*D5
0
LINE
5
1DD
100
AcDbEntity
8
0
62
256
6
ByLayer
370
-2
48
1
60
0
100
AcDbLine
10
38.9375
20
14
30
0
11
64.1
21
14
31
0
39
0
210
0
220
0
230
1
0
LINE
5
1DE
100
AcDbEntity
8
0
62
256
6
ByLayer
370
-2
48
1
60
0
100
AcDbLine
10
1.5875
20
0
30
0
11
64.1
21
0
31
0
39
0
210
0
220
0
230
1
0
LINE
5
1DF
100
AcDbEntity
8
0
62
256
6
ByLayer
370
-2
48
1
60
0
100
AcDbLine
10
62.1
20
17.5
30
0
11
62.1
21
21
31
0
39
0
210
0
220
0
230
1
0
LINE
5
1E0
100
AcDbEntity
8
0
62
256
6
ByLayer
370
-2
48
1
60
0
100
AcDbLine
10
62.1
20
-3.5
30
0
11
62.1
21
-7
31
0
39
0
210
0
220
0
230
1
0
SOLID
5
1E1
100
AcDbEntity
8
0
62
256
6
ByLayer
370
-1
48
1
60
0
100
AcDbTrace
10
61.516667
20
17.5
30
0
11
62.683333
21
17.5
31
0
12
62.1
22
14
32
0
13
62.1
23
14
33
0
39
0
210
0
220
0
230
1
0
SOLID
5
1E2
100
AcDbEntity
8
0
62
256
6
ByLayer
370
-1
48
1
60
0
100
AcDbTrace
10
62.683333
20
-3.5
30
0
11
61.516667
21
-3.5
31
0
12
62.1
22
0
32
0
13
62.1
23
0
33
0
39
0
210
0
220
0
230
1
0
MTEXT
5
1E3
100
AcDbEntity
8
0
62
256
6
ByLayer
370
18
48
1
60
0
100
AcDbMText
10
55.1
20
7
30
0
210
0
220
0
230
1
1
\A1;14
40
3.5
41
0
44
1
50
90
71
5
72
5
7
iso_b_vert
0
POINT
5
1E4
100
AcDbEntity
8
Defpoints
62
0
6
ByLayer
370
-1
48
1
60
0
100
AcDbPoint
10
37.35
20
14
30
0
39
0
210
0
220
0
230
1
50
360
0
POINT
5
1E5
100
AcDbEntity
8
Defpoints
62
0
6
ByLayer
370
-1
48
1
60
0
100
AcDbPoint
10
0
20
0
30
0
39
0
210
0
220
0
230
1
50
360
0
POINT
5
1E6
100
AcDbEntity
8
Defpoints
62
0
6
ByLayer
370
-1
48
1
60
0
100
AcDbPoint
10
62.1
20
0
30
0
39
0
210
0
220
0
230
1
50
360
0
ENDBLK
5
1DC
100
AcDbEntity
8
0
100
AcDbBlockEnd
0
BLOCK
5
1EE
100
AcDbEntity
8
0
100
AcDbBlockBegin
2
_U2
70
0
10
0
20
0
30
0
3
_U2
0
MTEXT
5
1E8
100
AcDbEntity
8
2
62
256
6
ByLayer
370
18
48
1
60
0
100
AcDbMText
10
61.410366
20
5.3202
30
0
210
0
220
0
230
1
1
\W0.5785;14
40
3.5
41
0
44
1.084337
50
90
71
7
72
5
7
iso_b_vert
0
LINE
5
1E9
100
AcDbEntity
8
2
62
256
6
ByLayer
370
13
48
1
60
0
100
AcDbLine
10
38.9375
20
14
30
0
11
64.1
21
14
31
0
39
0
210
0
220
0
230
1
0
LINE
5
1EA
100
AcDbEntity
8
2
62
256
6
ByLayer
370
13
48
1
60
0
100
AcDbLine
10
1.5875
20
0
30
0
11
64.1
21
0
31
0
39
0
210
0
220
0
230
1
0
LINE
5
1EB
100
AcDbEntity
8
2
62
256
6
ByLayer
370
13
48
1
60
0
100
AcDbLine
10
62.1
20
14
30
0
11
62.1
21
0
31
0
39
0
210
0
220
0
230
1
0
SOLID
5
1EC
100
AcDbEntity
8
2
62
256
6
ByLayer
370
18
48
1
60
0
100
AcDbTrace
10
62.1
20
14
30
0
11
62.560784
21
10.500002
31
0
12
61.639216
22
10.499998
32
0
13
61.639216
23
10.499998
33
0
39
0
210
0
220
0
230
1
0
SOLID
5
1ED
100
AcDbEntity
8
2
62
256
6
ByLayer
370
18
48
1
60
0
100
AcDbTrace
10
62.1
20
0
30
0
11
61.639216
21
3.499998
31
0
12
62.560784
22
3.500002
32
0
13
62.560784
23
3.500002
33
0
39
0
210
0
220
0
230
1
0
ENDBLK
5
1EF
100
AcDbEntity
8
0
100
AcDbBlockEnd
0
BLOCK
5
1F4
100
AcDbEntity
8
0
100
AcDbBlockBegin
2
*D7
70
1
10
0
20
0
30
0
3
*D7
0
LINE
5
1F6
100
AcDbEntity
8
0
62
256
6
ByLayer
370
-2
48
1
60
0
100
AcDbLine
10
38.9375
20
14
30
0
11
51.1
21
14
31
0
39
0
210
0
220
0
230
1
0
LINE
5
1F7
100
AcDbEntity
8
0
62
256
6
ByLayer
370
-2
48
1
60
0
100
AcDbLine
10
38.9375
20
11.5
30
0
11
51.1
21
11.5
31
0
39
0
210
0
220
0
230
1
0
LINE
5
1F8
100
AcDbEntity
8
0
62
256
6
ByLayer
370
-2
48
1
60
0
100
AcDbLine
10
49.1
20
17.5
30
0
11
49.1
21
21
31
0
39
0
210
0
220
0
230
1
0
LINE
5
1F9
100
AcDbEntity
8
0
62
256
6
ByLayer
370
-2
48
1
60
0
100
AcDbLine
10
49.1
20
8
30
0
11
49.1
21
4.5
31
0
39
0
210
0
220
0
230
1
0
SOLID
5
1FA
100
AcDbEntity
8
0
62
256
6
ByLayer
370
-1
48
1
60
0
100
AcDbTrace
10
48.516667
20
17.5
30
0
11
49.683333
21
17.5
31
0
12
49.1
22
14
32
0
13
49.1
23
14
33
0
39
0
210
0
220
0
230
1
0
SOLID
5
1FB
100
AcDbEntity
8
0
62
256
6
ByLayer
370
-1
48
1
60
0
100
AcDbTrace
10
49.683333
20
8
30
0
11
48.516667
21
8
31
0
12
49.1
22
11.5
32
0
13
49.1
23
11.5
33
0
39
0
210
0
220
0
230
1
0
MTEXT
5
1FC
100
AcDbEntity
8
0
62
256
6
ByLayer
370
18
48
1
60
0
100
AcDbMText
10
42.1
20
12.75
30
0
210
0
220
0
230
1
1
\A1;2.5
40
3.5
41
0
44
1
50
90
71
5
72
5
7
iso_b_vert
0
POINT
5
1FD
100
AcDbEntity
8
Defpoints
62
0
6
ByLayer
370
-1
48
1
60
0
100
AcDbPoint
10
37.35
20
14
30
0
39
0
210
0
220
0
230
1
50
360
0
POINT
5
1FE
100
AcDbEntity
8
Defpoints
62
0
6
ByLayer
370
-1
48
1
60
0
100
AcDbPoint
10
37.35
20
11.5
30
0
39
0
210
0
220
0
230
1
50
360
0
POINT
5
1FF
100
AcDbEntity
8
Defpoints
62
0
6
ByLayer
370
-1
48
1
60
0
100
AcDbPoint
10
49.1
20
11.5
30
0
39
0
210
0
220
0
230
1
50
360
0
ENDBLK
5
1F5
100
AcDbEntity
8
0
100
AcDbBlockEnd
0
BLOCK
5
207
100
AcDbEntity
8
0
100
AcDbBlockBegin
2
_U3
70
0
10
0
20
0
30
0
3
_U3
0
MTEXT
5
201
100
AcDbEntity
8
2
62
256
6
ByLayer
370
18
48
1
60
0
100
AcDbMText
10
48.410366
20
10.108034
30
0
210
0
220
0
230
1
1
\W0.7121;2.5
40
3.5
41
0
44
1.084337
50
90
71
7
72
5
7
iso_b_vert
0
LINE
5
202
100
AcDbEntity
8
2
62
256
6
ByLayer
370
13
48
1
60
0
100
AcDbLine
10
38.9375
20
14
30
0
11
51.1
21
14
31
0
39
0
210
0
220
0
230
1
0
LINE
5
203
100
AcDbEntity
8
2
62
256
6
ByLayer
370
13
48
1
60
0
100
AcDbLine
10
38.9375
20
11.5
30
0
11
51.1
21
11.5
31
0
39
0
210
0
220
0
230
1
0
LINE
5
204
100
AcDbEntity
8
2
62
256
6
ByLayer
370
13
48
1
60
0
100
AcDbLine
10
49.1
20
22.75
30
0
11
49.1
21
2.75
31
0
39
0
210
0
220
0
230
1
0
SOLID
5
205
100
AcDbEntity
8
2
62
256
6
ByLayer
370
18
48
1
60
0
100
AcDbTrace
10
49.1
20
14
30
0
11
48.639216
21
17.499998
31
0
12
49.560784
22
17.500002
32
0
13
49.560784
23
17.500002
33
0
39
0
210
0
220
0
230
1
0
SOLID
5
206
100
AcDbEntity
8
2
62
256
6
ByLayer
370
18
48
1
60
0
100
AcDbTrace
10
49.1
20
11.5
30
0
11
49.560784
21
8.000002
31
0
12
48.639216
22
7.999998
32
0
13
48.639216
23
7.999998
33
0
39
0
210
0
220
0
230
1
0
ENDBLK
5
208
100
AcDbEntity
8
0
100
AcDbBlockEnd
0
ENDSEC
0
SECTION
2
ENTITIES
0
ARC
5
102
100
AcDbEntity
8
1
62
256
6
ByLayer
370
18
48
1
60
0
100
AcDbCircle
39
0
10
16.5
20
0.875
30
0
40
0.5
210
0
220
0
230
1
100
AcDbArc
50
90
51
180
0
ARC
5
103
100
AcDbEntity
8
1
62
256
6
ByLayer
370
18
48
1
60
0
100
AcDbCircle
39
0
10
16
20
6.000093
30
0
40
1.416
210
0
220
0
230
1
100
AcDbArc
50
186.192438
51
240.190711
0
ARC
5
104
100
AcDbEntity
8
1
62
256
6
ByLayer
370
18
48
1
60
0
100
AcDbCircle
39
0
10
16
20
6.000093
30
0
40
1.416
210
0
220
0
230
1
100
AcDbArc
50
240.190711
51
299.809289
0
ARC
5
105
100
AcDbEntity
8
1
62
256
6
ByLayer
370
18
48
1
60
0
100
AcDbCircle
39
0
10
16
20
6.000093
30
0
40
1.416
210
0
220
0
230
1
100
AcDbArc
50
299.809289
51
353.807562
0
ARC
5
106
100
AcDbEntity
8
1
62
256
6
ByLayer
370
18
48
1
60
0
100
AcDbCircle
39
0
10
16
20
6.000093
30
0
40
1.416
210
0
220
0
230
1
100
AcDbArc
50
6.192438
51
60.190711
0
ARC
5
107
100
AcDbEntity
8
1
62
256
6
ByLayer
370
18
48
1
60
0
100
AcDbCircle
39
0
10
16
20
6.000093
30
0
40
1.416
210
0
220
0
230
1
100
AcDbArc
50
60.190711
51
119.809289
0
ARC
5
108
100
AcDbEntity
8
1
62
256
6
ByLayer
370
18
48
1
60
0
100
AcDbCircle
39
0
10
16
20
6.000093
30
0
40
1.416
210
0
220
0
230
1
100
AcDbArc
50
119.809289
51
173.807562
0
ARC
5
109
100
AcDbEntity
8
1
62
256
6
ByLayer
370
18
48
1
60
0
100
AcDbCircle
39
0
10
16
20
6.000093
30
0
40
1.416
210
0
220
0
230
1
100
AcDbArc
50
173.807562
51
186.192438
0
ARC
5
10C
100
AcDbEntity
8
1
62
256
6
ByLayer
370
18
48
1
60
0
100
AcDbCircle
39
0
10
16
20
6.000093
30
0
40
1.9685
210
0
220
0
230
1
100
AcDbArc
50
30.381422
51
90
0
ARC
5
10D
100
AcDbEntity
8
1
62
256
6
ByLayer
370
18
48
1
60
0
100
AcDbCircle
39
0
10
16
20
6.000093
30
0
40
1.9685
210
0
220
0
230
1
100
AcDbArc
50
149.618578
51
210.381422
0
ARC
5
10E
100
AcDbEntity
8
1
62
256
6
ByLayer
370
18
48
1
60
0
100
AcDbCircle
39
0
10
16
20
6.000093
30
0
40
1.9685
210
0
220
0
230
1
100
AcDbArc
50
270
51
329.618578
0
ARC
5
10F
100
AcDbEntity
8
1
62
256
6
ByLayer
370
18
48
1
60
0
100
AcDbCircle
39
0
10
16
20
6.000093
30
0
40
1.9685
210
0
220
0
230
1
100
AcDbArc
50
210.381422
51
270
0
ARC
5
110
100
AcDbEntity
8
1
62
256
6
ByLayer
370
18
48
1
60
0
100
AcDbCircle
39
0
10
16
20
6.000093
30
0
40
1.9685
210
0
220
0
230
1
100
AcDbArc
50
90
51
149.618578
0
ARC
5
111
100
AcDbEntity
8
1
62
256
6
ByLayer
370
18
48
1
60
0
100
AcDbCircle
39
0
10
16
20
6.000093
30
0
40
1.9685
210
0
220
0
230
1
100
AcDbArc
50
329.618578
51
30.381422
0
ARC
5
112
100
AcDbEntity
8
1
62
256
6
ByLayer
370
18
48
1
60
0
100
AcDbCircle
39
0
10
16
20
6.000093
30
0
40
1.416
210
0
220
0
230
1
100
AcDbArc
50
353.807562
51
6.192438
0
ARC
5
113
100
AcDbEntity
8
1
62
256
6
ByLayer
370
18
48
1
60
0
100
AcDbCircle
39
0
10
16
20
6.000093
30
0
40
3.8
210
0
220
0
230
1
100
AcDbArc
50
58.511706
51
301.488294
0
ARC
5
114
100
AcDbEntity
8
1
62
256
6
ByLayer
370
18
48
1
60
0
100
AcDbCircle
39
0
10
16
20
6.000093
30
0
40
3.8
210
0
220
0
230
1
100
AcDbArc
50
301.488294
51
58.511706
0
ARC
5
115
100
AcDbEntity
8
1
62
256
6
ByLayer
370
18
48
1
60
0
100
AcDbCircle
39
0
10
22.450268
20
-33.499846
30
0
40
47.2499999916916
210
0
220
0
230
1
100
AcDbArc
50
105.465384
51
109.779254
0
CIRCLE
5
10A
100
AcDbEntity
8
1
62
256
6
ByLayer
370
18
48
1
60
0
100
AcDbCircle
10
16
20
6.000093
30
0
40
3.5
39
0
210
0
220
0
230
1
0
CIRCLE
5
10B
100
AcDbEntity
8
1
62
256
6
ByLayer
370
18
48
1
60
0
100
AcDbCircle
10
16
20
6.000093
30
0
40
3
39
0
210
0
220
0
230
1
0
ELLIPSE
5
116
100
AcDbEntity
8
1
62
256
6
ByLayer
370
18
48
1
60
0
100
AcDbEllipse
10
31.984453
20
-56.199846
30
0
11
-8.63669852813014E-14
21
67.9499999531703
31
0
210
0
220
0
230
1
40
0.969971
41
0.0198248340637202
42
0.0665714470662895
0
ELLIPSE
5
117
100
AcDbEntity
8
1
62
256
6
ByLayer
370
18
48
1
60
0
100
AcDbEllipse
10
32.986287
20
-56.199846
30
0
11
-80.9696666053905
21
9.91559681918408E-15
31
0
210
0
220
0
230
1
40
0.839203
41
-1.50422487994974
42
-1.43905418898137
0
ELLIPSE
5
118
100
AcDbEntity
8
1
62
256
6
ByLayer
370
18
48
1
60
0
100
AcDbEllipse
10
-0.599225
20
-33.499846
30
0
11
-6.00565129894331E-14
21
47.2500000032195
31
0
210
0
220
0
230
1
40
0.829397
41
-0.269921866666029
42
-0.15184667203559
0
ELLIPSE
5
119
100
AcDbEntity
8
1
62
256
6
ByLayer
370
18
48
1
60
0
100
AcDbEllipse
10
0.699967
20
-33.499846
30
0
11
-6.00565129823409E-14
21
47.2499999976396
31
0
210
0
220
0
230
1
40
0.829397
41
-0.269697143940526
42
-0.138192240246206
0
ELLIPSE
5
11A
100
AcDbEntity
8
1
62
256
6
ByLayer
370
18
48
1
60
0
100
AcDbEllipse
10
32.986287
20
-33.499846
30
0
11
-56.3034103811847
21
6.89495140946676E-15
31
0
210
0
220
0
230
1
40
0.839203
41
-1.47498441962954
42
-1.30109918286159
0
ELLIPSE
5
11B
100
AcDbEntity
8
1
62
256
6
ByLayer
370
18
48
1
60
0
100
AcDbEllipse
10
31.984453
20
-33.499846
30
0
11
-6.00565130196972E-14
21
47.25000002703
31
0
210
0
220
0
230
1
40
0.969971
41
0.0274480497788404
42
0.0958119071381649
0
ELLIPSE
5
11C
100
AcDbEntity
8
1
62
256
6
ByLayer
370
18
48
1
60
0
100
AcDbEllipse
10
-1074.265618
20
-33.520595
30
0
11
3824.13076274933
21
14.8874950877037
31
0
210
0
220
0
230
1
40
0.011732
41
1.27765095613524
42
1.28049875868191
0
ELLIPSE
5
11D
100
AcDbEntity
8
1
62
256
6
ByLayer
370
18
48
1
60
0
100
AcDbEllipse
10
12.183603
20
-33.499882
30
0
11
-1309.56270778765
21
1.60369881268559E-13
31
0
210
0
220
0
230
1
40
0.036081
41
-1.57079632085732
42
-1.56347297043221
0
ELLIPSE
5
11E
100
AcDbEntity
8
1
62
256
6
ByLayer
370
18
48
1
60
0
100
AcDbEllipse
10
41.781291
20
-56.199846
30
0
11
-8.63669853360387E-14
21
67.9499999962353
31
0
210
0
220
0
230
1
40
0.57735
41
0.133744395310288
42
0.281261495586342
0
ELLIPSE
5
11F
100
AcDbEntity
8
1
62
256
6
ByLayer
370
18
48
1
60
0
100
AcDbEllipse
10
32.757075
20
13.641036
30
0
11
-0.705694321512268
21
0.0024675529012806
31
0
210
0
220
0
230
1
40
0.212528
41
0.000743131438149316
42
0.336719012459541
0
ELLIPSE
5
120
100
AcDbEntity
8
1
62
256
6
ByLayer
370
18
48
1
60
0
100
AcDbEllipse
10
33.731595
20
13.196335
30
0
11
-0.940925762080321
21
0.0032900705338546
31
0
210
0
220
0
230
1
40
0.212528
41
0.33671901244721
42
1.15515753394679
0
ELLIPSE
5
121
100
AcDbEntity
8
1
62
256
6
ByLayer
370
18
48
1
60
0
100
AcDbEllipse
10
37.156648
20
14.830901
30
0
11
-9.4092576285959
21
0.0329007043491071
31
0
210
0
220
0
230
1
40
0.212528
41
1.1551575337216
42
1.22247360756259
0
ELLIPSE
5
122
100
AcDbEntity
8
1
62
256
6
ByLayer
370
18
48
1
60
0
100
AcDbEllipse
10
33.644794
20
12.762742
30
0
11
-0.987972050189178
21
0.00345457405984426
31
0
210
0
220
0
230
1
40
0.212528
41
-3.14084952215203
42
-1.91911904575583
0
ELLIPSE
5
123
100
AcDbEntity
8
1
62
256
6
ByLayer
370
18
48
1
60
0
100
AcDbEllipse
10
33.644794
20
12.762742
30
0
11
-0.987972050189444
21
0.00345457405980483
31
0
210
0
220
0
230
1
40
0.212528
41
1.9206053086315
42
-3.14084952215207
0
ELLIPSE
5
124
100
AcDbEntity
8
1
62
256
6
ByLayer
370
18
48
1
60
0
100
AcDbEllipse
10
37.156648
20
10.671133
30
0
11
-9.40925756617381
21
0.0329006977760114
31
0
210
0
220
0
230
1
40
0.212528
41
-1.22098734703116
42
-1.15367127279643
0
ELLIPSE
5
125
100
AcDbEntity
8
1
62
256
6
ByLayer
370
18
48
1
60
0
100
AcDbEllipse
10
33.731595
20
12.32857
30
0
11
-0.940925762090349
21
0.00329007053393939
31
0
210
0
220
0
230
1
40
0.212528
41
-1.15367127106434
42
-0.335232749570459
0
ELLIPSE
5
126
100
AcDbEntity
8
1
62
256
6
ByLayer
370
18
48
1
60
0
100
AcDbEllipse
10
32.757075
20
11.890376
30
0
11
-0.705694321251458
21
0.00246755288721452
31
0
210
0
220
0
230
1
40
0.212528
41
-0.335232749649561
42
0.000743131434882689
0
ELLIPSE
5
127
100
AcDbEntity
8
1
62
256
6
ByLayer
370
18
48
1
60
0
100
AcDbEllipse
10
34.044849
20
10.961628
30
0
11
-0.909766503155115
21
0.0133744197980528
31
0
210
0
220
0
230
1
40
0.879121
41
-1.83351689826806
42
-1.55787313730709
0
ELLIPSE
5
128
100
AcDbEntity
8
1
62
256
6
ByLayer
370
18
48
1
60
0
100
AcDbEllipse
10
33.265997
20
13.413927
30
0
11
-0.00945188051116642
21
0.127905942363402
31
0
210
0
220
0
230
1
40
0.978027
41
0
42
6.28318530717959
0
ELLIPSE
5
129
100
AcDbEntity
8
1
62
256
6
ByLayer
370
18
48
1
60
0
100
AcDbEllipse
10
20.655151
20
14.561184
30
0
11
0.909766503107228
21
0.0133744196556143
31
0
210
0
220
0
230
1
40
0.879121
41
-1.85936327708218
42
-1.58371951610621
0
ELLIPSE
5
12A
100
AcDbEntity
8
1
62
256
6
ByLayer
370
18
48
1
60
0
100
AcDbEllipse
10
34.044849
20
14.561184
30
0
11
-0.909766503091087
21
0.0133744196285986
31
0
210
0
220
0
230
1
40
0.879121
41
1.58371951607282
42
1.85936327705363
0
POINT
5
70
100
AcDbEntity
8
81
62
256
6
ByLayer
370
18
48
1
60
0
100
AcDbPoint
10
37.35
20
14
30
0
39
0
210
0
220
0
230
1
50
360
0
POINT
5
72
100
AcDbEntity
8
80
62
256
6
ByLayer
370
18
48
1
60
0
100
AcDbPoint
10
0
20
0
30
0
39
0
210
0
220
0
230
1
50
360
0
POINT
5
74
100
AcDbEntity
8
1
62
256
6
ByLayer
370
18
48
1
60
1
100
AcDbPoint
10
0
20
0
30
0
39
0
210
0
220
0
230
1
50
360
0
POINT
5
76
100
AcDbEntity
8
1
62
256
6
ByLayer
370
18
48
1
60
1
100
AcDbPoint
10
37.35
20
14
30
0
39
0
210
0
220
0
230
1
50
360
0
POINT
5
77
100
AcDbEntity
8
1
62
256
6
ByLayer
370
18
48
1
60
1
100
AcDbPoint
10
22.35
20
11.750154
30
0
39
0
210
0
220
0
230
1
50
360
0
POINT
5
78
100
AcDbEntity
8
1
62
256
6
ByLayer
370
18
48
1
60
1
100
AcDbPoint
10
37.35
20
14
30
0
39
0
210
0
220
0
230
1
50
360
0
POINT
5
79
100
AcDbEntity
8
1
62
256
6
ByLayer
370
18
48
1
60
1
100
AcDbPoint
10
37.35
20
14
30
0
39
0
210
0
220
0
230
1
50
360
0
POINT
5
7A
100
AcDbEntity
8
1
62
256
6
ByLayer
370
18
48
1
60
1
100
AcDbPoint
10
0
20
0
30
0
39
0
210
0
220
0
230
1
50
360
0
POINT
5
7B
100
AcDbEntity
8
1
62
256
6
ByLayer
370
18
48
1
60
1
100
AcDbPoint
10
37.35
20
14
30
0
39
0
210
0
220
0
230
1
50
360
0
POINT
5
7C
100
AcDbEntity
8
1
62
256
6
ByLayer
370
18
48
1
60
1
100
AcDbPoint
10
37.35
20
11.5
30
0
39
0
210
0
220
0
230
1
50
360
0
SPLINE
5
12B
100
AcDbEntity
8
1
62
256
6
ByLayer
370
18
48
1
60
0
100
AcDbSpline
70
4
71
3
72
26
73
22
40
0
40
0
40
0
40
0
40
0.124999999999993
40
0.124999999999993
40
0.249999999999987
40
0.249999999999987
40
0.312499999999986
40
0.312499999999986
40
0.374999999999986
40
0.374999999999986
40
0.499999999999985
40
0.499999999999985
40
0.624999999999983
40
0.624999999999983
40
0.687499999999985
40
0.687499999999985
40
0.749999999999986
40
0.749999999999986
40
0.874999999999993
40
0.874999999999993
40
1
40
1
40
1
40
1
41
1
10
14.3018189416603
20
6.99566942665007
30
0
41
1
10
14.2921226156075
20
6.97913015438442
30
0
41
1
10
14.2837464784978
20
6.96145386067855
30
0
41
1
10
14.2704404213359
20
6.92557358362521
30
0
41
1
10
14.265405593391
20
6.90724658016558
30
0
41
1
10
14.2602381606513
20
6.87918849759947
30
0
41
1
10
14.2589144439237
20
6.86970122527188
30
0
41
1
10
14.2571089564151
20
6.8508872079716
30
0
41
1
10
14.2566177604082
20
6.84152781007606
30
0
41
1
10
14.2563261495497
20
6.81358848362896
30
0
41
1
10
14.2577000229545
20
6.79514643010748
30
0
41
1
10
14.2635122179084
20
6.75863549042927
30
0
41
1
10
14.2678854172298
20
6.74099877074789
30
0
41
1
10
14.2764137990605
20
6.71552243467437
30
0
41
1
10
14.2795878984404
20
6.70718714123743
30
0
41
1
10
14.2865849495033
20
6.69082650000516
30
0
41
1
10
14.2904205404941
20
6.68277773427028
30
0
41
1
10
14.3028100072968
20
6.65926402022725
30
0
41
1
10
14.3121522745058
20
6.64457397826919
30
0
41
1
10
14.3328117741002
20
6.61702201873726
30
0
41
1
10
14.3441302162228
20
6.60416107286196
30
0
41
1
10
14.3564173719113
20
6.59221024122209
30
0
0
SPLINE
5
12C
100
AcDbEntity
8
1
62
256
6
ByLayer
370
18
48
1
60
0
100
AcDbSpline
70
4
71
3
72
17
73
13
40
0
40
0
40
0
40
0
40
0.250000000000007
40
0.250000000000007
40
0.500000000000015
40
0.500000000000015
40
0.562500000000015
40
0.562500000000015
40
0.625000000000016
40
0.750000000000013
40
0.750000000000013
40
1
40
1
40
1
40
1
41
1
10
14.3564173719113
20
5.4079748328877
30
0
41
1
10
14.3853753963689
20
5.43614021824541
30
0
41
1
10
14.4122309410964
20
5.46636677919025
30
0
41
1
10
14.4617197383669
20
5.53117086044187
30
0
41
1
10
14.4843572921868
20
5.56574184192112
30
0
41
1
10
14.5097894773875
20
5.61210402519825
30
0
41
1
10
14.514742447963
20
5.62155782724355
30
0
41
1
10
14.5242836416445
20
5.64066726094126
30
0
41
1
10
14.5380498884725
20
5.66963050010668
30
0
41
1
10
14.5501769665484
20
5.6995062603115
30
0
41
1
10
14.5721909236732
20
5.76054314913304
30
0
41
1
10
14.5839044979644
20
5.80293433978787
30
0
41
1
10
14.5922620637003
20
5.84735124367845
30
0
0
SPLINE
5
12D
100
AcDbEntity
8
1
62
256
6
ByLayer
370
18
48
1
60
0
100
AcDbSpline
70
4
71
3
72
18
73
14
40
0
40
0
40
0
40
0
40
0.250000000000012
40
0.250000000000012
40
0.375000000000017
40
0.375000000000017
40
0.437500000000016
40
0.437500000000016
40
0.500000000000015
40
0.500000000000015
40
0.750000000000007
40
0.750000000000007
40
1
40
1
40
1
40
1
41
1
10
14.5922620637003
20
6.15283383043135
30
0
41
1
10
14.583902976565
20
6.19725881991224
30
0
41
1
10
14.5721940761372
20
6.23962126473774
30
0
41
1
10
14.5502147004155
20
6.30058013499453
30
0
41
1
10
14.5421460177694
20
6.32046534990775
30
0
41
1
10
14.5289590937532
20
6.34967768329835
30
0
41
1
10
14.524382525553
20
6.35931238051214
30
0
41
1
10
14.5148692909951
20
6.37838041266437
30
0
41
1
10
14.509920875856
20
6.38783456687972
30
0
41
1
10
14.4844501468565
20
6.43430132893261
30
0
41
1
10
14.4617830025328
20
6.46892588090992
30
0
41
1
10
14.4122494705404
20
6.5337995123646
30
0
41
1
10
14.3853786034382
20
6.56404173657907
30
0
41
1
10
14.3564173719113
20
6.59221024122209
30
0
0
SPLINE
5
12E
100
AcDbEntity
8
1
62
256
6
ByLayer
370
18
48
1
60
0
100
AcDbSpline
70
4
71
3
72
24
73
20
40
0
40
0
40
0
40
0
40
0.249999999999995
40
0.249999999999995
40
0.312499999999994
40
0.312499999999994
40
0.374999999999992
40
0.374999999999992
40
0.499999999999995
40
0.499999999999995
40
0.624999999999998
40
0.624999999999998
40
0.75
40
0.75
40
0.812500000000001
40
0.812500000000001
40
0.875000000000003
40
0.875000000000003
40
1
40
1
40
1
40
1
41
1
10
14.3564173719113
20
5.4079748328877
30
0
41
1
10
14.3317839716636
20
5.38401569811788
30
0
41
1
10
14.3110139343974
20
5.35650583624064
30
0
41
1
10
14.2903971704347
20
5.3173592901386
30
0
41
1
10
14.2865369975272
20
5.30925647729123
30
0
41
1
10
14.2795204050118
20
5.29282992675809
30
0
41
1
10
14.2763473422614
20
5.28447989385384
30
0
41
1
10
14.2678407200774
20
5.25902072942583
30
0
41
1
10
14.2635122897661
20
5.24150548037056
30
0
41
1
10
14.257739542701
20
5.20533114823491
30
0
41
1
10
14.2563184467603
20
5.18649241249781
30
0
41
1
10
14.2567259954201
20
5.14913647889009
30
0
41
1
10
14.2585039192013
20
5.13048182122267
30
0
41
1
10
14.2636305446477
20
5.10254288391843
30
0
41
1
10
14.2657514702609
20
5.09323709533899
30
0
41
1
10
14.2708635794301
20
5.0746415560096
30
0
41
1
10
14.2738341868357
20
5.06544009379093
30
0
41
1
10
14.2838646215749
20
5.03845336568648
30
0
41
1
10
14.2920722055931
20
5.02114090538092
30
0
41
1
10
14.3018189416603
20
5.00451564745973
30
0
0
SPLINE
5
12F
100
AcDbEntity
8
1
62
256
6
ByLayer
370
18
48
1
60
0
100
AcDbSpline
70
4
71
3
72
26
73
22
40
0
40
0
40
0
40
0
40
0.250000000000021
40
0.250000000000021
40
0.312500000000027
40
0.312500000000027
40
0.375000000000033
40
0.375000000000033
40
0.500000000000044
40
0.500000000000044
40
0.562500000000042
40
0.562500000000042
40
0.625000000000039
40
0.625000000000039
40
0.750000000000048
40
0.750000000000048
40
0.812500000000041
40
0.812500000000041
40
0.875000000000035
40
0.875000000000035
40
1
40
1
40
1
40
1
41
1
10
16.3181619695469
20
7.72618797719923
30
0
41
1
10
16.309219230547
20
7.75866957040392
30
0
41
1
10
16.2954876322592
20
7.7895562267868
30
0
41
1
10
16.2718353388291
20
7.82589105437671
30
0
41
1
10
16.2667495067732
20
7.83306999447908
30
0
41
1
10
16.2560530091764
20
7.84695193161542
30
0
41
1
10
16.2504333990712
20
7.85367413150183
30
0
41
1
10
16.2327595033494
20
7.87317926336394
30
0
41
1
10
16.2198957841169
20
7.88530534569134
30
0
41
1
10
16.198881054868
20
7.90208194380409
30
0
41
1
10
16.1915883106092
20
7.90743765424813
30
0
41
1
10
16.1763916134439
20
7.91764410309128
30
0
41
1
10
16.1685411707113
20
7.92245464995918
30
0
41
1
10
16.1445437728382
20
7.93581702999342
30
0
41
1
10
16.1278334996497
20
7.94338944109964
30
0
41
1
10
16.1016705104135
20
7.95267651690625
30
0
41
1
10
16.0927656700966
20
7.95542526863758
30
0
41
1
10
16.0745707697434
20
7.96019423115879
30
0
41
1
10
16.06528459895
20
7.96220706255943
30
0
41
1
10
16.0374812768527
20
7.9669961207683
30
0
41
1
10
16.0188089532901
20
7.96859253705489
30
0
41
1
10
16.0000000000001
20
7.96859253705489
30
0
0
SPLINE
5
130
100
AcDbEntity
8
1
62
256
6
ByLayer
370
18
48
1
60
0
100
AcDbSpline
70
4
71
3
72
34
73
30
40
0
40
0
40
0
40
0
40
0.125000000000004
40
0.125000000000004
40
0.187500000000005
40
0.187500000000005
40
0.218750000000006
40
0.218750000000006
40
0.250000000000006
40
0.250000000000006
40
0.375000000000011
40
0.375000000000011
40
0.406250000000014
40
0.406250000000014
40
0.437500000000017
40
0.500000000000015
40
0.562500000000014
40
0.562500000000014
40
0.625000000000012
40
0.625000000000012
40
0.687500000000011
40
0.687500000000011
40
0.750000000000009
40
0.750000000000009
40
0.875000000000006
40
0.875000000000006
40
0.937500000000003
40
0.937500000000003
40
1
40
1
40
1
40
1
41
1
10
16.3181619695469
20
7.72618797719923
30
0
41
1
10
16.3316243955844
20
7.67729008963926
30
0
41
1
10
16.3495186520747
20
7.62969926375064
30
0
41
1
10
16.3834427074957
20
7.56014832354546
30
0
41
1
10
16.3959401462237
20
7.53727193795166
30
0
41
1
10
16.4166305781723
20
7.50341725962463
30
0
41
1
10
16.4238696464605
20
7.4921839482974
30
0
41
1
10
16.4389547957834
20
7.46999194078012
30
0
41
1
10
16.4467750039596
20
7.45906856670098
30
0
41
1
10
16.4872859904912
20
7.40531297187945
30
0
41
1
10
16.5241451570226
20
7.3650276819092
30
0
41
1
10
16.5766976577683
20
7.31837839257472
30
0
41
1
10
16.5875531522009
20
7.30922711098228
30
0
41
1
10
16.6095897675603
20
7.29159997846574
30
0
41
1
10
16.6432548145306
20
7.26606098582036
30
0
41
1
10
16.7023826118537
20
7.22795179524761
30
0
41
1
10
16.7529298677766
20
7.20224794597254
30
0
41
1
10
16.8051631063884
20
7.17903199975754
30
0
41
1
10
16.8314938663051
20
7.16894738590992
30
0
41
1
10
16.8845188699142
20
7.15162317537758
30
0
41
1
10
16.9112225356448
20
7.14438027693905
30
0
41
1
10
16.9650247101004
20
7.132618472475
30
0
41
1
10
16.9922163970771
20
7.12810433289374
30
0
41
1
10
17.0724935208944
20
7.11875472251953
30
0
41
1
10
17.1249222467066
20
7.11788445020088
30
0
41
1
10
17.2024065588862
20
7.12372140500764
30
0
41
1
10
17.2281182805368
20
7.12688640644882
30
0
41
1
10
17.2787427947224
20
7.13552236268484
30
0
41
1
10
17.3036391509601
20
7.14098065612396
30
0
41
1
10
17.3281523379787
20
7.14754357063975
30
0
0
SPLINE
5
131
100
AcDbEntity
8
1
62
256
6
ByLayer
370
18
48
1
60
0
100
AcDbSpline
70
4
71
3
72
24
73
20
40
0
40
0
40
0
40
0
40
0.0624999999999795
40
0.0624999999999795
40
0.124999999999959
40
0.124999999999959
40
0.249999999999932
40
0.249999999999932
40
0.312499999999927
40
0.312499999999927
40
0.374999999999922
40
0.374999999999922
40
0.499999999999934
40
0.499999999999934
40
0.624999999999947
40
0.624999999999947
40
0.749999999999959
40
0.749999999999959
40
1
40
1
40
1
40
1
41
1
10
17.6981810583399
20
6.99566942665007
30
0
41
1
10
17.6934318579172
20
7.00377025972924
30
0
41
1
10
17.6882914332966
20
7.01173987625151
30
0
41
1
10
17.6773571171088
20
7.0271832145045
30
0
41
1
10
17.6716028102468
20
7.0346077287158
30
0
41
1
10
17.6535100226024
20
7.05602209212589
30
0
41
1
10
17.6403472862546
20
7.06915865504635
30
0
41
1
10
17.6189676038021
20
7.08716722435895
30
0
41
1
10
17.6115507477033
20
7.09289216638598
30
0
41
1
10
17.5964652538519
20
7.10355796137094
30
0
41
1
10
17.5887628485984
20
7.10852961689352
30
0
41
1
10
17.5651970355162
20
7.12240229204016
30
0
41
1
10
17.5488778339611
20
7.1302675988596
30
0
41
1
10
17.5150549986531
20
7.14327712589454
30
0
41
1
10
17.4979892291144
20
7.14825334834896
30
0
41
1
10
17.4636214369301
20
7.15541363947159
30
0
41
1
10
17.4462594678659
20
7.15759963389516
30
0
41
1
10
17.3941907780314
20
7.16003307783748
30
0
41
1
10
17.3606172483435
20
7.15623539970815
30
0
41
1
10
17.3281523379787
20
7.14754357063975
30
0
0
SPLINE
5
132
100
AcDbEntity
8
1
62
256
6
ByLayer
370
18
48
1
60
0
100
AcDbSpline
70
4
71
3
72
34
73
30
40
0
40
0
40
0
40
0
40
0.125
40
0.125
40
0.187500000000001
40
0.187500000000001
40
0.218750000000001
40
0.218750000000001
40
0.250000000000001
40
0.250000000000001
40
0.375000000000001
40
0.375000000000001
40
0.406249999999998
40
0.406249999999998
40
0.437499999999996
40
0.499999999999997
40
0.562499999999999
40
0.562499999999999
40
0.625
40
0.625
40
0.687500000000002
40
0.687500000000002
40
0.750000000000004
40
0.750000000000004
40
0.875000000000001
40
0.875000000000001
40
0.9375
40
0.9375
40
1
40
1
40
1
40
1
41
1
10
17.3281523379787
20
4.85264150347004
30
0
41
1
10
17.2791605406678
20
4.86575807527615
30
0
41
1
10
17.229054901581
20
4.87439035294554
30
0
41
1
10
17.1518976275394
20
4.88030049745464
30
0
41
1
10
17.1258420498827
20
4.88108906069058
30
0
41
1
10
17.0861721053908
20
4.88036202769501
30
0
41
1
10
17.0728201914698
20
4.87979833790161
30
0
41
1
10
17.0460462641007
20
4.87800841394278
30
0
41
1
10
17.03266781006
20
4.87678663552776
30
0
41
1
10
16.9658054580947
20
4.86902582110937
30
0
41
1
10
16.9124105635003
20
4.85760268877533
30
0
41
1
10
16.8455886245497
20
4.83585988731869
30
0
41
1
10
16.8322038067761
20
4.83112339200861
30
0
41
1
10
16.8058521630067
20
4.82102788860806
30
0
41
1
10
16.7667940070402
20
4.80490225172434
30
0
41
1
10
16.7040137931598
20
4.7731681736966
30
0
41
1
10
16.6562753174228
20
4.74256173341229
30
0
41
1
10
16.6098302684518
20
4.70924284460574
30
0
41
1
10
16.5878136047357
20
4.69162821710597
30
0
41
1
10
16.5460507829756
20
4.65464651828023
30
0
41
1
10
16.5262970086683
20
4.63527298672548
30
0
41
1
10
16.4889396946713
20
4.59480763195279
30
0
41
1
10
16.4712931406015
20
4.57363301416345
30
0
41
1
10
16.4226269571249
20
4.50910833118488
30
0
41
1
10
16.395360151626
20
4.46431938222392
30
0
41
1
10
16.3612075572781
20
4.39452333202644
30
0
41
1
10
16.3509341260478
20
4.37074169179226
30
0
41
1
10
16.3327806188034
20
4.32270138205163
30
0
41
1
10
16.3248979334757
20
4.29846329682763
30
0
41
1
10
16.3181619695469
20
4.27399709691056
30
0
0
SPLINE
5
133
100
AcDbEntity
8
1
62
256
6
ByLayer
370
18
48
1
60
0
100
AcDbSpline
70
4
71
3
72
26
73
22
40
0
40
0
40
0
40
0
40
0.125000000000025
40
0.125000000000025
40
0.25000000000005
40
0.25000000000005
40
0.312500000000053
40
0.312500000000053
40
0.375000000000056
40
0.375000000000056
40
0.500000000000036
40
0.500000000000036
40
0.562500000000033
40
0.562500000000033
40
0.62500000000003
40
0.62500000000003
40
0.75000000000002
40
0.75000000000002
40
0.87500000000001
40
0.87500000000001
40
1
40
1
40
1
40
1
41
1
10
16.0000000000001
20
4.03159253705491
30
0
41
1
10
16.0187420838798
20
4.03159253705491
30
0
41
1
10
16.0377900241211
20
4.03322974155031
30
0
41
1
10
16.0746705458544
20
4.03960725637197
30
0
41
1
10
16.0926468374794
20
4.0443197453894
30
0
41
1
10
16.1189272305609
20
4.05362715095174
30
0
41
1
10
16.127613610563
20
4.05712501195956
30
0
41
1
10
16.1444825476161
20
4.06475840681884
30
0
41
1
10
16.1526773955159
20
4.06889343779002
30
0
41
1
10
16.1765732518196
20
4.08221020763918
30
0
41
1
10
16.1915899369246
20
4.09229797456155
30
0
41
1
10
16.2127755394085
20
4.10918782996867
30
0
41
1
10
16.2195919185692
20
4.11509991967046
30
0
41
1
10
16.2325595895108
20
4.12729516521202
30
0
41
1
10
16.2387403827713
20
4.13360124026951
30
0
41
1
10
16.2564090822014
20
4.1531161842791
30
0
41
1
10
16.2670282709712
20
4.16691840939282
30
0
41
1
10
16.2860013809462
20
4.19604700381498
30
0
41
1
10
16.2941811588047
20
4.21111524286866
30
0
41
1
10
16.308022019824
20
4.241974789355
30
0
41
1
10
16.3137019836555
20
4.25779764756678
30
0
41
1
10
16.3181619695469
20
4.27399709691056
30
0
0
SPLINE
5
134
100
AcDbEntity
8
1
62
256
6
ByLayer
370
18
48
1
60
0
100
AcDbSpline
70
4
71
3
72
26
73
22
40
0
40
0
40
0
40
0
40
0.250000000000002
40
0.250000000000002
40
0.312500000000004
40
0.312500000000004
40
0.375000000000006
40
0.375000000000006
40
0.500000000000032
40
0.500000000000032
40
0.562500000000036
40
0.562500000000036
40
0.625000000000041
40
0.625000000000041
40
0.75000000000003
40
0.75000000000003
40
0.812500000000024
40
0.812500000000024
40
0.875000000000018
40
0.875000000000018
40
1
40
1
40
1
40
1
41
1
10
17.3281523379787
20
4.85264150347004
30
0
41
1
10
17.3606963158371
20
4.84392850566493
30
0
41
1
10
17.3942863582021
20
4.84015339859158
30
0
41
1
10
17.4375938417868
20
4.8421812176671
30
0
41
1
10
17.4463591330928
20
4.84293787328573
30
0
41
1
10
17.4637445703593
20
4.84514465738607
30
0
41
1
10
17.4723858038622
20
4.84659278998961
30
0
41
1
10
17.4981510924761
20
4.85197486650395
30
0
41
1
10
17.5151178713701
20
4.85693929506326
30
0
41
1
10
17.5402189508801
20
4.86658339988858
30
0
41
1
10
17.5485275368001
20
4.87016601494707
30
0
41
1
10
17.5650182011034
20
4.8781139121713
30
0
41
1
10
17.5731385487696
20
4.88245336176698
30
0
41
1
10
17.5968027600688
20
4.89639730520148
30
0
41
1
10
17.6117865990377
20
4.90698310800155
30
0
41
1
10
17.6330303889945
20
4.92485635792875
30
0
41
1
10
17.6399053342587
20
4.9311481720589
30
0
41
1
10
17.6532215547351
20
4.94443258250152
30
0
41
1
10
17.6596544992721
20
4.95142555830165
30
0
41
1
10
17.6778475580838
20
4.97298878064134
30
0
41
1
10
17.6886683543619
20
4.988289584081
30
0
41
1
10
17.6981810583399
20
5.00451564745973
30
0
0
SPLINE
5
135
100
AcDbEntity
8
1
62
256
6
ByLayer
370
18
48
1
60
0
100
AcDbSpline
70
4
71
3
72
34
73
30
40
0
40
0
40
0
40
0
40
0.125000000000005
40
0.125000000000005
40
0.187500000000007
40
0.187500000000007
40
0.218750000000008
40
0.218750000000008
40
0.250000000000008
40
0.250000000000008
40
0.375000000000008
40
0.375000000000008
40
0.406250000000007
40
0.406250000000007
40
0.437500000000006
40
0.500000000000006
40
0.562500000000005
40
0.562500000000005
40
0.625000000000005
40
0.625000000000005
40
0.687500000000004
40
0.687500000000004
40
0.750000000000004
40
0.750000000000004
40
0.875000000000003
40
0.875000000000003
40
0.937500000000001
40
0.937500000000001
40
1
40
1
40
1
40
1
41
1
10
15.6818380304533
20
4.27399709691059
30
0
41
1
10
15.6683756044158
20
4.32289498447054
30
0
41
1
10
15.6504813479255
20
4.37048581035916
30
0
41
1
10
15.6165572925045
20
4.44003675056433
30
0
41
1
10
15.6040598537765
20
4.46291313615814
30
0
41
1
10
15.5833694218279
20
4.49676781448517
30
0
41
1
10
15.5761303535396
20
4.5080011258124
30
0
41
1
10
15.5610452042168
20
4.53019313332968
30
0
41
1
10
15.5532249960406
20
4.54111650740882
30
0
41
1
10
15.512714009509
20
4.59487210223034
30
0
41
1
10
15.4758548429776
20
4.6351573922006
30
0
41
1
10
15.4233023422318
20
4.68180668153508
30
0
41
1
10
15.4124468477993
20
4.69095796312752
30
0
41
1
10
15.3904102324399
20
4.70858509564405
30
0
41
1
10
15.3567451854696
20
4.73412408828943
30
0
41
1
10
15.2976173881465
20
4.77223327886219
30
0
41
1
10
15.2470701322236
20
4.79793712813725
30
0
41
1
10
15.1948368936117
20
4.82115307435225
30
0
41
1
10
15.1685061336951
20
4.83123768819988
30
0
41
1
10
15.115481130086
20
4.84856189873221
30
0
41
1
10
15.0887774643554
20
4.85580479717075
30
0
41
1
10
15.0349752898997
20
4.86756660163479
30
0
41
1
10
15.0077836029231
20
4.87208074121605
30
0
41
1
10
14.9275064791057
20
4.88143035159027
30
0
41
1
10
14.8750777532937
20
4.88230062390892
30
0
41
1
10
14.7975934411139
20
4.87646366910215
30
0
41
1
10
14.7718817194634
20
4.87329866766098
30
0
41
1
10
14.7212572052777
20
4.86466271142496
30
0
41
1
10
14.6963608490401
20
4.85920441798584
30
0
41
1
10
14.6718476620215
20
4.85264150347004
30
0
0
SPLINE
5
136
100
AcDbEntity
8
1
62
256
6
ByLayer
370
18
48
1
60
0
100
AcDbSpline
70
4
71
3
72
24
73
20
40
0
40
0
40
0
40
0
40
0.0624999999999996
40
0.0624999999999996
40
0.124999999999999
40
0.124999999999999
40
0.250000000000005
40
0.250000000000005
40
0.312500000000008
40
0.312500000000008
40
0.375000000000011
40
0.375000000000011
40
0.500000000000009
40
0.500000000000009
40
0.625000000000008
40
0.625000000000008
40
0.750000000000007
40
0.750000000000007
40
1
40
1
40
1
40
1
41
1
10
14.3018189416603
20
5.00451564745973
30
0
41
1
10
14.306568142083
20
4.99641481438056
30
0
41
1
10
14.3117085667036
20
4.98844519785828
30
0
41
1
10
14.3226428828914
20
4.97300185960529
30
0
41
1
10
14.3283971897534
20
4.965577345394
30
0
41
1
10
14.3464899773977
20
4.94416298198391
30
0
41
1
10
14.3596527137456
20
4.93102641906344
30
0
41
1
10
14.381032396198
20
4.91301784975084
30
0
41
1
10
14.3884492522969
20
4.90729290772384
30
0
41
1
10
14.4035347461483
20
4.89662711273886
30
0
41
1
10
14.4112371514018
20
4.89165545721627
30
0
41
1
10
14.434802964484
20
4.87778278206963
30
0
41
1
10
14.4511221660391
20
4.86991747525019
30
0
41
1
10
14.4849450013471
20
4.85690794821525
30
0
41
1
10
14.5020107708857
20
4.85193172576084
30
0
41
1
10
14.53637856307
20
4.8447714346382
30
0
41
1
10
14.5537405321343
20
4.84258544021463
30
0
41
1
10
14.6058092219688
20
4.84015199627231
30
0
41
1
10
14.6393827516567
20
4.84394967440164
30
0
41
1
10
14.6718476620215
20
4.85264150347004
30
0
0
SPLINE
5
137
100
AcDbEntity
8
1
62
256
6
ByLayer
370
18
48
1
60
0
100
AcDbSpline
70
4
71
3
72
26
73
22
40
0
40
0
40
0
40
0
40
0.250000000000013
40
0.250000000000013
40
0.312500000000017
40
0.312500000000017
40
0.375000000000021
40
0.375000000000021
40
0.500000000000033
40
0.500000000000033
40
0.56250000000003
40
0.56250000000003
40
0.625000000000028
40
0.625000000000028
40
0.750000000000042
40
0.750000000000042
40
0.812500000000037
40
0.812500000000037
40
0.875000000000033
40
0.875000000000033
40
1
40
1
40
1
40
1
41
1
10
15.6818380304533
20
4.27399709691056
30
0
41
1
10
15.6907807694532
20
4.24151550370587
30
0
41
1
10
15.704512367741
20
4.21062884732299
30
0
41
1
10
15.7281646611711
20
4.17429401973311
30
0
41
1
10
15.733250493227
20
4.16711507963072
30
0
41
1
10
15.7439469908238
20
4.15323314249437
30
0
41
1
10
15.7495666009289
20
4.14651094260796
30
0
41
1
10
15.7672404966508
20
4.12700581074586
30
0
41
1
10
15.7801042158833
20
4.11487972841846
30
0
41
1
10
15.8011189451321
20
4.0981031303057
30
0
41
1
10
15.808411689391
20
4.09274741986167
30
0
41
1
10
15.8236083865563
20
4.08254097101852
30
0
41
1
10
15.8314588292888
20
4.07773042415062
30
0
41
1
10
15.855456227162
20
4.06436804411638
30
0
41
1
10
15.8721665003505
20
4.05679563301015
30
0
41
1
10
15.8983294895867
20
4.04750855720354
30
0
41
1
10
15.9072343299036
20
4.04475980547221
30
0
41
1
10
15.9254292302568
20
4.039990842951
30
0
41
1
10
15.9347154010502
20
4.03797801155037
30
0
41
1
10
15.9625187231475
20
4.03318895334149
30
0
41
1
10
15.9811910467101
20
4.03159253705491
30
0
41
1
10
16.0000000000001
20
4.03159253705491
30
0
0
SPLINE
5
138
100
AcDbEntity
8
1
62
256
6
ByLayer
370
18
48
1
60
0
100
AcDbSpline
70
4
71
3
72
34
73
30
40
0
40
0
40
0
40
0
40
0.124999999999983
40
0.124999999999983
40
0.187499999999976
40
0.187499999999976
40
0.218749999999972
40
0.218749999999972
40
0.249999999999969
40
0.249999999999969
40
0.374999999999966
40
0.374999999999966
40
0.406249999999966
40
0.406249999999966
40
0.437499999999966
40
0.49999999999997
40
0.562499999999973
40
0.562499999999973
40
0.624999999999977
40
0.624999999999977
40
0.68749999999998
40
0.68749999999998
40
0.749999999999984
40
0.749999999999984
40
0.874999999999991
40
0.874999999999991
40
0.937499999999996
40
0.937499999999996
40
1
40
1
40
1
40
1
41
1
10
14.6718476620215
20
7.14754357063975
30
0
41
1
10
14.7208394593324
20
7.13442699883365
30
0
41
1
10
14.7709450984191
20
7.12579472116425
30
0
41
1
10
14.8481023724608
20
7.11988457665515
30
0
41
1
10
14.8741579501175
20
7.11909601341921
30
0
41
1
10
14.9138278946094
20
7.11982304641478
30
0
41
1
10
14.9271798085304
20
7.12038673620819
30
0
41
1
10
14.9539537358995
20
7.12217666016701
30
0
41
1
10
14.9673321899402
20
7.12339843858203
30
0
41
1
10
15.0341945419055
20
7.13115925300042
30
0
41
1
10
15.0875894364999
20
7.14258238533446
30
0
41
1
10
15.1544113754505
20
7.1643251867911
30
0
41
1
10
15.1677961932241
20
7.16906168210119
30
0
41
1
10
15.1941478369935
20
7.17915718550174
30
0
41
1
10
15.23320599296
20
7.19528282238545
30
0
41
1
10
15.2959860666202
20
7.22701717738596
30
0
41
1
10
15.3437246825774
20
7.25762334069751
30
0
41
1
10
15.3901697315484
20
7.29094222950405
30
0
41
1
10
15.4121863952645
20
7.30855685700385
30
0
41
1
10
15.4539492170246
20
7.34553855582959
30
0
41
1
10
15.4737029913319
20
7.36491208738431
30
0
41
1
10
15.5110603053288
20
7.405377442157
30
0
41
1
10
15.5287068593986
20
7.42655205994635
30
0
41
1
10
15.5773730428752
20
7.49107674292492
30
0
41
1
10
15.6046398483742
20
7.53586569188587
30
0
41
1
10
15.638792442722
20
7.60566174208336
30
0
41
1
10
15.6490658739524
20
7.62944338231753
30
0
41
1
10
15.6672193811968
20
7.67748369205816
30
0
41
1
10
15.6751020665244
20
7.70172177728216
30
0
41
1
10
15.6818380304533
20
7.72618797719923
30
0
0
SPLINE
5
139
100
AcDbEntity
8
1
62
256
6
ByLayer
370
18
48
1
60
0
100
AcDbSpline
70
4
71
3
72
26
73
22
40
0
40
0
40
0
40
0
40
0.125000000000023
40
0.125000000000023
40
0.250000000000045
40
0.250000000000045
40
0.312500000000044
40
0.312500000000044
40
0.375000000000044
40
0.375000000000044
40
0.500000000000021
40
0.500000000000021
40
0.562500000000016
40
0.562500000000016
40
0.625000000000011
40
0.625000000000011
40
0.750000000000002
40
0.750000000000002
40
0.875000000000001
40
0.875000000000001
40
1
40
1
40
1
40
1
41
1
10
16.0000000000001
20
7.96859253705489
30
0
41
1
10
15.9812579161204
20
7.96859253705489
30
0
41
1
10
15.9622099758791
20
7.96695533255948
30
0
41
1
10
15.9253294541458
20
7.96057781773783
30
0
41
1
10
15.9073531625208
20
7.95586532872039
30
0
41
1
10
15.8810727694393
20
7.94655792315805
30
0
41
1
10
15.8723863894371
20
7.94306006215024
30
0
41
1
10
15.8555174523841
20
7.93542666729095
30
0
41
1
10
15.8473226044842
20
7.93129163631977
30
0
41
1
10
15.8234267481806
20
7.91797486647064
30
0
41
1
10
15.8084100630755
20
7.90788709954825
30
0
41
1
10
15.7872244605917
20
7.89099724414112
30
0
41
1
10
15.780408081431
20
7.88508515443934
30
0
41
1
10
15.7674404104894
20
7.87288990889778
30
0
41
1
10
15.7612596172289
20
7.86658383384028
30
0
41
1
10
15.7435909177988
20
7.84706888983069
30
0
41
1
10
15.732971729029
20
7.83326666471697
30
0
41
1
10
15.713998619054
20
7.80413807029481
30
0
41
1
10
15.7058188411955
20
7.78906983124114
30
0
41
1
10
15.6919779801761
20
7.7582102847548
30
0
41
1
10
15.6862980163447
20
7.74238742654302
30
0
41
1
10
15.6818380304533
20
7.72618797719923
30
0
0
SPLINE
5
13A
100
AcDbEntity
8
1
62
256
6
ByLayer
370
18
48
1
60
0
100
AcDbSpline
70
4
71
3
72
26
73
22
40
0
40
0
40
0
40
0
40
0.249999999999981
40
0.249999999999981
40
0.312499999999983
40
0.312499999999983
40
0.374999999999985
40
0.374999999999985
40
0.499999999999988
40
0.499999999999988
40
0.562499999999992
40
0.562499999999992
40
0.624999999999996
40
0.624999999999996
40
0.749999999999999
40
0.749999999999999
40
0.8125
40
0.8125
40
0.875000000000002
40
0.875000000000002
40
1
40
1
40
1
40
1
41
1
10
14.6718476620215
20
7.14754357063975
30
0
41
1
10
14.639303684163
20
7.15625656844486
30
0
41
1
10
14.6057136417981
20
7.16003167551821
30
0
41
1
10
14.5624061582134
20
7.15800385644269
30
0
41
1
10
14.5536408669074
20
7.15724720082406
30
0
41
1
10
14.5362554296408
20
7.15504041672372
30
0
41
1
10
14.5276141961379
20
7.15359228412018
30
0
41
1
10
14.5018489075241
20
7.14821020760584
30
0
41
1
10
14.4848821286301
20
7.14324577904654
30
0
41
1
10
14.4597810491201
20
7.13360167422121
30
0
41
1
10
14.4514724632001
20
7.13001905916272
30
0
41
1
10
14.4349817988968
20
7.12207116193849
30
0
41
1
10
14.4268614512306
20
7.11773171234285
30
0
41
1
10
14.4031972399314
20
7.10378776890832
30
0
41
1
10
14.3882134009625
20
7.09320196610824
30
0
41
1
10
14.3669696110057
20
7.07532871618105
30
0
41
1
10
14.3600946657415
20
7.0690369020509
30
0
41
1
10
14.346778445265
20
7.0557524916083
30
0
41
1
10
14.3403455007281
20
7.04875951580817
30
0
41
1
10
14.3221524419164
20
7.02719629346845
30
0
41
1
10
14.3113316456383
20
7.01189549002879
30
0
41
1
10
14.3018189416603
20
6.99566942665007
30
0
0
SPLINE
5
13B
100
AcDbEntity
8
1
62
256
6
ByLayer
370
18
48
1
60
0
100
AcDbSpline
70
4
71
3
72
18
73
14
40
0
40
0
40
0
40
0
40
0.250000000000007
40
0.250000000000007
40
0.375000000000006
40
0.375000000000006
40
0.437500000000006
40
0.437500000000006
40
0.500000000000006
40
0.500000000000006
40
0.750000000000003
40
0.750000000000003
40
1
40
1
40
1
40
1
41
1
10
17.4077379362999
20
5.84735124367845
30
0
41
1
10
17.4160970234352
20
5.80292625419727
30
0
41
1
10
17.4278059238631
20
5.76056380937172
30
0
41
1
10
17.4497852995847
20
5.69960493911509
30
0
41
1
10
17.4578539822308
20
5.67971972420196
30
0
41
1
10
17.4710409062469
20
5.65050739081153
30
0
41
1
10
17.4756174744471
20
5.64087269359783
30
0
41
1
10
17.4851307090049
20
5.62180466144574
30
0
41
1
10
17.4900791241439
20
5.61235050723047
30
0
41
1
10
17.5155498531436
20
5.56588374517736
30
0
41
1
10
17.5382169974673
20
5.53125919319993
30
0
41
1
10
17.5877505294598
20
5.46638556174517
30
0
41
1
10
17.6146213965621
20
5.43614333753069
30
0
41
1
10
17.6435826280889
20
5.4079748328877
30
0
0
SPLINE
5
13C
100
AcDbEntity
8
1
62
256
6
ByLayer
370
18
48
1
60
0
100
AcDbSpline
70
4
71
3
72
26
73
22
40
0
40
0
40
0
40
0
40
0.124999999999993
40
0.124999999999993
40
0.249999999999986
40
0.249999999999986
40
0.312499999999987
40
0.312499999999987
40
0.374999999999988
40
0.374999999999988
40
0.499999999999991
40
0.499999999999991
40
0.624999999999993
40
0.624999999999993
40
0.687499999999994
40
0.687499999999994
40
0.749999999999995
40
0.749999999999995
40
0.874999999999998
40
0.874999999999998
40
1
40
1
40
1
40
1
41
1
10
17.6981810583399
20
5.00451564745973
30
0
41
1
10
17.7078773843927
20
5.02105491972537
30
0
41
1
10
17.7162535215024
20
5.03873121343125
30
0
41
1
10
17.7295595786643
20
5.07461149048459
30
0
41
1
10
17.7345944066092
20
5.09293849394422
30
0
41
1
10
17.7397618393489
20
5.12099657651032
30
0
41
1
10
17.7410855560765
20
5.13048384883791
30
0
41
1
10
17.7428910435851
20
5.1492978661382
30
0
41
1
10
17.743382239592
20
5.15865726403374
30
0
41
1
10
17.7436738504505
20
5.18659659048083
30
0
41
1
10
17.7422999770458
20
5.20503864400231
30
0
41
1
10
17.7364877820918
20
5.24154958368052
30
0
41
1
10
17.7321145827704
20
5.2591863033619
30
0
41
1
10
17.7235862009397
20
5.28466263943542
30
0
41
1
10
17.7204121015598
20
5.29299793287237
30
0
41
1
10
17.7134150504969
20
5.30935857410466
30
0
41
1
10
17.709579459506
20
5.31740733983952
30
0
41
1
10
17.6971899927034
20
5.34092105388254
30
0
41
1
10
17.6878477254944
20
5.3556110958406
30
0
41
1
10
17.6671882259
20
5.38316305537253
30
0
41
1
10
17.6558697837774
20
5.39602400124784
30
0
41
1
10
17.6435826280889
20
5.4079748328877
30
0
0
SPLINE
5
13D
100
AcDbEntity
8
1
62
256
6
ByLayer
370
18
48
1
60
0
100
AcDbSpline
70
4
71
3
72
24
73
20
40
0
40
0
40
0
40
0
40
0.249999999999973
40
0.249999999999973
40
0.312499999999968
40
0.312499999999968
40
0.374999999999963
40
0.374999999999963
40
0.499999999999964
40
0.499999999999964
40
0.624999999999965
40
0.624999999999965
40
0.749999999999966
40
0.749999999999966
40
0.812499999999971
40
0.812499999999971
40
0.874999999999976
40
0.874999999999976
40
1
40
1
40
1
40
1
41
1
10
17.6435826280889
20
6.59221024122209
30
0
41
1
10
17.6682160283366
20
6.61616937599192
30
0
41
1
10
17.6889860656028
20
6.64367923786915
30
0
41
1
10
17.7096028295655
20
6.6828257839712
30
0
41
1
10
17.7134630024729
20
6.69092859681857
30
0
41
1
10
17.7204795949884
20
6.70735514735171
30
0
41
1
10
17.7236526577388
20
6.71570518025595
30
0
41
1
10
17.7321592799228
20
6.74116434468397
30
0
41
1
10
17.7364877102341
20
6.75867959373923
30
0
41
1
10
17.7422604572992
20
6.79485392587492
30
0
41
1
10
17.7436815532399
20
6.81369266161198
30
0
41
1
10
17.7432740045801
20
6.85104859521971
30
0
41
1
10
17.7414960807988
20
6.86970325288712
30
0
41
1
10
17.7363694553525
20
6.89764219019139
30
0
41
1
10
17.7342485297393
20
6.9069479787708
30
0
41
1
10
17.7291364205701
20
6.9255435181002
30
0
41
1
10
17.7261658131645
20
6.9347449803189
30
0
41
1
10
17.7161353784252
20
6.96173170842332
30
0
41
1
10
17.707927794407
20
6.97904416872888
30
0
41
1
10
17.6981810583399
20
6.99566942665007
30
0
0
SPLINE
5
13E
100
AcDbEntity
8
1
62
256
6
ByLayer
370
18
48
1
60
0
100
AcDbSpline
70
4
71
3
72
17
73
13
40
0
40
0
40
0
40
0
40
0.250000000000007
40
0.250000000000007
40
0.500000000000015
40
0.500000000000015
40
0.562500000000014
40
0.562500000000014
40
0.625000000000014
40
0.750000000000013
40
0.750000000000013
40
1
40
1
40
1
40
1
41
1
10
17.6435826280889
20
6.59221024122209
30
0
41
1
10
17.6146246036312
20
6.56404485586432
30
0
41
1
10
17.5877690589037
20
6.53381829491946
30
0
41
1
10
17.5382802616331
20
6.46901421366769
30
0
41
1
10
17.5156427078132
20
6.43444323218841
30
0
41
1
10
17.4902105226124
20
6.38808104891118
30
0
41
1
10
17.485257552037
20
6.37862724686585
30
0
41
1
10
17.4757163583555
20
6.35951781316814
30
0
41
1
10
17.4619501115274
20
6.33055457400266
30
0
41
1
10
17.4498230334516
20
6.30067881379784
30
0
41
1
10
17.4278090763269
20
6.23964192497638
30
0
41
1
10
17.4160955020357
20
6.1972507343217
30
0
41
1
10
17.4077379362999
20
6.15283383043135
30
0
0
SPLINE
5
13F
100
AcDbEntity
8
1
62
256
6
ByLayer
370
18
48
1
60
0
100
AcDbSpline
70
4
71
3
72
8
73
4
40
0
40
0
40
0
40
0
40
1
40
1
40
1
40
1
41
1
10
8.97509300114021
20
-0.269594177820636
30
0
41
1
10
8.97048024229872
20
-0.263188796058728
30
0
41
1
10
8.96535566342396
20
-0.256648768658465
30
0
41
1
10
8.95982040671319
20
-0.249999999999829
30
0
0
SPLINE
5
140
100
AcDbEntity
8
1
62
256
6
ByLayer
370
18
48
1
60
0
100
AcDbSpline
70
4
71
3
72
12
73
8
40
0
40
0
40
0
40
0
40
0.273179479494846
40
0.273179479494846
40
0.546358958989685
40
0.546358958989685
40
1
40
1
40
1
40
1
41
1
10
31.2462678172159
20
11.5920358786503
30
0
41
1
10
31.3298945219696
20
11.592352545323
30
0
41
1
10
31.413521228574
20
11.5926687236045
30
0
41
1
10
31.5807746454664
20
11.5933001036306
30
0
41
1
10
31.6644013557572
20
11.5936153053753
30
0
41
1
10
31.8868983403299
20
11.5944526314527
30
0
41
1
10
32.0257686178485
20
11.5949738978296
30
0
41
1
10
32.1646389003981
20
11.5954938186669
30
0
0
SPLINE
5
141
100
AcDbEntity
8
1
62
256
6
ByLayer
370
18
48
1
60
0
100
AcDbSpline
70
4
71
3
72
8
73
4
40
0
40
0
40
0
40
0
40
1
40
1
40
1
40
1
41
1
10
8.97509300113904
20
-0.269594177821347
30
0
41
1
10
8.96602634583104
20
-0.263052313104737
30
0
41
1
10
8.95695689263579
20
-0.256520867363747
30
0
41
1
10
8.94788459874798
20
-0.25
30
0
0
SPLINE
5
142
100
AcDbEntity
8
1
62
256
6
ByLayer
370
18
48
1
60
0
100
AcDbSpline
70
4
71
3
72
20
73
16
40
0
40
0
40
0
40
0
40
0.125
40
0.125
40
0.25
40
0.25
40
0.375
40
0.375
40
0.5
40
0.5
40
0.625
40
0.625
40
0.75
40
0.75
40
1
40
1
40
1
40
1
41
1
10
9.5070945452878
20
-0.324980947161691
30
0
41
1
10
9.50446684643606
20
-0.324980947161691
30
0
41
1
10
9.50120547788177
20
-0.324325438354236
30
0
41
1
10
9.49383752136632
20
-0.321978904858042
30
0
41
1
10
9.48970604367264
20
-0.320287538788818
30
0
41
1
10
9.48067606109115
20
-0.316017460644701
30
0
41
1
10
9.47584069438224
20
-0.313466776029827
30
0
41
1
10
9.46575547887247
20
-0.307741778715808
30
0
41
1
10
9.46048600059484
20
-0.304557321014272
30
0
41
1
10
9.44955246765531
20
-0.297627228915957
30
0
41
1
10
9.44387251607549
20
-0.293868908437645
30
0
41
1
10
9.43240356571505
20
-0.286013315481341
30
0
41
1
10
9.42658457612515
20
-0.281897606492294
30
0
41
1
10
9.40890440191322
20
-0.269050270820657
30
0
41
1
10
9.39682270649575
20
-0.259824535101188
30
0
41
1
10
9.3844789550599
20
-0.25
30
0
0
SPLINE
5
143
100
AcDbEntity
8
1
62
256
6
ByLayer
370
18
48
1
60
0
100
AcDbSpline
70
4
71
2
72
6
73
3
40
0
40
0
40
0
40
1
40
1
40
1
41
1
10
9.57062122153147
20
-0.324980947161691
30
0
41
1
10
9.53999786148736
20
-0.324980947161691
30
0
41
1
10
9.50723215695228
20
-0.324980947161691
30
0
0
SPLINE
5
144
100
AcDbEntity
8
1
62
256
6
ByLayer
370
18
48
1
60
0
100
AcDbSpline
70
4
71
3
72
22
73
18
40
0
40
0
40
0
40
0
40
0.125
40
0.125
40
0.25
40
0.25
40
0.375
40
0.375
40
0.5
40
0.5
40
0.625
40
0.625
40
0.75
40
0.75
40
0.875
40
0.875
40
1
40
1
40
1
40
1
41
1
10
9.53081289439862
20
-0.249999999999943
30
0
41
1
10
9.53505931314226
20
-0.254861141173507
30
0
41
1
10
9.53914014588514
20
-0.259653435704053
30
0
41
1
10
9.5469222663894
20
-0.26908108225922
30
0
41
1
10
9.55063275024946
20
-0.273730195609943
30
0
41
1
10
9.55744018536603
20
-0.282630010692884
30
0
41
1
10
9.56055905507199
20
-0.28690587896952
30
0
41
1
10
9.56613810398775
20
-0.295057128232287
30
0
41
1
10
9.56861585716385
20
-0.298965833156615
30
0
41
1
10
9.57263907119452
20
-0.306067076874996
30
0
41
1
10
9.5741997112676
20
-0.309275100347463
30
0
41
1
10
9.57631860575586
20
-0.314932710155119
30
0
41
1
10
9.57685514810564
20
-0.317350053736362
30
0
41
1
10
9.57683167984811
20
-0.321175545408039
30
0
41
1
10
9.57628182451117
20
-0.322618634072569
30
0
41
1
10
9.57410536556662
20
-0.324533102723962
30
0
41
1
10
9.57251449079982
20
-0.324980699935452
30
0
41
1
10
9.57048139756094
20
-0.324980947060027
30
0
0
SPLINE
5
145
100
AcDbEntity
8
1
62
256
6
ByLayer
370
18
48
1
60
0
100
AcDbSpline
70
4
71
3
72
12
73
8
40
0
40
0
40
0
40
0
40
0.5
40
0.5
40
0.75
40
0.75
40
1
40
1
40
1
40
1
41
1
10
30.9109818806707
20
12.5172004294642
30
0
41
1
10
30.8740059267634
20
12.3859750010554
30
0
41
1
10
30.8364715210187
20
12.2550952844876
30
0
41
1
10
30.7785996830155
20
12.0597477664105
30
0
41
1
10
30.7590426577349
20
11.9947968508439
30
0
41
1
10
30.7191519626645
20
11.8653758045967
30
0
41
1
10
30.6988231338989
20
11.8009026770608
30
0
41
1
10
30.6778932182081
20
11.7368016547875
30
0
0
SPLINE
5
146
100
AcDbEntity
8
1
62
256
6
ByLayer
370
18
48
1
60
0
100
AcDbSpline
70
4
71
3
72
8
73
4
40
0
40
0
40
0
40
0
40
1
40
1
40
1
40
1
41
1
10
31.0282498405721
20
12.5774098769482
30
0
41
1
10
30.9892224851222
20
12.5570913120637
30
0
41
1
10
30.9501437613166
20
12.5369789592271
30
0
41
1
10
30.9109818806706
20
12.5172004294643
30
0
0
SPLINE
5
147
100
AcDbEntity
8
1
62
256
6
ByLayer
370
18
48
1
60
0
100
AcDbSpline
70
4
71
3
72
20
73
16
40
0
40
0
40
0
40
0
40
0.125
40
0.125
40
0.250000000000001
40
0.250000000000001
40
0.375000000000001
40
0.375000000000001
40
0.500000000000001
40
0.500000000000001
40
0.625000000000001
40
0.625000000000001
40
0.750000000000002
40
0.750000000000002
40
1
40
1
40
1
40
1
41
1
10
31.0994843661159
20
12.7153533816945
30
0
41
1
10
31.0994033877868
20
12.7076884281986
30
0
41
1
10
31.0988912399319
20
12.7000805610256
30
0
41
1
10
31.0970075224635
20
12.6849786130794
30
0
41
1
10
31.0956398603781
20
12.677560797005
30
0
41
1
10
31.0921465973922
20
12.6632626850069
30
0
41
1
10
31.0900155088795
20
12.6563367919085
30
0
41
1
10
31.0849874407195
20
12.64292957683
30
0
41
1
10
31.0820690694231
20
12.6364249950933
30
0
41
1
10
31.0756787853426
20
12.6243166337084
30
0
41
1
10
31.0721880886901
20
12.6186512085821
30
0
41
1
10
31.0646360765803
20
12.6080709175404
30
0
41
1
10
31.0605454408744
20
12.6031267813632
30
0
41
1
10
31.0476008402604
20
12.5896621657884
30
0
41
1
10
31.0382607683176
20
12.5826218028552
30
0
41
1
10
31.028249840572
20
12.5774098769483
30
0
0
SPLINE
5
148
100
AcDbEntity
8
1
62
256
6
ByLayer
370
18
48
1
60
0
100
AcDbSpline
70
4
71
2
72
6
73
3
40
0
40
0
40
0
40
1
40
1
40
1
41
0.499999615277503
10
31.1005154305516
20
12.8129866519366
30
0
41
0.500000384722497
10
31.1000000126056
20
12.7641615802042
30
0
41
0.499999615277503
10
31.099484366116
20
12.7153533816946
30
0
0
SPLINE
5
149
100
AcDbEntity
8
1
62
256
6
ByLayer
370
18
48
1
60
0
100
AcDbSpline
70
4
71
3
72
18
73
14
40
0
40
0
40
0
40
0
40
0.124999999999994
40
0.124999999999994
40
0.249999999999989
40
0.249999999999989
40
0.374999999999983
40
0.374999999999983
40
0.499999999999977
40
0.499999999999977
40
0.749999999999988
40
0.749999999999988
40
1
40
1
40
1
40
1
41
1
10
31.0323202941582
20
12.953188302334
30
0
41
1
10
31.0372302872589
20
12.9504376734264
30
0
41
1
10
31.0419862481389
20
12.9472208193554
30
0
41
1
10
31.0511816730985
20
12.9398291377981
30
0
41
1
10
31.0556538908944
20
12.9356159099605
30
0
41
1
10
31.0640652161475
20
12.9263616817273
30
0
41
1
10
31.0680030446247
20
12.9213357300212
30
0
41
1
10
31.0753373060344
20
12.910477622865
30
0
41
1
10
31.0787520178703
20
12.9046083484386
30
0
41
1
10
31.0879964735713
20
12.8859549026814
30
0
41
1
10
31.0927304203776
20
12.8724230620779
30
0
41
1
10
31.099146422626
20
12.8432229329049
30
0
41
1
10
31.1006768573225
20
12.8282784626475
30
0
41
1
10
31.1005154305516
20
12.8129866519367
30
0
0
SPLINE
5
14A
100
AcDbEntity
8
1
62
256
6
ByLayer
370
18
48
1
60
0
100
AcDbSpline
70
4
71
3
72
8
73
4
40
0
40
0
40
0
40
0
40
1
40
1
40
1
40
1
41
1
10
30.916697126011
20
13.0171695590634
30
0
41
1
10
30.9553102542778
20
12.9961113579
30
0
41
1
10
30.9938407655292
20
12.9747449321755
30
0
41
1
10
31.0323202941582
20
12.953188302334
30
0
0
SPLINE
5
14B
100
AcDbEntity
8
1
62
256
6
ByLayer
370
18
48
1
60
0
100
AcDbSpline
70
4
71
3
72
10
73
6
40
0
40
0
40
0
40
0
40
0.5
40
0.5
40
1
40
1
40
1
40
1
41
1
10
30.7266359432736
20
13.7323563596406
30
0
41
1
10
30.7598714254483
20
13.6140142016199
30
0
41
1
10
30.7919870167336
20
13.4950572518233
30
0
41
1
10
30.855095591828
20
13.2565270691167
30
0
41
1
10
30.8860663086542
20
13.1369416121963
30
0
41
1
10
30.916697126011
20
13.0171695590634
30
0
0
SPLINE
5
14C
100
AcDbEntity
8
1
62
256
6
ByLayer
370
18
48
1
60
0
100
AcDbSpline
70
4
71
3
72
20
73
16
40
0
40
0
40
0
40
0
40
0.125
40
0.125
40
0.250000000000001
40
0.250000000000001
40
0.375000000000001
40
0.375000000000001
40
0.500000000000002
40
0.500000000000002
40
0.625000000000002
40
0.625000000000002
40
0.750000000000002
40
0.750000000000002
40
1
40
1
40
1
40
1
41
1
10
-11.1320782392769
20
-0.32498094716172
30
0
41
1
10
-11.1352153779729
20
-0.32498094716172
30
0
41
1
10
-11.1379995581218
20
-0.324581483697585
30
0
41
1
10
-11.1425602599156
20
-0.322880500925265
30
0
41
1
10
-11.1443698180766
20
-0.321572915063968
30
0
41
1
10
-11.1468471997408
20
-0.317947268097782
30
0
41
1
10
-11.1474895806123
20
-0.31567755487319
30
0
41
1
10
-11.1475787917377
20
-0.310212274884549
30
0
41
1
10
-11.1470034342433
20
-0.306969162786601
30
0
41
1
10
-11.1447268949469
20
-0.29985100455238
30
0
41
1
10
-11.1430395672149
20
-0.295963435139413
30
0
41
1
10
-11.1386768192221
20
-0.287590116805859
30
0
41
1
10
-11.1360204266698
20
-0.283150106968293
30
0
41
1
10
-11.1270564922387
20
-0.269508992532707
30
0
41
1
10
-11.1195900715259
20
-0.259735651200032
30
0
41
1
10
-11.1114500273988
20
-0.249980947154313
30
0
0
SPLINE
5
14D
100
AcDbEntity
8
1
62
256
6
ByLayer
370
18
48
1
60
0
100
AcDbSpline
70
4
71
3
72
16
73
12
40
0
40
0
40
0
40
0
40
0.111260717780697
40
0.111260717780697
40
0.333445538335523
40
0.333445538335523
40
0.555630358890349
40
0.555630358890349
40
0.777815179445174
40
0.777815179445174
40
1
40
1
40
1
40
1
41
1
10
-10.9355763242356
20
-0.295585243643586
30
0
41
1
10
-10.9392749349833
20
-0.297414379612775
30
0
41
1
10
-10.9429537234277
20
-0.299188283644128
30
0
41
1
10
-10.9539161602598
20
-0.304330463663064
30
0
41
1
10
-10.9611695861205
20
-0.3075343818509
30
0
41
1
10
-10.9751929157508
20
-0.313258941423413
30
0
41
1
10
-10.9819859246727
20
-0.315793026802652
30
0
41
1
10
-10.9950506921146
20
-0.320074036858045
30
0
41
1
10
-11.0013242982397
20
-0.321823931556111
30
0
41
1
10
-11.0131968590635
20
-0.324294057072905
30
0
41
1
10
-11.0186481431831
20
-0.324980947167972
30
0
41
1
10
-11.0234674519049
20
-0.324980947168172
30
0
0
SPLINE
5
14E
100
AcDbEntity
8
1
62
256
6
ByLayer
370
18
48
1
60
0
100
AcDbSpline
70
4
71
3
72
14
73
10
40
0
40
0
40
0
40
0
40
0.0894598291398992
40
0.0894598291398992
40
0.3929732194266
40
0.3929732194266
40
0.6964866097133
40
0.6964866097133
40
1
40
1
40
1
40
1
41
1
10
-9.23069302614016
20
-0.311032527846407
30
0
41
1
10
-9.23599680282359
20
-0.311723378500716
30
0
41
1
10
-9.24129838173933
20
-0.312398183522959
30
0
41
1
10
-9.2645770280252
20
-0.315286220502173
30
0
41
1
10
-9.28248929514564
20
-0.317312073842714
30
0
41
1
10
-9.31797101298199
20
-0.320786465315109
30
0
41
1
10
-9.33556537129776
20
-0.322240606435287
30
0
41
1
10
-9.37037734089567
20
-0.324333802127739
30
0
41
1
10
-9.38759768042247
20
-0.324980947161663
30
0
41
1
10
-9.40454881002677
20
-0.324980947161663
30
0
0
SPLINE
5
14F
100
AcDbEntity
8
1
62
256
6
ByLayer
370
18
48
1
60
0
100
AcDbSpline
70
4
71
3
72
16
73
12
40
0
40
0
40
0
40
0
40
0.125000000000003
40
0.125000000000003
40
0.250000000000006
40
0.250000000000006
40
0.500000000000004
40
0.500000000000004
40
0.750000000000002
40
0.750000000000002
40
1
40
1
40
1
40
1
41
1
10
-10.2470436468637
20
-0.324980947161663
30
0
41
1
10
-10.2368176996361
20
-0.324980947160697
30
0
41
1
10
-10.2261105645492
20
-0.324200732781947
30
0
41
1
10
-10.2040252939894
20
-0.321595212906118
30
0
41
1
10
-10.1925916480194
20
-0.319751268507446
30
0
41
1
10
-10.1578378552941
20
-0.313070425791182
30
0
41
1
10
-10.1343736234426
20
-0.307193150124277
30
0
41
1
10
-10.0870307140286
20
-0.293653557543223
30
0
41
1
10
-10.0631479963767
20
-0.285965246733184
30
0
41
1
10
-10.0150264157267
20
-0.269095229194733
30
0
41
1
10
-9.99078675577488
20
-0.259909297798572
30
0
41
1
10
-9.96637832280616
20
-0.249980947161674
30
0
0
SPLINE
5
150
100
AcDbEntity
8
1
62
256
6
ByLayer
370
18
48
1
60
0
100
AcDbSpline
70
4
71
3
72
8
73
4
40
0
40
0
40
0
40
0
40
1
40
1
40
1
40
1
41
1
10
-11.1539311130555
20
-0.249980947161646
30
0
41
1
10
-11.1370643731008
20
-0.237366129676531
30
0
41
1
10
-11.120166047202
20
-0.224786456048207
30
0
41
1
10
-11.103235063126
20
-0.212243119288502
30
0
0
SPLINE
5
151
100
AcDbEntity
8
1
62
256
6
ByLayer
370
18
48
1
60
0
100
AcDbSpline
70
4
71
3
72
20
73
16
40
0
40
0
40
0
40
0
40
0.125000000000008
40
0.125000000000008
40
0.250000000000016
40
0.250000000000016
40
0.375000000000024
40
0.375000000000024
40
0.500000000000032
40
0.500000000000032
40
0.750000000000016
40
0.750000000000016
40
0.875000000000008
40
0.875000000000008
40
1
40
1
40
1
40
1
41
1
10
-11.2871772280887
20
-0.324980947161919
30
0
41
1
10
-11.2841126650964
20
-0.32498094716189
30
0
41
1
10
-11.2804336330612
20
-0.324326717375243
30
0
41
1
10
-11.2720438166112
20
-0.32192703352834
30
0
41
1
10
-11.2673785357809
20
-0.320189385940665
30
0
41
1
10
-11.2574809997012
20
-0.315925042907395
30
0
41
1
10
-11.2522175048208
20
-0.313387918152557
30
0
41
1
10
-11.2411564914624
20
-0.307626792034853
30
0
41
1
10
-11.2353751890956
20
-0.304408475138501
30
0
41
1
10
-11.2177208346944
20
-0.29407886125324
30
0
41
1
10
-11.2054148194759
20
-0.286238759708993
30
0
41
1
10
-11.1863183862468
20
-0.273317667880235
30
0
41
1
10
-11.1798450150413
20
-0.268812423928665
30
0
41
1
10
-11.1669160865667
20
-0.259584653592839
30
0
41
1
10
-11.1604321264514
20
-0.254843125490652
30
0
41
1
10
-11.1539311130558
20
-0.249980947163749
30
0
0
SPLINE
5
152
100
AcDbEntity
8
1
62
256
6
ByLayer
370
18
48
1
60
0
100
AcDbSpline
70
4
71
3
72
8
73
4
40
0
40
0
40
0
40
0
40
1
40
1
40
1
40
1
41
1
10
-9.96637832280624
20
-0.249980947161504
30
0
41
1
10
-9.86535047201168
20
-0.208886956077919
30
0
41
1
10
-9.76333499207152
20
-0.169915419792972
30
0
41
1
10
-9.66021760533901
20
-0.133311925570609
30
0
0
SPLINE
5
153
100
AcDbEntity
8
1
62
256
6
ByLayer
370
18
48
1
60
0
100
AcDbSpline
70
4
71
3
72
31
73
27
40
0
40
0
40
0
40
0
40
0.0625000000000013
40
0.0625000000000013
40
0.125000000000003
40
0.125000000000003
40
0.250000000000001
40
0.250000000000001
40
0.312500000000001
40
0.312500000000001
40
0.375000000000001
40
0.375000000000001
40
0.500000000000001
40
0.500000000000001
40
0.562500000000002
40
0.562500000000002
40
0.625000000000002
40
0.687500000000003
40
0.687500000000003
40
0.750000000000003
40
0.750000000000003
40
0.875000000000002
40
0.875000000000002
40
0.937500000000001
40
0.937500000000001
40
1
40
1
40
1
40
1
41
1
10
10.9135286477445
20
1.375
30
0
41
1
10
10.9031311989808
20
1.375
30
0
41
1
10
10.8927259660876
20
1.37420688800756
30
0
41
1
10
10.8718996346041
20
1.37100413459763
30
0
41
1
10
10.8614264934547
20
1.36857311426434
30
0
41
1
10
10.8305959799133
20
1.35895885882866
30
0
41
1
10
10.8106937010072
20
1.3494905414218
30
0
41
1
10
10.7818017309643
20
1.33077331882419
30
0
41
1
10
10.7723324460414
20
1.32377647890257
30
0
41
1
10
10.7537282941606
20
1.30821244701138
30
0
41
1
10
10.7447490399458
20
1.29977534244537
30
0
41
1
10
10.7187502794631
20
1.27257068273749
30
0
41
1
10
10.7026590883298
20
1.25192587785094
30
0
41
1
10
10.6804150583661
20
1.21713391883944
30
0
41
1
10
10.6733015550139
20
1.20484975533853
30
0
41
1
10
10.6600223910836
20
1.17951405719495
30
0
41
1
10
10.6476107596902
20
1.15329991325174
30
0
41
1
10
10.636901826533
20
1.12536165171076
30
0
41
1
10
10.6270527281555
20
1.09655273896251
30
0
41
1
10
10.622544689289
20
1.08166174276809
30
0
41
1
10
10.6104505253877
20
1.03597282907063
30
0
41
1
10
10.6044179015373
20
1.00474765911756
30
0
41
1
10
10.5983109050865
20
0.956800029636923
30
0
41
1
10
10.5967691492519
20
0.940631154370806
30
0
41
1
10
10.5946996798992
20
0.907910846743846
30
0
41
1
10
10.5941800879454
20
0.891368629710854
30
0
41
1
10
10.5941800879454
20
0.875
30
0
0
SPLINE
5
154
100
AcDbEntity
8
1
62
256
6
ByLayer
370
18
48
1
60
0
100
AcDbSpline
70
4
71
3
72
41
73
37
40
0
40
0
40
0
40
0
40
0.0625000000000003
40
0.0625000000000003
40
0.0937500000000004
40
0.0937500000000004
40
0.125000000000001
40
0.125000000000001
40
0.187500000000001
40
0.187500000000001
40
0.250000000000001
40
0.250000000000001
40
0.265625
40
0.265625
40
0.28125
40
0.312499999999999
40
0.312499999999999
40
0.374999999999996
40
0.374999999999996
40
0.437499999999994
40
0.437499999999994
40
0.468749999999992
40
0.468749999999992
40
0.49999999999999
40
0.49999999999999
40
0.624999999999991
40
0.624999999999991
40
0.749999999999992
40
0.749999999999992
40
0.781249999999993
40
0.781249999999993
40
0.812499999999994
40
0.812499999999994
40
0.874999999999996
40
0.874999999999996
40
1
40
1
40
1
40
1
41
1
10
20.7500000000001
20
9.3507122781034
30
0
41
1
10
20.7500000000001
20
9.41322232049058
30
0
41
1
10
20.7535629884723
20
9.47563625536674
30
0
41
1
10
20.7640765301979
20
9.56911772826649
30
0
41
1
10
20.7684466732528
20
9.60026560514387
30
0
41
1
10
20.778904831439
20
9.6624716293644
30
0
41
1
10
20.7849286006131
20
9.69315422736841
30
0
41
1
10
20.8052302920898
20
9.7840220835669
30
0
41
1
10
20.8217297918971
20
9.84303206281507
30
0
41
1
10
20.8601045377039
20
9.95820809562935
30
0
41
1
10
20.881982666832
20
10.0143726239368
30
0
41
1
10
20.9125056032902
20
10.0828984717084
30
0
41
1
10
20.918778591665
20
10.0965379248452
30
0
41
1
10
20.9315721523951
20
10.12350865299
30
0
41
1
10
20.9511464474913
20
10.1635339936084
30
0
41
1
10
20.9718337708842
20
10.2023106463181
30
0
41
1
10
21.0146087921407
20
10.2782928949425
30
0
41
1
10
21.0449880292528
20
10.3268581564956
30
0
41
1
10
21.1091615701109
20
10.4201573732232
30
0
41
1
10
21.1429572683699
20
10.464889763917
30
0
41
1
10
21.1960816447744
20
10.5292612433703
30
0
41
1
10
21.2142111659836
20
10.5502798596671
30
0
41
1
10
21.2512056451946
20
10.5913482529963
30
0
41
1
10
21.2699643155979
20
10.611281847505
30
0
41
1
10
21.3649990385907
20
10.7080979369084
30
0
41
1
10
21.4449597807081
20
10.7765153523537
30
0
41
1
10
21.6117969183988
20
10.8974623979889
30
0
41
1
10
21.698683080178
20
10.9499695916321
30
0
41
1
10
21.8115255101793
20
11.0058748652119
30
0
41
1
10
21.8343519149894
20
11.0165848212047
30
0
41
1
10
21.8801814609136
20
11.0369049734613
30
0
41
1
10
21.903176753786
20
11.0465146298706
30
0
41
1
10
21.9723995727136
20
11.0737239174738
30
0
41
1
10
22.0188635739667
20
11.0897070464689
30
0
41
1
10
22.1591828628338
20
11.1313176781484
30
0
41
1
10
22.2539580840227
20
11.150656679292
30
0
41
1
10
22.3500000000001
20
11.1613367811994
30
0
0
SPLINE
5
155
100
AcDbEntity
8
1
62
256
6
ByLayer
370
18
48
1
60
0
100
AcDbSpline
70
4
71
3
72
81
73
77
40
0
40
0
40
0
40
0
40
0.0078125000000014
40
0.0078125000000014
40
0.011718750000002
40
0.011718750000002
40
0.0156250000000025
40
0.0156250000000025
40
0.017578125000003
40
0.017578125000003
40
0.0195312500000035
40
0.0195312500000035
40
0.021484375000004
40
0.021484375000004
40
0.0234375000000045
40
0.0234375000000045
40
0.0273437500000041
40
0.0273437500000041
40
0.0312500000000036
40
0.0312500000000036
40
0.0390625000000038
40
0.0390625000000038
40
0.0468750000000039
40
0.0468750000000039
40
0.0625000000000041
40
0.0625000000000041
40
0.093750000000004
40
0.093750000000004
40
0.125000000000004
40
0.125000000000004
40
0.187500000000004
40
0.187500000000004
40
0.250000000000005
40
0.250000000000005
40
0.312500000000005
40
0.312500000000005
40
0.375000000000005
40
0.375000000000005
40
0.500000000000006
40
0.625000000000007
40
0.625000000000007
40
0.750000000000008
40
0.750000000000008
40
0.812500000000008
40
0.812500000000008
40
0.875000000000008
40
0.875000000000008
40
0.906250000000009
40
0.906250000000009
40
0.937500000000009
40
0.937500000000009
40
0.95312500000001
40
0.95312500000001
40
0.96093750000001
40
0.96093750000001
40
0.96875000000001
40
0.96875000000001
40
0.972656250000009
40
0.972656250000009
40
0.976562500000009
40
0.976562500000009
40
0.978515625000008
40
0.978515625000008
40
0.980468750000007
40
0.980468750000007
40
0.981445312500007
40
0.981445312500007
40
0.982421875000007
40
0.982421875000007
40
0.984375000000006
40
0.984375000000006
40
0.988281250000004
40
0.988281250000004
40
0.992187500000003
40
0.992187500000003
40
1
40
1
40
1
40
1
41
1
10
1.91224221527574
20
0.394519052843151
30
0
41
1
10
1.92260027365083
20
0.397470382277845
30
0
41
1
10
1.93283786110661
20
0.400656000617431
30
0
41
1
10
1.94779456186373
20
0.406204007763847
30
0
41
1
10
1.95271325741354
20
0.408182097958019
30
0
41
1
10
1.96229755695145
20
0.412623793809502
30
0
41
1
10
1.96692460319252
20
0.415043395047604
30
0
41
1
10
1.97308244679581
20
0.419356299912806
30
0
41
1
10
1.97498510374814
20
0.420901794091293
30
0
41
1
10
1.97814356823216
20
0.424317649885836
30
0
41
1
10
1.97937553127724
20
0.426188446354018
30
0
41
1
10
1.9804197424285
20
0.430094718808903
30
0
41
1
10
1.98016767343336
20
0.432084882313745
30
0
41
1
10
1.97833650493843
20
0.435660915574715
30
0
41
1
10
1.97684146809385
20
0.437229800282608
30
0
41
1
10
1.97155211298315
20
0.441419320218785
30
0
41
1
10
1.96714261473934
20
0.443496857369752
30
0
41
1
10
1.957886259075
20
0.447126197110265
30
0
41
1
10
1.9530654260048
20
0.448616583755751
30
0
41
1
10
1.93832423326464
20
0.452621312482364
30
0
41
1
10
1.92812264321614
20
0.454664943117905
30
0
41
1
10
1.90740435871612
20
0.458233151164734
30
0
41
1
10
1.896922807263
20
0.459723906732535
30
0
41
1
10
1.86538741092386
20
0.463682824017269
30
0
41
1
10
1.84417449210775
20
0.465656248769307
30
0
41
1
10
1.78025703058955
20
0.47064578145492
30
0
41
1
10
1.73725264988951
20
0.472719601202726
30
0
41
1
10
1.65098443404139
20
0.475886802092418
30
0
41
1
10
1.60778691374301
20
0.476925497381728
30
0
41
1
10
1.47807229819915
20
0.479177404442254
30
0
41
1
10
1.39143454900756
20
0.479542216888063
30
0
41
1
10
1.21796857575396
20
0.479493958295478
30
0
41
1
10
1.13113690460131
20
0.479041949024122
30
0
41
1
10
0.957329148831491
20
0.477882761325304
30
0
41
1
10
0.870323792927167
20
0.477166899227512
30
0
41
1
10
0.696349175854408
20
0.475776693033907
30
0
41
1
10
0.609388405753833
20
0.475099760634464
30
0
41
1
10
0.348574051787551
20
0.473386319949782
30
0
41
1
10
0.0010003507703118
20
0.47200367055919
30
0
41
1
10
-0.346258593410369
20
0.473375275194542
30
0
41
1
10
-0.693339956070872
20
0.475647183276322
30
0
41
1
10
-0.866793441191305
20
0.477269893009009
30
0
41
1
10
-1.12678156308044
20
0.479017268009557
30
0
41
1
10
-1.2134118568122
20
0.479476207823097
30
0
41
1
10
-1.38658196181331
20
0.479556475236905
30
0
41
1
10
-1.47312342215659
20
0.479215768728096
30
0
41
1
10
-1.60282241164072
20
0.477033463499424
30
0
41
1
10
-1.64603636785415
20
0.476023509055096
30
0
41
1
10
-1.73240444053903
20
0.472937703046796
30
0
41
1
10
-1.77556093947172
20
0.470916772337659
30
0
41
1
10
-1.84020397899084
20
0.466007269746626
30
0
41
1
10
-1.86179262627246
20
0.464054865240968
30
0
41
1
10
-1.89394318274029
20
0.460129304204259
30
0
41
1
10
-1.90457892025236
20
0.458657307765151
30
0
41
1
10
-1.92557687187252
20
0.455151548859845
30
0
41
1
10
-1.93595107519374
20
0.453143056337922
30
0
41
1
10
-1.95106731633362
20
0.449203062644955
30
0
41
1
10
-1.95606843466263
20
0.447721193247531
30
0
41
1
10
-1.96555805505969
20
0.444199414509029
30
0
41
1
10
-1.97009904328232
20
0.442195860936493
30
0
41
1
10
-1.97581374795774
20
0.438152979130365
30
0
41
1
10
-1.97748212350467
20
0.436651382667065
30
0
41
1
10
-1.97980883341094
20
0.43315604020998
30
0
41
1
10
-1.98037246688432
20
0.431176687394242
30
0
41
1
10
-1.97997556416402
20
0.428196550109362
30
0
41
1
10
-1.97964165466871
20
0.427187280234875
30
0
41
1
10
-1.97867307625052
20
0.425265399837997
30
0
41
1
10
-1.9780408753785
20
0.424340153169766
30
0
41
1
10
-1.97580369573168
20
0.421646658948987
30
0
41
1
10
-1.97395171242513
20
0.420048670860723
30
0
41
1
10
-1.96785173654939
20
0.415569664711171
30
0
41
1
10
-1.96318270865211
20
0.413077560163487
30
0
41
1
10
-1.95359149055577
20
0.40855281328524
30
0
41
1
10
-1.94859288445005
20
0.40651666926243
30
0
41
1
10
-1.93328703299295
20
0.400792642800013
30
0
41
1
10
-1.92282156572341
20
0.397533435195697
30
0
41
1
10
-1.91224221525877
20
0.394519052838348
30
0
0
SPLINE
5
156
100
AcDbEntity
8
1
62
256
6
ByLayer
370
18
48
1
60
0
100
AcDbSpline
70
4
71
3
72
17
73
13
40
0
40
0
40
0
40
0
40
0.25
40
0.25
40
0.5
40
0.5
40
0.5625
40
0.5625
40
0.625
40
0.75
40
0.75
40
1
40
1
40
1
40
1
41
1
10
-1.91224221525877
20
0.394519052838319
30
0
41
1
10
-1.60176192357355
20
0.306053667681027
30
0
41
1
10
-1.28776911723094
20
0.236983023929383
30
0
41
1
10
-0.651754427740201
20
0.143175179431694
30
0
41
1
10
-0.329727668873488
20
0.118464900509594
30
0
41
1
10
0.0783629119482896
20
0.118261377257454
30
0
41
1
10
0.160394283176998
20
0.119762754673957
30
0
41
1
10
0.323519502227185
20
0.12580696443888
30
0
41
1
10
0.567279119098828
20
0.139418800322716
30
0
41
1
10
0.808326323249844
20
0.166313521538967
30
0
41
1
10
1.28701472260693
20
0.236782441218338
30
0
41
1
10
1.6015977775435
20
0.306006897427324
30
0
41
1
10
1.91224221527673
20
0.394519052843464
30
0
0
SPLINE
5
157
100
AcDbEntity
8
1
62
256
6
ByLayer
370
18
48
1
60
0
100
AcDbSpline
70
4
71
3
72
8
73
4
40
0
40
0
40
0
40
0
40
1
40
1
40
1
40
1
41
1
10
-13.9273497265336
20
-0.249980947161674
30
0
41
1
10
-14.1400184018759
20
-0.0890594833153955
30
0
41
1
10
-14.3513710386801
20
0.0731431542574512
30
0
41
1
10
-14.5615187733782
20
0.236518773378151
30
0
0
SPLINE
5
158
100
AcDbEntity
8
1
62
256
6
ByLayer
370
18
48
1
60
0
100
AcDbSpline
70
4
71
3
72
16
73
12
40
0
40
0
40
0
40
0
40
0.124999999999996
40
0.124999999999996
40
0.249999999999993
40
0.249999999999993
40
0.499999999999995
40
0.499999999999995
40
0.749999999999998
40
0.749999999999998
40
1
40
1
40
1
40
1
41
1
10
-13.7912890092361
20
-0.324980947163624
30
0
41
1
10
-13.7947211231748
20
-0.324980947163425
30
0
41
1
10
-13.7987038822678
20
-0.3243439697697
30
0
41
1
10
-13.8075818891419
20
-0.322012470654755
30
0
41
1
10
-13.8124983254929
20
-0.320301845067462
30
0
41
1
10
-13.8279050504171
20
-0.314006523917868
30
0
41
1
10
-13.8392323105369
20
-0.308231113448897
30
0
41
1
10
-13.8632846302391
20
-0.294416067556767
30
0
41
1
10
-13.8756867854771
20
-0.286560850671492
30
0
41
1
10
-13.9010856072335
20
-0.269365680292765
30
0
41
1
10
-13.9141383585476
20
-0.259977683504246
30
0
41
1
10
-13.9273497265336
20
-0.249980947161674
30
0
0
SPLINE
5
159
100
AcDbEntity
8
1
62
256
6
ByLayer
370
18
48
1
60
0
100
AcDbSpline
70
4
71
3
72
22
73
18
40
0
40
0
40
0
40
0
40
0.125
40
0.125
40
0.25
40
0.25
40
0.375
40
0.375
40
0.5
40
0.5
40
0.625
40
0.625
40
0.75
40
0.75
40
0.875
40
0.875
40
1
40
1
40
1
40
1
41
1
10
-13.7271595028412
20
-0.249980947161504
30
0
41
1
10
-13.7230711169545
20
-0.254870580017553
30
0
41
1
10
-13.719197862038
20
-0.259701365260099
30
0
41
1
10
-13.711950430119
20
-0.269226009096116
30
0
41
1
10
-13.7085556247414
20
-0.273950228042338
30
0
41
1
10
-13.7024739620712
20
-0.283086608544551
30
0
41
1
10
-13.699812285762
20
-0.287456554264992
30
0
41
1
10
-13.6953495169543
20
-0.295745119604987
30
0
41
1
10
-13.6935353207013
20
-0.299707252978664
30
0
41
1
10
-13.6910284293275
20
-0.306819145366916
30
0
41
1
10
-13.6903199496591
20
-0.309978932734424
30
0
41
1
10
-13.6900300661806
20
-0.31547687530076
30
0
41
1
10
-13.690469285274
20
-0.317827037319773
30
0
41
1
10
-13.6924447562857
20
-0.321476351282854
30
0
41
1
10
-13.6939679064125
20
-0.322810804878514
30
0
41
1
10
-13.6980030233289
20
-0.32457223002757
30
0
41
1
10
-13.7004864228397
20
-0.32498094716172
30
0
41
1
10
-13.7033273915928
20
-0.32498094716172
30
0
0
SPLINE
5
15A
100
AcDbEntity
8
1
62
256
6
ByLayer
370
18
48
1
60
0
100
AcDbSpline
70
4
71
3
72
8
73
4
40
0
40
0
40
0
40
0
40
1
40
1
40
1
40
1
41
1
10
-14.2655750866984
20
0.394519052838319
30
0
41
1
10
-14.0862027304346
20
0.179623374600055
30
0
41
1
10
-13.9067347108406
20
-0.035212365746446
30
0
41
1
10
-13.7271595028412
20
-0.249980947161504
30
0
0
SPLINE
5
15B
100
AcDbEntity
8
1
62
256
6
ByLayer
370
18
48
1
60
0
100
AcDbSpline
70
4
71
3
72
36
73
32
40
0
40
0
40
0
40
0
40
0.125000000000002
40
0.125000000000002
40
0.250000000000005
40
0.250000000000005
40
0.312500000000005
40
0.312500000000005
40
0.375000000000004
40
0.375000000000004
40
0.437500000000004
40
0.437500000000004
40
0.500000000000003
40
0.500000000000003
40
0.562500000000003
40
0.562500000000003
40
0.625000000000003
40
0.625000000000003
40
0.687500000000002
40
0.687500000000002
40
0.750000000000002
40
0.750000000000002
40
0.781250000000002
40
0.781250000000002
40
0.812500000000001
40
0.812500000000001
40
0.875000000000001
40
0.875000000000001
40
0.937500000000001
40
0.937500000000001
40
1
40
1
40
1
40
1
41
1
10
-14.1255646241437
20
0.394519052838348
30
0
41
1
10
-14.1394710770359
20
0.404489622046128
30
0
41
1
10
-14.1531891256639
20
0.413867112124933
30
0
41
1
10
-14.1802225014732
20
0.431373754650593
30
0
41
1
10
-14.1935390957799
20
0.439506751248615
30
0
41
1
10
-14.2131449243124
20
0.450573991117722
30
0
41
1
10
-14.2196336197054
20
0.454078795623701
30
0
41
1
10
-14.2322228540822
20
0.460520725310033
30
0
41
1
10
-14.2383514182247
20
0.463474796430233
30
0
41
1
10
-14.2502293710657
20
0.468773718754022
30
0
41
1
10
-14.2559794178474
20
0.471119640285877
30
0
41
1
10
-14.2670211051816
20
0.475074458444681
30
0
41
1
10
-14.2722259261514
20
0.476650936816839
30
0
41
1
10
-14.2818410972795
20
0.478850703577962
30
0
41
1
10
-14.2862625152793
20
0.479479731271681
30
0
41
1
10
-14.2941373580524
20
0.4795548484297
30
0
41
1
10
-14.2974997750462
20
0.478992735534973
30
0
41
1
10
-14.3028010571971
20
0.476498487128254
30
0
41
1
10
-14.3047638284419
20
0.474520523657986
30
0
41
1
10
-14.3069086232189
20
0.469181053338957
30
0
41
1
10
-14.3071284482325
20
0.465834428936034
30
0
41
1
10
-14.3061330482862
20
0.459758935437492
30
0
41
1
10
-14.3055769996615
20
0.457562174581426
30
0
41
1
10
-14.3040654324165
20
0.452948725894231
30
0
41
1
10
-14.303108097956
20
0.450518030421819
30
0
41
1
10
-14.2996681948549
20
0.442875980593413
30
0
41
1
10
-14.2965819676909
20
0.437266289211095
30
0
41
1
10
-14.2893548863108
20
0.4256951480927
30
0
41
1
10
-14.2851987194409
20
0.41968620333094
30
0
41
1
10
-14.275978382755
20
0.407293077501066
30
0
41
1
10
-14.2709152318049
20
0.400916772801736
30
0
41
1
10
-14.2655750866984
20
0.394519052838319
30
0
0
SPLINE
5
15C
100
AcDbEntity
8
1
62
256
6
ByLayer
370
18
48
1
60
0
100
AcDbSpline
70
4
71
3
72
8
73
4
40
0
40
0
40
0
40
0
40
1
40
1
40
1
40
1
41
1
10
-13.2065548385552
20
-0.249980947161674
30
0
41
1
10
-13.5156891436444
20
-0.0381396122572539
30
0
41
1
10
-13.8219161595784
20
0.176810910131763
30
0
41
1
10
-14.1255646241437
20
0.394519052838319
30
0
0
SPLINE
5
15D
100
AcDbEntity
8
1
62
256
6
ByLayer
370
18
48
1
60
0
100
AcDbSpline
70
4
71
3
72
18
73
14
40
0
40
0
40
0
40
0
40
0.124999999999996
40
0.124999999999996
40
0.249999999999993
40
0.249999999999993
40
0.499999999999993
40
0.499999999999993
40
0.624999999999994
40
0.624999999999994
40
0.749999999999994
40
0.749999999999994
40
1
40
1
40
1
40
1
41
1
10
-13.0480635116142
20
-0.324980947169223
30
0
41
1
10
-13.0526835673824
20
-0.324980947168598
30
0
41
1
10
-13.0578276924747
20
-0.324325815519529
30
0
41
1
10
-13.0689460777358
20
-0.321974818101211
30
0
41
1
10
-13.0749605537727
20
-0.320259096726829
30
0
41
1
10
-13.0935302985871
20
-0.313958174179788
30
0
41
1
10
-13.1067398789887
20
-0.308231131630805
30
0
41
1
10
-13.1274676194249
20
-0.297960016390789
30
0
41
1
10
-13.1345354389663
20
-0.29424506725934
30
0
41
1
10
-13.1486989674189
20
-0.286431559643603
30
0
41
1
10
-13.1558285169502
20
-0.282316542817881
30
0
41
1
10
-13.1773484039918
20
-0.269403809868607
30
0
41
1
10
-13.1918683483694
20
-0.260045199607333
30
0
41
1
10
-13.2065548385552
20
-0.249980947161674
30
0
0
SPLINE
5
15E
100
AcDbEntity
8
1
62
256
6
ByLayer
370
18
48
1
60
0
100
AcDbSpline
70
4
71
3
72
23
73
19
40
0
40
0
40
0
40
0
40
0.124999999999999
40
0.124999999999999
40
0.249999999999998
40
0.249999999999998
40
0.374999999999996
40
0.374999999999996
40
0.437499999999996
40
0.437499999999996
40
0.499999999999995
40
0.624999999999996
40
0.624999999999996
40
0.749999999999998
40
0.749999999999998
40
0.874999999999999
40
0.874999999999999
40
1
40
1
40
1
40
1
41
1
10
-12.9419043311969
20
-0.249980947161362
30
0
41
1
10
-12.9378497028419
20
-0.254925918244197
30
0
41
1
10
-12.9340500009027
20
-0.259832030827397
30
0
41
1
10
-12.9270609615909
20
-0.26955094003489
30
0
41
1
10
-12.9238503710631
20
-0.274403028467305
30
0
41
1
10
-12.9183740783399
20
-0.283688995222491
30
0
41
1
10
-12.9160876840443
20
-0.288143993684287
30
0
41
1
10
-12.9134525305583
20
-0.294494826399216
30
0
41
1
10
-12.9127048890145
20
-0.296567433923769
30
0
41
1
10
-12.9115299156306
20
-0.300494947426273
30
0
41
1
10
-12.9102338827602
20
-0.306085646339625
30
0
41
1
10
-12.9103315847485
20
-0.310777985080392
30
0
41
1
10
-12.9117605960215
20
-0.316192959110282
30
0
41
1
10
-12.9130939065335
20
-0.318369971001488
30
0
41
1
10
-12.9168431622451
20
-0.321793174571212
30
0
41
1
10
-12.9192871440886
20
-0.32303667882033
30
0
41
1
10
-12.9249370215665
20
-0.324620114170159
30
0
41
1
10
-12.9281546626962
20
-0.324980947161777
30
0
41
1
10
-12.9317003032968
20
-0.324980947161777
30
0
0
SPLINE
5
15F
100
AcDbEntity
8
1
62
256
6
ByLayer
370
18
48
1
60
0
100
AcDbSpline
70
4
71
3
72
8
73
4
40
0
40
0
40
0
40
0
40
1
40
1
40
1
40
1
41
1
10
-13.4702748862137
20
0.394519052838319
30
0
41
1
10
-13.2941699218972
20
0.179674312264069
30
0
41
1
10
-13.1180471579123
20
-0.0351594867746314
30
0
41
1
10
-12.941904331197
20
-0.249980947161362
30
0
0
SPLINE
5
160
100
AcDbEntity
8
1
62
256
6
ByLayer
370
18
48
1
60
0
100
AcDbSpline
70
4
71
3
72
38
73
34
40
0
40
0
40
0
40
0
40
0.124999999999991
40
0.124999999999991
40
0.249999999999981
40
0.249999999999981
40
0.374999999999972
40
0.374999999999972
40
0.437499999999968
40
0.437499999999968
40
0.499999999999963
40
0.499999999999963
40
0.562499999999958
40
0.562499999999958
40
0.593749999999964
40
0.593749999999964
40
0.62499999999997
40
0.62499999999997
40
0.687499999999976
40
0.687499999999976
40
0.718749999999982
40
0.718749999999982
40
0.749999999999989
40
0.749999999999989
40
0.812499999999992
40
0.812499999999992
40
0.843749999999993
40
0.843749999999993
40
0.874999999999995
40
0.874999999999995
40
0.937499999999997
40
0.937499999999997
40
1
40
1
40
1
40
1
41
1
10
-13.2887133686798
20
0.394519052838319
30
0
41
1
10
-13.3038332306426
20
0.4042879581867
30
0
41
1
10
-13.3188052716474
20
0.413449436874572
30
0
41
1
10
-13.3484408250735
20
0.430527273477082
30
0
41
1
10
-13.3631049887933
20
0.438446193463477
30
0
41
1
10
-13.3920697914073
20
0.452832519259857
30
0
41
1
10
-13.4064644692924
20
0.459334429025461
30
0
41
1
10
-13.4269699921963
20
0.467341554080946
30
0
41
1
10
-13.433645567981
20
0.469730324423097
30
0
41
1
10
-13.4466202325066
20
0.473845750572934
30
0
41
1
10
-13.4529523427325
20
0.475578705664162
30
0
41
1
10
-13.4648977094209
20
0.478164746212002
30
0
41
1
10
-13.4705305425909
20
0.479028435196653
30
0
41
1
10
-13.4783549901368
20
0.479532351315839
30
0
41
1
10
-13.4808583852177
20
0.479567589455002
30
0
41
1
10
-13.4856250849188
20
0.47933332242323
30
0
41
1
10
-13.4878873439799
20
0.479061483870908
30
0
41
1
10
-13.4941255566638
20
0.477748652573382
30
0
41
1
10
-13.4976100463298
20
0.476217282345146
30
0
41
1
10
-13.5015835740844
20
0.472696292951213
30
0
41
1
10
-13.5026851457819
20
0.471320945690934
30
0
41
1
10
-13.5043739139206
20
0.468214962997223
30
0
41
1
10
-13.5049704660338
20
0.466476927786175
30
0
41
1
10
-13.5059946892605
20
0.460690215559282
30
0
41
1
10
-13.5056210814371
20
0.455977741753941
30
0
41
1
10
-13.503532127041
20
0.448145570507165
30
0
41
1
10
-13.5025893474109
20
0.445402644548608
30
0
41
1
10
-13.5002379631945
20
0.439666430659713
30
0
41
1
10
-13.4988176392413
20
0.436652706244104
30
0
41
1
10
-13.4939949832354
20
0.427453269472068
30
0
41
1
10
-13.4900398258229
20
0.421090866571319
30
0
41
1
10
-13.4809501781441
20
0.407998820378509
30
0
41
1
10
-13.4757943146983
20
0.401252651663839
30
0
41
1
10
-13.4702748862137
20
0.394519052838319
30
0
0
SPLINE
5
161
100
AcDbEntity
8
1
62
256
6
ByLayer
370
18
48
1
60
0
100
AcDbSpline
70
4
71
3
72
8
73
4
40
0
40
0
40
0
40
0
40
1
40
1
40
1
40
1
41
1
10
-12.2619374897427
20
-0.249980947161674
30
0
41
1
10
-12.6077628641245
20
-0.0394093519147987
30
0
41
1
10
-12.9498764087536
20
0.175597332640279
30
0
41
1
10
-13.2887133686798
20
0.394519052838319
30
0
0
SPLINE
5
162
100
AcDbEntity
8
1
62
256
6
ByLayer
370
18
48
1
60
0
100
AcDbSpline
70
4
71
3
72
18
73
14
40
0
40
0
40
0
40
0
40
0.124999999999999
40
0.124999999999999
40
0.249999999999999
40
0.249999999999999
40
0.499999999999982
40
0.499999999999982
40
0.624999999999982
40
0.624999999999982
40
0.749999999999982
40
0.749999999999982
40
1
40
1
40
1
40
1
41
1
10
-12.0749439034001
20
-0.324980947161691
30
0
41
1
10
-12.081008255091
20
-0.324980947161094
30
0
41
1
10
-12.0875370462495
20
-0.324314999120048
30
0
41
1
10
-12.1012908516913
20
-0.321980394436167
30
0
41
1
10
-12.1085189695399
20
-0.320307354028273
30
0
41
1
10
-12.1310821815718
20
-0.314018794774057
30
0
41
1
10
-12.1466956039985
20
-0.308331973172614
30
0
41
1
10
-12.1707074902565
20
-0.298228829183756
30
0
41
1
10
-12.1788139447434
20
-0.294590398040555
30
0
41
1
10
-12.1952158399689
20
-0.286815352002606
30
0
41
1
10
-12.2035319977382
20
-0.282666955587615
30
0
41
1
10
-12.2284787618341
20
-0.26964953894975
30
0
41
1
10
-12.245175409905
20
-0.260187306071543
30
0
41
1
10
-12.2619374897427
20
-0.249980947161674
30
0
0
SPLINE
5
163
100
AcDbEntity
8
1
62
256
6
ByLayer
370
18
48
1
60
0
100
AcDbSpline
70
4
71
3
72
24
73
20
40
0
40
0
40
0
40
0
40
0.125000000000011
40
0.125000000000011
40
0.250000000000022
40
0.250000000000022
40
0.312500000000022
40
0.312500000000022
40
0.375000000000022
40
0.375000000000022
40
0.500000000000018
40
0.500000000000018
40
0.625000000000013
40
0.625000000000013
40
0.750000000000009
40
0.750000000000009
40
0.875000000000004
40
0.875000000000004
40
1
40
1
40
1
40
1
41
1
10
-11.9185094462045
20
-0.249980947160964
30
0
41
1
10
-11.9143984087425
20
-0.255008549371979
30
0
41
1
10
-11.9105940690077
20
-0.260025649179823
30
0
41
1
10
-11.9037537286027
20
-0.270033424617793
30
0
41
1
10
-11.9007316163329
20
-0.275018276597791
30
0
41
1
10
-11.8970946969525
20
-0.282167946486851
30
0
41
1
10
-11.8960240148196
20
-0.284507876358191
30
0
41
1
10
-11.8941940114109
20
-0.289092391428142
30
0
41
1
10
-11.8934309418025
20
-0.291353045960363
30
0
41
1
10
-11.8916984067637
20
-0.297837448784492
30
0
41
1
10
-11.891274090198
20
-0.301756712238841
30
0
41
1
10
-11.8919008982491
20
-0.30877759856898
30
0
41
1
10
-11.8929836812652
20
-0.311879900363635
30
0
41
1
10
-11.8964381114455
20
-0.31696313099431
30
0
41
1
10
-11.8988364705386
20
-0.3190154121788
30
0
41
1
10
-11.9046064730613
20
-0.32215189995452
30
0
41
1
10
-11.9079485979119
20
-0.323240679223716
30
0
41
1
10
-11.9153564824701
20
-0.32465661851694
30
0
41
1
10
-11.9194457489922
20
-0.324980947161691
30
0
41
1
10
-11.9237814416149
20
-0.324980947161691
30
0
0
SPLINE
5
164
100
AcDbEntity
8
1
62
256
6
ByLayer
370
18
48
1
60
0
100
AcDbSpline
70
4
71
3
72
8
73
4
40
0
40
0
40
0
40
0
40
1
40
1
40
1
40
1
41
1
10
-12.4454802424852
20
0.394519052838319
30
0
41
1
10
-12.2698302504261
20
0.179681463779445
30
0
41
1
10
-12.0941736247425
20
-0.0351520577178803
30
0
41
1
10
-11.9185094462047
20
-0.249980947160964
30
0
0
SPLINE
5
165
100
AcDbEntity
8
1
62
256
6
ByLayer
370
18
48
1
60
0
100
AcDbSpline
70
4
71
3
72
34
73
30
40
0
40
0
40
0
40
0
40
0.124999999999991
40
0.124999999999991
40
0.249999999999981
40
0.249999999999981
40
0.374999999999972
40
0.374999999999972
40
0.437499999999975
40
0.437499999999975
40
0.499999999999978
40
0.499999999999978
40
0.624999999999975
40
0.624999999999975
40
0.687499999999978
40
0.687499999999978
40
0.718749999999976
40
0.718749999999976
40
0.749999999999975
40
0.749999999999975
40
0.812499999999985
40
0.812499999999985
40
0.874999999999995
40
0.874999999999995
40
0.906249999999997
40
0.906249999999997
40
0.937499999999998
40
0.937499999999998
40
1
40
1
40
1
40
1
41
1
10
-12.21262584537
20
0.394519052838319
30
0
41
1
10
-12.2293879167132
20
0.404069856331262
30
0
41
1
10
-12.2460474242468
20
0.413010889696807
30
0
41
1
10
-12.2791555920721
20
0.42966862177019
30
0
41
1
10
-12.2956045495882
20
0.437386982382037
30
0
41
1
10
-12.3282608368064
20
0.451436957631131
30
0
41
1
10
-12.3445735365322
20
0.457805604881315
30
0
41
1
10
-12.3682424193965
20
0.465816634568256
30
0
41
1
10
-12.3760079072084
20
0.46823433620375
30
0
41
1
10
-12.3912507161594
20
0.47248177544077
30
0
41
1
10
-12.3987563531804
20
0.474318017873884
30
0
41
1
10
-12.4205497597282
20
0.478701530894455
30
0
41
1
10
-12.4339597259438
20
0.480156666608053
30
0
41
1
10
-12.4514152534257
20
0.478821439948945
30
0
41
1
10
-12.4568329303758
20
0.477746501187454
30
0
41
1
10
-12.4636450953421
20
0.47495820558143
30
0
41
1
10
-12.4657065335108
20
0.473834537101368
30
0
41
1
10
-12.4693513853986
20
0.471142526978696
30
0
41
1
10
-12.4709433497243
20
0.469557994706776
30
0
41
1
10
-12.4747761141799
20
0.464180222176765
30
0
41
1
10
-12.4761223246412
20
0.459769092372454
30
0
41
1
10
-12.4760958204851
20
0.449081203462839
30
0
41
1
10
-12.4747089449443
20
0.443053990405275
30
0
41
1
10
-12.470827460083
20
0.433240182207101
30
0
41
1
10
-12.4692288824021
20
0.429837099363681
30
0
41
1
10
-12.4655825007594
20
0.422985527209846
30
0
41
1
10
-12.4635248995896
20
0.419510621874565
30
0
41
1
10
-12.4567374379799
20
0.408956814071246
30
0
41
1
10
-12.4513585152093
20
0.401708771010675
30
0
41
1
10
-12.4454802424852
20
0.394519052838319
30
0
0
SPLINE
5
166
100
AcDbEntity
8
1
62
256
6
ByLayer
370
18
48
1
60
0
100
AcDbSpline
70
4
71
3
72
8
73
4
40
0
40
0
40
0
40
0
40
1
40
1
40
1
40
1
41
1
10
-11.0361737618139
20
-0.249980947161674
30
0
41
1
10
-11.4329616463351
20
-0.0414960685943413
30
0
41
1
10
-11.8249154221808
20
0.173606852417663
30
0
41
1
10
-12.21262584537
20
0.394519052838319
30
0
0
SPLINE
5
167
100
AcDbEntity
8
1
62
256
6
ByLayer
370
18
48
1
60
0
100
AcDbSpline
70
4
71
3
72
18
73
14
40
0
40
0
40
0
40
0
40
0.124999999999992
40
0.124999999999992
40
0.249999999999983
40
0.249999999999983
40
0.499999999999981
40
0.499999999999981
40
0.62499999999998
40
0.62499999999998
40
0.749999999999979
40
0.749999999999979
40
1
40
1
40
1
40
1
41
1
10
-10.8100221617362
20
-0.324980947161663
30
0
41
1
10
-10.8180111708273
20
-0.324980947160952
30
0
41
1
10
-10.8264247732998
20
-0.324303802427465
30
0
41
1
10
-10.8438730220196
20
-0.321952441620653
30
0
41
1
10
-10.8529592725556
20
-0.320261231068514
30
0
41
1
10
-10.8805796347571
20
-0.314041022539698
30
0
41
1
10
-10.8994387758157
20
-0.308419743129093
30
0
41
1
10
-10.9282051094205
20
-0.298394950509135
30
0
41
1
10
-10.9378759446479
20
-0.294780090670855
30
0
41
1
10
-10.9573700935551
20
-0.28704319003694
30
0
41
1
10
-10.9672176050399
20
-0.282909900397783
30
0
41
1
10
-10.9967579988524
20
-0.269872232720218
30
0
41
1
10
-11.0164600587408
20
-0.260339148990965
30
0
41
1
10
-11.0361737618139
20
-0.249980947161674
30
0
0
SPLINE
5
168
100
AcDbEntity
8
1
62
256
6
ByLayer
370
18
48
1
60
0
100
AcDbSpline
70
4
71
3
72
22
73
18
40
0
40
0
40
0
40
0
40
0.125
40
0.125
40
0.25
40
0.25
40
0.375
40
0.375
40
0.5
40
0.5
40
0.625
40
0.625
40
0.75
40
0.75
40
0.875
40
0.875
40
1
40
1
40
1
40
1
41
1
10
-10.588146538497
20
-0.249980947159827
30
0
41
1
10
-10.5838159736942
20
-0.255144731035813
30
0
41
1
10
-10.5798645746344
20
-0.260343891665031
30
0
41
1
10
-10.572985089628
20
-0.27083784852482
30
0
41
1
10
-10.5701679829123
20
-0.275969703602755
30
0
41
1
10
-10.5660666715437
20
-0.285914845664848
30
0
41
1
10
-10.5647901952416
20
-0.290809930744786
30
0
41
1
10
-10.5642045954565
20
-0.299573635406631
30
0
41
1
10
-10.5648541823852
20
-0.303528393936119
30
0
41
1
10
-10.5679631001511
20
-0.310436416643597
30
0
41
1
10
-10.5703512144501
20
-0.313281206584975
30
0
41
1
10
-10.5764671398953
20
-0.317988035234293
30
0
41
1
10
-10.5801191826616
20
-0.319788199103215
30
0
41
1
10
-10.5882140101569
20
-0.322533301974119
30
0
41
1
10
-10.5926877142222
20
-0.323486343691656
30
0
41
1
10
-10.6022321565404
20
-0.32471243842005
30
0
41
1
10
-10.6072496942067
20
-0.324980947163254
30
0
41
1
10
-10.6124575382183
20
-0.324980947163198
30
0
0
SPLINE
5
169
100
AcDbEntity
8
1
62
256
6
ByLayer
370
18
48
1
60
0
100
AcDbSpline
70
4
71
3
72
8
73
4
40
0
40
0
40
0
40
0
40
1
40
1
40
1
40
1
41
1
10
-11.1279670839745
20
0.394519052838319
30
0
41
1
10
-10.9481691234914
20
0.179596378150791
30
0
41
1
10
-10.7682360652239
20
-0.0352414300963915
30
0
41
1
10
-10.5881465384974
20
-0.249980947159912
30
0
0
SPLINE
5
16A
100
AcDbEntity
8
1
62
256
6
ByLayer
370
18
48
1
60
0
100
AcDbSpline
70
4
71
3
72
39
73
35
40
0
40
0
40
0
40
0
40
0.124999999999996
40
0.124999999999996
40
0.249999999999993
40
0.249999999999993
40
0.374999999999989
40
0.374999999999989
40
0.437499999999992
40
0.437499999999992
40
0.499999999999994
40
0.499999999999994
40
0.562499999999996
40
0.562499999999996
40
0.624999999999999
40
0.624999999999999
40
0.687500000000001
40
0.687500000000001
40
0.718750000000002
40
0.718750000000002
40
0.750000000000002
40
0.781250000000003
40
0.781250000000003
40
0.812500000000003
40
0.812500000000003
40
0.843750000000003
40
0.843750000000003
40
0.875000000000004
40
0.875000000000004
40
0.906250000000004
40
0.906250000000004
40
0.937500000000005
40
0.937500000000005
40
1
40
1
40
1
40
1
41
1
10
-10.8261977204866
20
0.394519052838319
30
0
41
1
10
-10.8453613808028
20
0.403822742416708
30
0
41
1
10
-10.8644350163225
20
0.412508030361977
30
0
41
1
10
-10.9024018906364
20
0.428670682946205
30
0
41
1
10
-10.9212952504409
20
0.436148777585913
30
0
41
1
10
-10.958882884293
20
0.449784789803459
30
0
41
1
10
-10.9775778122249
20
0.455947419880573
30
0
41
1
10
-11.0054357249662
20
0.463959959019945
30
0
41
1
10
-11.0147120130597
20
0.466427265972556
30
0
41
1
10
-11.0329270751786
20
0.47080817215442
30
0
41
1
10
-11.0418937770116
20
0.472731225930374
30
0
41
1
10
-11.0594969792525
20
0.475947166332247
30
0
41
1
10
-11.0681342039558
20
0.477241484467243
30
0
41
1
10
-11.0849977650712
20
0.479041057890981
30
0
41
1
10
-11.0932713386151
20
0.479548725267819
30
0
41
1
10
-11.1090219945275
20
0.479486703751746
30
0
41
1
10
-11.1164767895555
20
0.478927144527404
30
0
41
1
10
-11.1267820133678
20
0.476978430843047
30
0
41
1
10
-11.1300670569308
20
0.476138633700827
30
0
41
1
10
-11.1361417146117
20
0.474049581821959
30
0
41
1
10
-11.1417564108312
20
0.471545769909596
30
0
41
1
10
-11.1462927930953
20
0.468066856897167
30
0
41
1
10
-11.1501654640366
20
0.463986118035706
30
0
41
1
10
-11.1517438299298
20
0.461655824862362
30
0
41
1
10
-11.1540017219895
20
0.456500109917954
30
0
41
1
10
-11.1547000127545
20
0.453656662833254
30
0
41
1
10
-11.1551425423024
20
0.447385299333632
30
0
41
1
10
-11.1548792054188
20
0.444063384204014
30
0
41
1
10
-11.1534486470362
20
0.43707126200934
30
0
41
1
10
-11.1522661294609
20
0.433367252098947
30
0
41
1
10
-11.1491042633321
20
0.425789142768139
30
0
41
1
10
-11.147148000852
20
0.421949799605244
30
0
41
1
10
-11.1403381258876
20
0.410305290730918
30
0
41
1
10
-11.1344994067131
20
0.402327507790147
30
0
41
1
10
-11.1279670839746
20
0.394519052838319
30
0
0
SPLINE
5
16B
100
AcDbEntity
8
1
62
256
6
ByLayer
370
18
48
1
60
0
100
AcDbSpline
70
4
71
3
72
8
73
4
40
0
40
0
40
0
40
0
40
1
40
1
40
1
40
1
41
1
10
-9.42014604979882
20
-0.249980947161674
30
0
41
1
10
-9.89509800998097
20
-0.045403532794694
30
0
41
1
10
-10.3635024894917
20
0.169886976943701
30
0
41
1
10
-10.8261977204866
20
0.394519052838319
30
0
0
SPLINE
5
16C
100
AcDbEntity
8
1
62
256
6
ByLayer
370
18
48
1
60
0
100
AcDbSpline
70
4
71
3
72
18
73
14
40
0
40
0
40
0
40
0
40
0.125
40
0.125
40
0.25
40
0.25
40
0.375
40
0.375
40
0.5
40
0.5
40
0.75
40
0.75
40
1
40
1
40
1
40
1
41
1
10
-9.13284665392273
20
-0.324980947161691
30
0
41
1
10
-9.1437298608829
20
-0.324980947161151
30
0
41
1
10
-9.15494813399803
20
-0.324297936899598
30
0
41
1
10
-9.17785494091434
20
-0.321962244274374
30
0
41
1
10
-9.18954659680884
20
-0.320303380454163
30
0
41
1
10
-9.21330961472533
20
-0.316195905728222
30
0
41
1
10
-9.22532162877248
20
-0.313754324838584
30
0
41
1
10
-9.24935609579742
20
-0.308270592014935
30
0
41
1
10
-9.2614134877624
20
-0.305221378626044
30
0
41
1
10
-9.29769042100246
20
-0.295264739422492
30
0
41
1
10
-9.32201317218862
20
-0.287558568041931
30
0
41
1
10
-9.3709080164588
20
-0.270230194328235
30
0
41
1
10
-9.39555423460408
20
-0.260573449959651
30
0
41
1
10
-9.42014604979882
20
-0.249980947161674
30
0
0
SPLINE
5
16D
100
AcDbEntity
8
1
62
256
6
ByLayer
370
18
48
1
60
0
100
AcDbSpline
70
4
71
3
72
28
73
24
40
0
40
0
40
0
40
0
40
0.0624999999999974
40
0.0624999999999974
40
0.124999999999995
40
0.124999999999995
40
0.187499999999992
40
0.187499999999992
40
0.24999999999999
40
0.24999999999999
40
0.312499999999987
40
0.312499999999987
40
0.374999999999985
40
0.374999999999985
40
0.437499999999982
40
0.437499999999982
40
0.499999999999979
40
0.499999999999979
40
0.624999999999984
40
0.624999999999984
40
0.74999999999999
40
0.74999999999999
40
1
40
1
40
1
40
1
41
1
10
-8.81287846405201
20
-0.249980947155791
30
0
41
1
10
-8.81042372701619
20
-0.25268050799562
30
0
41
1
10
-8.80809426650328
20
-0.255412160239644
30
0
41
1
10
-8.80374131425189
20
-0.260953956620313
30
0
41
1
10
-8.80171509926663
20
-0.263772010194657
30
0
41
1
10
-8.79813432448751
20
-0.269361345622173
30
0
41
1
10
-8.79656638697136
20
-0.272147870695989
30
0
41
1
10
-8.79395351452456
20
-0.277701759323776
30
0
41
1
10
-8.79290203059389
20
-0.280494627087478
30
0
41
1
10
-8.79146539182062
20
-0.285933125165428
30
0
41
1
10
-8.79108275102195
20
-0.288549776175699
30
0
41
1
10
-8.79100712746298
20
-0.293571945582585
30
0
41
1
10
-8.79132427301086
20
-0.295998566424203
30
0
41
1
10
-8.79261865796582
20
-0.30047339121117
30
0
41
1
10
-8.79358803963606
20
-0.302536520574051
30
0
41
1
10
-8.79609940480202
20
-0.306352422583785
30
0
41
1
10
-8.79764866346821
20
-0.308104402530773
30
0
41
1
10
-8.80288537420074
20
-0.312803317823807
30
0
41
1
10
-8.80719346932878
20
-0.315274284744561
30
0
41
1
10
-8.81692618508805
20
-0.319278475547179
30
0
41
1
10
-8.82221699514493
20
-0.32075719148483
30
0
41
1
10
-8.83894481110526
20
-0.324132477893784
30
0
41
1
10
-8.85129538935948
20
-0.32498094716226
30
0
41
1
10
-8.86408179867618
20
-0.324980947162231
30
0
0
SPLINE
5
16E
100
AcDbEntity
8
1
62
256
6
ByLayer
370
18
48
1
60
0
100
AcDbSpline
70
4
71
3
72
8
73
4
40
0
40
0
40
0
40
0
40
1
40
1
40
1
40
1
41
1
10
-9.3953884633876
20
0.394519052838319
30
0
41
1
10
-9.20190632438599
20
0.179219444300429
30
0
41
1
10
-9.0077785167926
20
-0.0356424895419991
30
0
41
1
10
-8.81287846405296
20
-0.249980947156075
30
0
0
SPLINE
5
16F
100
AcDbEntity
8
1
62
256
6
ByLayer
370
18
48
1
60
0
100
AcDbSpline
70
4
71
3
72
38
73
34
40
0
40
0
40
0
40
0
40
0.249999999999998
40
0.249999999999998
40
0.374999999999994
40
0.374999999999994
40
0.49999999999999
40
0.49999999999999
40
0.56249999999999
40
0.56249999999999
40
0.62499999999999
40
0.62499999999999
40
0.68749999999999
40
0.68749999999999
40
0.74999999999999
40
0.74999999999999
40
0.781249999999984
40
0.781249999999984
40
0.812499999999978
40
0.812499999999978
40
0.843749999999972
40
0.843749999999972
40
0.859374999999972
40
0.859374999999972
40
0.874999999999973
40
0.874999999999973
40
0.906249999999979
40
0.906249999999979
40
0.937499999999986
40
0.937499999999986
40
0.968749999999993
40
0.968749999999993
40
1
40
1
40
1
40
1
41
1
10
-8.98692851463424
20
0.394519052838433
30
0
41
1
10
-9.0332619564788
20
0.412493674837833
30
0
41
1
10
-9.07924677772215
20
0.428095750861701
30
0
41
1
10
-9.14767753970106
20
0.447892731526878
30
0
41
1
10
-9.17039514074557
20
0.453877630445248
30
0
41
1
10
-9.21561276810894
20
0.464384190703157
30
0
41
1
10
-9.23811409009988
20
0.468915971092088
30
0
41
1
10
-9.27164840317904
20
0.474201921571563
30
0
41
1
10
-9.28280754864188
20
0.475708447562795
30
0
41
1
10
-9.30470496885984
20
0.478037327116795
30
0
41
1
10
-9.31547973767195
20
0.478868132934792
30
0
41
1
10
-9.33658051127524
20
0.479660016760334
30
0
41
1
10
-9.34696068021994
20
0.479621526876542
30
0
41
1
10
-9.36677891891844
20
0.478317730661246
30
0
41
1
10
-9.37622144042925
20
0.477070148566497
30
0
41
1
10
-9.38930097964762
20
0.473801534714227
30
0
41
1
10
-9.39349606281391
20
0.472464916766313
30
0
41
1
10
-9.40121470148263
20
0.469229096419326
30
0
41
1
10
-9.40475722197043
20
0.467329854200074
30
0
41
1
10
-9.41101084625686
20
0.462790271628421
30
0
41
1
10
-9.41370522919763
20
0.460142637892375
30
0
41
1
10
-9.41676860092079
20
0.455629436905042
30
0
41
1
10
-9.41763416504909
20
0.454029340103233
30
0
41
1
10
-9.4190188210098
20
0.450615689000983
30
0
41
1
10
-9.41953665683756
20
0.448791861472614
30
0
41
1
10
-9.42048798744298
20
0.44314609700092
30
0
41
1
10
-9.42034760074219
20
0.439106172816139
30
0
41
1
10
-9.41852742540985
20
0.430476184279115
30
0
41
1
10
-9.41685123823549
20
0.425966268108198
30
0
41
1
10
-9.41232312472627
20
0.416909228814092
30
0
41
1
10
-9.40943685546671
20
0.41229412988929
30
0
41
1
10
-9.40294265258267
20
0.403307302163142
30
0
41
1
10
-9.39931252043964
20
0.398885595145714
30
0
41
1
10
-9.39538846339337
20
0.394519052837154
30
0
0
SPLINE
5
170
100
AcDbEntity
8
1
62
256
6
ByLayer
370
18
48
1
60
0
100
AcDbSpline
70
4
71
3
72
8
73
4
40
0
40
0
40
0
40
0
40
1
40
1
40
1
40
1
41
1
10
-7.15410175340969
20
-0.249980947161674
30
0
41
1
10
-7.77427580892314
20
-0.0548377836275904
30
0
41
1
10
-8.384783437259
20
0.160922546217108
30
0
41
1
10
-8.98692851463423
20
0.394519052838319
30
0
0
SPLINE
5
171
100
AcDbEntity
8
1
62
256
6
ByLayer
370
18
48
1
60
0
100
AcDbSpline
70
4
71
3
72
17
73
13
40
0
40
0
40
0
40
0
40
0.124999999999999
40
0.124999999999999
40
0.249999999999998
40
0.249999999999998
40
0.374999999999998
40
0.374999999999998
40
0.499999999999997
40
0.499999999999997
40
0.749999999999998
40
1
40
1
40
1
40
1
41
1
10
-6.74249188881709
20
-0.324980947161663
30
0
41
1
10
-6.75895378391422
20
-0.324980947161606
30
0
41
1
10
-6.77560867949245
20
-0.324310745266985
30
0
41
1
10
-6.8091790679558
20
-0.322040380930361
30
0
41
1
10
-6.82609666353446
20
-0.320433354681313
30
0
41
1
10
-6.8601373246226
20
-0.31647039455359
30
0
41
1
10
-6.87726105822415
20
-0.314112278634411
30
0
41
1
10
-6.91168423969094
20
-0.308745403149373
30
0
41
1
10
-6.92901200463672
20
-0.305730156657205
30
0
41
1
10
-6.98098651916527
20
-0.295834974764006
30
0
41
1
10
-7.05026156071182
20
-0.280409342926959
30
0
41
1
10
-7.11949273474028
20
-0.260870976065661
30
0
41
1
10
-7.15410175340969
20
-0.249980947161816
30
0
0
SPLINE
5
172
100
AcDbEntity
8
1
62
256
6
ByLayer
370
18
48
1
60
0
100
AcDbSpline
70
4
71
3
72
28
73
24
40
0
40
0
40
0
40
0
40
0.062500000000005
40
0.062500000000005
40
0.12500000000001
40
0.12500000000001
40
0.187500000000015
40
0.187500000000015
40
0.25000000000002
40
0.25000000000002
40
0.312500000000025
40
0.312500000000025
40
0.37500000000003
40
0.37500000000003
40
0.437500000000035
40
0.437500000000035
40
0.50000000000004
40
0.50000000000004
40
0.625000000000028
40
0.625000000000028
40
0.750000000000015
40
0.750000000000015
40
1
40
1
40
1
40
1
41
1
10
-6.22292588127033
20
-0.249980947140926
30
0
41
1
10
-6.21958846278596
20
-0.252886604388976
30
0
41
1
10
-6.21643658084923
20
-0.2558747816623
30
0
41
1
10
-6.21065250989125
20
-0.262082766471423
30
0
41
1
10
-6.20799059239903
20
-0.265341649736172
30
0
41
1
10
-6.20359999834165
20
-0.272014335422199
30
0
41
1
10
-6.20188043678124
20
-0.275412687019298
30
0
41
1
10
-6.19979992398484
20
-0.282212586931053
30
0
41
1
10
-6.1994771564062
20
-0.285483953660503
30
0
41
1
10
-6.20034973300679
20
-0.291754064168089
30
0
41
1
10
-6.20153703134238
20
-0.294630037775505
30
0
41
1
10
-6.20507139005912
20
-0.299823372219606
30
0
41
1
10
-6.20738715966201
20
-0.302109007415226
30
0
41
1
10
-6.21267351534166
20
-0.30614672963037
30
0
41
1
10
-6.21568609914914
20
-0.307929189855884
30
0
41
1
10
-6.22210698144582
20
-0.31107607510512
30
0
41
1
10
-6.22550351037791
20
-0.312439632077798
30
0
41
1
10
-6.23609002146526
20
-0.316080959786547
30
0
41
1
10
-6.24369435696326
20
-0.317921804204559
30
0
41
1
10
-6.2594332674004
20
-0.320855188810611
30
0
41
1
10
-6.26749588936983
20
-0.321930095246671
30
0
41
1
10
-6.29206351344484
20
-0.324375867069932
30
0
41
1
10
-6.30894164051674
20
-0.324980947161663
30
0
41
1
10
-6.32610759209325
20
-0.324980947161663
30
0
0
SPLINE
5
173
100
AcDbEntity
8
1
62
256
6
ByLayer
370
18
48
1
60
0
100
AcDbSpline
70
4
71
3
72
8
73
4
40
0
40
0
40
0
40
0
40
1
40
1
40
1
40
1
41
1
10
-6.94370199058156
20
0.394519052846164
30
0
41
1
10
-6.70648353684933
20
0.177135671778956
30
0
41
1
10
-6.46649386217527
20
-0.0379233125592862
30
0
41
1
10
-6.2229258812701
20
-0.249980947141125
30
0
0
SPLINE
5
174
100
AcDbEntity
8
1
62
256
6
ByLayer
370
18
48
1
60
0
100
AcDbSpline
70
4
71
3
72
38
73
34
40
0
40
0
40
0
40
0
40
0.250000000000007
40
0.250000000000007
40
0.375000000000011
40
0.375000000000011
40
0.500000000000015
40
0.500000000000015
40
0.625000000000019
40
0.625000000000019
40
0.687500000000021
40
0.687500000000021
40
0.750000000000023
40
0.750000000000023
40
0.812500000000025
40
0.812500000000025
40
0.843750000000025
40
0.843750000000025
40
0.859375000000024
40
0.859375000000024
40
0.875000000000024
40
0.875000000000024
40
0.906250000000018
40
0.906250000000018
40
0.921875000000015
40
0.921875000000015
40
0.937500000000012
40
0.937500000000012
40
0.953125000000009
40
0.953125000000009
40
0.968750000000006
40
0.968750000000006
40
1
40
1
40
1
40
1
41
1
10
-6.31056345909113
20
0.394519052838348
30
0
41
1
10
-6.37481328661519
20
0.411390584813802
30
0
41
1
10
-6.4389694704841
20
0.426235064493312
30
0
41
1
10
-6.53505244750028
20
0.445376954980162
30
0
41
1
10
-6.56705479948485
20
0.45122594227513
30
0
41
1
10
-6.63100511187719
20
0.461668317288456
30
0
41
1
10
-6.66283482363753
20
0.466246113725987
30
0
41
1
10
-6.72600609435827
20
0.473707937007589
30
0
41
1
10
-6.75736948054711
20
0.476614959194904
30
0
41
1
10
-6.80391672915488
20
0.479030439617617
30
0
41
1
10
-6.8192776629011
20
0.479502300680395
30
0
41
1
10
-6.84957718699221
20
0.479534942910078
30
0
41
1
10
-6.86452894473786
20
0.479103966091572
30
0
41
1
10
-6.89376528285266
20
0.476844350448005
30
0
41
1
10
-6.90791400682033
20
0.4750543513058
30
0
41
1
10
-6.92784789138969
20
0.470525557036069
30
0
41
1
10
-6.93431043459861
20
0.468687677725654
30
0
41
1
10
-6.9432963611988
20
0.465259768495429
30
0
41
1
10
-6.94617531050903
20
0.464004555023422
30
0
41
1
10
-6.95163771381635
20
0.461207412587328
30
0
41
1
10
-6.95423460303806
20
0.459654605417683
30
0
41
1
10
-6.96127333728381
20
0.454550304275358
30
0
41
1
10
-6.96505057587058
20
0.450546752278541
30
0
41
1
10
-6.96837681670823
20
0.443136098555243
30
0
41
1
10
-6.96904305703399
20
0.440519738407147
30
0
41
1
10
-6.96942508964193
20
0.434972492094005
30
0
41
1
10
-6.96912327074105
20
0.432023475756551
30
0
41
1
10
-6.96761586971718
20
0.426116302508717
30
0
41
1
10
-6.96640667044278
20
0.423099880063631
30
0
41
1
10
-6.9632594025644
20
0.417097475848209
30
0
41
1
10
-6.96135311381423
20
0.41415595474092
30
0
41
1
10
-6.95487075366256
20
0.405468539491409
30
0
41
1
10
-6.94950896079734
20
0.399840471978024
30
0
41
1
10
-6.94370199058531
20
0.394519052844345
30
0
0
SPLINE
5
175
100
AcDbEntity
8
1
62
256
6
ByLayer
370
18
48
1
60
0
100
AcDbSpline
70
4
71
3
72
8
73
4
40
0
40
0
40
0
40
0
40
1
40
1
40
1
40
1
41
1
10
-3.02046224885069
20
-0.249980947161674
30
0
41
1
10
-4.1359861011274
20
-0.107222523982614
30
0
41
1
10
-5.23174171602679
20
0.111228400779481
30
0
41
1
10
-6.31056345909118
20
0.394519052838035
30
0
0
SPLINE
5
176
100
AcDbEntity
8
1
62
256
6
ByLayer
370
18
48
1
60
0
100
AcDbSpline
70
4
71
3
72
14
73
10
40
0
40
0
40
0
40
0
40
0.25
40
0.25
40
0.5
40
0.5
40
0.75
40
0.75
40
1
40
1
40
1
40
1
41
1
10
-1.73594520006452
20
-0.324980947161805
30
0
41
1
10
-1.84314979610454
20
-0.324980947161777
30
0
41
1
10
-1.95042328219981
20
-0.323449254272589
30
0
41
1
10
-2.16478964220232
20
-0.317513647984981
30
0
41
1
10
-2.27190023278158
20
-0.31310074243703
30
0
41
1
10
-2.48598486060513
20
-0.301152741664794
30
0
41
1
10
-2.5929587792904
20
-0.293621089038169
30
0
41
1
10
-2.80678930238935
20
-0.274859400504965
30
0
41
1
10
-2.91364525025708
20
-0.263650781524092
30
0
41
1
10
-3.02046224885069
20
-0.249980947161674
30
0
0
SPLINE
5
177
100
AcDbEntity
8
1
62
256
6
ByLayer
370
18
48
1
60
0
100
AcDbSpline
70
4
71
3
72
14
73
10
40
0
40
0
40
0
40
0
40
0.25
40
0.25
40
0.5
40
0.5
40
0.75
40
0.75
40
1
40
1
40
1
40
1
41
1
10
3.02046224885069
20
-0.249980947161873
30
0
41
1
10
2.91367618098349
20
-0.263646823185127
30
0
41
1
10
2.80666688413962
20
-0.274872902970912
30
0
41
1
10
2.59260836335665
20
-0.293649067375725
30
0
41
1
10
2.48557990191409
20
-0.301179376033105
30
0
41
1
10
2.27148283436821
20
-0.313119988055348
30
0
41
1
10
2.16441448633978
20
-0.317526654577222
30
0
41
1
10
1.95022075456774
20
-0.323452236129214
30
0
41
1
10
1.84309474173762
20
-0.324980947161691
30
0
41
1
10
1.73594520006452
20
-0.324980947161691
30
0
0
SPLINE
5
178
100
AcDbEntity
8
1
62
256
6
ByLayer
370
18
48
1
60
0
100
AcDbSpline
70
4
71
3
72
8
73
4
40
0
40
0
40
0
40
0
40
1
40
1
40
1
40
1
41
1
10
6.31056345909118
20
0.394519052838035
30
0
41
1
10
5.23174171602679
20
0.111228400779481
30
0
41
1
10
4.1359861011274
20
-0.107222523982614
30
0
41
1
10
3.02046224885069
20
-0.249980947161674
30
0
0
SPLINE
5
179
100
AcDbEntity
8
1
62
256
6
ByLayer
370
18
48
1
60
0
100
AcDbSpline
70
4
71
3
72
40
73
36
40
0
40
0
40
0
40
0
40
0.0312500000000064
40
0.0312500000000064
40
0.0625000000000128
40
0.0625000000000128
40
0.0781250000000141
40
0.0781250000000141
40
0.0937500000000154
40
0.0937500000000154
40
0.109375000000017
40
0.109375000000017
40
0.125000000000018
40
0.125000000000018
40
0.156250000000016
40
0.156250000000016
40
0.187500000000014
40
0.187500000000014
40
0.218750000000012
40
0.218750000000012
40
0.25000000000001
40
0.25000000000001
40
0.312500000000009
40
0.312500000000009
40
0.375000000000008
40
0.375000000000008
40
0.437500000000007
40
0.437500000000007
40
0.500000000000006
40
0.500000000000006
40
0.625000000000005
40
0.625000000000005
40
0.750000000000004
40
0.750000000000004
40
1
40
1
40
1
40
1
41
1
10
6.94370199057298
20
0.394519052838319
30
0
41
1
10
6.94949560394613
20
0.39982823196766
30
0
41
1
10
6.9547696385205
20
0.405342643436654
30
0
41
1
10
6.96353664392529
20
0.417072710650387
30
0
41
1
10
6.96690761888635
20
0.423224118274902
30
0
41
1
10
6.96915785814377
20
0.432219602519865
30
0
41
1
10
6.96943324881519
20
0.435114089853443
30
0
41
1
10
6.96901235433305
20
0.440690505253485
30
0
41
1
10
6.96829725749961
20
0.443380727673969
30
0
41
1
10
6.9660284372105
20
0.448294122549783
30
0
41
1
10
6.96446307291583
20
0.450572101252163
30
0
41
1
10
6.96069380192048
20
0.454727700184236
30
0
41
1
10
6.95851683438016
20
0.456587871636742
30
0
41
1
10
6.9513232003797
20
0.461676155240184
30
0
41
1
10
6.94560309325294
20
0.464430091165326
30
0
41
1
10
6.93346671813322
20
0.468952428293051
30
0
41
1
10
6.92700114264716
20
0.470750396595264
30
0
41
1
10
6.91354439935401
20
0.473737864933412
30
0
41
1
10
6.90651936764425
20
0.47492561812976
30
0
41
1
10
6.8922792992789
20
0.476824350812876
30
0
41
1
10
6.88505053830161
20
0.477539240813599
30
0
41
1
10
6.86312052932414
20
0.479163283900618
30
0
41
1
10
6.84817943934439
20
0.479560419705763
30
0
41
1
10
6.81787500488093
20
0.479471186456607
30
0
41
1
10
6.80250792684535
20
0.478976540973378
30
0
41
1
10
6.77145110599577
20
0.477324643893013
30
0
41
1
10
6.7557261014864
20
0.476161098836997
30
0
41
1
10
6.72426466292012
20
0.473326678573358
30
0
41
1
10
6.70850783880189
20
0.471655016990979
30
0
41
1
10
6.66117064223556
20
0.466019194826799
30
0
41
1
10
6.62952417807892
20
0.461442125692656
30
0
41
1
10
6.56608797546158
20
0.451051827023463
30
0
41
1
10
6.53429778488416
20
0.445232963789806
30
0
41
1
10
6.43873436581833
20
0.426175341576084
30
0
41
1
10
6.37477160274292
20
0.411379638935813
30
0
41
1
10
6.31056345909113
20
0.394519052838518
30
0
0
SPLINE
5
17A
100
AcDbEntity
8
1
62
256
6
ByLayer
370
18
48
1
60
0
100
AcDbSpline
70
4
71
3
72
8
73
4
40
0
40
0
40
0
40
0
40
1
40
1
40
1
40
1
41
1
10
6.2229258812701
20
-0.249980947141125
30
0
41
1
10
6.46649386217231
20
-0.0379233125618441
30
0
41
1
10
6.70648353684354
20
0.177135671773783
30
0
41
1
10
6.94370199057298
20
0.394519052838319
30
0
0
SPLINE
5
17B
100
AcDbEntity
8
1
62
256
6
ByLayer
370
18
48
1
60
0
100
AcDbSpline
70
4
71
3
72
30
73
26
40
0
40
0
40
0
40
0
40
0.249999999999991
40
0.249999999999991
40
0.374999999999982
40
0.374999999999982
40
0.499999999999972
40
0.499999999999972
40
0.562499999999967
40
0.562499999999967
40
0.624999999999962
40
0.624999999999962
40
0.687499999999957
40
0.687499999999957
40
0.749999999999952
40
0.749999999999952
40
0.781249999999958
40
0.781249999999958
40
0.812499999999964
40
0.812499999999964
40
0.874999999999976
40
0.874999999999976
40
0.937499999999988
40
0.937499999999988
40
1
40
1
40
1
40
1
41
1
10
6.32610759209325
20
-0.324980947161663
30
0
41
1
10
6.30895523289027
20
-0.324980947161663
30
0
41
1
10
6.29208157702351
20
-0.324377259675799
30
0
41
1
10
6.26750018480016
20
-0.321930725538721
30
0
41
1
10
6.25939445407607
20
-0.320848040210734
30
0
41
1
10
6.24372854904976
20
-0.31792809148601
30
0
41
1
10
6.2362068230992
20
-0.316109021782722
30
0
41
1
10
6.2256865724155
20
-0.312508448027302
30
0
41
1
10
6.22230861856275
20
-0.311160963692004
30
0
41
1
10
6.21591426295655
20
-0.308054038889253
30
0
41
1
10
6.21287035292437
20
-0.30627486682053
30
0
41
1
10
6.20751976611061
20
-0.302231168235778
30
0
41
1
10
6.20518386142254
20
-0.299949113688825
30
0
41
1
10
6.20160828920962
20
-0.294772273174488
30
0
41
1
10
6.2004140800575
20
-0.291948296582604
30
0
41
1
10
6.19971056995726
20
-0.287281667244486
30
0
41
1
10
6.19966320953691
20
-0.285643710974028
30
0
41
1
10
6.19995012421148
20
-0.282353947498052
30
0
41
1
10
6.20027976527979
20
-0.280687054084183
30
0
41
1
10
6.20179147637555
20
-0.275624633340158
30
0
41
1
10
6.20351609927599
20
-0.272168749535723
30
0
41
1
10
6.20785466491733
20
-0.265522644781726
30
0
41
1
10
6.21051007557585
20
-0.262245767396166
30
0
41
1
10
6.21636758997769
20
-0.255939059647659
30
0
41
1
10
6.21955595240868
20
-0.252914908876164
30
0
41
1
10
6.22292588125003
20
-0.249980947131121
30
0
0
SPLINE
5
17C
100
AcDbEntity
8
1
62
256
6
ByLayer
370
18
48
1
60
0
100
AcDbSpline
70
4
71
3
72
15
73
11
40
0
40
0
40
0
40
0
40
0.25
40
0.499999999999999
40
0.499999999999999
40
0.749999999999999
40
0.749999999999999
40
0.874999999999999
40
0.874999999999999
40
1
40
1
40
1
40
1
41
1
10
7.15410175340969
20
-0.249980947161959
30
0
41
1
10
7.11949744310726
20
-0.260869494537161
30
0
41
1
10
7.05032073642869
20
-0.280391315152514
30
0
41
1
10
6.9811820376791
20
-0.295791497294829
30
0
41
1
10
6.91206326724409
20
-0.308963148688207
30
0
41
1
10
6.87739853285686
20
-0.314456710978931
30
0
41
1
10
6.82619211327409
20
-0.320424309897248
30
0
41
1
10
6.80923657125001
20
-0.32203588721319
30
0
41
1
10
6.77561600085537
20
-0.3243108537296
30
0
41
1
10
6.75894873884985
20
-0.324980947161606
30
0
41
1
10
6.74249188881709
20
-0.324980947161663
30
0
0
SPLINE
5
17D
100
AcDbEntity
8
1
62
256
6
ByLayer
370
18
48
1
60
0
100
AcDbSpline
70
4
71
3
72
8
73
4
40
0
40
0
40
0
40
0
40
1
40
1
40
1
40
1
41
1
10
7.22339810906752
20
-0.228077676673337
30
0
41
1
10
7.2003127240074
20
-0.235407347541752
30
0
41
1
10
7.17721396297492
20
-0.24270848929163
30
0
41
1
10
7.15410175340969
20
-0.249980947161674
30
0
0
SPLINE
5
17E
100
AcDbEntity
8
1
62
256
6
ByLayer
370
18
48
1
60
0
100
AcDbSpline
70
4
71
3
72
8
73
4
40
0
40
0
40
0
40
0
40
1
40
1
40
1
40
1
41
1
10
8.29501691354938
20
0.474999999999994
30
0
41
1
10
7.93862268326617
20
0.23805918139459
30
0
41
1
10
7.58144296564893
20
0.0036155475843032
30
0
41
1
10
7.22339810906755
20
-0.228077676673337
30
0
0
SPLINE
5
17F
100
AcDbEntity
8
1
62
256
6
ByLayer
370
18
48
1
60
0
100
AcDbSpline
70
4
71
3
72
8
73
4
40
0
40
0
40
0
40
0
40
1
40
1
40
1
40
1
41
1
10
8.42393591949732
20
0.675000000000011
30
0
41
1
10
8.38096551336062
20
0.608329227881853
30
0
41
1
10
8.3379925443935
20
0.541662508489168
30
0
41
1
10
8.2950169135494
20
0.474999999999994
30
0
0
SPLINE
5
180
100
AcDbEntity
8
1
62
256
6
ByLayer
370
18
48
1
60
0
100
AcDbSpline
70
4
71
3
72
8
73
4
40
0
40
0
40
0
40
0
40
1
40
1
40
1
40
1
41
1
10
-14.5615187733782
20
0.236518773378151
30
0
41
1
10
-14.7076620247758
20
0.382662024775783
30
0
41
1
10
-14.8538226741323
20
0.528822674132243
30
0
41
1
10
-15
20
0.674999999999983
30
0
0
SPLINE
5
181
100
AcDbEntity
8
1
62
256
6
ByLayer
370
18
48
1
60
0
100
AcDbSpline
70
4
71
3
72
20
73
16
40
0
40
0
40
0
40
0
40
0.0625000000000011
40
0.0625000000000011
40
0.125000000000002
40
0.125000000000002
40
0.250000000000003
40
0.250000000000003
40
0.375000000000003
40
0.375000000000003
40
0.500000000000003
40
0.500000000000003
40
0.750000000000001
40
0.750000000000001
40
1
40
1
40
1
40
1
41
1
10
-15
20
0.875
30
0
41
1
10
-15
20
0.880607215885561
30
0
41
1
10
-15
20
0.886227696855997
30
0
41
1
10
-15
20
0.897495605869779
30
0
41
1
10
-15
20
0.903136613087668
30
0
41
1
10
-15
20
0.919747857907851
30
0
41
1
10
-15
20
0.930529261157091
30
0
41
1
10
-15
20
0.951581617805772
30
0
41
1
10
-15
20
0.961872540571392
30
0
41
1
10
-15
20
0.981426829848942
30
0
41
1
10
-15
20
0.990779268346927
30
0
41
1
10
-15
20
1.0178086732914
30
0
41
1
10
-15
20
1.03456019396592
30
0
41
1
10
-15
20
1.06542217995718
30
0
41
1
10
-15
20
1.07962073585617
30
0
41
1
10
-15
20
1.09294494717704
30
0
0
SPLINE
5
182
100
AcDbEntity
8
1
62
256
6
ByLayer
370
18
48
1
60
0
100
AcDbSpline
70
4
71
3
72
13
73
9
40
0
40
0
40
0
40
0
40
0.499999999999997
40
0.499999999999997
40
0.624999999999998
40
0.624999999999998
40
0.749999999999999
40
1
40
1
40
1
40
1
41
1
10
9.82447086320525
20
0.874999999999602
30
0
41
1
10
9.82447086320525
20
0.908987190641994
30
0
41
1
10
9.8266611135823
20
0.942754511468081
30
0
41
1
10
9.83220136857
20
0.984682337398482
30
0
41
1
10
9.83345500989185
20
0.99307519132222
30
0
41
1
10
9.83622180364492
20
1.00965880621533
30
0
41
1
10
9.8407650002828
20
1.03427297115118
30
0
41
1
10
9.8464620659922
20
1.05812008206851
30
0
41
1
10
9.85076599721131
20
1.07368185878306
30
0
0
SPLINE
5
183
100
AcDbEntity
8
1
62
256
6
ByLayer
370
18
48
1
60
0
100
AcDbSpline
70
4
71
3
72
26
73
22
40
0
40
0
40
0
40
0
40
0.125
40
0.125
40
0.15625
40
0.15625
40
0.1875
40
0.1875
40
0.25
40
0.25
40
0.5
40
0.5
40
0.625
40
0.625
40
0.75
40
0.75
40
0.875
40
0.875
40
0.9375
40
0.9375
40
1
40
1
40
1
40
1
41
1
10
3.82720524665191
20
1.375
30
0
41
1
10
3.66784017059436
20
1.375
30
0
41
1
10
3.50851321889621
20
1.37094450465955
30
0
41
1
10
3.3093884139609
20
1.36227063710794
30
0
41
1
10
3.26956516787257
20
1.36035344049768
30
0
41
1
10
3.18992183086647
20
1.35618341463495
30
0
41
1
10
3.1498673134349
20
1.35391738932401
30
0
41
1
10
3.02996429579406
20
1.34666632694675
30
0
41
1
10
2.95008484346241
20
1.34121480212659
30
0
41
1
10
2.55092030470416
20
1.31138613870661
30
0
41
1
10
2.23233478291988
20
1.27928046028188
30
0
41
1
10
1.75474950260408
20
1.22788495741705
30
0
41
1
10
1.59560357042369
20
1.21021000714069
30
0
41
1
10
1.27722899968975
20
1.17577381700173
30
0
41
1
10
1.11800182548021
20
1.15899639959054
30
0
41
1
10
0.799204148954971
20
1.12923453082303
30
0
41
1
10
0.639631382539051
20
1.11627509243578
30
0
41
1
10
0.399749988067498
20
1.10260550904388
30
0
41
1
10
0.31969693270085
20
1.09901890502678
30
0
41
1
10
0.159774363699597
20
1.09418805527122
30
0
41
1
10
0.0798615061981423
20
1.09294494717704
30
0
41
1
10
0
20
1.09294494717704
30
0
0
SPLINE
5
184
100
AcDbEntity
8
1
62
256
6
ByLayer
370
18
48
1
60
0
100
AcDbSpline
70
4
71
3
72
28
73
24
40
0
40
0
40
0
40
0
40
0.125
40
0.125
40
0.15625
40
0.15625
40
0.1875
40
0.1875
40
0.25
40
0.25
40
0.375
40
0.499999999999999
40
0.499999999999999
40
0.624999999999999
40
0.624999999999999
40
0.687499999999999
40
0.687499999999999
40
0.718749999999999
40
0.718749999999999
40
0.749999999999999
40
0.749999999999999
40
0.874999999999999
40
1
40
1
40
1
40
1
41
1
10
-9.19956245630345
20
11.9004375436965
30
0
41
1
10
-8.86918909689393
20
11.8338023713723
30
0
41
1
10
-8.52914199172668
20
11.7686441296326
30
0
41
1
10
-8.09155275327871
20
11.6898187915155
30
0
41
1
10
-8.00340739798716
20
11.6741850524504
30
0
41
1
10
-7.82584662446521
20
11.6432005512347
30
0
41
1
10
-7.73633843851133
20
11.6278344402608
30
0
41
1
10
-7.46692238262935
20
11.5823651885502
30
0
41
1
10
-7.28594367416497
20
11.5528575797302
30
0
41
1
10
-6.73894087959647
20
11.4669191292737
30
0
41
1
10
-5.99877105371647
20
11.3592272065057
30
0
41
1
10
-5.23704385798436
20
11.267093860828
30
0
41
1
10
-4.46440883224909
20
11.1836294322851
30
0
41
1
10
-4.07263779248552
20
11.1462310223041
30
0
41
1
10
-3.47656385034779
20
11.0973173605498
30
0
41
1
10
-3.2764681483653
20
11.0822103561177
30
0
41
1
10
-2.97417411824992
20
11.0614342900492
30
0
41
1
10
-2.87305092501569
20
11.0548230307125
30
0
41
1
10
-2.67007889406071
20
11.0422436941244
30
0
41
1
10
-2.56813772274987
20
11.036270721528
30
0
41
1
10
-2.05795506172089
20
11.0081249687858
30
0
41
1
10
-1.23879102640757
20
10.9740799022191
30
0
41
1
10
-0.413897862965172
20
10.9625630447898
30
0
41
1
10
0
20
10.9625630447898
30
0
0
SPLINE
5
185
100
AcDbEntity
8
1
62
256
6
ByLayer
370
18
48
1
60
0
100
AcDbSpline
70
4
71
3
72
129
73
125
40
0
40
0
40
0
40
0
40
0.0156249999999989
40
0.0156249999999989
40
0.0234374999999983
40
0.0234374999999983
40
0.0312499999999977
40
0.0312499999999977
40
0.0624999999999959
40
0.0624999999999959
40
0.078124999999995
40
0.078124999999995
40
0.0859374999999945
40
0.0859374999999945
40
0.0937499999999941
40
0.0937499999999941
40
0.124999999999992
40
0.124999999999992
40
0.140624999999991
40
0.140624999999991
40
0.148437499999991
40
0.148437499999991
40
0.15624999999999
40
0.15624999999999
40
0.187499999999989
40
0.187499999999989
40
0.203124999999988
40
0.203124999999988
40
0.218749999999987
40
0.218749999999987
40
0.249999999999986
40
0.249999999999986
40
0.257812499999985
40
0.257812499999985
40
0.265624999999985
40
0.265624999999985
40
0.281249999999984
40
0.281249999999984
40
0.312499999999983
40
0.312499999999983
40
0.320312499999982
40
0.320312499999982
40
0.328124999999982
40
0.328124999999982
40
0.343749999999981
40
0.343749999999981
40
0.37499999999998
40
0.37499999999998
40
0.382812499999979
40
0.382812499999979
40
0.390624999999979
40
0.406249999999978
40
0.406249999999978
40
0.437499999999977
40
0.437499999999977
40
0.445312499999977
40
0.445312499999977
40
0.453124999999977
40
0.468749999999976
40
0.484374999999976
40
0.484374999999976
40
0.492187499999976
40
0.492187499999976
40
0.499999999999976
40
0.499999999999976
40
0.531249999999975
40
0.531249999999975
40
0.546874999999975
40
0.546874999999975
40
0.554687499999975
40
0.554687499999975
40
0.562499999999975
40
0.562499999999975
40
0.593749999999976
40
0.593749999999976
40
0.609374999999976
40
0.609374999999976
40
0.624999999999976
40
0.624999999999976
40
0.640624999999976
40
0.640624999999976
40
0.648437499999976
40
0.648437499999976
40
0.656249999999977
40
0.656249999999977
40
0.687499999999977
40
0.687499999999977
40
0.703124999999978
40
0.703124999999978
40
0.710937499999978
40
0.710937499999978
40
0.718749999999978
40
0.718749999999978
40
0.749999999999979
40
0.749999999999979
40
0.765624999999979
40
0.765624999999979
40
0.77343749999998
40
0.77343749999998
40
0.78124999999998
40
0.78124999999998
40
0.812499999999981
40
0.812499999999981
40
0.828124999999982
40
0.828124999999982
40
0.835937499999983
40
0.835937499999983
40
0.843749999999983
40
0.843749999999983
40
0.874999999999986
40
0.874999999999986
40
0.890624999999987
40
0.890624999999987
40
0.898437499999988
40
0.898437499999988
40
0.906249999999989
40
0.906249999999989
40
0.937499999999993
40
0.937499999999993
40
0.953124999999994
40
0.953124999999994
40
0.968749999999996
40
0.968749999999996
40
1
40
1
40
1
40
1
41
1
10
6.09836381562124
20
13.2997028781473
30
0
41
1
10
6.12574653682628
20
13.3055175232197
30
0
41
1
10
6.15132218203973
20
13.3114497122853
30
0
41
1
10
6.18692368518603
20
13.3205135501461
30
0
41
1
10
6.19832984654215
20
13.323562473591
30
0
41
1
10
6.2202029437733
20
13.3297144419376
30
0
41
1
10
6.23059836320354
20
13.3327975217805
30
0
41
1
10
6.27984345852525
20
13.3482200858172
30
0
41
1
10
6.31064593407385
20
13.3606027909311
30
0
41
1
10
6.3442218206475
20
13.3791694330365
30
0
41
1
10
6.35329680379107
20
13.3853575219192
30
0
41
1
10
6.36365293500327
20
13.3946328122351
30
0
41
1
10
6.3665665020122
20
13.3977311607786
30
0
41
1
10
6.37125207202274
20
13.4038805504401
30
0
41
1
10
6.37302693805159
20
13.4069306735543
30
0
41
1
10
6.3791103318519
20
13.4220596499335
30
0
41
1
10
6.37511074502348
20
13.4337740917509
30
0
41
1
10
6.35594164460215
20
13.4507794376088
30
0
41
1
10
6.34734442480232
20
13.4563534005824
30
0
41
1
10
6.33103491455435
20
13.4645738858782
30
0
41
1
10
6.32502157167175
20
13.4672919494342
30
0
41
1
10
6.31197324123178
20
13.4726278449684
30
0
41
1
10
6.30492574443855
20
13.4752526324805
30
0
41
1
10
6.26711083645463
20
13.4881676466346
30
0
41
1
10
6.22867079978724
20
13.4978341594373
30
0
41
1
10
6.15874692498039
20
13.5114281825765
30
0
41
1
10
6.13338343951381
20
13.5158079666924
30
0
41
1
10
6.07839994261542
20
13.5242729913479
30
0
41
1
10
6.04916709770782
20
13.528298190288
30
0
41
1
10
5.95655326726975
20
13.5397805835725
30
0
41
1
10
5.8882314792036
20
13.5466582358604
30
0
41
1
10
5.7945558567987
20
13.5543849556504
30
0
41
1
10
5.77540403319998
20
13.5558864632849
30
0
41
1
10
5.73625324823411
20
13.5588030757699
30
0
41
1
10
5.71620134854197
20
13.5602216110861
30
0
41
1
10
5.65522659902371
20
13.5643172275574
30
0
41
1
10
5.61348823321995
20
13.5668365992587
30
0
41
1
10
5.48509967788917
20
13.5738094479513
30
0
41
1
10
5.39530057607101
20
13.5776828945628
30
0
41
1
10
5.27771776537875
20
13.5816286853502
30
0
41
1
10
5.25393253348909
20
13.582372619162
30
0
41
1
10
5.20581462445995
20
13.5837701434202
30
0
41
1
10
5.18151962363908
20
13.5844223450585
30
0
41
1
10
5.10854315756202
20
13.5862266951571
30
0
41
1
10
5.05954253331336
20
13.5872338181221
30
0
41
1
10
4.91151657075775
20
13.5896967575059
30
0
41
1
10
4.81147524076798
20
13.5906002467144
30
0
41
1
10
4.68468607625223
20
13.5908078908482
30
0
41
1
10
4.65918532742415
20
13.5908026992709
30
0
41
1
10
4.60827506958717
20
13.5906978288383
30
0
41
1
10
4.53223003262951
20
13.5903996789243
30
0
41
1
10
4.45712615697946
20
13.5896869673444
30
0
41
1
10
4.30814959219848
20
13.5877119931191
30
0
41
1
10
4.21046352167437
20
13.5856690311727
30
0
41
1
10
4.09046575494011
20
13.582123814752
30
0
41
1
10
4.06657081263464
20
13.5813642563822
30
0
41
1
10
4.01947816428472
20
13.5797585030603
30
0
41
1
10
3.94970012626823
20
13.5772145493306
30
0
41
1
10
3.8376303510216
20
13.5722959068974
30
0
41
1
10
3.75242070705781
20
13.5676126758476
30
0
41
1
10
3.69019724054712
20
13.563802327582
30
0
41
1
10
3.66973712182903
20
13.5624824715441
30
0
41
1
10
3.62938680487784
20
13.5597392911588
30
0
41
1
10
3.60946835422916
20
13.5583138256467
30
0
41
1
10
3.51164132348941
20
13.550939451996
30
0
41
1
10
3.44035248725009
20
13.5443616613592
30
0
41
1
10
3.34344814611018
20
13.5333924494382
30
0
41
1
10
3.31282847709505
20
13.5295513545106
30
0
41
1
10
3.26945829515319
20
13.5234929805853
30
0
41
1
10
3.25542874154718
20
13.5214240007389
30
0
41
1
10
3.22823791641434
20
13.5171828386237
30
0
41
1
10
3.21506152576509
20
13.5150073961025
30
0
41
1
10
3.1520009298178
20
13.5039716021341
30
0
41
1
10
3.1099999426354
20
13.4945629944439
30
0
41
1
10
3.05926662768871
20
13.4795110585999
30
0
41
1
10
3.04441242798396
20
13.4743367345334
30
0
41
1
10
3.01889695329595
20
13.463655693502
30
0
41
1
10
3.00822114501128
20
13.4581301017088
30
0
41
1
10
2.99145133817791
20
13.446897403594
30
0
41
1
10
2.98530616570656
20
13.4411755044471
30
0
41
1
10
2.97942791161512
20
13.4324312221296
30
0
41
1
10
2.97802590232038
20
13.4294895459807
30
0
41
1
10
2.97634329880341
20
13.4235517194118
30
0
41
1
10
2.9760636963033
20
13.4205497417633
30
0
41
1
10
2.97749103094844
20
13.4054781748586
30
0
41
1
10
2.98755979283132
20
13.3932746846002
30
0
41
1
10
3.01554908687072
20
13.374782074095
30
0
41
1
10
3.02703959130653
20
13.3685868685924
30
0
41
1
10
3.04756924641327
20
13.3592538450091
30
0
41
1
10
3.05496224814849
20
13.3561361518902
30
0
41
1
10
3.07086676432181
20
13.3498886740401
30
0
41
1
10
3.07939202440755
20
13.346755076949
30
0
41
1
10
3.12440807648414
20
13.3312141749338
30
0
41
1
10
3.16828125535386
20
13.3190683864959
30
0
41
1
10
3.24556549449815
20
13.3013669581998
30
0
41
1
10
3.27325071293328
20
13.2955533688321
30
0
41
1
10
3.31772832238158
20
13.2869810563541
30
0
41
1
10
3.33304655125906
20
13.2841483496983
30
0
41
1
10
3.36468775992123
20
13.2785360552255
30
0
41
1
10
3.3809401570833
20
13.2757693420247
30
0
41
1
10
3.46397134000838
20
13.2621979887314
30
0
41
1
10
3.53636689501454
20
13.2521113295612
30
0
41
1
10
3.65376782499996
20
13.2382447241572
30
0
41
1
10
3.69437800067922
20
13.2338341729377
30
0
41
1
10
3.75756945759918
20
13.2275602661229
30
0
41
1
10
3.77906289943257
20
13.2255216088656
30
0
41
1
10
3.82258076917577
20
13.2215856405038
30
0
41
1
10
3.84455759227441
20
13.2196921482225
30
0
41
1
10
3.95551255665978
20
13.2105966641654
30
0
41
1
10
4.04767816059857
20
13.204503425082
30
0
41
1
10
4.19098383696308
20
13.197216387889
30
0
41
1
10
4.23960014366079
20
13.1950975659722
30
0
41
1
10
4.31383666171229
20
13.1924081358293
30
0
41
1
10
4.33882326090787
20
13.1915931061946
30
0
41
1
10
4.38872398567815
20
13.1901445404245
30
0
41
1
10
4.41370040384078
20
13.1895085324275
30
0
41
1
10
4.5387107510368
20
13.1867651998499
30
0
41
1
10
4.63912645191627
20
13.1859601458524
30
0
41
1
10
4.79035930386789
20
13.1868440556689
30
0
41
1
10
4.84093139477471
20
13.187489984037
30
0
41
1
10
4.9420434166417
20
13.1894979190805
30
0
41
1
10
4.99192161816987
20
13.190845899109
30
0
41
1
10
5.13959057850042
20
13.1958765018191
30
0
41
1
10
5.23543064412726
20
13.2005400158465
30
0
41
1
10
5.32865459088109
20
13.2064687258668
30
0
0
SPLINE
5
186
100
AcDbEntity
8
1
62
256
6
ByLayer
370
18
48
1
60
0
100
AcDbSpline
70
4
71
3
72
8
73
4
40
0
40
0
40
0
40
0
40
1
40
1
40
1
40
1
41
1
10
30.7266359432736
20
13.7323563596406
30
0
41
1
10
30.6868668513932
20
13.7325374450703
30
0
41
1
10
30.646820561004
20
13.7326199298957
30
0
41
1
10
30.6064967020865
20
13.7326057442924
30
0
0
SPLINE
5
187
100
AcDbEntity
8
1
62
256
6
ByLayer
370
18
48
1
60
0
100
AcDbSpline
70
4
71
3
72
8
73
4
40
0
40
0
40
0
40
0
40
1
40
1
40
1
40
1
41
1
10
19.9796750585489
20
13.7289568872729
30
0
41
1
10
20.0445967761739
20
13.7287926716872
30
0
41
1
10
20.1100654591929
20
13.7287207454193
30
0
41
1
10
20.176103796723
20
13.7287463824888
30
0
0
SPLINE
5
188
100
AcDbEntity
8
1
62
256
6
ByLayer
370
18
48
1
60
0
100
AcDbSpline
70
4
71
3
72
14
73
10
40
0
40
0
40
0
40
0
40
0.499999999999987
40
0.499999999999987
40
0.62499999999999
40
0.62499999999999
40
0.749999999999994
40
0.749999999999994
40
1
40
1
40
1
40
1
41
1
10
19.9796750585473
20
13.7289568872729
30
0
41
1
10
19.8572697940668
20
13.7274032923576
30
0
41
1
10
19.7306543379903
20
13.7261427411466
30
0
41
1
10
19.5670412377393
20
13.72505851158
30
0
41
1
10
19.5340106475298
20
13.7248660035389
30
0
41
1
10
19.4675659091849
20
13.7245338743516
30
0
41
1
10
19.4342770524014
20
13.7243948186824
30
0
41
1
10
19.3342124346954
20
13.7240601158769
30
0
41
1
10
19.2672391272316
20
13.7239469871883
30
0
41
1
10
19.2000000000001
20
13.7239469871883
30
0
0
SPLINE
5
189
100
AcDbEntity
8
1
62
256
6
ByLayer
370
18
48
1
60
0
100
AcDbSpline
70
4
71
3
72
99
73
95
40
0
40
0
40
0
40
0
40
0.0312500000000004
40
0.0312500000000004
40
0.0625000000000008
40
0.0625000000000008
40
0.070312500000001
40
0.070312500000001
40
0.0781250000000013
40
0.0781250000000013
40
0.0937500000000019
40
0.0937500000000019
40
0.125000000000003
40
0.156250000000004
40
0.156250000000004
40
0.171875000000005
40
0.171875000000005
40
0.187500000000006
40
0.187500000000006
40
0.218750000000007
40
0.218750000000007
40
0.250000000000008
40
0.250000000000008
40
0.265625000000009
40
0.273437500000009
40
0.273437500000009
40
0.28125000000001
40
0.28125000000001
40
0.312500000000011
40
0.312500000000011
40
0.343750000000012
40
0.375000000000013
40
0.375000000000013
40
0.382812500000013
40
0.382812500000013
40
0.390625000000014
40
0.390625000000014
40
0.406250000000014
40
0.406250000000014
40
0.437500000000014
40
0.468750000000014
40
0.468750000000014
40
0.476562500000014
40
0.476562500000014
40
0.484375000000014
40
0.484375000000014
40
0.500000000000014
40
0.500000000000014
40
0.531250000000013
40
0.562500000000012
40
0.562500000000012
40
0.578125000000012
40
0.578125000000012
40
0.585937500000011
40
0.585937500000011
40
0.593750000000011
40
0.593750000000011
40
0.62500000000001
40
0.656250000000009
40
0.656250000000009
40
0.671875000000009
40
0.679687500000008
40
0.679687500000008
40
0.687500000000008
40
0.687500000000008
40
0.718750000000007
40
0.718750000000007
40
0.750000000000006
40
0.750000000000006
40
0.781250000000005
40
0.781250000000005
40
0.789062500000005
40
0.789062500000005
40
0.796875000000005
40
0.796875000000005
40
0.812500000000004
40
0.812500000000004
40
0.843750000000004
40
0.875000000000003
40
0.875000000000003
40
0.882812500000003
40
0.882812500000003
40
0.890625000000003
40
0.890625000000003
40
0.906250000000002
40
0.906250000000002
40
0.937500000000002
40
0.968750000000001
40
0.968750000000001
40
0.984375
40
0.984375
40
0.9921875
40
0.9921875
40
1
40
1
40
1
40
1
41
1
10
-8.91769489613463
20
12.1823051038654
30
0
41
1
10
-8.76627631769327
20
12.1718321764484
30
0
41
1
10
-8.61330709318595
20
12.1634234750169
30
0
41
1
10
-8.30427466400914
20
12.1508241252941
30
0
41
1
10
-8.14821166790264
20
12.1466331335229
30
0
41
1
10
-7.95114096176843
20
12.1441418557813
30
0
41
1
10
-7.91162696314456
20
12.1437812087649
30
0
41
1
10
-7.83239671131847
20
12.1433389100254
30
0
41
1
10
-7.79274417117514
20
12.1432580276535
30
0
41
1
10
-7.67419699738468
20
12.14343393783
30
0
41
1
10
-7.59550672956198
20
12.1441077437479
30
0
41
1
10
-7.36043833326855
20
12.1477612518382
30
0
41
1
10
-7.04968165056431
20
12.1569793989742
30
0
41
1
10
-6.74416905072826
20
12.1746330119833
30
0
41
1
10
-6.51703016005214
20
12.1910045151232
30
0
41
1
10
-6.44165044448826
20
12.1969842031764
30
0
41
1
10
-6.29157071052762
20
12.2099914403459
30
0
41
1
10
-6.21753647225242
20
12.2169615034195
30
0
41
1
10
-5.99856426110051
20
12.2391843214248
30
0
41
1
10
-5.85665929474175
20
12.2557546525928
30
0
41
1
10
-5.58074770471256
20
12.2921130778023
30
0
41
1
10
-5.44674163846372
20
12.3119017136422
30
0
41
1
10
-5.25166239512711
20
12.3438417804877
30
0
41
1
10
-5.15560820508168
20
12.3603769849456
30
0
41
1
10
-5.06181087243812
20
12.3777383011273
30
0
41
1
10
-4.99978605879787
20
12.3894942142882
30
0
41
1
10
-4.96905375109154
20
12.3954583823192
30
0
41
1
10
-4.81756258002898
20
12.4255454233095
30
0
41
1
10
-4.70258739400649
20
12.4505970483396
30
0
41
1
10
-4.48458410738331
20
12.5023506553373
30
0
41
1
10
-4.27853082735157
20
12.5557559425484
30
0
41
1
10
-4.09621584437403
20
12.6119752719357
30
0
41
1
10
-3.98988380353126
20
12.6478730808767
30
0
41
1
10
-3.96897154632828
20
12.6551008145799
30
0
41
1
10
-3.92811814574566
20
12.6695588622088
30
0
41
1
10
-3.90816369026868
20
12.6767931568978
30
0
41
1
10
-3.84970026872574
20
12.6985067679179
30
0
41
1
10
-3.81259024927075
20
12.7129967265834
30
0
41
1
10
-3.70676024308338
20
12.7564718925626
30
0
41
1
10
-3.58029109789234
20
12.814450822423
30
0
41
1
10
-3.48280264404568
20
12.8721137398742
30
0
41
1
10
-3.43113437803154
20
12.9079671974174
30
0
41
1
10
-3.42126504032879
20
12.9151286508027
30
0
41
1
10
-3.40246510522769
20
12.9294311375201
30
0
41
1
10
-3.39352447637913
20
12.9365807619195
30
0
41
1
10
-3.36820244871461
20
12.9579335465055
30
0
41
1
10
-3.35336046406672
20
12.9720020166398
30
0
41
1
10
-3.31483614008647
20
13.0137013580225
30
0
41
1
10
-3.27944326027239
20
13.0679506766639
30
0
41
1
10
-3.27555531190302
20
13.1194456783278
30
0
41
1
10
-3.28466914758368
20
13.1570166681422
30
0
41
1
10
-3.28971600331016
20
13.1693653094511
30
0
41
1
10
-3.30036430212101
20
13.1876237728391
30
0
41
1
10
-3.30443271255325
20
13.1936730637662
30
0
41
1
10
-3.31358293452607
20
13.2056482891943
30
0
41
1
10
-3.31865670015293
20
13.2115656782704
30
0
41
1
10
-3.34649321193248
20
13.2408078377238
30
0
41
1
10
-3.40678492982309
20
13.2853909484339
30
0
41
1
10
-3.49793171637691
20
13.3258499001083
30
0
41
1
10
-3.57798905841477
20
13.3547354388428
30
0
41
1
10
-3.62094762309786
20
13.3688133340413
30
0
41
1
10
-3.66837836742548
20
13.3823584248824
30
0
41
1
10
-3.7010052690114
20
13.3912715693198
30
0
41
1
10
-3.71784774465382
20
13.3956760430695
30
0
41
1
10
-3.80423901767537
20
13.4173183043544
30
0
41
1
10
-3.88021933934809
20
13.4334078901364
30
0
41
1
10
-4.04550309438767
20
13.4634198112875
30
0
41
1
10
-4.13480754734772
20
13.4773416080257
30
0
41
1
10
-4.32676404483436
20
13.50324216884
30
0
41
1
10
-4.42941477114908
20
13.5152206592413
30
0
41
1
10
-4.56635674268671
20
13.5290924155178
30
0
41
1
10
-4.59421486837189
20
13.5318149268664
30
0
41
1
10
-4.65049984062208
20
13.5371236995405
30
0
41
1
10
-4.67895074765235
20
13.5397126603626
30
0
41
1
10
-4.76521854298858
20
13.5472912655178
30
0
41
1
10
-4.82394986646986
20
13.5520928018273
30
0
41
1
10
-5.0037446656404
20
13.5658022618993
30
0
41
1
10
-5.25305422150072
20
13.5822322547225
30
0
41
1
10
-5.52139130650644
20
13.5954565196929
30
0
41
1
10
-5.6951998135068
20
13.6028310386573
30
0
41
1
10
-5.7302672217057
20
13.6042612640375
30
0
41
1
10
-5.80102057737852
20
13.6070345282319
30
0
41
1
10
-5.83672591877439
20
13.6083780915849
30
0
41
1
10
-5.94413559986032
20
13.6122585669019
30
0
41
1
10
-6.01633754067097
20
13.6146537869494
30
0
41
1
10
-6.23469435765409
20
13.621309446041
30
0
41
1
10
-6.53049670016759
20
13.6287756976054
30
0
41
1
10
-6.83547954657362
20
13.6337671004132
30
0
41
1
10
-7.06772115523233
20
13.6366470560555
30
0
41
1
10
-7.1457202932215
20
13.6374625036186
30
0
41
1
10
-7.26361602241852
20
13.6384711332626
30
0
41
1
10
-7.30303270569803
20
13.6387711500346
30
0
41
1
10
-7.38170009955795
20
13.6392970478966
30
0
41
1
10
-7.4210065500267
20
13.6395234267433
30
0
41
1
10
-7.46028604702281
20
13.6397139529772
30
0
0
SPLINE
5
18A
100
AcDbEntity
8
1
62
256
6
ByLayer
370
18
48
1
60
0
100
AcDbSpline
70
4
71
3
72
24
73
20
40
0
40
0
40
0
40
0
40
0.0625000000000002
40
0.0625000000000002
40
0.125
40
0.125
40
0.250000000000001
40
0.250000000000001
40
0.500000000000002
40
0.500000000000002
40
0.625000000000001
40
0.625000000000001
40
0.750000000000001
40
0.750000000000001
40
0.875
40
0.875
40
0.9375
40
0.9375
40
1
40
1
40
1
40
1
41
1
10
8.18325005084313
20
1.375
30
0
41
1
10
8.21853700027165
20
1.37500000000014
30
0
41
1
10
8.25383026963328
20
1.37448212281282
30
0
41
1
10
8.32428466057078
20
1.37250726085432
30
0
41
1
10
8.35946861218784
20
1.37105019673194
30
0
41
1
10
8.46490157827952
20
1.36538785892685
30
0
41
1
10
8.53503222804696
20
1.35989713107367
30
0
41
1
10
8.74501392661981
20
1.33896957797444
30
0
41
1
10
8.88446138808339
20
1.31914974833532
30
0
41
1
10
9.09294013897741
20
1.28190001265941
30
0
41
1
10
9.1623160869498
20
1.26821313755272
30
0
41
1
10
9.30082849752577
20
1.2382385490213
30
0
41
1
10
9.36996572421103
20
1.22195913360991
30
0
41
1
10
9.50796477158406
20
1.18640936235903
30
0
41
1
10
9.5768294038281
20
1.16716954034024
30
0
41
1
10
9.67983612175576
20
1.13515787177107
30
0
41
1
10
9.71412267930853
20
1.12395500613684
30
0
41
1
10
9.78256194503379
20
1.10009565538809
30
0
41
1
10
9.81671601196933
20
1.08745392659529
30
0
41
1
10
9.85076599721131
20
1.07368185878306
30
0
0
SPLINE
5
18B
100
AcDbEntity
8
1
62
256
6
ByLayer
370
18
48
1
60
0
100
AcDbSpline
70
4
71
3
72
18
73
14
40
0
40
0
40
0
40
0
40
0.250000000000006
40
0.250000000000006
40
0.500000000000013
40
0.500000000000013
40
0.625000000000009
40
0.625000000000009
40
0.750000000000006
40
0.750000000000006
40
0.875000000000003
40
0.875000000000003
40
1
40
1
40
1
40
1
41
1
10
8.97509300113904
20
-0.269594177821347
30
0
41
1
10
9.01152644313692
20
-0.276266358807106
30
0
41
1
10
9.04786915185497
20
-0.282718617451991
30
0
41
1
10
9.12036847898457
20
-0.294911325240093
30
0
41
1
10
9.15652522117634
20
-0.300657493979827
30
0
41
1
10
9.21061352336176
20
-0.308394804813759
30
0
41
1
10
9.2286184412612
20
-0.310825062109671
30
0
41
1
10
9.26457702835458
20
-0.315286220540855
30
0
41
1
10
9.28248929533834
20
-0.317312073862979
30
0
41
1
10
9.31797101305719
20
-0.320786465321106
30
0
41
1
10
9.33556537132938
20
-0.322240606437305
30
0
41
1
10
9.37037734087883
20
-0.324333802126603
30
0
41
1
10
9.38759768040057
20
-0.324980947161663
30
0
41
1
10
9.40454881002665
20
-0.324980947161663
30
0
0
SPLINE
5
18C
100
AcDbEntity
8
1
62
256
6
ByLayer
370
18
48
1
60
0
100
AcDbSpline
70
4
71
3
72
8
73
4
40
0
40
0
40
0
40
0
40
1
40
1
40
1
40
1
41
1
10
15.2430820962789
20
0.129903810567669
30
0
41
1
10
15.4272614047863
20
0.311558795575991
30
0
41
1
10
15.6113958293851
20
0.493259035270967
30
0
41
1
10
15.7954898626159
20
0.675000000000011
30
0
0
SPLINE
5
18D
100
AcDbEntity
8
1
62
256
6
ByLayer
370
18
48
1
60
0
100
AcDbSpline
70
4
71
3
72
8
73
4
40
0
40
0
40
0
40
0
40
1
40
1
40
1
40
1
41
1
10
14.8184692127086
20
-0.249980947161674
30
0
41
1
10
14.9604945734528
20
-0.123759749017154
30
0
41
1
10
15.1020216400389
20
0.0028773178347024
30
0
41
1
10
15.2430820962789
20
0.129903810567669
30
0
0
SPLINE
5
18E
100
AcDbEntity
8
1
62
256
6
ByLayer
370
18
48
1
60
0
100
AcDbSpline
70
4
71
3
72
18
73
14
40
0
40
0
40
0
40
0
40
0.124999999999999
40
0.124999999999999
40
0.249999999999998
40
0.249999999999998
40
0.500000000000002
40
0.500000000000002
40
0.625000000000001
40
0.625000000000001
40
0.750000000000001
40
0.750000000000001
40
1
40
1
40
1
40
1
41
1
10
14.7171680292953
20
-0.32498094716172
30
0
41
1
10
14.7186893510728
20
-0.32498094716172
30
0
41
1
10
14.7207746365131
20
-0.324388699392443
30
0
41
1
10
14.7259716490943
20
-0.322125675212874
30
0
41
1
10
14.729075461519
20
-0.320451985953838
30
0
41
1
10
14.7393963271011
20
-0.314194627055087
30
0
41
1
10
14.7478183865456
20
-0.308259492032192
30
0
41
1
10
14.7614560038651
20
-0.29790260373386
30
0
41
1
10
14.7661922846909
20
-0.294192871663853
30
0
41
1
10
14.7760027492335
20
-0.286317935978389
30
0
41
1
10
14.7810985572145
20
-0.282134384874752
30
0
41
1
10
14.7967015141747
20
-0.269079983040143
30
0
41
1
10
14.8074408879534
20
-0.25978207251589
30
0
41
1
10
14.8184692127086
20
-0.249980947161674
30
0
0
SPLINE
5
18F
100
AcDbEntity
8
1
62
256
6
ByLayer
370
18
48
1
60
0
100
AcDbSpline
70
4
71
3
72
12
73
8
40
0
40
0
40
0
40
0
40
0.358938353212408
40
0.358938353212408
40
0.717876706424815
40
0.717876706424815
40
1
40
1
40
1
40
1
41
1
10
9.13284665391035
20
-0.324980947161691
30
0
41
1
10
9.14372986087079
20
-0.324980947161691
30
0
41
1
10
9.15494813398627
20
-0.324297936900479
30
0
41
1
10
9.17785494090333
20
-0.321962244275824
30
0
41
1
10
9.18954659679824
20
-0.320303380455783
30
0
41
1
10
9.21076689725157
20
-0.316635418411295
30
0
41
1
10
9.22018631298101
20
-0.314781589375485
30
0
41
1
10
9.22962551724979
20
-0.312730672053561
30
0
0
SPLINE
5
190
100
AcDbEntity
8
1
62
256
6
ByLayer
370
18
48
1
60
0
100
AcDbSpline
70
4
71
3
72
30
73
26
40
0
40
0
40
0
40
0
40
0.0726020300667286
40
0.0726020300667286
40
0.138844742204821
40
0.171966098273867
40
0.171966098273867
40
0.205087454342914
40
0.205087454342914
40
0.337572878619101
40
0.337572878619101
40
0.403815590757193
40
0.436936946826238
40
0.436936946826238
40
0.470058302895283
40
0.470058302895283
40
0.602543727171456
40
0.602543727171456
40
0.668786439309544
40
0.701907795378589
40
0.701907795378589
40
0.735029151447633
40
0.735029151447633
40
0.867514575723816
40
1
40
1
40
1
40
1
41
1
10
16.6201042148054
20
13.7501539159219
30
0
41
1
10
16.6421745194487
20
13.7501449725578
30
0
41
1
10
16.6671484813408
20
13.7499994637828
30
0
41
1
10
16.7203732234535
20
13.7494884481272
30
0
41
1
10
16.7620500259713
20
13.7489705192929
30
0
41
1
10
16.8091947301803
20
13.7482485782098
30
0
41
1
10
16.8418614801305
20
13.7477246670826
30
0
41
1
10
16.8588458732092
20
13.7474408005155
30
0
41
1
10
16.9461263472542
20
13.7459359120147
30
0
41
1
10
17.0238806217012
20
13.7444532334745
30
0
41
1
10
17.1520281576589
20
13.7420039837375
30
0
41
1
10
17.2189960815626
20
13.7407226466916
30
0
41
1
10
17.290369411528
20
13.7393904099499
30
0
41
1
10
17.3389474175922
20
13.7384947277506
30
0
41
1
10
17.363794167081
20
13.7380420561294
30
0
41
1
10
17.4896724502685
20
13.7357854121145
30
0
41
1
10
17.5955407846333
20
13.7340036913729
30
0
41
1
10
17.7618228301628
20
13.7315349635247
30
0
41
1
10
17.8468436301012
20
13.7303511078232
30
0
41
1
10
17.934721436618
20
13.7292719206749
30
0
41
1
10
17.9939519118836
20
13.7285788572335
30
0
41
1
10
18.023942894384
20
13.7282449720657
30
0
41
1
10
18.1749200560192
20
13.7266559099952
30
0
41
1
10
18.4200795233744
20
13.7246591240652
30
0
41
1
10
18.672156266037
20
13.7239469871883
30
0
41
1
10
18.8000000000001
20
13.7239469871883
30
0
0
SPLINE
5
191
100
AcDbEntity
8
1
62
256
6
ByLayer
370
18
48
1
60
0
100
AcDbSpline
70
4
71
3
72
79
73
75
40
0
40
0
40
0
40
0
40
0.0040764104712846
40
0.0040764104712846
40
0.0351990226440564
40
0.0351990226440564
40
0.0507603287304423
40
0.0507603287304423
40
0.0663216348168282
40
0.0663216348168282
40
0.128566859162372
40
0.128566859162372
40
0.159689471335144
40
0.159689471335144
40
0.17525077742153
40
0.17525077742153
40
0.183031430464722
40
0.183031430464722
40
0.190812083507916
40
0.190812083507916
40
0.253057307853459
40
0.253057307853459
40
0.284179920026232
40
0.284179920026232
40
0.299741226112618
40
0.299741226112618
40
0.315302532199004
40
0.315302532199004
40
0.377547756544549
40
0.377547756544549
40
0.393109062630935
40
0.400889715674128
40
0.400889715674128
40
0.408670368717321
40
0.408670368717321
40
0.439792980890094
40
0.439792980890094
40
0.502038205235639
40
0.502038205235639
40
0.517599511322025
40
0.517599511322025
40
0.533160817408411
40
0.533160817408411
40
0.564283429581184
40
0.564283429581184
40
0.626528653926729
40
0.626528653926729
40
0.642089960013115
40
0.642089960013115
40
0.657651266099502
40
0.657651266099502
40
0.688773878272274
40
0.719896490445047
40
0.719896490445047
40
0.735457796531433
40
0.743238449574626
40
0.743238449574626
40
0.75101910261782
40
0.75101910261782
40
0.813264326963364
40
0.813264326963364
40
0.844386939136137
40
0.844386939136137
40
0.859948245222523
40
0.859948245222523
40
0.875509551308909
40
0.875509551308909
40
0.937754775654455
40
0.937754775654455
40
0.968877387827227
40
0.968877387827227
40
0.984438693913614
40
0.984438693913614
40
1
40
1
40
1
40
1
41
1
10
-2.6242891870688
20
13.750154180785
30
0
41
1
10
-2.62404165937869
20
13.7501541174341
30
0
41
1
10
-2.62372953286146
20
13.7501504590612
30
0
41
1
10
-2.62047771692915
20
13.7500878475048
30
0
41
1
10
-2.61385693845142
20
13.7498238372898
30
0
41
1
10
-2.59834701148691
20
13.7491240774868
30
0
41
1
10
-2.592245744536
20
13.7488401981299
30
0
41
1
10
-2.57816918447668
20
13.7481727238676
30
0
41
1
10
-2.57018019139539
20
13.7477884623453
30
0
41
1
10
-2.52564744590731
20
13.7456293674052
30
0
41
1
10
-2.47593382683695
20
13.7431657391948
30
0
41
1
10
-2.38104175401827
20
13.7386039332399
30
0
41
1
10
-2.34600186335484
20
13.7369387205109
30
0
41
1
10
-2.28823125522226
20
13.7342535118207
30
0
41
1
10
-2.26810455084063
20
13.7333272179897
30
0
41
1
10
-2.23658447336368
20
13.7318947552384
30
0
41
1
10
-2.22585410432845
20
13.7314100235872
30
0
41
1
10
-2.20406252978791
20
13.7304321311927
30
0
41
1
10
-2.19298764583022
20
13.7299383459686
30
0
41
1
10
-2.09171774878436
20
13.7254548680613
30
0
41
1
10
-1.99044608617379
20
13.7211903479826
30
0
41
1
10
-1.82200995258236
20
13.7147122842515
30
0
41
1
10
-1.76309236900141
20
13.712539178571
30
0
41
1
10
-1.67044020758652
20
13.7093016928156
30
0
41
1
10
-1.6387777375235
20
13.7082242352505
30
0
41
1
10
-1.57464032906938
20
13.70610515864
30
0
41
1
10
-1.54210490533649
20
13.7050613123905
30
0
41
1
10
-1.37713302419127
20
13.6999362836176
30
0
41
1
10
-1.23786997268371
20
13.6961380766534
30
0
41
1
10
-1.05471091369162
20
13.6920102247672
30
0
41
1
10
-0.999076780838379
20
13.6908183592254
30
0
41
1
10
-0.942397158849872
20
13.689703197401
30
0
41
1
10
-0.904375902904036
20
13.688977594811
30
0
41
1
10
-0.885223155050056
20
13.6886232830553
30
0
41
1
10
-0.789287002935282
20
13.6869057340418
30
0
41
1
10
-0.711865192312047
20
13.6857017127194
30
0
41
1
10
-0.477643096833503
20
13.6826306059164
30
0
41
1
10
-0.31890227317237
20
13.6813044015944
30
0
41
1
10
-0.11718875902227
20
13.680646510206
30
0
41
1
10
-0.076680382396944
20
13.680564928187
30
0
41
1
10
0.0046742998615912
20
13.6805042833978
30
0
41
1
10
0.0453339372149912
20
13.6805255271797
30
0
41
1
10
0.166674525162705
20
13.6807410348981
30
0
41
1
10
0.246965251259269
20
13.6810868370582
30
0
41
1
10
0.486069220831126
20
13.6827037013417
30
0
41
1
10
0.643129307022747
20
13.6845546581285
30
0
41
1
10
0.836434890118454
20
13.6877434443859
30
0
41
1
10
0.874995022208054
20
13.688426117388
30
0
41
1
10
0.951020325162176
20
13.6898607495389
30
0
41
1
10
0.988579347946171
20
13.690614118998
30
0
41
1
10
1.09991829758874
20
13.6929732263227
30
0
41
1
10
1.24480750034093
20
13.6963826555622
30
0
41
1
10
1.38267292352145
20
13.7002248313702
30
0
41
1
10
1.48340891889743
20
13.7032331050004
30
0
41
1
10
1.53311011104492
20
13.7047688797476
30
0
41
1
10
1.581795784826
20
13.7063452135896
30
0
41
1
10
1.61402480158679
20
13.7074043276776
30
0
41
1
10
1.63004194057973
20
13.7079385750511
30
0
41
1
10
1.7724690657646
20
13.7127566725846
30
0
41
1
10
1.88783821539909
20
13.7171385025184
30
0
41
1
10
2.0446489364783
20
13.723519625684
30
0
41
1
10
2.09419431040177
20
13.7256149867507
30
0
41
1
10
2.16434236286207
20
13.7286678482625
30
0
41
1
10
2.18702894282524
20
13.7296704249044
30
0
41
1
10
2.23098198875019
20
13.7316381011509
30
0
41
1
10
2.25212290927129
20
13.732597586145
30
0
41
1
10
2.35337127213836
20
13.737243481519
30
0
41
1
10
2.4205974085516
20
13.7404917383739
30
0
41
1
10
2.5011533680098
20
13.7444184810039
30
0
41
1
10
2.52460355107885
20
13.7455698972839
30
0
41
1
10
2.55452476507895
20
13.747029607896
30
0
41
1
10
2.56362205269636
20
13.7474716014718
30
0
41
1
10
2.57986908852146
20
13.7482538534182
30
0
41
1
10
2.5870467936009
20
13.7485954822845
30
0
41
1
10
2.59329394249099
20
13.7488871687701
30
0
0
SPLINE
5
192
100
AcDbEntity
8
1
62
256
6
ByLayer
370
18
48
1
60
0
100
AcDbSpline
70
4
71
3
72
41
73
37
40
0
40
0
40
0
40
0
40
0.0625000000000027
40
0.0625000000000027
40
0.0937500000000039
40
0.0937500000000039
40
0.125000000000005
40
0.125000000000005
40
0.250000000000008
40
0.250000000000008
40
0.28125000000001
40
0.28125000000001
40
0.312500000000012
40
0.312500000000012
40
0.375000000000017
40
0.375000000000017
40
0.500000000000026
40
0.500000000000026
40
0.531250000000028
40
0.531250000000028
40
0.56250000000003
40
0.56250000000003
40
0.625000000000031
40
0.687500000000032
40
0.687500000000032
40
0.71875000000003
40
0.71875000000003
40
0.750000000000029
40
0.750000000000029
40
0.875000000000016
40
0.875000000000016
40
0.906250000000013
40
0.906250000000013
40
0.93750000000001
40
0.93750000000001
40
1
40
1
40
1
40
1
41
1
10
20.7500000000001
20
7.41300903833258
30
0
41
1
10
20.7500000000001
20
7.46661433285499
30
0
41
1
10
20.7524704438665
20
7.52019870962701
30
0
41
1
10
20.7599274022778
20
7.60054351182799
30
0
41
1
10
20.7630462926099
20
7.62735246205347
30
0
41
1
10
20.7704880575652
20
7.68052904429524
30
0
41
1
10
20.7748138913921
20
7.70694585302459
30
0
41
1
10
20.7994266084101
20
7.83818416597441
30
0
41
1
10
20.8285818562404
20
7.94049180130426
30
0
41
1
10
20.8770322802083
20
8.06497296427634
30
0
41
1
10
20.8873278739024
20
8.08969755643312
30
0
41
1
10
20.909156159781
20
8.13879606691481
30
0
41
1
10
20.9207107134683
20
8.16320693346108
30
0
41
1
10
20.9569016334385
20
8.23517723431274
30
0
41
1
10
20.9831521222931
20
8.28170127384902
30
0
41
1
10
21.068180710804
20
8.41696835187616
30
0
41
1
10
21.133172778238
20
8.5014496628294
30
0
41
1
10
21.2253974178366
20
8.59951776039063
30
0
41
1
10
21.2443485086226
20
8.61869499987949
30
0
41
1
10
21.2829707053304
20
8.6558933204459
30
0
41
1
10
21.3026827638083
20
8.67395851287608
30
0
41
1
10
21.3630114961121
20
8.72656593465405
30
0
41
1
10
21.4466242301935
20
8.79248170951539
30
0
41
1
10
21.5366143918831
20
8.84990451681441
30
0
41
1
10
21.6065806841501
20
8.88967737751582
30
0
41
1
10
21.6303828057138
20
8.90241754152174
30
0
41
1
10
21.6784784386869
20
8.92658928253931
30
0
41
1
10
21.7027415363038
20
8.93801077319034
30
0
41
1
10
21.8251173718219
20
8.99184588448219
30
0
41
1
10
21.9263797036448
20
9.02453953218452
30
0
41
1
10
22.0572221559259
20
9.05224578754655
30
0
41
1
10
22.0836058579526
20
9.05712287343022
30
0
41
1
10
22.1368135692533
20
9.06551821144492
30
0
41
1
10
22.163563431209
20
9.06902060783619
30
0
41
1
10
22.2435565632809
20
9.077377096205
30
0
41
1
10
22.2968134137869
20
9.08013046159272
30
0
41
1
10
22.3500000000001
20
9.08013046159272
30
0
0
SPLINE
5
193
100
AcDbEntity
8
1
62
256
6
ByLayer
370
18
48
1
60
0
100
AcDbSpline
70
4
71
3
72
8
73
4
40
0
40
0
40
0
40
0
40
1
40
1
40
1
40
1
41
1
10
29.3803630000002
20
11.6789799257577
30
0
41
1
10
29.5035753403905
20
11.6789798358621
30
0
41
1
10
29.6267876725032
20
11.6789797377835
30
0
41
1
10
29.7500000000001
20
11.678979631522
30
0
0
SPLINE
5
194
100
AcDbEntity
8
1
62
256
6
ByLayer
370
18
48
1
60
0
100
AcDbSpline
70
4
71
3
72
8
73
4
40
0
40
0
40
0
40
0
40
1
40
1
40
1
40
1
41
1
10
29.7500000000001
20
11.678979631522
30
0
41
1
10
30.8583333364495
20
11.6789786756664
30
0
41
1
10
31.9666666713863
20
11.6789770577325
30
0
41
1
10
33.0750000000001
20
11.6789747776199
30
0
0
SPLINE
5
195
100
AcDbEntity
8
1
62
256
6
ByLayer
370
18
48
1
60
0
100
AcDbSpline
70
4
71
3
72
8
73
4
40
0
40
0
40
0
40
0
40
1
40
1
40
1
40
1
41
1
10
34.8227590928256
20
11.5968734192832
30
0
41
1
10
34.8357631246238
20
11.5935963394319
30
0
41
1
10
34.8490607875048
20
11.5916450256526
30
0
41
1
10
34.8624323856724
20
11.5910317369504
30
0
0
SPLINE
5
196
100
AcDbEntity
8
1
62
256
6
ByLayer
370
18
48
1
60
0
100
AcDbSpline
70
4
71
3
72
8
73
4
40
0
40
0
40
0
40
0
40
1
40
1
40
1
40
1
41
1
10
34.8624323856591
20
13.9263216804384
30
0
41
1
10
34.8490608709806
20
13.9257976823397
30
0
41
1
10
34.8357630337703
20
13.9239351366382
30
0
41
1
10
34.8227590928242
20
13.9207449120247
30
0
0
SPLINE
5
197
100
AcDbEntity
8
1
62
256
6
ByLayer
370
18
48
1
60
0
100
AcDbSpline
70
4
71
3
72
8
73
4
40
0
40
0
40
0
40
0
40
1
40
1
40
1
40
1
41
1
10
19.837567614328
20
13.9263216804389
30
0
41
1
10
19.8509391290104
20
13.9257976823404
30
0
41
1
10
19.8642369662248
20
13.9239351366395
30
0
41
1
10
19.8772409071746
20
13.920744912025
30
0
0
SPLINE
5
198
100
AcDbEntity
8
1
62
256
6
ByLayer
370
18
48
1
60
0
100
AcDbSpline
70
4
71
2
72
6
73
3
40
0
40
0
40
0
40
1
40
1
40
1
41
1.03186391735993
10
37.1500000000001
20
11.4976392619224
30
0
41
0.729637973226922
10
37.3500000000001
20
11.4976392619224
30
0
41
1.03186391735993
10
37.3500000000001
20
11.6976145884188
30
0
0
SPLINE
5
199
100
AcDbEntity
8
1
62
256
6
ByLayer
370
18
48
1
60
0
100
AcDbSpline
70
4
71
2
72
6
73
3
40
0
40
0
40
0
40
1
40
1
40
1
41
1.03186391735993
10
36.9058058418606
20
11.5050991478138
30
0
41
1.03138264657361
10
37.0277889468057
20
11.4976392619224
30
0
41
1.03186391735993
10
37.1500000000001
20
11.4976392619224
30
0
0
SPLINE
5
19A
100
AcDbEntity
8
1
62
256
6
ByLayer
370
18
48
1
60
0
100
AcDbSpline
70
4
71
2
72
6
73
3
40
0
40
0
40
0
40
1
40
1
40
1
41
1.03186391735993
10
17.3500000000001
20
13.8026938303772
30
0
41
0.729637973226921
10
17.3500000000001
20
14.0026691568735
30
0
41
1.03186391735993
10
17.5500000000001
20
14.0026691568735
30
0
0
SPLINE
5
19B
100
AcDbEntity
8
1
62
256
6
ByLayer
370
18
48
1
60
0
100
AcDbSpline
70
4
71
2
72
6
73
3
40
0
40
0
40
0
40
1
40
1
40
1
41
1.03186391735993
10
37.3500000000001
20
13.8026938303772
30
0
41
0.729637973226922
10
37.3500000000001
20
14.0026691568735
30
0
41
1.03186391735993
10
37.1500000000001
20
14.0026691568736
30
0
0
SPLINE
5
19C
100
AcDbEntity
8
1
62
256
6
ByLayer
370
18
48
1
60
0
100
AcDbSpline
70
4
71
2
72
6
73
3
40
0
40
0
40
0
40
1
40
1
40
1
41
1.03186391735993
10
37.1500000000001
20
14.0026691568736
30
0
41
1.03138264657361
10
37.0277889468057
20
14.0026691568736
30
0
41
1.03186391735993
10
36.9058058418606
20
13.9952092709822
30
0
0
SPLINE
5
19D
100
AcDbEntity
8
1
62
256
6
ByLayer
370
18
48
1
60
0
100
AcDbSpline
70
4
71
2
72
6
73
3
40
0
40
0
40
0
40
1
40
1
40
1
41
1.03186391735993
10
17.5500000000001
20
14.0026691568735
30
0
41
1.03138264657361
10
17.6722110531944
20
14.0026691568735
30
0
41
1.03186391735993
10
17.7941941581395
20
13.9952092709822
30
0
0
SPLINE
5
19E
100
AcDbEntity
8
1
62
256
6
ByLayer
370
18
48
1
60
0
100
AcDbSpline
70
4
71
3
72
8
73
4
40
0
40
0
40
0
40
0
40
1
40
1
40
1
40
1
41
1
10
34.4970209999963
20
11.6789714888553
30
0
41
1
10
34.0230142425694
20
11.6789727062163
30
0
41
1
10
33.5490072515109
20
11.6789738024712
30
0
41
1
10
33.0750000000001
20
11.6789747776199
30
0
0
LINE
5
7D
100
AcDbEntity
8
81
62
256
6
ByLayer
370
18
48
1
60
0
100
AcDbLine
10
37.35
20
14
30
0
11
42.35
21
14
31
0
39
0
210
0
220
0
230
1
0
LINE
5
7E
100
AcDbEntity
8
80
62
256
6
ByLayer
370
18
48
1
60
0
100
AcDbLine
10
0
20
0
30
0
11
0
21
-5
31
0
39
0
210
0
220
0
230
1
0
LINE
5
7F
100
AcDbEntity
8
1
62
256
6
ByLayer
370
18
48
1
60
0
100
AcDbLine
10
16
20
0.675
30
0
11
16
21
0.875
31
0
39
0
210
0
220
0
230
1
0
LINE
5
80
100
AcDbEntity
8
1
62
256
6
ByLayer
370
18
48
1
60
0
100
AcDbLine
10
16.639228
20
13.750154
30
0
11
12.183603
21
13.750154
31
0
39
0
210
0
220
0
230
1
0
LINE
5
81
100
AcDbEntity
8
1
62
256
6
ByLayer
370
18
48
1
60
0
100
AcDbLine
10
-2.618483
20
13.750154
30
0
11
-7.349846
21
13.750154
31
0
39
0
210
0
220
0
230
1
0
LINE
5
82
100
AcDbEntity
8
1
62
256
6
ByLayer
370
18
48
1
60
0
100
AcDbLine
10
6.742324
20
-0.324981
30
0
11
9.132847
21
-0.324981
31
0
39
0
210
0
220
0
230
1
0
LINE
5
83
100
AcDbEntity
8
1
62
256
6
ByLayer
370
18
48
1
60
0
100
AcDbLine
10
36.55
20
11.526853
30
0
11
36.55
21
11.14333
31
0
39
0
210
0
220
0
230
1
0
LINE
5
84
100
AcDbEntity
8
1
62
256
6
ByLayer
370
18
48
1
60
0
100
AcDbLine
10
31.246268
20
11.592036
30
0
11
27.465763
21
11.592036
31
0
39
0
210
0
220
0
230
1
0
LINE
5
85
100
AcDbEntity
8
1
62
256
6
ByLayer
370
18
48
1
60
0
100
AcDbLine
10
9.404549
20
-0.324981
30
0
11
9.476736
21
-0.324981
31
0
39
0
210
0
220
0
230
1
0
LINE
5
86
100
AcDbEntity
8
1
62
256
6
ByLayer
370
18
48
1
60
0
100
AcDbLine
10
34.829637
20
11.595494
30
0
11
32.164639
21
11.595494
31
0
39
0
210
0
220
0
230
1
0
LINE
5
87
100
AcDbEntity
8
1
62
256
6
ByLayer
370
18
48
1
60
0
100
AcDbLine
10
32.164639
20
11.595494
30
0
11
32.16385
21
11.678981
31
0
39
0
210
0
220
0
230
1
0
LINE
5
88
100
AcDbEntity
8
1
62
256
6
ByLayer
370
18
48
1
60
0
100
AcDbLine
10
31.246268
20
11.592036
30
0
11
31.245446
21
11.67899
31
0
39
0
210
0
220
0
230
1
0
LINE
5
89
100
AcDbEntity
8
1
62
256
6
ByLayer
370
18
48
1
60
0
100
AcDbLine
10
7.189383
20
-0.25
30
0
11
9.530813
21
-0.25
31
0
39
0
210
0
220
0
230
1
0
LINE
5
8A
100
AcDbEntity
8
1
62
256
6
ByLayer
370
18
48
1
60
0
100
AcDbLine
10
9.57055
20
-0.324981
30
0
11
14.717168
21
-0.324981
31
0
39
0
210
0
220
0
230
1
0
LINE
5
8B
100
AcDbEntity
8
1
62
256
6
ByLayer
370
13
48
1
60
0
100
AcDbLine
10
7.154174
20
-0.249981
30
0
11
14.818469
21
-0.249981
31
0
39
0
210
0
220
0
230
1
0
LINE
5
8C
100
AcDbEntity
8
1
62
256
6
ByLayer
370
18
48
1
60
0
100
AcDbLine
10
15.243082
20
0.129904
30
0
11
7.769151
21
0.129904
31
0
39
0
210
0
220
0
230
1
0
LINE
5
8D
100
AcDbEntity
8
1
62
256
6
ByLayer
370
13
48
1
60
0
100
AcDbLine
10
22.35
20
11.161327
30
0
11
22.35
21
9.08013
31
0
39
0
210
0
220
0
230
1
0
LINE
5
8E
100
AcDbEntity
8
1
62
256
6
ByLayer
370
18
48
1
60
0
100
AcDbLine
10
-14.075019
20
-0.249981
30
0
11
-14.000019
21
-0.324981
31
0
39
0
210
0
220
0
230
1
0
LINE
5
8F
100
AcDbEntity
8
1
62
256
6
ByLayer
370
18
48
1
60
0
100
AcDbLine
10
-14.000019
20
-0.324981
30
0
11
-13.791283
21
-0.324981
31
0
39
0
210
0
220
0
230
1
0
LINE
5
90
100
AcDbEntity
8
1
62
256
6
ByLayer
370
18
48
1
60
0
100
AcDbLine
10
-11.023511
20
-0.324981
30
0
11
-10.810081
21
-0.324981
31
0
39
0
210
0
220
0
230
1
0
LINE
5
91
100
AcDbEntity
8
1
62
256
6
ByLayer
370
18
48
1
60
0
100
AcDbLine
10
-10.247062
20
-0.324981
30
0
11
-9.769771
21
-0.324981
31
0
39
0
210
0
220
0
230
1
0
LINE
5
92
100
AcDbEntity
8
1
62
256
6
ByLayer
370
18
48
1
60
0
100
AcDbLine
10
-14.559331
20
0.234331
30
0
11
-14.075019
21
-0.249981
31
0
39
0
210
0
220
0
230
1
0
LINE
5
93
100
AcDbEntity
8
1
62
256
6
ByLayer
370
13
48
1
60
0
100
AcDbLine
10
-14.075019
20
-0.249981
30
0
11
-13.927309
21
-0.249981
31
0
39
0
210
0
220
0
230
1
0
LINE
5
94
100
AcDbEntity
8
1
62
256
6
ByLayer
370
18
48
1
60
0
100
AcDbLine
10
-13.703327
20
-0.324981
30
0
11
-13.048061
21
-0.324981
31
0
39
0
210
0
220
0
230
1
0
LINE
5
95
100
AcDbEntity
8
1
62
256
6
ByLayer
370
18
48
1
60
0
100
AcDbLine
10
-11.287197
20
-0.324981
30
0
11
-11.132078
21
-0.324981
31
0
39
0
210
0
220
0
230
1
0
LINE
5
96
100
AcDbEntity
8
1
62
256
6
ByLayer
370
13
48
1
60
0
100
AcDbLine
10
-13.72716
20
-0.249981
30
0
11
-13.206552
21
-0.249981
31
0
39
0
210
0
220
0
230
1
0
LINE
5
97
100
AcDbEntity
8
1
62
256
6
ByLayer
370
13
48
1
60
0
100
AcDbLine
10
-14.265575
20
0.394519
30
0
11
-14.125544
21
0.394519
31
0
39
0
210
0
220
0
230
1
0
LINE
5
98
100
AcDbEntity
8
1
62
256
6
ByLayer
370
18
48
1
60
0
100
AcDbLine
10
-12.9317
20
-0.324981
30
0
11
-12.074956
21
-0.324981
31
0
39
0
210
0
220
0
230
1
0
LINE
5
99
100
AcDbEntity
8
1
62
256
6
ByLayer
370
13
48
1
60
0
100
AcDbLine
10
-12.941904
20
-0.249981
30
0
11
-12.261918
21
-0.249981
31
0
39
0
210
0
220
0
230
1
0
LINE
5
9A
100
AcDbEntity
8
1
62
256
6
ByLayer
370
13
48
1
60
0
100
AcDbLine
10
-13.470275
20
0.394519
30
0
11
-13.288685
21
0.394519
31
0
39
0
210
0
220
0
230
1
0
LINE
5
9B
100
AcDbEntity
8
1
62
256
6
ByLayer
370
18
48
1
60
0
100
AcDbLine
10
-11.923781
20
-0.324981
30
0
11
-11.287177
21
-0.324981
31
0
39
0
210
0
220
0
230
1
0
LINE
5
9C
100
AcDbEntity
8
1
62
256
6
ByLayer
370
13
48
1
60
0
100
AcDbLine
10
-11.918509
20
-0.249981
30
0
11
-11.153931
21
-0.249981
31
0
39
0
210
0
220
0
230
1
0
LINE
5
9D
100
AcDbEntity
8
1
62
256
6
ByLayer
370
13
48
1
60
0
100
AcDbLine
10
-12.44548
20
0.394519
30
0
11
-12.212601
21
0.394519
31
0
39
0
210
0
220
0
230
1
0
LINE
5
9E
100
AcDbEntity
8
1
62
256
6
ByLayer
370
18
48
1
60
0
100
AcDbLine
10
-10.612458
20
-0.324981
30
0
11
-10.247044
21
-0.324981
31
0
39
0
210
0
220
0
230
1
0
LINE
5
9F
100
AcDbEntity
8
1
62
256
6
ByLayer
370
18
48
1
60
0
100
AcDbLine
10
-11.023467
20
-0.324981
30
0
11
-11.132078
21
-0.324981
31
0
39
0
210
0
220
0
230
1
0
LINE
5
A0
100
AcDbEntity
8
1
62
256
6
ByLayer
370
18
48
1
60
0
100
AcDbLine
10
-9.404549
20
-0.324981
30
0
11
-9.769771
21
-0.324981
31
0
39
0
210
0
220
0
230
1
0
LINE
5
A1
100
AcDbEntity
8
1
62
256
6
ByLayer
370
13
48
1
60
0
100
AcDbLine
10
-10.588147
20
-0.249981
30
0
11
-9.966378
21
-0.249981
31
0
39
0
210
0
220
0
230
1
0
LINE
5
A2
100
AcDbEntity
8
1
62
256
6
ByLayer
370
13
48
1
60
0
100
AcDbLine
10
-11.127967
20
0.394519
30
0
11
-10.826097
21
0.394519
31
0
39
0
210
0
220
0
230
1
0
LINE
5
A3
100
AcDbEntity
8
1
62
256
6
ByLayer
370
18
48
1
60
0
100
AcDbLine
10
-8.864082
20
-0.324981
30
0
11
-6.742347
21
-0.324981
31
0
39
0
210
0
220
0
230
1
0
LINE
5
A4
100
AcDbEntity
8
1
62
256
6
ByLayer
370
18
48
1
60
0
100
AcDbLine
10
-7.460286
20
13.639714
30
0
11
-8.922118
21
12.177882
31
0
39
0
210
0
220
0
230
1
0
LINE
5
A5
100
AcDbEntity
8
1
62
256
6
ByLayer
370
13
48
1
60
0
100
AcDbLine
10
-8.812878
20
-0.249981
30
0
11
-7.153914
21
-0.249981
31
0
39
0
210
0
220
0
230
1
0
LINE
5
A6
100
AcDbEntity
8
1
62
256
6
ByLayer
370
18
48
1
60
0
100
AcDbLine
10
10.59418
20
0.675
30
0
11
9.824412
21
0.675
31
0
39
0
210
0
220
0
230
1
0
LINE
5
A7
100
AcDbEntity
8
1
62
256
6
ByLayer
370
18
48
1
60
0
100
AcDbLine
10
10.913529
20
1.375
30
0
11
11.14147
21
1.375
31
0
39
0
210
0
220
0
230
1
0
LINE
5
A8
100
AcDbEntity
8
1
62
256
6
ByLayer
370
18
48
1
60
0
100
AcDbLine
10
10.59418
20
0.675
30
0
11
10.59418
21
0.875
31
0
39
0
210
0
220
0
230
1
0
LINE
5
A9
100
AcDbEntity
8
1
62
256
6
ByLayer
370
18
48
1
60
0
100
AcDbLine
10
6.098364
20
13.054902
30
0
11
6.098364
21
13.299703
31
0
39
0
210
0
220
0
230
1
0
LINE
5
AA
100
AcDbEntity
8
1
62
256
6
ByLayer
370
18
48
1
60
0
100
AcDbLine
10
11.14147
20
12.042144
30
0
11
11.14147
21
1.375
31
0
39
0
210
0
220
0
230
1
0
LINE
5
AB
100
AcDbEntity
8
1
62
256
6
ByLayer
370
18
48
1
60
0
100
AcDbLine
10
17.984833
20
1.375
30
0
11
11.14147
21
1.375
31
0
39
0
210
0
220
0
230
1
0
LINE
5
AC
100
AcDbEntity
8
1
62
256
6
ByLayer
370
18
48
1
60
0
100
AcDbLine
10
17.984833
20
1.375
30
0
11
17.984833
21
2.759654
31
0
39
0
210
0
220
0
230
1
0
LINE
5
AD
100
AcDbEntity
8
1
62
256
6
ByLayer
370
18
48
1
60
0
100
AcDbLine
10
17.984833
20
1.375
30
0
11
20.75
21
1.375
31
0
39
0
210
0
220
0
230
1
0
LINE
5
AE
100
AcDbEntity
8
1
62
256
6
ByLayer
370
18
48
1
60
0
100
AcDbLine
10
20.75
20
1.375
30
0
11
20.75
21
9.350712
31
0
39
0
210
0
220
0
230
1
0
LINE
5
AF
100
AcDbEntity
8
1
62
256
6
ByLayer
370
18
48
1
60
0
100
AcDbLine
10
27.6
20
13.533444
30
0
11
27.6
21
11.599641
31
0
39
0
210
0
220
0
230
1
0
LINE
5
B0
100
AcDbEntity
8
1
62
256
6
ByLayer
370
18
48
1
60
0
100
AcDbLine
10
17.984833
20
9.240531
30
0
11
17.984833
21
12.042144
31
0
39
0
210
0
220
0
230
1
0
LINE
5
B1
100
AcDbEntity
8
1
62
256
6
ByLayer
370
13
48
1
60
0
100
AcDbLine
10
-9.395388
20
0.394519
30
0
11
-8.986711
21
0.394519
31
0
39
0
210
0
220
0
230
1
0
LINE
5
B2
100
AcDbEntity
8
1
62
256
6
ByLayer
370
18
48
1
60
0
100
AcDbLine
10
-6.326108
20
-0.324981
30
0
11
-1.735923
21
-0.324981
31
0
39
0
210
0
220
0
230
1
0
LINE
5
B3
100
AcDbEntity
8
1
62
256
6
ByLayer
370
18
48
1
60
0
100
AcDbLine
10
1.735923
20
-0.324981
30
0
11
6.326108
21
-0.324981
31
0
39
0
210
0
220
0
230
1
0
LINE
5
B4
100
AcDbEntity
8
1
62
256
6
ByLayer
370
13
48
1
60
0
100
AcDbLine
10
-6.222926
20
-0.249981
30
0
11
-3.020453
21
-0.249981
31
0
39
0
210
0
220
0
230
1
0
LINE
5
B5
100
AcDbEntity
8
1
62
256
6
ByLayer
370
13
48
1
60
0
100
AcDbLine
10
3.020453
20
-0.249981
30
0
11
6.222926
21
-0.249981
31
0
39
0
210
0
220
0
230
1
0
LINE
5
B6
100
AcDbEntity
8
1
62
256
6
ByLayer
370
13
48
1
60
0
100
AcDbLine
10
-6.943702
20
0.394519
30
0
11
-6.310523
21
0.394519
31
0
39
0
210
0
220
0
230
1
0
LINE
5
B7
100
AcDbEntity
8
1
62
256
6
ByLayer
370
13
48
1
60
0
100
AcDbLine
10
6.310523
20
0.394519
30
0
11
6.943702
21
0.394519
31
0
39
0
210
0
220
0
230
1
0
LINE
5
B8
100
AcDbEntity
8
1
62
256
6
ByLayer
370
13
48
1
60
0
100
AcDbLine
10
-1.912242
20
0.394519
30
0
11
1.912242
21
0.394519
31
0
39
0
210
0
220
0
230
1
0
LINE
5
B9
100
AcDbEntity
8
1
62
256
6
ByLayer
370
18
48
1
60
0
100
AcDbLine
10
-13.703327
20
-0.324981
30
0
11
-13.791289
21
-0.324981
31
0
39
0
210
0
220
0
230
1
0
LINE
5
BA
100
AcDbEntity
8
1
62
256
6
ByLayer
370
18
48
1
60
0
100
AcDbLine
10
-12.9317
20
-0.324981
30
0
11
-13.048064
21
-0.324981
31
0
39
0
210
0
220
0
230
1
0
LINE
5
BB
100
AcDbEntity
8
1
62
256
6
ByLayer
370
18
48
1
60
0
100
AcDbLine
10
-11.923781
20
-0.324981
30
0
11
-12.074944
21
-0.324981
31
0
39
0
210
0
220
0
230
1
0
LINE
5
BC
100
AcDbEntity
8
1
62
256
6
ByLayer
370
18
48
1
60
0
100
AcDbLine
10
-10.612458
20
-0.324981
30
0
11
-10.810022
21
-0.324981
31
0
39
0
210
0
220
0
230
1
0
LINE
5
BD
100
AcDbEntity
8
1
62
256
6
ByLayer
370
18
48
1
60
0
100
AcDbLine
10
-8.864082
20
-0.324981
30
0
11
-9.132847
21
-0.324981
31
0
39
0
210
0
220
0
230
1
0
LINE
5
BE
100
AcDbEntity
8
1
62
256
6
ByLayer
370
18
48
1
60
0
100
AcDbLine
10
-6.326108
20
-0.324981
30
0
11
-6.742492
21
-0.324981
31
0
39
0
210
0
220
0
230
1
0
LINE
5
BF
100
AcDbEntity
8
1
62
256
6
ByLayer
370
18
48
1
60
0
100
AcDbLine
10
1.735945
20
-0.324981
30
0
11
-1.735945
21
-0.324981
31
0
39
0
210
0
220
0
230
1
0
LINE
5
C0
100
AcDbEntity
8
1
62
256
6
ByLayer
370
18
48
1
60
0
100
AcDbLine
10
6.742492
20
-0.324981
30
0
11
6.326108
21
-0.324981
31
0
39
0
210
0
220
0
230
1
0
LINE
5
C1
100
AcDbEntity
8
1
62
256
6
ByLayer
370
18
48
1
60
0
100
AcDbLine
10
-15
20
0.675
30
0
11
-15
21
0.875
31
0
39
0
210
0
220
0
230
1
0
LINE
5
C2
100
AcDbEntity
8
1
62
256
6
ByLayer
370
18
48
1
60
0
100
AcDbLine
10
-15
20
0.675
30
0
11
8.423936
21
0.675
31
0
39
0
210
0
220
0
230
1
0
LINE
5
C3
100
AcDbEntity
8
1
62
256
6
ByLayer
370
18
48
1
60
0
100
AcDbLine
10
8.423936
20
0.675
30
0
11
9.824471
21
0.675
31
0
39
0
210
0
220
0
230
1
0
LINE
5
C4
100
AcDbEntity
8
1
62
256
6
ByLayer
370
18
48
1
60
0
100
AcDbLine
10
9.824471
20
0.875
30
0
11
9.824471
21
0.675
31
0
39
0
210
0
220
0
230
1
0
LINE
5
C5
100
AcDbEntity
8
1
62
256
6
ByLayer
370
13
48
1
60
0
100
AcDbLine
10
9.824471
20
0.875
30
0
11
-15
21
0.875
31
0
39
0
210
0
220
0
230
1
0
LINE
5
C6
100
AcDbEntity
8
1
62
256
6
ByLayer
370
18
48
1
60
0
100
AcDbLine
10
6.461
20
1.375
30
0
11
3.827205
21
1.375
31
0
39
0
210
0
220
0
230
1
0
LINE
5
C7
100
AcDbEntity
8
1
62
256
6
ByLayer
370
18
48
1
60
0
100
AcDbLine
10
0
20
1.092945
30
0
11
-15
21
1.092945
31
0
39
0
210
0
220
0
230
1
0
LINE
5
C8
100
AcDbEntity
8
1
62
256
6
ByLayer
370
13
48
1
60
0
100
AcDbLine
10
0
20
10.962563
30
0
11
0
21
1.092945
31
0
39
0
210
0
220
0
230
1
0
LINE
5
C9
100
AcDbEntity
8
1
62
256
6
ByLayer
370
18
48
1
60
0
100
AcDbLine
10
-9.199562
20
11.900438
30
0
11
-15
21
6.1
31
0
39
0
210
0
220
0
230
1
0
LINE
5
CA
100
AcDbEntity
8
1
62
256
6
ByLayer
370
18
48
1
60
0
100
AcDbLine
10
-15
20
6.1
30
0
11
-15
21
1.092945
31
0
39
0
210
0
220
0
230
1
0
LINE
5
CB
100
AcDbEntity
8
1
62
256
6
ByLayer
370
18
48
1
60
0
100
AcDbLine
10
6.461
20
10.962563
30
0
11
0
21
10.962563
31
0
39
0
210
0
220
0
230
1
0
LINE
5
CC
100
AcDbEntity
8
1
62
256
6
ByLayer
370
18
48
1
60
0
100
AcDbLine
10
17.984833
20
12.042144
30
0
11
11.14147
21
12.042144
31
0
39
0
210
0
220
0
230
1
0
LINE
5
CD
100
AcDbEntity
8
1
62
256
6
ByLayer
370
18
48
1
60
0
100
AcDbLine
10
18.8
20
13.723947
30
0
11
19.2
21
13.723947
31
0
39
0
210
0
220
0
230
1
0
LINE
5
CE
100
AcDbEntity
8
1
62
256
6
ByLayer
370
18
48
1
60
0
100
AcDbLine
10
-8.917695
20
12.182305
30
0
11
-9.199562
21
11.900438
31
0
39
0
210
0
220
0
230
1
0
LINE
5
CF
100
AcDbEntity
8
1
62
256
6
ByLayer
370
18
48
1
60
0
100
AcDbLine
10
6.461
20
10.962563
30
0
11
6.461
21
1.375
31
0
39
0
210
0
220
0
230
1
0
LINE
5
D0
100
AcDbEntity
8
1
62
256
6
ByLayer
370
18
48
1
60
0
100
AcDbLine
10
8.18325
20
1.375
30
0
11
6.461
21
1.375
31
0
39
0
210
0
220
0
230
1
0
LINE
5
D1
100
AcDbEntity
8
1
62
256
6
ByLayer
370
18
48
1
60
0
100
AcDbLine
10
9.850766
20
1.073682
30
0
11
9.850766
21
12.039314
31
0
39
0
210
0
220
0
230
1
0
LINE
5
D2
100
AcDbEntity
8
1
62
256
6
ByLayer
370
18
48
1
60
0
100
AcDbLine
10
16
20
0.675
30
0
11
10.59418
21
0.675
31
0
39
0
210
0
220
0
230
1
0
LINE
5
D3
100
AcDbEntity
8
1
62
256
6
ByLayer
370
13
48
1
60
0
100
AcDbLine
10
16
20
0.875
30
0
11
10.59418
21
0.875
31
0
39
0
210
0
220
0
230
1
0
LINE
5
D4
100
AcDbEntity
8
1
62
256
6
ByLayer
370
18
48
1
60
0
100
AcDbLine
10
-7.460286
20
13.639714
30
0
11
-7.349846
21
13.750154
31
0
39
0
210
0
220
0
230
1
0
LINE
5
D5
100
AcDbEntity
8
1
62
256
6
ByLayer
370
18
48
1
60
0
100
AcDbLine
10
22.35
20
9.08013
30
0
11
30.892043
21
9.08013
31
0
39
0
210
0
220
0
230
1
0
LINE
5
D6
100
AcDbEntity
8
1
62
256
6
ByLayer
370
18
48
1
60
0
100
AcDbLine
10
35.199374
20
11.575578
30
0
11
35.983187
21
11.561522
31
0
39
0
210
0
220
0
230
1
0
LINE
5
D7
100
AcDbEntity
8
1
62
256
6
ByLayer
370
18
48
1
60
0
100
AcDbLine
10
35.983187
20
11.561522
30
0
11
35.983187
21
13.938786
31
0
39
0
210
0
220
0
230
1
0
LINE
5
D8
100
AcDbEntity
8
1
62
256
6
ByLayer
370
18
48
1
60
0
100
AcDbLine
10
18.716813
20
13.724164
30
0
11
18.716813
21
13.938786
31
0
39
0
210
0
220
0
230
1
0
LINE
5
D9
100
AcDbEntity
8
1
62
256
6
ByLayer
370
13
48
1
60
0
100
AcDbLine
10
34.632766
20
12.759443
30
0
11
31.099942
21
12.759443
31
0
39
0
210
0
220
0
230
1
0
LINE
5
DA
100
AcDbEntity
8
1
62
256
6
ByLayer
370
13
48
1
60
0
100
AcDbLine
10
31.021821
20
12.958925
30
0
11
33.9827
21
12.958925
31
0
39
0
210
0
220
0
230
1
0
LINE
5
DB
100
AcDbEntity
8
1
62
256
6
ByLayer
370
13
48
1
60
0
100
AcDbLine
10
33.9827
20
12.564303
30
0
11
31.002545
21
12.564303
31
0
39
0
210
0
220
0
230
1
0
LINE
5
DC
100
AcDbEntity
8
1
62
256
6
ByLayer
370
13
48
1
60
0
100
AcDbLine
10
31.015466
20
12.962492
30
0
11
33.938491
21
12.962492
31
0
39
0
210
0
220
0
230
1
0
LINE
5
DD
100
AcDbEntity
8
1
62
256
6
ByLayer
370
13
48
1
60
0
100
AcDbLine
10
30.996318
20
12.561031
30
0
11
33.938491
21
12.561031
31
0
39
0
210
0
220
0
230
1
0
LINE
5
DE
100
AcDbEntity
8
1
62
256
6
ByLayer
370
13
48
1
60
0
100
AcDbLine
10
30.92099
20
13.014716
30
0
11
33.351033
21
13.014716
31
0
39
0
210
0
220
0
230
1
0
LINE
5
DF
100
AcDbEntity
8
1
62
256
6
ByLayer
370
13
48
1
60
0
100
AcDbLine
10
30.90955
20
12.512729
30
0
11
33.351033
21
12.512729
31
0
39
0
210
0
220
0
230
1
0
LINE
5
E0
100
AcDbEntity
8
1
62
256
6
ByLayer
370
13
48
1
60
0
100
AcDbLine
10
30.885782
20
13.133371
30
0
11
32.843277
21
13.133371
31
0
39
0
210
0
220
0
230
1
0
LINE
5
E1
100
AcDbEntity
8
1
62
256
6
ByLayer
370
13
48
1
60
0
100
AcDbLine
10
30.750274
20
13.643392
30
0
11
32.051381
21
13.643392
31
0
39
0
210
0
220
0
230
1
0
LINE
5
E2
100
AcDbEntity
8
1
62
256
6
ByLayer
370
13
48
1
60
0
100
AcDbLine
10
32.090837
20
13.593813
30
0
11
30.763402
21
13.593813
31
0
39
0
210
0
220
0
230
1
0
LINE
5
E3
100
AcDbEntity
8
1
62
256
6
ByLayer
370
13
48
1
60
0
100
AcDbLine
10
30.875139
20
12.397466
30
0
11
32.843277
21
12.397466
31
0
39
0
210
0
220
0
230
1
0
LINE
5
E4
100
AcDbEntity
8
1
62
256
6
ByLayer
370
13
48
1
60
0
100
AcDbLine
10
30.739106
20
11.942048
30
0
11
32.090837
21
11.942048
31
0
39
0
210
0
220
0
230
1
0
LINE
5
E5
100
AcDbEntity
8
1
62
256
6
ByLayer
370
18
48
1
60
0
100
AcDbLine
10
19.500626
20
13.724702
30
0
11
19.500626
21
13.939526
31
0
39
0
210
0
220
0
230
1
0
LINE
5
E6
100
AcDbEntity
8
1
62
256
6
ByLayer
370
18
48
1
60
0
100
AcDbLine
10
22.648619
20
13.767939
30
0
11
22.648619
21
13.729695
31
0
39
0
210
0
220
0
230
1
0
LINE
5
E7
100
AcDbEntity
8
1
62
256
6
ByLayer
370
13
48
1
60
0
100
AcDbLine
10
34.13391
20
11.757391
30
0
11
34.044849
21
11.76153
31
0
39
0
210
0
220
0
230
1
0
LINE
5
E8
100
AcDbEntity
8
1
62
256
6
ByLayer
370
18
48
1
60
0
100
AcDbLine
10
32.051381
20
13.767939
30
0
11
32.051381
21
13.643392
31
0
39
0
210
0
220
0
230
1
0
LINE
5
E9
100
AcDbEntity
8
1
62
256
6
ByLayer
370
18
48
1
60
0
100
AcDbLine
10
32.090837
20
13.593813
30
0
11
32.843277
21
13.133371
31
0
39
0
210
0
220
0
230
1
0
LINE
5
EA
100
AcDbEntity
8
1
62
256
6
ByLayer
370
18
48
1
60
0
100
AcDbLine
10
33.938491
20
12.962492
30
0
11
33.9827
21
12.958925
31
0
39
0
210
0
220
0
230
1
0
LINE
5
EB
100
AcDbEntity
8
1
62
256
6
ByLayer
370
18
48
1
60
0
100
AcDbLine
10
33.9827
20
12.564303
30
0
11
33.938491
21
12.561031
31
0
39
0
210
0
220
0
230
1
0
LINE
5
EC
100
AcDbEntity
8
1
62
256
6
ByLayer
370
18
48
1
60
0
100
AcDbLine
10
32.843277
20
12.397466
30
0
11
32.090837
21
11.942048
31
0
39
0
210
0
220
0
230
1
0
LINE
5
ED
100
AcDbEntity
8
1
62
256
6
ByLayer
370
18
48
1
60
0
100
AcDbLine
10
34.044849
20
11.76153
30
0
11
32.051381
21
11.768185
31
0
39
0
210
0
220
0
230
1
0
LINE
5
EE
100
AcDbEntity
8
1
62
256
6
ByLayer
370
18
48
1
60
0
100
AcDbLine
10
34.292478
20
11.730507
30
0
11
34.822759
21
11.596873
31
0
39
0
210
0
220
0
230
1
0
LINE
5
EF
100
AcDbEntity
8
1
62
256
6
ByLayer
370
18
48
1
60
0
100
AcDbLine
10
34.862432
20
11.591032
30
0
11
35.199374
21
11.575578
31
0
39
0
210
0
220
0
230
1
0
LINE
5
F0
100
AcDbEntity
8
1
62
256
6
ByLayer
370
18
48
1
60
0
100
AcDbLine
10
35.199374
20
11.575578
30
0
11
35.199374
21
13.939526
31
0
39
0
210
0
220
0
230
1
0
LINE
5
F1
100
AcDbEntity
8
1
62
256
6
ByLayer
370
18
48
1
60
0
100
AcDbLine
10
32.051381
20
11.892732
30
0
11
32.051381
21
11.768185
31
0
39
0
210
0
220
0
230
1
0
LINE
5
F2
100
AcDbEntity
8
1
62
256
6
ByLayer
370
13
48
1
60
0
100
AcDbLine
10
32.051381
20
11.892732
30
0
11
30.724416
21
11.892732
31
0
39
0
210
0
220
0
230
1
0
LINE
5
F3
100
AcDbEntity
8
1
62
256
6
ByLayer
370
18
48
1
60
0
100
AcDbLine
10
30.687246
20
11.768185
30
0
11
32.051381
21
11.768185
31
0
39
0
210
0
220
0
230
1
0
LINE
5
F4
100
AcDbEntity
8
1
62
256
6
ByLayer
370
18
48
1
60
0
100
AcDbLine
10
19.877241
20
13.920745
30
0
11
20.407522
21
13.790652
31
0
39
0
210
0
220
0
230
1
0
LINE
5
F5
100
AcDbEntity
8
1
62
256
6
ByLayer
370
18
48
1
60
0
100
AcDbLine
10
34.822759
20
13.920745
30
0
11
34.292478
21
13.790652
31
0
39
0
210
0
220
0
230
1
0
LINE
5
F6
100
AcDbEntity
8
1
62
256
6
ByLayer
370
18
48
1
60
0
100
AcDbLine
10
37.35
20
11.697615
30
0
11
37.35
21
13.802694
31
0
39
0
210
0
220
0
230
1
0
LINE
5
F7
100
AcDbEntity
8
1
62
256
6
ByLayer
370
18
48
1
60
0
100
AcDbLine
10
17.35
20
13.738292
30
0
11
17.35
21
13.802694
31
0
39
0
210
0
220
0
230
1
0
LINE
5
F8
100
AcDbEntity
8
1
62
256
6
ByLayer
370
18
48
1
60
0
100
AcDbLine
10
35.983187
20
11.561522
30
0
11
36.905806
21
11.505099
31
0
39
0
210
0
220
0
230
1
0
LINE
5
F9
100
AcDbEntity
8
1
62
256
6
ByLayer
370
18
48
1
60
0
100
AcDbLine
10
18.716813
20
13.938786
30
0
11
19.500626
21
13.939526
31
0
39
0
210
0
220
0
230
1
0
LINE
5
FA
100
AcDbEntity
8
1
62
256
6
ByLayer
370
18
48
1
60
0
100
AcDbLine
10
19.500626
20
13.939526
30
0
11
19.837568
21
13.926322
31
0
39
0
210
0
220
0
230
1
0
LINE
5
FB
100
AcDbEntity
8
1
62
256
6
ByLayer
370
18
48
1
60
0
100
AcDbLine
10
17.794194
20
13.995209
30
0
11
18.716813
21
13.938786
31
0
39
0
210
0
220
0
230
1
0
LINE
5
FC
100
AcDbEntity
8
1
62
256
6
ByLayer
370
18
48
1
60
0
100
AcDbLine
10
35.199374
20
13.939526
30
0
11
34.862432
21
13.926322
31
0
39
0
210
0
220
0
230
1
0
LINE
5
FD
100
AcDbEntity
8
1
62
256
6
ByLayer
370
18
48
1
60
0
100
AcDbLine
10
35.983187
20
13.938786
30
0
11
35.199374
21
13.939526
31
0
39
0
210
0
220
0
230
1
0
LINE
5
FE
100
AcDbEntity
8
1
62
256
6
ByLayer
370
18
48
1
60
0
100
AcDbLine
10
36.905806
20
13.995209
30
0
11
35.983187
21
13.938786
31
0
39
0
210
0
220
0
230
1
0
LINE
5
FF
100
AcDbEntity
8
1
62
256
6
ByLayer
370
18
48
1
60
0
100
AcDbLine
10
32.051381
20
13.767939
30
0
11
22.648619
21
13.767939
31
0
39
0
210
0
220
0
230
1
0
LINE
5
100
100
AcDbEntity
8
1
62
256
6
ByLayer
370
18
48
1
60
0
100
AcDbLine
10
32.051381
20
13.767939
30
0
11
34.044849
21
13.761283
31
0
39
0
210
0
220
0
230
1
0
LINE
5
101
100
AcDbEntity
8
1
62
256
6
ByLayer
370
18
48
1
60
0
100
AcDbLine
10
22.648619
20
13.767939
30
0
11
20.655151
21
13.761283
31
0
39
0
210
0
220
0
230
1
0
MTEXT
5
19F
100
AcDbEntity
8
SK6
62
256
6
ByLayer
370
18
48
1
60
0
100
AcDbMText
10
-21.1395
20
-49.710395
30
0
210
0
220
0
230
1
1
\W0.7869;C2A-SL32-LGF15A-090GB
40
3.5
41
0
44
1.084337
50
0
71
7
72
5
7
iso_b_vert
0
DIMENSION
5
1A4
100
AcDbEntity
8
2
62
256
6
ByLayer
370
18
48
1
60
0
100
AcDbDimension
2
_U0
10
37.35
20
-19.75
30
0
11
18.675
21
-19.75
31
0
70
32
71
1
72
1
41
1
210
0
220
0
230
1
3
Standard
100
AcDbAlignedDimension
13
0
23
0
33
0
14
37.35
24
14
34
0
50
0
100
AcDbRotatedDimension
1001
ACAD
1000
DSTYLE
1002
{
1070
   371
1070
    13
1070
   372
1070
    13
1070
   170
1070
     0
1070
   144
1040
1.0
1070
   277
1070
     2
1070
   284
1070
     8
1070
   278
1070
    46
1070
   146
1040
1.0
1070
   345
1005
16
1070
   347
1005
16
1070
   346
1005
16
1070
   344
1005
0
1070
   343
1005
0
1070
   172
1070
     1
1070
    76
1070
     0
1070
    75
1070
     0
1070
   282
1070
     0
1070
   281
1070
     0
1070
    71
1070
     0
1070
    74
1070
     0
1070
   279
1070
     0
1070
   173
1070
     1
1070
   340
1005
1A0
1070
   271
1070
     2
1070
   272
1070
     2
1070
    77
1070
     1
1070
    73
1070
     1
1070
   171
1070
     3
1070
   274
1070
     4
1070
   177
1070
     2
1070
   176
1070
     2
1070
   178
1070
     2
1070
    78
1070
     8
1070
    48
1040
-0.1
1070
    41
1040
3.5
1070
   147
1040
1.75
1070
    42
1040
1.5875
1070
    44
1040
2.0
1070
   140
1040
3.5
1002
}
1001
ACAD_DSTYLE_DIM_LINETYPE
1070
   380
1005
16
1001
ACAD_DSTYLE_DIM_EXT1_LINETYPE
1070
   381
1005
16
1001
ACAD_DSTYLE_DIM_EXT2_LINETYPE
1070
   382
1005
16
0
DIMENSION
5
1BE
100
AcDbEntity
8
2
62
256
6
ByLayer
370
18
48
1
60
0
100
AcDbDimension
2
_U1
10
37.35
20
-11.75
30
0
11
29.85
21
-11.75
31
0
70
32
71
1
72
1
41
1
210
0
220
0
230
1
3
Standard
100
AcDbAlignedDimension
13
22.35
23
11.750154
33
0
14
37.35
24
14
34
0
50
0
100
AcDbRotatedDimension
1001
ACAD
1000
DSTYLE
1002
{
1070
   371
1070
    13
1070
   372
1070
    13
1070
   170
1070
     0
1070
   144
1040
1.0
1070
   277
1070
     2
1070
   284
1070
     8
1070
   278
1070
    46
1070
   146
1040
1.0
1070
   345
1005
16
1070
   347
1005
16
1070
   346
1005
16
1070
   344
1005
0
1070
   343
1005
0
1070
   172
1070
     1
1070
    76
1070
     0
1070
    75
1070
     0
1070
   282
1070
     0
1070
   281
1070
     0
1070
    71
1070
     0
1070
    74
1070
     0
1070
   279
1070
     0
1070
   173
1070
     1
1070
   340
1005
1A0
1070
   271
1070
     2
1070
   272
1070
     2
1070
    77
1070
     1
1070
    73
1070
     1
1070
   171
1070
     3
1070
   274
1070
     4
1070
   177
1070
     2
1070
   176
1070
     2
1070
   178
1070
     2
1070
    78
1070
     8
1070
    48
1040
-0.1
1070
    41
1040
3.5
1070
   147
1040
1.75
1070
    42
1040
1.5875
1070
    44
1040
2.0
1070
   140
1040
3.5
1002
}
1001
ACAD_DSTYLE_DIM_LINETYPE
1070
   380
1005
16
1001
ACAD_DSTYLE_DIM_EXT1_LINETYPE
1070
   381
1005
16
1001
ACAD_DSTYLE_DIM_EXT2_LINETYPE
1070
   382
1005
16
0
DIMENSION
5
1D7
100
AcDbEntity
8
2
62
256
6
ByLayer
370
18
48
1
60
0
100
AcDbDimension
2
_U2
10
62.1
20
0
30
0
11
62.1
21
7
31
0
70
32
71
1
72
1
41
1
210
0
220
0
230
1
3
Standard
100
AcDbAlignedDimension
13
37.35
23
14
33
0
14
0
24
0
34
0
50
90
100
AcDbRotatedDimension
1001
ACAD
1000
DSTYLE
1002
{
1070
   371
1070
    13
1070
   372
1070
    13
1070
   170
1070
     0
1070
   144
1040
1.0
1070
   277
1070
     2
1070
   284
1070
     8
1070
   278
1070
    46
1070
   146
1040
1.0
1070
   345
1005
16
1070
   347
1005
16
1070
   346
1005
16
1070
   344
1005
0
1070
   343
1005
0
1070
   172
1070
     1
1070
    76
1070
     0
1070
    75
1070
     0
1070
   282
1070
     0
1070
   281
1070
     0
1070
    71
1070
     0
1070
    74
1070
     0
1070
   279
1070
     0
1070
   173
1070
     1
1070
   340
1005
1A0
1070
   271
1070
     2
1070
   272
1070
     2
1070
    77
1070
     1
1070
    73
1070
     0
1070
   171
1070
     3
1070
   274
1070
     4
1070
   177
1070
     2
1070
   176
1070
     2
1070
   178
1070
     2
1070
    78
1070
     8
1070
    48
1040
-0.1
1070
    41
1040
3.5
1070
   147
1040
1.75
1070
    42
1040
1.5875
1070
    44
1040
2.0
1070
   140
1040
3.5
1002
}
1001
ACAD_DSTYLE_DIM_LINETYPE
1070
   380
1005
16
1001
ACAD_DSTYLE_DIM_EXT1_LINETYPE
1070
   381
1005
16
1001
ACAD_DSTYLE_DIM_EXT2_LINETYPE
1070
   382
1005
16
0
DIMENSION
5
1F0
100
AcDbEntity
8
2
62
256
6
ByLayer
370
18
48
1
60
0
100
AcDbDimension
2
_U3
10
49.1
20
11.5
30
0
11
49.1
21
12.75
31
0
70
32
71
1
72
1
41
1
210
0
220
0
230
1
3
Standard
100
AcDbAlignedDimension
13
37.35
23
14
33
0
14
37.35
24
11.5
34
0
50
90
100
AcDbRotatedDimension
1001
ACAD
1000
DSTYLE
1002
{
1070
   371
1070
    13
1070
   372
1070
    13
1070
   170
1070
     0
1070
   144
1040
1.0
1070
   277
1070
     2
1070
   284
1070
     8
1070
   278
1070
    46
1070
   146
1040
1.0
1070
   345
1005
16
1070
   347
1005
16
1070
   346
1005
16
1070
   344
1005
0
1070
   343
1005
0
1070
   172
1070
     1
1070
    76
1070
     0
1070
    75
1070
     0
1070
   282
1070
     0
1070
   281
1070
     0
1070
    71
1070
     0
1070
    74
1070
     0
1070
   279
1070
     0
1070
   173
1070
     1
1070
   340
1005
1A0
1070
   271
1070
     2
1070
   272
1070
     2
1070
    77
1070
     1
1070
    73
1070
     0
1070
   171
1070
     3
1070
   274
1070
     4
1070
   177
1070
     2
1070
   176
1070
     2
1070
   178
1070
     2
1070
    78
1070
     8
1070
    48
1040
-0.1
1070
    41
1040
3.5
1070
   147
1040
1.75
1070
    42
1040
1.5875
1070
    44
1040
2.0
1070
   140
1040
3.5
1002
}
1001
ACAD_DSTYLE_DIM_LINETYPE
1070
   380
1005
16
1001
ACAD_DSTYLE_DIM_EXT1_LINETYPE
1070
   381
1005
16
1001
ACAD_DSTYLE_DIM_EXT2_LINETYPE
1070
   382
1005
16
0
ENDSEC
0
SECTION
2
OBJECTS
0
DICTIONARY
5
276
330
0
100
AcDbDictionary
280
0
281
1
3
ACAD_GROUP
350
277
3
ACAD_MLINESTYLE
350
278
0
DICTIONARY
5
277
330
0
100
AcDbDictionary
280
0
281
1
0
DICTIONARY
5
278
330
0
100
AcDbDictionary
280
0
281
1
3
Standard
350
18
0
MLINESTYLE
5
18
330
278
100
AcDbMlineStyle
2
Standard
70
0
3

62
256
51
90
52
90
71
2
49
-0.5
62
256
6
ByLayer
49
0.5
62
256
6
ByLayer
0
RASTERVARIABLES
5
267
330

100
AcDbRasterVariables
90
0
70
1
71
1
72
1
0
ENDSEC
0
EOF
