0
SECTION
2
HEADER
9
$ACADVER
1
AC1015
9
$DWGCODEPAGE
3
ANSI_1252
9
$HANDSEED
5
260
9
$ANGBASE
50
0
9
$ANGDIR
70
0
9
$ATTMODE
70
1
9
$AUNITS
70
0
9
$AUPREC
70
0
9
$CECOLOR
62
256
9
$CELTSCALE
40
1
9
$CELTYPE
6
ByLayer
9
$CELWEIGHT
370
18
9
$CLAYER
8
0
9
$CMLJUST
70
0
9
$CMLSCALE
40
1
9
$CMLSTYLE
2
Standard
9
$DIMSTYLE
2
Standard
9
$TEXTSIZE
40
0.2
9
$TEXTSTYLE
7
Standard
9
$LUNITS
70
2
9
$LUPREC
70
4
9
$EXTNAMES
290
1
9
$INSUNITS
70
4
9
$LTSCALE
40
1
9
$LWDISPLAY
290
1
9
$PDMODE
70
0
9
$PDSIZE
40
0
9
$PLINEGEN
70
0
0
ENDSEC
0
SECTION
2
CLASSES
0
CLASS
1
RASTERVARIABLES
2
AcDbRasterVariables
3
ISM
90
0
280
0
281
0
0
ENDSEC
0
SECTION
2
TABLES
0
TABLE
2
VPORT
5
256
100
AcDbSymbolTable
0
VPORT
5
1
100
AcDbSymbolTableRecord
100
AcDbViewportTableRecord
2
*Active
70
0
10
0
20
0
11
1
21
1
12
-1
22
1
13
0
23
0
14
0.5
24
0.5
15
10
25
10
16
0
26
0
36
1
17
0
27
0
37
0
0
ENDTAB
0
TABLE
2
LTYPE
5
257
100
AcDbSymbolTable
0
LTYPE
5
14
100
AcDbSymbolTableRecord
100
AcDbLinetypeTableRecord
70
0
2
ByBlock
3

72
65
73
0
40
0
0
LTYPE
5
15
100
AcDbSymbolTableRecord
100
AcDbLinetypeTableRecord
70
0
2
ByLayer
3

72
65
73
0
40
0
0
LTYPE
5
16
100
AcDbSymbolTableRecord
100
AcDbLinetypeTableRecord
70
0
2
Continuous
3
Solid line
72
65
73
0
40
0
0
LTYPE
5
6E
100
AcDbSymbolTableRecord
100
AcDbLinetypeTableRecord
70
0
2
CENTER
3
____ _ ____ _ ____ _ ____
72
65
73
4
40
47.5
49
22
74
0
49
-8.5
74
0
49
8.5
74
0
49
-8.5
74
0
0
LTYPE
5
6F
100
AcDbSymbolTableRecord
100
AcDbLinetypeTableRecord
70
0
2
DASHED
3
__ __ __ __ __ __ __ __ __
72
65
73
2
40
25.72
49
12.86
74
0
49
-12.86
74
0
0
ENDTAB
0
TABLE
2
LAYER
5
258
100
AcDbSymbolTable
0
LAYER
5
10
100
AcDbSymbolTableRecord
100
AcDbLayerTableRecord
2
0
70
0
62
7
6
Continuous
290
1
370
-3
390
0
0
LAYER
5
71
100
AcDbSymbolTableRecord
100
AcDbLayerTableRecord
2
81
70
0
62
-3
6
Continuous
290
1
370
-3
390
0
0
LAYER
5
73
100
AcDbSymbolTableRecord
100
AcDbLayerTableRecord
2
80
70
0
62
-6
6
Continuous
290
1
370
-3
390
0
0
LAYER
5
75
100
AcDbSymbolTableRecord
100
AcDbLayerTableRecord
2
1
70
0
62
4
6
Continuous
290
1
370
-3
390
0
0
LAYER
5
186
100
AcDbSymbolTableRecord
100
AcDbLayerTableRecord
2
Defpoints
70
0
62
7
6
Continuous
290
0
370
-3
390
0
0
LAYER
5
193
100
AcDbSymbolTableRecord
100
AcDbLayerTableRecord
2
2
70
0
62
7
6
Continuous
290
1
370
-3
390
0
0
LAYER
5
245
100
AcDbSymbolTableRecord
100
AcDbLayerTableRecord
2
SK6
70
0
62
5
6
Continuous
290
1
370
-3
390
0
0
ENDTAB
0
TABLE
2
STYLE
5
259
100
AcDbSymbolTable
0
STYLE
5
11
100
AcDbSymbolTableRecord
100
AcDbTextStyleTableRecord
2
Standard
3
txt
70
0
71
0
40
0
41
1
42
0
50
0
0
STYLE
5
17F
100
AcDbSymbolTableRecord
100
AcDbTextStyleTableRecord
2
iso_b_vert
3
simplex.shx
70
0
71
0
40
0
41
1
42
0
50
0
0
STYLE
5
180
100
AcDbSymbolTableRecord
100
AcDbTextStyleTableRecord
2
DWGDirectTextStyle
3
simplex
70
0
71
0
40
0
41
1
42
0
50
0
0
ENDTAB
0
TABLE
2
DIMSTYLE
5
25a
100
AcDbSymbolTable
100
AcDbDimStyleTable
0
DIMSTYLE
105
27
100
AcDbSymbolTableRecord
100
AcDbDimStyleTableRecord
2
Standard
70
0
3
<>
41
0.18
42
0.0625
44
0.18
140
0.18
147
0.09
73
0
74
0
77
1
271
2
275
0
278
52
280
0
340
11
0
ENDTAB
0
TABLE
2
VIEW
5
25b
100
AcDbSymbolTable
0
ENDTAB
0
TABLE
2
UCS
5
25c
100
AcDbSymbolTable
0
ENDTAB
0
TABLE
2
APPID
5
25d
100
AcDbSymbolTable
0
APPID
5
12
100
AcDbSymbolTableRecord
100
AcDbRegAppTableRecord
2
ACAD
70
0
0
APPID
5
182
100
AcDbSymbolTableRecord
100
AcDbRegAppTableRecord
2
ACAD_DSTYLE_DIMBREAK
70
0
0
APPID
5
204
100
AcDbSymbolTableRecord
100
AcDbRegAppTableRecord
2
ACAD_DSTYLE_DIM_LINETYPE
70
0
0
APPID
5
205
100
AcDbSymbolTableRecord
100
AcDbRegAppTableRecord
2
ACAD_DSTYLE_DIM_EXT1_LINETYPE
70
0
0
APPID
5
206
100
AcDbSymbolTableRecord
100
AcDbRegAppTableRecord
2
ACAD_DSTYLE_DIM_EXT2_LINETYPE
70
0
0
APPID
5
241
100
AcDbSymbolTableRecord
100
AcDbRegAppTableRecord
2
ACAD_MLEADERVER
70
0
0
ENDTAB
0
TABLE
2
BLOCK_RECORD
5
25e
100
AcDbSymbolTable
0
BLOCK_RECORD
5
1F
100
AcDbSymbolTableRecord
100
AcDbBlockTableRecord
2
*Model_Space
340
0
70
0
0
BLOCK_RECORD
5
1B
100
AcDbSymbolTableRecord
100
AcDbBlockTableRecord
2
*Paper_Space
340
0
70
0
0
BLOCK_RECORD
5
23
100
AcDbSymbolTableRecord
100
AcDbBlockTableRecord
2
*Paper_Space0
340
0
70
0
0
BLOCK_RECORD
5
187
100
AcDbSymbolTableRecord
100
AcDbBlockTableRecord
2
*D1
340
0
70
0
0
BLOCK_RECORD
5
194
100
AcDbSymbolTableRecord
100
AcDbBlockTableRecord
2
_U0
340
0
70
0
0
BLOCK_RECORD
5
1A0
100
AcDbSymbolTableRecord
100
AcDbBlockTableRecord
2
*D3
340
0
70
0
0
BLOCK_RECORD
5
1AC
100
AcDbSymbolTableRecord
100
AcDbBlockTableRecord
2
_U1
340
0
70
0
0
BLOCK_RECORD
5
1B8
100
AcDbSymbolTableRecord
100
AcDbBlockTableRecord
2
*D5
340
0
70
0
0
BLOCK_RECORD
5
1C4
100
AcDbSymbolTableRecord
100
AcDbBlockTableRecord
2
_U2
340
0
70
0
0
BLOCK_RECORD
5
1D0
100
AcDbSymbolTableRecord
100
AcDbBlockTableRecord
2
*D7
340
0
70
0
0
BLOCK_RECORD
5
1DD
100
AcDbSymbolTableRecord
100
AcDbBlockTableRecord
2
_U3
340
0
70
0
0
ENDTAB
0
ENDSEC
0
SECTION
2
BLOCKS
0
BLOCK
5
20
100
AcDbEntity
8
0
100
AcDbBlockBegin
2
*Model_Space
70
0
10
0
20
0
30
0
3
*Model_Space
0
ENDBLK
5
21
100
AcDbEntity
8
0
100
AcDbBlockEnd
0
BLOCK
5
1C
100
AcDbEntity
8
0
100
AcDbBlockBegin
2
*Paper_Space
70
0
10
0
20
0
30
0
3
*Paper_Space
0
ENDBLK
5
1D
100
AcDbEntity
8
0
100
AcDbBlockEnd
0
BLOCK
5
24
100
AcDbEntity
8
0
100
AcDbBlockBegin
2
*Paper_Space0
70
0
10
0
20
0
30
0
3
*Paper_Space0
0
ENDBLK
5
25
100
AcDbEntity
8
0
100
AcDbBlockEnd
0
BLOCK
5
188
100
AcDbEntity
8
0
100
AcDbBlockBegin
2
*D1
70
1
10
0
20
0
30
0
3
*D1
0
LINE
5
18A
100
AcDbEntity
8
0
62
256
6
ByLayer
370
-2
48
1
60
0
100
AcDbLine
10
0
20
1.5875
30
0
11
0
21
18.25
31
0
39
0
210
0
220
0
230
1
0
LINE
5
18B
100
AcDbEntity
8
0
62
256
6
ByLayer
370
-2
48
1
60
0
100
AcDbLine
10
41.1
20
-16.4125
30
0
11
41.1
21
18.25
31
0
39
0
210
0
220
0
230
1
0
LINE
5
18C
100
AcDbEntity
8
0
62
256
6
ByLayer
370
-2
48
1
60
0
100
AcDbLine
10
3.5
20
16.25
30
0
11
37.6
21
16.25
31
0
39
0
210
0
220
0
230
1
0
SOLID
5
18D
100
AcDbEntity
8
0
62
256
6
ByLayer
370
-1
48
1
60
0
100
AcDbTrace
10
3.5
20
16.833333
30
0
11
3.5
21
15.666667
31
0
12
0
22
16.25
32
0
13
0
23
16.25
33
0
39
0
210
0
220
0
230
1
0
SOLID
5
18E
100
AcDbEntity
8
0
62
256
6
ByLayer
370
-1
48
1
60
0
100
AcDbTrace
10
37.6
20
15.666667
30
0
11
37.6
21
16.833333
31
0
12
41.1
22
16.25
32
0
13
41.1
23
16.25
33
0
39
0
210
0
220
0
230
1
0
MTEXT
5
18F
100
AcDbEntity
8
0
62
256
6
ByLayer
370
18
48
1
60
0
100
AcDbMText
10
20.55
20
23.25
30
0
210
0
220
0
230
1
1
\A1;41.1
40
3.5
41
0
44
1
50
0
71
5
72
5
7
iso_b_vert
0
POINT
5
190
100
AcDbEntity
8
Defpoints
62
0
6
ByLayer
370
-1
48
1
60
0
100
AcDbPoint
10
0
20
0
30
0
39
0
210
0
220
0
230
1
50
360
0
POINT
5
191
100
AcDbEntity
8
Defpoints
62
0
6
ByLayer
370
-1
48
1
60
0
100
AcDbPoint
10
41.1
20
-18
30
0
39
0
210
0
220
0
230
1
50
360
0
POINT
5
192
100
AcDbEntity
8
Defpoints
62
0
6
ByLayer
370
-1
48
1
60
0
100
AcDbPoint
10
41.1
20
16.25
30
0
39
0
210
0
220
0
230
1
50
360
0
ENDBLK
5
189
100
AcDbEntity
8
0
100
AcDbBlockEnd
0
BLOCK
5
19B
100
AcDbEntity
8
0
100
AcDbBlockBegin
2
_U0
70
0
10
0
20
0
30
0
3
_U0
0
MTEXT
5
195
100
AcDbEntity
8
2
62
256
6
ByLayer
370
18
48
1
60
0
100
AcDbMText
10
17.318901
20
17.282634
30
0
210
0
220
0
230
1
1
\W0.6670;41.1
40
3.5
41
0
44
1.084337
50
0
71
7
72
5
7
iso_b_vert
0
LINE
5
196
100
AcDbEntity
8
2
62
256
6
ByLayer
370
13
48
1
60
0
100
AcDbLine
10
0
20
1.5875
30
0
11
0
21
18.25
31
0
39
0
210
0
220
0
230
1
0
LINE
5
197
100
AcDbEntity
8
2
62
256
6
ByLayer
370
13
48
1
60
0
100
AcDbLine
10
41.1
20
-16.4125
30
0
11
41.1
21
18.25
31
0
39
0
210
0
220
0
230
1
0
LINE
5
198
100
AcDbEntity
8
2
62
256
6
ByLayer
370
13
48
1
60
0
100
AcDbLine
10
0
20
16.25
30
0
11
41.1
21
16.25
31
0
39
0
210
0
220
0
230
1
0
SOLID
5
199
100
AcDbEntity
8
2
62
256
6
ByLayer
370
18
48
1
60
0
100
AcDbTrace
10
0
20
16.25
30
0
11
3.499998
21
16.710784
31
0
12
3.500002
22
15.789216
32
0
13
3.500002
23
15.789216
33
0
39
0
210
0
220
0
230
1
0
SOLID
5
19A
100
AcDbEntity
8
2
62
256
6
ByLayer
370
18
48
1
60
0
100
AcDbTrace
10
41.1
20
16.25
30
0
11
37.600002
21
15.789216
31
0
12
37.599998
22
16.710784
32
0
13
37.599998
23
16.710784
33
0
39
0
210
0
220
0
230
1
0
ENDBLK
5
19C
100
AcDbEntity
8
0
100
AcDbBlockEnd
0
BLOCK
5
1A1
100
AcDbEntity
8
0
100
AcDbBlockBegin
2
*D3
70
1
10
0
20
0
30
0
3
*D3
0
LINE
5
1A3
100
AcDbEntity
8
0
62
256
6
ByLayer
370
-2
48
1
60
0
100
AcDbLine
10
23.1
20
-11.7375
30
0
11
23.1
21
10.25
31
0
39
0
210
0
220
0
230
1
0
LINE
5
1A4
100
AcDbEntity
8
0
62
256
6
ByLayer
370
-2
48
1
60
0
100
AcDbLine
10
41.1
20
-16.4125
30
0
11
41.1
21
10.25
31
0
39
0
210
0
220
0
230
1
0
LINE
5
1A5
100
AcDbEntity
8
0
62
256
6
ByLayer
370
-2
48
1
60
0
100
AcDbLine
10
26.6
20
8.25
30
0
11
37.6
21
8.25
31
0
39
0
210
0
220
0
230
1
0
SOLID
5
1A6
100
AcDbEntity
8
0
62
256
6
ByLayer
370
-1
48
1
60
0
100
AcDbTrace
10
26.6
20
8.833333
30
0
11
26.6
21
7.666667
31
0
12
23.1
22
8.25
32
0
13
23.1
23
8.25
33
0
39
0
210
0
220
0
230
1
0
SOLID
5
1A7
100
AcDbEntity
8
0
62
256
6
ByLayer
370
-1
48
1
60
0
100
AcDbTrace
10
37.6
20
7.666667
30
0
11
37.6
21
8.833333
31
0
12
41.1
22
8.25
32
0
13
41.1
23
8.25
33
0
39
0
210
0
220
0
230
1
0
MTEXT
5
1A8
100
AcDbEntity
8
0
62
256
6
ByLayer
370
18
48
1
60
0
100
AcDbMText
10
32.1
20
15.25
30
0
210
0
220
0
230
1
1
\A1;18
40
3.5
41
0
44
1
50
0
71
5
72
5
7
iso_b_vert
0
POINT
5
1A9
100
AcDbEntity
8
Defpoints
62
0
6
ByLayer
370
-1
48
1
60
0
100
AcDbPoint
10
23.1
20
-13.325
30
0
39
0
210
0
220
0
230
1
50
360
0
POINT
5
1AA
100
AcDbEntity
8
Defpoints
62
0
6
ByLayer
370
-1
48
1
60
0
100
AcDbPoint
10
41.1
20
-18
30
0
39
0
210
0
220
0
230
1
50
360
0
POINT
5
1AB
100
AcDbEntity
8
Defpoints
62
0
6
ByLayer
370
-1
48
1
60
0
100
AcDbPoint
10
41.1
20
8.25
30
0
39
0
210
0
220
0
230
1
50
360
0
ENDBLK
5
1A2
100
AcDbEntity
8
0
100
AcDbBlockEnd
0
BLOCK
5
1B3
100
AcDbEntity
8
0
100
AcDbBlockBegin
2
_U1
70
0
10
0
20
0
30
0
3
_U1
0
MTEXT
5
1AD
100
AcDbEntity
8
2
62
256
6
ByLayer
370
18
48
1
60
0
100
AcDbMText
10
30.632467
20
9.282634
30
0
210
0
220
0
230
1
1
\W0.5321;18
40
3.5
41
0
44
1.084337
50
0
71
7
72
5
7
iso_b_vert
0
LINE
5
1AE
100
AcDbEntity
8
2
62
256
6
ByLayer
370
13
48
1
60
0
100
AcDbLine
10
23.1
20
-11.7375
30
0
11
23.1
21
10.25
31
0
39
0
210
0
220
0
230
1
0
LINE
5
1AF
100
AcDbEntity
8
2
62
256
6
ByLayer
370
13
48
1
60
0
100
AcDbLine
10
41.1
20
-16.4125
30
0
11
41.1
21
10.25
31
0
39
0
210
0
220
0
230
1
0
LINE
5
1B0
100
AcDbEntity
8
2
62
256
6
ByLayer
370
13
48
1
60
0
100
AcDbLine
10
23.1
20
8.25
30
0
11
41.1
21
8.25
31
0
39
0
210
0
220
0
230
1
0
SOLID
5
1B1
100
AcDbEntity
8
2
62
256
6
ByLayer
370
18
48
1
60
0
100
AcDbTrace
10
23.1
20
8.25
30
0
11
26.599998
21
8.710784
31
0
12
26.600002
22
7.789216
32
0
13
26.600002
23
7.789216
33
0
39
0
210
0
220
0
230
1
0
SOLID
5
1B2
100
AcDbEntity
8
2
62
256
6
ByLayer
370
18
48
1
60
0
100
AcDbTrace
10
41.1
20
8.25
30
0
11
37.600002
21
7.789216
31
0
12
37.599998
22
8.710784
32
0
13
37.599998
23
8.710784
33
0
39
0
210
0
220
0
230
1
0
ENDBLK
5
1B4
100
AcDbEntity
8
0
100
AcDbBlockEnd
0
BLOCK
5
1B9
100
AcDbEntity
8
0
100
AcDbBlockBegin
2
*D5
70
1
10
0
20
0
30
0
3
*D5
0
LINE
5
1BB
100
AcDbEntity
8
0
62
256
6
ByLayer
370
-2
48
1
60
0
100
AcDbLine
10
42.6875
20
-18
30
0
11
67.85
21
-18
31
0
39
0
210
0
220
0
230
1
0
LINE
5
1BC
100
AcDbEntity
8
0
62
256
6
ByLayer
370
-2
48
1
60
0
100
AcDbLine
10
1.5875
20
0
30
0
11
67.85
21
0
31
0
39
0
210
0
220
0
230
1
0
LINE
5
1BD
100
AcDbEntity
8
0
62
256
6
ByLayer
370
-2
48
1
60
0
100
AcDbLine
10
65.85
20
-14.5
30
0
11
65.85
21
-3.5
31
0
39
0
210
0
220
0
230
1
0
SOLID
5
1BE
100
AcDbEntity
8
0
62
256
6
ByLayer
370
-1
48
1
60
0
100
AcDbTrace
10
65.266667
20
-14.5
30
0
11
66.433333
21
-14.5
31
0
12
65.85
22
-18
32
0
13
65.85
23
-18
33
0
39
0
210
0
220
0
230
1
0
SOLID
5
1BF
100
AcDbEntity
8
0
62
256
6
ByLayer
370
-1
48
1
60
0
100
AcDbTrace
10
66.433333
20
-3.5
30
0
11
65.266667
21
-3.5
31
0
12
65.85
22
0
32
0
13
65.85
23
0
33
0
39
0
210
0
220
0
230
1
0
MTEXT
5
1C0
100
AcDbEntity
8
0
62
256
6
ByLayer
370
18
48
1
60
0
100
AcDbMText
10
58.85
20
-9
30
0
210
0
220
0
230
1
1
\A1;18
40
3.5
41
0
44
1
50
90
71
5
72
5
7
iso_b_vert
0
POINT
5
1C1
100
AcDbEntity
8
Defpoints
62
0
6
ByLayer
370
-1
48
1
60
0
100
AcDbPoint
10
41.1
20
-18
30
0
39
0
210
0
220
0
230
1
50
360
0
POINT
5
1C2
100
AcDbEntity
8
Defpoints
62
0
6
ByLayer
370
-1
48
1
60
0
100
AcDbPoint
10
0
20
0
30
0
39
0
210
0
220
0
230
1
50
360
0
POINT
5
1C3
100
AcDbEntity
8
Defpoints
62
0
6
ByLayer
370
-1
48
1
60
0
100
AcDbPoint
10
65.85
20
0
30
0
39
0
210
0
220
0
230
1
50
360
0
ENDBLK
5
1BA
100
AcDbEntity
8
0
100
AcDbBlockEnd
0
BLOCK
5
1CB
100
AcDbEntity
8
0
100
AcDbBlockBegin
2
_U2
70
0
10
0
20
0
30
0
3
_U2
0
MTEXT
5
1C5
100
AcDbEntity
8
2
62
256
6
ByLayer
370
18
48
1
60
0
100
AcDbMText
10
65.160366
20
-10.495533
30
0
210
0
220
0
230
1
1
\W0.5321;18
40
3.5
41
0
44
1.084337
50
90
71
7
72
5
7
iso_b_vert
0
LINE
5
1C6
100
AcDbEntity
8
2
62
256
6
ByLayer
370
13
48
1
60
0
100
AcDbLine
10
42.6875
20
-18
30
0
11
67.85
21
-18
31
0
39
0
210
0
220
0
230
1
0
LINE
5
1C7
100
AcDbEntity
8
2
62
256
6
ByLayer
370
13
48
1
60
0
100
AcDbLine
10
1.5875
20
0
30
0
11
67.85
21
0
31
0
39
0
210
0
220
0
230
1
0
LINE
5
1C8
100
AcDbEntity
8
2
62
256
6
ByLayer
370
13
48
1
60
0
100
AcDbLine
10
65.85
20
-18
30
0
11
65.85
21
0
31
0
39
0
210
0
220
0
230
1
0
SOLID
5
1C9
100
AcDbEntity
8
2
62
256
6
ByLayer
370
18
48
1
60
0
100
AcDbTrace
10
65.85
20
-18
30
0
11
65.389216
21
-14.500002
31
0
12
66.310784
22
-14.499998
32
0
13
66.310784
23
-14.499998
33
0
39
0
210
0
220
0
230
1
0
SOLID
5
1CA
100
AcDbEntity
8
2
62
256
6
ByLayer
370
18
48
1
60
0
100
AcDbTrace
10
65.85
20
0
30
0
11
66.310784
21
-3.499998
31
0
12
65.389216
22
-3.500002
32
0
13
65.389216
23
-3.500002
33
0
39
0
210
0
220
0
230
1
0
ENDBLK
5
1CC
100
AcDbEntity
8
0
100
AcDbBlockEnd
0
BLOCK
5
1D1
100
AcDbEntity
8
0
100
AcDbBlockBegin
2
*D7
70
1
10
0
20
0
30
0
3
*D7
0
LINE
5
1D3
100
AcDbEntity
8
0
62
256
6
ByLayer
370
-2
48
1
60
0
100
AcDbLine
10
42.6875
20
-18
30
0
11
54.85
21
-18
31
0
39
0
210
0
220
0
230
1
0
LINE
5
1D4
100
AcDbEntity
8
0
62
256
6
ByLayer
370
-2
48
1
60
0
100
AcDbLine
10
42.6875
20
-13
30
0
11
54.85
21
-13
31
0
39
0
210
0
220
0
230
1
0
LINE
5
1D5
100
AcDbEntity
8
0
62
256
6
ByLayer
370
-2
48
1
60
0
100
AcDbLine
10
52.85
20
-21.5
30
0
11
52.85
21
-25
31
0
39
0
210
0
220
0
230
1
0
LINE
5
1D6
100
AcDbEntity
8
0
62
256
6
ByLayer
370
-2
48
1
60
0
100
AcDbLine
10
52.85
20
-9.5
30
0
11
52.85
21
-6
31
0
39
0
210
0
220
0
230
1
0
SOLID
5
1D7
100
AcDbEntity
8
0
62
256
6
ByLayer
370
-1
48
1
60
0
100
AcDbTrace
10
53.433333
20
-21.5
30
0
11
52.266667
21
-21.5
31
0
12
52.85
22
-18
32
0
13
52.85
23
-18
33
0
39
0
210
0
220
0
230
1
0
SOLID
5
1D8
100
AcDbEntity
8
0
62
256
6
ByLayer
370
-1
48
1
60
0
100
AcDbTrace
10
52.266667
20
-9.5
30
0
11
53.433333
21
-9.5
31
0
12
52.85
22
-13
32
0
13
52.85
23
-13
33
0
39
0
210
0
220
0
230
1
0
MTEXT
5
1D9
100
AcDbEntity
8
0
62
256
6
ByLayer
370
18
48
1
60
0
100
AcDbMText
10
45.85
20
-15.5
30
0
210
0
220
0
230
1
1
\A1;5
40
3.5
41
0
44
1
50
90
71
5
72
5
7
iso_b_vert
0
POINT
5
1DA
100
AcDbEntity
8
Defpoints
62
0
6
ByLayer
370
-1
48
1
60
0
100
AcDbPoint
10
41.1
20
-18
30
0
39
0
210
0
220
0
230
1
50
360
0
POINT
5
1DB
100
AcDbEntity
8
Defpoints
62
0
6
ByLayer
370
-1
48
1
60
0
100
AcDbPoint
10
41.1
20
-13
30
0
39
0
210
0
220
0
230
1
50
360
0
POINT
5
1DC
100
AcDbEntity
8
Defpoints
62
0
6
ByLayer
370
-1
48
1
60
0
100
AcDbPoint
10
52.85
20
-13
30
0
39
0
210
0
220
0
230
1
50
360
0
ENDBLK
5
1D2
100
AcDbEntity
8
0
100
AcDbBlockEnd
0
BLOCK
5
1E4
100
AcDbEntity
8
0
100
AcDbBlockBegin
2
_U3
70
0
10
0
20
0
30
0
3
_U3
0
MTEXT
5
1DE
100
AcDbEntity
8
2
62
256
6
ByLayer
370
18
48
1
60
0
100
AcDbMText
10
52.160366
20
-16.125233
30
0
210
0
220
0
230
1
1
\W0.5404;5
40
3.5
41
0
44
1.084337
50
90
71
7
72
5
7
iso_b_vert
0
LINE
5
1DF
100
AcDbEntity
8
2
62
256
6
ByLayer
370
13
48
1
60
0
100
AcDbLine
10
42.6875
20
-18
30
0
11
54.85
21
-18
31
0
39
0
210
0
220
0
230
1
0
LINE
5
1E0
100
AcDbEntity
8
2
62
256
6
ByLayer
370
13
48
1
60
0
100
AcDbLine
10
42.6875
20
-13
30
0
11
54.85
21
-13
31
0
39
0
210
0
220
0
230
1
0
LINE
5
1E1
100
AcDbEntity
8
2
62
256
6
ByLayer
370
13
48
1
60
0
100
AcDbLine
10
52.85
20
-26.75
30
0
11
52.85
21
-4.25
31
0
39
0
210
0
220
0
230
1
0
SOLID
5
1E2
100
AcDbEntity
8
2
62
256
6
ByLayer
370
18
48
1
60
0
100
AcDbTrace
10
52.85
20
-18
30
0
11
53.310784
21
-21.499998
31
0
12
52.389216
22
-21.500002
32
0
13
52.389216
23
-21.500002
33
0
39
0
210
0
220
0
230
1
0
SOLID
5
1E3
100
AcDbEntity
8
2
62
256
6
ByLayer
370
18
48
1
60
0
100
AcDbTrace
10
52.85
20
-13
30
0
11
52.389216
21
-9.500002
31
0
12
53.310784
22
-9.499998
32
0
13
53.310784
23
-9.499998
33
0
39
0
210
0
220
0
230
1
0
ENDBLK
5
1E5
100
AcDbEntity
8
0
100
AcDbBlockEnd
0
ENDSEC
0
SECTION
2
ENTITIES
0
ARC
5
100
100
AcDbEntity
8
1
62
256
6
ByLayer
370
18
48
1
60
0
100
AcDbCircle
39
0
10
16.5
20
-0.875
30
0
40
0.5
210
0
220
0
230
1
100
AcDbArc
50
180
51
270
0
ARC
5
101
100
AcDbEntity
8
1
62
256
6
ByLayer
370
18
48
1
60
0
100
AcDbCircle
39
0
10
16
20
-6.6
30
0
40
4.55000000000114
210
0
220
0
230
1
100
AcDbArc
50
331.705621
51
28.294379
0
ARC
5
102
100
AcDbEntity
8
1
62
256
6
ByLayer
370
18
48
1
60
0
100
AcDbCircle
39
0
10
23.1
20
-11.725
30
0
40
1.59999999999998
210
0
220
0
230
1
100
AcDbArc
50
180
51
270
0
ARC
5
103
100
AcDbEntity
8
1
62
256
6
ByLayer
370
18
48
1
60
0
100
AcDbCircle
39
0
10
16
20
-6.6
30
0
40
4.55
210
0
220
0
230
1
100
AcDbArc
50
28.294379
51
331.705621
0
ARC
5
104
100
AcDbEntity
8
1
62
256
6
ByLayer
370
18
48
1
60
0
100
AcDbCircle
39
0
10
16.4
20
-17.7
30
0
40
0.3
210
0
220
0
230
1
100
AcDbArc
50
180
51
272.5
0
ARC
5
105
100
AcDbEntity
8
1
62
256
6
ByLayer
370
18
48
1
60
0
100
AcDbCircle
39
0
10
40.8
20
-17.7
30
0
40
0.3
210
0
220
0
230
1
100
AcDbArc
50
267.5
51
0
0
ARC
5
106
100
AcDbEntity
8
1
62
256
6
ByLayer
370
18
48
1
60
0
100
AcDbCircle
39
0
10
40.8
20
-13.3
30
0
40
0.3
210
0
220
0
230
1
100
AcDbArc
50
0
51
92.5
0
ARC
5
107
100
AcDbEntity
8
1
62
256
6
ByLayer
370
18
48
1
60
0
100
AcDbCircle
39
0
10
33.65644
20
-14.832701
30
0
40
0.0999999999851639
210
0
220
0
230
1
100
AcDbArc
50
190.000001
51
218.049181
0
ARC
5
108
100
AcDbEntity
8
1
62
256
6
ByLayer
370
18
48
1
60
0
100
AcDbCircle
39
0
10
33.65644
20
-16.167299
30
0
40
0.0999999999928972
210
0
220
0
230
1
100
AcDbArc
50
141.950819
51
169.999999
0
ARC
5
109
100
AcDbEntity
8
1
62
256
6
ByLayer
370
18
48
1
60
0
100
AcDbCircle
39
0
10
16
20
-6.6
30
0
40
1.416
210
0
220
0
230
1
100
AcDbArc
50
60.190711
51
119.809289
0
ARC
5
10A
100
AcDbEntity
8
1
62
256
6
ByLayer
370
18
48
1
60
0
100
AcDbCircle
39
0
10
16
20
-6.6
30
0
40
1.416
210
0
220
0
230
1
100
AcDbArc
50
119.809289
51
173.807562
0
ARC
5
10B
100
AcDbEntity
8
1
62
256
6
ByLayer
370
18
48
1
60
0
100
AcDbCircle
39
0
10
16
20
-6.6
30
0
40
1.416
210
0
220
0
230
1
100
AcDbArc
50
186.192438
51
240.190711
0
ARC
5
10C
100
AcDbEntity
8
1
62
256
6
ByLayer
370
18
48
1
60
0
100
AcDbCircle
39
0
10
16
20
-6.6
30
0
40
1.416
210
0
220
0
230
1
100
AcDbArc
50
299.809289
51
353.807562
0
ARC
5
10D
100
AcDbEntity
8
1
62
256
6
ByLayer
370
18
48
1
60
0
100
AcDbCircle
39
0
10
16
20
-6.6
30
0
40
1.416
210
0
220
0
230
1
100
AcDbArc
50
6.192438
51
60.190711
0
ARC
5
10E
100
AcDbEntity
8
1
62
256
6
ByLayer
370
18
48
1
60
0
100
AcDbCircle
39
0
10
16
20
-6.6
30
0
40
1.416
210
0
220
0
230
1
100
AcDbArc
50
240.190711
51
299.809289
0
ARC
5
111
100
AcDbEntity
8
1
62
256
6
ByLayer
370
18
48
1
60
0
100
AcDbCircle
39
0
10
16
20
-6.6
30
0
40
1.416
210
0
220
0
230
1
100
AcDbArc
50
353.807562
51
6.192438
0
ARC
5
112
100
AcDbEntity
8
1
62
256
6
ByLayer
370
18
48
1
60
0
100
AcDbCircle
39
0
10
16
20
-6.6
30
0
40
1.9685
210
0
220
0
230
1
100
AcDbArc
50
329.618578
51
30.381422
0
ARC
5
113
100
AcDbEntity
8
1
62
256
6
ByLayer
370
18
48
1
60
0
100
AcDbCircle
39
0
10
16
20
-6.6
30
0
40
1.9685
210
0
220
0
230
1
100
AcDbArc
50
90
51
149.618578
0
ARC
5
114
100
AcDbEntity
8
1
62
256
6
ByLayer
370
18
48
1
60
0
100
AcDbCircle
39
0
10
16
20
-6.6
30
0
40
1.9685
210
0
220
0
230
1
100
AcDbArc
50
30.381422
51
90
0
ARC
5
115
100
AcDbEntity
8
1
62
256
6
ByLayer
370
18
48
1
60
0
100
AcDbCircle
39
0
10
16
20
-6.6
30
0
40
1.9685
210
0
220
0
230
1
100
AcDbArc
50
270
51
329.618578
0
ARC
5
116
100
AcDbEntity
8
1
62
256
6
ByLayer
370
18
48
1
60
0
100
AcDbCircle
39
0
10
16
20
-6.6
30
0
40
1.9685
210
0
220
0
230
1
100
AcDbArc
50
149.618578
51
210.381422
0
ARC
5
117
100
AcDbEntity
8
1
62
256
6
ByLayer
370
18
48
1
60
0
100
AcDbCircle
39
0
10
16
20
-6.6
30
0
40
1.416
210
0
220
0
230
1
100
AcDbArc
50
173.807562
51
186.192438
0
ARC
5
118
100
AcDbEntity
8
1
62
256
6
ByLayer
370
18
48
1
60
0
100
AcDbCircle
39
0
10
16
20
-6.6
30
0
40
1.9685
210
0
220
0
230
1
100
AcDbArc
50
210.381422
51
270
0
CIRCLE
5
10F
100
AcDbEntity
8
1
62
256
6
ByLayer
370
18
48
1
60
0
100
AcDbCircle
10
16
20
-6.6
30
0
40
4.25
39
0
210
0
220
0
230
1
0
CIRCLE
5
110
100
AcDbEntity
8
1
62
256
6
ByLayer
370
18
48
1
60
0
100
AcDbCircle
10
16
20
-6.6
30
0
40
3.75
39
0
210
0
220
0
230
1
0
ELLIPSE
5
119
100
AcDbEntity
8
1
62
256
6
ByLayer
370
18
48
1
60
0
100
AcDbEllipse
10
33.446355
20
-13.641251
30
0
11
7.04487466188022E-17
21
-0.0999999999377211
31
0
210
0
220
0
230
1
40
1
41
-1.5707963267949
42
-1.39626340154931
0
ELLIPSE
5
11A
100
AcDbEntity
8
1
62
256
6
ByLayer
370
18
48
1
60
0
100
AcDbEllipse
10
33.446355
20
-17.358749
30
0
11
0.0997490511006539
21
-0.00708003670469499
31
0
210
0
220
0
230
1
40
1
41
3.03791937928743
42
-3.07073300325842
0
POINT
5
70
100
AcDbEntity
8
81
62
256
6
ByLayer
370
18
48
1
60
0
100
AcDbPoint
10
41.1
20
-18
30
0
39
0
210
0
220
0
230
1
50
360
0
POINT
5
72
100
AcDbEntity
8
80
62
256
6
ByLayer
370
18
48
1
60
0
100
AcDbPoint
10
0
20
0
30
0
39
0
210
0
220
0
230
1
50
360
0
POINT
5
74
100
AcDbEntity
8
1
62
256
6
ByLayer
370
18
48
1
60
1
100
AcDbPoint
10
0
20
0
30
0
39
0
210
0
220
0
230
1
50
360
0
POINT
5
76
100
AcDbEntity
8
1
62
256
6
ByLayer
370
18
48
1
60
1
100
AcDbPoint
10
41.1
20
-18
30
0
39
0
210
0
220
0
230
1
50
360
0
POINT
5
77
100
AcDbEntity
8
1
62
256
6
ByLayer
370
18
48
1
60
1
100
AcDbPoint
10
23.1
20
-13.325
30
0
39
0
210
0
220
0
230
1
50
360
0
POINT
5
78
100
AcDbEntity
8
1
62
256
6
ByLayer
370
18
48
1
60
1
100
AcDbPoint
10
41.1
20
-18
30
0
39
0
210
0
220
0
230
1
50
360
0
POINT
5
79
100
AcDbEntity
8
1
62
256
6
ByLayer
370
18
48
1
60
1
100
AcDbPoint
10
41.1
20
-18
30
0
39
0
210
0
220
0
230
1
50
360
0
POINT
5
7A
100
AcDbEntity
8
1
62
256
6
ByLayer
370
18
48
1
60
1
100
AcDbPoint
10
0
20
0
30
0
39
0
210
0
220
0
230
1
50
360
0
POINT
5
7B
100
AcDbEntity
8
1
62
256
6
ByLayer
370
18
48
1
60
1
100
AcDbPoint
10
41.1
20
-18
30
0
39
0
210
0
220
0
230
1
50
360
0
POINT
5
7C
100
AcDbEntity
8
1
62
256
6
ByLayer
370
18
48
1
60
1
100
AcDbPoint
10
41.1
20
-13
30
0
39
0
210
0
220
0
230
1
50
360
0
SPLINE
5
11B
100
AcDbEntity
8
1
62
256
6
ByLayer
370
18
48
1
60
0
100
AcDbSpline
70
4
71
3
72
12
73
8
40
0
40
0
40
0
40
0
40
0.282123293584616
40
0.282123293584616
40
0.641061646792308
40
0.641061646792308
40
1
40
1
40
1
40
1
41
1
10
9.22962551725107
20
0.312730672053306
30
0
41
1
10
9.22018631298187
20
0.314781589375343
30
0
41
1
10
9.21076689725203
20
0.31663541841121
30
0
41
1
10
9.18954659679824
20
0.320303380455783
30
0
41
1
10
9.17785494090333
20
0.321962244275824
30
0
41
1
10
9.15494813398624
20
0.324297936900479
30
0
41
1
10
9.14372986087076
20
0.324980947161691
30
0
41
1
10
9.13284665391035
20
0.324980947161691
30
0
0
SPLINE
5
11C
100
AcDbEntity
8
1
62
256
6
ByLayer
370
18
48
1
60
0
100
AcDbSpline
70
4
71
3
72
8
73
4
40
0
40
0
40
0
40
0
40
1
40
1
40
1
40
1
41
1
10
8.97509300114021
20
0.269594177820636
30
0
41
1
10
8.97048024229872
20
0.263188796058728
30
0
41
1
10
8.96535566342396
20
0.256648768658465
30
0
41
1
10
8.95982040671319
20
0.249999999999829
30
0
0
SPLINE
5
11D
100
AcDbEntity
8
1
62
256
6
ByLayer
370
18
48
1
60
0
100
AcDbSpline
70
4
71
3
72
8
73
4
40
0
40
0
40
0
40
0
40
1
40
1
40
1
40
1
41
1
10
8.94788459874798
20
0.25
30
0
41
1
10
8.95695689263579
20
0.256520867363747
30
0
41
1
10
8.96602634583104
20
0.263052313104737
30
0
41
1
10
8.97509300113904
20
0.269594177821347
30
0
0
SPLINE
5
11E
100
AcDbEntity
8
1
62
256
6
ByLayer
370
18
48
1
60
0
100
AcDbSpline
70
4
71
3
72
18
73
14
40
0
40
0
40
0
40
0
40
0.124999999999997
40
0.124999999999997
40
0.249999999999994
40
0.249999999999994
40
0.374999999999991
40
0.374999999999991
40
0.499999999999988
40
0.499999999999988
40
0.749999999999994
40
0.749999999999994
40
1
40
1
40
1
40
1
41
1
10
9.40454881002665
20
0.324980947161663
30
0
41
1
10
9.38759768040057
20
0.324980947161663
30
0
41
1
10
9.37037734087883
20
0.324333802126603
30
0
41
1
10
9.33556537132938
20
0.322240606437305
30
0
41
1
10
9.31797101305719
20
0.320786465321106
30
0
41
1
10
9.28248929533831
20
0.317312073862979
30
0
41
1
10
9.26457702835458
20
0.315286220540855
30
0
41
1
10
9.2286184412612
20
0.310825062109671
30
0
41
1
10
9.21061352336176
20
0.308394804813759
30
0
41
1
10
9.15652522117634
20
0.300657493979827
30
0
41
1
10
9.12036847898457
20
0.294911325240093
30
0
41
1
10
9.04786915185497
20
0.282718617451991
30
0
41
1
10
9.01152644313692
20
0.276266358807078
30
0
41
1
10
8.97509300113904
20
0.269594177821347
30
0
0
SPLINE
5
11F
100
AcDbEntity
8
1
62
256
6
ByLayer
370
18
48
1
60
0
100
AcDbSpline
70
4
71
3
72
20
73
16
40
0
40
0
40
0
40
0
40
0.249999999999989
40
0.249999999999989
40
0.374999999999991
40
0.374999999999991
40
0.499999999999993
40
0.499999999999993
40
0.624999999999994
40
0.624999999999994
40
0.749999999999996
40
0.749999999999996
40
0.874999999999998
40
0.874999999999998
40
1
40
1
40
1
40
1
41
1
10
9.3844789550599
20
0.25
30
0
41
1
10
9.39682270649575
20
0.259824535101188
30
0
41
1
10
9.40890440191322
20
0.269050270820657
30
0
41
1
10
9.42658457612515
20
0.281897606492322
30
0
41
1
10
9.43240356571505
20
0.286013315481341
30
0
41
1
10
9.44387251607549
20
0.293868908437645
30
0
41
1
10
9.44955246765531
20
0.297627228915957
30
0
41
1
10
9.46048600059484
20
0.304557321014272
30
0
41
1
10
9.4657554788725
20
0.307741778715837
30
0
41
1
10
9.47584069438224
20
0.313466776029827
30
0
41
1
10
9.48067606109115
20
0.316017460644701
30
0
41
1
10
9.48970604367264
20
0.320287538788818
30
0
41
1
10
9.49383752136632
20
0.321978904858042
30
0
41
1
10
9.50120547788177
20
0.324325438354265
30
0
41
1
10
9.50446684643606
20
0.324980947161691
30
0
41
1
10
9.5070945452878
20
0.324980947161691
30
0
0
SPLINE
5
120
100
AcDbEntity
8
1
62
256
6
ByLayer
370
18
48
1
60
0
100
AcDbSpline
70
4
71
2
72
6
73
3
40
0
40
0
40
0
40
1
40
1
40
1
41
1
10
9.50723215695228
20
0.324980947161691
30
0
41
1
10
9.53999786148736
20
0.324980947161691
30
0
41
1
10
9.57062122153147
20
0.324980947161691
30
0
0
SPLINE
5
121
100
AcDbEntity
8
1
62
256
6
ByLayer
370
18
48
1
60
0
100
AcDbSpline
70
4
71
3
72
18
73
14
40
0
40
0
40
0
40
0
40
0.249999999999983
40
0.249999999999983
40
0.374999999999983
40
0.374999999999983
40
0.499999999999984
40
0.499999999999984
40
0.749999999999989
40
0.749999999999989
40
0.874999999999994
40
0.874999999999994
40
1
40
1
40
1
40
1
41
1
10
14.8184692127086
20
0.249980947161674
30
0
41
1
10
14.8074408879534
20
0.25978207251589
30
0
41
1
10
14.7967015141747
20
0.269079983040143
30
0
41
1
10
14.7810985572145
20
0.282134384874752
30
0
41
1
10
14.7760027492335
20
0.286317935978389
30
0
41
1
10
14.7661922846909
20
0.294192871663853
30
0
41
1
10
14.7614560038651
20
0.29790260373386
30
0
41
1
10
14.7478183865456
20
0.308259492032221
30
0
41
1
10
14.7393963271011
20
0.314194627055087
30
0
41
1
10
14.729075461519
20
0.320451985953838
30
0
41
1
10
14.7259716490942
20
0.322125675212902
30
0
41
1
10
14.7207746365131
20
0.324388699392443
30
0
41
1
10
14.7186893510728
20
0.324980947161748
30
0
41
1
10
14.7171680292953
20
0.324980947161748
30
0
0
SPLINE
5
122
100
AcDbEntity
8
1
62
256
6
ByLayer
370
18
48
1
60
0
100
AcDbSpline
70
4
71
3
72
22
73
18
40
0
40
0
40
0
40
0
40
0.125
40
0.125
40
0.25
40
0.25
40
0.375
40
0.375
40
0.5
40
0.5
40
0.625
40
0.625
40
0.75
40
0.75
40
0.875
40
0.875
40
1
40
1
40
1
40
1
41
1
10
9.57048139756094
20
0.324980947060027
30
0
41
1
10
9.57251449079982
20
0.324980699935452
30
0
41
1
10
9.57410536556662
20
0.32453310272399
30
0
41
1
10
9.57628182451117
20
0.322618634072569
30
0
41
1
10
9.57683167984811
20
0.321175545408039
30
0
41
1
10
9.57685514810564
20
0.317350053736362
30
0
41
1
10
9.57631860575586
20
0.314932710155148
30
0
41
1
10
9.5741997112676
20
0.309275100347463
30
0
41
1
10
9.57263907119452
20
0.306067076874996
30
0
41
1
10
9.56861585716385
20
0.298965833156615
30
0
41
1
10
9.56613810398775
20
0.295057128232287
30
0
41
1
10
9.56055905507199
20
0.28690587896952
30
0
41
1
10
9.55744018536603
20
0.282630010692912
30
0
41
1
10
9.55063275024946
20
0.273730195609943
30
0
41
1
10
9.5469222663894
20
0.26908108225922
30
0
41
1
10
9.53914014588514
20
0.259653435704053
30
0
41
1
10
9.53505931314226
20
0.254861141173507
30
0
41
1
10
9.53081289439862
20
0.249999999999943
30
0
0
SPLINE
5
123
100
AcDbEntity
8
1
62
256
6
ByLayer
370
18
48
1
60
0
100
AcDbSpline
70
4
71
3
72
8
73
4
40
0
40
0
40
0
40
0
40
1
40
1
40
1
40
1
41
1
10
15.2430820962789
20
-0.129903810567669
30
0
41
1
10
15.4272614048143
20
-0.311558795603588
30
0
41
1
10
15.6113958294121
20
-0.493259035297626
30
0
41
1
10
15.7954898626159
20
-0.675000000000011
30
0
0
SPLINE
5
124
100
AcDbEntity
8
1
62
256
6
ByLayer
370
18
48
1
60
0
100
AcDbSpline
70
4
71
3
72
8
73
4
40
0
40
0
40
0
40
0
40
1
40
1
40
1
40
1
41
1
10
15.2430820962789
20
-0.129903810567669
30
0
41
1
10
15.1020216400389
20
-0.0028773178347024
30
0
41
1
10
14.9604945734528
20
0.123759749017154
30
0
41
1
10
14.8184692127086
20
0.249980947161674
30
0
0
SPLINE
5
125
100
AcDbEntity
8
1
62
256
6
ByLayer
370
18
48
1
60
0
100
AcDbSpline
70
4
71
3
72
16
73
12
40
0
40
0
40
0
40
0
40
0.250000000000002
40
0.250000000000002
40
0.500000000000004
40
0.500000000000004
40
0.750000000000006
40
0.750000000000006
40
0.875000000000003
40
0.875000000000003
40
1
40
1
40
1
40
1
41
1
10
32.8514981939756
20
-16
30
0
41
1
10
32.8329097777558
20
-16.1355668993928
30
0
41
1
10
32.8141338154058
20
-16.2710870430284
30
0
41
1
10
32.7760057265602
20
-16.5419577902165
30
0
41
1
10
32.7566594617063
20
-16.6773067820116
30
0
41
1
10
32.7170097150131
20
-16.9477117814086
30
0
41
1
10
32.6967246752794
20
-17.0827734337553
30
0
41
1
10
32.6649287400454
20
-17.2849470809791
30
0
41
1
10
32.6540977312347
20
-17.3522671750188
30
0
41
1
10
32.6317235344597
20
-17.4866893798847
30
0
41
1
10
32.6201879851611
20
-17.5537938287474
30
0
41
1
10
32.6080562954819
20
-17.6207158114494
30
0
0
SPLINE
5
126
100
AcDbEntity
8
1
62
256
6
ByLayer
370
18
48
1
60
0
100
AcDbSpline
70
4
71
3
72
8
73
4
40
0
40
0
40
0
40
0
40
1
40
1
40
1
40
1
41
1
10
33.026777017215
20
-15.9159227623863
30
0
41
1
10
32.9684491786965
20
-15.9444004679184
30
0
41
1
10
32.9100586915477
20
-15.9725905278332
30
0
41
1
10
32.8514981939756
20
-16
30
0
0
SPLINE
5
127
100
AcDbEntity
8
1
62
256
6
ByLayer
370
18
48
1
60
0
100
AcDbSpline
70
4
71
3
72
20
73
16
40
0
40
0
40
0
40
0
40
0.25
40
0.25
40
0.375
40
0.375
40
0.5
40
0.5
40
0.625
40
0.625
40
0.75
40
0.75
40
0.875
40
0.875
40
1
40
1
40
1
40
1
41
1
10
33.1
20
-15.7749688692685
30
0
41
1
10
33.1
20
-15.7906154703116
30
0
41
1
10
33.0982350113453
20
-15.8058406057954
30
0
41
1
10
33.0929847603154
20
-15.8280567882605
30
0
41
1
10
33.0908173665987
20
-15.8352332079605
30
0
41
1
10
33.0857488603431
20
-15.8489305808314
30
0
41
1
10
33.0828391293578
20
-15.8554880391187
30
0
41
1
10
33.0762608335801
20
-15.8680143889907
30
0
41
1
10
33.0726085184947
20
-15.8739345536149
30
0
41
1
10
33.0647934677857
20
-15.8848097611124
30
0
41
1
10
33.0606058521871
20
-15.8898139083347
30
0
41
1
10
33.0516728607019
20
-15.8989590351323
30
0
41
1
10
33.0469169098256
20
-15.9030966578374
30
0
41
1
10
33.0371127047952
20
-15.9102776284608
30
0
41
1
10
33.032033507359
20
-15.9133563587229
30
0
41
1
10
33.026777017215
20
-15.9159227623863
30
0
0
SPLINE
5
128
100
AcDbEntity
8
1
62
256
6
ByLayer
370
18
48
1
60
0
100
AcDbSpline
70
4
71
3
72
20
73
16
40
0
40
0
40
0
40
0
40
0.250000000000011
40
0.250000000000011
40
0.375000000000009
40
0.375000000000009
40
0.500000000000007
40
0.500000000000007
40
0.625000000000005
40
0.625000000000005
40
0.750000000000004
40
0.750000000000004
40
0.875000000000002
40
0.875000000000002
40
1
40
1
40
1
40
1
41
1
10
33.0267770172149
20
-15.0840772376136
30
0
41
1
10
33.0372920567317
20
-15.0892110503285
30
0
41
1
10
33.0470416737057
20
-15.0963285347891
30
0
41
1
10
33.0604898085691
20
-15.1100532403169
30
0
41
1
10
33.06474386683
20
-15.1151282558026
30
0
41
1
10
33.0725589576124
20
-15.1259895274067
30
0
41
1
10
33.0761569548166
20
-15.1318114046973
30
0
41
1
10
33.0827177390073
20
-15.1442580087265
30
0
41
1
10
33.0856948951848
20
-15.1509378195401
30
0
41
1
10
33.0907898024679
20
-15.1646782892513
30
0
41
1
10
33.0929349500252
20
-15.171776578622
30
0
41
1
10
33.096418551245
20
-15.1864304464581
30
0
41
1
10
33.0977624626886
20
-15.1940447604527
30
0
41
1
10
33.0995500855061
20
-15.2094401787341
30
0
41
1
10
33.1000000000117
20
-15.2172027725805
30
0
41
1
10
33.1000000000118
20
-15.2250311307297
30
0
0
SPLINE
5
129
100
AcDbEntity
8
1
62
256
6
ByLayer
370
18
48
1
60
0
100
AcDbSpline
70
4
71
3
72
8
73
4
40
0
40
0
40
0
40
0
40
1
40
1
40
1
40
1
41
1
10
32.8514981939756
20
-15
30
0
41
1
10
32.9100751308114
20
-15.0274171666291
30
0
41
1
10
32.9684611811006
20
-15.0556053920781
30
0
41
1
10
33.0267770172149
20
-15.0840772376136
30
0
0
SPLINE
5
12A
100
AcDbEntity
8
1
62
256
6
ByLayer
370
18
48
1
60
0
100
AcDbSpline
70
4
71
3
72
16
73
12
40
0
40
0
40
0
40
0
40
0.124999999999998
40
0.124999999999998
40
0.249999999999996
40
0.249999999999996
40
0.499999999999998
40
0.499999999999998
40
0.749999999999999
40
0.749999999999999
40
1
40
1
40
1
40
1
41
1
10
32.6080562954818
20
-13.3792841885508
30
0
41
1
10
32.6201852999619
20
-13.4461913589011
30
0
41
1
10
32.6317192841418
20
-13.5132858108309
30
0
41
1
10
32.6540913480364
20
-13.6476937493816
30
0
41
1
10
32.6649218194625
20
-13.7150096306978
30
0
41
1
10
32.6967170121575
20
-13.9171764091492
30
0
41
1
10
32.7170026938128
20
-14.0522410327935
30
0
41
1
10
32.7566546438873
20
-14.3226596637605
30
0
41
1
10
32.7760030549615
20
-14.4580233509534
30
0
41
1
10
32.8141333054626
20
-14.728909213403
30
0
41
1
10
32.8329092923959
20
-14.8644295608361
30
0
41
1
10
32.8514981939756
20
-15
30
0
0
SPLINE
5
12B
100
AcDbEntity
8
1
62
256
6
ByLayer
370
18
48
1
60
0
100
AcDbSpline
70
4
71
3
72
20
73
16
40
0
40
0
40
0
40
0
40
0.124999999999996
40
0.124999999999996
40
0.249999999999991
40
0.249999999999991
40
0.499999999999983
40
0.499999999999983
40
0.624999999999987
40
0.624999999999987
40
0.749999999999992
40
0.749999999999992
40
0.874999999999996
40
0.874999999999996
40
1
40
1
40
1
40
1
41
1
10
-11.1539311130558
20
0.249980947163749
30
0
41
1
10
-11.1604321264514
20
0.25484312549068
30
0
41
1
10
-11.1669160865667
20
0.259584653592867
30
0
41
1
10
-11.1798450150413
20
0.268812423928665
30
0
41
1
10
-11.1863183862468
20
0.273317667880235
30
0
41
1
10
-11.205414819476
20
0.286238759708993
30
0
41
1
10
-11.2177208346944
20
0.294078861253268
30
0
41
1
10
-11.2353751890956
20
0.30440847513853
30
0
41
1
10
-11.2411564914624
20
0.307626792034881
30
0
41
1
10
-11.2522175048208
20
0.313387918152586
30
0
41
1
10
-11.2574809997012
20
0.315925042907423
30
0
41
1
10
-11.2673785357809
20
0.320189385940665
30
0
41
1
10
-11.2720438166112
20
0.321927033528368
30
0
41
1
10
-11.2804336330612
20
0.324326717375243
30
0
41
1
10
-11.2841126650964
20
0.324980947161919
30
0
41
1
10
-11.2871772280887
20
0.324980947161919
30
0
0
SPLINE
5
12C
100
AcDbEntity
8
1
62
256
6
ByLayer
370
18
48
1
60
0
100
AcDbSpline
70
4
71
3
72
8
73
4
40
0
40
0
40
0
40
0
40
1
40
1
40
1
40
1
41
1
10
-11.1032350631269
20
0.212243119289184
30
0
41
1
10
-11.1201660472026
20
0.224786456048634
30
0
41
1
10
-11.1370643731012
20
0.237366129676758
30
0
41
1
10
-11.1539311130555
20
0.249980947161646
30
0
0
SPLINE
5
12D
100
AcDbEntity
8
1
62
256
6
ByLayer
370
18
48
1
60
0
100
AcDbSpline
70
4
71
3
72
16
73
12
40
0
40
0
40
0
40
0
40
0.250000000000001
40
0.250000000000001
40
0.500000000000003
40
0.500000000000003
40
0.750000000000004
40
0.750000000000004
40
0.875000000000002
40
0.875000000000002
40
1
40
1
40
1
40
1
41
1
10
-9.96637832280616
20
0.249980947161674
30
0
41
1
10
-9.99078675577488
20
0.259909297798572
30
0
41
1
10
-10.0150264157267
20
0.269095229194733
30
0
41
1
10
-10.0631479963767
20
0.285965246733184
30
0
41
1
10
-10.0870307140286
20
0.293653557543223
30
0
41
1
10
-10.1343736234426
20
0.307193150124277
30
0
41
1
10
-10.1578378552941
20
0.313070425791182
30
0
41
1
10
-10.1925916480194
20
0.319751268507474
30
0
41
1
10
-10.2040252939894
20
0.321595212906118
30
0
41
1
10
-10.2261105645492
20
0.324200732781947
30
0
41
1
10
-10.2368176996361
20
0.324980947160697
30
0
41
1
10
-10.2470436468637
20
0.324980947161663
30
0
0
SPLINE
5
12E
100
AcDbEntity
8
1
62
256
6
ByLayer
370
18
48
1
60
0
100
AcDbSpline
70
4
71
3
72
8
73
4
40
0
40
0
40
0
40
0
40
1
40
1
40
1
40
1
41
1
10
-9.66021760536175
20
0.133311925578653
30
0
41
1
10
-9.76333499208651
20
0.169915419798713
30
0
41
1
10
-9.86535047201912
20
0.20888695608096
30
0
41
1
10
-9.96637832280624
20
0.249980947161504
30
0
0
SPLINE
5
12F
100
AcDbEntity
8
1
62
256
6
ByLayer
370
18
48
1
60
0
100
AcDbSpline
70
4
71
3
72
14
73
10
40
0
40
0
40
0
40
0
40
0.303513390288354
40
0.303513390288354
40
0.607026780576708
40
0.607026780576708
40
0.910540170865062
40
0.910540170865062
40
1
40
1
40
1
40
1
41
1
10
-9.40454881002678
20
0.324980947161663
30
0
41
1
10
-9.38759768042249
20
0.324980947161663
30
0
41
1
10
-9.37037734089569
20
0.324333802127739
30
0
41
1
10
-9.33556537129776
20
0.322240606435287
30
0
41
1
10
-9.31797101298199
20
0.320786465315109
30
0
41
1
10
-9.2824892951456
20
0.317312073842714
30
0
41
1
10
-9.26457702802512
20
0.315286220502173
30
0
41
1
10
-9.24129838173958
20
0.312398183522987
30
0
41
1
10
-9.23599680282418
20
0.311723378500801
30
0
41
1
10
-9.23069302614107
20
0.31103252784655
30
0
0
SPLINE
5
130
100
AcDbEntity
8
1
62
256
6
ByLayer
370
18
48
1
60
0
100
AcDbSpline
70
4
71
3
72
16
73
12
40
0
40
0
40
0
40
0
40
0.225218974002626
40
0.225218974002626
40
0.450437948005251
40
0.450437948005251
40
0.675656922007877
40
0.675656922007877
40
0.900875896010502
40
0.900875896010502
40
1
40
1
40
1
40
1
41
1
10
-11.0234674519049
20
0.324980947168172
30
0
41
1
10
-11.0186481431831
20
0.324980947168001
30
0
41
1
10
-11.0131968590635
20
0.324294057072933
30
0
41
1
10
-11.0013242982397
20
0.321823931556139
30
0
41
1
10
-10.9950506921146
20
0.320074036858045
30
0
41
1
10
-10.9819859246727
20
0.315793026802652
30
0
41
1
10
-10.9751929157508
20
0.313258941423413
30
0
41
1
10
-10.9611695861205
20
0.307534381850928
30
0
41
1
10
-10.9539161602598
20
0.304330463663092
30
0
41
1
10
-10.9433966326857
20
0.29939604029272
30
0
41
1
10
-10.9401655207041
20
0.297843114270222
30
0
41
1
10
-10.9369189903123
20
0.296247252501331
30
0
0
SPLINE
5
131
100
AcDbEntity
8
1
62
256
6
ByLayer
370
18
48
1
60
0
100
AcDbSpline
70
4
71
3
72
20
73
16
40
0
40
0
40
0
40
0
40
0.25
40
0.25
40
0.375
40
0.375
40
0.5
40
0.5
40
0.625
40
0.625
40
0.75
40
0.75
40
0.875
40
0.875
40
1
40
1
40
1
40
1
41
1
10
-11.1114500273988
20
0.249980947154313
30
0
41
1
10
-11.1195900715259
20
0.259735651200032
30
0
41
1
10
-11.1270564922387
20
0.269508992532735
30
0
41
1
10
-11.1360204266698
20
0.283150106968293
30
0
41
1
10
-11.1386768192221
20
0.287590116805859
30
0
41
1
10
-11.143039567215
20
0.295963435139441
30
0
41
1
10
-11.1447268949469
20
0.29985100455238
30
0
41
1
10
-11.1470034342433
20
0.306969162786601
30
0
41
1
10
-11.1475787917377
20
0.310212274884577
30
0
41
1
10
-11.1474895806123
20
0.31567755487319
30
0
41
1
10
-11.1468471997408
20
0.317947268097811
30
0
41
1
10
-11.1443698180766
20
0.321572915063996
30
0
41
1
10
-11.1425602599156
20
0.322880500925265
30
0
41
1
10
-11.1379995581218
20
0.324581483697585
30
0
41
1
10
-11.1352153779729
20
0.324980947161748
30
0
41
1
10
-11.1320782392769
20
0.324980947161748
30
0
0
SPLINE
5
132
100
AcDbEntity
8
1
62
256
6
ByLayer
370
18
48
1
60
0
100
AcDbSpline
70
4
71
3
72
30
73
26
40
0
40
0
40
0
40
0
40
0.124999999999987
40
0.124999999999987
40
0.187499999999986
40
0.187499999999986
40
0.249999999999985
40
0.249999999999985
40
0.374999999999987
40
0.374999999999987
40
0.437499999999988
40
0.437499999999988
40
0.499999999999988
40
0.499999999999988
40
0.62499999999999
40
0.62499999999999
40
0.687499999999992
40
0.687499999999992
40
0.749999999999994
40
0.749999999999994
40
0.874999999999997
40
0.874999999999997
40
0.937499999999999
40
0.937499999999999
40
1
40
1
40
1
40
1
41
1
10
10.3885656683962
20
-1.35753920737758
30
0
41
1
10
10.3725769510693
20
-1.35043649184078
30
0
41
1
10
10.3570150539348
20
-1.34125326378336
30
0
41
1
10
10.3343194973799
20
-1.3243232448834
30
0
41
1
10
10.3268338465609
20
-1.31812437066793
30
0
41
1
10
10.3122282395104
20
-1.30476318989145
30
0
41
1
10
10.3051385487059
20
-1.29763439598162
30
0
41
1
10
10.2844916116683
20
-1.27493958336478
30
0
41
1
10
10.2715524892908
20
-1.25807357051426
30
0
41
1
10
10.2533890169325
20
-1.23015571156287
30
0
41
1
10
10.2475336035718
20
-1.22039396153269
30
0
41
1
10
10.2362938056151
20
-1.20003653587057
30
0
41
1
10
10.2309673347538
20
-1.18954867316901
30
0
41
1
10
10.2158421101627
20
-1.15718513004282
30
0
41
1
10
10.2068920716582
20
-1.13441526059285
30
0
41
1
10
10.1951674906063
20
-1.09846886889591
30
0
41
1
10
10.1915440776094
20
-1.08618669921529
30
0
41
1
10
10.1848843247539
20
-1.06100383158724
30
0
41
1
10
10.1818836815989
20
-1.04823306186862
30
0
41
1
10
10.1738903460554
20
-1.00959859854385
30
0
41
1
10
10.1698767621814
20
-0.983328367635892
30
0
41
1
10
10.1658189687721
20
-0.943156192910664
30
0
41
1
10
10.1647950576133
20
-0.929637042188773
30
0
41
1
10
10.1634229106751
20
-0.90233473804895
30
0
41
1
10
10.1630807948133
20
-0.888611598389531
30
0
41
1
10
10.1630807948133
20
-0.875
30
0
0
SPLINE
5
133
100
AcDbEntity
8
1
62
256
6
ByLayer
370
18
48
1
60
0
100
AcDbSpline
70
4
71
3
72
9
73
5
40
0
40
0
40
0
40
0
40
0.5
40
1
40
1
40
1
40
1
41
1
10
10.3885656683962
20
-1.35753920737761
30
0
41
1
10
10.4223280233231
20
-1.36335541594897
30
0
41
1
10
10.4902926869092
20
-1.37204681272578
30
0
41
1
10
10.5591157419288
20
-1.375
30
0
41
1
10
10.593748156342
20
-1.375
30
0
0
SPLINE
5
134
100
AcDbEntity
8
1
62
256
6
ByLayer
370
18
48
1
60
0
100
AcDbSpline
70
4
71
3
72
81
73
77
40
0
40
0
40
0
40
0
40
0.007812500000008
40
0.007812500000008
40
0.011718750000012
40
0.011718750000012
40
0.0156250000000159
40
0.0156250000000159
40
0.0175781250000179
40
0.0175781250000179
40
0.0185546875000187
40
0.0185546875000187
40
0.0195312500000193
40
0.0195312500000193
40
0.0214843750000191
40
0.0214843750000191
40
0.0234375000000188
40
0.0234375000000188
40
0.0273437500000184
40
0.0273437500000184
40
0.031250000000018
40
0.031250000000018
40
0.0390625000000179
40
0.0390625000000179
40
0.0468750000000179
40
0.0468750000000179
40
0.0625000000000177
40
0.0625000000000177
40
0.093750000000017
40
0.093750000000017
40
0.125000000000016
40
0.125000000000016
40
0.187500000000015
40
0.187500000000015
40
0.250000000000014
40
0.250000000000014
40
0.375000000000012
40
0.375000000000012
40
0.50000000000001
40
0.625000000000008
40
0.625000000000008
40
0.687500000000007
40
0.687500000000007
40
0.750000000000006
40
0.750000000000006
40
0.812500000000005
40
0.812500000000005
40
0.875000000000004
40
0.875000000000004
40
0.906250000000003
40
0.906250000000003
40
0.937500000000003
40
0.937500000000003
40
0.953125000000003
40
0.953125000000003
40
0.960937500000003
40
0.960937500000003
40
0.968750000000003
40
0.968750000000003
40
0.972656250000003
40
0.972656250000003
40
0.976562500000004
40
0.976562500000004
40
0.978515625000003
40
0.978515625000003
40
0.980468750000003
40
0.980468750000003
40
0.982421875000002
40
0.982421875000002
40
0.984375000000001
40
0.984375000000001
40
0.988281250000001
40
0.988281250000001
40
0.992187500000001
40
0.992187500000001
40
1
40
1
40
1
40
1
41
1
10
-1.91224221525877
20
-0.394519052838319
30
0
41
1
10
-1.92282156572341
20
-0.397533435195697
30
0
41
1
10
-1.93328703299295
20
-0.400792642800013
30
0
41
1
10
-1.94859288445005
20
-0.40651666926243
30
0
41
1
10
-1.95359149055577
20
-0.40855281328524
30
0
41
1
10
-1.96318270865211
20
-0.413077560163487
30
0
41
1
10
-1.96785173654939
20
-0.415569664711171
30
0
41
1
10
-1.97395171242516
20
-0.420048670860723
30
0
41
1
10
-1.97580369573168
20
-0.421646658948987
30
0
41
1
10
-1.9780408753785
20
-0.424340153169766
30
0
41
1
10
-1.97867307625052
20
-0.425265399837997
30
0
41
1
10
-1.97964165466868
20
-0.427187280234875
30
0
41
1
10
-1.97997556416402
20
-0.428196550109362
30
0
41
1
10
-1.98037246688429
20
-0.431176687394242
30
0
41
1
10
-1.97980883341094
20
-0.43315604020998
30
0
41
1
10
-1.97748212350464
20
-0.436651382667094
30
0
41
1
10
-1.97581374795774
20
-0.438152979130393
30
0
41
1
10
-1.97009904328232
20
-0.442195860936522
30
0
41
1
10
-1.96555805505966
20
-0.444199414509029
30
0
41
1
10
-1.9560684346626
20
-0.447721193247531
30
0
41
1
10
-1.95106731633362
20
-0.449203062644955
30
0
41
1
10
-1.93595107519374
20
-0.453143056337922
30
0
41
1
10
-1.92557687187252
20
-0.455151548859845
30
0
41
1
10
-1.90457892025236
20
-0.458657307765151
30
0
41
1
10
-1.89394318274029
20
-0.460129304204259
30
0
41
1
10
-1.86179262627243
20
-0.464054865240968
30
0
41
1
10
-1.84020397899081
20
-0.466007269746626
30
0
41
1
10
-1.77556093947172
20
-0.470916772337659
30
0
41
1
10
-1.732404440539
20
-0.472937703046796
30
0
41
1
10
-1.64603636785412
20
-0.476023509055096
30
0
41
1
10
-1.60282241164069
20
-0.477033463499424
30
0
41
1
10
-1.47312342215656
20
-0.479215768728096
30
0
41
1
10
-1.38658196181328
20
-0.479556475236905
30
0
41
1
10
-1.21341185681214
20
-0.479476207823097
30
0
41
1
10
-1.12678156308041
20
-0.479017268009557
30
0
41
1
10
-0.866793441191277
20
-0.477269893009009
30
0
41
1
10
-0.693339956070815
20
-0.475647183276322
30
0
41
1
10
-0.346258593410312
20
-0.473375275194542
30
0
41
1
10
0.0010003507703686
20
-0.47200367055919
30
0
41
1
10
0.348574051787637
20
-0.473386319949782
30
0
41
1
10
0.609388405753919
20
-0.475099760634464
30
0
41
1
10
0.696349175854493
20
-0.475776693033907
30
0
41
1
10
0.870323792927252
20
-0.477166899227512
30
0
41
1
10
0.957329148831604
20
-0.477882761325304
30
0
41
1
10
1.13113690460139
20
-0.479041949024122
30
0
41
1
10
1.21796857575407
20
-0.479493958295478
30
0
41
1
10
1.39143454900767
20
-0.479542216888063
30
0
41
1
10
1.47807229819924
20
-0.479177404442254
30
0
41
1
10
1.6077869137431
20
-0.4769254973817
30
0
41
1
10
1.65098443404148
20
-0.475886802092418
30
0
41
1
10
1.73725264988963
20
-0.472719601202726
30
0
41
1
10
1.78025703058967
20
-0.470645781454891
30
0
41
1
10
1.84417449210787
20
-0.465656248769307
30
0
41
1
10
1.86538741092397
20
-0.463682824017241
30
0
41
1
10
1.89692280726311
20
-0.459723906732506
30
0
41
1
10
1.90740435871624
20
-0.458233151164734
30
0
41
1
10
1.92812264321626
20
-0.454664943117876
30
0
41
1
10
1.93832423326475
20
-0.452621312482336
30
0
41
1
10
1.95306542600488
20
-0.448616583755722
30
0
41
1
10
1.95788625907511
20
-0.447126197110236
30
0
41
1
10
1.96714261473943
20
-0.443496857369723
30
0
41
1
10
1.9715521129832
20
-0.441419320218728
30
0
41
1
10
1.97684146809391
20
-0.437229800282552
30
0
41
1
10
1.97833650493848
20
-0.43566091557463
30
0
41
1
10
1.98016767343341
20
-0.43208488231366
30
0
41
1
10
1.9804197424285
20
-0.430094718808817
30
0
41
1
10
1.97937553127721
20
-0.426188446353933
30
0
41
1
10
1.97814356823213
20
-0.424317649885751
30
0
41
1
10
1.97498510374808
20
-0.420901794091236
30
0
41
1
10
1.97308244679573
20
-0.419356299912778
30
0
41
1
10
1.96692460319247
20
-0.415043395047576
30
0
41
1
10
1.9622975569514
20
-0.412623793809473
30
0
41
1
10
1.95271325741348
20
-0.40818209795799
30
0
41
1
10
1.94779456186367
20
-0.406204007763847
30
0
41
1
10
1.93283786110658
20
-0.400656000617431
30
0
41
1
10
1.92260027365083
20
-0.397470382277817
30
0
41
1
10
1.91224221527571
20
-0.394519052843151
30
0
0
SPLINE
5
135
100
AcDbEntity
8
1
62
256
6
ByLayer
370
18
48
1
60
0
100
AcDbSpline
70
4
71
3
72
17
73
13
40
0
40
0
40
0
40
0
40
0.25
40
0.25
40
0.375
40
0.4375
40
0.4375
40
0.5
40
0.5
40
0.75
40
0.75
40
1
40
1
40
1
40
1
41
1
10
1.91224221527673
20
-0.394519052843435
30
0
41
1
10
1.6015977775435
20
-0.306006897427324
30
0
41
1
10
1.2870147226069
20
-0.236782441218338
30
0
41
1
10
0.808326323249844
20
-0.166313521538967
30
0
41
1
10
0.567279119098799
20
-0.139418800322716
30
0
41
1
10
0.323519502227185
20
-0.12580696443888
30
0
41
1
10
0.160394283176998
20
-0.119762754673957
30
0
41
1
10
0.0783629119482896
20
-0.118261377257454
30
0
41
1
10
-0.329727668873488
20
-0.118464900509594
30
0
41
1
10
-0.651754427740201
20
-0.143175179431694
30
0
41
1
10
-1.28776911723094
20
-0.236983023929383
30
0
41
1
10
-1.60176192357355
20
-0.306053667681027
30
0
41
1
10
-1.91224221525877
20
-0.394519052838319
30
0
0
SPLINE
5
136
100
AcDbEntity
8
1
62
256
6
ByLayer
370
18
48
1
60
0
100
AcDbSpline
70
4
71
3
72
8
73
4
40
0
40
0
40
0
40
0
40
1
40
1
40
1
40
1
41
1
10
-14.5615187733782
20
-0.23651877337818
30
0
41
1
10
-14.3513710386801
20
-0.0731431542574796
30
0
41
1
10
-14.140018401876
20
0.0890594833153955
30
0
41
1
10
-13.9273497265336
20
0.249980947161674
30
0
0
SPLINE
5
137
100
AcDbEntity
8
1
62
256
6
ByLayer
370
18
48
1
60
0
100
AcDbSpline
70
4
71
3
72
8
73
4
40
0
40
0
40
0
40
0
40
1
40
1
40
1
40
1
41
1
10
-14.5615187733782
20
-0.23651877337818
30
0
41
1
10
-14.7076620247758
20
-0.382662024775812
30
0
41
1
10
-14.8538226741323
20
-0.528822674132243
30
0
41
1
10
-15
20
-0.675000000000011
30
0
0
SPLINE
5
138
100
AcDbEntity
8
1
62
256
6
ByLayer
370
18
48
1
60
0
100
AcDbSpline
70
4
71
3
72
8
73
4
40
0
40
0
40
0
40
0
40
1
40
1
40
1
40
1
41
1
10
7.81377042360427
20
-0.474999999999994
30
0
41
1
10
7.85488481363834
20
-0.541662508489168
30
0
41
1
10
7.89599665707928
20
-0.608329227881853
30
0
41
1
10
7.93710604868392
20
-0.675000000000011
30
0
0
SPLINE
5
139
100
AcDbEntity
8
1
62
256
6
ByLayer
370
18
48
1
60
0
100
AcDbSpline
70
4
71
3
72
8
73
4
40
0
40
0
40
0
40
0
40
1
40
1
40
1
40
1
41
1
10
6.60065048818436
20
0.324980947161663
30
0
41
1
10
7.0058816666224
20
0.0618153720882901
30
0
41
1
10
7.41022395361122
20
-0.204971331217308
30
0
41
1
10
7.81377042360424
20
-0.474999999999994
30
0
0
SPLINE
5
13A
100
AcDbEntity
8
1
62
256
6
ByLayer
370
18
48
1
60
0
100
AcDbSpline
70
4
71
3
72
30
73
26
40
0
40
0
40
0
40
0
40
0.062500000000026
40
0.062500000000026
40
0.125000000000052
40
0.125000000000052
40
0.187500000000078
40
0.187500000000078
40
0.218750000000082
40
0.218750000000082
40
0.250000000000086
40
0.250000000000086
40
0.312500000000079
40
0.312500000000079
40
0.375000000000072
40
0.375000000000072
40
0.437500000000064
40
0.437500000000064
40
0.500000000000057
40
0.500000000000057
40
0.625000000000043
40
0.625000000000043
40
0.750000000000029
40
0.750000000000029
40
1
40
1
40
1
40
1
41
1
10
6.22292588125003
20
0.249980947131121
30
0
41
1
10
6.21955595240865
20
0.252914908876164
30
0
41
1
10
6.21636758997769
20
0.255939059647659
30
0
41
1
10
6.21051007557585
20
0.262245767396166
30
0
41
1
10
6.20785466491733
20
0.265522644781726
30
0
41
1
10
6.20351609927596
20
0.272168749535751
30
0
41
1
10
6.20179147637555
20
0.275624633340186
30
0
41
1
10
6.20027976527976
20
0.280687054084183
30
0
41
1
10
6.19995012421148
20
0.282353947498052
30
0
41
1
10
6.19966320953691
20
0.285643710974057
30
0
41
1
10
6.19971056995726
20
0.287281667244514
30
0
41
1
10
6.2004140800575
20
0.291948296582604
30
0
41
1
10
6.20160828920962
20
0.294772273174516
30
0
41
1
10
6.20518386142254
20
0.299949113688854
30
0
41
1
10
6.20751976611061
20
0.302231168235806
30
0
41
1
10
6.2128703529244
20
0.306274866820559
30
0
41
1
10
6.21591426295655
20
0.308054038889253
30
0
41
1
10
6.22230861856278
20
0.311160963692032
30
0
41
1
10
6.22568657241553
20
0.31250844802733
30
0
41
1
10
6.23620682309922
20
0.316109021782751
30
0
41
1
10
6.24372854904979
20
0.31792809148601
30
0
41
1
10
6.2593944540761
20
0.320848040210763
30
0
41
1
10
6.26750018480021
20
0.321930725538721
30
0
41
1
10
6.29208157702357
20
0.324377259675799
30
0
41
1
10
6.30895523289033
20
0.324980947161663
30
0
41
1
10
6.32610759209331
20
0.324980947161663
30
0
0
SPLINE
5
13B
100
AcDbEntity
8
1
62
256
6
ByLayer
370
18
48
1
60
0
100
AcDbSpline
70
4
71
3
72
8
73
4
40
0
40
0
40
0
40
0
40
1
40
1
40
1
40
1
41
1
10
6.94370199057298
20
-0.394519052838319
30
0
41
1
10
6.70648353684354
20
-0.177135671773783
30
0
41
1
10
6.46649386217231
20
0.0379233125618441
30
0
41
1
10
6.2229258812701
20
0.249980947141125
30
0
0
SPLINE
5
13C
100
AcDbEntity
8
1
62
256
6
ByLayer
370
18
48
1
60
0
100
AcDbSpline
70
4
71
3
72
40
73
36
40
0
40
0
40
0
40
0
40
0.250000000000001
40
0.250000000000001
40
0.375000000000001
40
0.375000000000001
40
0.500000000000001
40
0.500000000000001
40
0.562499999999999
40
0.562499999999999
40
0.624999999999998
40
0.624999999999998
40
0.687499999999997
40
0.687499999999997
40
0.749999999999996
40
0.749999999999996
40
0.781249999999995
40
0.781249999999995
40
0.812499999999994
40
0.812499999999994
40
0.843749999999994
40
0.843749999999994
40
0.874999999999993
40
0.874999999999993
40
0.890624999999994
40
0.890624999999994
40
0.906249999999995
40
0.906249999999995
40
0.921874999999996
40
0.921874999999996
40
0.937499999999997
40
0.937499999999997
40
0.968749999999998
40
0.968749999999998
40
1
40
1
40
1
40
1
41
1
10
6.31056345909113
20
-0.394519052838518
30
0
41
1
10
6.37477160274292
20
-0.411379638935813
30
0
41
1
10
6.43873436581833
20
-0.426175341576084
30
0
41
1
10
6.53429778488416
20
-0.445232963789806
30
0
41
1
10
6.56608797546161
20
-0.451051827023463
30
0
41
1
10
6.62952417807892
20
-0.461442125692656
30
0
41
1
10
6.66117064223556
20
-0.466019194826799
30
0
41
1
10
6.70850783880189
20
-0.471655016990979
30
0
41
1
10
6.72426466292015
20
-0.473326678573358
30
0
41
1
10
6.7557261014864
20
-0.476161098836997
30
0
41
1
10
6.77145110599577
20
-0.477324643893013
30
0
41
1
10
6.80250792684535
20
-0.478976540973378
30
0
41
1
10
6.81787500488093
20
-0.479471186456607
30
0
41
1
10
6.84817943934439
20
-0.479560419705763
30
0
41
1
10
6.86312052932414
20
-0.479163283900618
30
0
41
1
10
6.88505053830161
20
-0.477539240813599
30
0
41
1
10
6.8922792992789
20
-0.476824350812876
30
0
41
1
10
6.90651936764425
20
-0.47492561812976
30
0
41
1
10
6.91354439935401
20
-0.473737864933412
30
0
41
1
10
6.92700114264716
20
-0.470750396595264
30
0
41
1
10
6.93346671813322
20
-0.468952428293051
30
0
41
1
10
6.94560309325294
20
-0.464430091165326
30
0
41
1
10
6.9513232003797
20
-0.461676155240184
30
0
41
1
10
6.95851683438016
20
-0.456587871636742
30
0
41
1
10
6.96069380192048
20
-0.454727700184236
30
0
41
1
10
6.96446307291583
20
-0.450572101252135
30
0
41
1
10
6.9660284372105
20
-0.448294122549783
30
0
41
1
10
6.96829725749961
20
-0.443380727673969
30
0
41
1
10
6.96901235433305
20
-0.440690505253485
30
0
41
1
10
6.96943324881519
20
-0.435114089853443
30
0
41
1
10
6.96915785814377
20
-0.432219602519865
30
0
41
1
10
6.96690761888635
20
-0.423224118274902
30
0
41
1
10
6.96353664392529
20
-0.417072710650359
30
0
41
1
10
6.9547696385205
20
-0.405342643436654
30
0
41
1
10
6.94949560394613
20
-0.39982823196766
30
0
41
1
10
6.94370199057298
20
-0.394519052838319
30
0
0
SPLINE
5
13D
100
AcDbEntity
8
1
62
256
6
ByLayer
370
18
48
1
60
0
100
AcDbSpline
70
4
71
3
72
8
73
4
40
0
40
0
40
0
40
0
40
1
40
1
40
1
40
1
41
1
10
3.02046224885069
20
0.249980947161674
30
0
41
1
10
4.1359861011274
20
0.107222523982614
30
0
41
1
10
5.23174171602679
20
-0.111228400779481
30
0
41
1
10
6.31056345909118
20
-0.394519052838035
30
0
0
SPLINE
5
13E
100
AcDbEntity
8
1
62
256
6
ByLayer
370
18
48
1
60
0
100
AcDbSpline
70
4
71
3
72
14
73
10
40
0
40
0
40
0
40
0
40
0.25
40
0.25
40
0.5
40
0.5
40
0.75
40
0.75
40
1
40
1
40
1
40
1
41
1
10
1.73594520006446
20
0.324980947161691
30
0
41
1
10
1.84309474173756
20
0.324980947161691
30
0
41
1
10
1.95022075456768
20
0.323452236129242
30
0
41
1
10
2.16441448633975
20
0.317526654577222
30
0
41
1
10
2.27148283436819
20
0.313119988055348
30
0
41
1
10
2.48557990191409
20
0.301179376033105
30
0
41
1
10
2.59260836335662
20
0.293649067375753
30
0
41
1
10
2.80666688413962
20
0.274872902970941
30
0
41
1
10
2.91367618098349
20
0.263646823185127
30
0
41
1
10
3.02046224885069
20
0.249980947161873
30
0
0
SPLINE
5
13F
100
AcDbEntity
8
1
62
256
6
ByLayer
370
18
48
1
60
0
100
AcDbSpline
70
4
71
3
72
14
73
10
40
0
40
0
40
0
40
0
40
0.25
40
0.25
40
0.5
40
0.5
40
0.75
40
0.75
40
1
40
1
40
1
40
1
41
1
10
-3.02046224885069
20
0.249980947161674
30
0
41
1
10
-2.91364525025708
20
0.263650781524092
30
0
41
1
10
-2.80678930238935
20
0.274859400504965
30
0
41
1
10
-2.59295877929037
20
0.293621089038197
30
0
41
1
10
-2.48598486060513
20
0.301152741664794
30
0
41
1
10
-2.27190023278155
20
0.31310074243703
30
0
41
1
10
-2.16478964220229
20
0.317513647984981
30
0
41
1
10
-1.95042328219975
20
0.323449254272589
30
0
41
1
10
-1.84314979610448
20
0.324980947161805
30
0
41
1
10
-1.73594520006446
20
0.324980947161805
30
0
0
SPLINE
5
140
100
AcDbEntity
8
1
62
256
6
ByLayer
370
18
48
1
60
0
100
AcDbSpline
70
4
71
3
72
8
73
4
40
0
40
0
40
0
40
0
40
1
40
1
40
1
40
1
41
1
10
-6.31056345909118
20
-0.394519052838035
30
0
41
1
10
-5.23174171602679
20
-0.111228400779481
30
0
41
1
10
-4.1359861011274
20
0.107222523982614
30
0
41
1
10
-3.02046224885069
20
0.249980947161674
30
0
0
SPLINE
5
141
100
AcDbEntity
8
1
62
256
6
ByLayer
370
18
48
1
60
0
100
AcDbSpline
70
4
71
3
72
38
73
34
40
0
40
0
40
0
40
0
40
0.0312499999999968
40
0.0312499999999968
40
0.0468749999999952
40
0.0468749999999952
40
0.0624999999999938
40
0.0624999999999938
40
0.0781249999999922
40
0.0781249999999922
40
0.0937499999999907
40
0.0937499999999907
40
0.124999999999988
40
0.124999999999988
40
0.140624999999988
40
0.140624999999988
40
0.156249999999989
40
0.156249999999989
40
0.187499999999991
40
0.187499999999991
40
0.249999999999992
40
0.249999999999992
40
0.312499999999992
40
0.312499999999992
40
0.374999999999993
40
0.374999999999993
40
0.499999999999994
40
0.499999999999994
40
0.624999999999995
40
0.624999999999995
40
0.749999999999996
40
0.749999999999996
40
1
40
1
40
1
40
1
41
1
10
-6.9437019905853
20
-0.394519052844345
30
0
41
1
10
-6.94950896079734
20
-0.399840471978024
30
0
41
1
10
-6.95487075366256
20
-0.405468539491409
30
0
41
1
10
-6.96135311381423
20
-0.41415595474092
30
0
41
1
10
-6.9632594025644
20
-0.417097475848209
30
0
41
1
10
-6.96640667044278
20
-0.423099880063631
30
0
41
1
10
-6.96761586971716
20
-0.426116302508717
30
0
41
1
10
-6.96912327074104
20
-0.432023475756551
30
0
41
1
10
-6.96942508964193
20
-0.434972492094005
30
0
41
1
10
-6.96904305703399
20
-0.440519738407147
30
0
41
1
10
-6.96837681670823
20
-0.443136098555243
30
0
41
1
10
-6.96505057587058
20
-0.450546752278512
30
0
41
1
10
-6.96127333728383
20
-0.454550304275358
30
0
41
1
10
-6.95423460303806
20
-0.459654605417683
30
0
41
1
10
-6.95163771381637
20
-0.461207412587328
30
0
41
1
10
-6.94617531050903
20
-0.464004555023422
30
0
41
1
10
-6.9432963611988
20
-0.465259768495429
30
0
41
1
10
-6.93431043459861
20
-0.468687677725654
30
0
41
1
10
-6.92784789138967
20
-0.470525557036069
30
0
41
1
10
-6.90791400682035
20
-0.4750543513058
30
0
41
1
10
-6.89376528285266
20
-0.476844350448005
30
0
41
1
10
-6.86452894473786
20
-0.479103966091572
30
0
41
1
10
-6.84957718699221
20
-0.479534942910078
30
0
41
1
10
-6.8192776629011
20
-0.479502300680395
30
0
41
1
10
-6.80391672915488
20
-0.479030439617617
30
0
41
1
10
-6.75736948054713
20
-0.476614959194904
30
0
41
1
10
-6.72600609435827
20
-0.473707937007589
30
0
41
1
10
-6.66283482363754
20
-0.466246113725987
30
0
41
1
10
-6.6310051118772
20
-0.461668317288456
30
0
41
1
10
-6.56705479948486
20
-0.45122594227513
30
0
41
1
10
-6.53505244750029
20
-0.445376954980162
30
0
41
1
10
-6.4389694704841
20
-0.426235064493312
30
0
41
1
10
-6.37481328661519
20
-0.411390584813802
30
0
41
1
10
-6.31056345909113
20
-0.394519052838348
30
0
0
SPLINE
5
142
100
AcDbEntity
8
1
62
256
6
ByLayer
370
18
48
1
60
0
100
AcDbSpline
70
4
71
3
72
8
73
4
40
0
40
0
40
0
40
0
40
1
40
1
40
1
40
1
41
1
10
-6.2229258812701
20
0.249980947141125
30
0
41
1
10
-6.46649386217525
20
0.0379233125592862
30
0
41
1
10
-6.70648353684932
20
-0.177135671778956
30
0
41
1
10
-6.94370199058156
20
-0.394519052846164
30
0
0
SPLINE
5
143
100
AcDbEntity
8
1
62
256
6
ByLayer
370
18
48
1
60
0
100
AcDbSpline
70
4
71
3
72
28
73
24
40
0
40
0
40
0
40
0
40
0.249999999999991
40
0.249999999999991
40
0.374999999999987
40
0.374999999999987
40
0.499999999999983
40
0.499999999999983
40
0.562499999999985
40
0.562499999999985
40
0.624999999999987
40
0.624999999999987
40
0.687499999999989
40
0.687499999999989
40
0.749999999999991
40
0.749999999999991
40
0.812499999999994
40
0.812499999999994
40
0.874999999999996
40
0.874999999999996
40
0.937499999999998
40
0.937499999999998
40
1
40
1
40
1
40
1
41
1
10
-6.32610759209331
20
0.324980947161663
30
0
41
1
10
-6.30894164051679
20
0.324980947161663
30
0
41
1
10
-6.2920635134449
20
0.324375867069932
30
0
41
1
10
-6.26749588936985
20
0.3219300952467
30
0
41
1
10
-6.25943326740045
20
0.32085518881064
30
0
41
1
10
-6.24369435696329
20
0.317921804204587
30
0
41
1
10
-6.23609002146529
20
0.316080959786575
30
0
41
1
10
-6.22550351037793
20
0.312439632077798
30
0
41
1
10
-6.22210698144585
20
0.311076075105149
30
0
41
1
10
-6.21568609914917
20
0.307929189855884
30
0
41
1
10
-6.21267351534166
20
0.306146729630399
30
0
41
1
10
-6.20738715966201
20
0.302109007415226
30
0
41
1
10
-6.20507139005912
20
0.299823372219635
30
0
41
1
10
-6.20153703134238
20
0.294630037775505
30
0
41
1
10
-6.20034973300679
20
0.291754064168089
30
0
41
1
10
-6.19947715640618
20
0.285483953660503
30
0
41
1
10
-6.19979992398481
20
0.282212586931081
30
0
41
1
10
-6.20188043678121
20
0.275412687019298
30
0
41
1
10
-6.20359999834162
20
0.272014335422199
30
0
41
1
10
-6.20799059239903
20
0.265341649736172
30
0
41
1
10
-6.21065250989122
20
0.262082766471423
30
0
41
1
10
-6.21643658084921
20
0.2558747816623
30
0
41
1
10
-6.21958846278596
20
0.252886604389005
30
0
41
1
10
-6.22292588127033
20
0.249980947140926
30
0
0
SPLINE
5
144
100
AcDbEntity
8
1
62
256
6
ByLayer
370
18
48
1
60
0
100
AcDbSpline
70
4
71
3
72
17
73
13
40
0
40
0
40
0
40
0
40
0.250000000000002
40
0.500000000000003
40
0.500000000000003
40
0.625000000000002
40
0.625000000000002
40
0.750000000000002
40
0.750000000000002
40
0.875000000000001
40
0.875000000000001
40
1
40
1
40
1
40
1
41
1
10
-7.15410175340969
20
0.249980947161816
30
0
41
1
10
-7.11949273474029
20
0.260870976065661
30
0
41
1
10
-7.05026156071183
20
0.280409342926959
30
0
41
1
10
-6.98098651916527
20
0.295834974764006
30
0
41
1
10
-6.9290120046367
20
0.305730156657234
30
0
41
1
10
-6.91168423969094
20
0.308745403149373
30
0
41
1
10
-6.87726105822415
20
0.314112278634411
30
0
41
1
10
-6.8601373246226
20
0.316470394553619
30
0
41
1
10
-6.82609666353446
20
0.320433354681313
30
0
41
1
10
-6.8091790679558
20
0.322040380930361
30
0
41
1
10
-6.77560867949245
20
0.324310745266985
30
0
41
1
10
-6.75895378391421
20
0.324980947161606
30
0
41
1
10
-6.74249188881706
20
0.324980947161663
30
0
0
SPLINE
5
145
100
AcDbEntity
8
1
62
256
6
ByLayer
370
18
48
1
60
0
100
AcDbSpline
70
4
71
3
72
8
73
4
40
0
40
0
40
0
40
0
40
1
40
1
40
1
40
1
41
1
10
-8.98692851463423
20
-0.394519052838319
30
0
41
1
10
-8.384783437259
20
-0.160922546217108
30
0
41
1
10
-7.77427580892314
20
0.0548377836275904
30
0
41
1
10
-7.15410175340971
20
0.249980947161674
30
0
0
SPLINE
5
146
100
AcDbEntity
8
1
62
256
6
ByLayer
370
18
48
1
60
0
100
AcDbSpline
70
4
71
3
72
38
73
34
40
0
40
0
40
0
40
0
40
0.03124999999999
40
0.03124999999999
40
0.0624999999999801
40
0.0624999999999801
40
0.0937499999999702
40
0.0937499999999702
40
0.124999999999961
40
0.124999999999961
40
0.140624999999959
40
0.140624999999959
40
0.156249999999957
40
0.156249999999957
40
0.18749999999996
40
0.18749999999996
40
0.218749999999963
40
0.218749999999963
40
0.249999999999966
40
0.249999999999966
40
0.312499999999972
40
0.312499999999972
40
0.374999999999979
40
0.374999999999979
40
0.437499999999985
40
0.437499999999985
40
0.499999999999991
40
0.499999999999991
40
0.624999999999996
40
0.624999999999996
40
0.750000000000001
40
0.750000000000001
40
1
40
1
40
1
40
1
41
1
10
-9.39538846339337
20
-0.394519052837154
30
0
41
1
10
-9.39931252043964
20
-0.398885595145714
30
0
41
1
10
-9.40294265258265
20
-0.403307302163142
30
0
41
1
10
-9.40943685546671
20
-0.41229412988929
30
0
41
1
10
-9.41232312472627
20
-0.416909228814092
30
0
41
1
10
-9.41685123823549
20
-0.425966268108198
30
0
41
1
10
-9.41852742540985
20
-0.430476184279087
30
0
41
1
10
-9.42034760074219
20
-0.439106172816139
30
0
41
1
10
-9.42048798744298
20
-0.44314609700092
30
0
41
1
10
-9.41953665683756
20
-0.448791861472614
30
0
41
1
10
-9.41901882100981
20
-0.450615689000983
30
0
41
1
10
-9.41763416504909
20
-0.454029340103233
30
0
41
1
10
-9.41676860092079
20
-0.455629436905042
30
0
41
1
10
-9.41370522919763
20
-0.460142637892375
30
0
41
1
10
-9.41101084625686
20
-0.462790271628421
30
0
41
1
10
-9.40475722197043
20
-0.467329854200074
30
0
41
1
10
-9.40121470148263
20
-0.469229096419326
30
0
41
1
10
-9.39349606281391
20
-0.472464916766313
30
0
41
1
10
-9.38930097964762
20
-0.473801534714227
30
0
41
1
10
-9.37622144042925
20
-0.477070148566497
30
0
41
1
10
-9.36677891891844
20
-0.478317730661246
30
0
41
1
10
-9.34696068021994
20
-0.479621526876542
30
0
41
1
10
-9.33658051127524
20
-0.479660016760334
30
0
41
1
10
-9.31547973767194
20
-0.478868132934792
30
0
41
1
10
-9.30470496885984
20
-0.478037327116795
30
0
41
1
10
-9.28280754864188
20
-0.475708447562795
30
0
41
1
10
-9.27164840317904
20
-0.474201921571563
30
0
41
1
10
-9.23811409009987
20
-0.468915971092088
30
0
41
1
10
-9.21561276810894
20
-0.464384190703157
30
0
41
1
10
-9.17039514074557
20
-0.453877630445248
30
0
41
1
10
-9.14767753970106
20
-0.447892731526878
30
0
41
1
10
-9.07924677772213
20
-0.428095750861701
30
0
41
1
10
-9.0332619564788
20
-0.412493674837833
30
0
41
1
10
-8.98692851463424
20
-0.394519052838433
30
0
0
SPLINE
5
147
100
AcDbEntity
8
1
62
256
6
ByLayer
370
18
48
1
60
0
100
AcDbSpline
70
4
71
3
72
8
73
4
40
0
40
0
40
0
40
0
40
1
40
1
40
1
40
1
41
1
10
-8.81287846405296
20
0.249980947156075
30
0
41
1
10
-9.0077785167926
20
0.0356424895420275
30
0
41
1
10
-9.20190632438599
20
-0.179219444300429
30
0
41
1
10
-9.3953884633876
20
-0.394519052838319
30
0
0
SPLINE
5
148
100
AcDbEntity
8
1
62
256
6
ByLayer
370
18
48
1
60
0
100
AcDbSpline
70
4
71
3
72
28
73
24
40
0
40
0
40
0
40
0
40
0.250000000000013
40
0.250000000000013
40
0.375000000000019
40
0.375000000000019
40
0.500000000000025
40
0.500000000000025
40
0.562500000000022
40
0.562500000000022
40
0.625000000000019
40
0.625000000000019
40
0.687500000000016
40
0.687500000000016
40
0.750000000000012
40
0.750000000000012
40
0.812500000000009
40
0.812500000000009
40
0.875000000000006
40
0.875000000000006
40
0.937500000000003
40
0.937500000000003
40
1
40
1
40
1
40
1
41
1
10
-8.86408179867617
20
0.324980947162231
30
0
41
1
10
-8.85129538935946
20
0.32498094716226
30
0
41
1
10
-8.83894481110524
20
0.324132477893784
30
0
41
1
10
-8.8222169951449
20
0.32075719148483
30
0
41
1
10
-8.81692618508802
20
0.319278475547179
30
0
41
1
10
-8.80719346932877
20
0.315274284744561
30
0
41
1
10
-8.80288537420073
20
0.312803317823807
30
0
41
1
10
-8.79764866346818
20
0.308104402530773
30
0
41
1
10
-8.79609940480199
20
0.306352422583785
30
0
41
1
10
-8.79358803963603
20
0.302536520574051
30
0
41
1
10
-8.7926186579658
20
0.30047339121117
30
0
41
1
10
-8.79132427301084
20
0.295998566424203
30
0
41
1
10
-8.79100712746296
20
0.293571945582585
30
0
41
1
10
-8.79108275102192
20
0.288549776175699
30
0
41
1
10
-8.79146539182061
20
0.285933125165428
30
0
41
1
10
-8.79290203059387
20
0.280494627087478
30
0
41
1
10
-8.79395351452455
20
0.277701759323776
30
0
41
1
10
-8.79656638697135
20
0.272147870695989
30
0
41
1
10
-8.79813432448748
20
0.269361345622173
30
0
41
1
10
-8.80171509926663
20
0.263772010194657
30
0
41
1
10
-8.80374131425188
20
0.260953956620313
30
0
41
1
10
-8.80809426650328
20
0.255412160239644
30
0
41
1
10
-8.81042372701619
20
0.25268050799562
30
0
41
1
10
-8.81287846405199
20
0.249980947155791
30
0
0
SPLINE
5
149
100
AcDbEntity
8
1
62
256
6
ByLayer
370
18
48
1
60
0
100
AcDbSpline
70
4
71
3
72
18
73
14
40
0
40
0
40
0
40
0
40
0.249999999999993
40
0.249999999999993
40
0.499999999999986
40
0.499999999999986
40
0.624999999999989
40
0.624999999999989
40
0.749999999999993
40
0.749999999999993
40
0.874999999999996
40
0.874999999999996
40
1
40
1
40
1
40
1
41
1
10
-9.42014604979882
20
0.249980947161674
30
0
41
1
10
-9.39555423460408
20
0.260573449959651
30
0
41
1
10
-9.3709080164588
20
0.270230194328264
30
0
41
1
10
-9.32201317218862
20
0.287558568041931
30
0
41
1
10
-9.29769042100246
20
0.295264739422492
30
0
41
1
10
-9.2614134877624
20
0.305221378626044
30
0
41
1
10
-9.24935609579741
20
0.308270592014935
30
0
41
1
10
-9.22532162877246
20
0.313754324838612
30
0
41
1
10
-9.21330961472533
20
0.316195905728222
30
0
41
1
10
-9.18954659680882
20
0.320303380454163
30
0
41
1
10
-9.17785494091434
20
0.321962244274403
30
0
41
1
10
-9.15494813399802
20
0.324297936899598
30
0
41
1
10
-9.14372986088289
20
0.324980947161151
30
0
41
1
10
-9.13284665392271
20
0.324980947161691
30
0
0
SPLINE
5
14A
100
AcDbEntity
8
1
62
256
6
ByLayer
370
18
48
1
60
0
100
AcDbSpline
70
4
71
3
72
8
73
4
40
0
40
0
40
0
40
0
40
1
40
1
40
1
40
1
41
1
10
-10.8261977204866
20
-0.394519052838319
30
0
41
1
10
-10.3635024894917
20
-0.169886976943701
30
0
41
1
10
-9.89509800998097
20
0.045403532794694
30
0
41
1
10
-9.42014604979882
20
0.249980947161674
30
0
0
SPLINE
5
14B
100
AcDbEntity
8
1
62
256
6
ByLayer
370
18
48
1
60
0
100
AcDbSpline
70
4
71
3
72
39
73
35
40
0
40
0
40
0
40
0
40
0.0624999999999838
40
0.0624999999999838
40
0.0937499999999785
40
0.0937499999999785
40
0.124999999999973
40
0.124999999999973
40
0.156249999999968
40
0.156249999999968
40
0.187499999999963
40
0.187499999999963
40
0.218749999999957
40
0.218749999999957
40
0.249999999999952
40
0.281249999999947
40
0.281249999999947
40
0.312499999999941
40
0.312499999999941
40
0.374999999999945
40
0.374999999999945
40
0.437499999999948
40
0.437499999999948
40
0.499999999999951
40
0.499999999999951
40
0.562499999999954
40
0.562499999999954
40
0.624999999999957
40
0.624999999999957
40
0.749999999999971
40
0.749999999999971
40
0.874999999999986
40
0.874999999999986
40
1
40
1
40
1
40
1
41
1
10
-11.1279670839746
20
-0.394519052838319
30
0
41
1
10
-11.1344994067131
20
-0.402327507790147
30
0
41
1
10
-11.1403381258876
20
-0.410305290730918
30
0
41
1
10
-11.147148000852
20
-0.421949799605244
30
0
41
1
10
-11.1491042633321
20
-0.425789142768139
30
0
41
1
10
-11.1522661294609
20
-0.433367252098947
30
0
41
1
10
-11.1534486470362
20
-0.43707126200934
30
0
41
1
10
-11.1548792054188
20
-0.444063384204014
30
0
41
1
10
-11.1551425423024
20
-0.447385299333632
30
0
41
1
10
-11.1547000127545
20
-0.453656662833254
30
0
41
1
10
-11.1540017219895
20
-0.456500109917954
30
0
41
1
10
-11.1517438299298
20
-0.461655824862362
30
0
41
1
10
-11.1501654640366
20
-0.463986118035706
30
0
41
1
10
-11.1462927930953
20
-0.468066856897167
30
0
41
1
10
-11.1417564108312
20
-0.471545769909596
30
0
41
1
10
-11.1361417146117
20
-0.474049581821959
30
0
41
1
10
-11.1300670569308
20
-0.476138633700827
30
0
41
1
10
-11.1267820133678
20
-0.476978430843047
30
0
41
1
10
-11.1164767895555
20
-0.478927144527404
30
0
41
1
10
-11.1090219945275
20
-0.479486703751746
30
0
41
1
10
-11.0932713386151
20
-0.479548725267819
30
0
41
1
10
-11.0849977650711
20
-0.479041057890981
30
0
41
1
10
-11.0681342039558
20
-0.477241484467243
30
0
41
1
10
-11.0594969792525
20
-0.475947166332247
30
0
41
1
10
-11.0418937770116
20
-0.472731225930374
30
0
41
1
10
-11.0329270751786
20
-0.47080817215442
30
0
41
1
10
-11.0147120130597
20
-0.466427265972556
30
0
41
1
10
-11.0054357249662
20
-0.463959959019945
30
0
41
1
10
-10.9775778122249
20
-0.455947419880573
30
0
41
1
10
-10.958882884293
20
-0.449784789803459
30
0
41
1
10
-10.9212952504409
20
-0.436148777585913
30
0
41
1
10
-10.9024018906364
20
-0.428670682946205
30
0
41
1
10
-10.8644350163225
20
-0.412508030361977
30
0
41
1
10
-10.8453613808028
20
-0.403822742416708
30
0
41
1
10
-10.8261977204866
20
-0.394519052838319
30
0
0
SPLINE
5
14C
100
AcDbEntity
8
1
62
256
6
ByLayer
370
18
48
1
60
0
100
AcDbSpline
70
4
71
3
72
8
73
4
40
0
40
0
40
0
40
0
40
1
40
1
40
1
40
1
41
1
10
-10.5881465384974
20
0.249980947159912
30
0
41
1
10
-10.7682360652239
20
0.0352414300963915
30
0
41
1
10
-10.9481691234914
20
-0.179596378150762
30
0
41
1
10
-11.1279670839745
20
-0.394519052838319
30
0
0
SPLINE
5
14D
100
AcDbEntity
8
1
62
256
6
ByLayer
370
18
48
1
60
0
100
AcDbSpline
70
4
71
3
72
22
73
18
40
0
40
0
40
0
40
0
40
0.125
40
0.125
40
0.25
40
0.25
40
0.375
40
0.375
40
0.5
40
0.5
40
0.625
40
0.625
40
0.75
40
0.75
40
0.875
40
0.875
40
1
40
1
40
1
40
1
41
1
10
-10.6124575382183
20
0.324980947163198
30
0
41
1
10
-10.6072496942067
20
0.324980947163254
30
0
41
1
10
-10.6022321565404
20
0.32471243842005
30
0
41
1
10
-10.5926877142222
20
0.323486343691656
30
0
41
1
10
-10.5882140101569
20
0.322533301974119
30
0
41
1
10
-10.5801191826616
20
0.319788199103215
30
0
41
1
10
-10.5764671398953
20
0.317988035234293
30
0
41
1
10
-10.5703512144501
20
0.313281206585003
30
0
41
1
10
-10.5679631001511
20
0.310436416643597
30
0
41
1
10
-10.5648541823852
20
0.303528393936119
30
0
41
1
10
-10.5642045954565
20
0.299573635406631
30
0
41
1
10
-10.5647901952416
20
0.290809930744786
30
0
41
1
10
-10.5660666715437
20
0.285914845664848
30
0
41
1
10
-10.5701679829123
20
0.275969703602755
30
0
41
1
10
-10.572985089628
20
0.27083784852482
30
0
41
1
10
-10.5798645746344
20
0.260343891665031
30
0
41
1
10
-10.5838159736942
20
0.255144731035841
30
0
41
1
10
-10.588146538497
20
0.249980947159855
30
0
0
SPLINE
5
14E
100
AcDbEntity
8
1
62
256
6
ByLayer
370
18
48
1
60
0
100
AcDbSpline
70
4
71
3
72
18
73
14
40
0
40
0
40
0
40
0
40
0.250000000000003
40
0.250000000000003
40
0.375
40
0.375
40
0.499999999999997
40
0.499999999999997
40
0.749999999999991
40
0.749999999999991
40
0.874999999999995
40
0.874999999999995
40
1
40
1
40
1
40
1
41
1
10
-11.0361737618139
20
0.249980947161674
30
0
41
1
10
-11.0164600587408
20
0.260339148990965
30
0
41
1
10
-10.9967579988524
20
0.269872232720218
30
0
41
1
10
-10.9672176050399
20
0.282909900397783
30
0
41
1
10
-10.9573700935551
20
0.28704319003694
30
0
41
1
10
-10.9378759446479
20
0.294780090670855
30
0
41
1
10
-10.9282051094205
20
0.298394950509135
30
0
41
1
10
-10.8994387758157
20
0.308419743129093
30
0
41
1
10
-10.8805796347571
20
0.314041022539698
30
0
41
1
10
-10.8529592725556
20
0.320261231068514
30
0
41
1
10
-10.8438730220196
20
0.321952441620653
30
0
41
1
10
-10.8264247732998
20
0.324303802427465
30
0
41
1
10
-10.8180111708273
20
0.324980947160952
30
0
41
1
10
-10.8100221617362
20
0.324980947161663
30
0
0
SPLINE
5
14F
100
AcDbEntity
8
1
62
256
6
ByLayer
370
18
48
1
60
0
100
AcDbSpline
70
4
71
3
72
8
73
4
40
0
40
0
40
0
40
0
40
1
40
1
40
1
40
1
41
1
10
-12.21262584537
20
-0.394519052838319
30
0
41
1
10
-11.8249154221808
20
-0.173606852417663
30
0
41
1
10
-11.4329616463351
20
0.0414960685943413
30
0
41
1
10
-11.0361737618139
20
0.249980947161674
30
0
0
SPLINE
5
150
100
AcDbEntity
8
1
62
256
6
ByLayer
370
18
48
1
60
0
100
AcDbSpline
70
4
71
3
72
34
73
30
40
0
40
0
40
0
40
0
40
0.062499999999993
40
0.062499999999993
40
0.0937499999999896
40
0.0937499999999896
40
0.124999999999986
40
0.124999999999986
40
0.187499999999987
40
0.187499999999987
40
0.249999999999988
40
0.249999999999988
40
0.281249999999987
40
0.281249999999987
40
0.312499999999986
40
0.312499999999986
40
0.374999999999988
40
0.374999999999988
40
0.5
40
0.5
40
0.562500000000005
40
0.562500000000005
40
0.625000000000011
40
0.625000000000011
40
0.750000000000007
40
0.750000000000007
40
0.875000000000004
40
0.875000000000004
40
1
40
1
40
1
40
1
41
1
10
-12.4454802424852
20
-0.394519052838319
30
0
41
1
10
-12.4513585152093
20
-0.401708771010675
30
0
41
1
10
-12.4567374379799
20
-0.408956814071246
30
0
41
1
10
-12.4635248995896
20
-0.419510621874565
30
0
41
1
10
-12.4655825007594
20
-0.422985527209846
30
0
41
1
10
-12.4692288824021
20
-0.429837099363681
30
0
41
1
10
-12.470827460083
20
-0.433240182207101
30
0
41
1
10
-12.4747089449443
20
-0.443053990405275
30
0
41
1
10
-12.4760958204851
20
-0.449081203462839
30
0
41
1
10
-12.4761223246412
20
-0.459769092372454
30
0
41
1
10
-12.4747761141799
20
-0.464180222176765
30
0
41
1
10
-12.4709433497243
20
-0.469557994706776
30
0
41
1
10
-12.4693513853986
20
-0.471142526978696
30
0
41
1
10
-12.4657065335108
20
-0.473834537101368
30
0
41
1
10
-12.4636450953421
20
-0.47495820558143
30
0
41
1
10
-12.4568329303758
20
-0.477746501187454
30
0
41
1
10
-12.4514152534257
20
-0.478821439948945
30
0
41
1
10
-12.4339597259438
20
-0.480156666608053
30
0
41
1
10
-12.4205497597282
20
-0.478701530894455
30
0
41
1
10
-12.3987563531804
20
-0.474318017873884
30
0
41
1
10
-12.3912507161594
20
-0.47248177544077
30
0
41
1
10
-12.3760079072084
20
-0.46823433620375
30
0
41
1
10
-12.3682424193965
20
-0.465816634568256
30
0
41
1
10
-12.3445735365322
20
-0.457805604881315
30
0
41
1
10
-12.3282608368064
20
-0.451436957631131
30
0
41
1
10
-12.2956045495882
20
-0.437386982382037
30
0
41
1
10
-12.2791555920721
20
-0.42966862177019
30
0
41
1
10
-12.2460474242468
20
-0.413010889696807
30
0
41
1
10
-12.2293879167132
20
-0.404069856331262
30
0
41
1
10
-12.21262584537
20
-0.394519052838319
30
0
0
SPLINE
5
151
100
AcDbEntity
8
1
62
256
6
ByLayer
370
18
48
1
60
0
100
AcDbSpline
70
4
71
3
72
8
73
4
40
0
40
0
40
0
40
0
40
1
40
1
40
1
40
1
41
1
10
-11.9185094462047
20
0.249980947160964
30
0
41
1
10
-12.0941736247425
20
0.0351520577178803
30
0
41
1
10
-12.2698302504261
20
-0.179681463779445
30
0
41
1
10
-12.4454802424852
20
-0.394519052838319
30
0
0
SPLINE
5
152
100
AcDbEntity
8
1
62
256
6
ByLayer
370
18
48
1
60
0
100
AcDbSpline
70
4
71
3
72
24
73
20
40
0
40
0
40
0
40
0
40
0.124999999999989
40
0.124999999999989
40
0.249999999999978
40
0.249999999999978
40
0.374999999999967
40
0.374999999999967
40
0.499999999999956
40
0.499999999999956
40
0.624999999999945
40
0.624999999999945
40
0.687499999999954
40
0.687499999999954
40
0.749999999999964
40
0.749999999999964
40
0.874999999999982
40
0.874999999999982
40
1
40
1
40
1
40
1
41
1
10
-11.9237814416148
20
0.324980947161691
30
0
41
1
10
-11.9194457489922
20
0.324980947161691
30
0
41
1
10
-11.9153564824701
20
0.32465661851694
30
0
41
1
10
-11.9079485979119
20
0.323240679223744
30
0
41
1
10
-11.9046064730613
20
0.322151899954548
30
0
41
1
10
-11.8988364705386
20
0.3190154121788
30
0
41
1
10
-11.8964381114454
20
0.31696313099431
30
0
41
1
10
-11.8929836812651
20
0.311879900363635
30
0
41
1
10
-11.8919008982491
20
0.30877759856898
30
0
41
1
10
-11.891274090198
20
0.301756712238841
30
0
41
1
10
-11.8916984067637
20
0.297837448784492
30
0
41
1
10
-11.8934309418024
20
0.291353045960363
30
0
41
1
10
-11.8941940114109
20
0.289092391428142
30
0
41
1
10
-11.8960240148196
20
0.284507876358191
30
0
41
1
10
-11.8970946969525
20
0.282167946486851
30
0
41
1
10
-11.9007316163329
20
0.275018276597791
30
0
41
1
10
-11.9037537286027
20
0.270033424617793
30
0
41
1
10
-11.9105940690077
20
0.260025649179823
30
0
41
1
10
-11.9143984087425
20
0.255008549371979
30
0
41
1
10
-11.9185094462045
20
0.249980947160964
30
0
0
SPLINE
5
153
100
AcDbEntity
8
1
62
256
6
ByLayer
370
18
48
1
60
0
100
AcDbSpline
70
4
71
3
72
18
73
14
40
0
40
0
40
0
40
0
40
0.250000000000004
40
0.250000000000004
40
0.374999999999998
40
0.374999999999998
40
0.499999999999992
40
0.499999999999992
40
0.749999999999996
40
0.749999999999996
40
0.874999999999998
40
0.874999999999998
40
1
40
1
40
1
40
1
41
1
10
-12.2619374897427
20
0.249980947161674
30
0
41
1
10
-12.245175409905
20
0.260187306071572
30
0
41
1
10
-12.2284787618341
20
0.26964953894975
30
0
41
1
10
-12.2035319977382
20
0.282666955587643
30
0
41
1
10
-12.1952158399689
20
0.286815352002606
30
0
41
1
10
-12.1788139447434
20
0.294590398040555
30
0
41
1
10
-12.1707074902565
20
0.298228829183756
30
0
41
1
10
-12.1466956039985
20
0.308331973172642
30
0
41
1
10
-12.1310821815718
20
0.314018794774086
30
0
41
1
10
-12.1085189695399
20
0.320307354028273
30
0
41
1
10
-12.1012908516913
20
0.321980394436167
30
0
41
1
10
-12.0875370462495
20
0.324314999120048
30
0
41
1
10
-12.081008255091
20
0.324980947161094
30
0
41
1
10
-12.0749439034001
20
0.324980947161691
30
0
0
SPLINE
5
154
100
AcDbEntity
8
1
62
256
6
ByLayer
370
18
48
1
60
0
100
AcDbSpline
70
4
71
3
72
8
73
4
40
0
40
0
40
0
40
0
40
1
40
1
40
1
40
1
41
1
10
-13.2887133686798
20
-0.394519052838319
30
0
41
1
10
-12.9498764087536
20
-0.175597332640279
30
0
41
1
10
-12.6077628641245
20
0.0394093519147987
30
0
41
1
10
-12.2619374897427
20
0.249980947161674
30
0
0
SPLINE
5
155
100
AcDbEntity
8
1
62
256
6
ByLayer
370
18
48
1
60
0
100
AcDbSpline
70
4
71
3
72
38
73
34
40
0
40
0
40
0
40
0
40
0.062500000000007
40
0.062500000000007
40
0.125000000000014
40
0.125000000000014
40
0.15625000000002
40
0.15625000000002
40
0.187500000000025
40
0.187500000000025
40
0.250000000000036
40
0.250000000000036
40
0.281250000000035
40
0.281250000000035
40
0.312500000000035
40
0.312500000000035
40
0.375000000000021
40
0.375000000000021
40
0.406250000000021
40
0.406250000000021
40
0.437500000000021
40
0.437500000000021
40
0.500000000000019
40
0.500000000000019
40
0.562500000000017
40
0.562500000000017
40
0.625000000000014
40
0.625000000000014
40
0.750000000000009
40
0.750000000000009
40
0.875000000000005
40
0.875000000000005
40
1
40
1
40
1
40
1
41
1
10
-13.4702748862137
20
-0.394519052838319
30
0
41
1
10
-13.4757943146983
20
-0.401252651663839
30
0
41
1
10
-13.4809501781441
20
-0.407998820378509
30
0
41
1
10
-13.4900398258229
20
-0.421090866571319
30
0
41
1
10
-13.4939949832354
20
-0.427453269472068
30
0
41
1
10
-13.4988176392413
20
-0.436652706244104
30
0
41
1
10
-13.5002379631945
20
-0.439666430659713
30
0
41
1
10
-13.5025893474109
20
-0.445402644548608
30
0
41
1
10
-13.503532127041
20
-0.448145570507194
30
0
41
1
10
-13.5056210814371
20
-0.455977741753941
30
0
41
1
10
-13.5059946892605
20
-0.460690215559282
30
0
41
1
10
-13.5049704660338
20
-0.466476927786175
30
0
41
1
10
-13.5043739139206
20
-0.468214962997223
30
0
41
1
10
-13.5026851457819
20
-0.471320945690934
30
0
41
1
10
-13.5015835740844
20
-0.472696292951213
30
0
41
1
10
-13.4976100463298
20
-0.476217282345146
30
0
41
1
10
-13.4941255566638
20
-0.477748652573382
30
0
41
1
10
-13.4878873439799
20
-0.479061483870908
30
0
41
1
10
-13.4856250849188
20
-0.47933332242323
30
0
41
1
10
-13.4808583852177
20
-0.479567589455002
30
0
41
1
10
-13.4783549901368
20
-0.479532351315839
30
0
41
1
10
-13.470530542591
20
-0.479028435196653
30
0
41
1
10
-13.4648977094209
20
-0.478164746212002
30
0
41
1
10
-13.4529523427325
20
-0.475578705664162
30
0
41
1
10
-13.4466202325066
20
-0.473845750572934
30
0
41
1
10
-13.433645567981
20
-0.469730324423097
30
0
41
1
10
-13.4269699921963
20
-0.467341554080946
30
0
41
1
10
-13.4064644692924
20
-0.459334429025461
30
0
41
1
10
-13.3920697914073
20
-0.452832519259857
30
0
41
1
10
-13.3631049887933
20
-0.438446193463477
30
0
41
1
10
-13.3484408250735
20
-0.430527273477082
30
0
41
1
10
-13.3188052716474
20
-0.413449436874572
30
0
41
1
10
-13.3038332306426
20
-0.4042879581867
30
0
41
1
10
-13.2887133686798
20
-0.394519052838319
30
0
0
SPLINE
5
156
100
AcDbEntity
8
1
62
256
6
ByLayer
370
18
48
1
60
0
100
AcDbSpline
70
4
71
3
72
8
73
4
40
0
40
0
40
0
40
0
40
1
40
1
40
1
40
1
41
1
10
-12.941904331197
20
0.249980947161362
30
0
41
1
10
-13.1180471579123
20
0.0351594867746314
30
0
41
1
10
-13.2941699218972
20
-0.179674312264069
30
0
41
1
10
-13.4702748862137
20
-0.394519052838319
30
0
0
SPLINE
5
157
100
AcDbEntity
8
1
62
256
6
ByLayer
370
18
48
1
60
0
100
AcDbSpline
70
4
71
3
72
23
73
19
40
0
40
0
40
0
40
0
40
0.125000000000003
40
0.125000000000003
40
0.250000000000006
40
0.250000000000006
40
0.375000000000009
40
0.375000000000009
40
0.500000000000012
40
0.562500000000014
40
0.562500000000014
40
0.625000000000017
40
0.625000000000017
40
0.750000000000011
40
0.750000000000011
40
0.875000000000006
40
0.875000000000006
40
1
40
1
40
1
40
1
41
1
10
-12.9317003032968
20
0.324980947161777
30
0
41
1
10
-12.9281546626962
20
0.324980947161777
30
0
41
1
10
-12.9249370215665
20
0.324620114170159
30
0
41
1
10
-12.9192871440886
20
0.32303667882033
30
0
41
1
10
-12.9168431622451
20
0.321793174571241
30
0
41
1
10
-12.9130939065335
20
0.318369971001488
30
0
41
1
10
-12.9117605960215
20
0.316192959110282
30
0
41
1
10
-12.9103315847485
20
0.310777985080392
30
0
41
1
10
-12.9102338827602
20
0.306085646339625
30
0
41
1
10
-12.9115299156306
20
0.300494947426273
30
0
41
1
10
-12.9127048890145
20
0.296567433923769
30
0
41
1
10
-12.9134525305583
20
0.294494826399216
30
0
41
1
10
-12.9160876840443
20
0.288143993684287
30
0
41
1
10
-12.9183740783399
20
0.283688995222491
30
0
41
1
10
-12.9238503710631
20
0.274403028467305
30
0
41
1
10
-12.9270609615909
20
0.26955094003489
30
0
41
1
10
-12.9340500009027
20
0.259832030827397
30
0
41
1
10
-12.9378497028419
20
0.254925918244197
30
0
41
1
10
-12.9419043311969
20
0.249980947161362
30
0
0
SPLINE
5
158
100
AcDbEntity
8
1
62
256
6
ByLayer
370
18
48
1
60
0
100
AcDbSpline
70
4
71
3
72
18
73
14
40
0
40
0
40
0
40
0
40
0.249999999999995
40
0.249999999999995
40
0.37499999999999
40
0.37499999999999
40
0.499999999999986
40
0.499999999999986
40
0.749999999999993
40
0.749999999999993
40
0.874999999999996
40
0.874999999999996
40
1
40
1
40
1
40
1
41
1
10
-13.2065548385552
20
0.249980947161674
30
0
41
1
10
-13.1918683483694
20
0.260045199607333
30
0
41
1
10
-13.1773484039918
20
0.269403809868607
30
0
41
1
10
-13.1558285169502
20
0.282316542817881
30
0
41
1
10
-13.1486989674189
20
0.286431559643603
30
0
41
1
10
-13.1345354389663
20
0.29424506725934
30
0
41
1
10
-13.1274676194249
20
0.297960016390789
30
0
41
1
10
-13.1067398789887
20
0.308231131630805
30
0
41
1
10
-13.0935302985871
20
0.313958174179788
30
0
41
1
10
-13.0749605537727
20
0.320259096726829
30
0
41
1
10
-13.0689460777358
20
0.321974818101211
30
0
41
1
10
-13.0578276924747
20
0.324325815519529
30
0
41
1
10
-13.0526835673824
20
0.324980947168598
30
0
41
1
10
-13.0480635116142
20
0.324980947169223
30
0
0
SPLINE
5
159
100
AcDbEntity
8
1
62
256
6
ByLayer
370
18
48
1
60
0
100
AcDbSpline
70
4
71
3
72
8
73
4
40
0
40
0
40
0
40
0
40
1
40
1
40
1
40
1
41
1
10
-14.1255646241437
20
-0.394519052838319
30
0
41
1
10
-13.8219161595784
20
-0.176810910131763
30
0
41
1
10
-13.5156891436444
20
0.0381396122572539
30
0
41
1
10
-13.2065548385552
20
0.249980947161674
30
0
0
SPLINE
5
15A
100
AcDbEntity
8
1
62
256
6
ByLayer
370
18
48
1
60
0
100
AcDbSpline
70
4
71
3
72
36
73
32
40
0
40
0
40
0
40
0
40
0.0625000000000053
40
0.0625000000000053
40
0.125000000000011
40
0.125000000000011
40
0.187500000000016
40
0.187500000000016
40
0.218750000000019
40
0.218750000000019
40
0.250000000000021
40
0.250000000000021
40
0.31250000000002
40
0.31250000000002
40
0.375000000000019
40
0.375000000000019
40
0.437500000000017
40
0.437500000000017
40
0.500000000000016
40
0.500000000000016
40
0.562500000000015
40
0.562500000000015
40
0.625000000000014
40
0.625000000000014
40
0.687500000000013
40
0.687500000000013
40
0.750000000000012
40
0.750000000000012
40
0.875000000000006
40
0.875000000000006
40
1
40
1
40
1
40
1
41
1
10
-14.2655750866984
20
-0.394519052838319
30
0
41
1
10
-14.2709152318049
20
-0.400916772801736
30
0
41
1
10
-14.275978382755
20
-0.407293077501066
30
0
41
1
10
-14.2851987194409
20
-0.41968620333094
30
0
41
1
10
-14.2893548863108
20
-0.4256951480927
30
0
41
1
10
-14.2965819676909
20
-0.437266289211095
30
0
41
1
10
-14.2996681948549
20
-0.442875980593413
30
0
41
1
10
-14.303108097956
20
-0.450518030421819
30
0
41
1
10
-14.3040654324165
20
-0.452948725894231
30
0
41
1
10
-14.3055769996615
20
-0.457562174581426
30
0
41
1
10
-14.3061330482862
20
-0.459758935437492
30
0
41
1
10
-14.3071284482325
20
-0.465834428936034
30
0
41
1
10
-14.3069086232189
20
-0.469181053338957
30
0
41
1
10
-14.3047638284419
20
-0.474520523657986
30
0
41
1
10
-14.3028010571971
20
-0.476498487128254
30
0
41
1
10
-14.2974997750462
20
-0.478992735534973
30
0
41
1
10
-14.2941373580524
20
-0.4795548484297
30
0
41
1
10
-14.2862625152793
20
-0.479479731271681
30
0
41
1
10
-14.2818410972795
20
-0.478850703577962
30
0
41
1
10
-14.2722259261514
20
-0.476650936816839
30
0
41
1
10
-14.2670211051816
20
-0.475074458444681
30
0
41
1
10
-14.2559794178474
20
-0.471119640285877
30
0
41
1
10
-14.2502293710657
20
-0.468773718754022
30
0
41
1
10
-14.2383514182247
20
-0.463474796430233
30
0
41
1
10
-14.2322228540822
20
-0.460520725310033
30
0
41
1
10
-14.2196336197054
20
-0.454078795623701
30
0
41
1
10
-14.2131449243124
20
-0.450573991117722
30
0
41
1
10
-14.1935390957799
20
-0.439506751248615
30
0
41
1
10
-14.1802225014732
20
-0.431373754650593
30
0
41
1
10
-14.1531891256639
20
-0.413867112124933
30
0
41
1
10
-14.1394710770359
20
-0.404489622046128
30
0
41
1
10
-14.1255646241437
20
-0.394519052838319
30
0
0
SPLINE
5
15B
100
AcDbEntity
8
1
62
256
6
ByLayer
370
18
48
1
60
0
100
AcDbSpline
70
4
71
3
72
8
73
4
40
0
40
0
40
0
40
0
40
1
40
1
40
1
40
1
41
1
10
-13.7271595028412
20
0.249980947161504
30
0
41
1
10
-13.9067347108406
20
0.035212365746446
30
0
41
1
10
-14.0862027304346
20
-0.179623374600055
30
0
41
1
10
-14.2655750866984
20
-0.394519052838319
30
0
0
SPLINE
5
15C
100
AcDbEntity
8
1
62
256
6
ByLayer
370
18
48
1
60
0
100
AcDbSpline
70
4
71
3
72
22
73
18
40
0
40
0
40
0
40
0
40
0.125
40
0.125
40
0.25
40
0.25
40
0.375
40
0.375
40
0.5
40
0.5
40
0.625
40
0.625
40
0.75
40
0.75
40
0.875
40
0.875
40
1
40
1
40
1
40
1
41
1
10
-13.7033273915928
20
0.32498094716172
30
0
41
1
10
-13.7004864228397
20
0.32498094716172
30
0
41
1
10
-13.6980030233289
20
0.32457223002757
30
0
41
1
10
-13.6939679064125
20
0.322810804878514
30
0
41
1
10
-13.6924447562857
20
0.321476351282854
30
0
41
1
10
-13.690469285274
20
0.317827037319773
30
0
41
1
10
-13.6900300661806
20
0.31547687530076
30
0
41
1
10
-13.6903199496591
20
0.309978932734424
30
0
41
1
10
-13.6910284293275
20
0.306819145366916
30
0
41
1
10
-13.6935353207013
20
0.299707252978664
30
0
41
1
10
-13.6953495169543
20
0.295745119605016
30
0
41
1
10
-13.699812285762
20
0.287456554264992
30
0
41
1
10
-13.7024739620712
20
0.283086608544551
30
0
41
1
10
-13.7085556247414
20
0.273950228042338
30
0
41
1
10
-13.711950430119
20
0.269226009096116
30
0
41
1
10
-13.719197862038
20
0.259701365260099
30
0
41
1
10
-13.7230711169545
20
0.254870580017553
30
0
41
1
10
-13.7271595028412
20
0.249980947161504
30
0
0
SPLINE
5
15D
100
AcDbEntity
8
1
62
256
6
ByLayer
370
18
48
1
60
0
100
AcDbSpline
70
4
71
3
72
16
73
12
40
0
40
0
40
0
40
0
40
0.250000000000004
40
0.250000000000004
40
0.500000000000007
40
0.500000000000007
40
0.750000000000011
40
0.750000000000011
40
0.875000000000005
40
0.875000000000005
40
1
40
1
40
1
40
1
41
1
10
-13.9273497265336
20
0.249980947161674
30
0
41
1
10
-13.9141383585476
20
0.259977683504246
30
0
41
1
10
-13.9010856072335
20
0.269365680292793
30
0
41
1
10
-13.8756867854771
20
0.286560850671492
30
0
41
1
10
-13.8632846302391
20
0.294416067556767
30
0
41
1
10
-13.8392323105369
20
0.308231113448897
30
0
41
1
10
-13.8279050504171
20
0.314006523917868
30
0
41
1
10
-13.8124983254929
20
0.320301845067462
30
0
41
1
10
-13.8075818891419
20
0.322012470654755
30
0
41
1
10
-13.7987038822678
20
0.3243439697697
30
0
41
1
10
-13.7947211231747
20
0.324980947163453
30
0
41
1
10
-13.7912890092361
20
0.324980947163652
30
0
0
SPLINE
5
15E
100
AcDbEntity
8
1
62
256
6
ByLayer
370
18
48
1
60
0
100
AcDbSpline
70
4
71
3
72
22
73
18
40
0
40
0
40
0
40
0
40
0.250000000000001
40
0.250000000000001
40
0.375000000000001
40
0.375000000000001
40
0.5
40
0.5
40
0.625
40
0.625
40
0.749999999999999
40
0.749999999999999
40
0.874999999999999
40
0.874999999999999
40
0.9375
40
0.9375
40
1
40
1
40
1
40
1
41
1
10
-15
20
-1.09294494718759
30
0
41
1
10
-15
20
-1.07967512164055
30
0
41
1
10
-15
20
-1.06551265539923
30
0
41
1
10
-15
20
-1.04235433752584
30
0
41
1
10
-15
20
-1.03427897453579
30
0
41
1
10
-15
20
-1.0175308391909
30
0
41
1
10
-15
20
-1.00885793975522
30
0
41
1
10
-15
20
-0.99078891893015
30
0
41
1
10
-15
20
-0.981393856273371
30
0
41
1
10
-15
20
-0.961697793674887
30
0
41
1
10
-15
20
-0.951449148566496
30
0
41
1
10
-15
20
-0.930486799286513
30
0
41
1
10
-15
20
-0.919714084930661
30
0
41
1
10
-15
20
-0.903041140446447
30
0
41
1
10
-15
20
-0.897396313717934
30
0
41
1
10
-15
20
-0.88618611265801
30
0
41
1
10
-15
20
-0.880589068055571
30
0
41
1
10
-15
20
-0.875000000001506
30
0
0
SPLINE
5
15F
100
AcDbEntity
8
1
62
256
6
ByLayer
370
18
48
1
60
0
100
AcDbSpline
70
4
71
3
72
18
73
14
40
0
40
0
40
0
40
0
40
0.25
40
0.25
40
0.375
40
0.375
40
0.5
40
0.5
40
0.750000000000003
40
0.750000000000003
40
0.875000000000002
40
0.875000000000002
40
1
40
1
40
1
40
1
41
1
10
9.3712544246269
20
-0.874999999999858
30
0
41
1
10
9.3712544246269
20
-0.904694818135255
30
0
41
1
10
9.37285807557873
20
-0.934194699485374
30
0
41
1
10
9.37768818945213
20
-0.978149787155445
30
0
41
1
10
9.37971768419916
20
-0.992823834800475
30
0
41
1
10
9.38455354037077
20
-1.02167884394623
30
0
41
1
10
9.38735060736528
20
-1.03583546547083
30
0
41
1
10
9.39684924666645
20
-1.07751409954724
30
0
41
1
10
9.40464959280703
20
-1.10425107210793
30
0
41
1
10
9.41859288853715
20
-1.14275413634829
30
0
41
1
10
9.42363987862913
20
-1.15536388660843
30
0
41
1
10
9.43430393517241
20
-1.17956393427198
30
0
41
1
10
9.43993646329218
20
-1.19120677842272
30
0
41
1
10
9.44586314547917
20
-1.20240209734689
30
0
0
SPLINE
5
160
100
AcDbEntity
8
1
62
256
6
ByLayer
370
18
48
1
60
0
100
AcDbSpline
70
4
71
3
72
16
73
12
40
0
40
0
40
0
40
0
40
0.125
40
0.125
40
0.25
40
0.25
40
0.5
40
0.5
40
0.75
40
0.75
40
1
40
1
40
1
40
1
41
1
10
8.18325005084313
20
-1.375
30
0
41
1
10
8.2364744652283
20
-1.37500000000023
30
0
41
1
10
8.28967629332496
20
-1.37382406147052
30
0
41
1
10
8.39581505821266
20
-1.36943560360865
30
0
41
1
10
8.44879059323313
20
-1.36622218099544
30
0
41
1
10
8.6074674712502
20
-1.35386984907743
30
0
41
1
10
8.71292130173921
20
-1.34204292581458
30
0
41
1
10
8.9232714844083
20
-1.31233480150524
30
0
41
1
10
9.02816810069339
20
-1.29445646866972
30
0
41
1
10
9.23743204999252
20
-1.25295172653054
30
0
41
1
10
9.34180310420967
20
-1.22936572991563
30
0
41
1
10
9.44586314547908
20
-1.20240209734683
30
0
0
SPLINE
5
161
100
AcDbEntity
8
1
62
256
6
ByLayer
370
18
48
1
60
0
100
AcDbSpline
70
4
71
3
72
26
73
22
40
0
40
0
40
0
40
0
40
0.0625
40
0.0625
40
0.125
40
0.125
40
0.25
40
0.25
40
0.375
40
0.375
40
0.5
40
0.5
40
0.75
40
0.75
40
0.8125
40
0.8125
40
0.84375
40
0.84375
40
0.875
40
0.875
40
1
40
1
40
1
40
1
41
1
10
0
20
-1.09294494717704
30
0
41
1
10
0.0798615061981423
20
-1.09294494717704
30
0
41
1
10
0.159774363699597
20
-1.09418805527122
30
0
41
1
10
0.31969693270085
20
-1.09901890502678
30
0
41
1
10
0.399749988067498
20
-1.10260550904388
30
0
41
1
10
0.639631382539051
20
-1.11627509243578
30
0
41
1
10
0.799204148954971
20
-1.12923453082303
30
0
41
1
10
1.11800182548021
20
-1.15899639959054
30
0
41
1
10
1.27722899968975
20
-1.17577381700173
30
0
41
1
10
1.59560357042369
20
-1.21021000714069
30
0
41
1
10
1.75474950260408
20
-1.22788495741705
30
0
41
1
10
2.23233478291988
20
-1.27928046028188
30
0
41
1
10
2.55092030470416
20
-1.31138613870661
30
0
41
1
10
2.95008484346241
20
-1.34121480212659
30
0
41
1
10
3.02996429579406
20
-1.34666632694675
30
0
41
1
10
3.1498673134349
20
-1.35391738932401
30
0
41
1
10
3.18992183086647
20
-1.35618341463495
30
0
41
1
10
3.26956516787257
20
-1.36035344049768
30
0
41
1
10
3.3093884139609
20
-1.36227063710794
30
0
41
1
10
3.50851321889621
20
-1.37094450465955
30
0
41
1
10
3.66784017059436
20
-1.375
30
0
41
1
10
3.82720524665191
20
-1.375
30
0
0
SPLINE
5
162
100
AcDbEntity
8
1
62
256
6
ByLayer
370
18
48
1
60
0
100
AcDbSpline
70
4
71
3
72
18
73
14
40
0
40
0
40
0
40
0
40
0.106502320877213
40
0.20981972088767
40
0.309970050663299
40
0.406972922398916
40
0.500849920824713
40
0.591624858695398
40
0.679324076625582
40
0.763976789998221
40
0.845615488386606
40
0.924276395493038
40
1
40
1
40
1
40
1
41
1
10
33.69011863841
20
-15.016914648177
30
0
41
1
10
33.6885415273358
20
-15.0162356963494
30
0
41
1
10
33.6854344682343
20
-15.0148980965508
30
0
41
1
10
33.6809243323185
20
-15.0125950376113
30
0
41
1
10
33.6766153234624
20
-15.0101336525213
30
0
41
1
10
33.6725126225172
20
-15.0075098420596
30
0
41
1
10
33.6686149102104
20
-15.0047475341627
30
0
41
1
10
33.6649224452296
20
-15.0018629608243
30
0
41
1
10
33.661435372045
20
-14.9988731471595
30
0
41
1
10
33.658152836714
20
-14.9957956455299
30
0
41
1
10
33.6550778698626
20
-14.9926415847493
30
0
41
1
10
33.6521996835922
20
-14.9894420074179
30
0
41
1
10
33.6504035869187
20
-14.9872081231617
30
0
41
1
10
33.64952262475
20
-14.9861124318507
30
0
0
SPLINE
5
163
100
AcDbEntity
8
1
62
256
6
ByLayer
370
18
48
1
60
0
100
AcDbSpline
70
4
71
3
72
16
73
12
40
0
40
0
40
0
40
0
40
0.117319552095918
40
0.233085853241695
40
0.34729936220232
40
0.459960556706215
40
0.571069934503145
40
0.680628014495722
40
0.788635337949901
40
0.895092469791786
40
1
40
1
40
1
40
1
41
1
10
33.84894541545
20
-15.072267476298
30
0
41
1
10
33.8426777667176
20
-15.0704446731314
30
0
41
1
10
33.830225449721
20
-15.0668231997813
30
0
41
1
10
33.8117192560502
20
-15.061108591244
30
0
41
1
10
33.7934972967516
20
-15.0552431101975
30
0
41
1
10
33.7755628434144
20
-15.0492133266253
30
0
41
1
10
33.7579151154146
20
-15.043033730945
30
0
41
1
10
33.7405540289178
20
-15.036713079835
30
0
41
1
10
33.7234806581604
20
-15.0302550550605
30
0
41
1
10
33.7066908752728
20
-15.0236879439501
30
0
41
1
10
33.6956156516848
20
-15.0191613513233
30
0
41
1
10
33.69011863841
20
-15.01691464817
30
0
0
SPLINE
5
164
100
AcDbEntity
8
1
62
256
6
ByLayer
370
18
48
1
60
0
100
AcDbSpline
70
4
71
2
72
10
73
7
40
0
40
0
40
0
40
0.5
40
0.5
40
0.75
40
0.75
40
1
40
1
40
1
41
1
10
33.8489454154405
20
-15.072267476262
30
0
41
1
10
33.916539241663
20
-15.0917621635149
30
0
41
1
10
33.9642354827661
20
-15.1434857110098
30
0
41
1
10
33.9902224727179
20
-15.1716669529261
30
0
41
1
10
34.0068593747274
20
-15.2075223538963
30
0
41
1
10
34.0248252361493
20
-15.2462418922267
30
0
41
1
10
34.02894619708
20
-15.289264413028
30
0
0
SPLINE
5
165
100
AcDbEntity
8
1
62
256
6
ByLayer
370
18
48
1
60
0
100
AcDbSpline
70
4
71
2
72
6
73
3
40
0
40
0
40
0
40
1
40
1
40
1
41
1
10
34.028946197118
20
-15.289264412942
30
0
41
1
10
34.0378374892901
20
-15.3844834459669
30
0
41
1
10
34.0378609595285
20
-15.4799999993024
30
0
0
SPLINE
5
166
100
AcDbEntity
8
1
62
256
6
ByLayer
370
18
48
1
60
0
100
AcDbSpline
70
4
71
3
72
17
73
13
40
0
40
0
40
0
40
0
40
0.10031741181689
40
0.200541310293363
40
0.300680278273294
40
0.400742920447354
40
0.500737861201715
40
0.600673742442662
40
0.700559221399129
40
0.800402968404821
40
0.900213664663556
40
1
40
1
40
1
40
1
41
1
10
34.02894619712
20
-15.710735587058
30
0
41
1
10
34.0295231228818
20
-15.7043912298246
30
0
41
1
10
34.0306764366097
20
-15.6917084294062
30
0
41
1
10
34.0321818251213
20
-15.6726539472122
30
0
41
1
10
34.0335216262512
20
-15.6535914790205
30
0
41
1
10
34.0346798037513
20
-15.6345196957169
30
0
41
1
10
34.0356607269914
20
-15.6154410706663
30
0
41
1
10
34.0364629358429
20
-15.5963570587512
30
0
41
1
10
34.0370879043617
20
-15.5772693864805
30
0
41
1
10
34.037531197509
20
-15.558179706331
30
0
41
1
10
34.0378090731845
20
-15.5390896896565
30
0
41
1
10
34.0378436654889
20
-15.5263627125725
30
0
41
1
10
34.03786095953
20
-15.5200000006976
30
0
0
SPLINE
5
167
100
AcDbEntity
8
1
62
256
6
ByLayer
370
18
48
1
60
0
100
AcDbSpline
70
4
71
3
72
38
73
34
40
0
40
0
40
0
40
0
40
0.0320161803190575
40
0.0634137556494149
40
0.0941938978101197
40
0.124357850627716
40
0.153906935790682
40
0.182842559292623
40
0.211166218534073
40
0.238879510162465
40
0.265984138740208
40
0.292481926343992
40
0.318374823211788
40
0.343664919571545
40
0.368354458804051
40
0.392445852114296
40
0.415941694911066
40
0.438844785123636
40
0.461158143716729
40
0.482885037704949
40
0.504029006008826
40
0.551366811163281
40
0.597409666800355
40
0.642207857910845
40
0.685815975457088
40
0.728293199079301
40
0.769703557231232
40
0.810116149643028
40
0.849605314210592
40
0.888250718110485
40
0.926137351649328
40
0.963355403684625
40
1
40
1
40
1
40
1
41
1
10
33.84894541544
20
-15.927732523738
30
0
41
1
10
33.8515736233647
20
-15.9269514392853
30
0
41
1
10
33.8567792579367
20
-15.9254043622095
30
0
41
1
10
33.8644507904017
20
-15.9227682841384
30
0
41
1
10
33.8719249095612
20
-15.9199441000576
30
0
41
1
10
33.8791975153447
20
-15.9169210898556
30
0
41
1
10
33.8862696764341
20
-15.913718365909
30
0
41
1
10
33.8931411178627
20
-15.9103470598276
30
0
41
1
10
33.8998119140345
20
-15.9068201212977
30
0
41
1
10
33.9062820488617
20
-15.9031497437464
30
0
41
1
10
33.9125515300007
20
-15.8993480072663
30
0
41
1
10
33.9186203592441
20
-15.8954266889418
30
0
41
1
10
33.9244885401619
20
-15.8913972918287
30
0
41
1
10
33.9301560763662
20
-15.8872710198169
30
0
41
1
10
33.9356229711867
20
-15.8830587686786
30
0
41
1
10
33.9408892306567
20
-15.878771116109
30
0
41
1
10
33.9459548524154
20
-15.8744183110036
30
0
41
1
10
33.9508198658018
20
-15.8700102765188
30
0
41
1
10
33.9554841879102
20
-15.8655565701334
30
0
41
1
10
33.9599481402178
20
-15.8610665051893
30
0
41
1
10
33.9660095567998
20
-15.8546419695073
30
0
41
1
10
33.9734588192032
20
-15.8460531831906
30
0
41
1
10
33.9820027422797
20
-15.8349799163682
30
0
41
1
10
33.9898489226435
20
-15.823530558693
30
0
41
1
10
33.9969976055379
20
-15.8117506191721
30
0
41
1
10
34.0034486190906
20
-15.7996846186177
30
0
41
1
10
34.0092017357358
20
-15.7873766525567
30
0
41
1
10
34.0142571546107
20
-15.7748701653714
30
0
41
1
10
34.0186132961071
20
-15.7622074528299
30
0
41
1
10
34.0222748801839
20
-15.7494310234887
30
0
41
1
10
34.0252236999947
20
-15.7365780883646
30
0
41
1
10
34.0275246334318
20
-15.7237000583366
30
0
41
1
10
34.0284748015061
20
-15.7150346518979
30
0
41
1
10
34.02894619708
20
-15.710735586972
30
0
0
SPLINE
5
168
100
AcDbEntity
8
1
62
256
6
ByLayer
370
18
48
1
60
0
100
AcDbSpline
70
4
71
2
72
6
73
3
40
0
40
0
40
0
40
1
40
1
40
1
41
1
10
33.848945415449
20
-15.927732523702
30
0
41
1
10
33.7679467190096
20
-15.9509847566732
30
0
41
1
10
33.6901186384095
20
-15.98308535183
30
0
0
SPLINE
5
169
100
AcDbEntity
8
1
62
256
6
ByLayer
370
18
48
1
60
0
100
AcDbSpline
70
4
71
2
72
6
73
3
40
0
40
0
40
0
40
1
40
1
40
1
41
1
10
33.6901186384085
20
-15.983085351823
30
0
41
1
10
33.6658197594152
20
-15.9932546708635
30
0
41
1
10
33.649522624748
20
-16.013887568149
30
0
0
SPLINE
5
16A
100
AcDbEntity
8
1
62
256
6
ByLayer
370
18
48
1
60
0
100
AcDbSpline
70
4
71
3
72
17
73
13
40
0
40
0
40
0
40
0
40
0.250000000000012
40
0.250000000000012
40
0.500000000000024
40
0.500000000000024
40
0.562500000000024
40
0.562500000000024
40
0.625000000000025
40
0.750000000000019
40
0.750000000000019
40
1
40
1
40
1
40
1
41
1
10
17.6435826280888
20
-6.00788229583281
30
0
41
1
10
17.6146246036311
20
-6.03604768119052
30
0
41
1
10
17.5877690589037
20
-6.06627424213536
30
0
41
1
10
17.5382802616332
20
-6.13107832338699
30
0
41
1
10
17.5156427078132
20
-6.16564930486621
30
0
41
1
10
17.4902105226126
20
-6.21201148814336
30
0
41
1
10
17.4852575520371
20
-6.22146529018866
30
0
41
1
10
17.4757163583556
20
-6.24057472388634
30
0
41
1
10
17.4619501115276
20
-6.26953796305179
30
0
41
1
10
17.4498230334517
20
-6.29941372325661
30
0
41
1
10
17.427809076327
20
-6.36045061207815
30
0
41
1
10
17.4160955020357
20
-6.40284180273295
30
0
41
1
10
17.4077379362998
20
-6.44725870662353
30
0
0
SPLINE
5
16B
100
AcDbEntity
8
1
62
256
6
ByLayer
370
18
48
1
60
0
100
AcDbSpline
70
4
71
3
72
18
73
14
40
0
40
0
40
0
40
0
40
0.250000000000005
40
0.250000000000005
40
0.375000000000011
40
0.375000000000011
40
0.437500000000014
40
0.437500000000014
40
0.500000000000017
40
0.500000000000017
40
0.750000000000008
40
0.750000000000008
40
1
40
1
40
1
40
1
41
1
10
17.4077379362998
20
-6.75274129337646
30
0
41
1
10
17.4160970234351
20
-6.79716628285735
30
0
41
1
10
17.4278059238629
20
-6.83952872768282
30
0
41
1
10
17.4497852995846
20
-6.90048759793962
30
0
41
1
10
17.4578539822307
20
-6.92037281285283
30
0
41
1
10
17.4710409062469
20
-6.94958514624344
30
0
41
1
10
17.475617474447
20
-6.95921984345725
30
0
41
1
10
17.4851307090049
20
-6.97828787560948
30
0
41
1
10
17.490079124144
20
-6.9877420298248
30
0
41
1
10
17.5155498531436
20
-7.03420879187772
30
0
41
1
10
17.5382169974673
20
-7.068833343855
30
0
41
1
10
17.5877505294597
20
-7.13370697530971
30
0
41
1
10
17.6146213965619
20
-7.16394919952418
30
0
41
1
10
17.6435826280888
20
-7.19211770416717
30
0
0
SPLINE
5
16C
100
AcDbEntity
8
1
62
256
6
ByLayer
370
18
48
1
60
0
100
AcDbSpline
70
4
71
3
72
24
73
20
40
0
40
0
40
0
40
0
40
0.124999999999996
40
0.124999999999996
40
0.187499999999996
40
0.187499999999996
40
0.249999999999995
40
0.249999999999995
40
0.374999999999994
40
0.374999999999994
40
0.499999999999993
40
0.499999999999993
40
0.624999999999991
40
0.624999999999991
40
0.687499999999992
40
0.687499999999992
40
0.749999999999992
40
0.749999999999992
40
1
40
1
40
1
40
1
41
1
10
17.6981810583398
20
-7.59557688959518
30
0
41
1
10
17.7079282570253
20
-7.57895084257393
30
0
41
1
10
17.7161357366899
20
-7.56163824881963
30
0
41
1
10
17.7261657634977
20
-7.53465255621271
30
0
41
1
10
17.7291359412957
20
-7.52545262888157
30
0
41
1
10
17.7342485495552
20
-7.50685546517266
30
0
41
1
10
17.7363695892661
20
-7.49754907943679
30
0
41
1
10
17.741496344613
20
-7.46960896588177
30
0
41
1
10
17.7432740738269
20
-7.45095434024378
30
0
41
1
10
17.7436815034584
20
-7.41360005805808
30
0
41
1
10
17.7422604780044
20
-7.39476107757361
30
0
41
1
10
17.7364872949031
20
-7.3585848950795
30
0
41
1
10
17.7321586246314
20
-7.34106952644703
30
0
41
1
10
17.7236520963912
20
-7.31561112318155
30
0
41
1
10
17.7204791393988
20
-7.30726150218695
30
0
41
1
10
17.71346298447
20
-7.29083605914886
30
0
41
1
10
17.7096028514273
20
-7.28273325540874
30
0
41
1
10
17.6889846413071
20
-7.24358412847945
30
0
41
1
10
17.6682141523736
20
-7.21607501432294
30
0
41
1
10
17.6435826280888
20
-7.19211770416717
30
0
0
SPLINE
5
16D
100
AcDbEntity
8
1
62
256
6
ByLayer
370
18
48
1
60
0
100
AcDbSpline
70
4
71
3
72
24
73
20
40
0
40
0
40
0
40
0
40
0.249999999999985
40
0.249999999999985
40
0.312499999999988
40
0.312499999999988
40
0.374999999999992
40
0.374999999999992
40
0.499999999999996
40
0.499999999999996
40
0.625
40
0.625
40
0.750000000000004
40
0.750000000000004
40
0.812500000000007
40
0.812500000000007
40
0.875000000000009
40
0.875000000000009
40
1
40
1
40
1
40
1
41
1
10
17.6435826280888
20
-6.00788229583281
30
0
41
1
10
17.6682141523736
20
-5.98392498567708
30
0
41
1
10
17.6889846413071
20
-5.95641587152056
30
0
41
1
10
17.7096028514273
20
-5.91726674459125
30
0
41
1
10
17.71346298447
20
-5.90916394085113
30
0
41
1
10
17.7204791393988
20
-5.89273849781304
30
0
41
1
10
17.7236520963912
20
-5.88438887681843
30
0
41
1
10
17.7321586246314
20
-5.85893047355299
30
0
41
1
10
17.7364872949031
20
-5.84141510492052
30
0
41
1
10
17.7422604780044
20
-5.80523892242638
30
0
41
1
10
17.7436815034584
20
-5.78639994194191
30
0
41
1
10
17.7432740738269
20
-5.74904565975621
30
0
41
1
10
17.741496344613
20
-5.73039103411821
30
0
41
1
10
17.7363695892661
20
-5.70245092056322
30
0
41
1
10
17.7342485495551
20
-5.69314453482735
30
0
41
1
10
17.7291359412957
20
-5.67454737111845
30
0
41
1
10
17.7261657634977
20
-5.66534744378728
30
0
41
1
10
17.7161357366899
20
-5.63836175118036
30
0
41
1
10
17.7079282570253
20
-5.62104915742606
30
0
41
1
10
17.6981810583398
20
-5.60442311040484
30
0
0
SPLINE
5
16E
100
AcDbEntity
8
1
62
256
6
ByLayer
370
18
48
1
60
0
100
AcDbSpline
70
4
71
3
72
24
73
20
40
0
40
0
40
0
40
0
40
0.0625000000000027
40
0.0625000000000027
40
0.125000000000005
40
0.125000000000005
40
0.250000000000013
40
0.250000000000013
40
0.312500000000016
40
0.312500000000016
40
0.37500000000002
40
0.37500000000002
40
0.500000000000015
40
0.500000000000015
40
0.62500000000001
40
0.62500000000001
40
0.750000000000005
40
0.750000000000005
40
1
40
1
40
1
40
1
41
1
10
14.3018189416602
20
-5.60442311040484
30
0
41
1
10
14.3065686621776
20
-5.59632139018686
30
0
41
1
10
14.3117102110135
20
-5.58835019077264
30
0
41
1
10
14.322644678414
20
-5.57290693429908
30
0
41
1
10
14.3283991722251
20
-5.56548230486322
30
0
41
1
10
14.346492943595
20
-5.54406724837233
30
0
41
1
10
14.3596568946641
20
-5.53092976047492
30
0
41
1
10
14.3810396271602
20
-5.51291952202376
30
0
41
1
10
14.3884568790795
20
-5.50719464554413
30
0
41
1
10
14.4035429811598
20
-5.49652908650145
30
0
41
1
10
14.4112458314832
20
-5.4915574654853
30
0
41
1
10
14.4348134384497
20
-5.47768476963978
30
0
41
1
10
14.4511344439336
20
-5.46981928227152
30
0
41
1
10
14.4849623499584
20
-5.45680967244004
30
0
41
1
10
14.502026605104
20
-5.45183493909818
30
0
41
1
10
14.5363970022404
20
-5.44467600751668
30
0
41
1
10
14.553762941252
20
-5.4424906930814
30
0
41
1
10
14.60583055587
20
-5.44006078995395
30
0
41
1
10
14.6393960892915
20
-5.44386070823117
30
0
41
1
10
14.6718476620214
20
-5.45254896641512
30
0
0
SPLINE
5
16F
100
AcDbEntity
8
1
62
256
6
ByLayer
370
18
48
1
60
0
100
AcDbSpline
70
4
71
3
72
26
73
22
40
0
40
0
40
0
40
0
40
0.124999999999985
40
0.124999999999985
40
0.249999999999971
40
0.249999999999971
40
0.312499999999975
40
0.312499999999975
40
0.37499999999998
40
0.37499999999998
40
0.500000000000003
40
0.500000000000003
40
0.562500000000004
40
0.562500000000004
40
0.625000000000005
40
0.625000000000005
40
0.750000000000003
40
0.750000000000003
40
0.875000000000002
40
0.875000000000002
40
1
40
1
40
1
40
1
41
1
10
16
20
-4.63149999999999
30
0
41
1
10
15.9812579161203
20
-4.63149999999999
30
0
41
1
10
15.962209975879
20
-4.6331372044954
30
0
41
1
10
15.9253294541457
20
-4.63951471931705
30
0
41
1
10
15.9073531625206
20
-4.64422720833451
30
0
41
1
10
15.8810727694392
20
-4.65353461389682
30
0
41
1
10
15.8723863894371
20
-4.65703247490467
30
0
41
1
10
15.855517452384
20
-4.66466586976395
30
0
41
1
10
15.8473226044842
20
-4.66880090073514
30
0
41
1
10
15.8234267481805
20
-4.68211767058426
30
0
41
1
10
15.8084100630755
20
-4.69220543750666
30
0
41
1
10
15.7872244605916
20
-4.70909529291379
30
0
41
1
10
15.780408081431
20
-4.71500738261557
30
0
41
1
10
15.7674404104893
20
-4.72720262815713
30
0
41
1
10
15.7612596172288
20
-4.73350870321462
30
0
41
1
10
15.7435909177987
20
-4.75302364722418
30
0
41
1
10
15.732971729029
20
-4.76682587233793
30
0
41
1
10
15.7139986190539
20
-4.79595446676007
30
0
41
1
10
15.7058188411954
20
-4.81102270581377
30
0
41
1
10
15.6919779801761
20
-4.84188225230008
30
0
41
1
10
15.6862980163446
20
-4.85770511051189
30
0
41
1
10
15.6818380304532
20
-4.87390455985567
30
0
0
SPLINE
5
170
100
AcDbEntity
8
1
62
256
6
ByLayer
370
18
48
1
60
0
100
AcDbSpline
70
4
71
3
72
34
73
30
40
0
40
0
40
0
40
0
40
0.124999999999997
40
0.124999999999997
40
0.187499999999994
40
0.187499999999994
40
0.218749999999992
40
0.218749999999992
40
0.249999999999991
40
0.249999999999991
40
0.374999999999984
40
0.374999999999984
40
0.406249999999983
40
0.406249999999983
40
0.437499999999982
40
0.499999999999984
40
0.562499999999986
40
0.562499999999986
40
0.624999999999988
40
0.624999999999988
40
0.687499999999989
40
0.687499999999989
40
0.749999999999991
40
0.749999999999991
40
0.874999999999995
40
0.874999999999995
40
0.937499999999997
40
0.937499999999997
40
1
40
1
40
1
40
1
41
1
10
14.6718476620214
20
-5.45254896641512
30
0
41
1
10
14.7208394593323
20
-5.46566553822126
30
0
41
1
10
14.7709450984191
20
-5.47429781589065
30
0
41
1
10
14.8481023724607
20
-5.48020796039975
30
0
41
1
10
14.8741579501174
20
-5.48099652363567
30
0
41
1
10
14.9138278946093
20
-5.4802694906401
30
0
41
1
10
14.9271798085304
20
-5.47970580084672
30
0
41
1
10
14.9539537358994
20
-5.47791587688789
30
0
41
1
10
14.9673321899401
20
-5.47669409847288
30
0
41
1
10
15.0341945419055
20
-5.46893328405449
30
0
41
1
10
15.0875894364998
20
-5.45751015172041
30
0
41
1
10
15.1544113754504
20
-5.4357673502638
30
0
41
1
10
15.167796193224
20
-5.43103085495372
30
0
41
1
10
15.1941478369934
20
-5.42093535155317
30
0
41
1
10
15.2332059929599
20
-5.40480971466943
30
0
41
1
10
15.2959860666201
20
-5.37307535966892
30
0
41
1
10
15.3437246825773
20
-5.34246919635737
30
0
41
1
10
15.3901697315483
20
-5.30915030755085
30
0
41
1
10
15.4121863952644
20
-5.29153568005106
30
0
41
1
10
15.4539492170246
20
-5.25455398122531
30
0
41
1
10
15.4737029913318
20
-5.23518044967059
30
0
41
1
10
15.5110603053287
20
-5.19471509489787
30
0
41
1
10
15.5287068593985
20
-5.17354047710853
30
0
41
1
10
15.5773730428752
20
-5.10901579412999
30
0
41
1
10
15.6046398483741
20
-5.06422684516903
30
0
41
1
10
15.638792442722
20
-4.99443079497152
30
0
41
1
10
15.6490658739523
20
-4.97064915473737
30
0
41
1
10
15.6672193811967
20
-4.92260884499674
30
0
41
1
10
15.6751020665243
20
-4.89837075977275
30
0
41
1
10
15.6818380304532
20
-4.87390455985567
30
0
0
SPLINE
5
171
100
AcDbEntity
8
1
62
256
6
ByLayer
370
18
48
1
60
0
100
AcDbSpline
70
4
71
3
72
34
73
30
40
0
40
0
40
0
40
0
40
0.124999999999998
40
0.124999999999998
40
0.187499999999999
40
0.187499999999999
40
0.21875
40
0.21875
40
0.250000000000001
40
0.250000000000001
40
0.375000000000006
40
0.375000000000006
40
0.406250000000009
40
0.406250000000009
40
0.437500000000012
40
0.500000000000011
40
0.562500000000009
40
0.562500000000009
40
0.625000000000008
40
0.625000000000008
40
0.687500000000007
40
0.687500000000007
40
0.750000000000006
40
0.750000000000006
40
0.875000000000002
40
0.875000000000002
40
0.937500000000001
40
0.937500000000001
40
1
40
1
40
1
40
1
41
1
10
16.3181619695469
20
-4.87390455985567
30
0
41
1
10
16.3316243955843
20
-4.92280244741565
30
0
41
1
10
16.3495186520746
20
-4.97039327330427
30
0
41
1
10
16.3834427074956
20
-5.03994421350944
30
0
41
1
10
16.3959401462236
20
-5.06282059910325
30
0
41
1
10
16.4166305781722
20
-5.09667527743028
30
0
41
1
10
16.4238696464604
20
-5.10790858875751
30
0
41
1
10
16.4389547957833
20
-5.13010059627479
30
0
41
1
10
16.4467750039595
20
-5.14102397035393
30
0
41
1
10
16.4872859904911
20
-5.19477956517545
30
0
41
1
10
16.5241451570225
20
-5.23506485514571
30
0
41
1
10
16.5766976577683
20
-5.28171414448019
30
0
41
1
10
16.5875531522008
20
-5.29086542607263
30
0
41
1
10
16.6095897675602
20
-5.30849255858914
30
0
41
1
10
16.6432548145305
20
-5.33403155123452
30
0
41
1
10
16.7023826118536
20
-5.3721407418073
30
0
41
1
10
16.7529298677765
20
-5.39784459108233
30
0
41
1
10
16.8051631063884
20
-5.42106053729736
30
0
41
1
10
16.8314938663051
20
-5.43114515114499
30
0
41
1
10
16.8845188699141
20
-5.4484693616773
30
0
41
1
10
16.9112225356448
20
-5.45571226011586
30
0
41
1
10
16.9650247101004
20
-5.4674740645799
30
0
41
1
10
16.992216397077
20
-5.47198820416116
30
0
41
1
10
17.0724935208943
20
-5.48133781453535
30
0
41
1
10
17.1249222467065
20
-5.48220808685403
30
0
41
1
10
17.2024065588862
20
-5.47637113204726
30
0
41
1
10
17.2281182805367
20
-5.47320613060606
30
0
41
1
10
17.2787427947224
20
-5.46457017437007
30
0
41
1
10
17.30363915096
20
-5.45911188093092
30
0
41
1
10
17.3281523379786
20
-5.45254896641512
30
0
0
SPLINE
5
172
100
AcDbEntity
8
1
62
256
6
ByLayer
370
18
48
1
60
0
100
AcDbSpline
70
4
71
3
72
24
73
20
40
0
40
0
40
0
40
0
40
0.062500000000004
40
0.062500000000004
40
0.125000000000008
40
0.125000000000008
40
0.250000000000006
40
0.250000000000006
40
0.312500000000005
40
0.312500000000005
40
0.375000000000005
40
0.375000000000005
40
0.500000000000003
40
0.500000000000003
40
0.625000000000001
40
0.625000000000001
40
0.749999999999999
40
0.749999999999999
40
1
40
1
40
1
40
1
41
1
10
17.6981810583398
20
-5.60442311040484
30
0
41
1
10
17.6934313378224
20
-5.59632139018686
30
0
41
1
10
17.6882897889865
20
-5.58835019077264
30
0
41
1
10
17.677355321586
20
-5.57290693429908
30
0
41
1
10
17.6716008277749
20
-5.56548230486322
30
0
41
1
10
17.653507056405
20
-5.54406724837233
30
0
41
1
10
17.6403431053359
20
-5.53092976047489
30
0
41
1
10
17.6189603728398
20
-5.51291952202376
30
0
41
1
10
17.6115431209205
20
-5.50719464554416
30
0
41
1
10
17.5964570188402
20
-5.49652908650145
30
0
41
1
10
17.5887541685168
20
-5.4915574654853
30
0
41
1
10
17.5651865615503
20
-5.47768476963978
30
0
41
1
10
17.5488655560664
20
-5.46981928227152
30
0
41
1
10
17.5150376500416
20
-5.45680967244004
30
0
41
1
10
17.497973394896
20
-5.45183493909818
30
0
41
1
10
17.4636029977596
20
-5.44467600751668
30
0
41
1
10
17.446237058748
20
-5.4424906930814
30
0
41
1
10
17.39416944413
20
-5.44006078995395
30
0
41
1
10
17.3606039107085
20
-5.44386070823117
30
0
41
1
10
17.3281523379786
20
-5.45254896641512
30
0
0
SPLINE
5
173
100
AcDbEntity
8
1
62
256
6
ByLayer
370
18
48
1
60
0
100
AcDbSpline
70
4
71
3
72
26
73
22
40
0
40
0
40
0
40
0
40
0.250000000000015
40
0.250000000000015
40
0.312500000000021
40
0.312500000000021
40
0.375000000000027
40
0.375000000000027
40
0.500000000000038
40
0.500000000000038
40
0.562500000000038
40
0.562500000000038
40
0.625000000000039
40
0.625000000000039
40
0.75000000000002
40
0.75000000000002
40
0.812500000000009
40
0.812500000000009
40
0.874999999999999
40
0.874999999999999
40
1
40
1
40
1
40
1
41
1
10
16.3181619695469
20
-4.87390455985567
30
0
41
1
10
16.3092192305469
20
-4.84142296665098
30
0
41
1
10
16.2954876322591
20
-4.81053631026811
30
0
41
1
10
16.271835338829
20
-4.77420148267819
30
0
41
1
10
16.2667495067731
20
-4.76702254257583
30
0
41
1
10
16.2560530091763
20
-4.75314060543948
30
0
41
1
10
16.2504333990711
20
-4.74641840555307
30
0
41
1
10
16.2327595033493
20
-4.72691327369097
30
0
41
1
10
16.2198957841168
20
-4.71478719136354
30
0
41
1
10
16.1988810548679
20
-4.69801059325081
30
0
41
1
10
16.1915883106091
20
-4.69265488280678
30
0
41
1
10
16.1763916134439
20
-4.68244843396363
30
0
41
1
10
16.1685411707113
20
-4.67763788709573
30
0
41
1
10
16.1445437728381
20
-4.66427550706149
30
0
41
1
10
16.1278334996496
20
-4.65670309595527
30
0
41
1
10
16.1016705104134
20
-4.64741602014865
30
0
41
1
10
16.0927656700965
20
-4.64466726841729
30
0
41
1
10
16.0745707697433
20
-4.63989830589611
30
0
41
1
10
16.0652845989499
20
-4.63788547449548
30
0
41
1
10
16.0374812768526
20
-4.63309641628661
30
0
41
1
10
16.01880895329
20
-4.63149999999999
30
0
41
1
10
16
20
-4.63149999999999
30
0
0
SPLINE
5
174
100
AcDbEntity
8
1
62
256
6
ByLayer
370
18
48
1
60
0
100
AcDbSpline
70
4
71
3
72
34
73
30
40
0
40
0
40
0
40
0
40
0.124999999999983
40
0.124999999999983
40
0.187499999999975
40
0.187499999999975
40
0.218749999999971
40
0.218749999999971
40
0.249999999999967
40
0.249999999999967
40
0.374999999999972
40
0.374999999999972
40
0.406249999999969
40
0.406249999999969
40
0.437499999999967
40
0.49999999999997
40
0.562499999999973
40
0.562499999999973
40
0.624999999999975
40
0.624999999999975
40
0.687499999999978
40
0.687499999999978
40
0.749999999999981
40
0.749999999999981
40
0.874999999999993
40
0.874999999999993
40
0.937499999999997
40
0.937499999999997
40
1
40
1
40
1
40
1
41
1
10
17.3281523379786
20
-7.74745103358487
30
0
41
1
10
17.2791605406677
20
-7.73433446177873
30
0
41
1
10
17.229054901581
20
-7.72570218410934
30
0
41
1
10
17.1518976275393
20
-7.71979203960024
30
0
41
1
10
17.1258420498826
20
-7.71900347636432
30
0
41
1
10
17.0861721053907
20
-7.71973050935989
30
0
41
1
10
17.0728201914696
20
-7.72029419915327
30
0
41
1
10
17.0460462641006
20
-7.72208412311213
30
0
41
1
10
17.0326678100599
20
-7.72330590152711
30
0
41
1
10
16.9658054580946
20
-7.7310667159455
30
0
41
1
10
16.9124105635002
20
-7.74248984827958
30
0
41
1
10
16.8455886245496
20
-7.76423264973621
30
0
41
1
10
16.8322038067761
20
-7.7689691450463
30
0
41
1
10
16.8058521630066
20
-7.77906464844685
30
0
41
1
10
16.7667940070401
20
-7.79519028533056
30
0
41
1
10
16.7040139333799
20
-7.82692464033107
30
0
41
1
10
16.6562753174227
20
-7.85753080364262
30
0
41
1
10
16.6098302684517
20
-7.89084969244917
30
0
41
1
10
16.5878136047356
20
-7.90846431994893
30
0
41
1
10
16.5460507829755
20
-7.94544601877467
30
0
41
1
10
16.5262970086682
20
-7.96481955032939
30
0
41
1
10
16.4889396946712
20
-8.00528490510212
30
0
41
1
10
16.4712931406015
20
-8.02645952289146
30
0
41
1
10
16.4226269571248
20
-8.09098420587003
30
0
41
1
10
16.3953601516259
20
-8.13577315483099
30
0
41
1
10
16.3612075572781
20
-8.20556920502847
30
0
41
1
10
16.3509341260478
20
-8.22935084526262
30
0
41
1
10
16.3327806188033
20
-8.27739115500324
30
0
41
1
10
16.3248979334757
20
-8.30162924022724
30
0
41
1
10
16.3181619695469
20
-8.32609544014431
30
0
0
SPLINE
5
175
100
AcDbEntity
8
1
62
256
6
ByLayer
370
18
48
1
60
0
100
AcDbSpline
70
4
71
3
72
26
73
22
40
0
40
0
40
0
40
0
40
0.12500000000001
40
0.12500000000001
40
0.25000000000002
40
0.25000000000002
40
0.312500000000037
40
0.312500000000037
40
0.375000000000054
40
0.375000000000054
40
0.50000000000006
40
0.50000000000006
40
0.562500000000052
40
0.562500000000052
40
0.625000000000045
40
0.625000000000045
40
0.75000000000003
40
0.75000000000003
40
0.875000000000015
40
0.875000000000015
40
1
40
1
40
1
40
1
41
1
10
16
20
-8.5685
30
0
41
1
10
16.0187420838797
20
-8.5685
30
0
41
1
10
16.037790024121
20
-8.56686279550459
30
0
41
1
10
16.0746705458543
20
-8.56048528068294
30
0
41
1
10
16.0926468374794
20
-8.5557727916655
30
0
41
1
10
16.1189272305608
20
-8.54646538610317
30
0
41
1
10
16.127613610563
20
-8.54296752509535
30
0
41
1
10
16.144482547616
20
-8.53533413023604
30
0
41
1
10
16.1526773955158
20
-8.53119909926488
30
0
41
1
10
16.1765732518195
20
-8.51788232941573
30
0
41
1
10
16.1915899369245
20
-8.50779456249336
30
0
41
1
10
16.2127755394084
20
-8.4909047070862
30
0
41
1
10
16.2195919185691
20
-8.48499261738445
30
0
41
1
10
16.2325595895107
20
-8.47279737184289
30
0
41
1
10
16.2387403827712
20
-8.46649129678536
30
0
41
1
10
16.2564090822013
20
-8.44697635277581
30
0
41
1
10
16.2670282709711
20
-8.43317412766206
30
0
41
1
10
16.2860013809462
20
-8.40404553323992
30
0
41
1
10
16.2941811588046
20
-8.38897729418625
30
0
41
1
10
16.3080220198239
20
-8.35811774769991
30
0
41
1
10
16.3137019836554
20
-8.3422948894881
30
0
41
1
10
16.3181619695469
20
-8.32609544014431
30
0
0
SPLINE
5
176
100
AcDbEntity
8
1
62
256
6
ByLayer
370
18
48
1
60
0
100
AcDbSpline
70
4
71
3
72
24
73
20
40
0
40
0
40
0
40
0
40
0.0625000000000001
40
0.0625000000000001
40
0.125
40
0.125
40
0.250000000000002
40
0.250000000000002
40
0.312500000000002
40
0.312500000000002
40
0.375000000000003
40
0.375000000000003
40
0.500000000000001
40
0.500000000000001
40
0.625
40
0.625
40
0.749999999999998
40
0.749999999999998
40
1
40
1
40
1
40
1
41
1
10
17.6981810583398
20
-7.59557688959518
30
0
41
1
10
17.6934313378224
20
-7.60367860981313
30
0
41
1
10
17.6882897889865
20
-7.61164980922734
30
0
41
1
10
17.677355321586
20
-7.6270930657009
30
0
41
1
10
17.6716008277749
20
-7.63451769513676
30
0
41
1
10
17.653507056405
20
-7.65593275162766
30
0
41
1
10
17.6403431053359
20
-7.6690702395251
30
0
41
1
10
17.6189603728398
20
-7.68708047797622
30
0
41
1
10
17.6115431209205
20
-7.69280535445586
30
0
41
1
10
17.5964570188402
20
-7.70347091349853
30
0
41
1
10
17.5887541685168
20
-7.70844253451469
30
0
41
1
10
17.5651865615503
20
-7.72231523036024
30
0
41
1
10
17.5488655560664
20
-7.73018071772847
30
0
41
1
10
17.5150376500416
20
-7.74319032755994
30
0
41
1
10
17.497973394896
20
-7.74816506090181
30
0
41
1
10
17.4636029977596
20
-7.75532399248331
30
0
41
1
10
17.446237058748
20
-7.75750930691862
30
0
41
1
10
17.39416944413
20
-7.75993921004607
30
0
41
1
10
17.3606039107085
20
-7.75613929176882
30
0
41
1
10
17.3281523379786
20
-7.74745103358487
30
0
0
SPLINE
5
177
100
AcDbEntity
8
1
62
256
6
ByLayer
370
18
48
1
60
0
100
AcDbSpline
70
4
71
3
72
18
73
14
40
0
40
0
40
0
40
0
40
0.250000000000009
40
0.250000000000009
40
0.375000000000011
40
0.375000000000011
40
0.437500000000013
40
0.437500000000013
40
0.500000000000014
40
0.500000000000014
40
0.750000000000007
40
0.750000000000007
40
1
40
1
40
1
40
1
41
1
10
14.5922620637002
20
-6.44725870662353
30
0
41
1
10
14.5839029765648
20
-6.40283371714233
30
0
41
1
10
14.572194076137
20
-6.36047127231677
30
0
41
1
10
14.5502147004153
20
-6.29951240206012
30
0
41
1
10
14.5421460177692
20
-6.27962718714699
30
0
41
1
10
14.5289590937532
20
-6.25041485375655
30
0
41
1
10
14.524382525553
20
-6.24078015654285
30
0
41
1
10
14.5148692909952
20
-6.22171212439076
30
0
41
1
10
14.5099208758561
20
-6.21225797017553
30
0
41
1
10
14.4844501468565
20
-6.16579120812241
30
0
41
1
10
14.4617830025327
20
-6.13116665614501
30
0
41
1
10
14.4122494705402
20
-6.06629302469025
30
0
41
1
10
14.385378603438
20
-6.03605080047578
30
0
41
1
10
14.3564173719113
20
-6.00788229583281
30
0
0
SPLINE
5
178
100
AcDbEntity
8
1
62
256
6
ByLayer
370
18
48
1
60
0
100
AcDbSpline
70
4
71
3
72
24
73
20
40
0
40
0
40
0
40
0
40
0.125000000000007
40
0.125000000000007
40
0.187500000000005
40
0.187500000000005
40
0.250000000000004
40
0.250000000000004
40
0.375000000000001
40
0.375000000000001
40
0.499999999999999
40
0.499999999999999
40
0.624999999999996
40
0.624999999999996
40
0.687499999999996
40
0.687499999999996
40
0.749999999999996
40
0.749999999999996
40
1
40
1
40
1
40
1
41
1
10
14.3018189416602
20
-5.60442311040484
30
0
41
1
10
14.2920717429747
20
-5.62104915742606
30
0
41
1
10
14.2838642633101
20
-5.63836175118036
30
0
41
1
10
14.2738342365023
20
-5.66534744378728
30
0
41
1
10
14.2708640587043
20
-5.67454737111845
30
0
41
1
10
14.2657514504449
20
-5.69314453482735
30
0
41
1
10
14.2636304107339
20
-5.70245092056322
30
0
41
1
10
14.258503655387
20
-5.73039103411821
30
0
41
1
10
14.2567259261731
20
-5.74904565975621
30
0
41
1
10
14.2563184965417
20
-5.78639994194191
30
0
41
1
10
14.2577395219956
20
-5.80523892242638
30
0
41
1
10
14.2635127050969
20
-5.84141510492052
30
0
41
1
10
14.2678413753686
20
-5.85893047355299
30
0
41
1
10
14.2763479036088
20
-5.88438887681843
30
0
41
1
10
14.2795208606013
20
-5.89273849781304
30
0
41
1
10
14.28653701553
20
-5.90916394085113
30
0
41
1
10
14.2903971485727
20
-5.91726674459125
30
0
41
1
10
14.3110153586929
20
-5.95641587152056
30
0
41
1
10
14.3317858476265
20
-5.98392498567708
30
0
41
1
10
14.3564173719113
20
-6.00788229583281
30
0
0
SPLINE
5
179
100
AcDbEntity
8
1
62
256
6
ByLayer
370
18
48
1
60
0
100
AcDbSpline
70
4
71
3
72
24
73
20
40
0
40
0
40
0
40
0
40
0.249999999999987
40
0.249999999999987
40
0.312499999999987
40
0.312499999999987
40
0.374999999999987
40
0.374999999999987
40
0.499999999999991
40
0.499999999999991
40
0.624999999999996
40
0.624999999999996
40
0.75
40
0.75
40
0.812500000000003
40
0.812500000000003
40
0.875000000000005
40
0.875000000000005
40
1
40
1
40
1
40
1
41
1
10
14.3564173719113
20
-7.19211770416717
30
0
41
1
10
14.3317858476265
20
-7.21607501432294
30
0
41
1
10
14.3110153586929
20
-7.24358412847945
30
0
41
1
10
14.2903971485727
20
-7.28273325540874
30
0
41
1
10
14.28653701553
20
-7.29083605914886
30
0
41
1
10
14.2795208606013
20
-7.30726150218695
30
0
41
1
10
14.2763479036088
20
-7.31561112318155
30
0
41
1
10
14.2678413753686
20
-7.34106952644703
30
0
41
1
10
14.2635127050969
20
-7.3585848950795
30
0
41
1
10
14.2577395219956
20
-7.39476107757361
30
0
41
1
10
14.2563184965417
20
-7.41360005805808
30
0
41
1
10
14.2567259261731
20
-7.45095434024378
30
0
41
1
10
14.258503655387
20
-7.46960896588177
30
0
41
1
10
14.2636304107339
20
-7.49754907943679
30
0
41
1
10
14.2657514504449
20
-7.50685546517266
30
0
41
1
10
14.2708640587043
20
-7.52545262888154
30
0
41
1
10
14.2738342365023
20
-7.53465255621271
30
0
41
1
10
14.2838642633102
20
-7.56163824881963
30
0
41
1
10
14.2920717429747
20
-7.57895084257393
30
0
41
1
10
14.3018189416602
20
-7.59557688959518
30
0
0
SPLINE
5
17A
100
AcDbEntity
8
1
62
256
6
ByLayer
370
18
48
1
60
0
100
AcDbSpline
70
4
71
3
72
17
73
13
40
0
40
0
40
0
40
0
40
0.250000000000003
40
0.250000000000003
40
0.500000000000007
40
0.500000000000007
40
0.562500000000003
40
0.562500000000003
40
0.624999999999999
40
0.749999999999999
40
0.749999999999999
40
1
40
1
40
1
40
1
41
1
10
14.3564173719113
20
-7.19211770416717
30
0
41
1
10
14.3853753963689
20
-7.16395231880944
30
0
41
1
10
14.4122309410964
20
-7.13372575786454
30
0
41
1
10
14.461719738367
20
-7.0689216766128
30
0
41
1
10
14.4843572921869
20
-7.0343506951335
30
0
41
1
10
14.5097894773876
20
-6.98798851185629
30
0
41
1
10
14.5147424479631
20
-6.97853470981096
30
0
41
1
10
14.5242836416446
20
-6.95942527611325
30
0
41
1
10
14.5380498884726
20
-6.93046203694777
30
0
41
1
10
14.5501769665485
20
-6.90058627674296
30
0
41
1
10
14.5721909236732
20
-6.83954938792146
30
0
41
1
10
14.5839044979644
20
-6.79715819726678
30
0
41
1
10
14.5922620637002
20
-6.75274129337646
30
0
0
SPLINE
5
17B
100
AcDbEntity
8
1
62
256
6
ByLayer
370
18
48
1
60
0
100
AcDbSpline
70
4
71
3
72
26
73
22
40
0
40
0
40
0
40
0
40
0.250000000000012
40
0.250000000000012
40
0.312500000000017
40
0.312500000000017
40
0.375000000000022
40
0.375000000000022
40
0.500000000000032
40
0.500000000000032
40
0.56250000000003
40
0.56250000000003
40
0.625000000000027
40
0.625000000000027
40
0.750000000000009
40
0.750000000000009
40
0.812500000000002
40
0.812500000000002
40
0.874999999999995
40
0.874999999999995
40
1
40
1
40
1
40
1
41
1
10
15.6818380304532
20
-8.32609544014431
30
0
41
1
10
15.6907807694531
20
-8.35857703334901
30
0
41
1
10
15.7045123677409
20
-8.38946368973188
30
0
41
1
10
15.728164661171
20
-8.42579851732179
30
0
41
1
10
15.7332504932269
20
-8.43297745742416
30
0
41
1
10
15.7439469908237
20
-8.44685939456053
30
0
41
1
10
15.7495666009289
20
-8.45358159444692
30
0
41
1
10
15.7672404966507
20
-8.47308672630902
30
0
41
1
10
15.7801042158832
20
-8.48521280863645
30
0
41
1
10
15.8011189451321
20
-8.5019894067492
30
0
41
1
10
15.8084116893909
20
-8.50734511719321
30
0
41
1
10
15.8236083865562
20
-8.51755156603639
30
0
41
1
10
15.8314588292887
20
-8.52236211290429
30
0
41
1
10
15.8554562271619
20
-8.5357244929385
30
0
41
1
10
15.8721665003504
20
-8.54329690404472
30
0
41
1
10
15.8983294895866
20
-8.55258397985136
30
0
41
1
10
15.9072343299036
20
-8.55533273158269
30
0
41
1
10
15.9254292302567
20
-8.56010169410391
30
0
41
1
10
15.9347154010501
20
-8.56211452550454
30
0
41
1
10
15.9625187231474
20
-8.56690358371338
30
0
41
1
10
15.98119104671
20
-8.5685
30
0
41
1
10
16
20
-8.5685
30
0
0
SPLINE
5
17C
100
AcDbEntity
8
1
62
256
6
ByLayer
370
18
48
1
60
0
100
AcDbSpline
70
4
71
3
72
34
73
30
40
0
40
0
40
0
40
0
40
0.124999999999999
40
0.124999999999999
40
0.1875
40
0.1875
40
0.218749999999999
40
0.218749999999999
40
0.249999999999998
40
0.249999999999998
40
0.374999999999997
40
0.374999999999997
40
0.406249999999997
40
0.406249999999997
40
0.437499999999998
40
0.499999999999998
40
0.562499999999999
40
0.562499999999999
40
0.625
40
0.625
40
0.6875
40
0.6875
40
0.750000000000001
40
0.750000000000001
40
0.875000000000001
40
0.875000000000001
40
0.937500000000001
40
0.937500000000001
40
1
40
1
40
1
40
1
41
1
10
15.6818380304532
20
-8.32609544014431
30
0
41
1
10
15.6683756044158
20
-8.27719755258437
30
0
41
1
10
15.6504813479254
20
-8.22960672669575
30
0
41
1
10
15.6165572925044
20
-8.16005578649057
30
0
41
1
10
15.6040598537764
20
-8.13717940089674
30
0
41
1
10
15.5833694218278
20
-8.10332472256971
30
0
41
1
10
15.5761303535396
20
-8.09209141124251
30
0
41
1
10
15.5610452042167
20
-8.0698994037252
30
0
41
1
10
15.5532249960405
20
-8.05897602964606
30
0
41
1
10
15.5127140095089
20
-8.00522043482457
30
0
41
1
10
15.4758548429775
20
-7.96493514485431
30
0
41
1
10
15.4233023422318
20
-7.9182858555198
30
0
41
1
10
15.4124468477992
20
-7.90913457392739
30
0
41
1
10
15.3904102324398
20
-7.89150744141085
30
0
41
1
10
15.3567451854695
20
-7.86596844876547
30
0
41
1
10
15.2976173881464
20
-7.82785925819269
30
0
41
1
10
15.2470701322235
20
-7.80215540891766
30
0
41
1
10
15.1948368936116
20
-7.77893946270262
30
0
41
1
10
15.168506133695
20
-7.768854848855
30
0
41
1
10
15.1154811300859
20
-7.75153063832269
30
0
41
1
10
15.0887774643553
20
-7.74428773988413
30
0
41
1
10
15.0349752898997
20
-7.73252593542009
30
0
41
1
10
15.007783602923
20
-7.72801179583885
30
0
41
1
10
14.9275064791057
20
-7.71866218546464
30
0
41
1
10
14.8750777532936
20
-7.71779191314599
30
0
41
1
10
14.7975934411139
20
-7.72362886795273
30
0
41
1
10
14.7718817194633
20
-7.72679386939393
30
0
41
1
10
14.7212572052777
20
-7.73542982562995
30
0
41
1
10
14.69636084904
20
-7.74088811906907
30
0
41
1
10
14.6718476620214
20
-7.74745103358487
30
0
0
SPLINE
5
17D
100
AcDbEntity
8
1
62
256
6
ByLayer
370
18
48
1
60
0
100
AcDbSpline
70
4
71
3
72
24
73
20
40
0
40
0
40
0
40
0
40
0.0625000000000072
40
0.0625000000000072
40
0.125000000000014
40
0.125000000000014
40
0.25000000000002
40
0.25000000000002
40
0.312500000000024
40
0.312500000000024
40
0.375000000000027
40
0.375000000000027
40
0.50000000000002
40
0.50000000000002
40
0.625000000000014
40
0.625000000000014
40
0.750000000000008
40
0.750000000000008
40
1
40
1
40
1
40
1
41
1
10
14.3018189416602
20
-7.59557688959518
30
0
41
1
10
14.3065686621776
20
-7.60367860981313
30
0
41
1
10
14.3117102110135
20
-7.61164980922734
30
0
41
1
10
14.322644678414
20
-7.6270930657009
30
0
41
1
10
14.3283991722251
20
-7.63451769513679
30
0
41
1
10
14.346492943595
20
-7.65593275162766
30
0
41
1
10
14.3596568946641
20
-7.6690702395251
30
0
41
1
10
14.3810396271602
20
-7.68708047797622
30
0
41
1
10
14.3884568790795
20
-7.69280535445586
30
0
41
1
10
14.4035429811598
20
-7.70347091349853
30
0
41
1
10
14.4112458314832
20
-7.70844253451469
30
0
41
1
10
14.4348134384497
20
-7.72231523036024
30
0
41
1
10
14.4511344439337
20
-7.73018071772847
30
0
41
1
10
14.4849623499584
20
-7.74319032755994
30
0
41
1
10
14.502026605104
20
-7.74816506090181
30
0
41
1
10
14.5363970022404
20
-7.75532399248331
30
0
41
1
10
14.553762941252
20
-7.75750930691862
30
0
41
1
10
14.60583055587
20
-7.75993921004607
30
0
41
1
10
14.6393960892915
20
-7.75613929176882
30
0
41
1
10
14.6718476620214
20
-7.74745103358487
30
0
0
LINE
5
7D
100
AcDbEntity
8
81
62
256
6
ByLayer
370
18
48
1
60
0
100
AcDbLine
10
41.1
20
-18
30
0
11
46.1
21
-18
31
0
39
0
210
0
220
0
230
1
0
LINE
5
7E
100
AcDbEntity
8
80
62
256
6
ByLayer
370
18
48
1
60
0
100
AcDbLine
10
0
20
0
30
0
11
0
21
5
31
0
39
0
210
0
220
0
230
1
0
LINE
5
7F
100
AcDbEntity
8
1
62
256
6
ByLayer
370
18
48
1
60
0
100
AcDbLine
10
16
20
-0.875
30
0
11
16
21
-0.675
31
0
39
0
210
0
220
0
230
1
0
LINE
5
80
100
AcDbEntity
8
1
62
256
6
ByLayer
370
18
48
1
60
0
100
AcDbLine
10
9.132847
20
0.324981
30
0
11
6.60048
21
0.324981
31
0
39
0
210
0
220
0
230
1
0
LINE
5
81
100
AcDbEntity
8
1
62
256
6
ByLayer
370
18
48
1
60
0
100
AcDbLine
10
9.476736
20
0.324981
30
0
11
9.404549
21
0.324981
31
0
39
0
210
0
220
0
230
1
0
LINE
5
82
100
AcDbEntity
8
1
62
256
6
ByLayer
370
18
48
1
60
0
100
AcDbLine
10
32.598231
20
-13.325
30
0
11
33.906327
21
-13.325
31
0
39
0
210
0
220
0
230
1
0
LINE
5
83
100
AcDbEntity
8
1
62
256
6
ByLayer
370
18
48
1
60
0
100
AcDbLine
10
32.598231
20
-17.675
30
0
11
33.906327
21
-17.675
31
0
39
0
210
0
220
0
230
1
0
LINE
5
84
100
AcDbEntity
8
1
62
256
6
ByLayer
370
18
48
1
60
0
100
AcDbLine
10
33.906327
20
-17.675
30
0
11
36.354202
21
-17.675
31
0
39
0
210
0
220
0
230
1
0
LINE
5
85
100
AcDbEntity
8
1
62
256
6
ByLayer
370
18
48
1
60
0
100
AcDbLine
10
33.906327
20
-17.675
30
0
11
33.906193
21
-17.599991
31
0
39
0
210
0
220
0
230
1
0
LINE
5
86
100
AcDbEntity
8
1
62
256
6
ByLayer
370
18
48
1
60
0
100
AcDbLine
10
33.906327
20
-13.325
30
0
11
36.354202
21
-13.325
31
0
39
0
210
0
220
0
230
1
0
LINE
5
87
100
AcDbEntity
8
1
62
256
6
ByLayer
370
18
48
1
60
0
100
AcDbLine
10
33.906193
20
-13.400009
30
0
11
33.906327
21
-13.325
31
0
39
0
210
0
220
0
230
1
0
LINE
5
88
100
AcDbEntity
8
1
62
256
6
ByLayer
370
18
48
1
60
0
100
AcDbLine
10
9.530813
20
0.25
30
0
11
6.714371
21
0.25
31
0
39
0
210
0
220
0
230
1
0
LINE
5
89
100
AcDbEntity
8
1
62
256
6
ByLayer
370
18
48
1
60
0
100
AcDbLine
10
14.717168
20
0.324981
30
0
11
9.57055
21
0.324981
31
0
39
0
210
0
220
0
230
1
0
LINE
5
8A
100
AcDbEntity
8
1
62
256
6
ByLayer
370
18
48
1
60
0
100
AcDbLine
10
7.290539
20
-0.129904
30
0
11
15.243082
21
-0.129904
31
0
39
0
210
0
220
0
230
1
0
LINE
5
8B
100
AcDbEntity
8
1
62
256
6
ByLayer
370
13
48
1
60
0
100
AcDbLine
10
14.818469
20
0.249981
30
0
11
6.71446
21
0.249981
31
0
39
0
210
0
220
0
230
1
0
LINE
5
8C
100
AcDbEntity
8
1
62
256
6
ByLayer
370
18
48
1
60
0
100
AcDbLine
10
32.598216
20
-17.675
30
0
11
29.6
21
-17.675
31
0
39
0
210
0
220
0
230
1
0
LINE
5
8D
100
AcDbEntity
8
1
62
256
6
ByLayer
370
18
48
1
60
0
100
AcDbLine
10
32.598216
20
-13.325
30
0
11
29.6
21
-13.325
31
0
39
0
210
0
220
0
230
1
0
LINE
5
8E
100
AcDbEntity
8
1
62
256
6
ByLayer
370
18
48
1
60
0
100
AcDbLine
10
32.608056
20
-17.620716
30
0
11
32.598216
21
-17.675
31
0
39
0
210
0
220
0
230
1
0
LINE
5
8F
100
AcDbEntity
8
1
62
256
6
ByLayer
370
18
48
1
60
0
100
AcDbLine
10
33.1
20
-15.225031
30
0
11
33.1
21
-15.774969
31
0
39
0
210
0
220
0
230
1
0
LINE
5
90
100
AcDbEntity
8
1
62
256
6
ByLayer
370
18
48
1
60
0
100
AcDbLine
10
32.598216
20
-13.325
30
0
11
32.608056
21
-13.379284
31
0
39
0
210
0
220
0
230
1
0
LINE
5
91
100
AcDbEntity
8
1
62
256
6
ByLayer
370
18
48
1
60
0
100
AcDbLine
10
-14.000019
20
0.324981
30
0
11
-14.075019
21
0.249981
31
0
39
0
210
0
220
0
230
1
0
LINE
5
92
100
AcDbEntity
8
1
62
256
6
ByLayer
370
18
48
1
60
0
100
AcDbLine
10
-9.769771
20
0.324981
30
0
11
-10.247062
21
0.324981
31
0
39
0
210
0
220
0
230
1
0
LINE
5
93
100
AcDbEntity
8
1
62
256
6
ByLayer
370
18
48
1
60
0
100
AcDbLine
10
-10.810081
20
0.324981
30
0
11
-11.023511
21
0.324981
31
0
39
0
210
0
220
0
230
1
0
LINE
5
94
100
AcDbEntity
8
1
62
256
6
ByLayer
370
18
48
1
60
0
100
AcDbLine
10
-13.791283
20
0.324981
30
0
11
-14.000019
21
0.324981
31
0
39
0
210
0
220
0
230
1
0
LINE
5
95
100
AcDbEntity
8
1
62
256
6
ByLayer
370
18
48
1
60
0
100
AcDbLine
10
-14.075019
20
0.249981
30
0
11
-14.559331
21
-0.234331
31
0
39
0
210
0
220
0
230
1
0
LINE
5
96
100
AcDbEntity
8
1
62
256
6
ByLayer
370
13
48
1
60
0
100
AcDbLine
10
-13.927309
20
0.249981
30
0
11
-14.075019
21
0.249981
31
0
39
0
210
0
220
0
230
1
0
LINE
5
97
100
AcDbEntity
8
1
62
256
6
ByLayer
370
18
48
1
60
0
100
AcDbLine
10
-11.132078
20
0.324981
30
0
11
-11.287197
21
0.324981
31
0
39
0
210
0
220
0
230
1
0
LINE
5
98
100
AcDbEntity
8
1
62
256
6
ByLayer
370
18
48
1
60
0
100
AcDbLine
10
-13.048061
20
0.324981
30
0
11
-13.703327
21
0.324981
31
0
39
0
210
0
220
0
230
1
0
LINE
5
99
100
AcDbEntity
8
1
62
256
6
ByLayer
370
13
48
1
60
0
100
AcDbLine
10
-13.206552
20
0.249981
30
0
11
-13.72716
21
0.249981
31
0
39
0
210
0
220
0
230
1
0
LINE
5
9A
100
AcDbEntity
8
1
62
256
6
ByLayer
370
13
48
1
60
0
100
AcDbLine
10
-14.125544
20
-0.394519
30
0
11
-14.265575
21
-0.394519
31
0
39
0
210
0
220
0
230
1
0
LINE
5
9B
100
AcDbEntity
8
1
62
256
6
ByLayer
370
18
48
1
60
0
100
AcDbLine
10
-12.074956
20
0.324981
30
0
11
-12.9317
21
0.324981
31
0
39
0
210
0
220
0
230
1
0
LINE
5
9C
100
AcDbEntity
8
1
62
256
6
ByLayer
370
13
48
1
60
0
100
AcDbLine
10
-12.261918
20
0.249981
30
0
11
-12.941904
21
0.249981
31
0
39
0
210
0
220
0
230
1
0
LINE
5
9D
100
AcDbEntity
8
1
62
256
6
ByLayer
370
13
48
1
60
0
100
AcDbLine
10
-13.288685
20
-0.394519
30
0
11
-13.470275
21
-0.394519
31
0
39
0
210
0
220
0
230
1
0
LINE
5
9E
100
AcDbEntity
8
1
62
256
6
ByLayer
370
18
48
1
60
0
100
AcDbLine
10
-11.287177
20
0.324981
30
0
11
-11.923781
21
0.324981
31
0
39
0
210
0
220
0
230
1
0
LINE
5
9F
100
AcDbEntity
8
1
62
256
6
ByLayer
370
13
48
1
60
0
100
AcDbLine
10
-11.153931
20
0.249981
30
0
11
-11.918509
21
0.249981
31
0
39
0
210
0
220
0
230
1
0
LINE
5
A0
100
AcDbEntity
8
1
62
256
6
ByLayer
370
13
48
1
60
0
100
AcDbLine
10
-12.212601
20
-0.394519
30
0
11
-12.44548
21
-0.394519
31
0
39
0
210
0
220
0
230
1
0
LINE
5
A1
100
AcDbEntity
8
1
62
256
6
ByLayer
370
18
48
1
60
0
100
AcDbLine
10
-10.247044
20
0.324981
30
0
11
-10.612458
21
0.324981
31
0
39
0
210
0
220
0
230
1
0
LINE
5
A2
100
AcDbEntity
8
1
62
256
6
ByLayer
370
13
48
1
60
0
100
AcDbLine
10
-9.966378
20
0.249981
30
0
11
-10.588147
21
0.249981
31
0
39
0
210
0
220
0
230
1
0
LINE
5
A3
100
AcDbEntity
8
1
62
256
6
ByLayer
370
18
48
1
60
0
100
AcDbLine
10
-9.769771
20
0.324981
30
0
11
-9.404549
21
0.324981
31
0
39
0
210
0
220
0
230
1
0
LINE
5
A4
100
AcDbEntity
8
1
62
256
6
ByLayer
370
18
48
1
60
0
100
AcDbLine
10
-11.132078
20
0.324981
30
0
11
-11.023467
21
0.324981
31
0
39
0
210
0
220
0
230
1
0
LINE
5
A5
100
AcDbEntity
8
1
62
256
6
ByLayer
370
13
48
1
60
0
100
AcDbLine
10
-10.826145
20
-0.394519
30
0
11
-11.127967
21
-0.394519
31
0
39
0
210
0
220
0
230
1
0
LINE
5
A6
100
AcDbEntity
8
1
62
256
6
ByLayer
370
18
48
1
60
0
100
AcDbLine
10
-6.742374
20
0.324981
30
0
11
-8.864082
21
0.324981
31
0
39
0
210
0
220
0
230
1
0
LINE
5
A7
100
AcDbEntity
8
1
62
256
6
ByLayer
370
18
48
1
60
0
100
AcDbLine
10
16
20
-0.675
30
0
11
10.163081
21
-0.675
31
0
39
0
210
0
220
0
230
1
0
LINE
5
A8
100
AcDbEntity
8
1
62
256
6
ByLayer
370
13
48
1
60
0
100
AcDbLine
10
-7.153883
20
0.249981
30
0
11
-8.812878
21
0.249981
31
0
39
0
210
0
220
0
230
1
0
LINE
5
A9
100
AcDbEntity
8
1
62
256
6
ByLayer
370
18
48
1
60
0
100
AcDbLine
10
29.6
20
-17.675
30
0
11
20.006384
21
-17.675
31
0
39
0
210
0
220
0
230
1
0
LINE
5
AA
100
AcDbEntity
8
1
62
256
6
ByLayer
370
18
48
1
60
0
100
AcDbLine
10
20.006384
20
-1.528824
30
0
11
21.5
21
-2.782117
31
0
39
0
210
0
220
0
230
1
0
LINE
5
AB
100
AcDbEntity
8
1
62
256
6
ByLayer
370
18
48
1
60
0
100
AcDbLine
10
29.6
20
-13.325
30
0
11
29.6
21
-17.675
31
0
39
0
210
0
220
0
230
1
0
LINE
5
AC
100
AcDbEntity
8
1
62
256
6
ByLayer
370
18
48
1
60
0
100
AcDbLine
10
29.6
20
-13.325
30
0
11
23.1
21
-13.325
31
0
39
0
210
0
220
0
230
1
0
LINE
5
AD
100
AcDbEntity
8
1
62
256
6
ByLayer
370
18
48
1
60
0
100
AcDbLine
10
21.5
20
-11.725
30
0
11
21.5
21
-2.782117
31
0
39
0
210
0
220
0
230
1
0
LINE
5
AE
100
AcDbEntity
8
1
62
256
6
ByLayer
370
18
48
1
60
0
100
AcDbLine
10
10.388566
20
-17.675
30
0
11
20.006384
21
-17.675
31
0
39
0
210
0
220
0
230
1
0
LINE
5
AF
100
AcDbEntity
8
1
62
256
6
ByLayer
370
18
48
1
60
0
100
AcDbLine
10
19.823063
20
-1.375
30
0
11
20.006384
21
-1.528824
31
0
39
0
210
0
220
0
230
1
0
LINE
5
B0
100
AcDbEntity
8
1
62
256
6
ByLayer
370
18
48
1
60
0
100
AcDbLine
10
10.593748
20
-1.375
30
0
11
19.823063
21
-1.375
31
0
39
0
210
0
220
0
230
1
0
LINE
5
B1
100
AcDbEntity
8
1
62
256
6
ByLayer
370
18
48
1
60
0
100
AcDbLine
10
20.006384
20
-17.675
30
0
11
20.006384
21
-8.756708
31
0
39
0
210
0
220
0
230
1
0
LINE
5
B2
100
AcDbEntity
8
1
62
256
6
ByLayer
370
18
48
1
60
0
100
AcDbLine
10
20.006384
20
-4.443292
30
0
11
20.006384
21
-1.528824
31
0
39
0
210
0
220
0
230
1
0
LINE
5
B3
100
AcDbEntity
8
1
62
256
6
ByLayer
370
18
48
1
60
0
100
AcDbLine
10
10.388566
20
-17.675
30
0
11
9.445832
21
-17.675
31
0
39
0
210
0
220
0
230
1
0
LINE
5
B4
100
AcDbEntity
8
1
62
256
6
ByLayer
370
18
48
1
60
0
100
AcDbLine
10
9.371207
20
-0.675
30
0
11
10.163081
21
-0.675
31
0
39
0
210
0
220
0
230
1
0
LINE
5
B5
100
AcDbEntity
8
1
62
256
6
ByLayer
370
18
48
1
60
0
100
AcDbLine
10
10.163081
20
-0.875
30
0
11
10.163081
21
-0.675
31
0
39
0
210
0
220
0
230
1
0
LINE
5
B6
100
AcDbEntity
8
1
62
256
6
ByLayer
370
18
48
1
60
0
100
AcDbLine
10
10.388566
20
-1.357539
30
0
11
10.388566
21
-17.675
31
0
39
0
210
0
220
0
230
1
0
LINE
5
B7
100
AcDbEntity
8
1
62
256
6
ByLayer
370
13
48
1
60
0
100
AcDbLine
10
16
20
-0.875
30
0
11
10.163081
21
-0.875
31
0
39
0
210
0
220
0
230
1
0
LINE
5
B8
100
AcDbEntity
8
1
62
256
6
ByLayer
370
13
48
1
60
0
100
AcDbLine
10
-8.986697
20
-0.394519
30
0
11
-9.395388
21
-0.394519
31
0
39
0
210
0
220
0
230
1
0
LINE
5
B9
100
AcDbEntity
8
1
62
256
6
ByLayer
370
18
48
1
60
0
100
AcDbLine
10
6.326108
20
0.324981
30
0
11
1.735923
21
0.324981
31
0
39
0
210
0
220
0
230
1
0
LINE
5
BA
100
AcDbEntity
8
1
62
256
6
ByLayer
370
18
48
1
60
0
100
AcDbLine
10
-1.735923
20
0.324981
30
0
11
-6.326108
21
0.324981
31
0
39
0
210
0
220
0
230
1
0
LINE
5
BB
100
AcDbEntity
8
1
62
256
6
ByLayer
370
13
48
1
60
0
100
AcDbLine
10
6.222926
20
0.249981
30
0
11
3.020453
21
0.249981
31
0
39
0
210
0
220
0
230
1
0
LINE
5
BC
100
AcDbEntity
8
1
62
256
6
ByLayer
370
13
48
1
60
0
100
AcDbLine
10
-3.020453
20
0.249981
30
0
11
-6.222926
21
0.249981
31
0
39
0
210
0
220
0
230
1
0
LINE
5
BD
100
AcDbEntity
8
1
62
256
6
ByLayer
370
13
48
1
60
0
100
AcDbLine
10
6.943702
20
-0.394519
30
0
11
6.310523
21
-0.394519
31
0
39
0
210
0
220
0
230
1
0
LINE
5
BE
100
AcDbEntity
8
1
62
256
6
ByLayer
370
13
48
1
60
0
100
AcDbLine
10
-6.310523
20
-0.394519
30
0
11
-6.943702
21
-0.394519
31
0
39
0
210
0
220
0
230
1
0
LINE
5
BF
100
AcDbEntity
8
1
62
256
6
ByLayer
370
13
48
1
60
0
100
AcDbLine
10
1.912242
20
-0.394519
30
0
11
-1.912242
21
-0.394519
31
0
39
0
210
0
220
0
230
1
0
LINE
5
C0
100
AcDbEntity
8
1
62
256
6
ByLayer
370
18
48
1
60
0
100
AcDbLine
10
-15
20
-0.875
30
0
11
-15
21
-0.675
31
0
39
0
210
0
220
0
230
1
0
LINE
5
C1
100
AcDbEntity
8
1
62
256
6
ByLayer
370
18
48
1
60
0
100
AcDbLine
10
9.371254
20
-0.675
30
0
11
9.371254
21
-0.875
31
0
39
0
210
0
220
0
230
1
0
LINE
5
C2
100
AcDbEntity
8
1
62
256
6
ByLayer
370
18
48
1
60
0
100
AcDbLine
10
9.371254
20
-0.675
30
0
11
7.937106
21
-0.675
31
0
39
0
210
0
220
0
230
1
0
LINE
5
C3
100
AcDbEntity
8
1
62
256
6
ByLayer
370
18
48
1
60
0
100
AcDbLine
10
7.937106
20
-0.675
30
0
11
-15
21
-0.675
31
0
39
0
210
0
220
0
230
1
0
LINE
5
C4
100
AcDbEntity
8
1
62
256
6
ByLayer
370
18
48
1
60
0
100
AcDbLine
10
6.326108
20
0.324981
30
0
11
6.60065
21
0.324981
31
0
39
0
210
0
220
0
230
1
0
LINE
5
C5
100
AcDbEntity
8
1
62
256
6
ByLayer
370
18
48
1
60
0
100
AcDbLine
10
-1.735945
20
0.324981
30
0
11
1.735945
21
0.324981
31
0
39
0
210
0
220
0
230
1
0
LINE
5
C6
100
AcDbEntity
8
1
62
256
6
ByLayer
370
18
48
1
60
0
100
AcDbLine
10
-6.742492
20
0.324981
30
0
11
-6.326108
21
0.324981
31
0
39
0
210
0
220
0
230
1
0
LINE
5
C7
100
AcDbEntity
8
1
62
256
6
ByLayer
370
18
48
1
60
0
100
AcDbLine
10
-9.132847
20
0.324981
30
0
11
-8.864082
21
0.324981
31
0
39
0
210
0
220
0
230
1
0
LINE
5
C8
100
AcDbEntity
8
1
62
256
6
ByLayer
370
18
48
1
60
0
100
AcDbLine
10
-10.810022
20
0.324981
30
0
11
-10.612458
21
0.324981
31
0
39
0
210
0
220
0
230
1
0
LINE
5
C9
100
AcDbEntity
8
1
62
256
6
ByLayer
370
18
48
1
60
0
100
AcDbLine
10
-12.074944
20
0.324981
30
0
11
-11.923781
21
0.324981
31
0
39
0
210
0
220
0
230
1
0
LINE
5
CA
100
AcDbEntity
8
1
62
256
6
ByLayer
370
18
48
1
60
0
100
AcDbLine
10
-13.048064
20
0.324981
30
0
11
-12.9317
21
0.324981
31
0
39
0
210
0
220
0
230
1
0
LINE
5
CB
100
AcDbEntity
8
1
62
256
6
ByLayer
370
18
48
1
60
0
100
AcDbLine
10
-13.791289
20
0.324981
30
0
11
-13.703327
21
0.324981
31
0
39
0
210
0
220
0
230
1
0
LINE
5
CC
100
AcDbEntity
8
1
62
256
6
ByLayer
370
18
48
1
60
0
100
AcDbLine
10
-15
20
-1.092945
30
0
11
-15
21
-6.1
31
0
39
0
210
0
220
0
230
1
0
LINE
5
CD
100
AcDbEntity
8
1
62
256
6
ByLayer
370
18
48
1
60
0
100
AcDbLine
10
-15
20
-6.1
30
0
11
-3.425
21
-17.675
31
0
39
0
210
0
220
0
230
1
0
LINE
5
CE
100
AcDbEntity
8
1
62
256
6
ByLayer
370
18
48
1
60
0
100
AcDbLine
10
-3.425
20
-17.675
30
0
11
0
21
-17.675
31
0
39
0
210
0
220
0
230
1
0
LINE
5
CF
100
AcDbEntity
8
1
62
256
6
ByLayer
370
18
48
1
60
0
100
AcDbLine
10
-15
20
-1.092945
30
0
11
0
21
-1.092945
31
0
39
0
210
0
220
0
230
1
0
LINE
5
D0
100
AcDbEntity
8
1
62
256
6
ByLayer
370
13
48
1
60
0
100
AcDbLine
10
-15
20
-0.875
30
0
11
9.371254
21
-0.875
31
0
39
0
210
0
220
0
230
1
0
LINE
5
D1
100
AcDbEntity
8
1
62
256
6
ByLayer
370
18
48
1
60
0
100
AcDbLine
10
6.461
20
-17.675
30
0
11
9.445863
21
-17.675
31
0
39
0
210
0
220
0
230
1
0
LINE
5
D2
100
AcDbEntity
8
1
62
256
6
ByLayer
370
18
48
1
60
0
100
AcDbLine
10
9.445863
20
-17.675
30
0
11
9.445863
21
-1.202402
31
0
39
0
210
0
220
0
230
1
0
LINE
5
D3
100
AcDbEntity
8
1
62
256
6
ByLayer
370
18
48
1
60
0
100
AcDbLine
10
6.461
20
-1.375
30
0
11
8.18325
21
-1.375
31
0
39
0
210
0
220
0
230
1
0
LINE
5
D4
100
AcDbEntity
8
1
62
256
6
ByLayer
370
13
48
1
60
0
100
AcDbLine
10
0
20
-1.092945
30
0
11
0
21
-17.675
31
0
39
0
210
0
220
0
230
1
0
LINE
5
D5
100
AcDbEntity
8
1
62
256
6
ByLayer
370
18
48
1
60
0
100
AcDbLine
10
0
20
-17.675
30
0
11
6.461
21
-17.675
31
0
39
0
210
0
220
0
230
1
0
LINE
5
D6
100
AcDbEntity
8
1
62
256
6
ByLayer
370
18
48
1
60
0
100
AcDbLine
10
6.461
20
-1.375
30
0
11
6.461
21
-17.675
31
0
39
0
210
0
220
0
230
1
0
LINE
5
D7
100
AcDbEntity
8
1
62
256
6
ByLayer
370
18
48
1
60
0
100
AcDbLine
10
3.827205
20
-1.375
30
0
11
6.461
21
-1.375
31
0
39
0
210
0
220
0
230
1
0
LINE
5
D8
100
AcDbEntity
8
1
62
256
6
ByLayer
370
18
48
1
60
0
100
AcDbLine
10
16.1
20
-17.7
30
0
11
16.1
21
-17.674975
31
0
39
0
210
0
220
0
230
1
0
LINE
5
D9
100
AcDbEntity
8
1
62
256
6
ByLayer
370
18
48
1
60
0
100
AcDbLine
10
16.413086
20
-17.999714
30
0
11
20.6
21
-17.81691
31
0
39
0
210
0
220
0
230
1
0
LINE
5
DA
100
AcDbEntity
8
1
62
256
6
ByLayer
370
18
48
1
60
0
100
AcDbLine
10
20.6
20
-17.81691
30
0
11
20.845789
21
-17.675003
31
0
39
0
210
0
220
0
230
1
0
LINE
5
DB
100
AcDbEntity
8
1
62
256
6
ByLayer
370
18
48
1
60
0
100
AcDbLine
10
34.73
20
-17.6
30
0
11
36.224301
21
-17.6
31
0
39
0
210
0
220
0
230
1
0
LINE
5
DC
100
AcDbEntity
8
1
62
256
6
ByLayer
370
18
48
1
60
0
100
AcDbLine
10
34.73
20
-13.4
30
0
11
36.224301
21
-13.4
31
0
39
0
210
0
220
0
230
1
0
LINE
5
DD
100
AcDbEntity
8
1
62
256
6
ByLayer
370
18
48
1
60
0
100
AcDbLine
10
41.1
20
-17.7
30
0
11
41.1
21
-13.3
31
0
39
0
210
0
220
0
230
1
0
LINE
5
DE
100
AcDbEntity
8
1
62
256
6
ByLayer
370
18
48
1
60
0
100
AcDbLine
10
36.6
20
-13.18309
30
0
11
36.224301
21
-13.4
31
0
39
0
210
0
220
0
230
1
0
LINE
5
DF
100
AcDbEntity
8
1
62
256
6
ByLayer
370
18
48
1
60
0
100
AcDbLine
10
36.6
20
-17.81691
30
0
11
36.224301
21
-17.6
31
0
39
0
210
0
220
0
230
1
0
LINE
5
E0
100
AcDbEntity
8
1
62
256
6
ByLayer
370
18
48
1
60
0
100
AcDbLine
10
40.786914
20
-17.999714
30
0
11
36.6
21
-17.81691
31
0
39
0
210
0
220
0
230
1
0
LINE
5
E1
100
AcDbEntity
8
1
62
256
6
ByLayer
370
18
48
1
60
0
100
AcDbLine
10
40.786914
20
-13.000286
30
0
11
36.6
21
-13.18309
31
0
39
0
210
0
220
0
230
1
0
LINE
5
E2
100
AcDbEntity
8
1
62
256
6
ByLayer
370
13
48
1
60
0
100
AcDbLine
10
33.1
20
-15.52
30
0
11
34.037861
21
-15.52
31
0
39
0
210
0
220
0
230
1
0
LINE
5
E3
100
AcDbEntity
8
1
62
256
6
ByLayer
370
13
48
1
60
0
100
AcDbLine
10
33.1
20
-15.48
30
0
11
34.037861
21
-15.48
31
0
39
0
210
0
220
0
230
1
0
LINE
5
E4
100
AcDbEntity
8
1
62
256
6
ByLayer
370
13
48
1
60
0
100
AcDbLine
10
33.099918
20
-15.289264
30
0
11
34.028946
21
-15.289264
31
0
39
0
210
0
220
0
230
1
0
LINE
5
E5
100
AcDbEntity
8
1
62
256
6
ByLayer
370
13
48
1
60
0
100
AcDbLine
10
33.099918
20
-15.710736
30
0
11
34.028946
21
-15.710736
31
0
39
0
210
0
220
0
230
1
0
LINE
5
E6
100
AcDbEntity
8
1
62
256
6
ByLayer
370
13
48
1
60
0
100
AcDbLine
10
33.002143
20
-15.927733
30
0
11
33.848945
21
-15.927733
31
0
39
0
210
0
220
0
230
1
0
LINE
5
E7
100
AcDbEntity
8
1
62
256
6
ByLayer
370
13
48
1
60
0
100
AcDbLine
10
33.002143
20
-15.072267
30
0
11
33.848945
21
-15.072267
31
0
39
0
210
0
220
0
230
1
0
LINE
5
E8
100
AcDbEntity
8
1
62
256
6
ByLayer
370
13
48
1
60
0
100
AcDbLine
10
33.690119
20
-15.983085
30
0
11
32.886755
21
-15.983085
31
0
39
0
210
0
220
0
230
1
0
LINE
5
E9
100
AcDbEntity
8
1
62
256
6
ByLayer
370
13
48
1
60
0
100
AcDbLine
10
33.690119
20
-15.016915
30
0
11
32.886755
21
-15.016915
31
0
39
0
210
0
220
0
230
1
0
LINE
5
EA
100
AcDbEntity
8
1
62
256
6
ByLayer
370
13
48
1
60
0
100
AcDbLine
10
32.849568
20
-16.013888
30
0
11
33.649523
21
-16.013888
31
0
39
0
210
0
220
0
230
1
0
LINE
5
EB
100
AcDbEntity
8
1
62
256
6
ByLayer
370
13
48
1
60
0
100
AcDbLine
10
32.849489
20
-14.986112
30
0
11
33.649523
21
-14.986112
31
0
39
0
210
0
220
0
230
1
0
LINE
5
EC
100
AcDbEntity
8
1
62
256
6
ByLayer
370
13
48
1
60
0
100
AcDbLine
10
32.836638
20
-14.894335
30
0
11
33.577691
21
-14.894335
31
0
39
0
210
0
220
0
230
1
0
LINE
5
ED
100
AcDbEntity
8
1
62
256
6
ByLayer
370
13
48
1
60
0
100
AcDbLine
10
32.836793
20
-16.105665
30
0
11
33.577691
21
-16.105665
31
0
39
0
210
0
220
0
230
1
0
LINE
5
EE
100
AcDbEntity
8
1
62
256
6
ByLayer
370
13
48
1
60
0
100
AcDbLine
10
32.830688
20
-16.149934
30
0
11
33.557959
21
-16.149934
31
0
39
0
210
0
220
0
230
1
0
LINE
5
EF
100
AcDbEntity
8
1
62
256
6
ByLayer
370
13
48
1
60
0
100
AcDbLine
10
32.830533
20
-14.850066
30
0
11
33.557959
21
-14.850066
31
0
39
0
210
0
220
0
230
1
0
LINE
5
F0
100
AcDbEntity
8
1
62
256
6
ByLayer
370
13
48
1
60
0
100
AcDbLine
10
32.650678
20
-17.341384
30
0
11
33.347874
21
-17.341384
31
0
39
0
210
0
220
0
230
1
0
LINE
5
F1
100
AcDbEntity
8
1
62
256
6
ByLayer
370
18
48
1
60
0
100
AcDbLine
10
32.611115
20
-17.6
30
0
11
33.346355
21
-17.6
31
0
39
0
210
0
220
0
230
1
0
LINE
5
F2
100
AcDbEntity
8
1
62
256
6
ByLayer
370
13
48
1
60
0
100
AcDbLine
10
32.648047
20
-17.358749
30
0
11
33.346355
21
-17.358749
31
0
39
0
210
0
220
0
230
1
0
LINE
5
F3
100
AcDbEntity
8
1
62
256
6
ByLayer
370
18
48
1
60
0
100
AcDbLine
10
32.611263
20
-13.4
30
0
11
33.346355
21
-13.4
31
0
39
0
210
0
220
0
230
1
0
LINE
5
F4
100
AcDbEntity
8
1
62
256
6
ByLayer
370
13
48
1
60
0
100
AcDbLine
10
32.648641
20
-13.641251
30
0
11
33.346355
21
-13.641251
31
0
39
0
210
0
220
0
230
1
0
LINE
5
F5
100
AcDbEntity
8
1
62
256
6
ByLayer
370
13
48
1
60
0
100
AcDbLine
10
32.651272
20
-13.658616
30
0
11
33.347874
21
-13.658616
31
0
39
0
210
0
220
0
230
1
0
LINE
5
F6
100
AcDbEntity
8
1
62
256
6
ByLayer
370
18
48
1
60
0
100
AcDbLine
10
33.346355
20
-17.6
30
0
11
34.73
21
-17.6
31
0
39
0
210
0
220
0
230
1
0
LINE
5
F7
100
AcDbEntity
8
1
62
256
6
ByLayer
370
18
48
1
60
0
100
AcDbLine
10
34.73
20
-17.6
30
0
11
34.73
21
-13.4
31
0
39
0
210
0
220
0
230
1
0
LINE
5
F8
100
AcDbEntity
8
1
62
256
6
ByLayer
370
18
48
1
60
0
100
AcDbLine
10
33.346355
20
-13.4
30
0
11
34.73
21
-13.4
31
0
39
0
210
0
220
0
230
1
0
LINE
5
F9
100
AcDbEntity
8
1
62
256
6
ByLayer
370
18
48
1
60
0
100
AcDbLine
10
33.346355
20
-13.641251
30
0
11
33.346355
21
-13.4
31
0
39
0
210
0
220
0
230
1
0
LINE
5
FA
100
AcDbEntity
8
1
62
256
6
ByLayer
370
18
48
1
60
0
100
AcDbLine
10
33.557959
20
-14.850066
30
0
11
33.347874
21
-13.658616
31
0
39
0
210
0
220
0
230
1
0
LINE
5
FB
100
AcDbEntity
8
1
62
256
6
ByLayer
370
18
48
1
60
0
100
AcDbLine
10
33.649523
20
-14.986112
30
0
11
33.577691
21
-14.894335
31
0
39
0
210
0
220
0
230
1
0
LINE
5
FC
100
AcDbEntity
8
1
62
256
6
ByLayer
370
18
48
1
60
0
100
AcDbLine
10
34.037861
20
-15.52
30
0
11
34.037861
21
-15.48
31
0
39
0
210
0
220
0
230
1
0
LINE
5
FD
100
AcDbEntity
8
1
62
256
6
ByLayer
370
18
48
1
60
0
100
AcDbLine
10
33.649523
20
-16.013888
30
0
11
33.577691
21
-16.105665
31
0
39
0
210
0
220
0
230
1
0
LINE
5
FE
100
AcDbEntity
8
1
62
256
6
ByLayer
370
18
48
1
60
0
100
AcDbLine
10
33.557959
20
-16.149934
30
0
11
33.347874
21
-17.341384
31
0
39
0
210
0
220
0
230
1
0
LINE
5
FF
100
AcDbEntity
8
1
62
256
6
ByLayer
370
18
48
1
60
0
100
AcDbLine
10
33.346355
20
-17.358749
30
0
11
33.346355
21
-17.6
31
0
39
0
210
0
220
0
230
1
0
MTEXT
5
17E
100
AcDbEntity
8
SK6
62
256
6
ByLayer
370
18
48
1
60
0
100
AcDbMText
10
-19.2645
20
-60.717366
30
0
210
0
220
0
230
1
1
\W0.7492;C2R-SL32-RJ18GC
40
3.5
41
0
44
1.084337
50
0
71
7
72
5
7
iso_b_vert
0
DIMENSION
5
183
100
AcDbEntity
8
2
62
256
6
ByLayer
370
18
48
1
60
0
100
AcDbDimension
2
_U0
10
41.1
20
16.25
30
0
11
20.55
21
16.25
31
0
70
32
71
1
72
1
41
1
210
0
220
0
230
1
3
Standard
100
AcDbAlignedDimension
13
0
23
0
33
0
14
41.1
24
-18
34
0
50
0
100
AcDbRotatedDimension
1001
ACAD
1000
DSTYLE
1002
{
1070
   371
1070
    13
1070
   372
1070
    13
1070
   170
1070
     0
1070
   144
1040
1.0
1070
   277
1070
     2
1070
   284
1070
     8
1070
   278
1070
    46
1070
   146
1040
1.0
1070
   345
1005
16
1070
   347
1005
16
1070
   346
1005
16
1070
   344
1005
0
1070
   343
1005
0
1070
   172
1070
     1
1070
    76
1070
     0
1070
    75
1070
     0
1070
   282
1070
     0
1070
   281
1070
     0
1070
    71
1070
     0
1070
    74
1070
     0
1070
   279
1070
     0
1070
   173
1070
     1
1070
   340
1005
17F
1070
   271
1070
     2
1070
   272
1070
     2
1070
    77
1070
     1
1070
    73
1070
     1
1070
   171
1070
     3
1070
   274
1070
     4
1070
   177
1070
     2
1070
   176
1070
     2
1070
   178
1070
     2
1070
    78
1070
     8
1070
    48
1040
-0.1
1070
    41
1040
3.5
1070
   147
1040
1.75
1070
    42
1040
1.5875
1070
    44
1040
2.0
1070
   140
1040
3.5
1002
}
1001
ACAD_DSTYLE_DIM_LINETYPE
1070
   380
1005
16
1001
ACAD_DSTYLE_DIM_EXT1_LINETYPE
1070
   381
1005
16
1001
ACAD_DSTYLE_DIM_EXT2_LINETYPE
1070
   382
1005
16
0
DIMENSION
5
19D
100
AcDbEntity
8
2
62
256
6
ByLayer
370
18
48
1
60
0
100
AcDbDimension
2
_U1
10
41.1
20
8.25
30
0
11
32.1
21
8.25
31
0
70
32
71
1
72
1
41
1
210
0
220
0
230
1
3
Standard
100
AcDbAlignedDimension
13
23.1
23
-13.325
33
0
14
41.1
24
-18
34
0
50
0
100
AcDbRotatedDimension
1001
ACAD
1000
DSTYLE
1002
{
1070
   371
1070
    13
1070
   372
1070
    13
1070
   170
1070
     0
1070
   144
1040
1.0
1070
   277
1070
     2
1070
   284
1070
     8
1070
   278
1070
    46
1070
   146
1040
1.0
1070
   345
1005
16
1070
   347
1005
16
1070
   346
1005
16
1070
   344
1005
0
1070
   343
1005
0
1070
   172
1070
     1
1070
    76
1070
     0
1070
    75
1070
     0
1070
   282
1070
     0
1070
   281
1070
     0
1070
    71
1070
     0
1070
    74
1070
     0
1070
   279
1070
     0
1070
   173
1070
     1
1070
   340
1005
17F
1070
   271
1070
     2
1070
   272
1070
     2
1070
    77
1070
     1
1070
    73
1070
     1
1070
   171
1070
     3
1070
   274
1070
     4
1070
   177
1070
     2
1070
   176
1070
     2
1070
   178
1070
     2
1070
    78
1070
     8
1070
    48
1040
-0.1
1070
    41
1040
3.5
1070
   147
1040
1.75
1070
    42
1040
1.5875
1070
    44
1040
2.0
1070
   140
1040
3.5
1002
}
1001
ACAD_DSTYLE_DIM_LINETYPE
1070
   380
1005
16
1001
ACAD_DSTYLE_DIM_EXT1_LINETYPE
1070
   381
1005
16
1001
ACAD_DSTYLE_DIM_EXT2_LINETYPE
1070
   382
1005
16
0
DIMENSION
5
1B5
100
AcDbEntity
8
2
62
256
6
ByLayer
370
18
48
1
60
0
100
AcDbDimension
2
_U2
10
65.85
20
0
30
0
11
65.85
21
-9
31
0
70
32
71
1
72
1
41
1
210
0
220
0
230
1
3
Standard
100
AcDbAlignedDimension
13
41.1
23
-18
33
0
14
0
24
0
34
0
50
90
100
AcDbRotatedDimension
1001
ACAD
1000
DSTYLE
1002
{
1070
   371
1070
    13
1070
   372
1070
    13
1070
   170
1070
     0
1070
   144
1040
1.0
1070
   277
1070
     2
1070
   284
1070
     8
1070
   278
1070
    46
1070
   146
1040
1.0
1070
   345
1005
16
1070
   347
1005
16
1070
   346
1005
16
1070
   344
1005
0
1070
   343
1005
0
1070
   172
1070
     1
1070
    76
1070
     0
1070
    75
1070
     0
1070
   282
1070
     0
1070
   281
1070
     0
1070
    71
1070
     0
1070
    74
1070
     0
1070
   279
1070
     0
1070
   173
1070
     1
1070
   340
1005
17F
1070
   271
1070
     2
1070
   272
1070
     2
1070
    77
1070
     1
1070
    73
1070
     0
1070
   171
1070
     3
1070
   274
1070
     4
1070
   177
1070
     2
1070
   176
1070
     2
1070
   178
1070
     2
1070
    78
1070
     8
1070
    48
1040
-0.1
1070
    41
1040
3.5
1070
   147
1040
1.75
1070
    42
1040
1.5875
1070
    44
1040
2.0
1070
   140
1040
3.5
1002
}
1001
ACAD_DSTYLE_DIM_LINETYPE
1070
   380
1005
16
1001
ACAD_DSTYLE_DIM_EXT1_LINETYPE
1070
   381
1005
16
1001
ACAD_DSTYLE_DIM_EXT2_LINETYPE
1070
   382
1005
16
0
DIMENSION
5
1CD
100
AcDbEntity
8
2
62
256
6
ByLayer
370
18
48
1
60
0
100
AcDbDimension
2
_U3
10
52.85
20
-13
30
0
11
52.85
21
-15.5
31
0
70
32
71
1
72
1
41
1
210
0
220
0
230
1
3
Standard
100
AcDbAlignedDimension
13
41.1
23
-18
33
0
14
41.1
24
-13
34
0
50
90
100
AcDbRotatedDimension
1001
ACAD
1000
DSTYLE
1002
{
1070
   371
1070
    13
1070
   372
1070
    13
1070
   170
1070
     0
1070
   144
1040
1.0
1070
   277
1070
     2
1070
   284
1070
     8
1070
   278
1070
    46
1070
   146
1040
1.0
1070
   345
1005
16
1070
   347
1005
16
1070
   346
1005
16
1070
   344
1005
0
1070
   343
1005
0
1070
   172
1070
     1
1070
    76
1070
     0
1070
    75
1070
     0
1070
   282
1070
     0
1070
   281
1070
     0
1070
    71
1070
     0
1070
    74
1070
     0
1070
   279
1070
     0
1070
   173
1070
     1
1070
   340
1005
17F
1070
   271
1070
     2
1070
   272
1070
     2
1070
    77
1070
     1
1070
    73
1070
     0
1070
   171
1070
     3
1070
   274
1070
     4
1070
   177
1070
     2
1070
   176
1070
     2
1070
   178
1070
     2
1070
    78
1070
     8
1070
    48
1040
-0.1
1070
    41
1040
3.5
1070
   147
1040
1.75
1070
    42
1040
1.5875
1070
    44
1040
2.0
1070
   140
1040
3.5
1002
}
1001
ACAD_DSTYLE_DIM_LINETYPE
1070
   380
1005
16
1001
ACAD_DSTYLE_DIM_EXT1_LINETYPE
1070
   381
1005
16
1001
ACAD_DSTYLE_DIM_EXT2_LINETYPE
1070
   382
1005
16
0
ENDSEC
0
SECTION
2
OBJECTS
0
DICTIONARY
5
253
330
0
100
AcDbDictionary
280
0
281
1
3
ACAD_GROUP
350
254
3
ACAD_MLINESTYLE
350
255
0
DICTIONARY
5
254
330
0
100
AcDbDictionary
280
0
281
1
0
DICTIONARY
5
255
330
0
100
AcDbDictionary
280
0
281
1
3
Standard
350
18
0
MLINESTYLE
5
18
330
255
100
AcDbMlineStyle
2
Standard
70
0
3

62
256
51
90
52
90
71
2
49
-0.5
62
256
6
ByLayer
49
0.5
62
256
6
ByLayer
0
RASTERVARIABLES
5
244
330

100
AcDbRasterVariables
90
0
70
1
71
1
72
1
0
ENDSEC
0
EOF
