0
SECTION
2
HEADER
9
$ACADVER
1
AC1015
9
$DWGCODEPAGE
3
ANSI_1252
9
$HANDSEED
5
263
9
$ANGBASE
50
0
9
$ANGDIR
70
0
9
$ATTMODE
70
1
9
$AUNITS
70
0
9
$AUPREC
70
0
9
$CECOLOR
62
256
9
$CELTSCALE
40
1
9
$CELTYPE
6
ByLayer
9
$CELWEIGHT
370
18
9
$CLAYER
8
0
9
$CMLJUST
70
0
9
$CMLSCALE
40
1
9
$CMLSTYLE
2
Standard
9
$DIMSTYLE
2
Standard
9
$TEXTSIZE
40
0.2
9
$TEXTSTYLE
7
Standard
9
$LUNITS
70
2
9
$LUPREC
70
4
9
$EXTNAMES
290
1
9
$INSUNITS
70
4
9
$LTSCALE
40
1
9
$LWDISPLAY
290
1
9
$PDMODE
70
0
9
$PDSIZE
40
0
9
$PLINEGEN
70
0
0
ENDSEC
0
SECTION
2
CLASSES
0
CLASS
1
RASTERVARIABLES
2
AcDbRasterVariables
3
ISM
90
0
280
0
281
0
0
ENDSEC
0
SECTION
2
TABLES
0
TABLE
2
VPORT
5
259
100
AcDbSymbolTable
0
VPORT
5
1
100
AcDbSymbolTableRecord
100
AcDbViewportTableRecord
2
*Active
70
0
10
0
20
0
11
1
21
1
12
-1
22
1
13
0
23
0
14
0.5
24
0.5
15
10
25
10
16
0
26
0
36
1
17
0
27
0
37
0
0
ENDTAB
0
TABLE
2
LTYPE
5
25a
100
AcDbSymbolTable
0
LTYPE
5
14
100
AcDbSymbolTableRecord
100
AcDbLinetypeTableRecord
70
0
2
ByBlock
3

72
65
73
0
40
0
0
LTYPE
5
15
100
AcDbSymbolTableRecord
100
AcDbLinetypeTableRecord
70
0
2
ByLayer
3

72
65
73
0
40
0
0
LTYPE
5
16
100
AcDbSymbolTableRecord
100
AcDbLinetypeTableRecord
70
0
2
Continuous
3
Solid line
72
65
73
0
40
0
0
LTYPE
5
6E
100
AcDbSymbolTableRecord
100
AcDbLinetypeTableRecord
70
0
2
CENTER
3
____ _ ____ _ ____ _ ____
72
65
73
4
40
47.5
49
22
74
0
49
-8.5
74
0
49
8.5
74
0
49
-8.5
74
0
0
LTYPE
5
6F
100
AcDbSymbolTableRecord
100
AcDbLinetypeTableRecord
70
0
2
DASHED
3
__ __ __ __ __ __ __ __ __
72
65
73
2
40
25.72
49
12.86
74
0
49
-12.86
74
0
0
ENDTAB
0
TABLE
2
LAYER
5
25b
100
AcDbSymbolTable
0
LAYER
5
10
100
AcDbSymbolTableRecord
100
AcDbLayerTableRecord
2
0
70
0
62
7
6
Continuous
290
1
370
-3
390
0
0
LAYER
5
71
100
AcDbSymbolTableRecord
100
AcDbLayerTableRecord
2
81
70
0
62
-3
6
Continuous
290
1
370
-3
390
0
0
LAYER
5
73
100
AcDbSymbolTableRecord
100
AcDbLayerTableRecord
2
80
70
0
62
-6
6
Continuous
290
1
370
-3
390
0
0
LAYER
5
86
100
AcDbSymbolTableRecord
100
AcDbLayerTableRecord
2
1
70
0
62
4
6
Continuous
290
1
370
-3
390
0
0
LAYER
5
133
100
AcDbSymbolTableRecord
100
AcDbLayerTableRecord
2
4
70
0
62
-2
6
CENTER
290
1
370
-3
390
0
0
LAYER
5
13A
100
AcDbSymbolTableRecord
100
AcDbLayerTableRecord
2
Defpoints
70
0
62
7
6
Continuous
290
0
370
-3
390
0
0
LAYER
5
147
100
AcDbSymbolTableRecord
100
AcDbLayerTableRecord
2
2
70
0
62
7
6
Continuous
290
1
370
-3
390
0
0
LAYER
5
244
100
AcDbSymbolTableRecord
100
AcDbLayerTableRecord
2
SK1
70
0
62
4
6
Continuous
290
1
370
-3
390
0
0
LAYER
5
245
100
AcDbSymbolTableRecord
100
AcDbLayerTableRecord
2
SK3
70
0
62
1
6
DASHED
290
1
370
-3
390
0
0
LAYER
5
246
100
AcDbSymbolTableRecord
100
AcDbLayerTableRecord
2
SK6
70
0
62
5
6
Continuous
290
1
370
-3
390
0
0
LAYER
5
247
100
AcDbSymbolTableRecord
100
AcDbLayerTableRecord
2
SK4
70
0
62
2
6
CENTER
290
1
370
-3
390
0
0
LAYER
5
248
100
AcDbSymbolTableRecord
100
AcDbLayerTableRecord
2
SK2
70
0
62
7
6
Continuous
290
1
370
-3
390
0
0
ENDTAB
0
TABLE
2
STYLE
5
25c
100
AcDbSymbolTable
0
STYLE
5
11
100
AcDbSymbolTableRecord
100
AcDbTextStyleTableRecord
2
Standard
3
txt
70
0
71
0
40
0
41
1
42
0
50
0
0
STYLE
5
12F
100
AcDbSymbolTableRecord
100
AcDbTextStyleTableRecord
2
iso_b_vert
3
simplex.shx
70
0
71
0
40
0
41
1
42
0
50
0
0
STYLE
5
130
100
AcDbSymbolTableRecord
100
AcDbTextStyleTableRecord
2
DWGDirectTextStyle
3
simplex
70
0
71
0
40
0
41
1
42
0
50
0
0
ENDTAB
0
TABLE
2
DIMSTYLE
5
25d
100
AcDbSymbolTable
100
AcDbDimStyleTable
0
DIMSTYLE
105
27
100
AcDbSymbolTableRecord
100
AcDbDimStyleTableRecord
2
Standard
70
0
3
<>
41
0.18
42
0.0625
44
0.18
140
0.18
147
0.09
73
0
74
0
77
1
271
2
275
0
278
52
280
0
340
11
0
ENDTAB
0
TABLE
2
VIEW
5
25e
100
AcDbSymbolTable
0
ENDTAB
0
TABLE
2
UCS
5
25f
100
AcDbSymbolTable
0
ENDTAB
0
TABLE
2
APPID
5
260
100
AcDbSymbolTable
0
APPID
5
12
100
AcDbSymbolTableRecord
100
AcDbRegAppTableRecord
2
ACAD
70
0
0
APPID
5
136
100
AcDbSymbolTableRecord
100
AcDbRegAppTableRecord
2
ACAD_DSTYLE_DIMBREAK
70
0
0
APPID
5
203
100
AcDbSymbolTableRecord
100
AcDbRegAppTableRecord
2
ACAD_DSTYLE_DIM_LINETYPE
70
0
0
APPID
5
204
100
AcDbSymbolTableRecord
100
AcDbRegAppTableRecord
2
ACAD_DSTYLE_DIM_EXT1_LINETYPE
70
0
0
APPID
5
205
100
AcDbSymbolTableRecord
100
AcDbRegAppTableRecord
2
ACAD_DSTYLE_DIM_EXT2_LINETYPE
70
0
0
APPID
5
240
100
AcDbSymbolTableRecord
100
AcDbRegAppTableRecord
2
ACAD_MLEADERVER
70
0
0
ENDTAB
0
TABLE
2
BLOCK_RECORD
5
261
100
AcDbSymbolTable
0
BLOCK_RECORD
5
1F
100
AcDbSymbolTableRecord
100
AcDbBlockTableRecord
2
*Model_Space
340
0
70
0
0
BLOCK_RECORD
5
1B
100
AcDbSymbolTableRecord
100
AcDbBlockTableRecord
2
*Paper_Space
340
0
70
0
0
BLOCK_RECORD
5
23
100
AcDbSymbolTableRecord
100
AcDbBlockTableRecord
2
*Paper_Space0
340
0
70
0
0
BLOCK_RECORD
5
13B
100
AcDbSymbolTableRecord
100
AcDbBlockTableRecord
2
*D1
340
0
70
0
0
BLOCK_RECORD
5
148
100
AcDbSymbolTableRecord
100
AcDbBlockTableRecord
2
_U0
340
0
70
0
0
BLOCK_RECORD
5
154
100
AcDbSymbolTableRecord
100
AcDbBlockTableRecord
2
*D3
340
0
70
0
0
BLOCK_RECORD
5
161
100
AcDbSymbolTableRecord
100
AcDbBlockTableRecord
2
_U1
340
0
70
0
0
BLOCK_RECORD
5
16D
100
AcDbSymbolTableRecord
100
AcDbBlockTableRecord
2
*D5
340
0
70
0
0
BLOCK_RECORD
5
179
100
AcDbSymbolTableRecord
100
AcDbBlockTableRecord
2
_U2
340
0
70
0
0
BLOCK_RECORD
5
185
100
AcDbSymbolTableRecord
100
AcDbBlockTableRecord
2
*D7
340
0
70
0
0
BLOCK_RECORD
5
191
100
AcDbSymbolTableRecord
100
AcDbBlockTableRecord
2
_U3
340
0
70
0
0
BLOCK_RECORD
5
19D
100
AcDbSymbolTableRecord
100
AcDbBlockTableRecord
2
*D9
340
0
70
0
0
BLOCK_RECORD
5
1A9
100
AcDbSymbolTableRecord
100
AcDbBlockTableRecord
2
_U4
340
0
70
0
0
BLOCK_RECORD
5
1B6
100
AcDbSymbolTableRecord
100
AcDbBlockTableRecord
2
*D11
340
0
70
0
0
BLOCK_RECORD
5
1C2
100
AcDbSymbolTableRecord
100
AcDbBlockTableRecord
2
_U5
340
0
70
0
0
BLOCK_RECORD
5
1CF
100
AcDbSymbolTableRecord
100
AcDbBlockTableRecord
2
*D13
340
0
70
0
0
BLOCK_RECORD
5
1DB
100
AcDbSymbolTableRecord
100
AcDbBlockTableRecord
2
_U6
340
0
70
0
0
ENDTAB
0
ENDSEC
0
SECTION
2
BLOCKS
0
BLOCK
5
20
100
AcDbEntity
8
0
100
AcDbBlockBegin
2
*Model_Space
70
0
10
0
20
0
30
0
3
*Model_Space
0
ENDBLK
5
21
100
AcDbEntity
8
0
100
AcDbBlockEnd
0
BLOCK
5
1C
100
AcDbEntity
8
0
100
AcDbBlockBegin
2
*Paper_Space
70
0
10
0
20
0
30
0
3
*Paper_Space
0
ENDBLK
5
1D
100
AcDbEntity
8
0
100
AcDbBlockEnd
0
BLOCK
5
24
100
AcDbEntity
8
0
100
AcDbBlockBegin
2
*Paper_Space0
70
0
10
0
20
0
30
0
3
*Paper_Space0
0
ENDBLK
5
25
100
AcDbEntity
8
0
100
AcDbBlockEnd
0
BLOCK
5
13C
100
AcDbEntity
8
0
100
AcDbBlockBegin
2
*D1
70
1
10
0
20
0
30
0
3
*D1
0
LINE
5
13E
100
AcDbEntity
8
0
62
256
6
ByLayer
370
-2
48
1
60
0
100
AcDbLine
10
0
20
50.8875
30
0
11
0
21
80.550955
31
0
39
0
210
0
220
0
230
1
0
LINE
5
13F
100
AcDbEntity
8
0
62
256
6
ByLayer
370
-2
48
1
60
0
100
AcDbLine
10
120
20
22.666202
30
0
11
120
21
80.550955
31
0
39
0
210
0
220
0
230
1
0
LINE
5
140
100
AcDbEntity
8
0
62
256
6
ByLayer
370
-2
48
1
60
0
100
AcDbLine
10
3.175
20
78.550955
30
0
11
116.825
21
78.550955
31
0
39
0
210
0
220
0
230
1
0
SOLID
5
141
100
AcDbEntity
8
0
62
256
6
ByLayer
370
-1
48
1
60
0
100
AcDbTrace
10
3.175
20
79.080122
30
0
11
3.175
21
78.021789
31
0
12
0
22
78.550955
32
0
13
0
23
78.550955
33
0
39
0
210
0
220
0
230
1
0
SOLID
5
142
100
AcDbEntity
8
0
62
256
6
ByLayer
370
-1
48
1
60
0
100
AcDbTrace
10
116.825
20
78.021789
30
0
11
116.825
21
79.080122
31
0
12
120
22
78.550955
32
0
13
120
23
78.550955
33
0
39
0
210
0
220
0
230
1
0
MTEXT
5
143
100
AcDbEntity
8
0
62
256
6
ByLayer
370
18
48
1
60
0
100
AcDbMText
10
60
20
84.550955
30
0
210
0
220
0
230
1
1
\A1;120
40
3
41
0
44
1
50
0
71
5
72
5
7
iso_b_vert
0
POINT
5
144
100
AcDbEntity
8
Defpoints
62
0
6
ByLayer
370
-1
48
1
60
0
100
AcDbPoint
10
0
20
49.3
30
0
39
0
210
0
220
0
230
1
50
360
0
POINT
5
145
100
AcDbEntity
8
Defpoints
62
0
6
ByLayer
370
-1
48
1
60
0
100
AcDbPoint
10
120
20
21.078702
30
0
39
0
210
0
220
0
230
1
50
360
0
POINT
5
146
100
AcDbEntity
8
Defpoints
62
0
6
ByLayer
370
-1
48
1
60
0
100
AcDbPoint
10
120
20
78.550955
30
0
39
0
210
0
220
0
230
1
50
360
0
ENDBLK
5
13D
100
AcDbEntity
8
0
100
AcDbBlockEnd
0
BLOCK
5
14F
100
AcDbEntity
8
0
100
AcDbBlockBegin
2
_U0
70
0
10
0
20
0
30
0
3
_U0
0
MTEXT
5
149
100
AcDbEntity
8
2
62
256
6
ByLayer
370
18
48
1
60
0
100
AcDbMText
10
57.621201
20
79.43607
30
0
210
0
220
0
230
1
1
\W0.6217;120
40
3
41
0
44
1.084337
50
0
71
7
72
5
7
iso_b_vert
0
LINE
5
14A
100
AcDbEntity
8
2
62
256
6
ByLayer
370
13
48
1
60
0
100
AcDbLine
10
0
20
50.8875
30
0
11
0
21
80.550955
31
0
39
0
210
0
220
0
230
1
0
LINE
5
14B
100
AcDbEntity
8
2
62
256
6
ByLayer
370
13
48
1
60
0
100
AcDbLine
10
120
20
22.666202
30
0
11
120
21
80.550955
31
0
39
0
210
0
220
0
230
1
0
LINE
5
14C
100
AcDbEntity
8
2
62
256
6
ByLayer
370
13
48
1
60
0
100
AcDbLine
10
0
20
78.550955
30
0
11
120
21
78.550955
31
0
39
0
210
0
220
0
230
1
0
SOLID
5
14D
100
AcDbEntity
8
2
62
256
6
ByLayer
370
18
48
1
60
0
100
AcDbTrace
10
0
20
78.550955
30
0
11
3.174998
21
78.968952
31
0
12
3.175002
22
78.132959
32
0
13
3.175002
23
78.132959
33
0
39
0
210
0
220
0
230
1
0
SOLID
5
14E
100
AcDbEntity
8
2
62
256
6
ByLayer
370
18
48
1
60
0
100
AcDbTrace
10
120
20
78.550955
30
0
11
116.825002
21
78.132959
31
0
12
116.824998
22
78.968952
32
0
13
116.824998
23
78.968952
33
0
39
0
210
0
220
0
230
1
0
ENDBLK
5
150
100
AcDbEntity
8
0
100
AcDbBlockEnd
0
BLOCK
5
155
100
AcDbEntity
8
0
100
AcDbBlockBegin
2
*D3
70
1
10
0
20
0
30
0
3
*D3
0
LINE
5
157
100
AcDbEntity
8
0
62
256
6
ByLayer
370
-2
48
1
60
0
100
AcDbLine
10
0
20
50.8875
30
0
11
0
21
65.641272
31
0
39
0
210
0
220
0
230
1
0
LINE
5
158
100
AcDbEntity
8
0
62
256
6
ByLayer
370
-2
48
1
60
0
100
AcDbLine
10
29
20
49.831607
30
0
11
29
21
65.641272
31
0
39
0
210
0
220
0
230
1
0
LINE
5
159
100
AcDbEntity
8
0
62
256
6
ByLayer
370
-2
48
1
60
0
100
AcDbLine
10
3.175
20
63.641272
30
0
11
25.825
21
63.641272
31
0
39
0
210
0
220
0
230
1
0
SOLID
5
15A
100
AcDbEntity
8
0
62
256
6
ByLayer
370
-1
48
1
60
0
100
AcDbTrace
10
3.175
20
64.170439
30
0
11
3.175
21
63.112105
31
0
12
0
22
63.641272
32
0
13
0
23
63.641272
33
0
39
0
210
0
220
0
230
1
0
SOLID
5
15B
100
AcDbEntity
8
0
62
256
6
ByLayer
370
-1
48
1
60
0
100
AcDbTrace
10
25.825
20
63.112105
30
0
11
25.825
21
64.170439
31
0
12
29
22
63.641272
32
0
13
29
23
63.641272
33
0
39
0
210
0
220
0
230
1
0
MTEXT
5
15C
100
AcDbEntity
8
0
62
256
6
ByLayer
370
18
48
1
60
0
100
AcDbMText
10
14.5
20
69.641272
30
0
210
0
220
0
230
1
1
\A1;29
40
3
41
0
44
1
50
0
71
5
72
5
7
iso_b_vert
0
POINT
5
15D
100
AcDbEntity
8
Defpoints
62
0
6
ByLayer
370
-1
48
1
60
0
100
AcDbPoint
10
0
20
49.3
30
0
39
0
210
0
220
0
230
1
50
360
0
POINT
5
15E
100
AcDbEntity
8
Defpoints
62
0
6
ByLayer
370
-1
48
1
60
0
100
AcDbPoint
10
29
20
48.244107
30
0
39
0
210
0
220
0
230
1
50
360
0
POINT
5
15F
100
AcDbEntity
8
Defpoints
62
0
6
ByLayer
370
-1
48
1
60
0
100
AcDbPoint
10
29
20
63.641272
30
0
39
0
210
0
220
0
230
1
50
360
0
ENDBLK
5
156
100
AcDbEntity
8
0
100
AcDbBlockEnd
0
BLOCK
5
168
100
AcDbEntity
8
0
100
AcDbBlockBegin
2
_U1
70
0
10
0
20
0
30
0
3
_U1
0
MTEXT
5
162
100
AcDbEntity
8
SK2
62
256
6
ByLayer
370
18
48
1
60
0
100
AcDbMText
10
12.867172
20
64.526387
30
0
210
0
220
0
230
1
1
\W0.6927;29
40
3
41
0
44
1.084337
50
0
71
7
72
5
7
iso_b_vert
0
LINE
5
163
100
AcDbEntity
8
SK2
62
256
6
ByLayer
370
13
48
1
60
0
100
AcDbLine
10
0
20
50.8875
30
0
11
0
21
65.641272
31
0
39
0
210
0
220
0
230
1
0
LINE
5
164
100
AcDbEntity
8
SK2
62
256
6
ByLayer
370
13
48
1
60
0
100
AcDbLine
10
29
20
49.831607
30
0
11
29
21
65.641272
31
0
39
0
210
0
220
0
230
1
0
LINE
5
165
100
AcDbEntity
8
SK2
62
256
6
ByLayer
370
13
48
1
60
0
100
AcDbLine
10
0
20
63.641272
30
0
11
29
21
63.641272
31
0
39
0
210
0
220
0
230
1
0
SOLID
5
166
100
AcDbEntity
8
SK2
62
256
6
ByLayer
370
18
48
1
60
0
100
AcDbTrace
10
0
20
63.641272
30
0
11
3.174998
21
64.059269
31
0
12
3.175002
22
63.223275
32
0
13
3.175002
23
63.223275
33
0
39
0
210
0
220
0
230
1
0
SOLID
5
167
100
AcDbEntity
8
SK2
62
256
6
ByLayer
370
18
48
1
60
0
100
AcDbTrace
10
29
20
63.641272
30
0
11
25.825002
21
63.223275
31
0
12
25.824998
22
64.059269
32
0
13
25.824998
23
64.059269
33
0
39
0
210
0
220
0
230
1
0
ENDBLK
5
169
100
AcDbEntity
8
0
100
AcDbBlockEnd
0
BLOCK
5
16E
100
AcDbEntity
8
0
100
AcDbBlockBegin
2
*D5
70
1
10
0
20
0
30
0
3
*D5
0
LINE
5
170
100
AcDbEntity
8
0
62
256
6
ByLayer
370
-2
48
1
60
0
100
AcDbLine
10
29
20
49.831607
30
0
11
29
21
65.641272
31
0
39
0
210
0
220
0
230
1
0
LINE
5
171
100
AcDbEntity
8
0
62
256
6
ByLayer
370
-2
48
1
60
0
100
AcDbLine
10
120
20
22.666202
30
0
11
120
21
65.641272
31
0
39
0
210
0
220
0
230
1
0
LINE
5
172
100
AcDbEntity
8
0
62
256
6
ByLayer
370
-2
48
1
60
0
100
AcDbLine
10
32.175
20
63.641272
30
0
11
116.825
21
63.641272
31
0
39
0
210
0
220
0
230
1
0
SOLID
5
173
100
AcDbEntity
8
0
62
256
6
ByLayer
370
-1
48
1
60
0
100
AcDbTrace
10
32.175
20
64.170439
30
0
11
32.175
21
63.112105
31
0
12
29
22
63.641272
32
0
13
29
23
63.641272
33
0
39
0
210
0
220
0
230
1
0
SOLID
5
174
100
AcDbEntity
8
0
62
256
6
ByLayer
370
-1
48
1
60
0
100
AcDbTrace
10
116.825
20
63.112105
30
0
11
116.825
21
64.170439
31
0
12
120
22
63.641272
32
0
13
120
23
63.641272
33
0
39
0
210
0
220
0
230
1
0
MTEXT
5
175
100
AcDbEntity
8
0
62
256
6
ByLayer
370
18
48
1
60
0
100
AcDbMText
10
74.5
20
69.641272
30
0
210
0
220
0
230
1
1
\A1;91
40
3
41
0
44
1
50
0
71
5
72
5
7
iso_b_vert
0
POINT
5
176
100
AcDbEntity
8
Defpoints
62
0
6
ByLayer
370
-1
48
1
60
0
100
AcDbPoint
10
29
20
48.244107
30
0
39
0
210
0
220
0
230
1
50
360
0
POINT
5
177
100
AcDbEntity
8
Defpoints
62
0
6
ByLayer
370
-1
48
1
60
0
100
AcDbPoint
10
120
20
21.078702
30
0
39
0
210
0
220
0
230
1
50
360
0
POINT
5
178
100
AcDbEntity
8
Defpoints
62
0
6
ByLayer
370
-1
48
1
60
0
100
AcDbPoint
10
120
20
63.641272
30
0
39
0
210
0
220
0
230
1
50
360
0
ENDBLK
5
16F
100
AcDbEntity
8
0
100
AcDbBlockEnd
0
BLOCK
5
180
100
AcDbEntity
8
0
100
AcDbBlockBegin
2
_U2
70
0
10
0
20
0
30
0
3
_U2
0
MTEXT
5
17A
100
AcDbEntity
8
SK2
62
256
6
ByLayer
370
18
48
1
60
0
100
AcDbMText
10
73.242115
20
64.526387
30
0
210
0
220
0
230
1
1
\W0.6351;91
40
3
41
0
44
1.084337
50
0
71
7
72
5
7
iso_b_vert
0
LINE
5
17B
100
AcDbEntity
8
SK2
62
256
6
ByLayer
370
13
48
1
60
0
100
AcDbLine
10
29
20
49.831607
30
0
11
29
21
65.641272
31
0
39
0
210
0
220
0
230
1
0
LINE
5
17C
100
AcDbEntity
8
SK2
62
256
6
ByLayer
370
13
48
1
60
0
100
AcDbLine
10
120
20
22.666202
30
0
11
120
21
65.641272
31
0
39
0
210
0
220
0
230
1
0
LINE
5
17D
100
AcDbEntity
8
SK2
62
256
6
ByLayer
370
13
48
1
60
0
100
AcDbLine
10
29
20
63.641272
30
0
11
120
21
63.641272
31
0
39
0
210
0
220
0
230
1
0
SOLID
5
17E
100
AcDbEntity
8
SK2
62
256
6
ByLayer
370
18
48
1
60
0
100
AcDbTrace
10
29
20
63.641272
30
0
11
32.174998
21
64.059269
31
0
12
32.175002
22
63.223275
32
0
13
32.175002
23
63.223275
33
0
39
0
210
0
220
0
230
1
0
SOLID
5
17F
100
AcDbEntity
8
SK2
62
256
6
ByLayer
370
18
48
1
60
0
100
AcDbTrace
10
120
20
63.641272
30
0
11
116.825002
21
63.223275
31
0
12
116.824998
22
64.059269
32
0
13
116.824998
23
64.059269
33
0
39
0
210
0
220
0
230
1
0
ENDBLK
5
181
100
AcDbEntity
8
0
100
AcDbBlockEnd
0
BLOCK
5
186
100
AcDbEntity
8
0
100
AcDbBlockBegin
2
*D7
70
1
10
0
20
0
30
0
3
*D7
0
LINE
5
188
100
AcDbEntity
8
0
62
256
6
ByLayer
370
-2
48
1
60
0
100
AcDbLine
10
-50
20
32.184596
30
0
11
-50
21
80.550955
31
0
39
0
210
0
220
0
230
1
0
LINE
5
189
100
AcDbEntity
8
0
62
256
6
ByLayer
370
-2
48
1
60
0
100
AcDbLine
10
0
20
50.8875
30
0
11
0
21
80.550955
31
0
39
0
210
0
220
0
230
1
0
LINE
5
18A
100
AcDbEntity
8
0
62
256
6
ByLayer
370
-2
48
1
60
0
100
AcDbLine
10
-46.825
20
78.550955
30
0
11
-3.175
21
78.550955
31
0
39
0
210
0
220
0
230
1
0
SOLID
5
18B
100
AcDbEntity
8
0
62
256
6
ByLayer
370
-1
48
1
60
0
100
AcDbTrace
10
-46.825
20
79.080122
30
0
11
-46.825
21
78.021789
31
0
12
-50
22
78.550955
32
0
13
-50
23
78.550955
33
0
39
0
210
0
220
0
230
1
0
SOLID
5
18C
100
AcDbEntity
8
0
62
256
6
ByLayer
370
-1
48
1
60
0
100
AcDbTrace
10
-3.175
20
78.021789
30
0
11
-3.175
21
79.080122
31
0
12
0
22
78.550955
32
0
13
0
23
78.550955
33
0
39
0
210
0
220
0
230
1
0
MTEXT
5
18D
100
AcDbEntity
8
0
62
256
6
ByLayer
370
18
48
1
60
0
100
AcDbMText
10
-25
20
84.550955
30
0
210
0
220
0
230
1
1
\A1;50
40
3
41
0
44
1
50
0
71
5
72
5
7
iso_b_vert
0
POINT
5
18E
100
AcDbEntity
8
Defpoints
62
0
6
ByLayer
370
-1
48
1
60
0
100
AcDbPoint
10
-50
20
30.597096
30
0
39
0
210
0
220
0
230
1
50
360
0
POINT
5
18F
100
AcDbEntity
8
Defpoints
62
0
6
ByLayer
370
-1
48
1
60
0
100
AcDbPoint
10
0
20
49.3
30
0
39
0
210
0
220
0
230
1
50
360
0
POINT
5
190
100
AcDbEntity
8
Defpoints
62
0
6
ByLayer
370
-1
48
1
60
0
100
AcDbPoint
10
0
20
78.550955
30
0
39
0
210
0
220
0
230
1
50
360
0
ENDBLK
5
187
100
AcDbEntity
8
0
100
AcDbBlockEnd
0
BLOCK
5
198
100
AcDbEntity
8
0
100
AcDbBlockBegin
2
_U3
70
0
10
0
20
0
30
0
3
_U3
0
MTEXT
5
192
100
AcDbEntity
8
SK2
62
256
6
ByLayer
370
18
48
1
60
0
100
AcDbMText
10
-26.632828
20
79.43607
30
0
210
0
220
0
230
1
1
\W0.6740;50
40
3
41
0
44
1.084337
50
0
71
7
72
5
7
iso_b_vert
0
LINE
5
193
100
AcDbEntity
8
SK2
62
256
6
ByLayer
370
13
48
1
60
0
100
AcDbLine
10
-50
20
32.184596
30
0
11
-50
21
80.550955
31
0
39
0
210
0
220
0
230
1
0
LINE
5
194
100
AcDbEntity
8
SK2
62
256
6
ByLayer
370
13
48
1
60
0
100
AcDbLine
10
0
20
50.8875
30
0
11
0
21
80.550955
31
0
39
0
210
0
220
0
230
1
0
LINE
5
195
100
AcDbEntity
8
SK2
62
256
6
ByLayer
370
13
48
1
60
0
100
AcDbLine
10
-50
20
78.550955
30
0
11
0
21
78.550955
31
0
39
0
210
0
220
0
230
1
0
SOLID
5
196
100
AcDbEntity
8
SK2
62
256
6
ByLayer
370
18
48
1
60
0
100
AcDbTrace
10
-50
20
78.550955
30
0
11
-46.825002
21
78.968952
31
0
12
-46.824998
22
78.132959
32
0
13
-46.824998
23
78.132959
33
0
39
0
210
0
220
0
230
1
0
SOLID
5
197
100
AcDbEntity
8
SK2
62
256
6
ByLayer
370
18
48
1
60
0
100
AcDbTrace
10
0
20
78.550955
30
0
11
-3.174998
21
78.132959
31
0
12
-3.175002
22
78.968952
32
0
13
-3.175002
23
78.968952
33
0
39
0
210
0
220
0
230
1
0
ENDBLK
5
199
100
AcDbEntity
8
0
100
AcDbBlockEnd
0
BLOCK
5
19E
100
AcDbEntity
8
0
100
AcDbBlockBegin
2
*D9
70
1
10
0
20
0
30
0
3
*D9
0
LINE
5
1A0
100
AcDbEntity
8
0
62
256
6
ByLayer
370
-2
48
1
60
0
100
AcDbLine
10
120.5875
20
22.078702
30
0
11
155.480871
21
22.078702
31
0
39
0
210
0
220
0
230
1
0
LINE
5
1A1
100
AcDbEntity
8
0
62
256
6
ByLayer
370
-2
48
1
60
0
100
AcDbLine
10
120.5875
20
-22.078702
30
0
11
155.480871
21
-22.078702
31
0
39
0
210
0
220
0
230
1
0
LINE
5
1A2
100
AcDbEntity
8
0
62
256
6
ByLayer
370
-2
48
1
60
0
100
AcDbLine
10
153.480871
20
18.903702
30
0
11
153.480871
21
-18.903702
31
0
39
0
210
0
220
0
230
1
0
SOLID
5
1A3
100
AcDbEntity
8
0
62
256
6
ByLayer
370
-1
48
1
60
0
100
AcDbTrace
10
154.010038
20
18.903702
30
0
11
152.951705
21
18.903702
31
0
12
153.480871
22
22.078702
32
0
13
153.480871
23
22.078702
33
0
39
0
210
0
220
0
230
1
0
SOLID
5
1A4
100
AcDbEntity
8
0
62
256
6
ByLayer
370
-1
48
1
60
0
100
AcDbTrace
10
152.951705
20
-18.903702
30
0
11
154.010038
21
-18.903702
31
0
12
153.480871
22
-22.078702
32
0
13
153.480871
23
-22.078702
33
0
39
0
210
0
220
0
230
1
0
MTEXT
5
1A5
100
AcDbEntity
8
0
62
256
6
ByLayer
370
18
48
1
60
0
100
AcDbMText
10
147.480871
20
0
30
0
210
0
220
0
230
1
1
\A1;44
40
3
41
0
44
1
50
90
71
5
72
5
7
iso_b_vert
0
POINT
5
1A6
100
AcDbEntity
8
Defpoints
62
0
6
ByLayer
370
-1
48
1
60
0
100
AcDbPoint
10
119
20
22.078702
30
0
39
0
210
0
220
0
230
1
50
360
0
POINT
5
1A7
100
AcDbEntity
8
Defpoints
62
0
6
ByLayer
370
-1
48
1
60
0
100
AcDbPoint
10
119
20
-22.078702
30
0
39
0
210
0
220
0
230
1
50
360
0
POINT
5
1A8
100
AcDbEntity
8
Defpoints
62
0
6
ByLayer
370
-1
48
1
60
0
100
AcDbPoint
10
153.480871
20
-22.078702
30
0
39
0
210
0
220
0
230
1
50
360
0
ENDBLK
5
19F
100
AcDbEntity
8
0
100
AcDbBlockEnd
0
BLOCK
5
1B1
100
AcDbEntity
8
0
100
AcDbBlockBegin
2
_U4
70
0
10
0
20
0
30
0
3
_U4
0
MTEXT
5
1AA
100
AcDbEntity
8
2
62
256
6
ByLayer
370
18
48
1
60
0
100
AcDbMText
10
152.139757
20
-6.472714
30
0
210
0
220
0
230
1
1
%%c
40
3
41
0
44
1.084337
50
90
71
7
72
5
7
iso_b_vert
0
MTEXT
5
1AB
100
AcDbEntity
8
2
62
256
6
ByLayer
370
18
48
1
60
0
100
AcDbMText
10
152.139757
20
2.527286
30
0
210
0
220
0
230
1
1
\W0.7685;44
40
3
41
0
44
1.084337
50
90
71
7
72
5
7
iso_b_vert
0
LINE
5
1AC
100
AcDbEntity
8
2
62
256
6
ByLayer
370
13
48
1
60
0
100
AcDbLine
10
120.5875
20
22.078702
30
0
11
155.480871
21
22.078702
31
0
39
0
210
0
220
0
230
1
0
LINE
5
1AD
100
AcDbEntity
8
2
62
256
6
ByLayer
370
13
48
1
60
0
100
AcDbLine
10
120.5875
20
-22.078702
30
0
11
155.480871
21
-22.078702
31
0
39
0
210
0
220
0
230
1
0
LINE
5
1AE
100
AcDbEntity
8
2
62
256
6
ByLayer
370
13
48
1
60
0
100
AcDbLine
10
153.480871
20
22.078702
30
0
11
153.480871
21
-22.078702
31
0
39
0
210
0
220
0
230
1
0
SOLID
5
1AF
100
AcDbEntity
8
2
62
256
6
ByLayer
370
18
48
1
60
0
100
AcDbTrace
10
153.480871
20
22.078702
30
0
11
153.898868
21
18.903703
31
0
12
153.062875
22
18.9037
32
0
13
153.062875
23
18.9037
33
0
39
0
210
0
220
0
230
1
0
SOLID
5
1B0
100
AcDbEntity
8
2
62
256
6
ByLayer
370
18
48
1
60
0
100
AcDbTrace
10
153.480871
20
-22.078702
30
0
11
153.062875
21
-18.903703
31
0
12
153.898868
22
-18.9037
32
0
13
153.898868
23
-18.9037
33
0
39
0
210
0
220
0
230
1
0
ENDBLK
5
1B2
100
AcDbEntity
8
0
100
AcDbBlockEnd
0
BLOCK
5
1B7
100
AcDbEntity
8
0
100
AcDbBlockBegin
2
*D11
70
1
10
0
20
0
30
0
3
*D11
0
LINE
5
1B9
100
AcDbEntity
8
0
62
256
6
ByLayer
370
-2
48
1
60
0
100
AcDbLine
10
58.0961
20
26.381534
30
0
11
175.75
21
26.381534
31
0
39
0
210
0
220
0
230
1
0
LINE
5
1BA
100
AcDbEntity
8
0
62
256
6
ByLayer
370
-2
48
1
60
0
100
AcDbLine
10
56.937499
20
-26.5
30
0
11
175.75
21
-26.5
31
0
39
0
210
0
220
0
230
1
0
LINE
5
1BB
100
AcDbEntity
8
0
62
256
6
ByLayer
370
-2
48
1
60
0
100
AcDbLine
10
173.75
20
23.206534
30
0
11
173.75
21
-23.325
31
0
39
0
210
0
220
0
230
1
0
SOLID
5
1BC
100
AcDbEntity
8
0
62
256
6
ByLayer
370
-1
48
1
60
0
100
AcDbTrace
10
174.279167
20
23.206534
30
0
11
173.220833
21
23.206534
31
0
12
173.75
22
26.381534
32
0
13
173.75
23
26.381534
33
0
39
0
210
0
220
0
230
1
0
SOLID
5
1BD
100
AcDbEntity
8
0
62
256
6
ByLayer
370
-1
48
1
60
0
100
AcDbTrace
10
173.220833
20
-23.325
30
0
11
174.279167
21
-23.325
31
0
12
173.75
22
-26.5
32
0
13
173.75
23
-26.5
33
0
39
0
210
0
220
0
230
1
0
MTEXT
5
1BE
100
AcDbEntity
8
0
62
256
6
ByLayer
370
18
48
1
60
0
100
AcDbMText
10
167.75
20
-0.059233
30
0
210
0
220
0
230
1
1
\A1;53
40
3
41
0
44
1
50
90
71
5
72
5
7
iso_b_vert
0
POINT
5
1BF
100
AcDbEntity
8
Defpoints
62
0
6
ByLayer
370
-1
48
1
60
0
100
AcDbPoint
10
56.5086
20
26.381534
30
0
39
0
210
0
220
0
230
1
50
360
0
POINT
5
1C0
100
AcDbEntity
8
Defpoints
62
0
6
ByLayer
370
-1
48
1
60
0
100
AcDbPoint
10
55.349999
20
-26.5
30
0
39
0
210
0
220
0
230
1
50
360
0
POINT
5
1C1
100
AcDbEntity
8
Defpoints
62
0
6
ByLayer
370
-1
48
1
60
0
100
AcDbPoint
10
173.75
20
-26.5
30
0
39
0
210
0
220
0
230
1
50
360
0
ENDBLK
5
1B8
100
AcDbEntity
8
0
100
AcDbBlockEnd
0
BLOCK
5
1CA
100
AcDbEntity
8
0
100
AcDbBlockBegin
2
_U5
70
0
10
0
20
0
30
0
3
_U5
0
MTEXT
5
1C3
100
AcDbEntity
8
SK2
62
256
6
ByLayer
370
18
48
1
60
0
100
AcDbMText
10
172.408886
20
-6.216061
30
0
210
0
220
0
230
1
1
%%c
40
3
41
0
44
1.084337
50
90
71
7
72
5
7
iso_b_vert
0
MTEXT
5
1C4
100
AcDbEntity
8
SK2
62
256
6
ByLayer
370
18
48
1
60
0
100
AcDbMText
10
172.408886
20
2.783939
30
0
210
0
220
0
230
1
1
\W0.6740;53
40
3
41
0
44
1.084337
50
90
71
7
72
5
7
iso_b_vert
0
LINE
5
1C5
100
AcDbEntity
8
SK2
62
256
6
ByLayer
370
13
48
1
60
0
100
AcDbLine
10
58.0961
20
26.381534
30
0
11
175.75
21
26.381534
31
0
39
0
210
0
220
0
230
1
0
LINE
5
1C6
100
AcDbEntity
8
SK2
62
256
6
ByLayer
370
13
48
1
60
0
100
AcDbLine
10
56.937499
20
-26.5
30
0
11
175.75
21
-26.5
31
0
39
0
210
0
220
0
230
1
0
LINE
5
1C7
100
AcDbEntity
8
SK2
62
256
6
ByLayer
370
13
48
1
60
0
100
AcDbLine
10
173.75
20
26.381534
30
0
11
173.75
21
-26.5
31
0
39
0
210
0
220
0
230
1
0
SOLID
5
1C8
100
AcDbEntity
8
SK2
62
256
6
ByLayer
370
18
48
1
60
0
100
AcDbTrace
10
173.75
20
26.381534
30
0
11
174.167997
21
23.206536
31
0
12
173.332003
22
23.206533
32
0
13
173.332003
23
23.206533
33
0
39
0
210
0
220
0
230
1
0
SOLID
5
1C9
100
AcDbEntity
8
SK2
62
256
6
ByLayer
370
18
48
1
60
0
100
AcDbTrace
10
173.75
20
-26.5
30
0
11
173.332003
21
-23.325001
31
0
12
174.167997
22
-23.324998
32
0
13
174.167997
23
-23.324998
33
0
39
0
210
0
220
0
230
1
0
ENDBLK
5
1CB
100
AcDbEntity
8
0
100
AcDbBlockEnd
0
BLOCK
5
1D0
100
AcDbEntity
8
0
100
AcDbBlockBegin
2
*D13
70
1
10
0
20
0
30
0
3
*D13
0
LINE
5
1D2
100
AcDbEntity
8
0
62
256
6
ByLayer
370
-2
48
1
60
0
100
AcDbLine
10
-0.8875
20
50
30
0
11
-71.122941
21
50
31
0
39
0
210
0
220
0
230
1
0
LINE
5
1D3
100
AcDbEntity
8
0
62
256
6
ByLayer
370
-2
48
1
60
0
100
AcDbLine
10
-0.8875
20
-50
30
0
11
-71.122941
21
-50
31
0
39
0
210
0
220
0
230
1
0
LINE
5
1D4
100
AcDbEntity
8
0
62
256
6
ByLayer
370
-2
48
1
60
0
100
AcDbLine
10
-69.122941
20
46.825
30
0
11
-69.122941
21
-46.825
31
0
39
0
210
0
220
0
230
1
0
SOLID
5
1D5
100
AcDbEntity
8
0
62
256
6
ByLayer
370
-1
48
1
60
0
100
AcDbTrace
10
-68.593774
20
46.825
30
0
11
-69.652108
21
46.825
31
0
12
-69.122941
22
50
32
0
13
-69.122941
23
50
33
0
39
0
210
0
220
0
230
1
0
SOLID
5
1D6
100
AcDbEntity
8
0
62
256
6
ByLayer
370
-1
48
1
60
0
100
AcDbTrace
10
-69.652108
20
-46.825
30
0
11
-68.593774
21
-46.825
31
0
12
-69.122941
22
-50
32
0
13
-69.122941
23
-50
33
0
39
0
210
0
220
0
230
1
0
MTEXT
5
1D7
100
AcDbEntity
8
0
62
256
6
ByLayer
370
18
48
1
60
0
100
AcDbMText
10
-75.122941
20
0
30
0
210
0
220
0
230
1
1
\A1;100
40
3
41
0
44
1
50
90
71
5
72
5
7
iso_b_vert
0
POINT
5
1D8
100
AcDbEntity
8
Defpoints
62
0
6
ByLayer
370
-1
48
1
60
0
100
AcDbPoint
10
0.7
20
50
30
0
39
0
210
0
220
0
230
1
50
360
0
POINT
5
1D9
100
AcDbEntity
8
Defpoints
62
0
6
ByLayer
370
-1
48
1
60
0
100
AcDbPoint
10
0.7
20
-50
30
0
39
0
210
0
220
0
230
1
50
360
0
POINT
5
1DA
100
AcDbEntity
8
Defpoints
62
0
6
ByLayer
370
-1
48
1
60
0
100
AcDbPoint
10
-69.122941
20
-50
30
0
39
0
210
0
220
0
230
1
50
360
0
ENDBLK
5
1D1
100
AcDbEntity
8
0
100
AcDbBlockEnd
0
BLOCK
5
1E3
100
AcDbEntity
8
0
100
AcDbBlockBegin
2
_U6
70
0
10
0
20
0
30
0
3
_U6
0
MTEXT
5
1DC
100
AcDbEntity
8
SK2
62
256
6
ByLayer
370
18
48
1
60
0
100
AcDbMText
10
-70.464055
20
-6.902799
30
0
210
0
220
0
230
1
1
%%c
40
3
41
0
44
1.084337
50
90
71
7
72
5
7
iso_b_vert
0
MTEXT
5
1DD
100
AcDbEntity
8
SK2
62
256
6
ByLayer
370
18
48
1
60
0
100
AcDbMText
10
-70.464055
20
2.097201
30
0
210
0
220
0
230
1
1
\W0.6217;100
40
3
41
0
44
1.084337
50
90
71
7
72
5
7
iso_b_vert
0
LINE
5
1DE
100
AcDbEntity
8
SK2
62
256
6
ByLayer
370
13
48
1
60
0
100
AcDbLine
10
-0.8875
20
50
30
0
11
-71.122941
21
50
31
0
39
0
210
0
220
0
230
1
0
LINE
5
1DF
100
AcDbEntity
8
SK2
62
256
6
ByLayer
370
13
48
1
60
0
100
AcDbLine
10
-0.8875
20
-50
30
0
11
-71.122941
21
-50
31
0
39
0
210
0
220
0
230
1
0
LINE
5
1E0
100
AcDbEntity
8
SK2
62
256
6
ByLayer
370
13
48
1
60
0
100
AcDbLine
10
-69.122941
20
50
30
0
11
-69.122941
21
-50
31
0
39
0
210
0
220
0
230
1
0
SOLID
5
1E1
100
AcDbEntity
8
SK2
62
256
6
ByLayer
370
18
48
1
60
0
100
AcDbTrace
10
-69.122941
20
50
30
0
11
-68.704944
21
46.825002
31
0
12
-69.540938
22
46.824998
32
0
13
-69.540938
23
46.824998
33
0
39
0
210
0
220
0
230
1
0
SOLID
5
1E2
100
AcDbEntity
8
SK2
62
256
6
ByLayer
370
18
48
1
60
0
100
AcDbTrace
10
-69.122941
20
-50
30
0
11
-69.540938
21
-46.825002
31
0
12
-68.704944
22
-46.824998
32
0
13
-68.704944
23
-46.824998
33
0
39
0
210
0
220
0
230
1
0
ENDBLK
5
1E4
100
AcDbEntity
8
0
100
AcDbBlockEnd
0
ENDSEC
0
SECTION
2
ENTITIES
0
ARC
5
DC
100
AcDbEntity
8
SK1
62
256
6
ByLayer
370
13
48
1
60
0
100
AcDbCircle
39
0
10
-1.621937
20
-38.682252
30
0
40
1
210
0
220
0
230
1
100
AcDbArc
50
90
51
105
0
ARC
5
DD
100
AcDbEntity
8
SK1
62
256
6
ByLayer
370
13
48
1
60
0
100
AcDbCircle
39
0
10
-1.621937
20
38.682252
30
0
40
1
210
0
220
0
230
1
100
AcDbArc
50
255
51
270
0
ARC
5
DE
100
AcDbEntity
8
SK1
62
256
6
ByLayer
370
13
48
1
60
0
100
AcDbCircle
39
0
10
-0.9
20
-38.682252
30
0
40
1
210
0
220
0
230
1
100
AcDbArc
50
25.84265
51
90
0
ARC
5
DF
100
AcDbEntity
8
SK1
62
256
6
ByLayer
370
13
48
1
60
0
100
AcDbCircle
39
0
10
-0.9
20
38.682252
30
0
40
1
210
0
220
0
230
1
100
AcDbArc
50
270
51
334.15735
0
ARC
5
E0
100
AcDbEntity
8
1
62
256
6
ByLayer
370
13
48
1
60
0
100
AcDbCircle
39
0
10
34
20
-31.5
30
0
40
5
210
0
220
0
230
1
100
AcDbArc
50
90
51
180
0
ARC
5
E1
100
AcDbEntity
8
1
62
256
6
ByLayer
370
13
48
1
60
0
100
AcDbCircle
39
0
10
34
20
31.5
30
0
40
5
210
0
220
0
230
1
100
AcDbArc
50
180
51
270
0
ARC
5
E2
100
AcDbEntity
8
SK1
62
256
6
ByLayer
370
13
48
1
60
0
100
AcDbCircle
39
0
10
-37
20
-34.25
30
0
40
2
210
0
220
0
230
1
100
AcDbArc
50
42.533694
51
90
0
ARC
5
E4
100
AcDbEntity
8
SK1
62
256
6
ByLayer
370
13
48
1
60
0
100
AcDbCircle
39
0
10
-42
20
34.25
30
0
40
2
210
0
220
0
230
1
100
AcDbArc
50
270
51
306.299898
0
ARC
5
E5
100
AcDbEntity
8
SK3
62
256
6
ByLayer
370
13
48
0.05
60
0
100
AcDbCircle
39
0
10
5.6
20
44.5
30
0
40
0.6
210
0
220
0
230
1
100
AcDbArc
50
180
51
270
0
ARC
5
E6
100
AcDbEntity
8
SK3
62
256
6
ByLayer
370
13
48
0.05
60
0
100
AcDbCircle
39
0
10
5.6
20
-44.5
30
0
40
0.6
210
0
220
0
230
1
100
AcDbArc
50
90
51
180
0
ARC
5
E7
100
AcDbEntity
8
SK3
62
256
6
ByLayer
370
13
48
0.05
60
0
100
AcDbCircle
39
0
10
118.4
20
14.15
30
0
40
1.6
210
0
220
0
230
1
100
AcDbArc
50
328.491713
51
0
0
ARC
5
E8
100
AcDbEntity
8
SK3
62
256
6
ByLayer
370
13
48
0.05
60
0
100
AcDbCircle
39
0
10
118.4
20
-14.15
30
0
40
1.6
210
0
220
0
230
1
100
AcDbArc
50
0
51
31.508287
0
CIRCLE
5
E3
100
AcDbEntity
8
1
62
256
6
ByLayer
370
13
48
1
60
0
100
AcDbCircle
10
59
20
0
30
0
40
2.5
39
0
210
0
220
0
230
1
0
ELLIPSE
5
E9
100
AcDbEntity
8
SK1
62
256
6
ByLayer
370
13
48
1
60
0
100
AcDbEllipse
10
-37
20
-33.500125
30
0
11
-2
21
2.44921270764475E-16
31
0
210
0
220
0
230
1
40
0.891007
41
-1.94356113659323
42
-1.5707963267949
0
POINT
5
70
100
AcDbEntity
8
81
62
256
6
ByLayer
370
18
48
1
60
0
100
AcDbPoint
10
120
20
0
30
0
39
0
210
0
220
0
230
1
50
360
0
POINT
5
72
100
AcDbEntity
8
80
62
256
6
ByLayer
370
18
48
1
60
0
100
AcDbPoint
10
0
20
0
30
0
39
0
210
0
220
0
230
1
50
360
0
SPLINE
5
EA
100
AcDbEntity
8
SK1
62
256
6
ByLayer
370
13
48
1
60
0
100
AcDbSpline
70
4
71
3
72
68
73
64
40
0
40
0
40
0
40
0
40
0.062500000000009
40
0.062500000000009
40
0.125000000000018
40
0.125000000000018
40
0.187500000000027
40
0.187500000000027
40
0.218750000000028
40
0.218750000000028
40
0.25000000000003
40
0.25000000000003
40
0.281250000000033
40
0.281250000000033
40
0.312500000000036
40
0.312500000000036
40
0.343750000000039
40
0.343750000000039
40
0.375000000000043
40
0.375000000000043
40
0.382812500000042
40
0.382812500000042
40
0.390625000000042
40
0.390625000000042
40
0.406250000000042
40
0.406250000000042
40
0.414062500000042
40
0.414062500000042
40
0.421875000000041
40
0.421875000000041
40
0.437500000000044
40
0.437500000000044
40
0.453125000000046
40
0.453125000000046
40
0.468750000000048
40
0.468750000000048
40
0.476562500000048
40
0.476562500000048
40
0.484375000000048
40
0.484375000000048
40
0.500000000000045
40
0.500000000000045
40
0.531250000000042
40
0.531250000000042
40
0.562500000000039
40
0.562500000000039
40
0.578125000000037
40
0.578125000000037
40
0.593750000000035
40
0.593750000000035
40
0.625000000000032
40
0.625000000000032
40
0.687500000000026
40
0.687500000000026
40
0.750000000000021
40
0.750000000000021
40
0.812500000000016
40
0.812500000000016
40
0.875000000000011
40
0.875000000000011
40
0.937500000000005
40
0.937500000000005
40
1
40
1
40
1
40
1
41
1
10
-48.5391432112666
20
-32.2098707616788
30
0
41
1
10
-48.5772451018176
20
-32.1705663335001
30
0
41
1
10
-48.6154024416518
20
-32.1301097958665
30
0
41
1
10
-48.6920319104214
20
-32.046751334531
30
0
41
1
10
-48.7305004178909
20
-32.0038517007677
30
0
41
1
10
-48.8081051149397
20
-31.9153611005026
30
0
41
1
10
-48.847232055082
20
-31.8697760670891
30
0
41
1
10
-48.9069324771727
20
-31.7990323568827
30
0
41
1
10
-48.9270109325482
20
-31.7750462302413
30
0
41
1
10
-48.9675363505517
20
-31.7263333124355
30
0
41
1
10
-48.9879953933079
20
-31.7015915421645
30
0
41
1
10
-49.0295096513751
20
-31.6512242465826
30
0
41
1
10
-49.0505621731935
20
-31.6256002739719
30
0
41
1
10
-49.0935893592819
20
-31.5732862004101
30
0
41
1
10
-49.1155458337865
20
-31.546615849164
30
0
41
1
10
-49.1604305128372
20
-31.4925104350745
30
0
41
1
10
-49.1833952303463
20
-31.4650238660396
30
0
41
1
10
-49.2311249733127
20
-31.4089148792104
30
0
41
1
10
-49.2558637282745
20
-31.3803038688005
30
0
41
1
10
-49.2888646292169
20
-31.3434693721068
30
0
41
1
10
-49.2955982010148
20
-31.3360190870281
30
0
41
1
10
-49.3091644836638
20
-31.3211634940652
30
0
41
1
10
-49.3159960151403
20
-31.3137588817367
30
0
41
1
10
-49.3366561401153
20
-31.2916264219142
30
0
41
1
10
-49.3506495612681
20
-31.2769796841402
30
0
41
1
10
-49.3720636428027
20
-31.2552245781682
30
0
41
1
10
-49.3793083267133
20
-31.2479736936798
30
0
41
1
10
-49.3937816719064
20
-31.2337251087028
30
0
41
1
10
-49.4009717036153
20
-31.2267643132025
30
0
41
1
10
-49.4224013950485
20
-31.2063738472264
30
0
41
1
10
-49.4365008034157
20
-31.1934379448953
30
0
41
1
10
-49.4643191415828
20
-31.1688455883123
30
0
41
1
10
-49.478131983517
20
-31.1571190039655
30
0
41
1
10
-49.5043250806118
20
-31.1356769157493
30
0
41
1
10
-49.516841926898
20
-31.1258327030663
30
0
41
1
10
-49.534910196511
20
-31.1120714620087
30
0
41
1
10
-49.5408145762839
20
-31.1076527564678
30
0
41
1
10
-49.5524080228737
20
-31.0991096221192
30
0
41
1
10
-49.5581096349158
20
-31.0949764449424
30
0
41
1
10
-49.5747538928672
20
-31.0830792404085
30
0
41
1
10
-49.5852873873385
20
-31.0757762128177
30
0
41
1
10
-49.6155899501509
20
-31.0552008874202
30
0
41
1
10
-49.63408214865
20
-31.0432331011384
30
0
41
1
10
-49.6687980345717
20
-31.0211207195771
30
0
41
1
10
-49.6850056746325
20
-31.0109978789555
30
0
41
1
10
-49.7080291368259
20
-30.9965477109963
30
0
41
1
10
-49.7154839736071
20
-30.9918586433477
30
0
41
1
10
-49.7299403542343
20
-30.9827011276358
30
0
41
1
10
-49.7369517803775
20
-30.9782266069416
30
0
41
1
10
-49.7574074696911
20
-30.9650207010369
30
0
41
1
10
-49.7702769144042
20
-30.9565022982648
30
0
41
1
10
-49.8069637308511
20
-30.9312806549669
30
0
41
1
10
-49.828882497391
20
-30.9148826541524
30
0
41
1
10
-49.8686108863444
20
-30.8814495534881
30
0
41
1
10
-49.8864024207585
20
-30.8644372077063
30
0
41
1
10
-49.9181800999848
20
-30.8291225301936
30
0
41
1
10
-49.9321600009369
20
-30.8108281496041
30
0
41
1
10
-49.9563498254565
20
-30.7726121994415
30
0
41
1
10
-49.9665572366406
20
-30.7526938041358
30
0
41
1
10
-49.9830769735968
20
-30.7110705439818
30
0
41
1
10
-49.9893853811205
20
-30.6893441562497
30
0
41
1
10
-49.9978393383976
20
-30.6443724469115
30
0
41
1
10
-50
20
-30.6210985183738
30
0
41
1
10
-50
20
-30.59709586151
30
0
0
SPLINE
5
EB
100
AcDbEntity
8
SK1
62
256
6
ByLayer
370
13
48
1
60
0
100
AcDbSpline
70
4
71
3
72
16
73
12
40
0
40
0
40
0
40
0
40
0.25
40
0.25
40
0.5
40
0.5
40
0.625
40
0.625
40
0.75
40
0.75
40
1
40
1
40
1
40
1
41
1
10
-48.5391399800917
20
-32.209874505065
30
0
41
1
10
-48.5053178871561
20
-32.2112835607476
30
0
41
1
10
-48.4708193413052
20
-32.2124592808413
30
0
41
1
10
-48.4002385895891
20
-32.2144503820142
30
0
41
1
10
-48.3641043966697
20
-32.2152657266936
30
0
41
1
10
-48.3090073977112
20
-32.2162604900857
30
0
41
1
10
-48.2904770468495
20
-32.2165542834615
30
0
41
1
10
-48.2530676649094
20
-32.2170725865677
30
0
41
1
10
-48.2341757854556
20
-32.217297121882
30
0
41
1
10
-48.1772547232614
20
-32.2178709682274
30
0
41
1
10
-48.1388892631146
20
-32.2181224242156
30
0
41
1
10
-48.1000748840305
20
-32.2182589409723
30
0
0
SPLINE
5
EC
100
AcDbEntity
8
SK1
62
256
6
ByLayer
370
13
48
1
60
0
100
AcDbSpline
70
4
71
3
72
54
73
50
40
0
40
0
40
0
40
0
40
0.124999999999995
40
0.124999999999995
40
0.156249999999993
40
0.156249999999993
40
0.187499999999991
40
0.187499999999991
40
0.249999999999988
40
0.249999999999988
40
0.374999999999982
40
0.374999999999982
40
0.499999999999976
40
0.499999999999976
40
0.562499999999973
40
0.562499999999973
40
0.593749999999971
40
0.593749999999971
40
0.62499999999997
40
0.62499999999997
40
0.687499999999968
40
0.687499999999968
40
0.718749999999967
40
0.718749999999967
40
0.749999999999967
40
0.749999999999967
40
0.781249999999966
40
0.781249999999966
40
0.812499999999966
40
0.812499999999966
40
0.874999999999964
40
0.874999999999964
40
0.890624999999966
40
0.890624999999966
40
0.906249999999968
40
0.906249999999968
40
0.937499999999975
40
0.937499999999975
40
0.945312499999978
40
0.945312499999978
40
0.95312499999998
40
0.95312499999998
40
0.968749999999985
40
0.968749999999985
40
0.976562499999988
40
0.976562499999988
40
0.984374999999991
40
0.984374999999991
40
1
40
1
40
1
40
1
41
1
10
-39.7003757972129
20
33.917482036538
30
0
41
1
10
-39.7005290864394
20
33.8428911281041
30
0
41
1
10
-39.7154724369595
20
33.7661199839808
30
0
41
1
10
-39.7510000440749
20
33.667538070287
30
0
41
1
10
-39.7589469161354
20
33.6476907491767
30
0
41
1
10
-39.7764783216948
20
33.6077367490796
30
0
41
1
10
-39.7860602827144
20
33.5876408173807
30
0
41
1
10
-39.8170193921805
20
33.527271703806
30
0
41
1
10
-39.8406488595429
20
33.4868177594397
30
0
41
1
10
-39.919627331261
20
33.3648347823312
30
0
41
1
10
-39.9832418349101
20
33.2827007436196
30
0
41
1
10
-40.1301460913736
20
33.1169650584476
30
0
41
1
10
-40.213456703868
20
33.0333638976837
30
0
41
1
10
-40.3525279280471
20
32.907031564178
30
0
41
1
10
-40.4011035019709
20
32.8647527355375
30
0
41
1
10
-40.4775350255704
20
32.8011321628833
30
0
41
1
10
-40.5036171872169
20
32.7798858778044
30
0
41
1
10
-40.556843724125
20
32.7374748251274
30
0
41
1
10
-40.5840076563159
20
32.7162934420254
30
0
41
1
10
-40.6671924076383
20
32.6528408735859
30
0
41
1
10
-40.7246875933869
20
32.6106158086801
30
0
41
1
10
-40.814878636488
20
32.5476214200025
30
0
41
1
10
-40.8456171227079
20
32.5266698228204
30
0
41
1
10
-40.9084415215169
20
32.4849937057116
30
0
41
1
10
-40.9405325966988
20
32.4642665401346
30
0
41
1
10
-41.0061768241816
20
32.4230734188446
30
0
41
1
10
-41.0396785202479
20
32.4025930097487
30
0
41
1
10
-41.1085011456279
20
32.3620045840692
30
0
41
1
10
-41.1438718646351
20
32.3418707585272
30
0
41
1
10
-41.2529488518945
20
32.282527483794
30
0
41
1
10
-41.3292833917394
20
32.2441878043554
30
0
41
1
10
-41.4339751336005
20
32.1998728406196
30
0
41
1
10
-41.4553676865462
20
32.1911867125437
30
0
41
1
10
-41.4993691482079
20
32.1743004344382
30
0
41
1
10
-41.5220357853499
20
32.1660833721978
30
0
41
1
10
-41.5914864926428
20
32.1426793754034
30
0
41
1
10
-41.6399048143866
20
32.128649511621
30
0
41
1
10
-41.7041318977408
20
32.1139132151407
30
0
41
1
10
-41.7171792431835
20
32.111156276978
30
0
41
1
10
-41.7433614267618
20
32.1060889869365
30
0
41
1
10
-41.7565405096019
20
32.1037676572368
30
0
41
1
10
-41.7963404850446
20
32.0974386780688
30
0
41
1
10
-41.8232220800974
20
32.0940612176203
30
0
41
1
10
-41.864096939352
20
32.0903333379985
30
0
41
1
10
-41.877814453292
20
32.0893149127932
30
0
41
1
10
-41.9054463522859
20
32.0877551139448
30
0
41
1
10
-41.9194186772626
20
32.0872133754349
30
0
41
1
10
-41.9610875493042
20
32.0863731518093
30
0
41
1
10
-41.9885866789936
20
32.0868420732798
30
0
41
1
10
-42.0157821258818
20
32.088424139137
30
0
0
SPLINE
5
ED
100
AcDbEntity
8
SK1
62
256
6
ByLayer
370
13
48
1
60
0
100
AcDbSpline
70
4
71
3
72
16
73
12
40
0
40
0
40
0
40
0
40
0.125
40
0.125
40
0.25
40
0.25
40
0.5
40
0.5
40
0.75
40
0.75
40
1
40
1
40
1
40
1
41
1
10
-42.0157821258818
20
32.088424139137
30
0
41
1
10
-42.2665463425193
20
32.101478323487
30
0
41
1
10
-42.5179458212917
20
32.1130318358793
30
0
41
1
10
-43.021732683275
20
32.1335157770112
30
0
41
1
10
-43.2741523307373
20
32.1424508445273
30
0
41
1
10
-44.0325388829529
20
32.166072897513
30
0
41
1
10
-44.5395985481771
20
32.1775716211626
30
0
41
1
10
-45.5548504247026
20
32.1964970854746
30
0
41
1
10
-46.0632133445938
20
32.2033853734268
30
0
41
1
10
-47.0810077865204
20
32.2133359823878
30
0
41
1
10
-47.5904008964146
20
32.2164018746877
30
0
41
1
10
-48.1000748840302
20
32.2182589409728
30
0
0
SPLINE
5
EE
100
AcDbEntity
8
SK1
62
256
6
ByLayer
370
13
48
1
60
0
100
AcDbSpline
70
4
71
3
72
122
73
118
40
0
40
0
40
0
40
0
40
0.0201302630571421
40
0.0400529791504091
40
0.0597681852259718
40
0.0792759194043588
40
0.098576221030727
40
0.117669130727834
40
0.136554690451892
40
0.155232943551491
40
0.173703934829803
40
0.191967710610281
40
0.210024318806076
40
0.227873808993469
40
0.245516232489541
40
0.262951642434421
40
0.280180093878416
40
0.297201643874386
40
0.314016351575722
40
0.330624278340375
40
0.34702548784134
40
0.363220046184121
40
0.379208022031689
40
0.394989486737508
40
0.410564514487257
40
0.425933182449952
40
0.441095570939202
40
0.456051763585419
40
0.470801847519887
40
0.485345913571679
40
0.499684056478499
40
0.509826046177149
40
0.519862821211373
40
0.529794418054687
40
0.539620874350652
40
0.549342228963082
40
0.558958522028916
40
0.568469795013977
40
0.577876090771782
40
0.587177453605614
40
0.596373929334056
40
0.605465565360246
40
0.614452410745083
40
0.623334516284663
40
0.632111934592246
40
0.640784720185052
40
0.649352929576252
40
0.657816621372512
40
0.666175856377476
40
0.674430697701683
40
0.682581210879301
40
0.690627463992277
40
0.698569527802414
40
0.706407475891989
40
0.714141384813594
40
0.721771334249889
40
0.729297407184089
40
0.736719690082024
40
0.744038273086704
40
0.751253250226446
40
0.758364719637661
40
0.765372783803543
40
0.772277549810028
40
0.779079129620487
40
0.785777640370809
40
0.792373204686667
40
0.798865951024944
40
0.805256014041526
40
0.811543534987855
40
0.817728662138935
40
0.82381155125574
40
0.829792366085292
40
0.835671278902054
40
0.841448471094672
40
0.847124133802529
40
0.852698468607137
40
0.858171688283882
40
0.863544017620354
40
0.868815694308149
40
0.873986969915903
40
0.879058110952168
40
0.884029400027814
40
0.888901137128818
40
0.893673641011554
40
0.898347250734239
40
0.902922327339845
40
0.907399255707639
40
0.911778446592693
40
0.916060338875009
40
0.920245402042677
40
0.924334138936386
40
0.92832708878597
40
0.932224830573402
40
0.936027986760674
40
0.939737227425474
40
0.943353274852362
40
0.946876908632333
40
0.950308971328903
40
0.953650374774357
40
0.956902107064978
40
0.960065240328894
40
0.963140939343721
40
0.966130471083264
40
0.96903521527156
40
0.971856676017558
40
0.97459649459284
40
0.977256463395388
40
0.979838541112036
40
0.982344869046834
40
0.984777788518312
40
0.987139859141124
40
0.989433877692165
40
0.99166289711543
40
0.993830245042265
40
0.995939540998504
40
0.997994711247645
40
1
40
1
40
1
40
1
41
1
10
-48.1000748840305
20
-32.2182589409724
30
0
41
1
10
-48.0395209388653
20
-32.2180306610301
30
0
41
1
10
-47.9190373715969
20
-32.2175764547564
30
0
41
1
10
-47.7392841030815
20
-32.2167488200419
30
0
41
1
10
-47.5614301726517
20
-32.2158179590045
30
0
41
1
10
-47.3854780427513
20
-32.2147734640236
30
0
41
1
10
-47.2114270633202
20
-32.2136181109433
30
0
41
1
10
-47.03927740518
20
-32.2123511988986
30
0
41
1
10
-46.86902902265
20
-32.2109729442311
30
0
41
1
10
-46.7006819270969
20
-32.2094833218435
30
0
41
1
10
-46.5342361148111
20
-32.2078823706773
30
0
41
1
10
-46.3696915860166
20
-32.2061701131908
30
0
41
1
10
-46.2070483398579
20
-32.2043465765836
30
0
41
1
10
-46.0463063757177
20
-32.2024117872063
30
0
41
1
10
-45.8874656928672
20
-32.2003657720362
30
0
41
1
10
-45.7305262905544
20
-32.1982085582912
30
0
41
1
10
-45.5754881679772
20
-32.1959401735347
30
0
41
1
10
-45.4223513242865
20
-32.1935606456506
30
0
41
1
10
-45.2711157585809
20
-32.1910700028533
30
0
41
1
10
-45.1217814699035
20
-32.1884682736888
30
0
41
1
10
-44.974348457238
20
-32.1857554870353
30
0
41
1
10
-44.8288167195014
20
-32.1829316721154
30
0
41
1
10
-44.6851862555511
20
-32.1799968584648
30
0
41
1
10
-44.5434570641348
20
-32.1769510760609
30
0
41
1
10
-44.4036291440489
20
-32.1737943548663
30
0
41
1
10
-44.265702493531
20
-32.1705267265135
30
0
41
1
10
-44.1296771124531
20
-32.1671482181593
30
0
41
1
10
-43.9955529942674
20
-32.1636588749753
30
0
41
1
10
-43.863330155417
20
-32.160058677939
30
0
41
1
10
-43.7330085277996
20
-32.1563478443275
30
0
41
1
10
-43.6165015069011
20
-32.1528802958649
30
0
41
1
10
-43.5134910126841
20
-32.1496986947679
30
0
41
1
10
-43.4236604542771
20
-32.146840113228
30
0
41
1
10
-43.334801335287
20
-32.1439270171112
30
0
41
1
10
-43.2469136061322
20
-32.1409595497599
30
0
41
1
10
-43.1599972793182
20
-32.1379376969235
30
0
41
1
10
-43.0740523509464
20
-32.1348614860159
30
0
41
1
10
-42.9890788214114
20
-32.131730933569
30
0
41
1
10
-42.9050766899416
20
-32.1285460590883
30
0
41
1
10
-42.822045956036
20
-32.1253068814013
30
0
41
1
10
-42.7399866190835
20
-32.1220134196203
30
0
41
1
10
-42.6588986784604
20
-32.1186656928898
30
0
41
1
10
-42.5787821335019
20
-32.1152637204539
30
0
41
1
10
-42.4996369835067
20
-32.1118075216391
30
0
41
1
10
-42.4214632277327
20
-32.1082971158599
30
0
41
1
10
-42.3442608653943
20
-32.1047325226184
30
0
41
1
10
-42.2680298956598
20
-32.101113761505
30
0
41
1
10
-42.1927703176478
20
-32.0974408521996
30
0
41
1
10
-42.1184821304236
20
-32.0937138144721
30
0
41
1
10
-42.0451653329959
20
-32.0899326681831
30
0
41
1
10
-41.9728199243119
20
-32.0860974332854
30
0
41
1
10
-41.9014459032538
20
-32.0822081298241
30
0
41
1
10
-41.8310432686329
20
-32.0782647779381
30
0
41
1
10
-41.7616120191853
20
-32.0742673978609
30
0
41
1
10
-41.6931521535655
20
-32.0702160099213
30
0
41
1
10
-41.6256636703408
20
-32.0661106345449
30
0
41
1
10
-41.5591465679839
20
-32.0619512922544
30
0
41
1
10
-41.4936008448663
20
-32.0577380036714
30
0
41
1
10
-41.4290264992495
20
-32.0534707895167
30
0
41
1
10
-41.3654235292771
20
-32.0491496706117
30
0
41
1
10
-41.3027919329649
20
-32.0447746678793
30
0
41
1
10
-41.2411317081904
20
-32.0403458023448
30
0
41
1
10
-41.1804428526822
20
-32.0358630951371
30
0
41
1
10
-41.1207253640067
20
-32.0313265674888
30
0
41
1
10
-41.0619792395553
20
-32.026736240738
30
0
41
1
10
-41.0042044765294
20
-32.0220921363282
30
0
41
1
10
-40.9474010719242
20
-32.017394275809
30
0
41
1
10
-40.8915690225111
20
-32.0126426808368
30
0
41
1
10
-40.8367083248179
20
-32.0078373731742
30
0
41
1
10
-40.7828189751082
20
-32.0029783746905
30
0
41
1
10
-40.7299009693574
20
-31.9980657073609
30
0
41
1
10
-40.6779543032271
20
-31.9930993932654
30
0
41
1
10
-40.6269789720372
20
-31.9880794545874
30
0
41
1
10
-40.5769749707349
20
-31.9830059136117
30
0
41
1
10
-40.5279422938605
20
-31.9778787927213
30
0
41
1
10
-40.4798809355099
20
-31.9726981143935
30
0
41
1
10
-40.4327908892942
20
-31.9674639011949
30
0
41
1
10
-40.3866721482937
20
-31.9621761757749
30
0
41
1
10
-40.341524705009
20
-31.9568349608573
30
0
41
1
10
-40.2973485513065
20
-31.9514402792302
30
0
41
1
10
-40.2541436783588
20
-31.9459921537332
30
0
41
1
10
-40.2119100765795
20
-31.9404906072412
30
0
41
1
10
-40.1706477355519
20
-31.9349356626457
30
0
41
1
10
-40.1303566439512
20
-31.9293273428306
30
0
41
1
10
-40.09103678946
20
-31.9236656706432
30
0
41
1
10
-40.0526881586765
20
-31.9179506688597
30
0
41
1
10
-40.0153107370157
20
-31.9121823601417
30
0
41
1
10
-39.9789045086031
20
-31.9063607669853
30
0
41
1
10
-39.9434694561616
20
-31.9004859116582
30
0
41
1
10
-39.9090055608922
20
-31.894557816125
30
0
41
1
10
-39.87551280235
20
-31.8885765019563
30
0
41
1
10
-39.8429911583159
20
-31.8825419902201
30
0
41
1
10
-39.8114406046699
20
-31.8764543013516
30
0
41
1
10
-39.7808611152675
20
-31.8703134549966
30
0
41
1
10
-39.7512526618263
20
-31.8641194698252
30
0
41
1
10
-39.7226152138319
20
-31.8578723633094
30
0
41
1
10
-39.6949487384732
20
-31.8515721514595
30
0
41
1
10
-39.6682532006239
20
-31.8452188485116
30
0
41
1
10
-39.6425285628897
20
-31.8388124665605
30
0
41
1
10
-39.6177747857485
20
-31.8323530151288
30
0
41
1
10
-39.5939918278193
20
-31.8258405006673
30
0
41
1
10
-39.5711796463016
20
-31.81927492598
30
0
41
1
10
-39.549338197653
20
-31.8126562895668
30
0
41
1
10
-39.52846743853
20
-31.8059845848984
30
0
41
1
10
-39.5085673272456
20
-31.7992597995824
30
0
41
1
10
-39.4896378252304
20
-31.7924819146104
30
0
41
1
10
-39.4716789008033
20
-31.785650903106
30
0
41
1
10
-39.4546905275402
20
-31.7787667308181
30
0
41
1
10
-39.4386727053155
20
-31.7718293506288
30
0
41
1
10
-39.4236254043065
20
-31.7648387190951
30
0
41
1
10
-39.4095487883133
20
-31.7577947355932
30
0
41
1
10
-39.3964424449884
20
-31.7506974599366
30
0
41
1
10
-39.3843081682437
20
-31.7435463381543
30
0
41
1
10
-39.3731400424083
20
-31.7363429790269
30
0
41
1
10
-39.3629599778629
20
-31.7290812270918
30
0
41
1
10
-39.3536903347168
20
-31.7217827751414
30
0
41
1
10
-39.3482415772206
20
-31.7167827686202
30
0
41
1
10
-39.345550666632
20
-31.714313477135
30
0
0
SPLINE
5
EF
100
AcDbEntity
8
SK1
62
256
6
ByLayer
370
13
48
1
60
0
100
AcDbSpline
70
4
71
3
72
78
73
74
40
0
40
0
40
0
40
0
40
0.0073602860598463
40
0.0147547194523284
40
0.0221839773890911
40
0.0296487276039362
40
0.0371496283522088
40
0.0446873284185153
40
0.0522624671323739
40
0.0598756743916069
40
0.0675275706928534
40
0.0752187671690829
40
0.0829498656335133
40
0.0907214586298008
40
0.0985341294879753
40
0.106388452385838
40
0.114284992415444
40
0.122224305654456
40
0.130206939241821
40
0.138233431457626
40
0.14630431180684
40
0.154420101106398
40
0.162581311575693
40
0.170788446929879
40
0.17904200247586
40
0.187342465210748
40
0.195690313922424
40
0.204086019291955
40
0.212530043997847
40
0.221022842821624
40
0.229564862754683
40
0.238156543106279
40
0.246798315612294
40
0.255490604544738
40
0.264233826821744
40
0.273028392117938
40
0.281874702975011
40
0.290773154912343
40
0.299724136537598
40
0.308728029657072
40
0.317785209385792
40
0.326896044257145
40
0.33606089633203
40
0.345280121307385
40
0.354554068624008
40
0.363883081573605
40
0.373267497405007
40
0.382707647429429
40
0.392203857124791
40
0.401756446238965
40
0.411365728891962
40
0.421032013676957
40
0.430755603760176
40
0.440536796979527
40
0.450375885942024
40
0.460273158119915
40
0.47022889594551
40
0.480243376904702
40
0.490316873629138
40
0.50044965398706
40
0.529846635396765
40
0.560638906812137
40
0.592833298755711
40
0.62643580426078
40
0.689671420067796
40
0.750287944740737
40
0.783332660706851
40
0.817247144897601
40
0.852035506353072
40
0.887701555173606
40
0.924248830025108
40
0.961680622687275
40
1
40
1
40
1
40
1
41
1
10
-39.3455506666321
20
-31.714313477135
30
0
41
1
10
-39.3421632738768
20
-31.7110487073451
30
0
41
1
10
-39.3353727728864
20
-31.704504021183
30
0
41
1
10
-39.324899745415
20
-31.6947208599467
30
0
41
1
10
-39.3141875032977
20
-31.6849340396985
30
0
41
1
10
-39.3032168040565
20
-31.6751476278473
30
0
41
1
10
-39.291992841285
20
-31.6653605166495
30
0
41
1
10
-39.280514214277
20
-31.6555729948796
30
0
41
1
10
-39.2687813019962
20
-31.6457849743754
30
0
41
1
10
-39.2567940030232
20
-31.6359964686776
30
0
41
1
10
-39.244552345579
20
-31.6262074638381
30
0
41
1
10
-39.232056322855
20
-31.616417953295
30
0
41
1
10
-39.2193059374677
20
-31.6066279284584
30
0
41
1
10
-39.2063011894568
20
-31.5968373812533
30
0
41
1
10
-39.1930420795258
20
-31.5870463034336
30
0
41
1
10
-39.1795286081669
20
-31.5772546867681
30
0
41
1
10
-39.165760775898
20
-31.5674625229913
30
0
41
1
10
-39.151738583199
20
-31.5576698038172
30
0
41
1
10
-39.1374620305292
20
-31.5478765209366
30
0
41
1
10
-39.1229311183231
20
-31.538082666018
30
0
41
1
10
-39.1081458469924
20
-31.5282882307086
30
0
41
1
10
-39.0931062169258
20
-31.5184932066343
30
0
41
1
10
-39.0778122284896
20
-31.5086975854004
30
0
41
1
10
-39.0622638820284
20
-31.4989013585919
30
0
41
1
10
-39.0464611778658
20
-31.489104517774
30
0
41
1
10
-39.0304041163044
20
-31.4793070544925
30
0
41
1
10
-39.0140926976271
20
-31.4695089602742
30
0
41
1
10
-38.997526922097
20
-31.4597102266269
30
0
41
1
10
-38.9807067899588
20
-31.4499108450402
30
0
41
1
10
-38.9636323014389
20
-31.4401108069855
30
0
41
1
10
-38.946303456746
20
-31.4303101039162
30
0
41
1
10
-38.9287202560721
20
-31.4205087272681
30
0
41
1
10
-38.9108826995928
20
-31.4107066684598
30
0
41
1
10
-38.8927907874682
20
-31.4009039188925
30
0
41
1
10
-38.8744445198432
20
-31.3911004699504
30
0
41
1
10
-38.8558438968484
20
-31.3812963130008
30
0
41
1
10
-38.8369889186008
20
-31.3714914393946
30
0
41
1
10
-38.8178795852038
20
-31.3616858404658
30
0
41
1
10
-38.7985158967486
20
-31.3518795075322
30
0
41
1
10
-38.7788978533144
20
-31.3420724318953
30
0
41
1
10
-38.7590254549686
20
-31.33226460484
30
0
41
1
10
-38.7388987017681
20
-31.3224560176355
30
0
41
1
10
-38.7185175937592
20
-31.3126466615348
30
0
41
1
10
-38.6978821309785
20
-31.3028365277748
30
0
41
1
10
-38.6769923134533
20
-31.2930256075765
30
0
41
1
10
-38.6558481412022
20
-31.283213892145
30
0
41
1
10
-38.6344496142351
20
-31.2734013726695
30
0
41
1
10
-38.6127967325549
20
-31.263588040323
30
0
41
1
10
-38.5908894961541
20
-31.2537738862643
30
0
41
1
10
-38.5687279050294
20
-31.2439589016296
30
0
41
1
10
-38.546311959129
20
-31.2341430775653
30
0
41
1
10
-38.5236416585535
20
-31.2243264051036
30
0
41
1
10
-38.5007170027986
20
-31.2145088756306
30
0
41
1
10
-38.4775379936134
20
-31.2046904791258
30
0
41
1
10
-38.454104624234
20
-31.1948712107875
30
0
41
1
10
-38.4304169199283
20
-31.1850510460893
30
0
41
1
10
-38.4064747853353
20
-31.1752300346958
30
0
41
1
10
-38.3822785792611
20
-31.165407946855
30
0
41
1
10
-38.3578269504953
20
-31.1555856047771
30
0
41
1
10
-38.3175192471906
20
-31.1395523532414
30
0
41
1
10
-38.2598193217095
20
-31.1171179280087
30
0
41
1
10
-38.183022035444
20
-31.0881914087237
30
0
41
1
10
-38.1018099794581
20
-31.0584566133084
30
0
41
1
10
-37.9922040860496
20
-31.0193602274822
30
0
41
1
10
-37.8567491716512
20
-30.9726037931864
30
0
41
1
10
-37.719338009396
20
-30.9275199939091
30
0
41
1
10
-37.6060913674279
20
-30.8918810776966
30
0
41
1
10
-37.5151075326346
20
-30.863898152422
30
0
41
1
10
-37.421108487281
20
-30.8356518376621
30
0
41
1
10
-37.3241066816763
20
-30.8071293654786
30
0
41
1
10
-37.2240876291441
20
-30.7783384069774
30
0
41
1
10
-37.1210976121777
20
-30.7492420240111
30
0
41
1
10
-37.0511604417769
20
-30.7299512161334
30
0
41
1
10
-37.0157821258821
20
-30.7201927959535
30
0
0
SPLINE
5
F0
100
AcDbEntity
8
SK1
62
256
6
ByLayer
370
13
48
1
60
0
100
AcDbSpline
70
4
71
3
72
79
73
75
40
0
40
0
40
0
40
0
40
0.00305945396631
40
0.0060727319976908
40
0.0090429278905614
40
0.0119732721087952
40
0.0148671287932035
40
0.0177279910227346
40
0.0205594742101063
40
0.0233653075609258
40
0.0261493235829559
40
0.0289154456988427
40
0.0316676740890254
40
0.0344100699658077
40
0.0371467385510931
40
0.0398818110925171
40
0.0426194263007501
40
0.0453637116207173
40
0.0481187647577693
40
0.0508886358669159
40
0.0536773107790404
40
0.0564886955865438
40
0.0593266028462407
40
0.0621947395848181
40
0.06509669721749
40
0.0680359434184792
40
0.0710158159168003
40
0.0740395181356055
40
0.0771101165495624
40
0.0802305396031504
40
0.0834035780125053
40
0.0866318862640858
40
0.0899179851223185
40
0.0932642649647002
40
0.0966729897741487
40
0.100146301633004
40
0.103686225580166
40
0.107294674710034
40
0.110973455409877
40
0.114724272648518
40
0.118548735245108
40
0.12244836106031
40
0.141746480109014
40
0.161641162231989
40
0.182238073721967
40
0.203632490402565
40
0.2259094667259
40
0.249144372874095
40
0.266255421921394
40
0.284020145725674
40
0.302448681860555
40
0.321550113790586
40
0.341332600590596
40
0.361803489267423
40
0.382969412006929
40
0.404836370414429
40
0.427409808562713
40
0.450694676422801
40
0.474695485035479
40
0.499416354588935
40
0.530512280486112
40
0.562303644496734
40
0.594796783022759
40
0.627997628471432
40
0.661911739494183
40
0.696544328757657
40
0.731900288441856
40
0.767984213649624
40
0.804800423900163
40
0.842352982867087
40
0.880645716509966
40
0.919682229736531
40
0.959465921721834
40
1
40
1
40
1
40
1
41
1
10
-37.0157821258821
20
-30.7201927959535
30
0
41
1
10
-37.0135431504499
20
-30.7195793227748
30
0
41
1
10
-37.0090989921462
20
-30.7183616354871
30
0
41
1
10
-37.0023277023848
20
-30.7166944397874
30
0
41
1
10
-36.9955460664612
20
-30.7151634164652
30
0
41
1
10
-36.9887431129493
20
-30.7137785410046
30
0
41
1
10
-36.9819217202975
20
-30.7125373037622
30
0
41
1
10
-36.9750811391478
20
-30.7114404654662
30
0
41
1
10
-36.9682215806312
20
-30.7104879210087
30
0
41
1
10
-36.9613430107088
20
-30.7096797859956
30
0
41
1
10
-36.9544454677525
20
-30.7090161099066
30
0
41
1
10
-36.9475289786242
20
-30.7084969509322
30
0
41
1
10
-36.9405935803202
20
-30.7081223554089
30
0
41
1
10
-36.93363931335
20
-30.7078923625387
30
0
41
1
10
-36.9266662222588
20
-30.7078070025332
30
0
41
1
10
-36.9196743539713
20
-30.7078662966695
30
0
41
1
10
-36.9126637565143
20
-30.7080702570413
30
0
41
1
10
-36.905634477541
20
-30.708418886612
30
0
41
1
10
-36.8985865629248
20
-30.7089121794116
30
0
41
1
10
-36.8915200554629
20
-30.7095501209008
30
0
41
1
10
-36.8844349937744
20
-30.7103326884637
30
0
41
1
10
-36.8773314114449
20
-30.7112598519937
30
0
41
1
10
-36.8702093364487
20
-30.7123315745287
30
0
41
1
10
-36.8630687908537
20
-30.7135478128976
30
0
41
1
10
-36.8559097907941
20
-30.7149085183369
30
0
41
1
10
-36.8487323466768
20
-30.7164136370496
30
0
41
1
10
-36.8415364635778
20
-30.7180631106853
30
0
41
1
10
-36.834322141778
20
-30.7198568767275
30
0
41
1
10
-36.8270893773885
20
-30.7217948687852
30
0
41
1
10
-36.8198381630198
20
-30.7238770167932
30
0
41
1
10
-36.8125684884519
20
-30.7261032471242
30
0
41
1
10
-36.8052803412903
20
-30.7284734826359
30
0
41
1
10
-36.7979737075224
20
-30.7309876426325
30
0
41
1
10
-36.7906485722038
20
-30.7336456428714
30
0
41
1
10
-36.7833049193286
20
-30.7364473951862
30
0
41
1
10
-36.7759427344823
20
-30.7393928084273
30
0
41
1
10
-36.7685619964605
20
-30.7424817842427
30
0
41
1
10
-36.7611627109195
20
-30.7457142326193
30
0
41
1
10
-36.7537447822631
20
-30.7490900114989
30
0
41
1
10
-36.7463085067158
20
-30.7526091580956
30
0
41
1
10
-36.7388526783546
20
-30.756270999428
30
0
41
1
10
-36.7215986215792
20
-30.7650623848819
30
0
41
1
10
-36.6952970647277
20
-30.7797374797026
30
0
41
1
10
-36.6615886266976
20
-30.8013238625871
30
0
41
1
10
-36.6295859849189
20
-30.8247450659817
30
0
41
1
10
-36.599288386906
20
-30.8499853059318
30
0
41
1
10
-36.5706681743725
20
-30.8770275997929
30
0
41
1
10
-36.5465710456972
20
-30.9029240394121
30
0
41
1
10
-36.5259422100188
20
-30.9272543761723
30
0
41
1
10
-36.5079850705469
20
-30.9497136394196
30
0
41
1
10
-36.49037478421
20
-30.9731435570837
30
0
41
1
10
-36.4730893627236
20
-30.9975339906093
30
0
41
1
10
-36.4561349211535
20
-31.022879773771
30
0
41
1
10
-36.4395096564572
20
-31.0491739441888
30
0
41
1
10
-36.4232140321571
20
-31.0764096577163
30
0
41
1
10
-36.4072478716562
20
-31.1045796455435
30
0
41
1
10
-36.391611269105
20
-31.1336763758123
30
0
41
1
10
-36.3763039552919
20
-31.1636919744379
30
0
41
1
10
-36.361326934991
20
-31.1946183778933
30
0
41
1
10
-36.3455599901085
20
-31.2288719940866
30
0
41
1
10
-36.3292379897601
20
-31.2664214574564
30
0
41
1
10
-36.3126190448661
20
-31.30722872558
30
0
41
1
10
-36.2967574479443
20
-31.348844711273
30
0
41
1
10
-36.2816545953997
20
-31.3912575873681
30
0
41
1
10
-36.2673100823195
20
-31.4344551072892
30
0
41
1
10
-36.2537240140221
20
-31.4784247257049
30
0
41
1
10
-36.2408963306768
20
-31.5231535740924
30
0
41
1
10
-36.2288271279724
20
-31.5686284239205
30
0
41
1
10
-36.2175160506175
20
-31.6148358553375
30
0
41
1
10
-36.2069644490724
20
-31.6617615916853
30
0
41
1
10
-36.1971671348216
20
-31.7093930531465
30
0
41
1
10
-36.1881440477473
20
-31.7577095357378
30
0
41
1
10
-36.1798186217563
20
-31.8067199273201
30
0
41
1
10
-36.174974780827
20
-31.839478359471
30
0
41
1
10
-36.172530233042
20
-31.8560106019463
30
0
0
SPLINE
5
F1
100
AcDbEntity
8
SK1
62
256
6
ByLayer
370
13
48
1
60
0
100
AcDbSpline
70
4
71
3
72
32
73
28
40
0
40
0
40
0
40
0
40
0.0625000000000017
40
0.0625000000000017
40
0.125000000000003
40
0.125000000000003
40
0.156250000000004
40
0.156250000000004
40
0.187500000000004
40
0.187500000000004
40
0.250000000000006
40
0.250000000000006
40
0.375000000000006
40
0.375000000000006
40
0.500000000000007
40
0.500000000000007
40
0.625000000000008
40
0.625000000000008
40
0.687500000000008
40
0.687500000000008
40
0.718750000000008
40
0.718750000000008
40
0.750000000000009
40
0.750000000000009
40
0.875000000000004
40
0.875000000000004
40
1
40
1
40
1
40
1
41
1
10
-36.172530233042
20
-31.8560106019463
30
0
41
1
10
-36.1646690136787
20
-31.9107270392289
30
0
41
1
10
-36.1467850099516
20
-31.9643019111105
30
0
41
1
10
-36.0966396558689
20
-32.0696380816927
30
0
41
1
10
-36.0643920146937
20
-32.1214004209647
30
0
41
1
10
-36.0101403476589
20
-32.1980419585252
30
0
41
1
10
-35.9910773090352
20
-32.2234402301207
30
0
41
1
10
-35.9515382313625
20
-32.2737931438075
30
0
41
1
10
-35.9310543390943
20
-32.2987614974021
30
0
41
1
10
-35.868064012377
20
-32.37313793103
30
0
41
1
10
-35.8240253376178
20
-32.4220195696802
30
0
41
1
10
-35.6905180070808
20
-32.5672617189033
30
0
41
1
10
-35.5988784400521
20
-32.6621158963317
30
0
41
1
10
-35.4213179136395
20
-32.8493668718318
30
0
41
1
10
-35.3349682820513
20
-32.9417311997755
30
0
41
1
10
-35.1741404320301
20
-33.1241052373724
30
0
41
1
10
-35.0992937814628
20
-33.2141199188044
30
0
41
1
10
-34.9986177783472
20
-33.3475157225456
30
0
41
1
10
-34.9669933613617
20
-33.3917093237603
30
0
41
1
10
-34.9228766947074
20
-33.457602319128
30
0
41
1
10
-34.9087151807034
20
-33.4795160542438
30
0
41
1
10
-34.8816358679029
20
-33.523102685882
30
0
41
1
10
-34.8687133136911
20
-33.5447811433808
30
0
41
1
10
-34.8073295500867
20
-33.6525945694595
30
0
41
1
10
-34.7685161160595
20
-33.7369943769097
30
0
41
1
10
-34.7150325883861
20
-33.9019500449169
30
0
41
1
10
-34.7003175478459
20
-33.9825066793563
30
0
41
1
10
-34.7003757972131
20
-34.061047512297
30
0
0
SPLINE
5
F2
100
AcDbEntity
8
SK1
62
256
6
ByLayer
370
13
48
1
60
0
100
AcDbSpline
70
4
71
3
72
75
73
71
40
0
40
0
40
0
40
0
40
0.0417327646480807
40
0.0417327646480807
40
0.0625991469721208
40
0.0730323381341411
40
0.0730323381341411
40
0.0834655292961614
40
0.0834655292961614
40
0.125198293944243
40
0.125198293944243
40
0.166931058592323
40
0.166931058592323
40
0.208663823240405
40
0.208663823240405
40
0.219097014402425
40
0.219097014402425
40
0.229530205564445
40
0.229530205564445
40
0.250396587888486
40
0.250396587888486
40
0.292129352536568
40
0.292129352536568
40
0.333862117184649
40
0.333862117184649
40
0.35472849950869
40
0.35472849950869
40
0.365161690670711
40
0.365161690670711
40
0.375594881832731
40
0.417327646480814
40
0.417327646480814
40
0.459060411128896
40
0.459060411128896
40
0.500793175776979
40
0.500793175776979
40
0.542525940425061
40
0.542525940425061
40
0.584258705073144
40
0.584258705073144
40
0.625991469721227
40
0.625991469721227
40
0.636424660883247
40
0.636424660883247
40
0.646857852045268
40
0.646857852045268
40
0.667724234369309
40
0.667724234369309
40
0.709456999017393
40
0.709456999017393
40
0.751189763665476
40
0.751189763665476
40
0.772056145989518
40
0.782489337151538
40
0.782489337151538
40
0.792922528313559
40
0.792922528313559
40
0.834655292961642
40
0.834655292961642
40
0.876388057609724
40
0.876388057609724
40
0.918120822257807
40
0.918120822257807
40
0.928554013419828
40
0.928554013419828
40
0.938987204581849
40
0.938987204581849
40
0.95985358690589
40
0.95985358690589
40
1
40
1
40
1
40
1
41
1
10
-19.5393221405262
20
-36.7441061115297
30
0
41
1
10
-19.3894694747593
20
-36.7328375833627
30
0
41
1
10
-19.2328439289861
20
-36.7219918552009
30
0
41
1
10
-18.987807729965
20
-36.7067688141462
30
0
41
1
10
-18.8627632985551
20
-36.699418309756
30
0
41
1
10
-18.7339209845069
20
-36.6925336037721
30
0
41
1
10
-18.6471800850291
20
-36.6880554595135
30
0
41
1
10
-18.6033427711167
20
-36.6858697559235
30
0
41
1
10
-18.3825962426178
20
-36.6752713391134
30
0
41
1
10
-18.2014311082291
20
-36.6679126565902
30
0
41
1
10
-17.8304924702352
20
-36.6557515717794
30
0
41
1
10
-17.6407135371553
20
-36.6509489044151
30
0
41
1
10
-17.2523055226
20
-36.6444097678508
30
0
41
1
10
-17.0537825124613
20
-36.6426302466392
30
0
41
1
10
-16.7999904495428
20
-36.6425746507222
30
0
41
1
10
-16.748950137365
20
-36.6426717860794
30
0
41
1
10
-16.6462998049645
20
-36.643089442317
30
0
41
1
10
-16.5947352684334
20
-36.6434101427227
30
0
41
1
10
-16.4400722591753
20
-36.6447062627815
30
0
41
1
10
-16.3367275931669
20
-36.6460143851801
30
0
41
1
10
-16.0259985181478
20
-36.6512921576343
30
0
41
1
10
-15.8178957569428
20
-36.656666348168
30
0
41
1
10
-15.399895086607
20
-36.6710721648232
30
0
41
1
10
-15.1899945844942
20
-36.680108519056
30
0
41
1
10
-14.8737241203843
20
-36.6965867213126
30
0
41
1
10
-14.7680727956844
20
-36.7025477742991
30
0
41
1
10
-14.6092431662991
20
-36.7122096239715
30
0
41
1
10
-14.5561648913315
20
-36.7155553198724
30
0
41
1
10
-14.4503281052694
20
-36.7224602186916
30
0
41
1
10
-14.1865870851889
20
-36.740249615669
30
0
41
1
10
-13.9270463736902
20
-36.7606334670259
30
0
41
1
10
-13.5169525789968
20
-36.7962751671157
30
0
41
1
10
-13.3145034074001
20
-36.8156173551831
30
0
41
1
10
-12.9147540655015
20
-36.8570582059061
30
0
41
1
10
-12.7174525290714
20
-36.8791567970655
30
0
41
1
10
-12.3281359411908
20
-36.9258361326611
30
0
41
1
10
-12.139345190039
20
-36.9500291254164
30
0
41
1
10
-11.7729933909503
20
-36.9996178395025
30
0
41
1
10
-11.595433135778
20
-37.0250173693491
30
0
41
1
10
-11.2514199112922
20
-37.0765553577017
30
0
41
1
10
-11.0849341949764
20
-37.1026893082779
30
0
41
1
10
-10.8838999416572
20
-37.1355156426578
30
0
41
1
10
-10.8440466676065
20
-37.1420886282601
30
0
41
1
10
-10.7650512837648
20
-37.1552416883978
30
0
41
1
10
-10.7258732487896
20
-37.1618279864467
30
0
41
1
10
-10.6100050036904
20
-37.1814830111114
30
0
41
1
10
-10.5347850674691
20
-37.1944756019444
30
0
41
1
10
-10.31517678452
20
-37.2330366309173
30
0
41
1
10
-10.1769452849728
20
-37.2581929709051
30
0
41
1
10
-9.91601370979581
20
-37.3069044912946
30
0
41
1
10
-9.79335299394953
20
-37.3304633422055
30
0
41
1
10
-9.62146435723233
20
-37.3642404775723
30
0
41
1
10
-9.53846146164446
20
-37.3807361458956
30
0
41
1
10
-9.46000597689607
20
-37.3965697888407
30
0
41
1
10
-9.40872777328175
20
-37.4069698563248
30
0
41
1
10
-9.38361573360893
20
-37.4120892122199
30
0
41
1
10
-9.26131699773936
20
-37.4371381507994
30
0
41
1
10
-9.17332549615767
20
-37.4555394914243
30
0
41
1
10
-9.01628602268983
20
-37.4887861827084
30
0
41
1
10
-8.94735823341895
20
-37.5036286513029
30
0
41
1
10
-8.82843198744075
20
-37.5294508142756
30
0
41
1
10
-8.77844604467307
20
-37.5404311321622
30
0
41
1
10
-8.72831983055954
20
-37.5515194055436
30
0
41
1
10
-8.71890432882438
20
-37.553605434799
30
0
41
1
10
-8.7013104868816
20
-37.5575081768435
30
0
41
1
10
-8.69314637000016
20
-37.5593217374302
30
0
41
1
10
-8.67064217409427
20
-37.5643260632702
30
0
41
1
10
-8.65824667092679
20
-37.5670899924221
30
0
41
1
10
-8.62950809451561
20
-37.5735062267324
30
0
41
1
10
-8.6200915728262
20
-37.5756202777411
30
0
41
1
10
-8.62001552879104
20
-37.5756374174001
30
0
0
SPLINE
5
F3
100
AcDbEntity
8
SK1
62
256
6
ByLayer
370
13
48
1
60
0
100
AcDbSpline
70
4
71
3
72
35
73
31
40
0
40
0
40
0
40
0
40
0.0029746696177866
40
0.0029746696177866
40
0.0341317111922317
40
0.0341317111922317
40
0.0652887527666759
40
0.0652887527666759
40
0.127602835915564
40
0.127602835915564
40
0.252231002213341
40
0.252231002213341
40
0.376859168511118
40
0.376859168511118
40
0.439173251660006
40
0.47033029323445
40
0.47033029323445
40
0.501487334808896
40
0.501487334808896
40
0.626115501106671
40
0.626115501106671
40
0.750743667404446
40
0.750743667404446
40
0.875371833702222
40
0.875371833702222
40
0.906528875276666
40
0.906528875276666
40
0.937685916851111
40
0.937685916851111
40
1
40
1
40
1
40
1
41
1
10
-21.4200142031381
20
-36.9343549803045
30
0
41
1
10
-21.4200167037096
20
-36.9343550225708
30
0
41
1
10
-21.4200134445417
20
-36.9343543177866
30
0
41
1
10
-21.4199099559722
20
-36.9343376496728
30
0
41
1
10
-21.4191575113665
20
-36.934241654595
30
0
41
1
10
-21.4163414740039
20
-36.933885761966
30
0
41
1
10
-21.4142746246559
20
-36.9336254549031
30
0
41
1
10
-21.4061261403849
20
-36.9325986326483
30
0
41
1
10
-21.3981235144587
20
-36.9315889655302
30
0
41
1
10
-21.3666194531719
20
-36.9276161915823
30
0
41
1
10
-21.3356729416201
20
-36.9237064283658
30
0
41
1
10
-21.2536691255434
20
-36.913598243707
30
0
41
1
10
-21.2029269725455
20
-36.9073814555271
30
0
41
1
10
-21.1117783862798
20
-36.8964972837489
30
0
41
1
10
-21.0624460639921
20
-36.8906654340623
30
0
41
1
10
-21.0074061444375
20
-36.8842833314576
30
0
41
1
10
-20.9694372051955
20
-36.8799101153251
30
0
41
1
10
-20.9497869169538
20
-36.8776610264952
30
0
41
1
10
-20.8487716962005
20
-36.8661797574154
30
0
41
1
10
-20.7588994260474
20
-36.8562545686356
30
0
41
1
10
-20.5619375191427
20
-36.8353420195375
30
0
41
1
10
-20.4548469957521
20
-36.8243526921447
30
0
41
1
10
-20.2230577160657
20
-36.8018180340925
30
0
41
1
10
-20.0985807135947
20
-36.7902479243338
30
0
41
1
10
-19.9318017019239
20
-36.7757363224919
30
0
41
1
10
-19.8978859072187
20
-36.7728316455191
30
0
41
1
10
-19.8289203564427
20
-36.7670261039967
30
0
41
1
10
-19.7938478934906
20
-36.7641234605913
30
0
41
1
10
-19.6872456611911
20
-36.7554612974493
30
0
41
1
10
-19.6142484734097
20
-36.7497403756133
30
0
41
1
10
-19.5393221405262
20
-36.7441061115297
30
0
0
SPLINE
5
F4
100
AcDbEntity
8
SK1
62
256
6
ByLayer
370
13
48
1
60
0
100
AcDbSpline
70
4
71
3
72
31
73
27
40
0
40
0
40
0
40
0
40
0.123627884563777
40
0.123627884563777
40
0.185441826845666
40
0.21634879798661
40
0.21634879798661
40
0.247255769127555
40
0.247255769127555
40
0.37088365369133
40
0.37088365369133
40
0.494511538255106
40
0.494511538255106
40
0.618139422818881
40
0.618139422818881
40
0.649046393959826
40
0.649046393959826
40
0.67995336510077
40
0.67995336510077
40
0.74176730738266
40
0.74176730738266
40
0.865395191946439
40
0.865395191946439
40
0.989023076510218
40
0.989023076510218
40
1
40
1
40
1
40
1
41
1
10
-19.5090972119755
20
36.7418460141016
30
0
41
1
10
-19.6599526611181
20
36.7530634849584
30
0
41
1
10
-19.8026638018981
20
36.7646159086142
30
0
41
1
10
-20.004683280496
20
36.7820379901127
30
0
41
1
10
-20.1026791354454
20
36.7907723551272
30
0
41
1
10
-20.1961648493029
20
36.7994640834199
30
0
41
1
10
-20.2574864621454
20
36.8052403862853
30
0
41
1
10
-20.2876772854277
20
36.8081220922724
30
0
41
1
10
-20.4357302490385
20
36.8224289573031
30
0
41
1
10
-20.5444298193081
20
36.8335315905649
30
0
41
1
10
-20.7434323025864
20
36.8545701069545
30
0
41
1
10
-20.8337265976522
20
36.8645082123078
30
0
41
1
10
-20.9956924821579
20
36.882849313405
30
0
41
1
10
-21.0675501810054
20
36.8912378357191
30
0
41
1
10
-21.1455279721024
20
36.9005233452612
30
0
41
1
10
-21.1605315008978
20
36.9023203298282
30
0
41
1
10
-21.1893443410133
20
36.9057880557862
30
0
41
1
10
-21.2031701071297
20
36.9074608060668
30
0
41
1
10
-21.2426586147568
20
36.9122581510216
30
0
41
1
10
-21.2663751210539
20
36.9151665424186
30
0
41
1
10
-21.329946883228
20
36.922990979061
30
0
41
1
10
-21.3618994683974
20
36.927023529667
30
0
41
1
10
-21.4059465918941
20
36.9325731109548
30
0
41
1
10
-21.4180402764777
20
36.9340906815403
30
0
41
1
10
-21.4199324776412
20
36.9343448606209
30
0
41
1
10
-21.4200075157476
20
36.9343553441235
30
0
41
1
10
-21.4200029755876
20
36.9343555636731
30
0
0
SPLINE
5
F5
100
AcDbEntity
8
SK1
62
256
6
ByLayer
370
13
48
1
60
0
100
AcDbSpline
70
4
71
3
72
68
73
64
40
0
40
0
40
0
40
0
40
0.0378106495849004
40
0.079644969168166
40
0.079644969168166
40
0.121479288751432
40
0.121479288751432
40
0.131937868647248
40
0.131937868647248
40
0.142396448543065
40
0.163313608334698
40
0.163313608334698
40
0.246982247501229
40
0.246982247501229
40
0.267899407292863
40
0.267899407292863
40
0.288816567084496
40
0.288816567084496
40
0.330650886667762
40
0.330650886667762
40
0.372485206251028
40
0.372485206251028
40
0.393402366042661
40
0.403860945938478
40
0.403860945938478
40
0.414319525834294
40
0.414319525834294
40
0.45615384541756
40
0.45615384541756
40
0.497988165000825
40
0.497988165000825
40
0.539822484584091
40
0.539822484584091
40
0.550281064479907
40
0.550281064479907
40
0.560739644375724
40
0.560739644375724
40
0.581656804167356
40
0.581656804167356
40
0.665325443333885
40
0.665325443333885
40
0.686242603125517
40
0.686242603125517
40
0.696701183021334
40
0.696701183021334
40
0.70715976291715
40
0.70715976291715
40
0.748994082500415
40
0.748994082500415
40
0.832662721666943
40
0.832662721666943
40
0.843121301562759
40
0.843121301562759
40
0.853579881458574
40
0.874497041250206
40
0.874497041250206
40
0.916331360833471
40
0.916331360833471
40
0.958165680416735
40
0.958165680416735
40
0.979082840208368
40
0.979082840208368
40
1
40
1
40
1
40
1
41
1
10
-8.62001466893
20
37.5756375043689
30
0
41
1
10
-8.62006786977739
20
37.5756248162851
30
0
41
1
10
-8.63782375371326
20
37.5716353842789
30
0
41
1
10
-8.69206733949108
20
37.559547643157
30
0
41
1
10
-8.76898956145416
20
37.5425133414618
30
0
41
1
10
-8.81761271249147
20
37.5318191528805
30
0
41
1
10
-8.8913123624292
20
37.5157956304778
30
0
41
1
10
-8.90670038606143
20
37.5124580545165
30
0
41
1
10
-8.93860005716323
20
37.5055589400476
30
0
41
1
10
-8.98819878894275
20
37.4948610499071
30
0
41
1
10
-9.04299078374981
20
37.4831479893494
30
0
41
1
10
-9.23713141110483
20
37.4419831916431
30
0
41
1
10
-9.42856982496801
20
37.4022885912863
30
0
41
1
10
-9.71323329193837
20
37.3461776686715
30
0
41
1
10
-9.77252771087595
20
37.3346239495493
30
0
41
1
10
-9.89574409694663
20
37.3109361761128
30
0
41
1
10
-9.95919744792499
20
37.2988885256689
30
0
41
1
10
-10.1549257660454
20
37.2622350189361
30
0
41
1
10
-10.2925228121412
20
37.2371165049621
30
0
41
1
10
-10.5821898016539
20
37.1860688483058
30
0
41
1
10
-10.7340695619557
20
37.1601262474925
30
0
41
1
10
-10.9726861486514
20
37.1209655114114
30
0
41
1
10
-11.0947066873983
20
37.1013240823752
30
0
41
1
10
-11.2208657728371
20
37.0816614757002
30
0
41
1
10
-11.3058991011871
20
37.0685559924311
30
0
41
1
10
-11.3489381499521
20
37.0619959080485
30
0
41
1
10
-11.5656761688699
20
37.0293407043467
30
0
41
1
10
-11.743674181818
20
37.0037510128583
30
0
41
1
10
-12.108578456255
20
36.9540597951331
30
0
41
1
10
-12.2954766496875
20
36.929954725236
30
0
41
1
10
-12.6783264231717
20
36.8836798465775
30
0
41
1
10
-12.8742481854147
20
36.8615016629819
30
0
41
1
10
-13.1249448605771
20
36.8352370833741
30
0
41
1
10
-13.1753750327199
20
36.8300572260593
30
0
41
1
10
-13.2768251768888
20
36.8198505444958
30
0
41
1
10
-13.3279199578699
20
36.8148166269268
30
0
41
1
10
-13.4814023720712
20
36.8000218994135
30
0
41
1
10
-13.5840193036332
20
36.7905633930841
30
0
41
1
10
-14.0985630718862
20
36.7453444095582
30
0
41
1
10
-14.5148355525598
20
36.7158177237272
30
0
41
1
10
-15.0409456859291
20
36.6877701442182
30
0
41
1
10
-15.1464677500427
20
36.6826175153255
30
0
41
1
10
-15.3052023956859
20
36.6755758966518
30
0
41
1
10
-15.358188863425
20
36.673342677634
30
0
41
1
10
-15.4643120328231
20
36.6691041614723
30
0
41
1
10
-15.5174607714496
20
36.6670988539367
30
0
41
1
10
-15.782035314065
20
36.6576959634671
30
0
41
1
10
-15.9912152368287
20
36.6521044105386
30
0
41
1
10
-16.6112391787323
20
36.640967304853
30
0
41
1
10
-17.0149126151127
20
36.6408480364134
30
0
41
1
10
-17.4578196557359
20
36.6478360003688
30
0
41
1
10
-17.5069384926353
20
36.6487147193804
30
0
41
1
10
-17.604499009908
20
36.6506611916724
30
0
41
1
10
-17.7497243398308
20
36.653861356724
30
0
41
1
10
-17.8916842946654
20
36.6578519413829
30
0
41
1
10
-18.1713594310885
20
36.6667781162346
30
0
41
1
10
-18.3521800871311
20
36.6739830934985
30
0
41
1
10
-18.7023961593952
20
36.6904866969526
30
0
41
1
10
-18.8719616547332
20
36.6997383690363
30
0
41
1
10
-19.1177635973292
20
36.7147790175437
30
0
41
1
10
-19.1982715315322
20
36.719986154546
30
0
41
1
10
-19.3563820291341
20
36.7307259408378
30
0
41
1
10
-19.4336694874042
20
36.7362372786733
30
0
41
1
10
-19.5090972119755
20
36.7418460141016
30
0
0
SPLINE
5
F6
100
AcDbEntity
8
1
62
256
6
ByLayer
370
13
48
1
60
0
100
AcDbSpline
70
4
71
1
72
4
73
2
40
0
40
0
40
1
40
1
41
1
10
4.29999999999984
20
-49.9897129500524
30
0
41
1
10
4.32937835902169
20
-49.9603406353635
30
0
0
SPLINE
5
F7
100
AcDbEntity
8
1
62
256
6
ByLayer
370
13
48
1
60
0
100
AcDbSpline
70
4
71
3
72
33
73
29
40
0
40
0
40
0
40
0
40
0.125152094175747
40
0.125152094175747
40
0.156440117719688
40
0.156440117719688
40
0.187728141263629
40
0.250304188351512
40
0.250304188351512
40
0.281592211895448
40
0.281592211895448
40
0.312880235439385
40
0.312880235439385
40
0.375456282527258
40
0.375456282527258
40
0.438032329615131
40
0.438032329615131
40
0.500608376703004
40
0.500608376703004
40
0.625760470878775
40
0.625760470878775
40
0.750912565054546
40
0.750912565054546
40
0.813488612142443
40
0.813488612142443
40
0.876064659230341
40
0.876064659230341
40
1
40
1
40
1
40
1
41
1
10
21.3750000000002
20
31.35
30
0
41
1
10
21.4143404252153
20
31.35
30
0
41
1
10
21.4525173194029
20
31.35
30
0
41
1
10
21.4989148520218
20
31.35
30
0
41
1
10
21.5081646237073
20
31.35
30
0
41
1
10
21.5263140380588
20
31.35
30
0
41
1
10
21.5530026936258
20
31.35
30
0
41
1
10
21.5781874596487
20
31.35
30
0
41
1
10
21.6024565654296
20
31.3499999999999
30
0
41
1
10
21.6103931512268
20
31.35
30
0
41
1
10
21.6259692567287
20
31.3499999999999
30
0
41
1
10
21.6336079758863
20
31.3499999999999
30
0
41
1
10
21.6558155796553
20
31.3499999999999
30
0
41
1
10
21.669781866405
20
31.35
30
0
41
1
10
21.696231353349
20
31.3499999999999
30
0
41
1
10
21.7087135412527
20
31.3499999999999
30
0
41
1
10
21.7323138655293
20
31.3499999999999
30
0
41
1
10
21.7434587468203
20
31.35
30
0
41
1
10
21.7747709759381
20
31.35
30
0
41
1
10
21.7925049358459
20
31.35
30
0
41
1
10
21.8227289717053
20
31.35
30
0
41
1
10
21.8352064607725
20
31.35
30
0
41
1
10
21.8502326580596
20
31.35
30
0
41
1
10
21.8546049391307
20
31.35
30
0
41
1
10
21.8620460532369
20
31.35
30
0
41
1
10
21.8651294926762
20
31.35
30
0
41
1
10
21.8724785021491
20
31.35
30
0
41
1
10
21.8749624591443
20
31.35
30
0
41
1
10
21.8749949999986
20
31.35
30
0
0
SPLINE
5
F8
100
AcDbEntity
8
1
62
256
6
ByLayer
370
13
48
1
60
0
100
AcDbSpline
70
4
71
3
72
30
73
26
40
0
40
0
40
0
40
0
40
0.125000000000014
40
0.125000000000014
40
0.187500000000007
40
0.187500000000007
40
0.25
40
0.25
40
0.37500000000001
40
0.37500000000001
40
0.437500000000004
40
0.437500000000004
40
0.499999999999998
40
0.499999999999998
40
0.624999999999995
40
0.624999999999995
40
0.687499999999994
40
0.687499999999994
40
0.749999999999992
40
0.749999999999992
40
0.875
40
0.875
40
0.9375
40
0.9375
40
1
40
1
40
1
40
1
41
1
10
21.8749999999999
20
-45.18019477603
30
0
41
1
10
21.8749999999999
20
-45.1466966184086
30
0
41
1
10
21.8718522980255
20
-45.1137318013763
30
0
41
1
10
21.8625902397585
20
-45.0650539103438
30
0
41
1
10
21.8587406882523
20
-45.0489570921617
30
0
41
1
10
21.8494821948119
20
-45.0170276759226
30
0
41
1
10
21.8440380207303
20
-45.0011189440364
30
0
41
1
10
21.8256266126297
20
-44.9546981456298
30
0
41
1
10
21.8105790718089
20
-44.9252901649365
30
0
41
1
10
21.7838723385725
20
-44.883473433761
30
0
41
1
10
21.7742761404421
20
-44.8699196812168
30
0
41
1
10
21.7536389466421
20
-44.8436140669399
30
0
41
1
10
21.7426823535297
20
-44.8309805598405
30
0
41
1
10
21.7083224695426
20
-44.7950592716829
30
0
41
1
10
21.6832923561395
20
-44.7735363307692
30
0
41
1
10
21.6424879294699
20
-44.7449732537171
30
0
41
1
10
21.6282509344904
20
-44.7360311499704
30
0
41
1
10
21.5991568383221
20
-44.7197526489489
30
0
41
1
10
21.5843020012261
20
-44.7124023217221
30
0
41
1
10
21.538832080963
20
-44.6926720798802
30
0
41
1
10
21.507320836756
20
-44.6825892008422
30
0
41
1
10
21.4581659812242
20
-44.6723041669862
30
0
41
1
10
21.4416257904898
20
-44.6697260629542
30
0
41
1
10
21.40844072004
20
-44.6662888869943
30
0
41
1
10
21.3917634140453
20
-44.6654228682542
30
0
41
1
10
21.3749999999999
20
-44.6654228682542
30
0
0
SPLINE
5
F9
100
AcDbEntity
8
1
62
256
6
ByLayer
370
13
48
1
60
0
100
AcDbSpline
70
4
71
3
72
28
73
24
40
0
40
0
40
0
40
0
40
0.124999999999979
40
0.124999999999979
40
0.249999999999958
40
0.249999999999958
40
0.312499999999956
40
0.312499999999956
40
0.374999999999955
40
0.374999999999955
40
0.499999999999969
40
0.499999999999969
40
0.562499999999973
40
0.562499999999973
40
0.624999999999977
40
0.624999999999977
40
0.687499999999981
40
0.687499999999981
40
0.749999999999984
40
0.749999999999984
40
0.874999999999992
40
0.874999999999992
40
1
40
1
40
1
40
1
41
1
10
18.1249949995002
20
31.3499999999998
30
0
41
1
10
18.1250050005002
20
31.35
30
0
41
1
10
18.1274733219792
20
31.35
30
0
41
1
10
18.1372996168943
20
31.35
30
0
41
1
10
18.1446500630963
20
31.35
30
0
41
1
10
18.159628024004
20
31.35
30
0
41
1
10
18.1652923841854
20
31.35
30
0
41
1
10
18.177848906454
20
31.35
30
0
41
1
10
18.1847564853737
20
31.35
30
0
41
1
10
18.2074419034773
20
31.35
30
0
41
1
10
18.22515562219
20
31.35
30
0
41
1
10
18.2562961055623
20
31.35
30
0
41
1
10
18.2674944280703
20
31.35
30
0
41
1
10
18.2911661099651
20
31.35
30
0
41
1
10
18.3036718808944
20
31.35
30
0
41
1
10
18.3301293424038
20
31.35
30
0
41
1
10
18.3440801706025
20
31.35
30
0
41
1
10
18.3735990055752
20
31.35
30
0
41
1
10
18.3892693480345
20
31.35
30
0
41
1
10
18.4378615856591
20
31.35
30
0
41
1
10
18.4725772590289
20
31.35
30
0
41
1
10
18.547344091262
20
31.35
30
0
41
1
10
18.5856672539868
20
31.35
30
0
41
1
10
18.6250000000002
20
31.35
30
0
0
SPLINE
5
FA
100
AcDbEntity
8
1
62
256
6
ByLayer
370
13
48
1
60
0
100
AcDbSpline
70
4
71
3
72
30
73
26
40
0
40
0
40
0
40
0
40
0.125000000000012
40
0.125000000000012
40
0.187500000000011
40
0.187500000000011
40
0.218750000000015
40
0.218750000000015
40
0.250000000000018
40
0.250000000000018
40
0.375000000000044
40
0.375000000000044
40
0.437500000000043
40
0.437500000000043
40
0.500000000000043
40
0.500000000000043
40
0.625000000000023
40
0.625000000000023
40
0.750000000000004
40
0.750000000000004
40
0.812499999999996
40
0.812499999999996
40
0.874999999999989
40
0.874999999999989
40
1
40
1
40
1
40
1
41
1
10
18.6250000000002
20
-44.6654228682546
30
0
41
1
10
18.5914915326847
20
-44.6654228682546
30
0
41
1
10
18.5585715743373
20
-44.6688568366051
30
0
41
1
10
18.5100354029127
20
-44.6789311908568
30
0
41
1
10
18.4939983870861
20
-44.6831161794726
30
0
41
1
10
18.470160156406
20
-44.6906615742395
30
0
41
1
10
18.4622280163752
20
-44.6933973047077
30
0
41
1
10
18.4465826771278
20
-44.6992455321417
30
0
41
1
10
18.438864415042
20
-44.7023580734586
30
0
41
1
10
18.4007838367362
20
-44.7188425145278
30
0
41
1
10
18.3719389468772
20
-44.7349529618304
30
0
41
1
10
18.3310692092618
20
-44.7634456525553
30
0
41
1
10
18.3177809496292
20
-44.7737323950591
30
0
41
1
10
18.2924847202969
20
-44.7954133121885
30
0
41
1
10
18.2804533918691
20
-44.8068105644989
30
0
41
1
10
18.246151691711
20
-44.8426202776789
30
0
41
1
10
18.2256482174193
20
-44.8686486741285
30
0
41
1
10
18.1895316650641
20
-44.9250361345415
30
0
41
1
10
18.1744743102618
20
-44.9545207154161
30
0
41
1
10
18.156158936585
20
-45.0005846166674
30
0
41
1
10
18.1507709345931
20
-45.0162477217267
30
0
41
1
10
18.1414528364058
20
-45.0482010521317
30
0
41
1
10
18.1375218841824
20
-45.0645319531881
30
0
41
1
10
18.1281450367901
20
-45.1136135235263
30
0
41
1
10
18.1249999999999
20
-45.1467127138037
30
0
41
1
10
18.1249999999999
20
-45.18019477603
30
0
0
SPLINE
5
FB
100
AcDbEntity
8
1
62
256
6
ByLayer
370
13
48
1
60
0
100
AcDbSpline
70
4
71
3
72
8
73
4
40
0
40
0
40
0
40
0
40
1
40
1
40
1
40
1
41
1
10
29.0000000000002
20
31.35
30
0
41
1
10
28.7673989346145
20
31.35
30
0
41
1
10
28.5340186279794
20
31.35
30
0
41
1
10
28.3000000000002
20
31.35
30
0
0
SPLINE
5
FC
100
AcDbEntity
8
1
62
256
6
ByLayer
370
13
48
1
60
0
100
AcDbSpline
70
4
71
3
72
8
73
4
40
0
40
0
40
0
40
0
40
1
40
1
40
1
40
1
41
1
10
28.2999999999998
20
-48.5715457797306
30
0
41
1
10
28.5339702829773
20
-48.3878540070358
30
0
41
1
10
28.7673159439759
20
-48.2038581170869
30
0
41
1
10
28.9999999999998
20
-48.0195443742785
30
0
0
SPLINE
5
FD
100
AcDbEntity
8
1
62
256
6
ByLayer
370
13
48
1
60
0
100
AcDbSpline
70
4
71
3
72
8
73
4
40
0
40
0
40
0
40
0
40
1
40
1
40
1
40
1
41
1
10
21.8750000000002
20
31.35
30
0
41
1
10
22.3257807636112
20
31.35
30
0
41
1
10
22.7837016611085
20
31.35
30
0
41
1
10
23.2475952641918
20
31.35
30
0
0
SPLINE
5
FE
100
AcDbEntity
8
1
62
256
6
ByLayer
370
13
48
1
60
0
100
AcDbSpline
70
4
71
3
72
8
73
4
40
0
40
0
40
0
40
0
40
1
40
1
40
1
40
1
41
1
10
22.7502539343693
20
-47.8915441388089
30
0
41
1
10
22.4583162217622
20
-47.3727266748868
30
0
41
1
10
22.166558858086
20
-46.8538076791134
30
0
41
1
10
21.8749999999998
20
-46.3347772164388
30
0
0
SPLINE
5
FF
100
AcDbEntity
8
1
62
256
6
ByLayer
370
13
48
1
60
0
100
AcDbSpline
70
4
71
3
72
8
73
4
40
0
40
0
40
0
40
0
40
1
40
1
40
1
40
1
41
1
10
22.7502539343693
20
-47.8915441388089
30
0
41
1
10
22.9152679960139
20
-48.1184245054477
30
0
41
1
10
23.0810637492405
20
-48.3450886152064
30
0
41
1
10
23.2475952641915
20
-48.5715457797306
30
0
0
SPLINE
5
100
100
AcDbEntity
8
1
62
256
6
ByLayer
370
13
48
1
60
0
100
AcDbSpline
70
4
71
3
72
8
73
4
40
0
40
0
40
0
40
0
40
1
40
1
40
1
40
1
41
1
10
16.7524047358086
20
31.35
30
0
41
1
10
17.2165101588005
20
31.35
30
0
41
1
10
17.6745061705188
20
31.35
30
0
41
1
10
18.1250000000002
20
31.35
30
0
0
SPLINE
5
101
100
AcDbEntity
8
1
62
256
6
ByLayer
370
13
48
1
60
0
100
AcDbSpline
70
4
71
3
72
8
73
4
40
0
40
0
40
0
40
0
40
1
40
1
40
1
40
1
41
1
10
16.7524047358082
20
-48.5715457797306
30
0
41
1
10
16.9189362507585
20
-48.3450886152072
30
0
41
1
10
17.0847320039832
20
-48.1184245054524
30
0
41
1
10
17.2497460656272
20
-47.8915441388144
30
0
0
SPLINE
5
102
100
AcDbEntity
8
1
62
256
6
ByLayer
370
13
48
1
60
0
100
AcDbSpline
70
4
71
3
72
8
73
4
40
0
40
0
40
0
40
0
40
1
40
1
40
1
40
1
41
1
10
18.1249999999998
20
-46.3347772164388
30
0
41
1
10
17.8334411419126
20
-46.8538076791153
30
0
41
1
10
17.5416837782353
20
-47.3727266748905
30
0
41
1
10
17.2497460656272
20
-47.8915441388144
30
0
0
SPLINE
5
103
100
AcDbEntity
8
1
62
256
6
ByLayer
370
13
48
1
60
0
100
AcDbSpline
70
2053
71
3
72
155
73
151
40
0
40
0
40
0
40
0
40
0.0156250000000012
40
0.0312500000000023
40
0.0468750000000035
40
0.0468750000000035
40
0.0507812500000038
40
0.0507812500000038
40
0.0546875000000042
40
0.0546875000000042
40
0.0625000000000048
40
0.0625000000000048
40
0.078125000000006
40
0.0937500000000072
40
0.0937500000000072
40
0.101562500000008
40
0.105468750000008
40
0.105468750000008
40
0.109375000000008
40
0.109375000000008
40
0.12500000000001
40
0.140625000000011
40
0.156250000000013
40
0.156250000000013
40
0.164062500000013
40
0.164062500000013
40
0.171875000000014
40
0.171875000000014
40
0.187500000000015
40
0.203125000000016
40
0.203125000000016
40
0.210937500000016
40
0.210937500000016
40
0.218750000000016
40
0.218750000000016
40
0.234375000000017
40
0.250000000000017
40
0.265625000000018
40
0.265625000000018
40
0.269531250000018
40
0.269531250000018
40
0.273437500000018
40
0.281250000000018
40
0.281250000000018
40
0.296875000000018
40
0.312500000000018
40
0.312500000000018
40
0.320312500000018
40
0.320312500000018
40
0.324218750000018
40
0.324218750000018
40
0.328125000000018
40
0.343750000000018
40
0.359375000000018
40
0.375000000000018
40
0.375000000000018
40
0.382812500000018
40
0.382812500000018
40
0.390625000000018
40
0.390625000000018
40
0.406250000000018
40
0.421875000000018
40
0.421875000000018
40
0.429687500000018
40
0.429687500000018
40
0.437500000000018
40
0.437500000000018
40
0.453125000000018
40
0.468750000000018
40
0.468750000000018
40
0.476562500000018
40
0.480468750000018
40
0.480468750000018
40
0.484375000000018
40
0.484375000000018
40
0.500000000000018
40
0.515625000000018
40
0.531250000000018
40
0.531250000000018
40
0.535156250000018
40
0.535156250000018
40
0.539062500000018
40
0.539062500000018
40
0.546875000000018
40
0.546875000000018
40
0.562500000000018
40
0.578125000000018
40
0.578125000000018
40
0.585937500000018
40
0.585937500000018
40
0.593750000000018
40
0.593750000000018
40
0.609375000000018
40
0.625000000000018
40
0.640625000000017
40
0.640625000000017
40
0.648437500000017
40
0.648437500000017
40
0.656250000000017
40
0.656250000000017
40
0.671875000000017
40
0.687500000000016
40
0.687500000000016
40
0.695312500000016
40
0.695312500000016
40
0.699218750000016
40
0.699218750000016
40
0.703125000000016
40
0.718750000000015
40
0.734375000000014
40
0.750000000000013
40
0.750000000000013
40
0.753906250000013
40
0.753906250000013
40
0.757812500000013
40
0.765625000000012
40
0.765625000000012
40
0.781250000000011
40
0.796875000000011
40
0.796875000000011
40
0.80468750000001
40
0.80468750000001
40
0.81250000000001
40
0.81250000000001
40
0.828125000000008
40
0.843750000000007
40
0.843750000000007
40
0.851562500000007
40
0.851562500000007
40
0.859375000000006
40
0.859375000000006
40
0.875000000000005
40
0.890625000000004
40
0.906250000000003
40
0.906250000000003
40
0.910156250000003
40
0.910156250000003
40
0.914062500000002
40
0.914062500000002
40
0.921875000000002
40
0.921875000000002
40
0.937500000000002
40
0.953125000000001
40
0.953125000000001
40
0.960937500000001
40
0.960937500000001
40
0.968750000000001
40
0.968750000000001
40
0.984375000000001
40
1
40
1
40
1
40
1
41
1
10
9.52499959227744
20
-6.95229165E-08
30
0
41
1
10
9.52499918455476
20
0.0834209376245383
30
0
41
1
10
9.51675468034702
20
0.248856615062522
30
0
41
1
10
9.4805053802678
20
0.492936027326863
30
0
41
1
10
9.44052067226792
20
0.652957453232403
30
0
41
1
10
9.41047442921607
20
0.752108619359433
30
0
41
1
10
9.40421180655622
20
0.771895641963255
30
0
41
1
10
9.39117459134189
20
0.811382380007757
30
0
41
1
10
9.38439040510966
20
0.831108460862652
30
0
41
1
10
9.36333661164269
20
0.889944139175554
30
0
41
1
10
9.34838767967187
20
0.928661503629144
30
0
41
1
10
9.30085736747856
20
1.04332540654718
30
0
41
1
10
9.23034048316359
20
1.19224925338435
30
0
41
1
10
9.14580393020836
20
1.33340043463696
30
0
41
1
10
9.07709148251246
20
1.43632083107209
30
0
41
1
10
9.0414056109216
20
1.48704409749303
30
0
41
1
10
9.00369242698923
20
1.53664396016467
30
0
41
1
10
8.97809481565847
20
1.569458155718
30
0
41
1
10
8.96505554080196
20
1.58575361552653
30
0
41
1
10
8.89906617669661
20
1.66616253048332
30
0
41
1
10
8.7879571818896
20
1.78861513954644
30
0
41
1
10
8.60522388884874
20
1.95426605504443
30
0
41
1
10
8.47271305500215
20
2.05271327253672
30
0
41
1
10
8.36921327075407
20
2.12193370527851
30
0
41
1
10
8.33392688189053
20
2.14429293139995
30
0
41
1
10
8.26261777744651
20
2.18704125474534
30
0
41
1
10
8.22656778816693
20
2.20745632476115
30
0
41
1
10
8.11725305162943
20
2.26587695297516
30
0
41
1
10
7.9683995626628
20
2.33625238843698
30
0
41
1
10
7.81343529603868
20
2.39181337241138
30
0
41
1
10
7.69488804170695
20
2.42785119124193
30
0
41
1
10
7.65498426182415
20
2.43892331177497
30
0
41
1
10
7.57438654110808
20
2.45915257870484
30
0
41
1
10
7.53360978974715
20
2.46832156053003
30
0
41
1
10
7.41138114408867
20
2.49264736356562
30
0
41
1
10
7.2479691895976
20
2.51683107046299
30
0
41
1
10
7.00156524874998
20
2.52901784501853
30
0
41
1
10
6.83643785583931
20
2.52106953620182
30
0
41
1
10
6.73295687419252
20
2.51092521150963
30
0
41
1
10
6.71221832352262
20
2.50863321593869
30
0
41
1
10
6.67086952190098
20
2.5035440167093
30
0
41
1
10
6.60906639027507
20
2.49515775814291
30
0
41
1
10
6.54791535127382
20
2.48454183376961
30
0
41
1
10
6.42646827349535
20
2.46038634611571
30
0
41
1
10
6.26681484624464
20
2.42039633254976
30
0
41
1
10
6.11166036402778
20
2.36501974743791
30
0
41
1
10
5.99701061413103
20
2.31761676523251
30
0
41
1
10
5.95908055771017
20
2.30083560508598
30
0
41
1
10
5.9026237537644
20
2.27416436651794
30
0
41
1
10
5.88386354512039
20
2.2650159436518
30
0
41
1
10
5.84669319121852
20
2.24631791990021
30
0
41
1
10
5.75452772892549
20
2.19851109265139
30
0
41
1
10
5.59535761634979
20
2.10306426850229
30
0
41
1
10
5.39714633856161
20
1.95622428262928
30
0
41
1
10
5.27438873442966
20
1.84521941016712
30
0
41
1
10
5.18596018803552
20
1.75687806591347
30
0
41
1
10
5.1572582651398
20
1.72674365985756
30
0
41
1
10
5.10161167829116
20
1.66537159464588
30
0
41
1
10
5.07462801620571
20
1.63409511176707
30
0
41
1
10
4.99615894127751
20
1.53852000400525
30
0
41
1
10
4.89814154064885
20
1.40643872856893
30
0
41
1
10
4.81323777455549
20
1.26513067745776
30
0
41
1
10
4.75458331343847
20
1.15561404419026
30
0
41
1
10
4.73586095959317
20
1.11849787206469
30
0
41
1
10
4.70017007036282
20
1.04314207031095
30
0
41
1
10
4.68333143217927
20
1.00517933021465
30
0
41
1
10
4.63577286674368
20
0.890454322526352
30
0
41
1
10
4.58023235351504
20
0.735260544888092
30
0
41
1
10
4.54012234485936
20
0.575699642549779
30
0
41
1
10
4.51587689129218
20
0.454376682892501
30
0
41
1
10
4.50521577742441
20
0.393301468702504
30
0
41
1
10
4.49678171912004
20
0.33159580999029
30
0
41
1
10
4.49165920925373
20
0.290317103204671
30
0
41
1
10
4.48934537730514
20
0.269577758296066
30
0
41
1
10
4.4790819049899
20
0.165945153263323
30
0
41
1
10
4.47097571977056
20
0.000650907197155
30
0
41
1
10
4.48295956765884
20
-0.245786657016254
30
0
41
1
10
4.50697718749845
20
-0.409080039697244
30
0
41
1
10
4.52712321017401
20
-0.510818604053867
30
0
41
1
10
4.53140976241673
20
-0.531150289832425
30
0
41
1
10
4.54050318475612
20
-0.571781258249729
30
0
41
1
10
4.54531403979053
20
-0.592093481311622
30
0
41
1
10
4.56044891885071
20
-0.652646104646408
30
0
41
1
10
4.57149712740025
20
-0.692609561718371
30
0
41
1
10
4.60746151226388
20
-0.811308457702182
30
0
41
1
10
4.6629199472649
20
-0.966402053526934
30
0
41
1
10
4.73314310245968
20
-1.11525831817985
30
0
41
1
10
4.79141519657301
20
-1.22453347999138
30
0
41
1
10
4.81177500517813
20
-1.2605633296011
30
0
41
1
10
4.85439838274937
20
-1.33181914536081
30
0
41
1
10
4.87672476063827
20
-1.36713365502135
30
0
41
1
10
4.9459370474483
20
-1.47083618328875
30
0
41
1
10
5.04435227429641
20
-1.6035463059288
30
0
41
1
10
5.20984791710074
20
-1.78641228914736
30
0
41
1
10
5.33209225807639
20
-1.89752858997303
30
0
41
1
10
5.42837452783499
20
-1.97670050123307
30
0
41
1
10
5.46129288912366
20
-2.00243084873296
30
0
41
1
10
5.52796051505027
20
-2.05193777482842
30
0
41
1
10
5.56178785300114
20
-2.07578298124008
30
0
41
1
10
5.66472530193062
20
-2.14464056210397
30
0
41
1
10
5.80584956467732
20
-2.22932181942323
30
0
41
1
10
5.95462741240345
20
-2.29992488881598
30
0
41
1
10
6.06912852103196
20
-2.34751179441486
30
0
41
1
10
6.10778270844938
20
-2.36247827231952
30
0
41
1
10
6.16650892005009
20
-2.3835583043581
30
0
41
1
10
6.1862364154797
20
-2.39036553785982
30
0
41
1
10
6.22576875708742
20
-2.40346157706762
30
0
41
1
10
6.32480845042889
20
-2.43490973659075
30
0
41
1
10
6.50492826421126
20
-2.4800826797879
30
0
41
1
10
6.74893368144109
20
-2.51652863408592
30
0
41
1
10
6.91417682109429
20
-2.52491504155094
30
0
41
1
10
7.01828447334842
20
-2.52501964637941
30
0
41
1
10
7.03915744351207
20
-2.52478207364584
30
0
41
1
10
7.0807546161206
20
-2.52379419125518
30
0
41
1
10
7.14301231920282
20
-2.52154365076024
30
0
41
1
10
7.20486068138416
20
-2.51701382560282
30
0
41
1
10
7.32802002241053
20
-2.50496184663768
30
0
41
1
10
7.4908019431949
20
-2.48092688572294
30
0
41
1
10
7.65074940177473
20
-2.44110708897136
30
0
41
1
10
7.76962618991155
20
-2.40520558970252
30
0
41
1
10
7.80907082979758
20
-2.39223051783085
30
0
41
1
10
7.88759058639346
20
-2.36422194580297
30
0
41
1
10
7.92641365950124
20
-2.34927616675677
30
0
41
1
10
8.04125250311463
20
-2.30179958501273
30
0
41
1
10
8.19033463602611
20
-2.23136470190172
30
0
41
1
10
8.33151909504326
20
-2.14696951577614
30
0
41
1
10
8.43442543448566
20
-2.07840027988712
30
0
41
1
10
8.46822966765919
20
-2.05466350389537
30
0
41
1
10
8.53482802902357
20
-2.00540354855522
30
0
41
1
10
8.56765655853755
20
-1.97985214092804
30
0
41
1
10
8.6643745056343
20
-1.90063803172941
30
0
41
1
10
8.78705567298914
20
-1.78952250814032
30
0
41
1
10
8.95287996282897
20
-1.60690577399933
30
0
41
1
10
9.05136378258976
20
-1.47458621851385
30
0
41
1
10
9.1090559168521
20
-1.38850196069845
30
0
41
1
10
9.1204008829622
20
-1.37111548959581
30
0
41
1
10
9.1426997977465
20
-1.33599968825354
30
0
41
1
10
9.15366805506204
20
-1.31824588743086
30
0
41
1
10
9.18582965423778
20
-1.26471616070413
30
0
41
1
10
9.20630398634054
20
-1.22864075425844
30
0
41
1
10
9.26488405615837
20
-1.1192706307352
30
0
41
1
10
9.33542328750789
20
-0.970398853406778
30
0
41
1
10
9.39109325327786
20
-0.815542434749176
30
0
41
1
10
9.42720767662527
20
-0.697130365655198
30
0
41
1
10
9.43830447828358
20
-0.657280714703717
30
0
41
1
10
9.45858413216183
20
-0.576810828453461
30
0
41
1
10
9.46778439761982
20
-0.536096351341143
30
0
41
1
10
9.49228835060535
20
-0.413594368510729
30
0
41
1
10
9.51675229523258
20
-0.249377559196802
30
0
41
1
10
9.52500000000012
20
-0.083421076670362
30
0
41
1
10
9.52499959227744
20
-6.95229163E-08
30
0
0
SPLINE
5
104
100
AcDbEntity
8
1
62
256
6
ByLayer
370
13
48
1
60
0
100
AcDbSpline
70
4
71
3
72
69
73
65
40
0
40
0
40
0
40
0
40
0.0625029310068039
40
0.0625029310068039
40
0.125005862013608
40
0.125005862013608
40
0.132818728389458
40
0.132818728389458
40
0.140631594765308
40
0.156257327517009
40
0.156257327517009
40
0.18750879302041
40
0.18750879302041
40
0.218760258523811
40
0.218760258523811
40
0.250011724027211
40
0.250011724027211
40
0.312514655034013
40
0.312514655034013
40
0.328140387785714
40
0.328140387785714
40
0.343766120537414
40
0.343766120537414
40
0.375017586040816
40
0.375017586040816
40
0.406269051544218
40
0.406269051544218
40
0.43752051704762
40
0.43752051704762
40
0.500023448054423
40
0.500023448054423
40
0.531274913557825
40
0.531274913557825
40
0.546900646309526
40
0.546900646309526
40
0.562526379061227
40
0.562526379061227
40
0.625029310068031
40
0.625029310068031
40
0.687532241074834
40
0.687532241074834
40
0.750035172081638
40
0.750035172081638
40
0.757848038457489
40
0.757848038457489
40
0.765660904833339
40
0.765660904833339
40
0.78128663758504
40
0.78128663758504
40
0.812538103088442
40
0.812538103088442
40
0.843789568591844
40
0.843789568591844
40
0.875041034095245
40
0.875041034095245
40
0.937543965102049
40
0.937543965102049
40
0.96879543060545
40
0.96879543060545
40
0.976608296981301
40
0.976608296981301
40
0.984421163357151
40
0.984421163357151
40
1
40
1
40
1
40
1
41
1
10
15.0000000000002
20
48.8081517870829
30
0
41
1
10
14.6430152875579
20
48.8081651614552
30
0
41
1
10
14.2880055903402
20
48.812186804312
30
0
41
1
10
13.5818901939238
20
48.8280350897321
30
0
41
1
10
13.2307824370595
20
48.8398576350849
30
0
41
1
10
12.8379855877516
20
48.8573573441141
30
0
41
1
10
12.794351776322
20
48.8593621526865
30
0
41
1
10
12.707339283362
20
48.8634802617577
30
0
41
1
10
12.5771483195781
20
48.8698224427212
30
0
41
1
10
12.4479309572717
20
48.8766503174939
30
0
41
1
10
12.1907714963995
20
48.8909294463354
30
0
41
1
10
12.0210270860657
20
48.9012776825671
30
0
41
1
10
11.6848571468659
20
48.9235216224921
30
0
41
1
10
11.5184477588713
20
48.9354256391411
30
0
41
1
10
11.1889008492215
20
48.9606730570558
30
0
41
1
10
11.0257698492889
20
48.9740199367832
30
0
41
1
10
10.5413517666715
20
49.0161104878246
30
0
41
1
10
10.2248918356628
20
49.0468371738445
30
0
41
1
10
9.83761797526014
20
49.0881087681668
30
0
41
1
10
9.76057840667312
20
49.0965057870566
30
0
41
1
10
9.60733515358544
20
49.1135715948666
30
0
41
1
10
9.5310372353384
20
49.1222516013559
30
0
41
1
10
9.30450584866009
20
49.1485482899722
30
0
41
1
10
9.15639480928127
20
49.1664421905901
30
0
41
1
10
8.86587656399152
20
49.20281508449
30
0
41
1
10
8.72350832346828
20
49.221302117567
30
0
41
1
10
8.44437161200426
20
49.2587177992524
30
0
41
1
10
8.30760818969921
20
49.2776476251904
30
0
41
1
10
7.90567184855672
20
49.3348995971266
30
0
41
1
10
7.6488205604181
20
49.3736822381623
30
0
41
1
10
7.28028036581895
20
49.4319624052654
30
0
41
1
10
7.16022490008899
20
49.4514062747463
30
0
41
1
10
6.98439678956973
20
49.4804959688719
30
0
41
1
10
6.92647380342032
20
49.4901836329472
30
0
41
1
10
6.81215360823347
20
49.5094993775972
30
0
41
1
10
6.75594135788268
20
49.5190961532746
30
0
41
1
10
6.47954166683184
20
49.5667342952092
30
0
41
1
10
6.27337317592517
20
49.6037419824405
30
0
41
1
10
5.88995988798592
20
49.6745943471393
30
0
41
1
10
5.71273344326985
20
49.7084419984601
30
0
41
1
10
5.38723585428571
20
49.7720540873285
30
0
41
1
10
5.23895595419555
20
49.801819632214
30
0
41
1
10
5.08885870347365
20
49.8324730434485
30
0
41
1
10
5.07241533370038
20
49.835839663374
30
0
41
1
10
5.03999886937132
20
49.8424923070469
30
0
41
1
10
5.02401773315688
20
49.845779996714
30
0
41
1
10
4.97690577117436
20
49.8554938908589
30
0
41
1
10
4.94657107729159
20
49.8617780965653
30
0
41
1
10
4.85874387620959
20
49.8800454682151
30
0
41
1
10
4.80441717073484
20
49.8914432365086
30
0
41
1
10
4.70409853313302
20
49.9126261173702
30
0
41
1
10
4.65814049751728
20
49.9224116306362
30
0
41
1
10
4.57442769620042
20
49.9403179246805
30
0
41
1
10
4.53667914981128
20
49.948438871686
30
0
41
1
10
4.43588824913323
20
49.9702293861585
30
0
41
1
10
4.38510543478063
20
49.9813259091255
30
0
41
1
10
4.33406978287945
20
49.9925092621856
30
0
41
1
10
4.32126949700509
20
49.9953266764381
30
0
41
1
10
4.31060010195824
20
49.9976756091666
30
0
41
1
10
4.30873288182508
20
49.998086748922
30
0
41
1
10
4.3055338720522
20
49.9987908417169
30
0
41
1
10
4.30420273817685
20
49.9990836497284
30
0
41
1
10
4.30102804092977
20
49.9997807869699
30
0
41
1
10
4.29998176161843
20
50.0000077548593
30
0
41
1
10
4.29999759532433
20
49.9999997978874
30
0
0
SPLINE
5
105
100
AcDbEntity
8
1
62
256
6
ByLayer
370
13
48
1
60
0
100
AcDbSpline
70
4
71
3
72
54
73
50
40
0
40
0
40
0
40
0
40
0.125000000000003
40
0.125000000000003
40
0.132812500000003
40
0.132812500000003
40
0.140625000000003
40
0.156250000000003
40
0.187500000000003
40
0.187500000000003
40
0.218750000000004
40
0.250000000000004
40
0.250000000000004
40
0.312500000000005
40
0.312500000000005
40
0.343750000000005
40
0.343750000000005
40
0.351562500000005
40
0.351562500000005
40
0.359375000000005
40
0.375000000000005
40
0.375000000000005
40
0.437500000000005
40
0.437500000000005
40
0.500000000000006
40
0.500000000000006
40
0.531250000000006
40
0.531250000000006
40
0.562500000000006
40
0.562500000000006
40
0.625000000000005
40
0.625000000000005
40
0.656250000000005
40
0.656250000000005
40
0.687500000000005
40
0.687500000000005
40
0.750000000000005
40
0.750000000000005
40
0.765625000000004
40
0.765625000000004
40
0.781250000000004
40
0.781250000000004
40
0.812500000000004
40
0.812500000000004
40
0.875000000000002
40
0.875000000000002
40
0.937500000000001
40
0.937500000000001
40
1
40
1
40
1
40
1
41
1
10
4.29999999999984
20
-49.9897129500524
30
0
41
1
10
4.30014467580347
20
-49.9752166528867
30
0
41
1
10
4.3690420541534
20
-49.945557671362
30
0
41
1
10
4.51491341898853
20
-49.8988715686914
30
0
41
1
10
4.52377185673186
20
-49.8960679218422
30
0
41
1
10
4.54200088696683
20
-49.8903600699228
30
0
41
1
10
4.57011510107967
20
-49.88164656174
30
0
41
1
10
4.64106716634242
20
-49.8602682787572
30
0
41
1
10
4.71092082298298
20
-49.8402014452942
30
0
41
1
10
4.81189527601583
20
-49.8119851338878
30
0
41
1
10
4.92081881871542
20
-49.7823120236793
30
0
41
1
10
5.04532407148014
20
-49.7498962441087
30
0
41
1
10
5.24396262575553
20
-49.6993562419711
30
0
41
1
10
5.39188567421147
20
-49.6630942926695
30
0
41
1
10
5.63774961409172
20
-49.6053967836479
30
0
41
1
10
5.72370494056474
20
-49.5856136740984
30
0
41
1
10
5.83623931146914
20
-49.5602542167665
30
0
41
1
10
5.8589905338242
20
-49.5551531319314
30
0
41
1
10
5.90487881925765
20
-49.5449171023528
30
0
41
1
10
5.97433218471085
20
-49.5295027391803
30
0
41
1
10
6.0456340794961
20
-49.5139164642299
30
0
41
1
10
6.28735340101036
20
-49.4616188838788
30
0
41
1
10
6.49390553681249
20
-49.4187140763616
30
0
41
1
10
6.93263467664406
20
-49.3317911581453
30
0
41
1
10
7.16483884205192
20
-49.2877739014394
30
0
41
1
10
7.53270944623065
20
-49.2217210012808
30
0
41
1
10
7.65858943995488
20
-49.1996976458373
30
0
41
1
10
7.91700926955801
20
-49.1557827649629
30
0
41
1
10
8.04958882955557
20
-49.1338847948814
30
0
41
1
10
8.45730565331505
20
-49.0686413428089
30
0
41
1
10
8.73815595101715
20
-49.0264352862092
30
0
41
1
10
9.17263990645651
20
-48.9658083604208
30
0
41
1
10
9.31968597523942
20
-48.9460504212185
30
0
41
1
10
9.61817925087411
20
-48.9075520757964
30
0
41
1
10
9.76962440919016
20
-48.8888107998442
30
0
41
1
10
10.2306588889501
20
-48.8343240373849
30
0
41
1
10
10.546873743976
20
-48.8002932471782
30
0
41
1
10
10.9536154578132
20
-48.7612920653965
30
0
41
1
10
11.0355407712538
20
-48.7536696205847
30
0
41
1
10
11.2005598780988
20
-48.7387975993984
30
0
41
1
10
11.2837080514964
20
-48.7315433589107
30
0
41
1
10
11.5345792658099
20
-48.7103954714516
30
0
41
1
10
11.7026626917832
20
-48.697205136734
30
0
41
1
10
12.2093740064917
20
-48.660439476831
30
0
41
1
10
12.5504555843483
20
-48.6396671425435
30
0
41
1
10
13.2391078950315
20
-48.6060834488736
30
0
41
1
10
13.5866413843497
20
-48.5932238339619
30
0
41
1
10
14.2883217865569
20
-48.5759615156306
30
0
41
1
10
14.6424690941965
20
-48.5715600838914
30
0
41
1
10
14.9999999999999
20
-48.5715457797306
30
0
0
SPLINE
5
106
100
AcDbEntity
8
1
62
256
6
ByLayer
370
13
48
1
60
0
100
AcDbSpline
70
4
71
3
72
38
73
34
40
0
40
0
40
0
40
0
40
0.125000000000021
40
0.125000000000021
40
0.15625000000002
40
0.15625000000002
40
0.18750000000002
40
0.250000000000017
40
0.250000000000017
40
0.28125000000002
40
0.28125000000002
40
0.312500000000022
40
0.312500000000022
40
0.375000000000026
40
0.375000000000026
40
0.437500000000031
40
0.437500000000031
40
0.468750000000021
40
0.468750000000021
40
0.500000000000011
40
0.562500000000002
40
0.562500000000002
40
0.593749999999996
40
0.593749999999996
40
0.62499999999999
40
0.62499999999999
40
0.749999999999981
40
0.749999999999981
40
0.812499999999983
40
0.812499999999983
40
0.874999999999984
40
0.874999999999984
40
1
40
1
40
1
40
1
41
1
10
5.91129160301938
20
31.35
30
0
41
1
10
5.86714479942319
20
31.35
30
0
41
1
10
5.82395162024028
20
31.3545012073096
30
0
41
1
10
5.77124013997724
20
31.3661642941856
30
0
41
1
10
5.7607231416963
20
31.3688137169389
30
0
41
1
10
5.74002351272631
20
31.3746897348813
30
0
41
1
10
5.70956638751494
20
31.3843363327878
30
0
41
1
10
5.6808365636675
20
31.3964093985289
30
0
41
1
10
5.65323353523684
20
31.41006291864
30
0
41
1
10
5.64422076948722
20
31.4148781204457
30
0
41
1
10
5.6265729089115
20
31.4250377679431
30
0
41
1
10
5.6179108579679
20
31.4304019408127
30
0
41
1
10
5.59283640945335
20
31.4470618750264
30
0
41
1
10
5.57724542382402
20
31.4589626073341
30
0
41
1
10
5.54813756757216
20
31.4842237590651
30
0
41
1
10
5.5346215340652
20
31.4975847769096
30
0
41
1
10
5.51583746583773
20
31.5186719061934
30
0
41
1
10
5.50984030787401
20
31.5258611614922
30
0
41
1
10
5.49845817101803
20
31.5404134012429
30
0
41
1
10
5.48225322585841
20
31.5625593295736
30
0
41
1
10
5.46851409155053
20
31.5856050267736
30
0
41
1
10
5.4562986063311
20
31.6092042408451
30
0
41
1
10
5.45248138908045
20
31.6171631478555
30
0
41
1
10
5.44534327622662
20
31.6332609008499
30
0
41
1
10
5.44202130713762
20
31.6414067083443
30
0
41
1
10
5.42676767633387
20
31.682168088074
30
0
41
1
10
5.41870589952029
20
31.7151935271287
30
0
41
1
10
5.41184762674249
20
31.7652461463889
30
0
41
1
10
5.41044312334202
20
31.7820171029103
30
0
41
1
10
5.40932072288251
20
31.8157236137359
30
0
41
1
10
5.40960896149323
20
31.8327067234996
30
0
41
1
10
5.41289919297049
20
31.8833489600934
30
0
41
1
10
5.41828559233795
20
31.9168122388754
30
0
41
1
10
5.42660738912531
20
31.9500000000001
30
0
0
SPLINE
5
107
100
AcDbEntity
8
1
62
256
6
ByLayer
370
13
48
1
60
0
100
AcDbSpline
70
4
71
3
72
52
73
48
40
0
40
0
40
0
40
0
40
0.0624999999999959
40
0.0624999999999959
40
0.124999999999992
40
0.124999999999992
40
0.15624999999999
40
0.15624999999999
40
0.171874999999989
40
0.179687499999988
40
0.179687499999988
40
0.187499999999987
40
0.187499999999987
40
0.249999999999987
40
0.249999999999987
40
0.312499999999986
40
0.312499999999986
40
0.343749999999986
40
0.343749999999986
40
0.359374999999986
40
0.359374999999986
40
0.374999999999986
40
0.374999999999986
40
0.437499999999988
40
0.437499999999988
40
0.49999999999999
40
0.49999999999999
40
0.562499999999991
40
0.562499999999991
40
0.578124999999992
40
0.578124999999992
40
0.593749999999992
40
0.624999999999993
40
0.624999999999993
40
0.687499999999994
40
0.687499999999994
40
0.749999999999995
40
0.749999999999995
40
0.812499999999997
40
0.812499999999997
40
0.843749999999997
40
0.843749999999997
40
0.874999999999997
40
0.874999999999997
40
0.937499999999998
40
0.937499999999998
40
1
40
1
40
1
40
1
41
1
10
15.0000000000002
20
38.9509627608869
30
0
41
1
10
14.6834251942005
20
38.9509627608869
30
0
41
1
10
14.3702977962237
20
38.9389076006867
30
0
41
1
10
13.7506118244006
20
38.8917291120499
30
0
41
1
10
13.4440545522153
20
38.8566008933724
30
0
41
1
10
12.9890674263249
20
38.7866676131656
30
0
41
1
10
12.8382147680907
20
38.7604760800361
30
0
41
1
10
12.6131542200691
20
38.7168151555608
30
0
41
1
10
12.5009286967454
20
38.6938906552882
30
0
41
1
10
12.3891622987515
20
38.6693094057048
30
0
41
1
10
12.314753705315
20
38.6525515921538
30
0
41
1
10
12.2775708554108
20
38.6439804592937
30
0
41
1
10
11.944119471471
20
38.5653378427279
30
0
41
1
10
11.6568047783781
20
38.484954771775
30
0
41
1
10
11.0990575912883
20
38.3041513241456
30
0
41
1
10
10.8286310037722
20
38.2037244576797
30
0
41
1
10
10.4350937284007
20
38.0382239111559
30
0
41
1
10
10.3059353404774
20
37.9805756425206
30
0
41
1
10
10.1151868276356
20
37.8903643569517
30
0
41
1
10
10.0521023516701
20
37.8596705289786
30
0
41
1
10
9.92692522695739
20
37.7970303443946
30
0
41
1
10
9.86475477595511
20
37.7650420770246
30
0
41
1
10
9.55754697905329
20
37.6025787848435
30
0
41
1
10
9.32336107273213
20
37.4645759769316
30
0
41
1
10
8.8761545307961
20
37.1731679495125
30
0
41
1
10
8.66314135863712
20
37.0197585001685
30
0
41
1
10
8.25688306281577
20
36.6978324495435
30
0
41
1
10
8.06364247563286
20
36.5293133642627
30
0
41
1
10
7.83382398828641
20
36.3092470578705
30
0
41
1
10
7.78854625835172
20
36.2648557516399
30
0
41
1
10
7.69946343739747
20
36.1754625153976
30
0
41
1
10
7.567980655979
20
36.040391464085
30
0
41
1
10
7.44273988711808
20
35.9024128403895
30
0
41
1
10
7.20015248306359
20
35.6226585705182
30
0
41
1
10
7.04893905894392
20
35.4310969811352
30
0
41
1
10
6.76565511572548
20
35.0381670607809
30
0
41
1
10
6.6335891405823
20
34.83679746393
30
0
41
1
10
6.3871272816547
20
34.42444701543
30
0
41
1
10
6.27273437728817
20
34.2134653515468
30
0
41
1
10
6.11350583755137
20
33.8898701981615
30
0
41
1
10
6.0624917507046
20
33.7808174743967
30
0
41
1
10
5.96445914997651
20
33.5603451523474
30
0
41
1
10
5.91740653069036
20
33.448831632284
30
0
41
1
10
5.78256102960367
20
33.1120350812301
30
0
41
1
10
5.70091544507028
20
32.8841826668772
30
0
41
1
10
5.5527248568722
20
32.4219587494723
30
0
41
1
10
5.48618206932403
20
32.1875869425849
30
0
41
1
10
5.42660738912525
20
31.9500000000001
30
0
0
SPLINE
5
108
100
AcDbEntity
8
1
62
256
6
ByLayer
370
13
48
1
60
0
100
AcDbSpline
70
4
71
3
72
8
73
4
40
0
40
0
40
0
40
0
40
1
40
1
40
1
40
1
41
1
10
23.2475952641918
20
48.808151787083
30
0
41
1
10
23.0837956344331
20
48.5805940688914
30
0
41
1
10
22.9207410275358
20
48.3528257641513
30
0
41
1
10
22.7584773430982
20
48.1248376620591
30
0
0
SPLINE
5
109
100
AcDbEntity
8
1
62
256
6
ByLayer
370
13
48
1
60
0
100
AcDbSpline
70
4
71
3
72
10
73
6
40
0
40
0
40
0
40
0
40
0.81138202666171
40
0.81138202666171
40
1
40
1
40
1
40
1
41
1
10
22.7584773430982
20
48.1248376620591
30
0
41
1
10
22.5194056674406
20
47.7019081996381
30
0
41
1
10
22.2804327719561
20
47.2789228814547
30
0
41
1
10
21.9860386387564
20
46.7575339329939
30
0
41
1
10
21.9305163785084
20
46.6591873280943
30
0
41
1
10
21.8750000000002
20
46.560837403305
30
0
0
SPLINE
5
10A
100
AcDbEntity
8
1
62
256
6
ByLayer
370
13
48
1
60
0
100
AcDbSpline
70
4
71
3
72
8
73
4
40
0
40
0
40
0
40
0
40
1
40
1
40
1
40
1
41
1
10
29.0000000000002
20
48.2441072412541
30
0
41
1
10
28.7673489931282
20
48.432452817111
30
0
41
1
10
28.5340025920145
20
48.6204628411964
30
0
41
1
10
28.3000000000002
20
48.808151787083
30
0
0
SPLINE
5
10B
100
AcDbEntity
8
1
62
256
6
ByLayer
370
13
48
1
60
0
100
AcDbSpline
70
4
71
3
72
10
73
6
40
0
40
0
40
0
40
0
40
0.18861797333772
40
0.18861797333772
40
1
40
1
40
1
40
1
41
1
10
18.1250000000002
20
46.560837403305
30
0
41
1
10
18.069483621492
20
46.6591873280943
30
0
41
1
10
18.013961361244
20
46.7575339329939
30
0
41
1
10
17.7195672280434
20
47.2789228814563
30
0
41
1
10
17.480594332558
20
47.7019081996412
30
0
41
1
10
17.2415226568995
20
48.1248376620638
30
0
0
SPLINE
5
10C
100
AcDbEntity
8
1
62
256
6
ByLayer
370
13
48
1
60
0
100
AcDbSpline
70
4
71
3
72
8
73
4
40
0
40
0
40
0
40
0
40
1
40
1
40
1
40
1
41
1
10
17.2415226568995
20
48.1248376620638
30
0
41
1
10
17.0792589724625
20
48.3528257641553
30
0
41
1
10
16.9162043655667
20
48.5805940688922
30
0
41
1
10
16.7524047358086
20
48.808151787083
30
0
0
SPLINE
5
10D
100
AcDbEntity
8
1
62
256
6
ByLayer
370
13
48
1
60
0
100
AcDbSpline
70
4
71
3
72
28
73
24
40
0
40
0
40
0
40
0
40
0.124999999999996
40
0.124999999999996
40
0.187499999999997
40
0.187499999999997
40
0.249999999999999
40
0.249999999999999
40
0.374999999999992
40
0.374999999999992
40
0.437500000000001
40
0.437500000000001
40
0.500000000000011
40
0.500000000000011
40
0.62500000000002
40
0.62500000000002
40
0.75000000000003
40
0.75000000000003
40
0.812500000000022
40
0.812500000000022
40
0.875000000000015
40
0.875000000000015
40
1
40
1
40
1
40
1
41
1
10
18.6250000000002
20
44.8998886412872
30
0
41
1
10
18.5915809606591
20
44.8998886412872
30
0
41
1
10
18.5587436003199
20
44.9032866620018
30
0
41
1
10
18.5103220550957
20
44.9132586021781
30
0
41
1
10
18.4943216845433
20
44.9174012708756
30
0
41
1
10
18.4626074973091
20
44.9273605830647
30
0
41
1
10
18.4468953245135
20
44.9331902622737
30
0
41
1
10
18.4012528859098
20
44.9527934773305
30
0
41
1
10
18.3724324696623
20
44.9687641693618
30
0
41
1
10
18.3315838758828
20
44.9970192771225
30
0
41
1
10
18.3182984881045
20
45.0072218426641
30
0
41
1
10
18.2929706984127
20
45.0287598081158
30
0
41
1
10
18.2809230323377
20
45.0400837806655
30
0
41
1
10
18.2465707559053
20
45.0756684636046
30
0
41
1
10
18.2260399624341
20
45.1015267143355
30
0
41
1
10
18.1898308168466
20
45.1576134362418
30
0
41
1
10
18.1746912147782
20
45.187022424662
30
0
41
1
10
18.1563054761955
20
45.2329078604253
30
0
41
1
10
18.1508966660854
20
45.2485102577996
30
0
41
1
10
18.1415416050303
20
45.2803393836084
30
0
41
1
10
18.1375901302129
20
45.2966222495424
30
0
41
1
10
18.1281611611722
20
45.345587418152
30
0
41
1
10
18.1250000000003
20
45.3786055808533
30
0
41
1
10
18.1250000000002
20
45.4120028186372
30
0
0
SPLINE
5
10E
100
AcDbEntity
8
1
62
256
6
ByLayer
370
13
48
1
60
0
100
AcDbSpline
70
4
71
3
72
8
73
4
40
0
40
0
40
0
40
0
40
1
40
1
40
1
40
1
41
1
10
28.3000000000002
20
38.9509627608868
30
0
41
1
10
28.5339969876105
20
38.6505889433681
30
0
41
1
10
28.767379332801
20
38.3496381611426
30
0
41
1
10
29.0000000000002
20
38.0482259770412
30
0
0
SPLINE
5
10F
100
AcDbEntity
8
1
62
256
6
ByLayer
370
13
48
1
60
0
100
AcDbSpline
70
4
71
3
72
8
73
4
40
0
40
0
40
0
40
0
40
1
40
1
40
1
40
1
41
1
10
23.2475952641919
20
38.9509627608869
30
0
41
1
10
22.7837719655162
20
37.9197103063941
30
0
41
1
10
22.3258863212611
20
36.8856057532513
30
0
41
1
10
21.8750000000002
20
35.8481391385523
30
0
0
SPLINE
5
110
100
AcDbEntity
8
1
62
256
6
ByLayer
370
13
48
1
60
0
100
AcDbSpline
70
4
71
3
72
33
73
29
40
0
40
0
40
0
40
0
40
0.124999999999997
40
0.124999999999997
40
0.156249999999997
40
0.156249999999997
40
0.187499999999998
40
0.249999999999998
40
0.249999999999998
40
0.281249999999996
40
0.281249999999996
40
0.312499999999994
40
0.312499999999994
40
0.375
40
0.375
40
0.437500000000005
40
0.437500000000005
40
0.50000000000001
40
0.50000000000001
40
0.625000000000002
40
0.625000000000002
40
0.749999999999994
40
0.749999999999994
40
0.812500000000001
40
0.812500000000001
40
0.875000000000007
40
0.875000000000007
40
1
40
1
40
1
40
1
41
1
10
18.6250000000002
20
33.6627019117598
30
0
41
1
10
18.5856595747851
20
33.6627019117598
30
0
41
1
10
18.5474826805975
20
33.6689552871454
30
0
41
1
10
18.5010851479786
20
33.6838855894173
30
0
41
1
10
18.491835376293
20
33.6872483344361
30
0
41
1
10
18.4736859619416
20
33.6946049395663
30
0
41
1
10
18.4469973063746
20
33.7065714687781
30
0
41
1
10
18.4218125403517
20
33.72115451512
30
0
41
1
10
18.3975434345708
20
33.7373306576556
30
0
41
1
10
18.3896068487736
20
33.742989101711
30
0
41
1
10
18.3740307432717
20
33.7548228353063
30
0
41
1
10
18.3663920241141
20
33.7610005541854
30
0
41
1
10
18.3441844203451
20
33.7800406339259
30
0
41
1
10
18.3302181335954
20
33.7934827068206
30
0
41
1
10
18.3037686466514
20
33.8216906365811
30
0
41
1
10
18.2912864587477
20
33.8364573970044
30
0
41
1
10
18.2676861344711
20
33.8672084526912
30
0
41
1
10
18.2565412531801
20
33.8832368750273
30
0
41
1
10
18.2252290240623
20
33.9327687928025
30
0
41
1
10
18.2074950641545
20
33.9671260625267
30
0
41
1
10
18.1772710282951
20
34.0380711324551
30
0
41
1
10
18.1647935392279
20
34.0746642865973
30
0
41
1
10
18.1497673419408
20
34.131123606028
30
0
41
1
10
18.1453950608697
20
34.1501580045573
30
0
41
1
10
18.1379539467635
20
34.1882753728547
30
0
41
1
10
18.1348705073242
20
34.2074117200036
30
0
41
1
10
18.1274735547611
20
34.2650466819743
30
0
41
1
10
18.1250000000002
20
34.3037695829934
30
0
41
1
10
18.1250000000002
20
34.3427940039828
30
0
0
SPLINE
5
111
100
AcDbEntity
8
1
62
256
6
ByLayer
370
13
48
1
60
0
100
AcDbSpline
70
4
71
3
72
8
73
4
40
0
40
0
40
0
40
0
40
1
40
1
40
1
40
1
41
1
10
18.1250000000002
20
35.8481391385523
30
0
41
1
10
17.6741136787393
20
36.8856057532513
30
0
41
1
10
17.2162280344842
20
37.9197103063941
30
0
41
1
10
16.7524047358086
20
38.9509627608869
30
0
0
SPLINE
5
112
100
AcDbEntity
8
1
62
256
6
ByLayer
370
13
48
1
60
0
100
AcDbSpline
70
4
71
3
72
28
73
24
40
0
40
0
40
0
40
0
40
0.124999999999981
40
0.124999999999981
40
0.249999999999961
40
0.249999999999961
40
0.312499999999951
40
0.312499999999951
40
0.374999999999941
40
0.374999999999941
40
0.499999999999938
40
0.499999999999938
40
0.562499999999949
40
0.562499999999949
40
0.62499999999996
40
0.62499999999996
40
0.687499999999971
40
0.687499999999971
40
0.749999999999981
40
0.749999999999981
40
0.874999999999991
40
0.874999999999991
40
1
40
1
40
1
40
1
41
1
10
21.8750000000002
20
34.3427940039828
30
0
41
1
10
21.8750000000002
20
34.3037713913122
30
0
41
1
10
21.8725266780212
20
34.2650972067445
30
0
41
1
10
21.8627003831061
20
34.1884362562066
30
0
41
1
10
21.8553499369041
20
34.1504491342838
30
0
41
1
10
21.8403719759964
20
34.0940252286723
30
0
41
1
10
21.8347076158151
20
34.0753024688843
30
0
41
1
10
21.8221510935465
20
34.0385781763595
30
0
41
1
10
21.8152435146268
20
34.0205110569521
30
0
41
1
10
21.7925580965232
20
33.9672298120936
30
0
41
1
10
21.7748443778105
20
33.9329232352011
30
0
41
1
10
21.7437038944381
20
33.8836057609094
30
0
41
1
10
21.7325055719302
20
33.8674716271113
30
0
41
1
10
21.7088338900354
20
33.8366010035065
30
0
41
1
10
21.6963281191061
20
33.8218006909061
30
0
41
1
10
21.6698706575966
20
33.7935705937443
30
0
41
1
10
21.6559198293979
20
33.780139991767
30
0
41
1
10
21.6264009944253
20
33.7548116451744
30
0
41
1
10
21.6107306519659
20
33.74285578172
30
0
41
1
10
21.5621384143414
20
33.7104371077691
30
0
41
1
10
21.5274227409715
20
33.6931041458379
30
0
41
1
10
21.4526559087385
20
33.668955389215
30
0
41
1
10
21.4143327460136
20
33.6627019117598
30
0
41
1
10
21.3750000000002
20
33.6627019117598
30
0
0
SPLINE
5
113
100
AcDbEntity
8
1
62
256
6
ByLayer
370
13
48
1
60
0
100
AcDbSpline
70
4
71
3
72
28
73
24
40
0
40
0
40
0
40
0
40
0.125000000000006
40
0.125000000000006
40
0.187499999999995
40
0.187499999999995
40
0.249999999999984
40
0.249999999999984
40
0.374999999999981
40
0.374999999999981
40
0.43749999999998
40
0.43749999999998
40
0.499999999999978
40
0.499999999999978
40
0.624999999999985
40
0.624999999999985
40
0.687499999999988
40
0.687499999999988
40
0.749999999999991
40
0.749999999999991
40
0.874999999999995
40
0.874999999999995
40
1
40
1
40
1
40
1
41
1
10
21.8750000000002
20
45.4120028186381
30
0
41
1
10
21.8750000000002
20
45.3785922574777
30
0
41
1
10
21.8718366824811
20
45.3457181208836
30
0
41
1
10
21.8625307410552
20
45.2971803488634
30
0
41
1
10
21.8586630972585
20
45.2811309300908
30
0
41
1
10
21.8493613741867
20
45.2492977233168
30
0
41
1
10
21.8438928075796
20
45.2334418518622
30
0
41
1
10
21.8254130159428
20
45.1872058558761
30
0
41
1
10
21.8103139870718
20
45.1579237350707
30
0
41
1
10
21.7835234618161
20
45.1162985168549
30
0
41
1
10
21.7738982167478
20
45.102809067501
30
0
41
1
10
21.7532008452972
20
45.0766328955443
30
0
41
1
10
21.742242312935
20
45.0640972493725
30
0
41
1
10
21.7078469537112
20
45.0284173260411
30
0
41
1
10
21.6827966977661
20
45.007043712429
30
0
41
1
10
21.6419670335576
20
44.9786873126164
30
0
41
1
10
21.6277263418301
20
44.9698152321877
30
0
41
1
10
21.598680093666
20
44.9536920079801
30
0
41
1
10
21.5838494120561
20
44.9464109338543
30
0
41
1
10
21.5384518921259
20
44.9268656806042
30
0
41
1
10
21.5069888268745
20
44.9168760000474
30
0
41
1
10
21.441541845087
20
44.9032942068233
30
0
41
1
10
21.40843387357
20
44.8998886412866
30
0
41
1
10
21.3750000000002
20
44.8998886412866
30
0
0
SPLINE
5
114
100
AcDbEntity
8
SK1
62
256
6
ByLayer
370
13
48
1
60
0
100
AcDbSpline
70
4
71
3
72
14
73
10
40
0
40
0
40
0
40
0
40
0.25
40
0.25
40
0.5
40
0.5
40
0.75
40
0.75
40
1
40
1
40
1
40
1
41
1
10
-48.1000748840303
20
32.2182589409728
30
0
41
1
10
-48.1388926321786
20
32.2181224123664
30
0
41
1
10
-48.1772436801226
20
32.2178709818835
30
0
41
1
10
-48.2530787560301
20
32.2171066502646
30
0
41
1
10
-48.2905999031657
20
32.216592709512
30
0
41
1
10
-48.3640629388762
20
32.215266598635
30
0
41
1
10
-48.4001752814362
20
32.2144520156058
30
0
41
1
10
-48.4708038316264
20
32.212459870552
30
0
41
1
10
-48.5053145321597
20
32.2112837002444
30
0
41
1
10
-48.5391399270738
20
32.2098745072741
30
0
0
SPLINE
5
115
100
AcDbEntity
8
SK1
62
256
6
ByLayer
370
13
48
1
60
0
100
AcDbSpline
70
4
71
3
72
68
73
64
40
0
40
0
40
0
40
0
40
0.0625000000000268
40
0.0625000000000268
40
0.125000000000054
40
0.125000000000054
40
0.18750000000008
40
0.18750000000008
40
0.218750000000093
40
0.218750000000093
40
0.250000000000105
40
0.250000000000105
40
0.281250000000117
40
0.281250000000117
40
0.312500000000129
40
0.312500000000129
40
0.343750000000141
40
0.343750000000141
40
0.375000000000154
40
0.375000000000154
40
0.382812500000156
40
0.382812500000156
40
0.390625000000159
40
0.390625000000159
40
0.406250000000162
40
0.406250000000162
40
0.414062500000163
40
0.414062500000163
40
0.421875000000164
40
0.421875000000164
40
0.437500000000164
40
0.437500000000164
40
0.453125000000165
40
0.453125000000165
40
0.468750000000165
40
0.468750000000165
40
0.476562500000165
40
0.476562500000165
40
0.484375000000165
40
0.484375000000165
40
0.500000000000163
40
0.500000000000163
40
0.531250000000153
40
0.531250000000153
40
0.562500000000142
40
0.562500000000142
40
0.578125000000137
40
0.578125000000137
40
0.593750000000131
40
0.593750000000131
40
0.625000000000122
40
0.625000000000122
40
0.687500000000102
40
0.687500000000102
40
0.750000000000081
40
0.750000000000081
40
0.812500000000061
40
0.812500000000061
40
0.875000000000041
40
0.875000000000041
40
0.93750000000002
40
0.93750000000002
40
1
40
1
40
1
40
1
41
1
10
-48.5391427448776
20
32.2098712427876
30
0
41
1
10
-48.5772446441659
20
32.1705668145206
30
0
41
1
10
-48.6154019925343
20
32.1301102763687
30
0
41
1
10
-48.6920314777049
20
32.0467518132986
30
0
41
1
10
-48.730499993048
20
32.0038521783148
30
0
41
1
10
-48.808104704684
20
31.9153615751968
30
0
41
1
10
-48.8472316515605
20
31.8697765401382
30
0
41
1
10
-48.9069320820672
20
31.799032827632
30
0
41
1
10
-48.9270105402578
20
31.7750466999026
30
0
41
1
10
-48.9675359632787
20
31.7263337798359
30
0
41
1
10
-48.9879950081615
20
31.7015920084888
30
0
41
1
10
-49.0295092693122
20
31.6512247110775
30
0
41
1
10
-49.0505617920966
20
31.6256007377081
30
0
41
1
10
-49.0935889782051
20
31.5732866633537
30
0
41
1
10
-49.1155454534641
20
31.5466163100078
30
0
41
1
10
-49.1604301312778
20
31.4925108926275
30
0
41
1
10
-49.1833948470483
20
31.4650243221204
30
0
41
1
10
-49.2311245822817
20
31.4089153333972
30
0
41
1
10
-49.2558633313785
20
31.3803043225074
30
0
41
1
10
-49.2888642191948
20
31.3434698270837
30
0
41
1
10
-49.2955977880168
20
31.3360195423748
30
0
41
1
10
-49.3091640700069
20
31.3211639439374
30
0
41
1
10
-49.3159956010698
20
31.3137593287804
30
0
41
1
10
-49.3366557245361
20
31.2916268601811
30
0
41
1
10
-49.350649144324
20
31.2769801161663
30
0
41
1
10
-49.3720632232381
20
31.2552250001941
30
0
41
1
10
-49.3793079044338
20
31.2479741139319
30
0
41
1
10
-49.3937812566285
20
31.2337255130021
30
0
41
1
10
-49.4009712918477
20
31.2267647095466
30
0
41
1
10
-49.4224009938459
20
31.2063742198839
30
0
41
1
10
-49.4365004093026
20
31.1934383020025
30
0
41
1
10
-49.4643187617599
20
31.1688459153914
30
0
41
1
10
-49.4781316154339
20
31.1571193125793
30
0
41
1
10
-49.5043247401436
20
31.1356771871676
30
0
41
1
10
-49.5168415988695
20
31.1258329583922
30
0
41
1
10
-49.5349098856325
20
31.1120716960363
30
0
41
1
10
-49.5408142708685
20
31.107652983872
30
0
41
1
10
-49.5524077279466
20
31.0991098371041
30
0
41
1
10
-49.5581093456831
20
31.0949766536352
30
0
41
1
10
-49.5747536222703
20
31.0830794299278
30
0
41
1
10
-49.5852871275567
20
31.0757763917478
30
0
41
1
10
-49.6155897196945
20
31.0552010388217
30
0
41
1
10
-49.6340819336721
20
31.0432332397185
30
0
41
1
10
-49.6687978466371
20
31.0211208376339
30
0
41
1
10
-49.6850054981765
20
31.0109979894258
30
0
41
1
10
-49.7080289758557
20
30.9965478121654
30
0
41
1
10
-49.7154838178255
20
30.9918587415737
30
0
41
1
10
-49.7299402081535
20
30.9827012206276
30
0
41
1
10
-49.7369516388505
20
30.9782266976171
30
0
41
1
10
-49.7574073411285
20
30.9650207854207
30
0
41
1
10
-49.7702767935664
20
30.9565023793168
30
0
41
1
10
-49.8069636313675
20
30.9312807274057
30
0
41
1
10
-49.8288824097641
20
30.9148827226323
30
0
41
1
10
-49.8686108197537
20
30.8814496147893
30
0
41
1
10
-49.8864023632967
20
30.864437265851
30
0
41
1
10
-49.9181800587109
20
30.8291225817747
30
0
41
1
10
-49.9321599667076
20
30.810828197796
30
0
41
1
10
-49.9563498034241
20
30.7726122401338
30
0
41
1
10
-49.9665572197555
20
30.7526938407238
30
0
41
1
10
-49.9830769650729
20
30.7110705714139
30
0
41
1
10
-49.9893853757643
20
30.6893441787363
30
0
41
1
10
-49.9978393372942
20
30.644372458785
30
0
41
1
10
-49.9999999999997
20
30.6210985245092
30
0
41
1
10
-49.9999999999997
20
30.5970958615104
30
0
0
SPLINE
5
116
100
AcDbEntity
8
SK1
62
256
6
ByLayer
370
13
48
1
60
0
100
AcDbSpline
70
4
71
1
72
4
73
2
40
0
40
0
40
1
40
1
41
1
10
-48.1000748840305
20
-32.2182589409724
30
0
41
1
10
-48.0842927581485
20
-32.2484596662751
30
0
0
SPLINE
5
117
100
AcDbEntity
8
SK1
62
256
6
ByLayer
370
13
48
1
60
0
100
AcDbSpline
70
4
71
3
72
97
73
93
40
0
40
0
40
0
40
0
40
0.0011078740807061
40
0.0022288242411492
40
0.0033635115696011
40
0.0045125734444169
40
0.0056766236317454
40
0.0068562525025074
40
0.0080520273536013
40
0.0092644928186498
40
0.0104941713542923
40
0.0117415637888363
40
0.0130071499210888
40
0.0142913891582249
40
0.0155947211826536
40
0.0169175666389568
40
0.018260327833017
40
0.01962338943652
40
0.0210071191909405
40
0.0224118686060489
40
0.0238379736487723
40
0.0252857554189894
40
0.0267555208094908
40
0.0282475631479373
40
0.0297621628191278
40
0.0312995878663686
40
0.0328600945710793
40
0.0344439280101339
40
0.0360513225906725
40
0.0376825025623721
40
0.039337682507351
40
0.0410170678080197
40
0.0427208550933337
40
0.0444492326639907
40
0.0462023808971869
40
0.0479804726316084
40
0.0497836735333758
40
0.0516121424436687
40
0.053466031708791
40
0.0553454874934313
40
0.0572506500778728
40
0.0591816541398953
40
0.0611386290221042
40
0.0631216989853936
40
0.0651309834492409
40
0.0671665972195009
40
0.0692286507043407
40
0.0713172501189393
40
0.0734324976795442
40
0.075574491787444
40
0.0777433272034138
40
0.0799390952131339
40
0.0821618837840756
40
0.0844117777143232
40
0.0866888587737666
40
0.0889932058380864
40
0.0913248950159274
40
0.0936839997696285
40
0.0960705910298712
40
0.0984847373045723
40
0.100926504782342
40
0.103395957430802
40
0.105893157090048
40
0.108418163561515
40
0.110971034692498
40
0.113551826456574
40
0.116160593030129
40
0.11879738686521
40
0.141425703766739
40
0.166069174051008
40
0.192746989530339
40
0.221474265055304
40
0.252263097262197
40
0.306160419472447
40
0.365692285806472
40
0.430884418285907
40
0.501756376248132
40
0.529388694230729
40
0.55781643885911
40
0.58704026210438
40
0.61706076407111
40
0.647878498323445
40
0.679493976548676
40
0.711907672654206
40
0.745120026378126
40
0.779131446480688
40
0.813942313573489
40
0.849552982634339
40
0.885963785248664
40
0.923175031612186
40
0.961187012324627
40
1
40
1
40
1
40
1
41
1
10
-39.32976854075
20
-31.7181118380391
30
0
41
1
10
-39.3311726803618
20
-31.7195027886091
30
0
41
1
10
-39.333997532445
20
-31.7223011069401
30
0
41
1
10
-39.3385507654337
20
-31.7264421873663
30
0
41
1
10
-39.3433641020929
20
-31.7305722311067
30
0
41
1
10
-39.3484593031545
20
-31.7346853357091
30
0
41
1
10
-39.3538304136464
20
-31.7387831003519
30
0
41
1
10
-39.3594790456691
20
-31.7428650769421
30
0
41
1
10
-39.3654047460032
20
-31.7469313769116
30
0
41
1
10
-39.3716076272767
20
-31.7509819590454
30
0
41
1
10
-39.3780876488141
20
-31.7550168240342
30
0
41
1
10
-39.3848448132063
20
-31.7590359612033
30
0
41
1
10
-39.3918791124621
20
-31.763039363022
30
0
41
1
10
-39.3991905426562
20
-31.7670270210802
30
0
41
1
10
-39.4067790998276
20
-31.7709989271474
30
0
41
1
10
-39.4146447810083
20
-31.7749550728489
30
0
41
1
10
-39.4227875838475
20
-31.7788954497283
30
0
41
1
10
-39.4312075066226
20
-31.7828200492126
30
0
41
1
10
-39.4399045481487
20
-31.7867288626086
30
0
41
1
10
-39.4488787077192
20
-31.7906218810967
30
0
41
1
10
-39.4581299850442
20
-31.7944990957299
30
0
41
1
10
-39.4676583801949
20
-31.7983604974344
30
0
41
1
10
-39.4774638935525
20
-31.802206077013
30
0
41
1
10
-39.4875465257617
20
-31.80603582515
30
0
41
1
10
-39.4979062776886
20
-31.8098497324177
30
0
41
1
10
-39.5085431503834
20
-31.813647789283
30
0
41
1
10
-39.5194571450467
20
-31.8174299861156
30
0
41
1
10
-39.5306482630004
20
-31.8211963131963
30
0
41
1
10
-39.5421165056613
20
-31.824946760725
30
0
41
1
10
-39.5538618745183
20
-31.8286813188296
30
0
41
1
10
-39.565884371113
20
-31.8323999775743
30
0
41
1
10
-39.5781839970224
20
-31.8361027269676
30
0
41
1
10
-39.5907607538443
20
-31.8397895569708
30
0
41
1
10
-39.6036146431847
20
-31.8434604575051
30
0
41
1
10
-39.6167456666476
20
-31.8471154184594
30
0
41
1
10
-39.6301538258251
20
-31.850754429697
30
0
41
1
10
-39.6438391222916
20
-31.8543774810624
30
0
41
1
10
-39.6578015575958
20
-31.8579845623871
30
0
41
1
10
-39.6720411332576
20
-31.8615756634959
30
0
41
1
10
-39.6865578507624
20
-31.8651507742122
30
0
41
1
10
-39.7013517115597
20
-31.8687098843626
30
0
41
1
10
-39.716422717059
20
-31.8722529837823
30
0
41
1
10
-39.7317708686296
20
-31.8757800623188
30
0
41
1
10
-39.7473961675983
20
-31.8792911098365
30
0
41
1
10
-39.7632986152493
20
-31.88278611622
30
0
41
1
10
-39.7794782128236
20
-31.8862650713776
30
0
41
1
10
-39.795934961519
20
-31.8897279652447
30
0
41
1
10
-39.8126688624904
20
-31.8931747877865
30
0
41
1
10
-39.8296799168504
20
-31.8966055290006
30
0
41
1
10
-39.8469681256697
20
-31.9000201789197
30
0
41
1
10
-39.864533489978
20
-31.9034187276135
30
0
41
1
10
-39.8823760107652
20
-31.9068011651912
30
0
41
1
10
-39.9004956889819
20
-31.910167481803
30
0
41
1
10
-39.9188925255411
20
-31.913517667642
30
0
41
1
10
-39.9375665213188
20
-31.9168517129457
30
0
41
1
10
-39.9565176771556
20
-31.9201696079977
30
0
41
1
10
-39.9757459938575
20
-31.9234713431284
30
0
41
1
10
-39.9952514721973
20
-31.9267569087172
30
0
41
1
10
-40.015034112917
20
-31.9300262951922
30
0
41
1
10
-40.0350939167225
20
-31.9332794930336
30
0
41
1
10
-40.0554308843108
20
-31.9365164927678
30
0
41
1
10
-40.0760450162713
20
-31.9397372849933
30
0
41
1
10
-40.0969363134674
20
-31.942941860286
30
0
41
1
10
-40.1181047755927
20
-31.9461302095627
30
0
41
1
10
-40.1395504066544
20
-31.9493023227051
30
0
41
1
10
-40.1612731941762
20
-31.9524581937827
30
0
41
1
10
-40.1832731880938
20
-31.9555978012429
30
0
41
1
10
-40.2617703821041
20
-31.9666036171027
30
0
41
1
10
-40.4035261602469
20
-31.9848319645069
30
0
41
1
10
-40.6158853282588
20
-32.0086481004766
30
0
41
1
10
-40.8477430494171
20
-32.0314597139365
30
0
41
1
10
-41.0991064919522
20
-32.0532451988524
30
0
41
1
10
-41.431656559829
20
-32.0787191637814
30
0
41
1
10
-41.8571316158086
20
-32.106276544473
30
0
41
1
10
-42.3869890641404
20
-32.1343934850656
30
0
41
1
10
-42.9695942773325
20
-32.1596544071604
30
0
41
1
10
-43.4587378059814
20
-32.1768455468732
30
0
41
1
10
-43.8386690931262
20
-32.1883923332855
30
0
41
1
10
-44.0941735249016
20
-32.1955097877759
30
0
41
1
10
-44.3570502300329
20
-32.2022043298608
30
0
41
1
10
-44.6273003721042
20
-32.2084723192663
30
0
41
1
10
-44.9049236812052
20
-32.2143113681421
30
0
41
1
10
-45.1899202806678
20
-32.219718783259
30
0
41
1
10
-45.4822901794491
20
-32.2246919964681
30
0
41
1
10
-45.7820334098933
20
-32.229228463445
30
0
41
1
10
-46.0891500074508
20
-32.2333256220621
30
0
41
1
10
-46.4036399494883
20
-32.2369811768103
30
0
41
1
10
-46.7255034331494
20
-32.2401919684937
30
0
41
1
10
-47.054739793274
20
-32.2429583500792
30
0
41
1
10
-47.3913516816328
20
-32.2452673042749
30
0
41
1
10
-47.7353289548819
20
-32.2471575346079
30
0
41
1
10
-47.9671657502314
20
-32.2480226158284
30
0
41
1
10
-48.0842927581485
20
-32.2484596662751
30
0
0
SPLINE
5
118
100
AcDbEntity
8
SK1
62
256
6
ByLayer
370
13
48
1
60
0
100
AcDbSpline
70
4
71
3
72
36
73
32
40
0
40
0
40
0
40
0
40
0.124999999999999
40
0.124999999999999
40
0.156249999999999
40
0.156249999999999
40
0.187499999999999
40
0.187499999999999
40
0.249999999999999
40
0.249999999999999
40
0.374999999999998
40
0.374999999999998
40
0.437499999999998
40
0.437499999999998
40
0.499999999999999
40
0.499999999999999
40
0.562499999999999
40
0.562499999999999
40
0.624999999999999
40
0.624999999999999
40
0.687499999999999
40
0.687499999999999
40
0.749999999999999
40
0.749999999999999
40
0.812499999999999
40
0.812499999999999
40
0.875
40
0.875
40
0.9375
40
0.9375
40
1
40
1
40
1
40
1
41
1
10
-34.9999999999999
20
-33.7652133089884
30
0
41
1
10
-34.9999999999999
20
-33.7033077951577
30
0
41
1
10
-35.0140116311888
20
-33.639320156982
30
0
41
1
10
-35.0455592212411
20
-33.5564555206524
30
0
41
1
10
-35.0525753587708
20
-33.5397400613237
30
0
41
1
10
-35.0679492078073
20
-33.5060228510509
30
0
41
1
10
-35.0763045150313
20
-33.4890282277286
30
0
41
1
10
-35.1032020684878
20
-33.4377483627106
30
0
41
1
10
-35.1235933435028
20
-33.4031255234389
30
0
41
1
10
-35.1912183999465
20
-33.2979581432137
30
0
41
1
10
-35.2448876982755
20
-33.2261079711834
30
0
41
1
10
-35.3351338149788
20
-33.115152504612
30
0
41
1
10
-35.3668453674601
20
-33.0776362134234
30
0
41
1
10
-35.4329981630616
20
-33.0014714844346
30
0
41
1
10
-35.4674438444572
20
-32.9628221027846
30
0
41
1
10
-35.5382676624026
20
-32.8845560554345
30
0
41
1
10
-35.5746634675055
20
-32.84491381977
30
0
41
1
10
-35.6488637448668
20
-32.7643995518073
30
0
41
1
10
-35.6866868717037
20
-32.7235192056054
30
0
41
1
10
-35.7628928428109
20
-32.640470981688
30
0
41
1
10
-35.8012854657078
20
-32.5982924573297
30
0
41
1
10
-35.8778202241004
20
-32.5123505982477
30
0
41
1
10
-35.9160132743285
20
-32.4685637349537
30
0
41
1
10
-35.990373832689
20
-32.3794650666431
30
0
41
1
10
-36.0265797754252
20
-32.334127091833
30
0
41
1
10
-36.0953707431871
20
-32.2414594960639
30
0
41
1
10
-36.1279754105715
20
-32.1941428007888
30
0
41
1
10
-36.1858570479146
20
-32.0974346972709
30
0
41
1
10
-36.2112402983897
20
-32.0479935554326
30
0
41
1
10
-36.2510401130891
20
-31.9463727108944
30
0
41
1
10
-36.265332357101
20
-31.8942087969093
30
0
41
1
10
-36.2716164913268
20
-31.8404933918876
30
0
0
SPLINE
5
119
100
AcDbEntity
8
SK1
62
256
6
ByLayer
370
13
48
1
60
0
100
AcDbSpline
70
4
71
3
72
8
73
4
40
0
40
0
40
0
40
0
40
1
40
1
40
1
40
1
41
1
10
-34.7003757972132
20
-34.061047512297
30
0
41
1
10
-34.8002505314755
20
-33.9624361111941
30
0
41
1
10
-34.9001252657378
20
-33.8638247100913
30
0
41
1
10
-35.0000000000001
20
-33.7652133089884
30
0
0
SPLINE
5
11A
100
AcDbEntity
8
SK1
62
256
6
ByLayer
370
13
48
1
60
0
100
AcDbSpline
70
4
71
1
72
4
73
2
40
0
40
0
40
1
40
1
41
1
10
-39.3455506666321
20
-31.714313477135
30
0
41
1
10
-39.3297685407501
20
-31.7181118380391
30
0
0
SPLINE
5
11B
100
AcDbEntity
8
SK1
62
256
6
ByLayer
370
13
48
1
60
0
100
AcDbSpline
70
4
71
2
72
8
73
5
40
0
40
0
40
0
40
0.571428571428571
40
0.571428571428571
40
1
40
1
40
1
41
1
10
-37.0000000000001
20
-30.7335482623249
30
0
41
1
10
-37.9334645573819
20
-30.9870427963571
30
0
41
1
10
-38.5142892291897
20
-31.2354621658338
30
0
41
1
10
-39.0788146643328
20
-31.4769103333425
30
0
41
1
10
-39.3297685407501
20
-31.7181118380391
30
0
0
SPLINE
5
11C
100
AcDbEntity
8
SK1
62
256
6
ByLayer
370
13
48
1
60
0
100
AcDbSpline
70
4
71
1
72
4
73
2
40
0
40
0
40
1
40
1
41
1
10
-37.0157821258821
20
-30.7201927959535
30
0
41
1
10
-37.0000000000001
20
-30.7335482623249
30
0
0
SPLINE
5
11D
100
AcDbEntity
8
SK1
62
256
6
ByLayer
370
13
48
1
60
0
100
AcDbSpline
70
4
71
1
72
4
73
2
40
0
40
0
40
1
40
1
41
1
10
-36.172530233042
20
-31.8560106019463
30
0
41
1
10
-36.2716164913268
20
-31.8404933918876
30
0
0
SPLINE
5
11E
100
AcDbEntity
8
SK1
62
256
6
ByLayer
370
13
48
1
60
0
100
AcDbSpline
70
4
71
3
72
66
73
62
40
0
40
0
40
0
40
0
40
0.0240030191245925
40
0.0477592000595571
40
0.0712690682931736
40
0.094533166004741
40
0.117552052739842
40
0.140326306117893
40
0.162856522573602
40
0.185143318134148
40
0.207187329234041
40
0.228989213569547
40
0.250549650994869
40
0.271869344462244
40
0.292949021008326
40
0.313789432789236
40
0.334391358166903
40
0.354755602849381
40
0.37488300108791
40
0.394774416933768
40
0.414430745557936
40
0.433852914636837
40
0.453041885807494
40
0.471998656195659
40
0.490724260020482
40
0.509219770279525
40
0.558435185976559
40
0.604719913174793
40
0.648104042460085
40
0.688624126927858
40
0.726325051093637
40
0.761262566511909
40
0.773295002339964
40
0.784356832254019
40
0.794449056147114
40
0.803572992714136
40
0.811730430269899
40
0.818923878010264
40
0.825157009446439
40
0.854051834201414
40
0.884843697191813
40
0.891824406704701
40
0.898527108195396
40
0.904966751594056
40
0.911160192058666
40
0.917126371768805
40
0.922886475390852
40
0.928464036237468
40
0.93388496550435
40
0.939177475409212
40
0.944371871035966
40
0.949770394413083
40
0.955095160774412
40
0.960388189564664
40
0.965692254568842
40
0.971049865247597
40
0.976502278807133
40
0.982088652397028
40
0.987845410249351
40
0.993805853762834
40
1
40
1
40
1
40
1
41
1
10
-36.2716164913268
20
-31.8404933918876
30
0
41
1
10
-36.2728251506202
20
-31.8310451620741
30
0
41
1
10
-36.2752300398009
20
-31.8122458645553
30
0
41
1
10
-36.2791453233569
20
-31.7840995205722
30
0
41
1
10
-36.2832643460867
20
-31.7561779325964
30
0
41
1
10
-36.287610347424
20
-31.7284758059277
30
0
41
1
10
-36.2921778989913
20
-31.7009962461235
30
0
41
1
10
-36.2969691619321
20
-31.6737402325157
30
0
41
1
10
-36.3019843223716
20
-31.6467093950702
30
0
41
1
10
-36.3072241126152
20
-31.6199052824206
30
0
41
1
10
-36.3126891450183
20
-31.593329555265
30
0
41
1
10
-36.3183800862508
20
-31.5669839357654
30
0
41
1
10
-36.3242976099299
20
-31.5408702212864
30
0
41
1
10
-36.3304424076191
20
-31.5149902811794
30
0
41
1
10
-36.3368151843781
20
-31.489346058043
30
0
41
1
10
-36.3434166583324
20
-31.4639395678067
30
0
41
1
10
-36.3502475590888
20
-31.4387729001314
30
0
41
1
10
-36.3573086265138
20
-31.4138482187221
30
0
41
1
10
-36.3646006089097
20
-31.3891677616881
30
0
41
1
10
-36.3721242629162
20
-31.3647338418076
30
0
41
1
10
-36.3798803469212
20
-31.3405488471176
30
0
41
1
10
-36.3878696380145
20
-31.3166152403147
30
0
41
1
10
-36.3960928624172
20
-31.2929355624968
30
0
41
1
10
-36.40455094279
20
-31.269512420978
30
0
41
1
10
-36.4132440840841
20
-31.2463485354474
30
0
41
1
10
-36.4271565021077
20
-31.2106727302335
30
0
41
1
10
-36.4468137247979
20
-31.1635518111151
30
0
41
1
10
-36.4734276454207
20
-31.106073368334
30
0
41
1
10
-36.5011979130115
20
-31.0521951133813
30
0
41
1
10
-36.5301481386329
20
-31.0019575321797
30
0
41
1
10
-36.5602211695095
20
-30.9554028736754
30
0
41
1
10
-36.5855800891743
20
-30.9208250032368
30
0
41
1
10
-36.604242553966
20
-30.8973284016418
30
0
41
1
10
-36.6150906248567
20
-30.8839499896246
30
0
41
1
10
-36.6252415928307
20
-30.8717991816747
30
0
41
1
10
-36.6346759620076
20
-30.8608656091511
30
0
41
1
10
-36.6433973432447
20
-30.8511401054137
30
0
41
1
10
-36.6513928478246
20
-30.8426127514704
30
0
41
1
10
-36.667896326928
20
-30.8260163866812
30
0
41
1
10
-36.6977723334026
20
-30.80084563089
30
0
41
1
10
-36.7329849065342
20
-30.7770692573312
30
0
41
1
10
-36.7583965020012
20
-30.7621639586448
30
0
41
1
10
-36.7704803255007
20
-30.7556850609451
30
0
41
1
10
-36.7826112151327
20
-30.749732478042
30
0
41
1
10
-36.7948055055641
20
-30.7443118601838
30
0
41
1
10
-36.8070593833945
20
-30.7394230891882
30
0
41
1
10
-36.8193740600575
20
-30.7350676464976
30
0
41
1
10
-36.8317493327813
20
-30.7312467858732
30
0
41
1
10
-36.844185011318
20
-30.727961934648
30
0
41
1
10
-36.8566806942342
20
-30.7252147687624
30
0
41
1
10
-36.869451955795
20
-30.7229681470018
30
0
41
1
10
-36.8824796923429
20
-30.7212617668181
30
0
41
1
10
-36.8957351075089
20
-30.7201445304309
30
0
41
1
10
-36.9089547176361
20
-30.7196498629378
30
0
41
1
10
-36.9221353031704
20
-30.719777421716
30
0
41
1
10
-36.9352740135752
20
-30.7205259870904
30
0
41
1
10
-36.9483675208013
20
-30.7218947520862
30
0
41
1
10
-36.9614170614038
20
-30.7238796888426
30
0
41
1
10
-36.974409703203
20
-30.7264881750585
30
0
41
1
10
-36.9873916214066
20
-30.7296827000749
30
0
41
1
10
-36.9957436773371
20
-30.7322433300461
30
0
41
1
10
-37.0000000000001
20
-30.7335482623248
30
0
0
SPLINE
5
11F
100
AcDbEntity
8
1
62
256
6
ByLayer
370
13
48
1
60
0
100
AcDbSpline
70
4
71
3
72
26
73
22
40
0
40
0
40
0
40
0
40
0.122239008779387
40
0.244478017558773
40
0.244478017558773
40
0.36671702633816
40
0.36671702633816
40
0.488956035117547
40
0.488956035117547
40
0.611195043896933
40
0.611195043896933
40
0.73343405267632
40
0.73343405267632
40
0.763993804871167
40
0.763993804871167
40
0.794553557066015
40
0.794553557066015
40
0.85567306145571
40
0.85567306145571
40
0.9779120702351
40
1
40
1
40
1
40
1
41
1
10
56.5085996955822
20
-26.3815342860349
30
0
41
1
10
56.420871482506
20
-26.3888411660824
30
0
41
1
10
56.2542180387606
20
-26.4034795483362
30
0
41
1
10
56.104960295012
20
-26.4177511320501
30
0
41
1
10
55.9645583713844
20
-26.4316289352815
30
0
41
1
10
55.8987837853747
20
-26.438371348074
30
0
41
1
10
55.7765323364362
20
-26.4512410508837
30
0
41
1
10
55.721053599642
20
-26.4572621972648
30
0
41
1
10
55.6213160856256
20
-26.4683013170558
30
0
41
1
10
55.5770286892076
20
-26.4733226233312
30
0
41
1
10
55.4997095462869
20
-26.4822130259483
30
0
41
1
10
55.4666764954508
20
-26.4860824102549
30
0
41
1
10
55.4326983491264
20
-26.4900978453129
30
0
41
1
10
55.4262693141952
20
-26.4908598387753
30
0
41
1
10
55.414155352905
20
-26.4922989646731
30
0
41
1
10
55.4084622285951
20
-26.492977077019
30
0
41
1
10
55.3925953066635
20
-26.4948707677968
30
0
41
1
10
55.3836235388011
20
-26.4959468115391
30
0
41
1
10
55.361436149325
20
-26.4986141186187
30
0
41
1
10
55.3514009383035
20
-26.4998307179442
30
0
41
1
10
55.3500092393704
20
-26.4999988217689
30
0
41
1
10
55.3499992771174
20
-26.4999999630654
30
0
0
SPLINE
5
120
100
AcDbEntity
8
1
62
256
6
ByLayer
370
13
48
1
60
0
100
AcDbSpline
70
4
71
3
72
69
73
65
40
0
40
0
40
0
40
0
40
0.0124769902437024
40
0.0124769902437024
40
0.0229825541772815
40
0.0229825541772815
40
0.0334881181108606
40
0.0334881181108606
40
0.0755103738451773
40
0.117532629579494
40
0.117532629579494
40
0.138543757446652
40
0.138543757446652
40
0.149049321380231
40
0.149049321380231
40
0.15955488531381
40
0.15955488531381
40
0.201577141048124
40
0.201577141048124
40
0.243599396782439
40
0.243599396782439
40
0.264610524649596
40
0.275116088583174
40
0.275116088583174
40
0.285621652516753
40
0.285621652516753
40
0.327643908251065
40
0.327643908251065
40
0.369666163985378
40
0.41168841971969
40
0.41168841971969
40
0.422193983653269
40
0.422193983653269
40
0.432699547586848
40
0.453710675454003
40
0.453710675454003
40
0.495732931188315
40
0.537755186922628
40
0.537755186922628
40
0.558766314789785
40
0.558766314789785
40
0.569271878723364
40
0.569271878723364
40
0.579777442656943
40
0.62179969839125
40
0.663821954125558
40
0.705844209859865
40
0.705844209859865
40
0.726855337727018
40
0.726855337727018
40
0.74786646559417
40
0.74786646559417
40
0.789888721328477
40
0.831910977062785
40
0.831910977062785
40
0.85292210492994
40
0.863427668863516
40
0.863427668863516
40
0.873933232797092
40
0.873933232797092
40
0.915955488531395
40
0.957977744265697
40
0.957977744265697
40
1
40
1
40
1
40
1
41
1
10
62.6500000198652
20
-26.4999999811572
30
0
41
1
10
62.6499885647888
20
-26.4999985877807
30
0
41
1
10
62.6494188860259
20
-26.4999296342304
30
0
41
1
10
62.6473271823177
20
-26.4996765253437
30
0
41
1
10
62.6459675476368
20
-26.499512038151
30
0
41
1
10
62.6424624001938
20
-26.4990883531164
30
0
41
1
10
62.6403158831963
20
-26.4988290339113
30
0
41
1
10
62.6276367757627
20
-26.497298994249
30
0
41
1
10
62.5949314066164
20
-26.4933591240238
30
0
41
1
10
62.5380956942397
20
-26.4866353007818
30
0
41
1
10
62.4864072949509
20
-26.480621823887
30
0
41
1
10
62.4676647227441
20
-26.4784555562183
30
0
41
1
10
62.4372533402311
20
-26.4749727650775
30
0
41
1
10
62.4267193394011
20
-26.4737713776936
30
0
41
1
10
62.4049451518899
20
-26.471299977279
30
0
41
1
10
62.3937210520132
20
-26.4700317781979
30
0
41
1
10
62.3359413302624
20
-26.4635366960953
30
0
41
1
10
62.2844217664605
20
-26.4578481443815
30
0
41
1
10
62.171221335079
20
-26.4456901485939
30
0
41
1
10
62.1095391470704
20
-26.4392203404937
30
0
41
1
10
62.0094731110598
20
-26.4290759244928
30
0
41
1
10
61.9575511206712
20
-26.4238937353352
30
0
41
1
10
61.9027772525214
20
-26.4185740747124
30
0
41
1
10
61.865623711053
20
-26.41500017584
30
0
41
1
10
61.8467375378906
20
-26.4132004620776
30
0
41
1
10
61.7512228143937
20
-26.4041895999912
30
0
41
1
10
61.6709680452345
20
-26.3969050495395
30
0
41
1
10
61.5031117657929
20
-26.3823958267848
30
0
41
1
10
61.3279065058351
20
-26.3679460786671
30
0
41
1
10
61.1382201396278
20
-26.3540173938576
30
0
41
1
10
61.0150755384931
20
-26.3456011693363
30
0
41
1
10
60.9902115909283
20
-26.3439321702382
30
0
41
1
10
60.9402762486734
20
-26.3406428616646
30
0
41
1
10
60.8649684906166
20
-26.3357754490978
30
0
41
1
10
60.788463219983
20
-26.3311181040256
30
0
41
1
10
60.633887145807
20
-26.3221100960838
30
0
41
1
10
60.4236188657945
20
-26.3109186447197
30
0
41
1
10
60.2051654299048
20
-26.3016397618873
30
0
41
1
10
60.0382267843148
20
-26.295500609089
30
0
41
1
10
59.9820632691653
20
-26.2935909030465
30
0
41
1
10
59.8970302590163
20
-26.290944494726
30
0
41
1
10
59.8685667040269
20
-26.2900992232827
30
0
41
1
10
59.8116606445862
20
-26.2884910931357
30
0
41
1
10
59.6692738253901
20
-26.2846711735918
30
0
41
1
10
59.41190064412
20
-26.2796105775435
30
0
41
1
10
59.0664953361868
20
-26.2768205266233
30
0
41
1
10
58.8347295609911
20
-26.2776520973621
30
0
41
1
10
58.6603285420867
20
-26.2793048942469
30
0
41
1
10
58.6020199639615
20
-26.2800293832524
30
0
41
1
10
58.4863700025666
20
-26.2818035529141
30
0
41
1
10
58.4288929224192
20
-26.2828540152146
30
0
41
1
10
58.257489726991
20
-26.2864776106287
30
0
41
1
10
58.0316894804937
20
-26.2925674786726
30
0
41
1
10
57.811309526971
20
-26.300986355235
30
0
41
1
10
57.6480921132838
20
-26.3081020992702
30
0
41
1
10
57.5670010775838
20
-26.311860342934
30
0
41
1
10
57.4867017167726
20
-26.3159051742304
30
0
41
1
10
57.4333469309214
20
-26.3186638199047
30
0
41
1
10
57.4067293066887
20
-26.3200757944371
30
0
41
1
10
57.2744610705418
20
-26.3272669527844
30
0
41
1
10
57.0688350246353
20
-26.3395649809952
30
0
41
1
10
56.8750434390066
20
-26.3530854676888
30
0
41
1
10
56.687253972861
20
-26.3670350899933
30
0
41
1
10
56.5963279086584
20
-26.3742274059874
30
0
41
1
10
56.5085996955822
20
-26.3815342860349
30
0
0
SPLINE
5
121
100
AcDbEntity
8
1
62
256
6
ByLayer
370
13
48
1
60
0
100
AcDbSpline
70
2053
71
3
72
167
73
163
40
0
40
0
40
0
40
0
40
0.0156250000000034
40
0.0156250000000034
40
0.0312500000000067
40
0.0468750000000101
40
0.0468750000000101
40
0.0625000000000135
40
0.0625000000000135
40
0.0781250000000169
40
0.0937500000000202
40
0.0937500000000202
40
0.101562500000022
40
0.101562500000022
40
0.105468750000023
40
0.105468750000023
40
0.109375000000024
40
0.125000000000026
40
0.140625000000029
40
0.156250000000031
40
0.156250000000031
40
0.164062500000032
40
0.164062500000032
40
0.171875000000033
40
0.171875000000033
40
0.187500000000036
40
0.203125000000038
40
0.203125000000038
40
0.218750000000041
40
0.218750000000041
40
0.234375000000043
40
0.250000000000046
40
0.250000000000046
40
0.265625000000048
40
0.265625000000048
40
0.273437500000049
40
0.273437500000049
40
0.27734375000005
40
0.27734375000005
40
0.281250000000051
40
0.296875000000052
40
0.312500000000054
40
0.312500000000054
40
0.328125000000056
40
0.328125000000056
40
0.332031250000057
40
0.332031250000057
40
0.335937500000058
40
0.343750000000059
40
0.343750000000059
40
0.359375000000062
40
0.375000000000065
40
0.375000000000065
40
0.378906250000066
40
0.378906250000066
40
0.382812500000067
40
0.382812500000067
40
0.390625000000068
40
0.390625000000068
40
0.406250000000072
40
0.421875000000075
40
0.421875000000075
40
0.429687500000077
40
0.429687500000077
40
0.437500000000078
40
0.437500000000078
40
0.453125000000081
40
0.453125000000081
40
0.468750000000084
40
0.468750000000084
40
0.476562500000086
40
0.476562500000086
40
0.480468750000086
40
0.480468750000086
40
0.484375000000087
40
0.500000000000091
40
0.500000000000091
40
0.515625000000094
40
0.515625000000094
40
0.523437500000096
40
0.527343750000096
40
0.527343750000096
40
0.531250000000097
40
0.531250000000097
40
0.5468750000001
40
0.5468750000001
40
0.562500000000104
40
0.578125000000107
40
0.578125000000107
40
0.582031250000107
40
0.582031250000107
40
0.585937500000108
40
0.585937500000108
40
0.593750000000107
40
0.593750000000107
40
0.609375000000106
40
0.625000000000105
40
0.625000000000105
40
0.640625000000104
40
0.640625000000104
40
0.644531250000104
40
0.644531250000104
40
0.648437500000104
40
0.656250000000102
40
0.656250000000102
40
0.671875000000099
40
0.687500000000095
40
0.687500000000095
40
0.695312500000093
40
0.695312500000093
40
0.703125000000091
40
0.703125000000091
40
0.718750000000087
40
0.734375000000084
40
0.734375000000084
40
0.75000000000008
40
0.75000000000008
40
0.757812500000078
40
0.757812500000078
40
0.765625000000076
40
0.765625000000076
40
0.781250000000071
40
0.796875000000065
40
0.796875000000065
40
0.81250000000006
40
0.81250000000006
40
0.816406250000059
40
0.816406250000059
40
0.820312500000058
40
0.828125000000055
40
0.828125000000055
40
0.84375000000005
40
0.84375000000005
40
0.859375000000045
40
0.859375000000045
40
0.863281250000044
40
0.863281250000044
40
0.867187500000042
40
0.867187500000042
40
0.87500000000004
40
0.87500000000004
40
0.890625000000035
40
0.90625000000003
40
0.90625000000003
40
0.914062500000028
40
0.914062500000028
40
0.921875000000025
40
0.921875000000025
40
0.93750000000002
40
0.93750000000002
40
0.953125000000016
40
0.953125000000016
40
0.960937500000013
40
0.960937500000013
40
0.964843750000012
40
0.964843750000012
40
0.968750000000011
40
0.984375000000005
40
0.984375000000005
40
0.992187500000003
40
0.992187500000003
40
1
40
1
40
1
40
1
41
1
10
56.5085997513373
20
-2.50292987812684
30
0
41
1
10
56.5963195692215
20
-2.57993713038096
30
0
41
1
10
56.6871813174129
20
-2.65212682328092
30
0
41
1
10
56.8749224143196
20
-2.78730054558073
30
0
41
1
10
57.06868276247
20
-2.91326611947486
30
0
41
1
10
57.2743191200347
20
-3.02110348214799
30
0
41
1
10
57.4859831163912
20
-3.11975830049096
30
0
41
1
10
57.5933703380428
20
-3.16381243204452
30
0
41
1
10
57.8109576461886
20
-3.24174546644642
30
0
41
1
10
58.0314164581463
20
-3.30952786313108
30
0
41
1
10
58.2575392193554
20
-3.35731636892308
30
0
41
1
10
58.4292831185485
20
-3.38556945294846
30
0
41
1
10
58.4868903164475
20
-3.39372030778768
30
0
41
1
10
58.5738490371005
20
-3.40401499687343
30
0
41
1
10
58.6029190663596
20
-3.40712252319298
30
0
41
1
10
58.6609494906931
20
-3.41266395886987
30
0
41
1
10
58.8059328173384
20
-3.4248484916651
30
0
41
1
10
59.0660813587319
20
-3.43199897134903
30
0
41
1
10
59.4112330209263
20
-3.41071107644024
30
0
41
1
10
59.6401887282177
20
-3.37590447339346
30
0
41
1
10
59.8114629310727
20
-3.34182810434101
30
0
41
1
10
59.8686037114465
20
-3.32910331671965
30
0
41
1
10
59.9816560894992
20
-3.30120672396583
30
0
41
1
10
60.0376655071136
20
-3.28602143421799
30
0
41
1
10
60.2041658866758
20
-3.23680603245032
30
0
41
1
10
60.4220980495054
20
-3.16144112240332
30
0
41
1
10
60.6319630792016
20
-3.06672481927768
30
0
41
1
10
60.8377168840785
20
-2.96212839458198
30
0
41
1
10
60.938555299144
20
-2.90488148782592
30
0
41
1
10
61.1358543252929
20
-2.78004582038591
30
0
41
1
10
61.3255449141978
20
-2.6469150949867
30
0
41
1
10
61.5003492497877
20
-2.49751932303587
30
0
41
1
10
61.6676581424606
20
-2.3399152609461
30
0
41
1
10
61.7475657100488
20
-2.25701003994422
30
0
41
1
10
61.8615966575197
20
-2.12625294020671
30
0
41
1
10
61.8986333975855
20
-2.08159866994265
30
0
41
1
10
61.9526834696447
20
-2.01296356782421
30
0
41
1
10
61.9704754824712
20
-1.98977348243619
30
0
41
1
10
62.0053804819577
20
-1.94306044365121
30
0
41
1
10
62.0909661384992
20
-1.82541705873285
30
0
41
1
10
62.2301238081412
20
-1.60600751711999
30
0
41
1
10
62.3328528264464
20
-1.40018698171321
30
0
41
1
10
62.4248877561757
20
-1.18885391934671
30
0
41
1
10
62.4655601099069
20
-1.08043213098483
30
0
41
1
10
62.5093682264367
20
-0.941275044852034
30
0
41
1
10
62.5177888608914
20
-0.913218578483679
30
0
41
1
10
62.5338240088001
20
-0.857054561849679
30
0
41
1
10
62.5566898390792
20
-0.772670208486062
30
0
41
1
10
62.5760325914328
20
-0.687875141412036
30
0
41
1
10
62.6100817258411
20
-0.517744274777044
30
0
41
1
10
62.6431355089435
20
-0.289463297592675
30
0
41
1
10
62.6515789095133
20
-0.0583103674059089
30
0
41
1
10
62.6489497616616
20
0.0870829816213359
30
0
41
1
10
62.6480276423301
20
0.116207902235544
30
0
41
1
10
62.6453813885405
20
0.174551343386042
30
0
41
1
10
62.6436533988584
20
0.203813649490598
30
0
41
1
10
62.637288743286
20
0.291260485541841
30
0
41
1
10
62.6314737101839
20
0.349187860338105
30
0
41
1
10
62.6094229045379
20
0.52188459432881
30
0
41
1
10
62.5677659770732
20
0.749258620187135
30
0
41
1
10
62.5021697424735
20
0.970994911565498
30
0
41
1
10
62.4439346939606
20
1.13517103445491
30
0
41
1
10
62.4230134532954
20
1.18954241739905
30
0
41
1
10
62.3781089724207
20
1.29756091985007
30
0
41
1
10
62.3543229880347
20
1.35073406988309
30
0
41
1
10
62.2790810582658
20
1.50782062026377
30
0
41
1
10
62.2237511612884
20
1.60930736596356
30
0
41
1
10
62.103113601542
20
1.80604190046913
30
0
41
1
10
62.0378049525827
20
1.90128905405518
30
0
41
1
10
61.9323928383436
20
2.0395112855274
30
0
41
1
10
61.8960116128735
20
2.08480916483239
30
0
41
1
10
61.8395572013682
20
2.15158246396069
30
0
41
1
10
61.8204056063762
20
2.17366539169493
30
0
41
1
10
61.7816688179068
20
2.217219522557
30
0
41
1
10
61.6836422570254
20
2.3246862476681
30
0
41
1
10
61.5798147151864
20
2.42521009849611
30
0
41
1
10
61.4065485679382
20
2.57751987849775
30
0
41
1
10
61.3163435626566
20
2.64940947840813
30
0
41
1
10
61.1757264341306
20
2.75091799880377
30
0
41
1
10
61.1040882407912
20
2.80008812498872
30
0
41
1
10
61.0304420558565
20
2.8468685407145
30
0
41
1
10
60.9808956403792
20
2.87752146540245
30
0
41
1
10
60.9558663222925
20
2.89259903657765
30
0
41
1
10
60.8301080986069
20
2.96634183880261
30
0
41
1
10
60.727436498302
20
3.02017372652438
30
0
41
1
10
60.5181299955454
20
3.1179495175241
30
0
41
1
10
60.3048591737631
20
3.20583480012724
30
0
41
1
10
60.08375988676
20
3.27422272464654
30
0
41
1
10
59.9430902566507
20
3.31079082880817
30
0
41
1
10
59.914831935042
20
3.31779506049838
30
0
41
1
10
59.8580645071478
20
3.33117996963608
30
0
41
1
10
59.8295211760652
20
3.33756746940091
30
0
41
1
10
59.7438789334476
20
3.35571043948377
30
0
41
1
10
59.6867110179857
20
3.36646401503006
30
0
41
1
10
59.5149924458572
20
3.39478276398893
30
0
41
1
10
59.2854624429059
20
3.42204710365462
30
0
41
1
10
59.0548115957715
20
3.42875710814744
30
0
41
1
10
58.8235968948754
20
3.42512852937369
30
0
41
1
10
58.7077076670961
20
3.41814586844407
30
0
41
1
10
58.5624820228046
20
3.4027393488094
30
0
41
1
10
58.5334500943309
20
3.39932584909329
30
0
41
1
10
58.4756382443311
20
3.39186478903412
30
0
41
1
10
58.3892004679169
20
3.3797112082122
30
0
41
1
10
58.3035943704922
20
3.36469977637793
30
0
41
1
10
58.1334771711487
20
3.3309126344939
30
0
41
1
10
57.9095695436139
20
3.27584136033619
30
0
41
1
10
57.6914624590385
20
3.20080690868241
30
0
41
1
10
57.5301057330321
20
3.1368666499265
30
0
41
1
10
57.4766913832039
20
3.11427363390706
30
0
41
1
10
57.3706213332912
20
3.06647025526254
30
0
41
1
10
57.3178401391604
20
3.0411913530335
30
0
41
1
10
57.1621645775452
20
2.96209885660008
30
0
41
1
10
56.9610507113924
20
2.84774447294836
30
0
41
1
10
56.7726161496983
20
2.71587310619455
30
0
41
1
10
56.5905894782058
20
2.57512936271735
30
0
41
1
10
56.50277923982
20
2.50032251323626
30
0
41
1
10
56.3760652749106
20
2.38117148849807
30
0
41
1
10
56.3346307432879
20
2.34026251190306
30
0
41
1
10
56.2536176072067
20
2.25618572859526
30
0
41
1
10
56.2143331563708
20
2.21332630796906
30
0
41
1
10
56.1000963860358
20
2.08231574257655
30
0
41
1
10
55.957410080965
20
1.90115864081835
30
0
41
1
10
55.8338919249279
20
1.70708271510625
30
0
41
1
10
55.7202067126871
20
1.50636680949532
30
0
41
1
10
55.6682784629646
20
1.40269031235187
30
0
41
1
10
55.6098727267358
20
1.26869492646827
30
0
41
1
10
55.5985497720629
20
1.24174672122283
30
0
41
1
10
55.576686428455
20
1.18772181371605
30
0
41
1
10
55.5450321122803
20
1.10641332271408
30
0
41
1
10
55.5167701530978
20
1.02429822285399
30
0
41
1
10
55.4647276760863
20
0.859001797465396
30
0
41
1
10
55.435996715352
20
0.747385187279406
30
0
41
1
10
55.3905142277879
20
0.521298999834244
30
0
41
1
10
55.3737615451871
20
0.406829699488839
30
0
41
1
10
55.3605731699778
20
0.261895735875953
30
0
41
1
10
55.3583240991002
20
0.232816345375568
30
0
41
1
10
55.3546139265705
20
0.174469790419749
30
0
41
1
10
55.3531533496134
20
0.145180807135716
30
0
41
1
10
55.349984894461
20
0.0575909694670997
30
0
41
1
10
55.3494754173695
20
-0.0006100808745089
30
0
41
1
10
55.3526562862211
20
-0.174648587777767
30
0
41
1
10
55.3694310419129
20
-0.405197123160349
30
0
41
1
10
55.4108190129282
20
-0.632795305902647
30
0
41
1
10
55.451203017884
20
-0.80237479152359
30
0
41
1
10
55.4662308168608
20
-0.858735906648747
30
0
41
1
10
55.4994364993091
20
-0.970990489876584
30
0
41
1
10
55.5174749190157
20
-1.02641719127902
30
0
41
1
10
55.5757752021831
20
-1.1906561523146
30
0
41
1
10
55.6202113103194
20
-1.2974324836002
30
0
41
1
10
55.7198574575471
20
-1.5057380480053
30
0
41
1
10
55.7750684279678
20
-1.60726681491351
30
0
41
1
10
55.8659459458004
20
-1.75564099467826
30
0
41
1
10
55.8975844910929
20
-1.80444467221957
30
0
41
1
10
55.9470819725841
20
-1.87665956362079
30
0
41
1
10
55.9639239103508
20
-1.90056773224555
30
0
41
1
10
55.9981233463653
20
-1.94782556976068
30
0
41
1
10
56.0850160307774
20
-2.06471445177894
30
0
41
1
10
56.1787567074447
20
-2.17543835124857
30
0
41
1
10
56.2976436331082
20
-2.30255984735189
30
0
41
1
10
56.3383410956857
20
-2.34397389428895
30
0
41
1
10
56.4218683435033
20
-2.42488878433517
30
0
41
1
10
56.4647398423953
20
-2.46442625199981
30
0
41
1
10
56.5085997513373
20
-2.50292987812684
30
0
0
SPLINE
5
122
100
AcDbEntity
8
1
62
256
6
ByLayer
370
13
48
1
60
0
100
AcDbSpline
70
4
71
3
72
57
73
53
40
0
40
0
40
0
40
0
40
0.0419534178528629
40
0.0419534178528629
40
0.0839068357057257
40
0.125860253558589
40
0.125860253558589
40
0.167813671411452
40
0.167813671411452
40
0.209767089264314
40
0.251720507117177
40
0.251720507117177
40
0.272697216043609
40
0.272697216043609
40
0.283185570506826
40
0.283185570506826
40
0.293673924970043
40
0.335627342822905
40
0.377580760675768
40
0.419534178528631
40
0.419534178528631
40
0.440510887455061
40
0.440510887455061
40
0.461487596381491
40
0.461487596381491
40
0.503441014234354
40
0.545394432087217
40
0.545394432087217
40
0.587347849940079
40
0.587347849940079
40
0.629301267792942
40
0.671254685645805
40
0.671254685645805
40
0.713208103498667
40
0.713208103498667
40
0.7341848124251
40
0.7341848124251
40
0.744673166888315
40
0.744673166888315
40
0.75516152135153
40
0.797114939204393
40
0.839068357057256
40
0.839068357057256
40
0.881021774910119
40
0.881021774910119
40
0.891510129373335
40
0.891510129373335
40
0.901998483836552
40
0.922975192762983
40
0.922975192762983
40
0.964928610615847
40
1
40
1
40
1
40
1
41
1
10
56.5085997513376
20
26.3815341105324
30
0
41
1
10
56.5963195692218
20
26.3742281005144
30
0
41
1
10
56.6871813174131
20
26.3670407882667
30
0
41
1
10
56.8749224143198
20
26.3530938774614
30
0
41
1
10
57.0686827624703
20
26.3395751791194
30
0
41
1
10
57.2743191200349
20
26.3272748314937
30
0
41
1
10
57.4859831163914
20
26.3157666513702
30
0
41
1
10
57.593370338043
20
26.3104890071856
30
0
41
1
10
57.8109576461888
20
26.301000345933
30
0
41
1
10
58.0314164581465
20
26.2925753992403
30
0
41
1
10
58.2575392193556
20
26.2864753708872
30
0
41
1
10
58.4292831185486
20
26.2828463001173
30
0
41
1
10
58.4868903164476
20
26.2817942759553
30
0
41
1
10
58.5738490371006
20
26.280462208147
30
0
41
1
10
58.6029190663598
20
26.2800594351703
30
0
41
1
10
58.6609494906932
20
26.2793405052317
30
0
41
1
10
58.8059328173386
20
26.2777568188216
30
0
41
1
10
59.066081358732
20
26.2768216306658
30
0
41
1
10
59.4112330209264
20
26.2796013377708
30
0
41
1
10
59.6401887282177
20
26.2840977298554
30
0
41
1
10
59.8114629310727
20
26.2884445344823
30
0
41
1
10
59.8686037114465
20
26.2900602653321
30
0
41
1
10
59.9816560894992
20
26.2935777674669
30
0
41
1
10
60.0376655071136
20
26.2954812929262
30
0
41
1
10
60.2041658866758
20
26.3016005697393
30
0
41
1
10
60.4220980495053
20
26.3108482360307
30
0
41
1
10
60.6319630792016
20
26.3220054296907
30
0
41
1
10
60.8377168840784
20
26.3339812093017
30
0
41
1
10
60.9385552991438
20
26.3403797402407
30
0
41
1
10
61.1358543252928
20
26.3538479657787
30
0
41
1
10
61.3255449141977
20
26.3677628878349
30
0
41
1
10
61.5003492497875
20
26.3821655509366
30
0
41
1
10
61.6676581424604
20
26.3966107388345
30
0
41
1
10
61.7475657100487
20
26.4038549424613
30
0
41
1
10
61.8615966575196
20
26.4145974977852
30
0
41
1
10
61.8986333975852
20
26.4181576398931
30
0
41
1
10
61.9526834696445
20
26.4234461076115
30
0
41
1
10
61.970475482471
20
26.4252029329093
30
0
41
1
10
62.0053804819575
20
26.4286788495084
30
0
41
1
10
62.0909658838502
20
26.4372768714825
30
0
41
1
10
62.230123808141
20
26.4518610311192
30
0
41
1
10
62.3328528264462
20
26.463194601935
30
0
41
1
10
62.4248877561755
20
26.4735305254531
30
0
41
1
10
62.4655601099067
20
26.4782000221247
30
0
41
1
10
62.5093682264364
20
26.4832924107827
30
0
41
1
10
62.5177888608911
20
26.4842749817416
30
0
41
1
10
62.5338240087998
20
26.4861519846644
30
0
41
1
10
62.5566898390789
20
26.4888379739184
30
0
41
1
10
62.5760325914326
20
26.4911314532888
30
0
41
1
10
62.6100809773296
20
26.4951847039966
30
0
41
1
10
62.6404243802768
20
26.4988392393022
30
0
41
1
10
62.6500282906467
20
26.5000030320992
30
0
41
1
10
62.6500008343977
20
26.4999999955843
30
0
0
SPLINE
5
123
100
AcDbEntity
8
1
62
256
6
ByLayer
370
13
48
1
60
0
100
AcDbSpline
70
4
71
3
72
30
73
26
40
0
40
0
40
0
40
0
40
0.0211995200477068
40
0.0211995200477068
40
0.143549580041739
40
0.265899640035772
40
0.265899640035772
40
0.327074670032788
40
0.327074670032788
40
0.388249700029804
40
0.388249700029804
40
0.510599760023838
40
0.510599760023838
40
0.632949820017871
40
0.632949820017871
40
0.694124850014888
40
0.694124850014888
40
0.724712365013396
40
0.724712365013396
40
0.755299880011905
40
0.877649940005951
40
0.877649940005951
40
0.938824970002976
40
0.938824970002976
40
1
40
1
40
1
40
1
41
1
10
55.3500003095401
20
26.4999999437866
30
0
41
1
10
55.3499893336709
20
26.5000012784382
30
0
41
1
10
55.3501682414081
20
26.4999796307489
30
0
41
1
10
55.3526561296142
20
26.4996784865248
30
0
41
1
10
55.3694310419132
20
26.4976448078214
30
0
41
1
10
55.4108190129286
20
26.4926850510097
30
0
41
1
10
55.4512030178843
20
26.4879103077558
30
0
41
1
10
55.4662308168611
20
26.486142162924
30
0
41
1
10
55.4994364993095
20
26.4822644707842
30
0
41
1
10
55.5174749190161
20
26.4801712590046
30
0
41
1
10
55.5757752021834
20
26.4734649517968
30
0
41
1
10
55.6202113103197
20
26.4684254760799
30
0
41
1
10
55.7198574575474
20
26.4573927506678
30
0
41
1
10
55.7750684279681
20
26.4513991787367
30
0
41
1
10
55.8659459458008
20
26.4418263548418
30
0
41
1
10
55.8975844910932
20
26.4385383215805
30
0
41
1
10
55.9470819725844
20
26.4334774702737
30
0
41
1
10
55.9639239103511
20
26.431768831577
30
0
41
1
10
55.9981233463657
20
26.4283283708762
30
0
41
1
10
56.0850160307777
20
26.4196588840205
30
0
41
1
10
56.1787567074451
20
26.4106929627984
30
0
41
1
10
56.2976436331085
20
26.3998111138733
30
0
41
1
10
56.338341095686
20
26.3961632921854
30
0
41
1
10
56.4218683435036
20
26.388853035864
30
0
41
1
10
56.4647398423956
20
26.3851871155413
30
0
41
1
10
56.5085997513376
20
26.3815341105324
30
0
0
SPLINE
5
124
100
AcDbEntity
8
SK1
62
256
6
ByLayer
370
13
48
1
60
0
100
AcDbSpline
70
4
71
3
72
16
73
12
40
0
40
0
40
0
40
0
40
0.249999999999991
40
0.249999999999991
40
0.499999999999982
40
0.499999999999982
40
0.624999999999975
40
0.624999999999975
40
0.749999999999968
40
0.749999999999968
40
1
40
1
40
1
40
1
41
1
10
-48.5000082143631
20
32.2495515275578
30
0
41
1
10
-48.4694203465427
20
32.2498696945331
30
0
41
1
10
-48.4379150577285
20
32.2499992103187
30
0
41
1
10
-48.3727150222829
20
32.2500007824531
30
0
41
1
10
-48.3389340016658
20
32.2498717883352
30
0
41
1
10
-48.2868284975609
20
32.2495899222148
30
0
41
1
10
-48.2692029696039
20
32.2494814291857
30
0
41
1
10
-48.2333784952663
20
32.2492539836515
30
0
41
1
10
-48.2151532958277
20
32.2491349127396
30
0
41
1
10
-48.1600449684898
20
32.2487930144119
30
0
41
1
10
-48.1225846093236
20
32.248586412279
30
0
41
1
10
-48.0842927581483
20
32.2484596662753
30
0
0
SPLINE
5
125
100
AcDbEntity
8
SK1
62
256
6
ByLayer
370
13
48
1
60
0
100
AcDbSpline
70
4
71
3
72
8
73
4
40
0
40
0
40
0
40
0
40
1
40
1
40
1
40
1
41
1
10
-48.539141104556
20
32.2098728407057
30
0
41
1
10
-48.5271426659356
20
32.2229842185198
30
0
41
1
10
-48.5140942921936
20
32.2361915072983
30
0
41
1
10
-48.4999959833297
20
32.2495554204607
30
0
0
SPLINE
5
126
100
AcDbEntity
8
SK1
62
256
6
ByLayer
370
13
48
1
60
0
100
AcDbSpline
70
4
71
3
72
8
73
4
40
0
40
0
40
0
40
0
40
1
40
1
40
1
40
1
41
1
10
-48.4999959833299
20
-32.2495554204603
30
0
41
1
10
-48.5140942921937
20
-32.236191507298
30
0
41
1
10
-48.5271426659358
20
-32.2229842185195
30
0
41
1
10
-48.5391411045562
20
-32.2098728407053
30
0
0
SPLINE
5
127
100
AcDbEntity
8
SK1
62
256
6
ByLayer
370
13
48
1
60
0
100
AcDbSpline
70
4
71
1
72
4
73
2
40
0
40
0
40
1
40
1
41
1
10
-48.0842927581482
20
32.2484596662755
30
0
41
1
10
-48.1000748840302
20
32.2182589409728
30
0
0
SPLINE
5
128
100
AcDbEntity
8
SK1
62
256
6
ByLayer
370
13
48
1
60
0
100
AcDbSpline
70
4
71
3
72
22
73
18
40
0
40
0
40
0
40
0
40
0.250000000000002
40
0.250000000000002
40
0.375000000000001
40
0.375000000000001
40
0.5
40
0.5
40
0.625
40
0.625
40
0.749999999999999
40
0.749999999999999
40
0.874999999999998
40
0.874999999999998
40
0.937499999999999
40
0.937499999999999
40
1
40
1
40
1
40
1
41
1
10
-48.0842927581482
20
32.2484596662755
30
0
41
1
10
-47.5742660759651
20
32.2467567397061
30
0
41
1
10
-47.0646694106296
20
32.2435685743023
30
0
41
1
10
-46.3010200604397
20
32.2358938862991
30
0
41
1
10
-46.046597403852
20
32.2328523500515
30
0
41
1
10
-45.5380748372498
20
32.225647147046
30
0
41
1
10
-45.2839669140226
20
32.2214850509806
30
0
41
1
10
-44.7761734986778
20
32.2118142898888
30
0
41
1
10
-44.5225355263978
20
32.2062664005095
30
0
41
1
10
-44.0158873121749
20
32.1935071883684
30
0
41
1
10
-43.7628624765575
20
32.1863002674255
30
0
41
1
10
-43.2575149538519
20
32.1698561186882
30
0
41
1
10
-43.0051880167816
20
32.1606290909308
30
0
41
1
10
-42.6274520098544
20
32.1447389142376
30
0
41
1
10
-42.5016653499804
20
32.1390969688502
30
0
41
1
10
-42.2505048603788
20
32.1269690159761
30
0
41
1
10
-42.1251214446715
20
32.1204839268149
30
0
41
1
10
-41.9999999999997
20
32.1134592860159
30
0
0
SPLINE
5
129
100
AcDbEntity
8
SK1
62
256
6
ByLayer
370
13
48
1
60
0
100
AcDbSpline
70
4
71
1
72
4
73
2
40
0
40
0
40
1
40
1
41
1
10
-41.9999999999998
20
32.1134592860156
30
0
41
1
10
-42.0157821258818
20
32.088424139137
30
0
0
SPLINE
5
12A
100
AcDbEntity
8
SK1
62
256
6
ByLayer
370
13
48
1
60
0
100
AcDbSpline
70
4
71
3
72
8
73
4
40
0
40
0
40
0
40
0
40
1
40
1
40
1
40
1
41
1
10
-39.9999999999998
20
33.6208459668917
30
0
41
1
10
-39.9001252657375
20
33.7197246567738
30
0
41
1
10
-39.8002505314752
20
33.818603346656
30
0
41
1
10
-39.7003757972129
20
33.9174820365381
30
0
0
SPLINE
5
12B
100
AcDbEntity
8
SK1
62
256
6
ByLayer
370
13
48
1
60
0
100
AcDbSpline
70
4
71
3
72
52
73
48
40
0
40
0
40
0
40
0
40
0.0156250000000078
40
0.0156250000000078
40
0.0234375000000118
40
0.0234375000000118
40
0.0312500000000158
40
0.0312500000000158
40
0.04687500000002
40
0.04687500000002
40
0.0546875000000206
40
0.0546875000000206
40
0.0625000000000211
40
0.0625000000000211
40
0.0781250000000221
40
0.0781250000000221
40
0.0937500000000231
40
0.0937500000000231
40
0.125000000000023
40
0.125000000000023
40
0.156250000000023
40
0.156250000000023
40
0.187500000000024
40
0.187500000000024
40
0.218750000000023
40
0.218750000000023
40
0.250000000000022
40
0.250000000000022
40
0.312500000000021
40
0.312500000000021
40
0.37500000000002
40
0.37500000000002
40
0.437500000000018
40
0.437500000000018
40
0.500000000000017
40
0.500000000000017
40
0.625000000000014
40
0.625000000000014
40
0.687500000000011
40
0.687500000000011
40
0.750000000000009
40
0.750000000000009
40
0.875000000000004
40
0.875000000000004
40
0.937500000000002
40
0.937500000000002
40
1
40
1
40
1
40
1
41
1
10
-41.9999999999998
20
32.1134592860156
30
0
41
1
10
-41.9741452966722
20
32.1118582703896
30
0
41
1
10
-41.9480870351487
20
32.1112363670563
30
0
41
1
10
-41.9085970618848
20
32.112076977152
30
0
41
1
10
-41.8953672536796
20
32.1126513165963
30
0
41
1
10
-41.8687653033437
20
32.1144206347174
30
0
41
1
10
-41.8554064367386
20
32.1156198135351
30
0
41
1
10
-41.8161410843782
20
32.1200265903105
30
0
41
1
10
-41.7906924331086
20
32.1240624981852
30
0
41
1
10
-41.7533731868268
20
32.1314262287791
30
0
41
1
10
-41.7410307117041
20
32.1341100587425
30
0
41
1
10
-41.7168798956752
20
32.1397853237339
30
0
41
1
10
-41.7050622507955
20
32.1427804876768
30
0
41
1
10
-41.6704020329119
20
32.1521947594637
30
0
41
1
10
-41.6482787721174
20
32.1590219717002
30
0
41
1
10
-41.6054245485471
20
32.1734568845391
30
0
41
1
10
-41.5846718723323
20
32.1810767312851
30
0
41
1
10
-41.5241551743709
20
32.2047486698717
30
0
41
1
10
-41.4867927243248
20
32.2213135361942
30
0
41
1
10
-41.4157036393514
20
32.2552063635599
30
0
41
1
10
-41.3819335485536
20
32.2725536366867
30
0
41
1
10
-41.3167068530819
20
32.3076954597276
30
0
41
1
10
-41.2853057865287
20
32.325487891089
30
0
41
1
10
-41.2243236669575
20
32.3612963569367
30
0
41
1
10
-41.1947056041446
20
32.3793250184439
30
0
41
1
10
-41.1368658615973
20
32.4155058910436
30
0
41
1
10
-41.1087922128128
20
32.4335732719057
30
0
41
1
10
-41.0267570494415
20
32.4875504729173
30
0
41
1
10
-40.9747331382416
20
32.5233352649416
30
0
41
1
10
-40.8746033398029
20
32.5944666732782
30
0
41
1
10
-40.8265570220056
20
32.6298056510553
30
0
41
1
10
-40.7342969251332
20
32.6997317369714
30
0
41
1
10
-40.6899587415787
20
32.7344135369614
30
0
41
1
10
-40.6047220347685
20
32.8032061043706
30
0
41
1
10
-40.5638327131782
20
32.8373156477872
30
0
41
1
10
-40.4465576303748
20
32.9385783825115
30
0
41
1
10
-40.3752210605168
20
33.0050018617773
30
0
41
1
10
-40.2797735136637
20
33.1032702754511
30
0
41
1
10
-40.2498996888824
20
33.135793607072
30
0
41
1
10
-40.1943998088248
20
33.2003857049356
30
0
41
1
10
-40.1689364867392
20
33.2322675914578
30
0
41
1
10
-40.099917101008
20
33.3265920437452
30
0
41
1
10
-40.0636777539698
20
33.3876394188034
30
0
41
1
10
-40.026210374059
20
33.4769298222188
30
0
41
1
10
-40.0165510303304
20
33.5063091680742
30
0
41
1
10
-40.0034458674112
20
33.5642456669703
30
0
41
1
10
-39.9999999999999
20
33.5928047438893
30
0
41
1
10
-39.9999999999998
20
33.6208459668922
30
0
0
SPLINE
5
12C
100
AcDbEntity
8
SK1
62
256
6
ByLayer
370
13
48
1
60
0
100
AcDbSpline
70
4
71
3
72
14
73
10
40
0
40
0
40
0
40
0
40
0.499999999999972
40
0.499999999999972
40
0.624999999999977
40
0.624999999999977
40
0.749999999999983
40
0.749999999999983
40
1
40
1
40
1
40
1
41
1
10
-48.0842927581486
20
-32.2484596662751
30
0
41
1
10
-48.1612715645565
20
-32.2487144660766
30
0
41
1
10
-48.2340659808217
20
-32.2493039061387
30
0
41
1
10
-48.3213623489739
20
-32.2497768814006
30
0
41
1
10
-48.3385580045999
20
-32.2498567321555
30
0
41
1
10
-48.3722931909307
20
-32.2499683018952
30
0
41
1
10
-48.3888645275364
20
-32.2500002027493
30
0
41
1
10
-48.4377827754185
20
-32.2499995915881
30
0
41
1
10
-48.4693400514564
20
-32.2498705263893
30
0
41
1
10
-48.5000074394371
20
-32.2495515356179
30
0
0
SPLINE
5
12D
100
AcDbEntity
8
SK3
62
256
6
ByLayer
370
13
48
0.05
60
0
100
AcDbSpline
70
4
71
2
72
6
73
3
40
0
40
0
40
0
40
1
40
1
40
1
41
1
10
4.29574201867007
20
50.004255324326
30
0
41
1
10
4.65009416138932
20
49.6499032877115
30
0
41
1
10
5.00444630410087
20
49.2955512511039
30
0
0
LINE
5
74
100
AcDbEntity
8
SK1
62
256
6
ByLayer
370
13
48
1
60
0
100
AcDbLine
10
-50
20
-30.597096
30
0
11
-50
21
30.597096
31
0
39
0
210
0
220
0
230
1
0
LINE
5
76
100
AcDbEntity
8
SK1
62
256
6
ByLayer
370
13
48
1
60
0
100
AcDbLine
10
-1.621937
20
-37.682252
30
0
11
-0.9
21
-37.682252
31
0
39
0
210
0
220
0
230
1
0
LINE
5
77
100
AcDbEntity
8
SK1
62
256
6
ByLayer
370
13
48
1
60
0
100
AcDbLine
10
-0.9
20
37.682252
30
0
11
-1.621937
21
37.682252
31
0
39
0
210
0
220
0
230
1
0
LINE
5
78
100
AcDbEntity
8
SK1
62
256
6
ByLayer
370
13
48
1
60
0
100
AcDbLine
10
-1.621937
20
-37.682252
30
0
11
-1.621937
21
37.682252
31
0
39
0
210
0
220
0
230
1
0
LINE
5
79
100
AcDbEntity
8
SK1
62
256
6
ByLayer
370
13
48
1
60
0
100
AcDbLine
10
-39.700376
20
36.018505
30
0
11
-39.700376
21
33.917482
31
0
39
0
210
0
220
0
230
1
0
LINE
5
7A
100
AcDbEntity
8
SK1
62
256
6
ByLayer
370
13
48
1
60
0
100
AcDbLine
10
-48.100075
20
-32.218259
30
0
11
-48.100075
21
32.218259
31
0
39
0
210
0
220
0
230
1
0
LINE
5
7B
100
AcDbEntity
8
SK1
62
256
6
ByLayer
370
13
48
1
60
0
100
AcDbLine
10
-34.700376
20
-36.269006
30
0
11
-34.700376
21
-34.061048
31
0
39
0
210
0
220
0
230
1
0
LINE
5
7C
100
AcDbEntity
8
SK1
62
256
6
ByLayer
370
13
48
1
60
0
100
AcDbLine
10
-34.700376
20
-36.269006
30
0
11
-21.401451
21
-36.935285
31
0
39
0
210
0
220
0
230
1
0
LINE
5
7D
100
AcDbEntity
8
SK1
62
256
6
ByLayer
370
13
48
1
60
0
100
AcDbLine
10
-8.62126
20
-37.575575
30
0
11
-2.5
21
-37.882252
31
0
39
0
210
0
220
0
230
1
0
LINE
5
7E
100
AcDbEntity
8
SK1
62
256
6
ByLayer
370
13
48
1
60
0
100
AcDbLine
10
-2.5
20
37.882252
30
0
11
-8.636735
21
37.5748
31
0
39
0
210
0
220
0
230
1
0
LINE
5
7F
100
AcDbEntity
8
SK1
62
256
6
ByLayer
370
13
48
1
60
0
100
AcDbLine
10
-21.396977
20
36.935509
30
0
11
-39.700376
21
36.018505
31
0
39
0
210
0
220
0
230
1
0
LINE
5
80
100
AcDbEntity
8
SK1
62
256
6
ByLayer
370
13
48
1
60
0
100
AcDbLine
10
-2.5
20
-37.882252
30
0
11
-2.5
21
37.882252
31
0
39
0
210
0
220
0
230
1
0
LINE
5
81
100
AcDbEntity
8
SK1
62
256
6
ByLayer
370
13
48
1
60
0
100
AcDbLine
10
-1.880756
20
-37.716326
30
0
11
-1.880756
21
37.716326
31
0
39
0
210
0
220
0
230
1
0
LINE
5
82
100
AcDbEntity
8
SK1
62
256
6
ByLayer
370
13
48
1
60
0
100
AcDbLine
10
-1.880756
20
37.716326
30
0
11
-2.5
21
37.882252
31
0
39
0
210
0
220
0
230
1
0
LINE
5
83
100
AcDbEntity
8
SK1
62
256
6
ByLayer
370
13
48
1
60
0
100
AcDbLine
10
-2.5
20
-37.882252
30
0
11
-1.880756
21
-37.716326
31
0
39
0
210
0
220
0
230
1
0
LINE
5
84
100
AcDbEntity
8
SK1
62
256
6
ByLayer
370
13
48
1
60
0
100
AcDbLine
10
-0.9
20
-37.682252
30
0
11
-0.9
21
37.682252
31
0
39
0
210
0
220
0
230
1
0
LINE
5
85
100
AcDbEntity
8
1
62
256
6
ByLayer
370
13
48
1
60
0
100
AcDbLine
10
15
20
31.95
30
0
11
15
21
31.35
31
0
39
0
210
0
220
0
230
1
0
LINE
5
87
100
AcDbEntity
8
1
62
256
6
ByLayer
370
13
48
1
60
0
100
AcDbLine
10
15
20
31.95
30
0
11
5.426607
21
31.95
31
0
39
0
210
0
220
0
230
1
0
LINE
5
88
100
AcDbEntity
8
1
62
256
6
ByLayer
370
13
48
1
60
0
100
AcDbLine
10
15
20
38.950963
30
0
11
15
21
31.95
31
0
39
0
210
0
220
0
230
1
0
LINE
5
89
100
AcDbEntity
8
1
62
256
6
ByLayer
370
13
48
1
60
0
100
AcDbLine
10
18.625
20
31.35
30
0
11
21.375
21
31.35
31
0
39
0
210
0
220
0
230
1
0
LINE
5
8A
100
AcDbEntity
8
1
62
256
6
ByLayer
370
13
48
1
60
0
100
AcDbLine
10
21.375
20
-44.665423
30
0
11
18.625
21
-44.665423
31
0
39
0
210
0
220
0
230
1
0
LINE
5
8B
100
AcDbEntity
8
1
62
256
6
ByLayer
370
13
48
1
60
0
100
AcDbLine
10
21.375
20
31.35
30
0
11
21.375
21
-44.665423
31
0
39
0
210
0
220
0
230
1
0
LINE
5
8C
100
AcDbEntity
8
1
62
256
6
ByLayer
370
13
48
1
60
0
100
AcDbLine
10
18.625
20
31.35
30
0
11
18.625
21
-44.665423
31
0
39
0
210
0
220
0
230
1
0
LINE
5
8D
100
AcDbEntity
8
1
62
256
6
ByLayer
370
13
48
1
60
0
100
AcDbLine
10
29
20
31.35
30
0
11
29
21
-48.019544
31
0
39
0
210
0
220
0
230
1
0
LINE
5
8E
100
AcDbEntity
8
1
62
256
6
ByLayer
370
13
48
1
60
0
100
AcDbLine
10
21.875
20
31.35
30
0
11
21.875
21
-46.334777
31
0
39
0
210
0
220
0
230
1
0
LINE
5
8F
100
AcDbEntity
8
1
62
256
6
ByLayer
370
13
48
1
60
0
100
AcDbLine
10
23.247595
20
31.35
30
0
11
28.3
21
31.35
31
0
39
0
210
0
220
0
230
1
0
LINE
5
90
100
AcDbEntity
8
1
62
256
6
ByLayer
370
13
48
1
60
0
100
AcDbLine
10
23.247595
20
31.35
30
0
11
23.247595
21
-48.571546
31
0
39
0
210
0
220
0
230
1
0
LINE
5
91
100
AcDbEntity
8
1
62
256
6
ByLayer
370
13
48
1
60
0
100
AcDbLine
10
23.247595
20
-48.571546
30
0
11
28.3
21
-48.571546
31
0
39
0
210
0
220
0
230
1
0
LINE
5
92
100
AcDbEntity
8
1
62
256
6
ByLayer
370
13
48
1
60
0
100
AcDbLine
10
28.3
20
-48.571546
30
0
11
28.3
21
31.35
31
0
39
0
210
0
220
0
230
1
0
LINE
5
93
100
AcDbEntity
8
1
62
256
6
ByLayer
370
13
48
1
60
0
100
AcDbLine
10
18.125
20
31.35
30
0
11
18.125
21
-46.334777
31
0
39
0
210
0
220
0
230
1
0
LINE
5
94
100
AcDbEntity
8
1
62
256
6
ByLayer
370
13
48
1
60
0
100
AcDbLine
10
0
20
-49.3
30
0
11
0
21
49.3
31
0
39
0
210
0
220
0
230
1
0
LINE
5
95
100
AcDbEntity
8
1
62
256
6
ByLayer
370
13
48
1
60
0
100
AcDbLine
10
0
20
-49.3
30
0
11
0.7
21
-50
31
0
39
0
210
0
220
0
230
1
0
LINE
5
96
100
AcDbEntity
8
1
62
256
6
ByLayer
370
13
48
1
60
0
100
AcDbLine
10
0.7
20
50
30
0
11
0
21
49.3
31
0
39
0
210
0
220
0
230
1
0
LINE
5
97
100
AcDbEntity
8
1
62
256
6
ByLayer
370
13
48
1
60
0
100
AcDbLine
10
16.752405
20
38.950963
30
0
11
15
21
38.950963
31
0
39
0
210
0
220
0
230
1
0
LINE
5
98
100
AcDbEntity
8
1
62
256
6
ByLayer
370
13
48
1
60
0
100
AcDbLine
10
16.752405
20
48.808152
30
0
11
16.752405
21
38.950963
31
0
39
0
210
0
220
0
230
1
0
LINE
5
99
100
AcDbEntity
8
1
62
256
6
ByLayer
370
13
48
1
60
0
100
AcDbLine
10
16.752405
20
48.808152
30
0
11
15
21
48.808152
31
0
39
0
210
0
220
0
230
1
0
LINE
5
9A
100
AcDbEntity
8
1
62
256
6
ByLayer
370
13
48
1
60
0
100
AcDbLine
10
4.3
20
-50
30
0
11
4.3
21
-49.989713
31
0
39
0
210
0
220
0
230
1
0
LINE
5
9B
100
AcDbEntity
8
1
62
256
6
ByLayer
370
13
48
1
60
0
100
AcDbLine
10
15
20
-48.571546
30
0
11
16.752405
21
-48.571546
31
0
39
0
210
0
220
0
230
1
0
LINE
5
9C
100
AcDbEntity
8
1
62
256
6
ByLayer
370
13
48
1
60
0
100
AcDbLine
10
16.752405
20
31.35
30
0
11
16.752405
21
-48.571546
31
0
39
0
210
0
220
0
230
1
0
LINE
5
9D
100
AcDbEntity
8
1
62
256
6
ByLayer
370
13
48
1
60
0
100
AcDbLine
10
5.911292
20
31.35
30
0
11
16.752405
21
31.35
31
0
39
0
210
0
220
0
230
1
0
LINE
5
9E
100
AcDbEntity
8
1
62
256
6
ByLayer
370
13
48
1
60
0
100
AcDbLine
10
0.7
20
-50
30
0
11
0.7
21
50
31
0
39
0
210
0
220
0
230
1
0
LINE
5
9F
100
AcDbEntity
8
1
62
256
6
ByLayer
370
13
48
1
60
0
100
AcDbLine
10
4.308726
20
50
30
0
11
0.7
21
50
31
0
39
0
210
0
220
0
230
1
0
LINE
5
A0
100
AcDbEntity
8
1
62
256
6
ByLayer
370
13
48
1
60
0
100
AcDbLine
10
0.7
20
-50
30
0
11
4.3
21
-50
31
0
39
0
210
0
220
0
230
1
0
LINE
5
A1
100
AcDbEntity
8
1
62
256
6
ByLayer
370
13
48
1
60
0
100
AcDbLine
10
21.875
20
46.560837
30
0
11
21.875
21
35.848139
31
0
39
0
210
0
220
0
230
1
0
LINE
5
A2
100
AcDbEntity
8
1
62
256
6
ByLayer
370
13
48
1
60
0
100
AcDbLine
10
28.3
20
48.808152
30
0
11
23.247595
21
48.808152
31
0
39
0
210
0
220
0
230
1
0
LINE
5
A3
100
AcDbEntity
8
1
62
256
6
ByLayer
370
13
48
1
60
0
100
AcDbLine
10
23.247595
20
48.808152
30
0
11
23.247595
21
38.950963
31
0
39
0
210
0
220
0
230
1
0
LINE
5
A4
100
AcDbEntity
8
1
62
256
6
ByLayer
370
13
48
1
60
0
100
AcDbLine
10
29
20
48.244107
30
0
11
29
21
38.048226
31
0
39
0
210
0
220
0
230
1
0
LINE
5
A5
100
AcDbEntity
8
1
62
256
6
ByLayer
370
13
48
1
60
0
100
AcDbLine
10
28.3
20
38.950963
30
0
11
28.3
21
48.808152
31
0
39
0
210
0
220
0
230
1
0
LINE
5
A6
100
AcDbEntity
8
1
62
256
6
ByLayer
370
13
48
1
60
0
100
AcDbLine
10
18.125
20
46.560837
30
0
11
18.125
21
35.848139
31
0
39
0
210
0
220
0
230
1
0
LINE
5
A7
100
AcDbEntity
8
1
62
256
6
ByLayer
370
13
48
1
60
0
100
AcDbLine
10
18.625
20
44.899889
30
0
11
18.625
21
33.662702
31
0
39
0
210
0
220
0
230
1
0
LINE
5
A8
100
AcDbEntity
8
1
62
256
6
ByLayer
370
13
48
1
60
0
100
AcDbLine
10
29
20
31.95
30
0
11
29
21
38.048226
31
0
39
0
210
0
220
0
230
1
0
LINE
5
A9
100
AcDbEntity
8
1
62
256
6
ByLayer
370
13
48
1
60
0
100
AcDbLine
10
28.3
20
38.950963
30
0
11
23.247595
21
38.950963
31
0
39
0
210
0
220
0
230
1
0
LINE
5
AA
100
AcDbEntity
8
1
62
256
6
ByLayer
370
13
48
1
60
0
100
AcDbLine
10
21.875
20
35.848139
30
0
11
21.875
21
34.342794
31
0
39
0
210
0
220
0
230
1
0
LINE
5
AB
100
AcDbEntity
8
1
62
256
6
ByLayer
370
13
48
1
60
0
100
AcDbLine
10
21.375
20
33.662702
30
0
11
18.625
21
33.662702
31
0
39
0
210
0
220
0
230
1
0
LINE
5
AC
100
AcDbEntity
8
1
62
256
6
ByLayer
370
13
48
1
60
0
100
AcDbLine
10
18.125
20
34.342794
30
0
11
18.125
21
35.848139
31
0
39
0
210
0
220
0
230
1
0
LINE
5
AD
100
AcDbEntity
8
1
62
256
6
ByLayer
370
13
48
1
60
0
100
AcDbLine
10
21.375
20
44.899889
30
0
11
21.375
21
33.662702
31
0
39
0
210
0
220
0
230
1
0
LINE
5
AE
100
AcDbEntity
8
1
62
256
6
ByLayer
370
13
48
1
60
0
100
AcDbLine
10
34
20
-26.5
30
0
11
34
21
26.5
31
0
39
0
210
0
220
0
230
1
0
LINE
5
AF
100
AcDbEntity
8
1
62
256
6
ByLayer
370
13
48
1
60
0
100
AcDbLine
10
29
20
31.95
30
0
11
29
21
31.35
31
0
39
0
210
0
220
0
230
1
0
LINE
5
B0
100
AcDbEntity
8
1
62
256
6
ByLayer
370
13
48
1
60
0
100
AcDbLine
10
29
20
31.95
30
0
11
15
21
31.95
31
0
39
0
210
0
220
0
230
1
0
LINE
5
B1
100
AcDbEntity
8
SK1
62
256
6
ByLayer
370
13
48
1
60
0
100
AcDbLine
10
-48.394431
20
-32.25
30
0
11
-37
21
-32.25
31
0
39
0
210
0
220
0
230
1
0
LINE
5
B2
100
AcDbEntity
8
SK1
62
256
6
ByLayer
370
13
48
1
60
0
100
AcDbLine
10
-37
20
-32.25
30
0
11
-37
21
-31.718112
31
0
39
0
210
0
220
0
230
1
0
LINE
5
B3
100
AcDbEntity
8
SK1
62
256
6
ByLayer
370
13
48
1
60
0
100
AcDbLine
10
-37
20
-31.718112
30
0
11
-39.329769
21
-31.718112
31
0
39
0
210
0
220
0
230
1
0
LINE
5
B4
100
AcDbEntity
8
SK1
62
256
6
ByLayer
370
13
48
1
60
0
100
AcDbLine
10
-37
20
-30.733548
30
0
11
-37
21
-31.718112
31
0
39
0
210
0
220
0
230
1
0
LINE
5
B5
100
AcDbEntity
8
1
62
256
6
ByLayer
370
13
48
1
60
0
100
AcDbLine
10
120
20
21.078702
30
0
11
120
21
-21.078702
31
0
39
0
210
0
220
0
230
1
0
LINE
5
B6
100
AcDbEntity
8
1
62
256
6
ByLayer
370
13
48
1
60
0
100
AcDbLine
10
120
20
21.078702
30
0
11
119
21
22.078702
31
0
39
0
210
0
220
0
230
1
0
LINE
5
B7
100
AcDbEntity
8
1
62
256
6
ByLayer
370
13
48
1
60
0
100
AcDbLine
10
119
20
-22.078702
30
0
11
120
21
-21.078702
31
0
39
0
210
0
220
0
230
1
0
LINE
5
B8
100
AcDbEntity
8
1
62
256
6
ByLayer
370
13
48
1
60
0
100
AcDbLine
10
119
20
22.078702
30
0
11
119
21
-22.078702
31
0
39
0
210
0
220
0
230
1
0
LINE
5
B9
100
AcDbEntity
8
1
62
256
6
ByLayer
370
13
48
1
60
0
100
AcDbLine
10
119
20
22.078702
30
0
11
62.822079
21
26.5
31
0
39
0
210
0
220
0
230
1
0
LINE
5
BA
100
AcDbEntity
8
1
62
256
6
ByLayer
370
13
48
1
60
0
100
AcDbLine
10
62.822079
20
-26.5
30
0
11
119
21
-22.078702
31
0
39
0
210
0
220
0
230
1
0
LINE
5
BB
100
AcDbEntity
8
1
62
256
6
ByLayer
370
13
48
1
60
0
100
AcDbLine
10
62.822079
20
26.5
30
0
11
62.822079
21
-26.5
31
0
39
0
210
0
220
0
230
1
0
LINE
5
BC
100
AcDbEntity
8
1
62
256
6
ByLayer
370
13
48
1
60
0
100
AcDbLine
10
62.822079
20
26.5
30
0
11
62.638444
21
26.5
31
0
39
0
210
0
220
0
230
1
0
LINE
5
BD
100
AcDbEntity
8
1
62
256
6
ByLayer
370
13
48
1
60
0
100
AcDbLine
10
55.359632
20
26.5
30
0
11
34
21
26.5
31
0
39
0
210
0
220
0
230
1
0
LINE
5
BE
100
AcDbEntity
8
1
62
256
6
ByLayer
370
13
48
1
60
0
100
AcDbLine
10
34
20
-26.5
30
0
11
55.35529
21
-26.5
31
0
39
0
210
0
220
0
230
1
0
LINE
5
BF
100
AcDbEntity
8
1
62
256
6
ByLayer
370
13
48
1
60
0
100
AcDbLine
10
62.640616
20
-26.5
30
0
11
62.822079
21
-26.5
31
0
39
0
210
0
220
0
230
1
0
LINE
5
C0
100
AcDbEntity
8
1
62
256
6
ByLayer
370
13
48
1
60
0
100
AcDbLine
10
21.375
20
44.899889
30
0
11
18.625
21
44.899889
31
0
39
0
210
0
220
0
230
1
0
LINE
5
C1
100
AcDbEntity
8
SK1
62
256
6
ByLayer
370
13
48
1
60
0
100
AcDbLine
10
-40
20
33.620846
30
0
11
-40
21
35.703494
31
0
39
0
210
0
220
0
230
1
0
LINE
5
C2
100
AcDbEntity
8
SK1
62
256
6
ByLayer
370
13
48
1
60
0
100
AcDbLine
10
-39.700376
20
36.018505
30
0
11
-40
21
35.703494
31
0
39
0
210
0
220
0
230
1
0
LINE
5
C3
100
AcDbEntity
8
SK1
62
256
6
ByLayer
370
13
48
1
60
0
100
AcDbLine
10
-35
20
-35.953995
30
0
11
-35
21
-33.765213
31
0
39
0
210
0
220
0
230
1
0
LINE
5
C4
100
AcDbEntity
8
SK1
62
256
6
ByLayer
370
13
48
1
60
0
100
AcDbLine
10
-35
20
-35.953995
30
0
11
-34.700376
21
-36.269006
31
0
39
0
210
0
220
0
230
1
0
LINE
5
C5
100
AcDbEntity
8
SK1
62
256
6
ByLayer
370
13
48
1
60
0
100
AcDbLine
10
-42
20
32.25
30
0
11
-48.399923
21
32.25
31
0
39
0
210
0
220
0
230
1
0
LINE
5
C6
100
AcDbEntity
8
SK1
62
256
6
ByLayer
370
13
48
1
60
0
100
AcDbLine
10
-48.516626
20
32.233374
30
0
11
-49.884107
21
30.865893
31
0
39
0
210
0
220
0
230
1
0
LINE
5
C7
100
AcDbEntity
8
SK1
62
256
6
ByLayer
370
13
48
1
60
0
100
AcDbLine
10
-49.884107
20
-30.865893
30
0
11
-48.516626
21
-32.233374
31
0
39
0
210
0
220
0
230
1
0
LINE
5
C8
100
AcDbEntity
8
SK1
62
256
6
ByLayer
370
13
48
1
60
0
100
AcDbLine
10
-42
20
32.113459
30
0
11
-42
21
32.25
31
0
39
0
210
0
220
0
230
1
0
LINE
5
C9
100
AcDbEntity
8
1
62
256
6
ByLayer
370
13
48
1
60
0
100
AcDbLine
10
4.3
20
-50
30
0
11
4.327114
21
-49.972886
31
0
39
0
210
0
220
0
230
1
0
LINE
5
CA
100
AcDbEntity
8
SK3
62
256
6
ByLayer
370
13
48
0.05
60
0
100
AcDbLine
10
4.327114
20
-49.972886
30
0
11
5
21
-49.3
31
0
39
0
210
0
220
0
230
1
0
LINE
5
CC
100
AcDbEntity
8
SK3
62
256
6
ByLayer
370
13
48
0.05
60
0
100
AcDbLine
10
5
20
-49.3
30
0
11
5
21
-49.289857
31
0
39
0
210
0
220
0
230
1
0
LINE
5
CD
100
AcDbEntity
8
SK3
62
256
6
ByLayer
370
13
48
0.05
60
0
100
AcDbLine
10
29
20
43.9
30
0
11
15
21
43.9
31
0
39
0
210
0
220
0
230
1
0
LINE
5
CE
100
AcDbEntity
8
SK3
62
256
6
ByLayer
370
13
48
0.05
60
0
100
AcDbLine
10
5
20
49.299542
30
0
11
5
21
44.5
31
0
39
0
210
0
220
0
230
1
0
LINE
5
CF
100
AcDbEntity
8
SK3
62
256
6
ByLayer
370
13
48
0.05
60
0
100
AcDbLine
10
5.6
20
43.9
30
0
11
15
21
43.9
31
0
39
0
210
0
220
0
230
1
0
LINE
5
D0
100
AcDbEntity
8
SK3
62
256
6
ByLayer
370
13
48
0.05
60
0
100
AcDbLine
10
15
20
-43.9
30
0
11
29
21
-43.9
31
0
39
0
210
0
220
0
230
1
0
LINE
5
D1
100
AcDbEntity
8
SK3
62
256
6
ByLayer
370
13
48
0.05
60
0
100
AcDbLine
10
5.6
20
-43.9
30
0
11
15
21
-43.9
31
0
39
0
210
0
220
0
230
1
0
LINE
5
D2
100
AcDbEntity
8
SK3
62
256
6
ByLayer
370
13
48
0.05
60
0
100
AcDbLine
10
5
20
-49.289857
30
0
11
5
21
-44.5
31
0
39
0
210
0
220
0
230
1
0
LINE
5
D3
100
AcDbEntity
8
SK3
62
256
6
ByLayer
370
13
48
0.05
60
0
100
AcDbLine
10
118.700962
20
12.7
30
0
11
73
21
12.7
31
0
39
0
210
0
220
0
230
1
0
LINE
5
D4
100
AcDbEntity
8
SK3
62
256
6
ByLayer
370
13
48
0.05
60
0
100
AcDbLine
10
73
20
-12.7
30
0
11
118.700962
21
-12.7
31
0
39
0
210
0
220
0
230
1
0
LINE
5
D5
100
AcDbEntity
8
SK3
62
256
6
ByLayer
370
13
48
0.05
60
0
100
AcDbLine
10
73
20
12.7
30
0
11
73
21
-12.7
31
0
39
0
210
0
220
0
230
1
0
LINE
5
D6
100
AcDbEntity
8
SK3
62
256
6
ByLayer
370
13
48
0.05
60
0
100
AcDbLine
10
118.700962
20
12.7
30
0
11
118.700962
21
-12.7
31
0
39
0
210
0
220
0
230
1
0
LINE
5
D7
100
AcDbEntity
8
SK3
62
256
6
ByLayer
370
13
48
0.05
60
0
100
AcDbLine
10
118.700962
20
-12.7
30
0
11
119.764103
21
-13.313805
31
0
39
0
210
0
220
0
230
1
0
LINE
5
D8
100
AcDbEntity
8
SK3
62
256
6
ByLayer
370
13
48
0.05
60
0
100
AcDbLine
10
119.764103
20
13.313805
30
0
11
118.700962
21
12.7
31
0
39
0
210
0
220
0
230
1
0
LINE
5
D9
100
AcDbEntity
8
SK3
62
256
6
ByLayer
370
13
48
0.05
60
0
100
AcDbLine
10
119.764103
20
13.313805
30
0
11
119.764103
21
-13.313805
31
0
39
0
210
0
220
0
230
1
0
LINE
5
DA
100
AcDbEntity
8
81
62
256
6
ByLayer
370
18
48
1
60
0
100
AcDbLine
10
120
20
0
30
0
11
123
21
0
31
0
39
0
210
0
220
0
230
1
0
LINE
5
DB
100
AcDbEntity
8
80
62
256
6
ByLayer
370
18
48
1
60
0
100
AcDbLine
10
0
20
0
30
0
11
-3
21
0
31
0
39
0
210
0
220
0
230
1
0
LINE
5
132
100
AcDbEntity
8
4
62
256
6
ByLayer
370
13
48
0.05
60
0
100
AcDbLine
10
121.357461
20
0
30
0
11
0
21
0
31
0
39
0
210
0
220
0
230
1
0
LINE
5
134
100
AcDbEntity
8
SK4
62
256
6
ByLayer
370
13
48
0.05
60
0
100
AcDbLine
10
122.304363
20
0
30
0
11
-52.3
21
0
31
0
39
0
210
0
220
0
230
1
0
MTEXT
5
12E
100
AcDbEntity
8
SK6
62
256
6
ByLayer
370
18
48
1
60
0
100
AcDbMText
10
-2.617409
20
-67.007453
30
0
210
0
220
0
230
1
1
\W0.7426;HA10-A-SH25-S-120
40
3.5
41
0
44
1.084337
50
0
71
7
72
5
7
iso_b_vert
0
DIMENSION
5
137
100
AcDbEntity
8
2
62
256
6
ByLayer
370
18
48
1
60
0
100
AcDbDimension
2
_U0
10
120
20
78.550955
30
0
11
60
21
78.550955
31
0
70
32
71
1
72
1
41
1
210
0
220
0
230
1
3
Standard
100
AcDbAlignedDimension
13
0
23
49.3
33
0
14
120
24
21.078702
34
0
50
0
100
AcDbRotatedDimension
1001
ACAD
1000
DSTYLE
1002
{
1070
   371
1070
    13
1070
   372
1070
    13
1070
   170
1070
     0
1070
   144
1040
1.0
1070
   277
1070
     2
1070
   284
1070
     8
1070
   278
1070
    46
1070
   146
1040
1.166667
1070
   345
1005
16
1070
   347
1005
16
1070
   346
1005
16
1070
   344
1005
0
1070
   343
1005
0
1070
   172
1070
     1
1070
    76
1070
     0
1070
    75
1070
     0
1070
   282
1070
     0
1070
   281
1070
     0
1070
    71
1070
     0
1070
    74
1070
     0
1070
   279
1070
     0
1070
   173
1070
     1
1070
   340
1005
12F
1070
   271
1070
     2
1070
   272
1070
     2
1070
    77
1070
     1
1070
    73
1070
     1
1070
   171
1070
     3
1070
   274
1070
     4
1070
   177
1070
     7
1070
   176
1070
     7
1070
   178
1070
     7
1070
    78
1070
     8
1070
    48
1040
-0.1
1070
    41
1040
3.175
1070
   147
1040
1.5
1070
    42
1040
1.5875
1070
    44
1040
2.0
1070
   140
1040
3.0
1002
}
1001
ACAD_DSTYLE_DIM_LINETYPE
1070
   380
1005
16
1001
ACAD_DSTYLE_DIM_EXT1_LINETYPE
1070
   381
1005
16
1001
ACAD_DSTYLE_DIM_EXT2_LINETYPE
1070
   382
1005
16
0
DIMENSION
5
151
100
AcDbEntity
8
SK2
62
256
6
ByLayer
370
18
48
1
60
0
100
AcDbDimension
2
_U1
10
29
20
63.641272
30
0
11
14.5
21
63.641272
31
0
70
32
71
1
72
1
41
1
210
0
220
0
230
1
3
Standard
100
AcDbAlignedDimension
13
0
23
49.3
33
0
14
29
24
48.244107
34
0
50
0
100
AcDbRotatedDimension
1001
ACAD
1000
DSTYLE
1002
{
1070
   371
1070
    13
1070
   372
1070
    13
1070
   170
1070
     0
1070
   144
1040
1.0
1070
   277
1070
     2
1070
   284
1070
     8
1070
   278
1070
    46
1070
   146
1040
1.166667
1070
   345
1005
16
1070
   347
1005
16
1070
   346
1005
16
1070
   344
1005
0
1070
   343
1005
0
1070
   172
1070
     1
1070
    76
1070
     0
1070
    75
1070
     0
1070
   282
1070
     0
1070
   281
1070
     0
1070
    71
1070
     0
1070
    74
1070
     0
1070
   279
1070
     0
1070
   173
1070
     1
1070
   340
1005
12F
1070
   271
1070
     2
1070
   272
1070
     2
1070
    77
1070
     1
1070
    73
1070
     1
1070
   171
1070
     3
1070
   274
1070
     4
1070
   177
1070
     7
1070
   176
1070
     7
1070
   178
1070
     7
1070
    78
1070
     8
1070
    48
1040
-0.1
1070
    41
1040
3.175
1070
   147
1040
1.5
1070
    42
1040
1.5875
1070
    44
1040
2.0
1070
   140
1040
3.0
1002
}
1001
ACAD_DSTYLE_DIM_LINETYPE
1070
   380
1005
16
1001
ACAD_DSTYLE_DIM_EXT1_LINETYPE
1070
   381
1005
16
1001
ACAD_DSTYLE_DIM_EXT2_LINETYPE
1070
   382
1005
16
0
DIMENSION
5
16A
100
AcDbEntity
8
SK2
62
256
6
ByLayer
370
18
48
1
60
0
100
AcDbDimension
2
_U2
10
120
20
63.641272
30
0
11
74.5
21
63.641272
31
0
70
32
71
1
72
1
41
1
210
0
220
0
230
1
3
Standard
100
AcDbAlignedDimension
13
29
23
48.244107
33
0
14
120
24
21.078702
34
0
50
0
100
AcDbRotatedDimension
1001
ACAD
1000
DSTYLE
1002
{
1070
   371
1070
    13
1070
   372
1070
    13
1070
   170
1070
     0
1070
   144
1040
1.0
1070
   277
1070
     2
1070
   284
1070
     8
1070
   278
1070
    46
1070
   146
1040
1.166667
1070
   345
1005
16
1070
   347
1005
16
1070
   346
1005
16
1070
   344
1005
0
1070
   343
1005
0
1070
   172
1070
     1
1070
    76
1070
     0
1070
    75
1070
     0
1070
   282
1070
     0
1070
   281
1070
     0
1070
    71
1070
     0
1070
    74
1070
     0
1070
   279
1070
     0
1070
   173
1070
     1
1070
   340
1005
12F
1070
   271
1070
     2
1070
   272
1070
     2
1070
    77
1070
     1
1070
    73
1070
     1
1070
   171
1070
     3
1070
   274
1070
     4
1070
   177
1070
     7
1070
   176
1070
     7
1070
   178
1070
     7
1070
    78
1070
     8
1070
    48
1040
-0.1
1070
    41
1040
3.175
1070
   147
1040
1.5
1070
    42
1040
1.5875
1070
    44
1040
2.0
1070
   140
1040
3.0
1002
}
1001
ACAD_DSTYLE_DIM_LINETYPE
1070
   380
1005
16
1001
ACAD_DSTYLE_DIM_EXT1_LINETYPE
1070
   381
1005
16
1001
ACAD_DSTYLE_DIM_EXT2_LINETYPE
1070
   382
1005
16
0
DIMENSION
5
182
100
AcDbEntity
8
SK2
62
256
6
ByLayer
370
18
48
1
60
0
100
AcDbDimension
2
_U3
10
0
20
78.550955
30
0
11
-25
21
78.550955
31
0
70
32
71
1
72
1
41
1
210
0
220
0
230
1
3
Standard
100
AcDbAlignedDimension
13
-50
23
30.597096
33
0
14
0
24
49.3
34
0
50
0
100
AcDbRotatedDimension
1001
ACAD
1000
DSTYLE
1002
{
1070
   371
1070
    13
1070
   372
1070
    13
1070
   170
1070
     0
1070
   144
1040
1.0
1070
   277
1070
     2
1070
   284
1070
     8
1070
   278
1070
    46
1070
   146
1040
1.166667
1070
   345
1005
16
1070
   347
1005
16
1070
   346
1005
16
1070
   344
1005
0
1070
   343
1005
0
1070
   172
1070
     1
1070
    76
1070
     0
1070
    75
1070
     0
1070
   282
1070
     0
1070
   281
1070
     0
1070
    71
1070
     0
1070
    74
1070
     0
1070
   279
1070
     0
1070
   173
1070
     1
1070
   340
1005
12F
1070
   271
1070
     2
1070
   272
1070
     2
1070
    77
1070
     1
1070
    73
1070
     1
1070
   171
1070
     3
1070
   274
1070
     4
1070
   177
1070
     7
1070
   176
1070
     7
1070
   178
1070
     7
1070
    78
1070
     8
1070
    48
1040
-0.1
1070
    41
1040
3.175
1070
   147
1040
1.5
1070
    42
1040
1.5875
1070
    44
1040
2.0
1070
   140
1040
3.0
1002
}
1001
ACAD_DSTYLE_DIM_LINETYPE
1070
   380
1005
16
1001
ACAD_DSTYLE_DIM_EXT1_LINETYPE
1070
   381
1005
16
1001
ACAD_DSTYLE_DIM_EXT2_LINETYPE
1070
   382
1005
16
0
DIMENSION
5
19A
100
AcDbEntity
8
2
62
256
6
ByLayer
370
18
48
1
60
0
100
AcDbDimension
2
_U4
10
153.480871
20
-22.078702
30
0
11
153.480871
21
0
31
0
70
32
71
1
72
1
41
1
210
0
220
0
230
1
3
Standard
100
AcDbAlignedDimension
13
119
23
22.078702
33
0
14
119
24
-22.078702
34
0
50
90
100
AcDbRotatedDimension
1001
ACAD
1000
DSTYLE
1002
{
1070
   371
1070
    13
1070
   372
1070
    13
1070
   170
1070
     0
1070
   144
1040
1.0
1070
   277
1070
     2
1070
   284
1070
     8
1070
   278
1070
    46
1070
   146
1040
1.166667
1070
   345
1005
16
1070
   347
1005
16
1070
   346
1005
16
1070
   344
1005
0
1070
   343
1005
0
1070
   172
1070
     1
1070
    76
1070
     0
1070
    75
1070
     0
1070
   282
1070
     0
1070
   281
1070
     0
1070
    71
1070
     0
1070
    74
1070
     0
1070
   279
1070
     0
1070
   173
1070
     1
1070
   340
1005
12F
1070
   271
1070
     0
1070
   272
1070
     2
1070
    77
1070
     1
1070
    73
1070
     0
1070
   171
1070
     3
1070
   274
1070
     4
1070
   177
1070
     7
1070
   176
1070
     7
1070
   178
1070
     7
1070
    78
1070
     8
1070
    48
1040
-0.1
1070
    41
1040
3.175
1070
   147
1040
1.5
1070
    42
1040
1.5875
1070
    44
1040
2.0
1070
   140
1040
3.0
1002
}
1001
ACAD_DSTYLE_DIM_LINETYPE
1070
   380
1005
16
1001
ACAD_DSTYLE_DIM_EXT1_LINETYPE
1070
   381
1005
16
1001
ACAD_DSTYLE_DIM_EXT2_LINETYPE
1070
   382
1005
16
0
DIMENSION
5
1B3
100
AcDbEntity
8
SK2
62
256
6
ByLayer
370
18
48
1
60
0
100
AcDbDimension
2
_U5
10
173.75
20
-26.5
30
0
11
173.75
21
-0.059233
31
0
70
32
71
1
72
1
41
1
210
0
220
0
230
1
3
Standard
100
AcDbAlignedDimension
13
56.5086
23
26.381534
33
0
14
55.349999
24
-26.5
34
0
50
90
100
AcDbRotatedDimension
1001
ACAD
1000
DSTYLE
1002
{
1070
   371
1070
    13
1070
   372
1070
    13
1070
   170
1070
     0
1070
   144
1040
1.0
1070
   277
1070
     2
1070
   284
1070
     8
1070
   278
1070
    46
1070
   146
1040
1.166667
1070
   345
1005
16
1070
   347
1005
16
1070
   346
1005
16
1070
   344
1005
0
1070
   343
1005
0
1070
   172
1070
     1
1070
    76
1070
     0
1070
    75
1070
     0
1070
   282
1070
     0
1070
   281
1070
     0
1070
    71
1070
     0
1070
    74
1070
     0
1070
   279
1070
     0
1070
   173
1070
     1
1070
   340
1005
12F
1070
   271
1070
     0
1070
   272
1070
     2
1070
    77
1070
     1
1070
    73
1070
     0
1070
   171
1070
     3
1070
   274
1070
     4
1070
   177
1070
     7
1070
   176
1070
     7
1070
   178
1070
     7
1070
    78
1070
     8
1070
    48
1040
-0.1
1070
    41
1040
3.175
1070
   147
1040
1.5
1070
    42
1040
1.5875
1070
    44
1040
2.0
1070
   140
1040
3.0
1002
}
1001
ACAD_DSTYLE_DIM_LINETYPE
1070
   380
1005
16
1001
ACAD_DSTYLE_DIM_EXT1_LINETYPE
1070
   381
1005
16
1001
ACAD_DSTYLE_DIM_EXT2_LINETYPE
1070
   382
1005
16
0
DIMENSION
5
1CC
100
AcDbEntity
8
SK2
62
256
6
ByLayer
370
18
48
1
60
0
100
AcDbDimension
2
_U6
10
-69.122941
20
-50
30
0
11
-69.122941
21
0
31
0
70
32
71
1
72
1
41
1
210
0
220
0
230
1
3
Standard
100
AcDbAlignedDimension
13
0.7
23
50
33
0
14
0.7
24
-50
34
0
50
90
100
AcDbRotatedDimension
1001
ACAD
1000
DSTYLE
1002
{
1070
   371
1070
    13
1070
   372
1070
    13
1070
   170
1070
     0
1070
   144
1040
1.0
1070
   277
1070
     2
1070
   284
1070
     8
1070
   278
1070
    46
1070
   146
1040
1.166667
1070
   345
1005
16
1070
   347
1005
16
1070
   346
1005
16
1070
   344
1005
0
1070
   343
1005
0
1070
   172
1070
     1
1070
    76
1070
     0
1070
    75
1070
     0
1070
   282
1070
     0
1070
   281
1070
     0
1070
    71
1070
     0
1070
    74
1070
     0
1070
   279
1070
     0
1070
   173
1070
     1
1070
   340
1005
12F
1070
   271
1070
     2
1070
   272
1070
     2
1070
    77
1070
     1
1070
    73
1070
     0
1070
   171
1070
     3
1070
   274
1070
     4
1070
   177
1070
     7
1070
   176
1070
     7
1070
   178
1070
     7
1070
    78
1070
     8
1070
    48
1040
-0.1
1070
    41
1040
3.175
1070
   147
1040
1.5
1070
    42
1040
1.5875
1070
    44
1040
2.0
1070
   140
1040
3.0
1002
}
1001
ACAD_DSTYLE_DIM_LINETYPE
1070
   380
1005
16
1001
ACAD_DSTYLE_DIM_EXT1_LINETYPE
1070
   381
1005
16
1001
ACAD_DSTYLE_DIM_EXT2_LINETYPE
1070
   382
1005
16
0
ENDSEC
0
SECTION
2
OBJECTS
0
DICTIONARY
5
256
330
0
100
AcDbDictionary
280
0
281
1
3
ACAD_GROUP
350
257
3
ACAD_MLINESTYLE
350
258
0
DICTIONARY
5
257
330
0
100
AcDbDictionary
280
0
281
1
0
DICTIONARY
5
258
330
0
100
AcDbDictionary
280
0
281
1
3
Standard
350
18
0
MLINESTYLE
5
18
330
258
100
AcDbMlineStyle
2
Standard
70
0
3

62
256
51
90
52
90
71
2
49
-0.5
62
256
6
ByLayer
49
0.5
62
256
6
ByLayer
0
RASTERVARIABLES
5
243
330

100
AcDbRasterVariables
90
0
70
1
71
1
72
1
0
ENDSEC
0
EOF
