0
SECTION
2
HEADER
9
$ACADVER
1
AC1015
9
$DWGCODEPAGE
3
ANSI_1252
9
$HANDSEED
5
1fc
9
$ANGBASE
50
0
9
$ANGDIR
70
0
9
$ATTMODE
70
1
9
$AUNITS
70
0
9
$AUPREC
70
0
9
$CECOLOR
62
256
9
$CELTSCALE
40
1
9
$CELTYPE
6
ByLayer
9
$CELWEIGHT
370
18
9
$CLAYER
8
0
9
$CMLJUST
70
0
9
$CMLSCALE
40
1
9
$CMLSTYLE
2
Standard
9
$DIMSTYLE
2
Standard
9
$TEXTSIZE
40
0.2
9
$TEXTSTYLE
7
Standard
9
$LUNITS
70
2
9
$LUPREC
70
4
9
$EXTNAMES
290
1
9
$INSUNITS
70
4
9
$LTSCALE
40
1
9
$LWDISPLAY
290
1
9
$PDMODE
70
0
9
$PDSIZE
40
0
9
$PLINEGEN
70
0
0
ENDSEC
0
SECTION
2
CLASSES
0
CLASS
1
RASTERVARIABLES
2
AcDbRasterVariables
3
ISM
90
0
280
0
281
0
0
ENDSEC
0
SECTION
2
TABLES
0
TABLE
2
VPORT
5
1f2
100
AcDbSymbolTable
0
VPORT
5
1
100
AcDbSymbolTableRecord
100
AcDbViewportTableRecord
2
*Active
70
0
10
0
20
0
11
1
21
1
12
-1
22
1
13
0
23
0
14
0.5
24
0.5
15
10
25
10
16
0
26
0
36
1
17
0
27
0
37
0
0
ENDTAB
0
TABLE
2
LTYPE
5
1f3
100
AcDbSymbolTable
0
LTYPE
5
14
100
AcDbSymbolTableRecord
100
AcDbLinetypeTableRecord
70
0
2
ByBlock
3

72
65
73
0
40
0
0
LTYPE
5
15
100
AcDbSymbolTableRecord
100
AcDbLinetypeTableRecord
70
0
2
ByLayer
3

72
65
73
0
40
0
0
LTYPE
5
16
100
AcDbSymbolTableRecord
100
AcDbLinetypeTableRecord
70
0
2
Continuous
3
Solid line
72
65
73
0
40
0
0
LTYPE
5
6E
100
AcDbSymbolTableRecord
100
AcDbLinetypeTableRecord
70
0
2
CENTER
3
____ _ ____ _ ____ _ ____
72
65
73
4
40
47.5
49
22
74
0
49
-8.5
74
0
49
8.5
74
0
49
-8.5
74
0
0
LTYPE
5
6F
100
AcDbSymbolTableRecord
100
AcDbLinetypeTableRecord
70
0
2
DASHED
3
__ __ __ __ __ __ __ __ __
72
65
73
2
40
25.72
49
12.86
74
0
49
-12.86
74
0
0
ENDTAB
0
TABLE
2
LAYER
5
1f4
100
AcDbSymbolTable
0
LAYER
5
10
100
AcDbSymbolTableRecord
100
AcDbLayerTableRecord
2
0
70
0
62
7
6
Continuous
290
1
370
-3
390
0
0
LAYER
5
71
100
AcDbSymbolTableRecord
100
AcDbLayerTableRecord
2
1
70
0
62
4
6
Continuous
290
1
370
-3
390
0
0
LAYER
5
73
100
AcDbSymbolTableRecord
100
AcDbLayerTableRecord
2
80
70
0
62
-6
6
Continuous
290
1
370
-3
390
0
0
LAYER
5
75
100
AcDbSymbolTableRecord
100
AcDbLayerTableRecord
2
81
70
0
62
-3
6
Continuous
290
1
370
-3
390
0
0
LAYER
5
D7
100
AcDbSymbolTableRecord
100
AcDbLayerTableRecord
2
4
70
0
62
-2
6
CENTER
290
1
370
-3
390
0
0
LAYER
5
150
100
AcDbSymbolTableRecord
100
AcDbLayerTableRecord
2
Defpoints
70
0
62
7
6
Continuous
290
0
370
-3
390
0
0
LAYER
5
15D
100
AcDbSymbolTableRecord
100
AcDbLayerTableRecord
2
2
70
0
62
7
6
Continuous
290
1
370
-3
390
0
0
LAYER
5
1de
100
AcDbSymbolTableRecord
100
AcDbLayerTableRecord
2
SK1
70
0
62
4
6
Continuous
290
1
370
-3
390
0
0
LAYER
5
1df
100
AcDbSymbolTableRecord
100
AcDbLayerTableRecord
2
SK4
70
0
62
2
6
CENTER
290
1
370
-3
390
0
0
LAYER
5
1e0
100
AcDbSymbolTableRecord
100
AcDbLayerTableRecord
2
SK2
70
0
62
7
6
Continuous
290
1
370
-3
390
0
0
LAYER
5
1e1
100
AcDbSymbolTableRecord
100
AcDbLayerTableRecord
2
SK6
70
0
62
5
6
Continuous
290
1
370
-3
390
0
0
ENDTAB
0
TABLE
2
STYLE
5
1f5
100
AcDbSymbolTable
0
STYLE
5
11
100
AcDbSymbolTableRecord
100
AcDbTextStyleTableRecord
2
Standard
3
txt
70
0
71
0
40
0
41
1
42
0
50
0
0
STYLE
5
135
100
AcDbSymbolTableRecord
100
AcDbTextStyleTableRecord
2
iso_b_vert
3
simplex.shx
70
0
71
0
40
0
41
1
42
0
50
0
0
STYLE
5
136
100
AcDbSymbolTableRecord
100
AcDbTextStyleTableRecord
2
DWGDirectTextStyle
3
simplex
70
0
71
0
40
0
41
1
42
0
50
0
0
ENDTAB
0
TABLE
2
DIMSTYLE
5
1f6
100
AcDbSymbolTable
100
AcDbDimStyleTable
0
DIMSTYLE
105
27
100
AcDbSymbolTableRecord
100
AcDbDimStyleTableRecord
2
Standard
70
0
3
<>
41
0.18
42
0.0625
44
0.18
140
0.18
147
0.09
73
0
74
0
77
1
271
2
275
0
278
52
280
0
340
11
0
ENDTAB
0
TABLE
2
VIEW
5
1f7
100
AcDbSymbolTable
0
ENDTAB
0
TABLE
2
UCS
5
1f8
100
AcDbSymbolTable
0
ENDTAB
0
TABLE
2
APPID
5
1f9
100
AcDbSymbolTable
0
APPID
5
12
100
AcDbSymbolTableRecord
100
AcDbRegAppTableRecord
2
ACAD
70
0
0
APPID
5
14C
100
AcDbSymbolTableRecord
100
AcDbRegAppTableRecord
2
ACAD_DSTYLE_DIMBREAK
70
0
0
APPID
5
19D
100
AcDbSymbolTableRecord
100
AcDbRegAppTableRecord
2
ACAD_DSTYLE_DIM_LINETYPE
70
0
0
APPID
5
19E
100
AcDbSymbolTableRecord
100
AcDbRegAppTableRecord
2
ACAD_DSTYLE_DIM_EXT1_LINETYPE
70
0
0
APPID
5
19F
100
AcDbSymbolTableRecord
100
AcDbRegAppTableRecord
2
ACAD_DSTYLE_DIM_EXT2_LINETYPE
70
0
0
APPID
5
1DA
100
AcDbSymbolTableRecord
100
AcDbRegAppTableRecord
2
ACAD_MLEADERVER
70
0
0
ENDTAB
0
TABLE
2
BLOCK_RECORD
5
1fa
100
AcDbSymbolTable
0
BLOCK_RECORD
5
1F
100
AcDbSymbolTableRecord
100
AcDbBlockTableRecord
2
*Model_Space
340
0
70
0
0
BLOCK_RECORD
5
1B
100
AcDbSymbolTableRecord
100
AcDbBlockTableRecord
2
*Paper_Space
340
0
70
0
0
BLOCK_RECORD
5
23
100
AcDbSymbolTableRecord
100
AcDbBlockTableRecord
2
*Paper_Space0
340
0
70
0
0
BLOCK_RECORD
5
151
100
AcDbSymbolTableRecord
100
AcDbBlockTableRecord
2
*D1
340
0
70
0
0
BLOCK_RECORD
5
15E
100
AcDbSymbolTableRecord
100
AcDbBlockTableRecord
2
_U0
340
0
70
0
0
BLOCK_RECORD
5
16A
100
AcDbSymbolTableRecord
100
AcDbBlockTableRecord
2
*D3
340
0
70
0
0
BLOCK_RECORD
5
176
100
AcDbSymbolTableRecord
100
AcDbBlockTableRecord
2
_U1
340
0
70
0
0
ENDTAB
0
ENDSEC
0
SECTION
2
BLOCKS
0
BLOCK
5
20
100
AcDbEntity
8
0
100
AcDbBlockBegin
2
*Model_Space
70
0
10
0
20
0
30
0
3
*Model_Space
0
ENDBLK
5
21
100
AcDbEntity
8
0
100
AcDbBlockEnd
0
BLOCK
5
1C
100
AcDbEntity
8
0
100
AcDbBlockBegin
2
*Paper_Space
70
0
10
0
20
0
30
0
3
*Paper_Space
0
ENDBLK
5
1D
100
AcDbEntity
8
0
100
AcDbBlockEnd
0
BLOCK
5
24
100
AcDbEntity
8
0
100
AcDbBlockBegin
2
*Paper_Space0
70
0
10
0
20
0
30
0
3
*Paper_Space0
0
ENDBLK
5
25
100
AcDbEntity
8
0
100
AcDbBlockEnd
0
BLOCK
5
152
100
AcDbEntity
8
0
100
AcDbBlockBegin
2
*D1
70
1
10
0
20
0
30
0
3
*D1
0
LINE
5
154
100
AcDbEntity
8
0
62
256
6
ByLayer
370
-2
48
1
60
0
100
AcDbLine
10
130
20
41.5875
30
0
11
130
21
91.060025
31
0
39
0
210
0
220
0
230
1
0
LINE
5
155
100
AcDbEntity
8
0
62
256
6
ByLayer
370
-2
48
1
60
0
100
AcDbLine
10
0
20
64.0875
30
0
11
0
21
91.060025
31
0
39
0
210
0
220
0
230
1
0
LINE
5
156
100
AcDbEntity
8
0
62
256
6
ByLayer
370
-2
48
1
60
0
100
AcDbLine
10
126.5
20
89.060025
30
0
11
3.5
21
89.060025
31
0
39
0
210
0
220
0
230
1
0
SOLID
5
157
100
AcDbEntity
8
0
62
256
6
ByLayer
370
-1
48
1
60
0
100
AcDbTrace
10
126.5
20
88.476692
30
0
11
126.5
21
89.643358
31
0
12
130
22
89.060025
32
0
13
130
23
89.060025
33
0
39
0
210
0
220
0
230
1
0
SOLID
5
158
100
AcDbEntity
8
0
62
256
6
ByLayer
370
-1
48
1
60
0
100
AcDbTrace
10
3.5
20
89.643358
30
0
11
3.5
21
88.476692
31
0
12
0
22
89.060025
32
0
13
0
23
89.060025
33
0
39
0
210
0
220
0
230
1
0
MTEXT
5
159
100
AcDbEntity
8
0
62
256
6
ByLayer
370
18
48
1
60
0
100
AcDbMText
10
65
20
96.060025
30
0
210
0
220
0
230
1
1
\A1;130
40
3.5
41
0
44
1
50
0
71
5
72
5
7
iso_b_vert
0
POINT
5
15A
100
AcDbEntity
8
Defpoints
62
0
6
ByLayer
370
-1
48
1
60
0
100
AcDbPoint
10
130
20
40
30
0
39
0
210
0
220
0
230
1
50
360
0
POINT
5
15B
100
AcDbEntity
8
Defpoints
62
0
6
ByLayer
370
-1
48
1
60
0
100
AcDbPoint
10
0
20
62.5
30
0
39
0
210
0
220
0
230
1
50
360
0
POINT
5
15C
100
AcDbEntity
8
Defpoints
62
0
6
ByLayer
370
-1
48
1
60
0
100
AcDbPoint
10
0
20
89.060025
30
0
39
0
210
0
220
0
230
1
50
360
0
ENDBLK
5
153
100
AcDbEntity
8
0
100
AcDbBlockEnd
0
BLOCK
5
165
100
AcDbEntity
8
0
100
AcDbBlockBegin
2
_U0
70
0
10
0
20
0
30
0
3
_U0
0
MTEXT
5
15F
100
AcDbEntity
8
2
62
256
6
ByLayer
370
18
48
1
60
0
100
AcDbMText
10
62.224734
20
90.092659
30
0
210
0
220
0
230
1
1
\W0.6217;130
40
3.5
41
0
44
1.084337
50
0
71
7
72
5
7
iso_b_vert
0
LINE
5
160
100
AcDbEntity
8
2
62
256
6
ByLayer
370
13
48
1
60
0
100
AcDbLine
10
130
20
41.5875
30
0
11
130
21
91.060025
31
0
39
0
210
0
220
0
230
1
0
LINE
5
161
100
AcDbEntity
8
2
62
256
6
ByLayer
370
13
48
1
60
0
100
AcDbLine
10
0
20
64.0875
30
0
11
0
21
91.060025
31
0
39
0
210
0
220
0
230
1
0
LINE
5
162
100
AcDbEntity
8
2
62
256
6
ByLayer
370
13
48
1
60
0
100
AcDbLine
10
130
20
89.060025
30
0
11
0
21
89.060025
31
0
39
0
210
0
220
0
230
1
0
SOLID
5
163
100
AcDbEntity
8
2
62
256
6
ByLayer
370
18
48
1
60
0
100
AcDbTrace
10
130
20
89.060025
30
0
11
126.500002
21
88.599241
31
0
12
126.499998
22
89.520809
32
0
13
126.499998
23
89.520809
33
0
39
0
210
0
220
0
230
1
0
SOLID
5
164
100
AcDbEntity
8
2
62
256
6
ByLayer
370
18
48
1
60
0
100
AcDbTrace
10
0
20
89.060025
30
0
11
3.499998
21
89.520809
31
0
12
3.500002
22
88.599241
32
0
13
3.500002
23
88.599241
33
0
39
0
210
0
220
0
230
1
0
ENDBLK
5
166
100
AcDbEntity
8
0
100
AcDbBlockEnd
0
BLOCK
5
16B
100
AcDbEntity
8
0
100
AcDbBlockBegin
2
*D3
70
1
10
0
20
0
30
0
3
*D3
0
LINE
5
16D
100
AcDbEntity
8
0
62
256
6
ByLayer
370
-2
48
1
60
0
100
AcDbLine
10
-63
20
14.0875
30
0
11
-63
21
91.060025
31
0
39
0
210
0
220
0
230
1
0
LINE
5
16E
100
AcDbEntity
8
0
62
256
6
ByLayer
370
-2
48
1
60
0
100
AcDbLine
10
0
20
64.0875
30
0
11
0
21
91.060025
31
0
39
0
210
0
220
0
230
1
0
LINE
5
16F
100
AcDbEntity
8
0
62
256
6
ByLayer
370
-2
48
1
60
0
100
AcDbLine
10
-59.5
20
89.060025
30
0
11
-3.5
21
89.060025
31
0
39
0
210
0
220
0
230
1
0
SOLID
5
170
100
AcDbEntity
8
0
62
256
6
ByLayer
370
-1
48
1
60
0
100
AcDbTrace
10
-59.5
20
89.643358
30
0
11
-59.5
21
88.476692
31
0
12
-63
22
89.060025
32
0
13
-63
23
89.060025
33
0
39
0
210
0
220
0
230
1
0
SOLID
5
171
100
AcDbEntity
8
0
62
256
6
ByLayer
370
-1
48
1
60
0
100
AcDbTrace
10
-3.5
20
88.476692
30
0
11
-3.5
21
89.643358
31
0
12
0
22
89.060025
32
0
13
0
23
89.060025
33
0
39
0
210
0
220
0
230
1
0
MTEXT
5
172
100
AcDbEntity
8
0
62
256
6
ByLayer
370
18
48
1
60
0
100
AcDbMText
10
-31.5
20
96.060025
30
0
210
0
220
0
230
1
1
\A1;63
40
3.5
41
0
44
1
50
0
71
5
72
5
7
iso_b_vert
0
POINT
5
173
100
AcDbEntity
8
Defpoints
62
0
6
ByLayer
370
-1
48
1
60
0
100
AcDbPoint
10
-63
20
12.5
30
0
39
0
210
0
220
0
230
1
50
360
0
POINT
5
174
100
AcDbEntity
8
Defpoints
62
0
6
ByLayer
370
-1
48
1
60
0
100
AcDbPoint
10
0
20
62.5
30
0
39
0
210
0
220
0
230
1
50
360
0
POINT
5
175
100
AcDbEntity
8
Defpoints
62
0
6
ByLayer
370
-1
48
1
60
0
100
AcDbPoint
10
0
20
89.060025
30
0
39
0
210
0
220
0
230
1
50
360
0
ENDBLK
5
16C
100
AcDbEntity
8
0
100
AcDbBlockEnd
0
BLOCK
5
17D
100
AcDbEntity
8
0
100
AcDbBlockBegin
2
_U1
70
0
10
0
20
0
30
0
3
_U1
0
MTEXT
5
177
100
AcDbEntity
8
SK2
62
256
6
ByLayer
370
18
48
1
60
0
100
AcDbMText
10
-33.404966
20
90.092659
30
0
210
0
220
0
230
1
1
\W0.6740;63
40
3.5
41
0
44
1.084337
50
0
71
7
72
5
7
iso_b_vert
0
LINE
5
178
100
AcDbEntity
8
SK2
62
256
6
ByLayer
370
13
48
1
60
0
100
AcDbLine
10
-63
20
14.0875
30
0
11
-63
21
91.060025
31
0
39
0
210
0
220
0
230
1
0
LINE
5
179
100
AcDbEntity
8
SK2
62
256
6
ByLayer
370
13
48
1
60
0
100
AcDbLine
10
0
20
64.0875
30
0
11
0
21
91.060025
31
0
39
0
210
0
220
0
230
1
0
LINE
5
17A
100
AcDbEntity
8
SK2
62
256
6
ByLayer
370
13
48
1
60
0
100
AcDbLine
10
-63
20
89.060025
30
0
11
0
21
89.060025
31
0
39
0
210
0
220
0
230
1
0
SOLID
5
17B
100
AcDbEntity
8
SK2
62
256
6
ByLayer
370
18
48
1
60
0
100
AcDbTrace
10
-63
20
89.060025
30
0
11
-59.500002
21
89.520809
31
0
12
-59.499998
22
88.599241
32
0
13
-59.499998
23
88.599241
33
0
39
0
210
0
220
0
230
1
0
SOLID
5
17C
100
AcDbEntity
8
SK2
62
256
6
ByLayer
370
18
48
1
60
0
100
AcDbTrace
10
0
20
89.060025
30
0
11
-3.499998
21
88.599241
31
0
12
-3.500002
22
89.520809
32
0
13
-3.500002
23
89.520809
33
0
39
0
210
0
220
0
230
1
0
ENDBLK
5
17E
100
AcDbEntity
8
0
100
AcDbBlockEnd
0
ENDSEC
0
SECTION
2
ENTITIES
0
ARC
5
EE
100
AcDbEntity
8
SK1
62
256
6
ByLayer
370
18
48
1
60
0
100
AcDbCircle
39
0
10
-53.2
20
43.625
30
0
40
2.4
210
0
220
0
230
1
100
AcDbArc
50
270
51
305.009095
0
ARC
5
EF
100
AcDbEntity
8
SK1
62
256
6
ByLayer
370
18
48
1
60
0
100
AcDbCircle
39
0
10
-46.2
20
-43.625
30
0
40
2.4
210
0
220
0
230
1
100
AcDbArc
50
40.622229
51
90
0
ARC
5
F0
100
AcDbEntity
8
SK1
62
256
6
ByLayer
370
18
48
1
60
0
100
AcDbCircle
39
0
10
-1.4
20
49.183852
30
0
40
1.6
210
0
220
0
230
1
100
AcDbArc
50
270
51
331.044976
0
ARC
5
F1
100
AcDbEntity
8
SK1
62
256
6
ByLayer
370
18
48
1
60
0
100
AcDbCircle
39
0
10
-1.4
20
-49.183852
30
0
40
1.6
210
0
220
0
230
1
100
AcDbArc
50
28.955024
51
90
0
ARC
5
F2
100
AcDbEntity
8
1
62
256
6
ByLayer
370
18
48
1
60
0
100
AcDbCircle
39
0
10
34.95
20
-46
30
0
40
6
210
0
220
0
230
1
100
AcDbArc
50
90
51
180
0
ARC
5
F3
100
AcDbEntity
8
1
62
256
6
ByLayer
370
18
48
1
60
0
100
AcDbCircle
39
0
10
34.95
20
46
30
0
40
6
210
0
220
0
230
1
100
AcDbArc
50
180
51
270
0
ELLIPSE
5
F4
100
AcDbEntity
8
SK1
62
256
6
ByLayer
370
13
48
1
60
0
100
AcDbEllipse
10
-46.2
20
-42.722534
30
0
11
-2.4
21
2.93905524917371E-16
31
0
210
0
220
0
230
1
40
0.891007
41
-1.91016523019625
42
-1.5707963267949
0
POINT
5
70
100
AcDbEntity
8
1
62
256
6
ByLayer
370
18
48
1
60
0
100
AcDbPoint
10
0
20
0
30
0
39
0
210
0
220
0
230
1
50
360
0
POINT
5
72
100
AcDbEntity
8
80
62
256
6
ByLayer
370
18
48
1
60
0
100
AcDbPoint
10
0
20
0
30
0
39
0
210
0
220
0
230
1
50
360
0
POINT
5
74
100
AcDbEntity
8
81
62
256
6
ByLayer
370
18
48
1
60
0
100
AcDbPoint
10
130
20
0
30
0
39
0
210
0
220
0
230
1
50
360
0
POINT
5
76
100
AcDbEntity
8
1
62
256
6
ByLayer
370
18
48
1
60
1
100
AcDbPoint
10
130
20
40
30
0
39
0
210
0
220
0
230
1
50
360
0
POINT
5
77
100
AcDbEntity
8
1
62
256
6
ByLayer
370
18
48
1
60
1
100
AcDbPoint
10
0
20
62.5
30
0
39
0
210
0
220
0
230
1
50
360
0
POINT
5
78
100
AcDbEntity
8
1
62
256
6
ByLayer
370
18
48
1
60
1
100
AcDbPoint
10
-63
20
12.5
30
0
39
0
210
0
220
0
230
1
50
360
0
POINT
5
79
100
AcDbEntity
8
1
62
256
6
ByLayer
370
18
48
1
60
1
100
AcDbPoint
10
0
20
62.5
30
0
39
0
210
0
220
0
230
1
50
360
0
SPLINE
5
F5
100
AcDbEntity
8
SK1
62
256
6
ByLayer
370
18
48
1
60
0
100
AcDbSpline
70
4
71
3
72
22
73
18
40
0
40
0
40
0
40
0
40
0.0625000000000008
40
0.0625000000000008
40
0.125000000000002
40
0.125000000000002
40
0.250000000000002
40
0.250000000000002
40
0.375000000000002
40
0.375000000000002
40
0.500000000000002
40
0.500000000000002
40
0.750000000000002
40
0.750000000000002
40
0.875000000000001
40
0.875000000000001
40
1
40
1
40
1
40
1
41
1
10
-62.4783617161938
20
39.0441367969415
30
-3E-16
41
1
10
-62.4793475366976
20
39.0720349991034
30
-3E-16
41
1
10
-62.483074488715
20
39.0965203614387
30
-3E-16
41
1
10
-62.495074716501
20
39.1379304257204
30
-3E-16
41
1
10
-62.5032353895036
20
39.1548611752145
30
-3E-16
41
1
10
-62.5319807030542
20
39.1970042869528
30
-3E-16
41
1
10
-62.556640879234
20
39.2138029299645
30
-3E-16
41
1
10
-62.6088266010689
20
39.2336581658254
30
-3E-16
41
1
10
-62.6359881866188
20
39.2364754699367
30
-3E-16
41
1
10
-62.6886703288629
20
39.2325126722786
30
-3E-16
41
1
10
-62.7142543237654
20
39.225640055006
30
-3E-16
41
1
10
-62.7857732170616
20
39.1932198225525
30
-3E-16
41
1
10
-62.826474869941
20
39.1559462128573
30
-3E-16
41
1
10
-62.8694136048275
20
39.0808255129489
30
-3E-16
41
1
10
-62.880730533953
20
39.0524289468198
30
-3E-16
41
1
10
-62.8959940316044
20
38.9905280784301
30
-3E-16
41
1
10
-62.9
20
38.9569658718958
30
-3E-16
41
1
10
-62.9
20
38.9212224321875
30
-3E-16
0
SPLINE
5
F6
100
AcDbEntity
8
SK1
62
256
6
ByLayer
370
18
48
1
60
0
100
AcDbSpline
70
4
71
3
72
20
73
16
40
0
40
0
40
0
40
0
40
0.0624999999999987
40
0.0624999999999987
40
0.124999999999997
40
0.124999999999997
40
0.249999999999997
40
0.249999999999997
40
0.374999999999997
40
0.374999999999997
40
0.499999999999998
40
0.499999999999998
40
0.749999999999999
40
0.749999999999999
40
1
40
1
40
1
40
1
41
1
10
-61.7893320150763
20
-39.6580667559967
30
-2E-16
41
1
10
-61.7878817017441
20
-39.6881030214697
30
-2E-16
41
1
10
-61.7829894331964
20
-39.7202986411649
30
-2E-16
41
1
10
-61.7674926872316
20
-39.7864808244184
30
-2E-16
41
1
10
-61.7569187518964
20
-39.8206674565631
30
-2E-16
41
1
10
-61.7187964657762
20
-39.9252515328968
30
-2E-16
41
1
10
-61.6850345794659
20
-39.9975531824348
30
-2E-16
41
1
10
-61.6087717441737
20
-40.1423508807386
30
-2E-16
41
1
10
-61.5662490481026
20
-40.2147770922424
30
-2E-16
41
1
10
-61.476790147812
20
-40.3567198444445
30
-2E-16
41
1
10
-61.4297173861926
20
-40.4264197987637
30
-2E-16
41
1
10
-61.284114119451
20
-40.6305225117567
30
-2E-16
41
1
10
-61.1813089388527
20
-40.7598870774428
30
-2E-16
41
1
10
-60.9697854910846
20
-41.003188281761
30
-2E-16
41
1
10
-60.8609205329761
20
-41.1172070837406
30
-2E-16
41
1
10
-60.749999999993
20
-41.2232203119452
30
-2E-16
0
SPLINE
5
F7
100
AcDbEntity
8
SK1
62
256
6
ByLayer
370
18
48
1
60
0
100
AcDbSpline
70
4
71
3
72
8
73
4
40
0
40
0
40
0
40
0
40
1
40
1
40
1
40
1
41
1
10
-60.5250936050384
20
-41.2242494723012
30
-2E-16
41
1
10
-60.601812763105
20
-41.2241033316705
30
-2E-16
41
1
10
-60.6766912865729
20
-41.2238173678788
30
-2E-16
41
1
10
-60.7500000000049
20
-41.2232203119374
30
-2E-16
0
SPLINE
5
F8
100
AcDbEntity
8
SK1
62
256
6
ByLayer
370
18
48
1
60
0
100
AcDbSpline
70
4
71
3
72
24
73
20
40
0
40
0
40
0
40
0
40
0.125
40
0.125
40
0.1875
40
0.1875
40
0.25
40
0.25
40
0.375
40
0.375
40
0.5
40
0.5
40
0.625
40
0.625
40
0.6875
40
0.6875
40
0.75
40
0.75
40
1
40
1
40
1
40
1
41
1
10
-45.4010590643846
20
-40.7060830268574
30
8E-16
41
1
10
-45.3947507478951
20
-40.8253167331726
30
8E-16
41
1
10
-45.3394323505272
20
-40.9412237009676
30
8E-16
41
1
10
-45.2250294091813
20
-41.1116264414109
30
8E-16
41
1
10
-45.1818516605648
20
-41.1677305141135
30
8E-16
41
1
10
-45.0910347346076
20
-41.2783084625349
30
8E-16
41
1
10
-45.0432786221597
20
-41.3329008325036
30
8E-16
41
1
10
-44.8974512080264
20
-41.4951209388441
30
8E-16
41
1
10
-44.7970409708641
20
-41.60122099951
30
8E-16
41
1
10
-44.6020355817082
20
-41.810635638741
30
8E-16
41
1
10
-44.5072158767482
20
-41.9139221920044
30
8E-16
41
1
10
-44.3294991442257
20
-42.1181866649544
30
8E-16
41
1
10
-44.2465284549793
20
-42.2191561515328
30
8E-16
41
1
10
-44.1346416057354
20
-42.3690562488931
30
9E-16
41
1
10
-44.0994352723297
20
-42.4187625198028
30
9E-16
41
1
10
-44.033811485309
20
-42.5176739832053
30
9E-16
41
1
10
-44.0033502751621
20
-42.566963381987
30
9E-16
41
1
10
-43.8654873994911
20
-42.8106079278901
30
9E-16
41
1
10
-43.8
20
-42.9972513778017
30
9E-16
41
1
10
-43.8
20
-43.1748796459969
30
9E-16
0
SPLINE
5
F9
100
AcDbEntity
8
SK1
62
256
6
ByLayer
370
18
48
1
60
0
100
AcDbSpline
70
4
71
3
72
28
73
24
40
0
40
0
40
0
40
0
40
0.0312500000000008
40
0.0312500000000008
40
0.0468750000000043
40
0.0468750000000043
40
0.0625000000000077
40
0.0625000000000077
40
0.0937500000000075
40
0.0937500000000075
40
0.125000000000007
40
0.125000000000007
40
0.187500000000005
40
0.187500000000005
40
0.250000000000004
40
0.250000000000004
40
0.375000000000002
40
0.375000000000002
40
0.5
40
0.5
40
0.75
40
0.75
40
1
40
1
40
1
40
1
41
1
10
-46.2
20
-39.3776074127878
30
7E-16
41
1
10
-46.1744015994649
20
-39.3687055567013
30
7E-16
41
1
10
-46.1453897379167
20
-39.361993270907
30
7E-16
41
1
10
-46.0988372262466
20
-39.3588627764169
30
7E-16
41
1
10
-46.0825728720148
20
-39.3589884701699
30
7E-16
41
1
10
-46.0506806404578
20
-39.3617555222416
30
7E-16
41
1
10
-46.0350663127928
20
-39.3643520562957
30
7E-16
41
1
10
-45.9898950341744
20
-39.3751119760913
30
7E-16
41
1
10
-45.9633314759128
20
-39.3857926283172
30
7E-16
41
1
10
-45.9161131699535
20
-39.4097542426701
30
7E-16
41
1
10
-45.8954819476741
20
-39.4229952521337
30
7E-16
41
1
10
-45.8385491477839
20
-39.4647776754847
30
7E-16
41
1
10
-45.8082580366031
20
-39.4944302972651
30
7E-16
41
1
10
-45.7545210954988
20
-39.554526479859
30
8E-16
41
1
10
-45.7312514070193
20
-39.5851830349548
30
8E-16
41
1
10
-45.66786109123
20
-39.678090874354
30
8E-16
41
1
10
-45.6345543665325
20
-39.7405119564407
30
8E-16
41
1
10
-45.5772498566051
20
-39.8643685556005
30
8E-16
41
1
10
-45.5533955612263
20
-39.9260559664961
30
8E-16
41
1
10
-45.4912835766432
20
-40.1101669065668
30
8E-16
41
1
10
-45.4623348306606
20
-40.2316329630478
30
8E-16
41
1
10
-45.4201552300759
20
-40.4715384297138
30
8E-16
41
1
10
-45.4072065076478
20
-40.5898899908682
30
8E-16
41
1
10
-45.4010590643825
20
-40.7060830268574
30
8E-16
0
SPLINE
5
FA
100
AcDbEntity
8
SK1
62
256
6
ByLayer
370
18
48
1
60
0
100
AcDbSpline
70
4
71
3
72
20
73
16
40
0
40
0
40
0
40
0
40
0.250000000000005
40
0.250000000000005
40
0.500000000000009
40
0.500000000000009
40
0.625000000000009
40
0.625000000000009
40
0.75000000000001
40
0.75000000000001
40
0.812500000000007
40
0.812500000000007
40
0.875000000000005
40
0.875000000000005
40
1
40
1
40
1
40
1
41
1
10
-46.2000000000004
20
-39.3776074127876
30
7E-16
41
1
10
-46.4226605420673
20
-39.4550377232823
30
7E-16
41
1
10
-46.6375100172379
20
-39.5362235277269
30
7E-16
41
1
10
-47.0453719893824
20
-39.7090941683855
30
7E-16
41
1
10
-47.2385423759731
20
-39.8007030926265
30
7E-16
41
1
10
-47.5034217678461
20
-39.9500767367628
30
6E-16
41
1
10
-47.5876274723544
20
-40.0020285910452
30
6E-16
41
1
10
-47.7420977836035
20
-40.1089111574496
30
6E-16
41
1
10
-47.8127756679288
20
-40.1640449166323
30
6E-16
41
1
10
-47.9067072701126
20
-40.2498648333682
30
6E-16
41
1
10
-47.9359961823601
20
-40.2789932665153
30
6E-16
41
1
10
-47.9900412823637
20
-40.3384200595941
30
6E-16
41
1
10
-48.0147210552834
20
-40.3686686064837
30
6E-16
41
1
10
-48.0801468084285
20
-40.4597632292638
30
6E-16
41
1
10
-48.1127368248578
20
-40.5214269056983
30
6E-16
41
1
10
-48.1331915495824
20
-40.5841183622276
30
6E-16
0
SPLINE
5
FB
100
AcDbEntity
8
SK1
62
256
6
ByLayer
370
18
48
1
60
0
100
AcDbSpline
70
4
71
3
72
12
73
8
40
0
40
0
40
0
40
0
40
0.500000000000001
40
0.500000000000001
40
0.750000000000001
40
0.750000000000001
40
1
40
1
40
1
40
1
41
1
10
-60.525093605038
20
41.2242494723012
30
-2E-16
41
1
10
-59.2998247316946
20
41.2265834599315
30
-1E-16
41
1
10
-58.0760297219694
20
41.2238487315965
30
0
41
1
10
-56.243964621426
20
41.2071212671372
30
1E-16
41
1
10
-55.6338891537476
20
41.1994116866031
30
1E-16
41
1
10
-54.4154487311638
20
41.1780066727811
30
2E-16
41
1
10
-53.8070700932713
20
41.1643597408742
30
3E-16
41
1
10
-53.2
20
41.1461130200209
30
3E-16
0
SPLINE
5
FC
100
AcDbEntity
8
SK1
62
256
6
ByLayer
370
18
48
1
60
0
100
AcDbSpline
70
4
71
3
72
22
73
18
40
0
40
0
40
0
40
0
40
0.124999999999998
40
0.124999999999998
40
0.249999999999997
40
0.249999999999997
40
0.499999999999998
40
0.499999999999998
40
0.625
40
0.625
40
0.750000000000001
40
0.750000000000001
40
0.875000000000003
40
0.875000000000003
40
0.937500000000002
40
0.937500000000002
40
1
40
1
40
1
40
1
41
1
10
-62.9000000000002
20
-38.9212224321874
30
-3E-16
41
1
10
-62.9000000000002
20
-38.9572262047922
30
-3E-16
41
1
10
-62.8958916910682
20
-38.991174540239
30
-3E-16
41
1
10
-62.880522774549
20
-39.0530353577398
30
-3E-16
41
1
10
-62.8692831259523
20
-39.0810754919495
30
-3E-16
41
1
10
-62.8265700437325
20
-39.1557361648418
30
-3E-16
41
1
10
-62.7859984277198
20
-39.1931090847989
30
-3E-16
41
1
10
-62.7141901615218
20
-39.2256734597722
30
-3E-16
41
1
10
-62.6883835492191
20
-39.2325959722278
30
-3E-16
41
1
10
-62.6353011326632
20
-39.2364642798136
30
-3E-16
41
1
10
-62.6081415442002
20
-39.2334791353895
30
-3E-16
41
1
10
-62.5564906155172
20
-39.2136628142164
30
-3E-16
41
1
10
-62.5318795617732
20
-39.1970068159126
30
-3E-16
41
1
10
-62.5029622514294
20
-39.1543840545275
30
-3E-16
41
1
10
-62.4947863204063
20
-39.1371601577301
30
-3E-16
41
1
10
-62.4829960447031
20
-39.0960176694256
30
-3E-16
41
1
10
-62.4793466426546
20
-39.0720096981577
30
-3E-16
41
1
10
-62.4783617161938
20
-39.0441367969415
30
-3E-16
0
SPLINE
5
FD
100
AcDbEntity
8
SK1
62
256
6
ByLayer
370
18
48
1
60
0
100
AcDbSpline
70
4
71
3
72
40
73
36
40
0
40
0
40
0
40
0
40
0.125000000000008
40
0.125000000000008
40
0.250000000000017
40
0.250000000000017
40
0.312500000000021
40
0.312500000000021
40
0.375000000000025
40
0.375000000000025
40
0.437500000000029
40
0.437500000000029
40
0.468750000000028
40
0.468750000000028
40
0.484375000000028
40
0.484375000000028
40
0.500000000000028
40
0.500000000000028
40
0.515625000000028
40
0.515625000000028
40
0.531250000000028
40
0.531250000000028
40
0.562500000000026
40
0.562500000000026
40
0.593750000000023
40
0.593750000000023
40
0.625000000000021
40
0.625000000000021
40
0.687500000000018
40
0.687500000000018
40
0.750000000000014
40
0.750000000000014
40
0.875000000000007
40
0.875000000000007
40
1
40
1
40
1
40
1
41
1
10
-61.7893320150767
20
39.6580667559964
30
-2E-16
41
1
10
-61.7936301853987
20
39.5690508295945
30
-2E-16
41
1
10
-61.8014883059135
20
39.4770190304459
30
-2E-16
41
1
10
-61.8254799711902
20
39.2859447648344
30
-2E-16
41
1
10
-61.8415214867311
20
39.1869802625017
30
-2E-16
41
1
10
-61.8744159163385
20
39.0310511966029
30
-2E-16
41
1
10
-61.8868727284047
20
38.9778349996343
30
-2E-16
41
1
10
-61.9157235346264
20
38.8686937259657
30
-2E-16
41
1
10
-61.9320695910156
20
38.8127402753966
30
-2E-16
41
1
10
-61.9712122624437
20
38.6961891622095
30
-2E-16
41
1
10
-61.9937424620889
20
38.6354546064177
30
-2E-16
41
1
10
-62.0386586585146
20
38.5377770870989
30
-2E-16
41
1
10
-62.0555167874478
20
38.5039870873699
30
-2E-16
41
1
10
-62.0867344461806
20
38.4512573152898
30
-2E-16
41
1
10
-62.0982361945647
20
38.4331468413179
30
-2E-16
41
1
10
-62.1252917476977
20
38.3958730177995
30
-3E-16
41
1
10
-62.140842683705
20
38.3768862491328
30
-3E-16
41
1
10
-62.1745215936685
20
38.3442020553816
30
-3E-16
41
1
10
-62.1917959690425
20
38.3317698996025
30
-3E-16
41
1
10
-62.2208314776104
20
38.3169852499323
30
-3E-16
41
1
10
-62.2330877024446
20
38.3137895748422
30
-3E-16
41
1
10
-62.2652598774178
20
38.310238120758
30
-3E-16
41
1
10
-62.2809524030638
20
38.3154401011816
30
-3E-16
41
1
10
-62.308309029896
20
38.3301749711364
30
-3E-16
41
1
10
-62.3197984684171
20
38.3402831742036
30
-3E-16
41
1
10
-62.3401543035887
20
38.3630107296937
30
-3E-16
41
1
10
-62.3490201863539
20
38.3757058640619
30
-3E-16
41
1
10
-62.3731608526743
20
38.416284432115
30
-3E-16
41
1
10
-62.3860205334935
20
38.4466185347707
30
-3E-16
41
1
10
-62.4082722747757
20
38.5108054266715
30
-3E-16
41
1
10
-62.4175881349023
20
38.5447355384243
30
-3E-16
41
1
10
-62.4418898404487
20
38.6502254398305
30
-3E-16
41
1
10
-62.453270591116
20
38.7253341571848
30
-3E-16
41
1
10
-62.4700790395465
20
38.8807951977319
30
-3E-16
41
1
10
-62.4754360617601
20
38.9613423139385
30
-3E-16
41
1
10
-62.4783617161971
20
39.0441367969384
30
-3E-16
0
SPLINE
5
FE
100
AcDbEntity
8
SK1
62
256
6
ByLayer
370
18
48
1
60
0
100
AcDbSpline
70
4
71
3
72
32
73
28
40
0
40
0
40
0
40
0
40
0.0392211989570028
40
0.0808601994391107
40
0.123197714108851
40
0.165391893308869
40
0.206901224474755
40
0.24844320197027
40
0.289845003773845
40
0.331157934960067
40
0.373122661652399
40
0.415009585688357
40
0.456190749183654
40
0.497424078162817
40
0.538531317344699
40
0.579810106883366
40
0.622005576465981
40
0.664012176277156
40
0.705458117364913
40
0.74705404556789
40
0.788579975332987
40
0.830077915144619
40
0.872248683816782
40
0.914504285771317
40
0.956089495924036
40
0.997712336035138
40
1
40
1
40
1
40
1
41
1
10
-26.2750363101408
20
-46.817867476195
30
0
41
1
10
-26.2749605852043
20
-46.8178405285118
30
0
41
1
10
-26.2345445201655
20
-46.8129862844187
30
-1E-16
41
1
10
-26.0434529229907
20
-46.7912818898671
30
0
41
1
10
-25.7171348245481
20
-46.7557313621095
30
2E-16
41
1
10
-25.2739767914216
20
-46.709360789138
30
-2E-16
41
1
10
-24.716239299244
20
-46.657403415524
30
3E-16
41
1
10
-24.0538053435185
20
-46.6051633451669
30
3E-16
41
1
10
-23.2975523527152
20
-46.5573136592163
30
3E-16
41
1
10
-22.4530892090924
20
-46.5195864109925
30
4E-16
41
1
10
-21.5365283742526
20
-46.4965386394449
30
-4E-16
41
1
10
-20.5708792882002
20
-46.4908481821036
30
-4E-16
41
1
10
-19.5739961477516
20
-46.5067925639876
30
-3E-16
41
1
10
-18.5651389577017
20
-46.5459784106163
30
-2E-16
41
1
10
-17.5560347758042
20
-46.6077572501642
30
-2E-16
41
1
10
-16.5582909727187
20
-46.6914684785381
30
-1E-16
41
1
10
-15.5906291259743
20
-46.7934923396043
30
-1E-16
41
1
10
-14.6711537469245
20
-46.9077350878466
30
0
41
1
10
-13.82313874701
20
-47.0292487827045
30
0
41
1
10
-13.0608547289798
20
-47.1520862263455
30
1E-16
41
1
10
-12.3907402335597
20
-47.27023695598
30
1E-16
41
1
10
-11.8247222847465
20
-47.3781062488262
30
2E-16
41
1
10
-11.3711084551559
20
-47.4696373426137
30
2E-16
41
1
10
-11.0330619141194
20
-47.5394203521734
30
2E-16
41
1
10
-10.8256190973079
20
-47.5833397380225
30
0
41
1
10
-10.7760396809012
20
-47.5941692084707
30
0
41
1
10
-10.775041393208
20
-47.5944211329757
30
0
41
1
10
-10.7750558574926
20
-47.5944198604757
30
0
0
SPLINE
5
FF
100
AcDbEntity
8
SK1
62
256
6
ByLayer
370
18
48
1
60
0
100
AcDbSpline
70
4
71
3
72
31
73
27
40
0
40
0
40
0
40
0
40
0.041860877700856
40
0.0839028894728653
40
0.126773773129049
40
0.169444918137397
40
0.211401452462964
40
0.253360701087985
40
0.294859727262832
40
0.336188417459726
40
0.378058106032329
40
0.420026098356346
40
0.461209827797347
40
0.502351965145033
40
0.543582581382913
40
0.584804289118303
40
0.626773360670891
40
0.668758444269049
40
0.710128077767019
40
0.751623651416922
40
0.792719382796865
40
0.83384855055852
40
0.87571312446104
40
0.917524192280713
40
0.958723738732388
40
1
40
1
40
1
40
1
41
1
10
-10.7750250973674
20
47.5944215411316
30
0
41
1
10
-10.7751117483669
20
47.5944019124434
30
0
41
1
10
-10.8201195093254
20
47.5846758533545
30
0
41
1
10
-11.0264751629761
20
47.5413077514246
30
2E-16
41
1
10
-11.3663256210528
20
47.4712928661034
30
2E-16
41
1
10
-11.8234182944932
20
47.3789124568157
30
2E-16
41
1
10
-12.3944517367575
20
47.2698636995813
30
1E-16
41
1
10
-13.0683324120418
20
47.1508104061012
30
1E-16
41
1
10
-13.8318408738541
20
47.0276061490321
30
0
41
1
10
-14.677559171572
20
46.9063457818634
30
0
41
1
10
-15.5936587062202
20
46.7925081452379
30
-1E-16
41
1
10
-16.5581941085794
20
46.6909753182317
30
-1E-16
41
1
10
-17.5539878392304
20
46.60771350094
30
-2E-16
41
1
10
-18.5626050214574
20
46.5461206107987
30
-2E-16
41
1
10
-19.5720337525642
20
46.5069641897075
30
-3E-16
41
1
10
-20.5697680720572
20
46.4910922860661
30
-4E-16
41
1
10
-21.5365205293849
20
46.4967691109845
30
-4E-16
41
1
10
-22.4543438277949
20
46.5198009401096
30
4E-16
41
1
10
-23.2998756220044
20
46.5575740980714
30
3E-16
41
1
10
-24.0545439963022
20
46.6052229016685
30
3E-16
41
1
10
-24.713495124319
20
46.6570858270346
30
3E-16
41
1
10
-25.2668336903776
20
46.7086284484511
30
-2E-16
41
1
10
-25.7075844830277
20
46.7547042960598
30
2E-16
41
1
10
-26.0336944205402
20
46.7902437870145
30
2E-16
41
1
10
-26.2312355766367
20
46.812727804363
30
-1E-16
41
1
10
-26.2747344664907
20
46.8178818040358
30
0
41
1
10
-26.2749747776243
20
46.8178710028472
30
0
0
SPLINE
5
100
100
AcDbEntity
8
SK1
62
256
6
ByLayer
370
18
48
1
60
0
100
AcDbSpline
70
4
71
3
72
30
73
26
40
0
40
0
40
0
40
0
40
0.0625000000000009
40
0.0625000000000009
40
0.125000000000002
40
0.125000000000002
40
0.250000000000003
40
0.250000000000003
40
0.500000000000003
40
0.500000000000003
40
0.625000000000004
40
0.625000000000004
40
0.750000000000006
40
0.750000000000006
40
0.812500000000007
40
0.812500000000007
40
0.875000000000008
40
0.875000000000008
40
0.906250000000006
40
0.906250000000006
40
0.937500000000004
40
0.937500000000004
40
0.968750000000002
40
0.968750000000002
40
1
40
1
40
1
40
1
41
1
10
-50.7999999999994
20
42.9829954475082
30
4E-16
41
1
10
-50.7999999999992
20
42.9449496984887
30
4E-16
41
1
10
-50.803666979878
20
42.9062714304298
30
4E-16
41
1
10
-50.8179787372884
20
42.8276649858854
30
4E-16
41
1
10
-50.8286685032475
20
42.7876183240994
30
4E-16
41
1
10
-50.8705058164057
20
42.6665179652343
30
4E-16
41
1
10
-50.9111414625814
20
42.5848608549481
30
4E-16
41
1
10
-51.0662435627523
20
42.3372686594622
30
4E-16
41
1
10
-51.2130390239259
20
42.1686671843295
30
4E-16
41
1
10
-51.4938570127001
20
41.9115859861424
30
4E-16
41
1
10
-51.597263216545
20
41.8256504300561
30
4E-16
41
1
10
-51.8247265883252
20
41.6552982148481
30
4E-16
41
1
10
-51.9487313349255
20
41.5705933621906
30
4E-16
41
1
10
-52.1558345938249
20
41.4479728333434
30
4E-16
41
1
10
-52.2285095437165
20
41.4077936007095
30
4E-16
41
1
10
-52.3851981393984
20
41.329992565619
30
3E-16
41
1
10
-52.4681109795471
20
41.2927854852514
30
3E-16
41
1
10
-52.604999580549
20
41.2420615467238
30
3E-16
41
1
10
-52.6528393866921
20
41.2260286450727
30
3E-16
41
1
10
-52.7522148577237
20
41.1972912592061
30
3E-16
41
1
10
-52.8039623204423
20
41.1844887469048
30
3E-16
41
1
10
-52.9133187906282
20
41.1634025760065
30
3E-16
41
1
10
-52.9697428530351
20
41.1554279376308
30
3E-16
41
1
10
-53.0841154391843
20
41.1459130935281
30
3E-16
41
1
10
-53.1427276498658
20
41.1443915835717
30
3E-16
41
1
10
-53.2000000000001
20
41.1461130200205
30
3E-16
0
SPLINE
5
101
100
AcDbEntity
8
SK1
62
256
6
ByLayer
370
18
48
1
60
0
100
AcDbSpline
70
4
71
3
72
40
73
36
40
0
40
0
40
0
40
0
40
0.125000000000013
40
0.125000000000013
40
0.250000000000026
40
0.250000000000026
40
0.312500000000032
40
0.312500000000032
40
0.375000000000037
40
0.375000000000037
40
0.40625000000004
40
0.40625000000004
40
0.437500000000043
40
0.437500000000043
40
0.468750000000047
40
0.468750000000047
40
0.484375000000049
40
0.484375000000049
40
0.500000000000052
40
0.500000000000052
40
0.515625000000052
40
0.515625000000052
40
0.531250000000051
40
0.531250000000051
40
0.562500000000047
40
0.562500000000047
40
0.625000000000041
40
0.625000000000041
40
0.687500000000035
40
0.687500000000035
40
0.750000000000028
40
0.750000000000028
40
0.875000000000014
40
0.875000000000014
40
1
40
1
40
1
40
1
41
1
10
-62.4783617161972
20
-39.0441367969384
30
-3E-16
41
1
10
-62.4754233834679
20
-38.9609835249308
30
-3E-16
41
1
10
-62.4700332175751
20
-38.8800994542939
30
-3E-16
41
1
10
-62.4530994173469
20
-38.7240264227985
30
-3E-16
41
1
10
-62.4416389507878
20
-38.6486741776775
30
-3E-16
41
1
10
-62.4170794460729
20
-38.5427675778965
30
-3E-16
41
1
10
-62.4076552013041
20
-38.5086980413905
30
-3E-16
41
1
10
-62.3850836368973
20
-38.4442667635128
30
-3E-16
41
1
10
-62.3719941675309
20
-38.4137779880369
30
-3E-16
41
1
10
-62.3473713331911
20
-38.373245879621
30
-3E-16
41
1
10
-62.3383373587281
20
-38.3606420929825
30
-3E-16
41
1
10
-62.3176557365157
20
-38.3383029715971
30
-3E-16
41
1
10
-62.3060559859549
20
-38.3284762336811
30
-3E-16
41
1
10
-62.2779254014346
20
-38.3143956807678
30
-3E-16
41
1
10
-62.262048096938
20
-38.3096914050106
30
-3E-16
41
1
10
-62.2287562499864
20
-38.3148510712147
30
-3E-16
41
1
10
-62.2159594408826
20
-38.3187960162915
30
-3E-16
41
1
10
-62.1857738357906
20
-38.335802296668
30
-3E-16
41
1
10
-62.1682777061874
20
-38.3495153357786
30
-3E-16
41
1
10
-62.1349570962913
20
-38.3836768040432
30
-3E-16
41
1
10
-62.1200078179835
20
-38.4027075684112
30
-3E-16
41
1
10
-62.0939598069726
20
-38.4396833717715
30
-2E-16
41
1
10
-62.0826079079534
20
-38.4579403872588
30
-2E-16
41
1
10
-62.0520141327308
20
-38.5106822079921
30
-2E-16
41
1
10
-62.0354306111849
20
-38.5444173112125
30
-2E-16
41
1
10
-61.9913748905995
20
-38.6414892192518
30
-2E-16
41
1
10
-61.9693550693025
20
-38.7013154675655
30
-2E-16
41
1
10
-61.9306440530779
20
-38.8174243053278
30
-2E-16
41
1
10
-61.9143445339272
20
-38.8735691798324
30
-2E-16
41
1
10
-61.8857508974951
20
-38.9824512151379
30
-2E-16
41
1
10
-61.8734842978784
20
-39.0351982005799
30
-2E-16
41
1
10
-61.841046694254
20
-39.1897993029393
30
-2E-16
41
1
10
-61.8251742273625
20
-39.2880666827754
30
-2E-16
41
1
10
-61.8014126012306
20
-39.4779401005045
30
-2E-16
41
1
10
-61.7936097463956
20
-39.5694741252446
30
-2E-16
41
1
10
-61.7893320150767
20
-39.6580667559964
30
-2E-16
0
SPLINE
5
102
100
AcDbEntity
8
SK1
62
256
6
ByLayer
370
18
48
1
60
0
100
AcDbSpline
70
4
71
3
72
18
73
14
40
0
40
0
40
0
40
0
40
0.250000000000003
40
0.250000000000003
40
0.500000000000005
40
0.500000000000005
40
0.625000000000004
40
0.625000000000004
40
0.750000000000003
40
0.750000000000003
40
0.875000000000001
40
0.875000000000001
40
1
40
1
40
1
40
1
41
1
10
-60.7500000000001
20
41.2232203119378
30
-2E-16
41
1
10
-60.8608531452612
20
41.1172714901122
30
-2E-16
41
1
10
-60.969733514794
20
41.0032507213916
30
-2E-16
41
1
10
-61.1814355616023
20
40.7597387760709
30
-2E-16
41
1
10
-61.2844065759033
20
40.6301646032726
30
-2E-16
41
1
10
-61.4303274150577
20
40.4255384495136
30
-2E-16
41
1
10
-61.4775402332222
20
40.3555853927948
30
-2E-16
41
1
10
-61.566988813374
20
40.2135466909619
30
-2E-16
41
1
10
-61.6093147196151
20
40.1413859656454
30
-2E-16
41
1
10
-61.6853897038808
20
39.9968121219601
30
-2E-16
41
1
10
-61.7192928637718
20
39.9241984701779
30
-2E-16
41
1
10
-61.770262098808
20
39.7837458683713
30
-2E-16
41
1
10
-61.7864655706005
20
39.7174313673108
30
-2E-16
41
1
10
-61.7893320150767
20
39.6580667559964
30
-2E-16
0
SPLINE
5
103
100
AcDbEntity
8
SK1
62
256
6
ByLayer
370
18
48
1
60
0
100
AcDbSpline
70
4
71
3
72
30
73
26
40
0
40
0
40
0
40
0
40
0.249999999999999
40
0.249999999999999
40
0.499999999999998
40
0.499999999999998
40
0.624999999999997
40
0.624999999999997
40
0.749999999999997
40
0.749999999999997
40
0.812499999999996
40
0.812499999999996
40
0.874999999999996
40
0.874999999999996
40
0.906249999999997
40
0.906249999999997
40
0.937499999999997
40
0.937499999999997
40
0.953124999999998
40
0.953124999999998
40
0.968749999999999
40
0.968749999999999
40
0.984374999999999
40
0.984374999999999
40
1
40
1
40
1
40
1
41
1
10
-60.5250936050379
20
-41.2242494723016
30
-2E-16
41
1
10
-59.4565777370687
20
-41.2262848645922
30
-1E-16
41
1
10
-58.3890759728978
20
-41.2244195664791
30
0
41
1
10
-56.2571573718373
20
-41.2086964377913
30
1E-16
41
1
10
-55.192619185723
20
-41.1950684898767
30
2E-16
41
1
10
-53.6012712548479
20
-41.1584951451674
30
3E-16
41
1
10
-53.0716306493676
20
-41.143571690137
30
3E-16
41
1
10
-52.0159488208736
20
-41.1052476077083
30
4E-16
41
1
10
-51.4895114189348
20
-41.0820051698174
30
4E-16
41
1
10
-50.7057384523608
20
-41.0356077469222
30
4E-16
41
1
10
-50.44540362898
20
-41.0181863013518
30
5E-16
41
1
10
-49.9282182935988
20
-40.9772303806719
30
5E-16
41
1
10
-49.6714201025551
20
-40.9538323245835
30
5E-16
41
1
10
-49.2919247346937
20
-40.9103963229471
30
5E-16
41
1
10
-49.1665766517639
20
-40.8945262451699
30
5E-16
41
1
10
-48.9194852584264
20
-40.8584241552743
30
6E-16
41
1
10
-48.7976055255253
20
-40.8382442278321
30
6E-16
41
1
10
-48.6215382048819
20
-40.8023997542476
30
6E-16
41
1
10
-48.5639362035052
20
-40.7895010318832
30
6E-16
41
1
10
-48.4520507889293
20
-40.7608014040068
30
6E-16
41
1
10
-48.3976758357632
20
-40.744993596828
30
6E-16
41
1
10
-48.2967172756906
20
-40.7091548706203
30
6E-16
41
1
10
-48.2494168035567
20
-40.6889059752943
30
6E-16
41
1
10
-48.1728963175245
20
-40.6420320442541
30
6E-16
41
1
10
-48.1431788248679
20
-40.6147282503019
30
6E-16
41
1
10
-48.1331915495824
20
-40.5841183622276
30
6E-16
0
SPLINE
5
104
100
AcDbEntity
8
SK1
62
256
6
ByLayer
370
18
48
1
60
0
100
AcDbSpline
70
4
71
3
72
8
73
4
40
0
40
0
40
0
40
0
40
1
40
1
40
1
40
1
41
1
10
-60.5250936050384
20
41.2242494723012
30
-2E-16
41
1
10
-60.6018127631034
20
41.2241033316705
30
-2E-16
41
1
10
-60.6766912865698
20
41.2238173678788
30
-2E-16
41
1
10
-60.7500000000004
20
41.2232203119375
30
-2E-16
0
SPLINE
5
105
100
AcDbEntity
8
1
62
256
6
ByLayer
370
18
48
1
60
0
100
AcDbSpline
70
4
71
3
72
8
73
4
40
0
40
0
40
0
40
0
40
1
40
1
40
1
40
1
41
1
10
28.25
20
39.35
30
1.7E-15
41
1
10
28.3835105568398
20
39.35
30
1.7E-15
41
1
10
28.5168454619756
20
39.35
30
1.7E-15
41
1
10
28.65
20
39.35
30
1.8E-15
0
SPLINE
5
106
100
AcDbEntity
8
1
62
256
6
ByLayer
370
18
48
1
60
0
100
AcDbSpline
70
4
71
3
72
18
73
14
40
0
40
0
40
0
40
0
40
0.125137828444059
40
0.125137828444059
40
0.250275656888119
40
0.250275656888119
40
0.375413485332178
40
0.375413485332178
40
0.500551313776238
40
0.500551313776238
40
0.750826970664356
40
0.750826970664356
40
1
40
1
40
1
40
1
41
1
10
21.525
20
39.35
30
1.3E-15
41
1
10
21.5563005026347
20
39.35
30
1.3E-15
41
1
10
21.5866937289592
20
39.35
30
1.3E-15
41
1
10
21.6458241633931
20
39.35
30
1.3E-15
41
1
10
21.6739848132302
20
39.35
30
1.3E-15
41
1
10
21.7256935780587
20
39.35
30
1.3E-15
41
1
10
21.7496001015833
20
39.35
30
1.3E-15
41
1
10
21.7920089140879
20
39.35
30
1.3E-15
41
1
10
21.8108830339052
20
39.35
30
1.3E-15
41
1
10
21.8612265072722
20
39.35
30
1.3E-15
41
1
10
21.8849675549059
20
39.35
30
1.3E-15
41
1
10
21.9170958999488
20
39.35
30
1.3E-15
41
1
10
21.9249417234749
20
39.35
30
1.3E-15
41
1
10
21.9249950000011
20
39.35
30
1.3E-15
0
SPLINE
5
107
100
AcDbEntity
8
1
62
256
6
ByLayer
370
18
48
1
60
0
100
AcDbSpline
70
4
71
3
72
18
73
14
40
0
40
0
40
0
40
0
40
0.249999999999996
40
0.249999999999996
40
0.374999999999994
40
0.374999999999994
40
0.499999999999993
40
0.499999999999993
40
0.624999999999991
40
0.624999999999991
40
0.749999999999989
40
0.749999999999989
40
1
40
1
40
1
40
1
41
1
10
18.075
20
57.5281686132976
30
-7E-16
41
1
10
18.075
20
57.4747285697937
30
-7E-16
41
1
10
18.0851077374759
20
57.422340106907
30
-7E-16
41
1
10
18.1146871234668
20
57.348397318116
30
-7E-16
41
1
10
18.1267709317005
20
57.3249835543355
30
-7E-16
41
1
10
18.1553579060582
20
57.2806077874234
30
-7E-16
41
1
10
18.1720715193819
20
57.2594757711882
30
-7E-16
41
1
10
18.2087650824368
20
57.2214484091994
30
-7E-16
41
1
10
18.2288076622251
20
57.2043642740259
30
-7E-16
41
1
10
18.2723634830754
20
57.1741450582988
30
-7E-16
41
1
10
18.2958588073495
20
57.1611143330033
30
-7E-16
41
1
10
18.3684822831385
20
57.129879443404
30
-7E-16
41
1
10
18.421523644375
20
57.1187375910912
30
-6E-16
41
1
10
18.4749999999999
20
57.1187375910912
30
-6E-16
0
SPLINE
5
108
100
AcDbEntity
8
1
62
256
6
ByLayer
370
18
48
1
60
0
100
AcDbSpline
70
4
71
1
72
4
73
2
40
0
40
0
40
1
40
1
41
1
10
21.9250002129388
20
39.35
30
1.3E-15
41
1
10
23.4764773135607
20
39.35
30
1.4E-15
0
SPLINE
5
109
100
AcDbEntity
8
1
62
256
6
ByLayer
370
18
48
1
60
0
100
AcDbSpline
70
4
71
3
72
8
73
4
40
0
40
0
40
0
40
0
40
1
40
1
40
1
40
1
41
1
10
28.65
20
-60.4553980964681
30
0
41
1
10
28.7501389788776
20
-60.3293767006643
30
0
41
1
10
28.8501397098767
20
-60.2031352450439
30
0
41
1
10
28.95
20
-60.0766723362738
30
0
0
SPLINE
5
10A
100
AcDbEntity
8
1
62
256
6
ByLayer
370
18
48
1
60
0
100
AcDbSpline
70
4
71
3
72
8
73
4
40
0
40
0
40
0
40
0
40
1
40
1
40
1
40
1
41
1
10
23.2389355354895
20
48.6723577665051
30
1.4E-15
41
1
10
23.3181162419477
20
48.617040718977
30
1.4E-15
41
1
10
23.3972969484058
20
48.5615778700324
30
1.4E-15
41
1
10
23.476477654864
20
48.5059697180974
30
1.4E-15
0
SPLINE
5
10B
100
AcDbEntity
8
1
62
256
6
ByLayer
370
18
48
1
60
0
100
AcDbSpline
70
4
71
3
72
60
73
56
40
0
40
0
40
0
40
0
40
0.014433571839999
40
0.0287661247140579
40
0.0430052774911071
40
0.0571587998732283
40
0.0712346033645474
40
0.0852407311706876
40
0.0991853470637971
40
0.113076723265512
40
0.126923227417567
40
0.140733308726866
40
0.154515483387769
40
0.168278319398987
40
0.182030420904914
40
0.195780412201343
40
0.209536921552709
40
0.223308564972091
40
0.237103930116055
40
0.250931560443833
40
0.264799939784729
40
0.278717477448842
40
0.29269249400486
40
0.306733207835064
40
0.320847722562315
40
0.335044015427146
40
0.349329926675901
40
0.363713150003292
40
0.378201224075737
40
0.392801525145435
40
0.407521260749921
40
0.422367464478065
40
0.437346991771297
40
0.452466516718421
40
0.46773252979385
40
0.483151336482195
40
0.498729056727252
40
0.528753426055492
40
0.558241239237839
40
0.587238239278848
40
0.615792528077901
40
0.643954476138316
40
0.671776584982681
40
0.699313300014524
40
0.726620773737
40
0.753756581806367
40
0.780779397168934
40
0.807748630244445
40
0.834724045481556
40
0.861765366338167
40
0.888931881609691
40
0.916282065926204
40
0.943873226178477
40
0.971761183753456
40
1
40
1
40
1
40
1
41
1
10
9.94999999999999
20
61.1169622081982
30
6E-16
41
1
10
9.90949661559
20
61.1168308725689
30
6E-16
41
1
10
9.82877332545812
20
61.1165691205136
30
6E-16
41
1
10
9.70807701834997
20
61.1168979727416
30
6E-16
41
1
10
9.58823625588909
20
61.1177588306073
30
6E-16
41
1
10
9.46924563847529
20
61.1192017493344
30
6E-16
41
1
10
9.35110671845521
20
61.1212124073024
30
6E-16
41
1
10
9.23381921431576
20
61.1237931114768
30
6E-16
41
1
10
9.11738334221374
20
61.1269412912423
30
6E-16
41
1
10
9.00179919527864
20
61.1306552120156
30
6E-16
41
1
10
8.88706690719303
20
61.134932455554
30
5E-16
41
1
10
8.77318660697398
20
61.1397703240248
30
5E-16
41
1
10
8.66015842914791
20
61.145165732053
30
5E-16
41
1
10
8.54798250902522
20
61.1511152352243
30
5E-16
41
1
10
8.43665898185336
20
61.157615022255
30
5E-16
41
1
10
8.32618798089285
20
61.1646609169174
30
5E-16
41
1
10
8.21656963579534
20
61.172248377414
30
5E-16
41
1
10
8.10780407097127
20
61.1803724964899
30
5E-16
41
1
10
7.99989140408479
20
61.1890280013964
30
5E-16
41
1
10
7.89283174468852
20
61.1982092539378
30
5E-16
41
1
10
7.78662519303737
20
61.2079102505291
30
5E-16
41
1
10
7.68127183910531
20
61.2181246222736
30
5E-16
41
1
10
7.57677176182321
20
61.2288456350472
30
5E-16
41
1
10
7.47312502854663
20
61.2400661895789
30
5E-16
41
1
10
7.37033169475606
20
61.251778821522
30
5E-16
41
1
10
7.26839180397965
20
61.2639757015022
30
4E-16
41
1
10
7.167305387938
20
61.2766486351399
30
4E-16
41
1
10
7.067072466844
20
61.2897890630379
30
4E-16
41
1
10
6.96769305001464
20
61.3033880607223
30
4E-16
41
1
10
6.86916713608971
20
61.3174363385736
30
4E-16
41
1
10
6.77149471539011
20
61.3319242415837
30
4E-16
41
1
10
6.67467576471475
20
61.3468417495526
30
4E-16
41
1
10
6.57871027110829
20
61.3621784754069
30
4E-16
41
1
10
6.48359814630314
20
61.3779236704021
30
4E-16
41
1
10
6.38933955504717
20
61.394066203072
30
4E-16
41
1
10
6.29593367627555
20
61.4105946373848
30
4E-16
41
1
10
6.17510333712107
20
61.432661674322
30
4E-16
41
1
10
6.03063467575467
20
61.4602414115081
30
4E-16
41
1
10
5.86747556683639
20
61.4933606313784
30
4E-16
41
1
10
5.71453531012662
20
61.5264732812917
30
3E-16
41
1
10
5.57181714438934
20
61.5595502259345
30
3E-16
41
1
10
5.43932351950744
20
61.5925621748925
30
3E-16
41
1
10
5.31705729375773
20
61.6254791469256
30
3E-16
41
1
10
5.205021296544
20
61.6582706076288
30
3E-16
41
1
10
5.10321830632154
20
61.6909054364084
30
3E-16
41
1
10
5.01165086059947
20
61.7233519497812
30
3E-16
41
1
10
4.93032126886402
20
61.7555779023684
30
3E-16
41
1
10
4.85923098633521
20
61.7875505557587
30
3E-16
41
1
10
4.79838241065346
20
61.8192365276753
30
3E-16
41
1
10
4.74777176399607
20
61.8506024722757
30
3E-16
41
1
10
4.70741553653022
20
61.8816126511162
30
3E-16
41
1
10
4.67725098476171
20
61.9122381824807
30
3E-16
41
1
10
4.6575116726826
20
61.9424222422415
30
3E-16
41
1
10
4.64730667280367
20
61.9722118214979
30
3E-16
41
1
10
4.64909849060822
20
61.9914436607693
30
3E-16
41
1
10
4.65000000000001
20
62.0011196912675
30
3E-16
0
SPLINE
5
10C
100
AcDbEntity
8
1
62
256
6
ByLayer
370
18
48
1
60
0
100
AcDbSpline
70
4
71
1
72
4
73
2
40
0
40
0
40
1
40
1
41
1
10
21.925
20
45.0041565293443
30
1.3E-15
41
1
10
21.925
20
45.7122024020842
30
1.3E-15
0
SPLINE
5
10D
100
AcDbEntity
8
1
62
256
6
ByLayer
370
18
48
1
60
0
100
AcDbSpline
70
4
71
3
72
20
73
16
40
0
40
0
40
0
40
0
40
0.125
40
0.125
40
0.250000000000001
40
0.250000000000001
40
0.375000000000001
40
0.375000000000001
40
0.500000000000001
40
0.500000000000001
40
0.750000000000002
40
0.750000000000002
40
0.875000000000001
40
0.875000000000001
40
1
40
1
40
1
40
1
41
1
10
21.525
20
-0.858414235669471
30
1.3E-15
41
1
10
21.5619837656103
20
-0.792711408046131
30
1.3E-15
41
1
10
21.594399784775
20
-0.725248694055665
30
1.3E-15
41
1
10
21.6504757894206
20
-0.58653730525549
30
1.3E-15
41
1
10
21.6741732966519
20
-0.514984579484434
30
1.3E-15
41
1
10
21.7119267294479
20
-0.370637582188664
30
1.3E-15
41
1
10
21.7261391179216
20
-0.297554636539104
30
1.3E-15
41
1
10
21.7452337303782
20
-0.149178559100534
30
1.3E-15
41
1
10
21.7500840580296
20
-0.0731909306114744
30
1.3E-15
41
1
10
21.7498285135104
20
0.152330769311845
30
1.3E-15
41
1
10
21.7306691834539
20
0.299407123111308
30
1.3E-15
41
1
10
21.6737547148667
20
0.516367375463801
30
1.3E-15
41
1
10
21.6501190850817
20
0.587495588329602
30
1.3E-15
41
1
10
21.5942526229598
20
0.725536102095219
30
1.3E-15
41
1
10
21.5619401599807
20
0.792788874824026
30
1.3E-15
41
1
10
21.5250000000007
20
0.858414235668164
30
1.3E-15
0
SPLINE
5
10E
100
AcDbEntity
8
1
62
256
6
ByLayer
370
18
48
1
60
0
100
AcDbSpline
70
4
71
3
72
8
73
4
40
0
40
0
40
0
40
0
40
1
40
1
40
1
40
1
41
1
10
21.9250000007213
20
-58.4467319266676
30
-4E-16
41
1
10
22.3563164039029
20
-59.2144867746033
30
-4E-16
41
1
10
22.7876328070845
20
-59.9830557284722
30
-4E-16
41
1
10
23.2189492102661
20
-60.7523521873651
30
-4E-16
0
SPLINE
5
10F
100
AcDbEntity
8
1
62
256
6
ByLayer
370
18
48
1
60
0
100
AcDbSpline
70
4
71
1
72
4
73
2
40
0
40
0
40
1
40
1
41
1
10
21.925
20
39.147569235646
30
1.3E-15
41
1
10
21.925
20
39.3499998715009
30
1.3E-15
0
SPLINE
5
110
100
AcDbEntity
8
1
62
256
6
ByLayer
370
18
48
1
60
0
100
AcDbSpline
70
4
71
3
72
32
73
28
40
0
40
0
40
0
40
0
40
0.125
40
0.125
40
0.187499999999999
40
0.187499999999999
40
0.249999999999999
40
0.312499999999999
40
0.312499999999999
40
0.374999999999999
40
0.374999999999999
40
0.437499999999999
40
0.437499999999999
40
0.499999999999999
40
0.499999999999999
40
0.625000000000001
40
0.625000000000001
40
0.687500000000001
40
0.687500000000001
40
0.750000000000001
40
0.750000000000001
40
0.812500000000001
40
0.812500000000001
40
0.875
40
0.9375
40
0.9375
40
1
40
1
40
1
40
1
41
1
10
21.525
20
0.858414235669471
30
1.3E-15
41
1
10
21.448613089475
20
0.994117994659234
30
1.3E-15
41
1
10
21.3561371659963
20
1.11676911897808
30
1.3E-15
41
1
10
21.1939838272146
20
1.28173629888326
30
1.3E-15
41
1
10
21.1355322285155
20
1.33380236951746
30
1.3E-15
41
1
10
21.0136453160894
20
1.42863059469477
30
1.3E-15
41
1
10
20.8863886769145
20
1.51474227827674
30
1.3E-15
41
1
10
20.7485754193599
20
1.58372042660778
30
1.3E-15
41
1
10
20.6052931425339
20
1.64382351842465
30
1.3E-15
41
1
10
20.5319008809635
20
1.66897827927536
30
1.3E-15
41
1
10
20.3835372624469
20
1.70918290775956
30
1.2E-15
41
1
10
20.3082796904907
20
1.72435369534273
30
1.2E-15
41
1
10
20.1555992132627
20
1.74476958909855
30
1.2E-15
41
1
10
20.0775840317002
20
1.74998952912128
30
1.2E-15
41
1
10
19.8455415677046
20
1.7500208937978
30
1.2E-15
41
1
10
19.6933348161226
20
1.72988498065635
30
1.2E-15
41
1
10
19.468783636094
20
1.66922753692964
30
1.2E-15
41
1
10
19.3950993385579
20
1.64393161133978
30
1.2E-15
41
1
10
19.2532037430063
20
1.58452242127257
30
1.2E-15
41
1
10
19.1845027824175
20
1.55028502407049
30
1.2E-15
41
1
10
19.0515979246596
20
1.47273652471577
30
1.2E-15
41
1
10
18.9869693143619
20
1.42908054079834
30
1.2E-15
41
1
10
18.8646453210052
20
1.33396855848153
30
1.2E-15
41
1
10
18.7497190819254
20
1.23163275960013
30
1.1E-15
41
1
10
18.6491798019109
20
1.11524585605298
30
1.1E-15
41
1
10
18.5560118000896
20
0.991658512557848
30
1.1E-15
41
1
10
18.5131934212397
20
0.926266054721793
30
1.1E-15
41
1
10
18.475
20
0.858414235669471
30
1.1E-15
0
SPLINE
5
111
100
AcDbEntity
8
1
62
256
6
ByLayer
370
18
48
1
60
0
100
AcDbSpline
70
4
71
3
72
8
73
4
40
0
40
0
40
0
40
0
40
1
40
1
40
1
40
1
41
1
10
28.65
20
47.9898020416838
30
1.8E-15
41
1
10
28.5168454619756
20
48.1619963471035
30
1.7E-15
41
1
10
28.3835105568398
20
48.3340513218228
30
1.7E-15
41
1
10
28.25
20
48.5059697356934
30
1.7E-15
0
SPLINE
5
112
100
AcDbEntity
8
1
62
256
6
ByLayer
370
18
48
1
60
0
100
AcDbSpline
70
4
71
3
72
8
73
4
40
0
40
0
40
0
40
0
40
1
40
1
40
1
40
1
41
1
10
23.4764773829262
20
39.3500000121044
30
1.4E-15
41
1
10
23.3972966900769
20
39.2814529390356
30
1.4E-15
41
1
10
23.3181159972276
20
39.2127879903189
30
1.4E-15
41
1
10
23.2389353043783
20
39.1440057830235
30
1.4E-15
0
SPLINE
5
113
100
AcDbEntity
8
1
62
256
6
ByLayer
370
18
48
1
60
0
100
AcDbSpline
70
4
71
1
72
4
73
2
40
0
40
0
40
1
40
1
41
1
10
18.075
20
39.3499998715009
30
1.1E-15
41
1
10
18.075
20
39.147569235646
30
1.1E-15
0
SPLINE
5
114
100
AcDbEntity
8
1
62
256
6
ByLayer
370
18
48
1
60
0
100
AcDbSpline
70
4
71
3
72
32
73
28
40
0
40
0
40
0
40
0
40
0.125
40
0.125
40
0.187499999999999
40
0.187499999999999
40
0.249999999999999
40
0.312499999999999
40
0.312499999999999
40
0.374999999999999
40
0.374999999999999
40
0.437499999999999
40
0.437499999999999
40
0.499999999999998
40
0.499999999999998
40
0.625000000000001
40
0.625000000000001
40
0.687500000000001
40
0.687500000000001
40
0.750000000000001
40
0.750000000000001
40
0.8125
40
0.8125
40
0.875
40
0.9375
40
0.9375
40
1
40
1
40
1
40
1
41
1
10
18.475
20
-0.8584142356695
30
1.1E-15
41
1
10
18.5513869105251
20
-0.994117994659291
30
1.1E-15
41
1
10
18.6438628340027
20
-1.11676911897686
30
1.1E-15
41
1
10
18.8060161727843
20
-1.28173629888224
30
1.2E-15
41
1
10
18.8644677714834
20
-1.33380236951652
30
1.2E-15
41
1
10
18.9863546839095
20
-1.42863059469394
30
1.2E-15
41
1
10
19.1136108957103
20
-1.51474296825006
30
1.2E-15
41
1
10
19.2514245806389
20
-1.58372042660724
30
1.2E-15
41
1
10
19.3947068574649
20
-1.64382351842423
30
1.2E-15
41
1
10
19.4680991190354
20
-1.66897827927505
30
1.2E-15
41
1
10
19.616462737552
20
-1.70918290775936
30
1.2E-15
41
1
10
19.6917203095083
20
-1.72435369534256
30
1.2E-15
41
1
10
19.8444007867364
20
-1.7447695890985
30
1.2E-15
41
1
10
19.9224159682989
20
-1.74998952912125
30
1.2E-15
41
1
10
20.1544584322946
20
-1.75002089379788
30
1.2E-15
41
1
10
20.3066651838767
20
-1.72988498065649
30
1.2E-15
41
1
10
20.5312163639054
20
-1.66922753692984
30
1.3E-15
41
1
10
20.6049006614416
20
-1.64393161134001
30
1.3E-15
41
1
10
20.7467962569933
20
-1.58452242127279
30
1.3E-15
41
1
10
20.815497217582
20
-1.55028502407072
30
1.3E-15
41
1
10
20.9484020753401
20
-1.472736524716
30
1.3E-15
41
1
10
21.0130306856377
20
-1.42908054079857
30
1.3E-15
41
1
10
21.1353546789946
20
-1.33396855848173
30
1.3E-15
41
1
10
21.2502808065719
20
-1.23163265431884
30
1.3E-15
41
1
10
21.3508201980891
20
-1.11524585605309
30
1.3E-15
41
1
10
21.4439881999104
20
-0.991658512557933
30
1.3E-15
41
1
10
21.4868065787602
20
-0.926266054721822
30
1.3E-15
41
1
10
21.525
20
-0.858414235669471
30
1.3E-15
0
SPLINE
5
115
100
AcDbEntity
8
1
62
256
6
ByLayer
370
18
48
1
60
0
100
AcDbSpline
70
4
71
3
72
8
73
4
40
0
40
0
40
0
40
0
40
1
40
1
40
1
40
1
41
1
10
16.7610649661675
20
48.6723577676178
30
1E-15
41
1
10
17.1990433016718
20
47.678349775607
30
1.1E-15
41
1
10
17.6370216371761
20
46.69128915386
30
1.1E-15
41
1
10
18.0749999726803
20
45.7122026949835
30
1.1E-15
0
SPLINE
5
116
100
AcDbEntity
8
1
62
256
6
ByLayer
370
18
48
1
60
0
100
AcDbSpline
70
4
71
3
72
8
73
4
40
0
40
0
40
0
40
0
40
1
40
1
40
1
40
1
41
1
10
28.95
20
47.8476237654494
30
1.8E-15
41
1
10
28.8500150085318
20
47.8950798139958
30
1.8E-15
41
1
10
28.7500149485988
20
47.9424724135952
30
1.8E-15
41
1
10
28.65
20
47.9898020416838
30
1.8E-15
0
SPLINE
5
117
100
AcDbEntity
8
1
62
256
6
ByLayer
370
18
48
1
60
0
100
AcDbSpline
70
4
71
3
72
8
73
4
40
0
40
0
40
0
40
0
40
1
40
1
40
1
40
1
41
1
10
28.95
20
39.05
30
1.8E-15
41
1
10
28.8500150085318
20
39.1499849914682
30
1.8E-15
41
1
10
28.7500149485988
20
39.2499850514012
30
1.8E-15
41
1
10
28.65
20
39.35
30
1.8E-15
0
SPLINE
5
118
100
AcDbEntity
8
1
62
256
6
ByLayer
370
18
48
1
60
0
100
AcDbSpline
70
4
71
3
72
8
73
4
40
0
40
0
40
0
40
0
40
1
40
1
40
1
40
1
41
1
10
21.925000051499
20
45.7122026844872
30
1.3E-15
41
1
10
22.3629783844283
20
46.6912891444861
30
1.4E-15
41
1
10
22.8009567173575
20
47.6783497672944
30
1.4E-15
41
1
10
23.2389350502868
20
48.6723577602869
30
1.4E-15
0
SPLINE
5
119
100
AcDbEntity
8
1
62
256
6
ByLayer
370
18
48
1
60
0
100
AcDbSpline
70
4
71
3
72
18
73
14
40
0
40
0
40
0
40
0
40
0.125
40
0.125
40
0.25
40
0.25
40
0.375
40
0.375
40
0.5
40
0.5
40
0.75
40
0.75
40
1
40
1
40
1
40
1
41
1
10
18.475
20
43.2539376820192
30
1.1E-15
41
1
10
18.4436994973653
20
43.2539376820192
30
1.1E-15
41
1
10
18.4133062710408
20
43.2588338071942
30
1.1E-15
41
1
10
18.3541758366069
20
43.277562775478
30
1.1E-15
41
1
10
18.3260151867698
20
43.2913385467995
30
1.1E-15
41
1
10
18.2743064219413
20
43.3252917726508
30
1.1E-15
41
1
10
18.2503998984167
20
43.3457170706885
30
1.1E-15
41
1
10
18.2079910859121
20
43.3903224132854
30
1.1E-15
41
1
10
18.1891169660948
20
43.414757605261
30
1.1E-15
41
1
10
18.1387734927278
20
43.4933701832239
30
1.1E-15
41
1
10
18.1150324450941
20
43.5499569680183
30
1.1E-15
41
1
10
18.0828331706455
20
43.6696325219756
30
1.1E-15
41
1
10
18.075
20
43.7310742405834
30
1.1E-15
41
1
10
18.075
20
43.7931858283911
30
1.1E-15
0
SPLINE
5
11A
100
AcDbEntity
8
1
62
256
6
ByLayer
370
18
48
1
60
0
100
AcDbSpline
70
4
71
3
72
8
73
4
40
0
40
0
40
0
40
0
40
1
40
1
40
1
40
1
41
1
10
28.6111835861775
20
60.8234129180532
30
0
41
1
10
28.4909345292877
20
60.9213336482501
30
0
41
1
10
28.3705388459452
20
61.0191829841336
30
0
41
1
10
28.25
20
61.1169622081982
30
0
0
SPLINE
5
11B
100
AcDbEntity
8
1
62
256
6
ByLayer
370
18
48
1
60
0
100
AcDbSpline
70
4
71
3
72
60
73
56
40
0
40
0
40
0
40
0
40
0.0145414489230597
40
0.028984995983015
40
0.0433376994196621
40
0.0576067522818289
40
0.0717994748044166
40
0.085923305906521
40
0.0999857938362951
40
0.113994586001513
40
0.12795741803731
40
0.141882102176291
40
0.155776514998022
40
0.169648584646449
40
0.183506277613945
40
0.197357585198898
40
0.211210509750269
40
0.225073050816782
40
0.238953191320309
40
0.252858883872548
40
0.266798037351154
40
0.28077850384647
40
0.294808066082582
40
0.308894425407543
40
0.323045190436738
40
0.337267866421814
40
0.35156984540471
40
0.365958397203408
40
0.380440661262837
40
0.395023639391374
40
0.409714189391111
40
0.424519019578585
40
0.439444684181996
40
0.454497579591695
40
0.469683941432706
40
0.485009842421103
40
0.500481190960772
40
0.53066354399521
40
0.56026413530208
40
0.589330459100058
40
0.617912673085692
40
0.646063522781352
40
0.67383821138696
40
0.701294211151871
40
0.728491014777933
40
0.755489828478333
40
0.782353211831982
40
0.809144673161368
40
0.835928232424056
40
0.86276796613416
40
0.88972755027806
40
0.916869817352315
40
0.944256342507915
40
0.971947071496918
40
1
40
1
40
1
40
1
41
1
10
4.64999999999998
20
-61.798752069004
30
3E-16
41
1
10
4.64930984496533
20
-61.7927947355321
30
3E-16
41
1
10
4.64793418143879
20
-61.7809201769742
30
3E-16
41
1
10
4.64925908014368
20
-61.762863170922
30
3E-16
41
1
10
4.65308341440206
20
-61.7447125597177
30
3E-16
41
1
10
4.65964505518096
20
-61.7264509335388
30
3E-16
41
1
10
4.66888093485662
20
-61.7080889619019
30
3E-16
41
1
10
4.68080788436879
20
-61.6896298178038
30
3E-16
41
1
10
4.69542149546726
20
-61.6710786253221
30
3E-16
41
1
10
4.71272299726786
20
-61.6524399487873
30
3E-16
41
1
10
4.73271210732642
20
-61.633718460408
30
3E-16
41
1
10
4.75538893341718
20
-61.6149187624084
30
3E-16
41
1
10
4.78075346620355
20
-61.5960454341944
30
3E-16
41
1
10
4.80880571391629
20
-61.5771030195359
30
3E-16
41
1
10
4.83954566607818
20
-61.5580960297119
30
3E-16
41
1
10
4.87297330308257
20
-61.5390289423708
30
3E-16
41
1
10
4.90908859376935
20
-61.5199062015171
30
3E-16
41
1
10
4.94789149645234
20
-61.5007322171872
30
3E-16
41
1
10
4.98938195925786
20
-61.4815113652048
30
3E-16
41
1
10
5.03355992086787
20
-61.4622479869206
30
3E-16
41
1
10
5.08042531135078
20
-61.4429463889704
30
3E-16
41
1
10
5.12997805313759
20
-61.4236108430474
30
3E-16
41
1
10
5.18221806209451
20
-61.404245585699
30
3E-16
41
1
10
5.23714524866926
20
-61.3848548181493
30
3E-16
41
1
10
5.2947595190787
20
-61.3654427061516
30
3E-16
41
1
10
5.35506077651431
20
-61.3460133798729
30
3E-16
41
1
10
5.41804892231431
20
-61.3265709338108
30
3E-16
41
1
10
5.48372385716607
20
-61.3071194267465
30
3E-16
41
1
10
5.55208548197839
20
-61.2876628817175
30
3E-16
41
1
10
5.62313369967904
20
-61.2682052860668
30
3E-16
41
1
10
5.69686841312085
20
-61.248750591346
30
3E-16
41
1
10
5.7732895372001
20
-61.229302713902
30
4E-16
41
1
10
5.85239695679775
20
-61.2098655329939
30
4E-16
41
1
10
5.93419068885325
20
-61.190442898345
30
4E-16
41
1
10
6.01867027227479
20
-61.17103860211
30
4E-16
41
1
10
6.1058370775267
20
-61.1516564854861
30
4E-16
41
1
10
6.22386702535815
20
-61.1262287826329
30
4E-16
41
1
10
6.3738279072669
20
-61.0953658819909
30
4E-16
41
1
10
6.55767960279266
20
-61.059930759694
30
4E-16
41
1
10
6.74485845149627
20
-61.0262958048218
30
4E-16
41
1
10
6.93536572018249
20
-60.9945410791001
30
4E-16
41
1
10
7.12920179546302
20
-60.9647406337764
30
4E-16
41
1
10
7.32636665953066
20
-60.9369635062264
30
4E-16
41
1
10
7.5268596626305
20
-60.9112734411906
30
5E-16
41
1
10
7.73067951237997
20
-60.8877289371893
30
5E-16
41
1
10
7.93782425407835
20
-60.86638318871
30
5E-16
41
1
10
8.14829130652527
20
-60.8472840893312
30
5E-16
41
1
10
8.36207755724709
20
-60.8304740763122
30
5E-16
41
1
10
8.57917944954065
20
-60.8159905523741
30
5E-16
41
1
10
8.79959330183956
20
-60.8038641881878
30
5E-16
41
1
10
9.02331490070102
20
-60.7941252048079
30
6E-16
41
1
10
9.2503418921367
20
-60.7867797295567
30
6E-16
41
1
10
9.48066560600543
20
-60.7818990487609
30
6E-16
41
1
10
9.71430275794233
20
-60.7792818435323
30
6E-16
41
1
10
9.87109466273245
20
-60.7795830319663
30
6E-16
41
1
10
9.94999999999999
20
-60.779734604683
30
6E-16
0
SPLINE
5
11C
100
AcDbEntity
8
1
62
256
6
ByLayer
370
18
48
1
60
0
100
AcDbSpline
70
4
71
3
72
14
73
10
40
0
40
0
40
0
40
0
40
0.25
40
0.25
40
0.5
40
0.5
40
0.75
40
0.75
40
1
40
1
40
1
40
1
41
1
10
21.925
20
43.7931858283912
30
1.3E-15
41
1
10
21.925
20
43.7310769904297
30
1.3E-15
41
1
10
21.917240017623
20
43.6700790960559
30
1.3E-15
41
1
10
21.8851483532187
20
43.5504557641732
30
1.3E-15
41
1
10
21.8611897849819
20
43.4933857832318
30
1.3E-15
41
1
10
21.7945004348881
20
43.3891032237456
30
1.3E-15
41
1
10
21.7517874751824
20
43.3424642673415
30
1.3E-15
41
1
10
21.6482118078655
20
43.2743768768236
30
1.3E-15
41
1
10
21.587590327967
20
43.2539376820192
30
1.3E-15
41
1
10
21.525
20
43.2539376820192
30
1.3E-15
0
SPLINE
5
11D
100
AcDbEntity
8
1
62
256
6
ByLayer
370
18
48
1
60
0
100
AcDbSpline
70
4
71
3
72
8
73
4
40
0
40
0
40
0
40
0
40
1
40
1
40
1
40
1
41
1
10
23.221041330703
20
61.0918172565866
30
-4E-16
41
1
10
22.7890275539656
20
60.325848198501
30
-4E-16
41
1
10
22.3570137772282
20
59.5604608014236
30
-4E-16
41
1
10
21.9250000004908
20
58.7957241313538
30
-4E-16
0
SPLINE
5
11E
100
AcDbEntity
8
1
62
256
6
ByLayer
370
18
48
1
60
0
100
AcDbSpline
70
4
71
1
72
4
73
2
40
0
40
0
40
1
40
1
41
1
10
18.0749997627334
20
45.0041566824797
30
1.1E-15
41
1
10
16.5235226623158
20
48.5059696016101
30
1E-15
0
SPLINE
5
11F
100
AcDbEntity
8
1
62
256
6
ByLayer
370
18
48
1
60
0
100
AcDbSpline
70
4
71
3
72
8
73
4
40
0
40
0
40
0
40
0
40
1
40
1
40
1
40
1
41
1
10
16.7610646956217
20
39.1440057830235
30
1E-15
41
1
10
16.6818840027724
20
39.2127879903189
30
1E-15
41
1
10
16.6027033099231
20
39.2814529390357
30
1E-15
41
1
10
16.5235226170738
20
39.3500000121045
30
1E-15
0
SPLINE
5
120
100
AcDbEntity
8
1
62
256
6
ByLayer
370
18
48
1
60
0
100
AcDbSpline
70
4
71
3
72
18
73
14
40
0
40
0
40
0
40
0
40
0.249999999999976
40
0.249999999999976
40
0.374999999999982
40
0.374999999999982
40
0.499999999999988
40
0.499999999999988
40
0.624999999999994
40
0.624999999999994
40
0.750000000000001
40
0.750000000000001
40
1
40
1
40
1
40
1
41
1
10
21.925
20
-57.1810911403412
30
-4E-16
41
1
10
21.925
20
-57.1274860278403
30
-4E-16
41
1
10
21.9149651192086
20
-57.0749515379009
30
-4E-16
41
1
10
21.8855150768816
20
-57.0006602529998
30
-4E-16
41
1
10
21.8734799159578
20
-56.9771278360931
30
-4E-16
41
1
10
21.8449983737924
20
-56.9325114050216
30
-4E-16
41
1
10
21.8283331478541
20
-56.9112404936132
30
-4E-16
41
1
10
21.7916840260443
20
-56.8729099750787
30
-4E-16
41
1
10
21.7716603258
20
-56.8556852432662
30
-4E-16
41
1
10
21.7281359843902
20
-56.8252066719394
30
-4E-16
41
1
10
21.7045908510451
20
-56.8120215686681
30
-4E-16
41
1
10
21.63183067971
20
-56.7804387225751
30
-5E-16
41
1
10
21.5786515245106
20
-56.769156978063
30
-5E-16
41
1
10
21.5250000000001
20
-56.769156978063
30
-5E-16
0
SPLINE
5
121
100
AcDbEntity
8
1
62
256
6
ByLayer
370
18
48
1
60
0
100
AcDbSpline
70
4
71
3
72
20
73
16
40
0
40
0
40
0
40
0
40
0.125
40
0.125
40
0.25
40
0.25
40
0.375
40
0.375
40
0.499999999999999
40
0.499999999999999
40
0.749999999999999
40
0.749999999999999
40
0.874999999999999
40
0.874999999999999
40
1
40
1
40
1
40
1
41
1
10
18.475
20
0.858414235669471
30
1.1E-15
41
1
10
18.4380094471383
20
0.792699350279491
30
1.1E-15
41
1
10
18.4055965433878
20
0.725238971243868
30
1.1E-15
41
1
10
18.3495320895892
20
0.586557435015408
30
1.1E-15
41
1
10
18.3258357680421
20
0.515013877814937
30
1.1E-15
41
1
10
18.2880803032837
20
0.370669828693479
30
1.1E-15
41
1
10
18.2738703149264
20
0.297601543985849
30
1.1E-15
41
1
10
18.2547769561389
20
0.149287962847296
30
1.1E-15
41
1
10
18.2499207718125
20
0.0733499217587052
30
1.1E-15
41
1
10
18.2501614424968
20
-0.152299331897012
30
1.1E-15
41
1
10
18.2693307060954
20
-0.299375190773674
30
1.1E-15
41
1
10
18.3262097248206
20
-0.516247558971145
30
1.1E-15
41
1
10
18.3498533375396
20
-0.587420667217685
30
1.1E-15
41
1
10
18.4057301318191
20
-0.725500265550664
30
1.1E-15
41
1
10
18.4380498683021
20
-0.792771159753642
30
1.1E-15
41
1
10
18.475
20
-0.858414235669443
30
1.1E-15
0
SPLINE
5
122
100
AcDbEntity
8
1
62
256
6
ByLayer
370
18
48
1
60
0
100
AcDbSpline
70
4
71
3
72
8
73
4
40
0
40
0
40
0
40
0
40
1
40
1
40
1
40
1
41
1
10
18.0749999995076
20
58.7957241313529
30
-7E-16
41
1
10
17.6429862227677
20
59.5604608014276
30
-7E-16
41
1
10
17.2109724460277
20
60.3258481985099
30
-7E-16
41
1
10
16.7789586692878
20
61.0918172566003
30
-7E-16
0
SPLINE
5
123
100
AcDbEntity
8
1
62
256
6
ByLayer
370
18
48
1
60
0
100
AcDbSpline
70
4
71
1
72
4
73
2
40
0
40
0
40
1
40
1
41
1
10
16.5235226864393
20
39.35
30
1E-15
41
1
10
18.0749997870612
20
39.35
30
1.1E-15
0
SPLINE
5
124
100
AcDbEntity
8
1
62
256
6
ByLayer
370
18
48
1
60
0
100
AcDbSpline
70
4
71
3
72
8
73
4
40
0
40
0
40
0
40
0
40
1
40
1
40
1
40
1
41
1
10
28.25
20
-60.779734604683
30
0
41
1
10
28.3729518530476
20
-60.6824936204268
30
0
41
1
10
28.4957631722247
20
-60.5851841935232
30
0
41
1
10
28.6184305239431
20
-60.4878050436615
30
0
0
SPLINE
5
125
100
AcDbEntity
8
1
62
256
6
ByLayer
370
18
48
1
60
0
100
AcDbSpline
70
4
71
1
72
4
73
2
40
0
40
0
40
1
40
1
41
1
10
4.84504719964389
20
61.8075054618316
30
3E-16
41
1
10
4.65000000000001
20
62.0011196912675
30
3E-16
0
SPLINE
5
126
100
AcDbEntity
8
1
62
256
6
ByLayer
370
18
48
1
60
0
100
AcDbSpline
70
4
71
3
72
8
73
4
40
0
40
0
40
0
40
0
40
1
40
1
40
1
40
1
41
1
10
18.0749999759269
20
39.1475694653239
30
1.1E-15
41
1
10
17.6370216400315
20
39.1705486131627
30
1.1E-15
41
1
10
17.1990433041361
20
39.1695145046515
30
1.1E-15
41
1
10
16.7610649682407
20
39.1440058492472
30
1E-15
0
SPLINE
5
127
100
AcDbEntity
8
1
62
256
6
ByLayer
370
18
48
1
60
0
100
AcDbSpline
70
4
71
3
72
8
73
4
40
0
40
0
40
0
40
0
40
1
40
1
40
1
40
1
41
1
10
28.6111835861678
20
60.8234129180437
30
0
41
1
10
28.6241224782983
20
60.8102027108478
30
0
41
1
10
28.6370612829655
20
60.7969924179843
30
0
41
1
10
28.65
20
60.7837820392907
30
0
0
SPLINE
5
128
100
AcDbEntity
8
1
62
256
6
ByLayer
370
18
48
1
60
0
100
AcDbSpline
70
4
71
3
72
8
73
4
40
0
40
0
40
0
40
0
40
1
40
1
40
1
40
1
41
1
10
16.5235225868448
20
48.5059697250094
30
1E-15
41
1
10
16.6027032812052
20
48.5615778767836
30
1E-15
41
1
10
16.6818839755655
20
48.6170407255683
30
1E-15
41
1
10
16.7610646699258
20
48.6723577729371
30
1E-15
0
SPLINE
5
129
100
AcDbEntity
8
1
62
256
6
ByLayer
370
18
48
1
60
0
100
AcDbSpline
70
4
71
3
72
8
73
4
40
0
40
0
40
0
40
0
40
1
40
1
40
1
40
1
41
1
10
4.94999999999999
20
-61.5019280917273
30
3E-16
41
1
10
4.84999999999999
20
-61.6008694174862
30
3E-16
41
1
10
4.75
20
-61.6998107432451
30
3E-16
41
1
10
4.65000000000001
20
-61.798752069004
30
3E-16
0
SPLINE
5
12A
100
AcDbEntity
8
1
62
256
6
ByLayer
370
18
48
1
60
0
100
AcDbSpline
70
4
71
3
72
8
73
4
40
0
40
0
40
0
40
0
40
1
40
1
40
1
40
1
41
1
10
28.95
20
60.414564129852
30
0
41
1
10
28.8501316292197
20
60.5378503451618
30
0
41
1
10
28.7501309464505
20
60.6609225220531
30
0
41
1
10
28.65
20
60.7837820392907
30
0
0
SPLINE
5
12B
100
AcDbEntity
8
1
62
256
6
ByLayer
370
18
48
1
60
0
100
AcDbSpline
70
4
71
3
72
18
73
14
40
0
40
0
40
0
40
0
40
0.125000000000003
40
0.125000000000003
40
0.250000000000006
40
0.250000000000006
40
0.375000000000008
40
0.375000000000008
40
0.500000000000011
40
0.500000000000011
40
0.750000000000006
40
0.750000000000006
40
1
40
1
40
1
40
1
41
1
10
21.525
20
57.1187375910918
30
-5E-16
41
1
10
21.5517266524315
20
57.1187375910918
30
-5E-16
41
1
10
21.5779886832587
20
57.1214522707116
30
-5E-16
41
1
10
21.6296239072854
20
57.1320749084649
30
-5E-16
41
1
10
21.6552748024225
20
57.1401227245257
30
-5E-16
41
1
10
21.7039538753694
20
57.1610085898181
30
-4E-16
41
1
10
21.7270082509363
20
57.1737709762195
30
-4E-16
41
1
10
21.7705780638083
20
57.2038780156127
30
-4E-16
41
1
10
21.7910570288845
20
57.2212911841804
30
-4E-16
41
1
10
21.8460312942299
20
57.2781827981162
30
-4E-16
41
1
10
21.8754193257062
20
57.3237887786877
30
-4E-16
41
1
10
21.9146585078344
20
57.4216331655165
30
-4E-16
41
1
10
21.925
20
57.4747492928482
30
-4E-16
41
1
10
21.925
20
57.5281686132976
30
-4E-16
0
SPLINE
5
12C
100
AcDbEntity
8
1
62
256
6
ByLayer
370
18
48
1
60
0
100
AcDbSpline
70
4
71
3
72
18
73
14
40
0
40
0
40
0
40
0
40
0.125000000000003
40
0.125000000000003
40
0.250000000000006
40
0.250000000000006
40
0.375000000000008
40
0.375000000000008
40
0.500000000000011
40
0.500000000000011
40
0.750000000000006
40
0.750000000000006
40
1
40
1
40
1
40
1
41
1
10
18.475
20
-56.7691569780634
30
-6E-16
41
1
10
18.4481890799684
20
-56.7691569780634
30
-6E-16
41
1
10
18.4218491958545
20
-56.7719054398527
30
-6E-16
41
1
10
18.3700698794649
20
-56.7826564372225
30
-7E-16
41
1
10
18.3443511960291
20
-56.7908028093866
30
-7E-16
41
1
10
18.29560373359
20
-56.811912025494
30
-7E-16
41
1
10
18.2725261784187
20
-56.8248058800393
30
-7E-16
41
1
10
18.2289295910042
20
-56.8552110296322
30
-7E-16
41
1
10
18.2084835821988
20
-56.8727619441765
30
-7E-16
41
1
10
18.1536044736878
20
-56.9300774511266
30
-7E-16
41
1
10
18.1243310162939
20
-56.975945158543
30
-7E-16
41
1
10
18.08526928481
20
-57.0742381898647
30
-7E-16
41
1
10
18.075
20
-57.1275119638398
30
-7E-16
41
1
10
18.075
20
-57.1810911403412
30
-7E-16
0
SPLINE
5
12D
100
AcDbEntity
8
1
62
256
6
ByLayer
370
18
48
1
60
0
100
AcDbSpline
70
4
71
3
72
8
73
4
40
0
40
0
40
0
40
0
40
1
40
1
40
1
40
1
41
1
10
23.2389350317593
20
39.1440058492472
30
1.4E-15
41
1
10
22.8009566958639
20
39.1695145046515
30
1.4E-15
41
1
10
22.3629783599685
20
39.1705486131627
30
1.4E-15
41
1
10
21.9250000240731
20
39.1475694653239
30
1.3E-15
0
SPLINE
5
12E
100
AcDbEntity
8
1
62
256
6
ByLayer
370
18
48
1
60
0
100
AcDbSpline
70
4
71
3
72
8
73
4
40
0
40
0
40
0
40
0
40
1
40
1
40
1
40
1
41
1
10
28.6499999999899
20
-60.4553980964583
30
0
41
1
10
28.639476915136
20
-60.4662004841126
30
0
41
1
10
28.6289537564147
20
-60.47700279981
30
0
41
1
10
28.6184305239431
20
-60.4878050436615
30
0
0
SPLINE
5
12F
100
AcDbEntity
8
1
62
256
6
ByLayer
370
18
48
1
60
0
100
AcDbSpline
70
4
71
3
72
36
73
32
40
0
40
0
40
0
40
0
40
0.125000000000003
40
0.125000000000003
40
0.250000000000006
40
0.250000000000006
40
0.312500000000006
40
0.312500000000006
40
0.375000000000007
40
0.375000000000007
40
0.500000000000008
40
0.500000000000008
40
0.531250000000009
40
0.531250000000009
40
0.562500000000009
40
0.562500000000009
40
0.625000000000009
40
0.625000000000009
40
0.687500000000009
40
0.687500000000009
40
0.718750000000008
40
0.718750000000008
40
0.750000000000008
40
0.750000000000008
40
0.812500000000006
40
0.812500000000006
40
0.843750000000005
40
0.843750000000005
40
0.875000000000004
40
0.875000000000004
40
1
40
1
40
1
40
1
41
1
10
4.94999999999999
20
43.9810084013543
30
3E-16
41
1
10
4.94999999999999
20
44.2576218669493
30
3E-16
41
1
10
4.97242561583178
20
44.5294917149432
30
3E-16
41
1
10
5.06430443686153
20
45.0637881604056
30
3E-16
41
1
10
5.13371001277349
20
45.3262179696116
30
3E-16
41
1
10
5.277786003009
20
45.7125415556789
30
3E-16
41
1
10
5.33260573619128
20
45.8401478236758
30
3E-16
41
1
10
5.45497845148844
20
46.0892487734933
30
3E-16
41
1
10
5.52267927998028
20
46.2111976734061
30
3E-16
41
1
10
5.74642210646746
20
46.5690814836819
30
4E-16
41
1
10
5.92282646745491
20
46.7971316910976
30
4E-16
41
1
10
6.18426854755288
20
47.0675713409452
30
4E-16
41
1
10
6.2387507474424
20
47.1210278487747
30
4E-16
41
1
10
6.35101820656655
20
47.2254060270915
30
4E-16
41
1
10
6.40888773681249
20
47.2764268994758
30
4E-16
41
1
10
6.58783903235528
20
47.4259447633394
30
4E-16
41
1
10
6.71424636671188
20
47.5209072530087
30
4E-16
41
1
10
6.9823555010453
20
47.7009683104485
30
4E-16
41
1
10
7.12404844750958
20
47.786071885956
30
4E-16
41
1
10
7.34934919264182
20
47.9057208950947
30
5E-16
41
1
10
7.4268460379827
20
47.9443808415262
30
5E-16
41
1
10
7.58454178869135
20
48.0180303180498
30
5E-16
41
1
10
7.66482781533824
20
48.0530838402963
30
5E-16
41
1
10
7.91007651672516
20
48.1528895807974
30
5E-16
41
1
10
8.07941309114702
20
48.2123078376218
30
5E-16
41
1
10
8.34274613727146
20
48.2902545243981
30
5E-16
41
1
10
8.43208240609522
20
48.3143684237319
30
5E-16
41
1
10
8.6140235301566
20
48.3587062900056
30
5E-16
41
1
10
8.70700212667623
20
48.3789945091984
30
5E-16
41
1
10
9.17435817677159
20
48.4690667402292
30
6E-16
41
1
10
9.55734984300588
20
48.5059697356934
30
6E-16
41
1
10
9.94999999999999
20
48.5059697356934
30
6E-16
0
SPLINE
5
130
100
AcDbEntity
8
1
62
256
6
ByLayer
370
18
48
1
60
0
100
AcDbSpline
70
4
71
3
72
14
73
10
40
0
40
0
40
0
40
0
40
0.25
40
0.25
40
0.5
40
0.5
40
0.75
40
0.75
40
1
40
1
40
1
40
1
41
1
10
18.0749949995
20
39.35
30
1.1E-15
41
1
10
18.0750050005
20
39.35
30
1.1E-15
41
1
10
18.082759982377
20
39.35
30
1.1E-15
41
1
10
18.1148516467813
20
39.35
30
1.1E-15
41
1
10
18.1388102150181
20
39.35
30
1.1E-15
41
1
10
18.2054995651118
20
39.35
30
1.1E-15
41
1
10
18.2482125248176
20
39.35
30
1.1E-15
41
1
10
18.3517881921345
20
39.35
30
1.1E-15
41
1
10
18.412409672033
20
39.35
30
1.1E-15
41
1
10
18.475
20
39.35
30
1.1E-15
0
SPLINE
5
131
100
AcDbEntity
8
1
62
256
6
ByLayer
370
18
48
1
60
0
100
AcDbSpline
70
4
71
1
72
4
73
2
40
0
40
0
40
1
40
1
41
1
10
23.4764775305681
20
48.5059695148666
30
1.4E-15
41
1
10
21.9250004222346
20
45.0041566018207
30
1.3E-15
0
SPLINE
5
132
100
AcDbEntity
8
1
62
256
6
ByLayer
370
18
48
1
60
0
100
AcDbSpline
70
4
71
1
72
4
73
2
40
0
40
0
40
1
40
1
41
1
10
18.075
20
45.7122025393891
30
1.1E-15
41
1
10
18.075
20
45.0041566417522
30
1.1E-15
0
SPLINE
5
133
100
AcDbEntity
8
1
62
256
6
ByLayer
370
18
48
1
60
0
100
AcDbSpline
70
4
71
3
72
8
73
4
40
0
40
0
40
0
40
0
40
1
40
1
40
1
40
1
41
1
10
16.7810507897415
20
-60.7523521873516
30
-7E-16
41
1
10
17.2123671929206
20
-59.9830557284631
30
-7E-16
41
1
10
17.6436835960996
20
-59.2144867745988
30
-7E-16
41
1
10
18.0749999992787
20
-58.4467319266676
30
-7E-16
0
LINE
5
7A
100
AcDbEntity
8
SK1
62
256
6
ByLayer
370
13
48
1
60
0
100
AcDbLine
10
-53.2
20
41.225
30
0
11
-53.2
21
41.146113
31
0
39
0
210
0
220
0
230
1
0
LINE
5
7C
100
AcDbEntity
8
SK1
62
256
6
ByLayer
370
13
48
1
60
0
100
AcDbLine
10
-62.478362
20
39.044137
30
0
11
-61.789332
21
39.658067
31
0
39
0
210
0
220
0
230
1
0
LINE
5
7D
100
AcDbEntity
8
SK1
62
256
6
ByLayer
370
18
48
1
60
0
100
AcDbLine
10
-62.9
20
-38.921222
30
0
11
-62.9
21
38.921222
31
0
39
0
210
0
220
0
230
1
0
LINE
5
7E
100
AcDbEntity
8
SK1
62
256
6
ByLayer
370
13
48
1
60
0
100
AcDbLine
10
-46.2
20
-40.584118
30
0
11
-46.2
21
-39.377607
31
0
39
0
210
0
220
0
230
1
0
LINE
5
7F
100
AcDbEntity
8
SK1
62
256
6
ByLayer
370
13
48
1
60
0
100
AcDbLine
10
-60.525094
20
41.224249
30
0
11
-60.525094
21
-41.224249
31
0
39
0
210
0
220
0
230
1
0
LINE
5
80
100
AcDbEntity
8
SK1
62
256
6
ByLayer
370
13
48
1
60
0
100
AcDbLine
10
-46.2
20
-40.584118
30
0
11
-46.2
21
-41.225
31
0
39
0
210
0
220
0
230
1
0
LINE
5
81
100
AcDbEntity
8
SK1
62
256
6
ByLayer
370
18
48
1
60
0
100
AcDbLine
10
-50.8
20
45.589162
30
0
11
-50.8
21
42.982995
31
0
39
0
210
0
220
0
230
1
0
LINE
5
82
100
AcDbEntity
8
SK1
62
256
6
ByLayer
370
18
48
1
60
0
100
AcDbLine
10
-4
20
47.933852
30
0
11
-4
21
0
31
0
39
0
210
0
220
0
230
1
0
LINE
5
83
100
AcDbEntity
8
SK1
62
256
6
ByLayer
370
18
48
1
60
0
100
AcDbLine
10
-4
20
0
30
0
11
-4
21
-47.933852
31
0
39
0
210
0
220
0
230
1
0
LINE
5
84
100
AcDbEntity
8
SK1
62
256
6
ByLayer
370
13
48
1
60
0
100
AcDbLine
10
-48.133192
20
-40.584118
30
0
11
-46.2
21
-40.584118
31
0
39
0
210
0
220
0
230
1
0
LINE
5
85
100
AcDbEntity
8
SK1
62
256
6
ByLayer
370
18
48
1
60
0
100
AcDbLine
10
-3.393782
20
47.583852
30
0
11
-3.393782
21
0
31
0
39
0
210
0
220
0
230
1
0
LINE
5
86
100
AcDbEntity
8
SK1
62
256
6
ByLayer
370
18
48
1
60
0
100
AcDbLine
10
-3.393782
20
0
30
0
11
-3.393782
21
-47.583852
31
0
39
0
210
0
220
0
230
1
0
LINE
5
87
100
AcDbEntity
8
SK1
62
256
6
ByLayer
370
13
48
1
60
0
100
AcDbLine
10
-1.4
20
0
30
0
11
-1.4
21
47.583852
31
0
39
0
210
0
220
0
230
1
0
LINE
5
88
100
AcDbEntity
8
SK1
62
256
6
ByLayer
370
13
48
1
60
0
100
AcDbLine
10
-1.4
20
-47.583852
30
0
11
-1.4
21
0
31
0
39
0
210
0
220
0
230
1
0
LINE
5
89
100
AcDbEntity
8
SK1
62
256
6
ByLayer
370
13
48
1
60
0
100
AcDbLine
10
-62.478362
20
-39.044137
30
0
11
-61.789332
21
-39.658067
31
0
39
0
210
0
220
0
230
1
0
LINE
5
8A
100
AcDbEntity
8
SK1
62
256
6
ByLayer
370
18
48
1
60
0
100
AcDbLine
10
-43.8
20
-43.17488
30
0
11
-43.8
21
-45.939864
31
0
39
0
210
0
220
0
230
1
0
LINE
5
8B
100
AcDbEntity
8
1
62
256
6
ByLayer
370
18
48
1
60
0
100
AcDbLine
10
9.95
20
-60.779735
30
0
11
16.761065
21
-60.779735
31
0
39
0
210
0
220
0
230
1
0
LINE
5
8C
100
AcDbEntity
8
1
62
256
6
ByLayer
370
18
48
1
60
0
100
AcDbLine
10
0.7
20
62.46
30
0
11
0.7
21
-62.46
31
0
39
0
210
0
220
0
230
1
0
LINE
5
8D
100
AcDbEntity
8
1
62
256
6
ByLayer
370
18
48
1
60
0
100
AcDbLine
10
4.65
20
62.46
30
0
11
4.65
21
62.00112
31
0
39
0
210
0
220
0
230
1
0
LINE
5
8E
100
AcDbEntity
8
1
62
256
6
ByLayer
370
18
48
1
60
0
100
AcDbLine
10
28.65
20
39.85
30
0
11
28.95
21
39.85
31
0
39
0
210
0
220
0
230
1
0
LINE
5
8F
100
AcDbEntity
8
1
62
256
6
ByLayer
370
18
48
1
60
0
100
AcDbLine
10
28.25
20
-60.779735
30
0
11
28.25
21
39.35
31
0
39
0
210
0
220
0
230
1
0
LINE
5
90
100
AcDbEntity
8
1
62
256
6
ByLayer
370
18
48
1
60
0
100
AcDbLine
10
129.7
20
0
30
0
11
129.7
21
40
31
0
39
0
210
0
220
0
230
1
0
LINE
5
91
100
AcDbEntity
8
1
62
256
6
ByLayer
370
18
48
1
60
0
100
AcDbLine
10
129.7
20
-40
30
0
11
129.7
21
0
31
0
39
0
210
0
220
0
230
1
0
LINE
5
92
100
AcDbEntity
8
1
62
256
6
ByLayer
370
18
48
1
60
0
100
AcDbLine
10
16.523523
20
39.35
30
0
11
4.95
21
39.35
31
0
39
0
210
0
220
0
230
1
0
LINE
5
93
100
AcDbEntity
8
1
62
256
6
ByLayer
370
18
48
1
60
0
100
AcDbLine
10
28.95
20
39.35
30
0
11
28.65
21
39.35
31
0
39
0
210
0
220
0
230
1
0
LINE
5
94
100
AcDbEntity
8
1
62
256
6
ByLayer
370
13
48
1
60
0
100
AcDbLine
10
9.95
20
39.35
30
0
11
9.95
21
48.50597
31
0
39
0
210
0
220
0
230
1
0
LINE
5
95
100
AcDbEntity
8
1
62
256
6
ByLayer
370
18
48
1
60
0
100
AcDbLine
10
21.925
20
39.147569
30
0
11
21.925
21
-58.446732
31
0
39
0
210
0
220
0
230
1
0
LINE
5
96
100
AcDbEntity
8
1
62
256
6
ByLayer
370
18
48
1
60
0
100
AcDbLine
10
9.95
20
48.50597
30
0
11
16.523523
21
48.50597
31
0
39
0
210
0
220
0
230
1
0
LINE
5
97
100
AcDbEntity
8
1
62
256
6
ByLayer
370
18
48
1
60
0
100
AcDbLine
10
16.761065
20
61.116962
30
0
11
9.95
21
61.116962
31
0
39
0
210
0
220
0
230
1
0
LINE
5
98
100
AcDbEntity
8
1
62
256
6
ByLayer
370
18
48
1
60
0
100
AcDbLine
10
21.525
20
39.35
30
0
11
18.475
21
39.35
31
0
39
0
210
0
220
0
230
1
0
LINE
5
99
100
AcDbEntity
8
1
62
256
6
ByLayer
370
18
48
1
60
0
100
AcDbLine
10
28.95
20
39.85
30
0
11
28.95
21
47.847624
31
0
39
0
210
0
220
0
230
1
0
LINE
5
9A
100
AcDbEntity
8
1
62
256
6
ByLayer
370
13
48
1
60
0
100
AcDbLine
10
21.525
20
0.858414
30
0
11
21.525
21
39.35
31
0
39
0
210
0
220
0
230
1
0
LINE
5
9B
100
AcDbEntity
8
1
62
256
6
ByLayer
370
18
48
1
60
0
100
AcDbLine
10
28.95
20
39.05
30
0
11
28.95
21
-60.076672
31
0
39
0
210
0
220
0
230
1
0
LINE
5
9C
100
AcDbEntity
8
1
62
256
6
ByLayer
370
13
48
1
60
0
100
AcDbLine
10
34.95
20
40
30
0
11
34.95
21
-40
31
0
39
0
210
0
220
0
230
1
0
LINE
5
9D
100
AcDbEntity
8
1
62
256
6
ByLayer
370
18
48
1
60
0
100
AcDbLine
10
23.238935
20
-60.781235
30
0
11
23.238935
21
39.144006
31
0
39
0
210
0
220
0
230
1
0
LINE
5
9E
100
AcDbEntity
8
1
62
256
6
ByLayer
370
18
48
1
60
0
100
AcDbLine
10
16.761065
20
61.118049
30
0
11
16.761065
21
48.672358
31
0
39
0
210
0
220
0
230
1
0
LINE
5
9F
100
AcDbEntity
8
1
62
256
6
ByLayer
370
18
48
1
60
0
100
AcDbLine
10
18.075
20
39.147569
30
0
11
18.075
21
-58.446732
31
0
39
0
210
0
220
0
230
1
0
LINE
5
A0
100
AcDbEntity
8
1
62
256
6
ByLayer
370
18
48
1
60
0
100
AcDbLine
10
18.475
20
57.118738
30
0
11
21.525
21
57.118738
31
0
39
0
210
0
220
0
230
1
0
LINE
5
A1
100
AcDbEntity
8
1
62
256
6
ByLayer
370
18
48
1
60
0
100
AcDbLine
10
28.95
20
39.35
30
0
11
28.95
21
39.05
31
0
39
0
210
0
220
0
230
1
0
LINE
5
A2
100
AcDbEntity
8
1
62
256
6
ByLayer
370
18
48
1
60
0
100
AcDbLine
10
18.475
20
43.253938
30
0
11
21.525
21
43.253938
31
0
39
0
210
0
220
0
230
1
0
LINE
5
A3
100
AcDbEntity
8
1
62
256
6
ByLayer
370
18
48
1
60
0
100
AcDbLine
10
28.25
20
61.116962
30
0
11
23.235183
21
61.116962
31
0
39
0
210
0
220
0
230
1
0
LINE
5
A4
100
AcDbEntity
8
1
62
256
6
ByLayer
370
18
48
1
60
0
100
AcDbLine
10
4.95
20
62.16
30
0
11
4.95
21
61.703324
31
0
39
0
210
0
220
0
230
1
0
LINE
5
A5
100
AcDbEntity
8
1
62
256
6
ByLayer
370
18
48
1
60
0
100
AcDbLine
10
4.95
20
-61.501928
30
0
11
4.95
21
-62.16
31
0
39
0
210
0
220
0
230
1
0
LINE
5
A6
100
AcDbEntity
8
1
62
256
6
ByLayer
370
18
48
1
60
0
100
AcDbLine
10
28.65
20
39.85
30
0
11
28.65
21
47.989802
31
0
39
0
210
0
220
0
230
1
0
LINE
5
A7
100
AcDbEntity
8
1
62
256
6
ByLayer
370
13
48
1
60
0
100
AcDbLine
10
21.525
20
43.253938
30
0
11
21.525
21
57.118738
31
0
39
0
210
0
220
0
230
1
0
LINE
5
A8
100
AcDbEntity
8
1
62
256
6
ByLayer
370
18
48
1
60
0
100
AcDbLine
10
16.761065
20
39.144006
30
0
11
16.761065
21
-60.781235
31
0
39
0
210
0
220
0
230
1
0
LINE
5
A9
100
AcDbEntity
8
1
62
256
6
ByLayer
370
18
48
1
60
0
100
AcDbLine
10
18.075
20
43.793186
30
0
11
18.075
21
45.004157
31
0
39
0
210
0
220
0
230
1
0
LINE
5
AA
100
AcDbEntity
8
1
62
256
6
ByLayer
370
18
48
1
60
0
100
AcDbLine
10
130
20
0
30
0
11
130
21
39.7
31
0
39
0
210
0
220
0
230
1
0
LINE
5
AB
100
AcDbEntity
8
1
62
256
6
ByLayer
370
18
48
1
60
0
100
AcDbLine
10
130
20
-39.7
30
0
11
130
21
0
31
0
39
0
210
0
220
0
230
1
0
LINE
5
AC
100
AcDbEntity
8
1
62
256
6
ByLayer
370
18
48
1
60
0
100
AcDbLine
10
23.238935
20
48.672358
30
0
11
23.238935
21
61.118049
31
0
39
0
210
0
220
0
230
1
0
LINE
5
AD
100
AcDbEntity
8
1
62
256
6
ByLayer
370
13
48
1
60
0
100
AcDbLine
10
18.475
20
39.35
30
0
11
18.475
21
0.858414
31
0
39
0
210
0
220
0
230
1
0
LINE
5
AE
100
AcDbEntity
8
1
62
256
6
ByLayer
370
13
48
1
60
0
100
AcDbLine
10
21.525
20
-56.769157
30
0
11
21.525
21
-0.858414
31
0
39
0
210
0
220
0
230
1
0
LINE
5
AF
100
AcDbEntity
8
1
62
256
6
ByLayer
370
13
48
1
60
0
100
AcDbLine
10
18.475
20
-0.858414
30
0
11
18.475
21
-56.769157
31
0
39
0
210
0
220
0
230
1
0
LINE
5
B0
100
AcDbEntity
8
1
62
256
6
ByLayer
370
18
48
1
60
0
100
AcDbLine
10
23.476478
20
48.50597
30
0
11
28.25
21
48.50597
31
0
39
0
210
0
220
0
230
1
0
LINE
5
B1
100
AcDbEntity
8
1
62
256
6
ByLayer
370
13
48
1
60
0
100
AcDbLine
10
18.475
20
57.118738
30
0
11
18.475
21
43.253938
31
0
39
0
210
0
220
0
230
1
0
LINE
5
B2
100
AcDbEntity
8
1
62
256
6
ByLayer
370
18
48
1
60
0
100
AcDbLine
10
21.925
20
58.795724
30
0
11
21.925
21
45.712203
31
0
39
0
210
0
220
0
230
1
0
LINE
5
B3
100
AcDbEntity
8
1
62
256
6
ByLayer
370
18
48
1
60
0
100
AcDbLine
10
21.525
20
-56.769157
30
0
11
18.475
21
-56.769157
31
0
39
0
210
0
220
0
230
1
0
LINE
5
B4
100
AcDbEntity
8
1
62
256
6
ByLayer
370
18
48
1
60
0
100
AcDbLine
10
28.25
20
39.35
30
0
11
23.476477
21
39.35
31
0
39
0
210
0
220
0
230
1
0
LINE
5
B5
100
AcDbEntity
8
1
62
256
6
ByLayer
370
18
48
1
60
0
100
AcDbLine
10
28.95
20
60.414564
30
0
11
28.95
21
47.847624
31
0
39
0
210
0
220
0
230
1
0
LINE
5
B6
100
AcDbEntity
8
1
62
256
6
ByLayer
370
18
48
1
60
0
100
AcDbLine
10
18.075
20
58.795724
30
0
11
18.075
21
45.712203
31
0
39
0
210
0
220
0
230
1
0
LINE
5
B7
100
AcDbEntity
8
1
62
256
6
ByLayer
370
18
48
1
60
0
100
AcDbLine
10
28.25
20
48.50597
30
0
11
28.25
21
61.116962
31
0
39
0
210
0
220
0
230
1
0
LINE
5
B8
100
AcDbEntity
8
1
62
256
6
ByLayer
370
18
48
1
60
0
100
AcDbLine
10
28.95
20
39.85
30
0
11
28.95
21
39.35
31
0
39
0
210
0
220
0
230
1
0
LINE
5
B9
100
AcDbEntity
8
1
62
256
6
ByLayer
370
18
48
1
60
0
100
AcDbLine
10
4.95
20
39.35
30
0
11
4.95
21
43.981008
31
0
39
0
210
0
220
0
230
1
0
LINE
5
BA
100
AcDbEntity
8
1
62
256
6
ByLayer
370
18
48
1
60
0
100
AcDbLine
10
23.23418
20
-60.779735
30
0
11
28.25
21
-60.779735
31
0
39
0
210
0
220
0
230
1
0
LINE
5
BB
100
AcDbEntity
8
1
62
256
6
ByLayer
370
18
48
1
60
0
100
AcDbLine
10
4.65
20
-61.798752
30
0
11
4.65
21
-62.46
31
0
39
0
210
0
220
0
230
1
0
LINE
5
BC
100
AcDbEntity
8
1
62
256
6
ByLayer
370
18
48
1
60
0
100
AcDbLine
10
21.925
20
45.004157
30
0
11
21.925
21
43.793186
31
0
39
0
210
0
220
0
230
1
0
LINE
5
BD
100
AcDbEntity
8
1
62
256
6
ByLayer
370
18
48
1
60
0
100
AcDbLine
10
0
20
61.76
30
0
11
0
21
0
31
0
39
0
210
0
220
0
230
1
0
LINE
5
BE
100
AcDbEntity
8
1
62
256
6
ByLayer
370
18
48
1
60
0
100
AcDbLine
10
0
20
0
30
0
11
0
21
-61.76
31
0
39
0
210
0
220
0
230
1
0
LINE
5
BF
100
AcDbEntity
8
SK4
62
256
6
ByLayer
370
18
48
0.05
60
0
100
AcDbLine
10
-68
20
0
30
0
11
135
21
0
31
0
39
0
210
0
220
0
230
1
0
LINE
5
C1
100
AcDbEntity
8
SK1
62
256
6
ByLayer
370
18
48
1
60
0
100
AcDbLine
10
-53.2
20
41.225
30
0
11
-59.79835
21
41.225
31
0
39
0
210
0
220
0
230
1
0
LINE
5
C2
100
AcDbEntity
8
SK1
62
256
6
ByLayer
370
18
48
1
60
0
100
AcDbLine
10
-62.811939
20
-39.163061
30
0
11
-60.83393
21
-41.14107
31
0
39
0
210
0
220
0
230
1
0
LINE
5
C3
100
AcDbEntity
8
SK1
62
256
6
ByLayer
370
18
48
1
60
0
100
AcDbLine
10
-60.832947
20
41.142053
30
0
11
-62.812348
21
39.162652
31
0
39
0
210
0
220
0
230
1
0
LINE
5
C4
100
AcDbEntity
8
SK1
62
256
6
ByLayer
370
18
48
1
60
0
100
AcDbLine
10
-59.809879
20
-41.225
30
0
11
-46.2
21
-41.225
31
0
39
0
210
0
220
0
230
1
0
LINE
5
C5
100
AcDbEntity
8
SK1
62
256
6
ByLayer
370
18
48
1
60
0
100
AcDbLine
10
-3.393782
20
-47.583852
30
0
11
-1.4
21
-47.583852
31
0
39
0
210
0
220
0
230
1
0
LINE
5
C6
100
AcDbEntity
8
SK1
62
256
6
ByLayer
370
18
48
1
60
0
100
AcDbLine
10
-1.4
20
47.583852
30
0
11
-3.393782
21
47.583852
31
0
39
0
210
0
220
0
230
1
0
LINE
5
C7
100
AcDbEntity
8
SK1
62
256
6
ByLayer
370
18
48
1
60
0
100
AcDbLine
10
-43.8
20
-45.939864
30
0
11
-26.269784
21
-46.818131
31
0
39
0
210
0
220
0
230
1
0
LINE
5
C8
100
AcDbEntity
8
SK1
62
256
6
ByLayer
370
18
48
1
60
0
100
AcDbLine
10
-10.7803
20
-47.594157
30
0
11
-4
21
-47.933852
31
0
39
0
210
0
220
0
230
1
0
LINE
5
C9
100
AcDbEntity
8
SK1
62
256
6
ByLayer
370
18
48
1
60
0
100
AcDbLine
10
-4
20
47.933852
30
0
11
-10.779896
21
47.594178
31
0
39
0
210
0
220
0
230
1
0
LINE
5
CA
100
AcDbEntity
8
SK1
62
256
6
ByLayer
370
18
48
1
60
0
100
AcDbLine
10
-26.269365
20
46.818152
30
0
11
-50.8
21
45.589162
31
0
39
0
210
0
220
0
230
1
0
LINE
5
CB
100
AcDbEntity
8
SK1
62
256
6
ByLayer
370
18
48
1
60
0
100
AcDbLine
10
-3.393782
20
47.583852
30
0
11
-4
21
47.933852
31
0
39
0
210
0
220
0
230
1
0
LINE
5
CC
100
AcDbEntity
8
SK1
62
256
6
ByLayer
370
18
48
1
60
0
100
AcDbLine
10
-4
20
-47.933852
30
0
11
-3.393782
21
-47.583852
31
0
39
0
210
0
220
0
230
1
0
LINE
5
CD
100
AcDbEntity
8
1
62
256
6
ByLayer
370
18
48
1
60
0
100
AcDbLine
10
4.95
20
62.16
30
0
11
4.65
21
62.46
31
0
39
0
210
0
220
0
230
1
0
LINE
5
CE
100
AcDbEntity
8
1
62
256
6
ByLayer
370
18
48
1
60
0
100
AcDbLine
10
4.65
20
-62.46
30
0
11
4.95
21
-62.16
31
0
39
0
210
0
220
0
230
1
0
LINE
5
CF
100
AcDbEntity
8
1
62
256
6
ByLayer
370
18
48
1
60
0
100
AcDbLine
10
129.7
20
40
30
0
11
34.95
21
40
31
0
39
0
210
0
220
0
230
1
0
LINE
5
D0
100
AcDbEntity
8
1
62
256
6
ByLayer
370
18
48
1
60
0
100
AcDbLine
10
34.95
20
-40
30
0
11
129.7
21
-40
31
0
39
0
210
0
220
0
230
1
0
LINE
5
D1
100
AcDbEntity
8
1
62
256
6
ByLayer
370
18
48
1
60
0
100
AcDbLine
10
130
20
39.7
30
0
11
129.7
21
40
31
0
39
0
210
0
220
0
230
1
0
LINE
5
D2
100
AcDbEntity
8
1
62
256
6
ByLayer
370
18
48
1
60
0
100
AcDbLine
10
129.7
20
-40
30
0
11
130
21
-39.7
31
0
39
0
210
0
220
0
230
1
0
LINE
5
D3
100
AcDbEntity
8
1
62
256
6
ByLayer
370
18
48
1
60
0
100
AcDbLine
10
0
20
-61.76
30
0
11
0.7
21
-62.46
31
0
39
0
210
0
220
0
230
1
0
LINE
5
D4
100
AcDbEntity
8
1
62
256
6
ByLayer
370
18
48
1
60
0
100
AcDbLine
10
0.7
20
62.46
30
0
11
0
21
61.76
31
0
39
0
210
0
220
0
230
1
0
LINE
5
D5
100
AcDbEntity
8
1
62
256
6
ByLayer
370
18
48
1
60
0
100
AcDbLine
10
0.7
20
-62.46
30
0
11
4.65
21
-62.46
31
0
39
0
210
0
220
0
230
1
0
LINE
5
D6
100
AcDbEntity
8
4
62
256
6
ByLayer
370
18
48
0.05
60
0
100
AcDbLine
10
0
20
0
30
0
11
130
21
0
31
0
39
0
210
0
220
0
230
1
0
LINE
5
D8
100
AcDbEntity
8
80
62
256
6
ByLayer
370
18
48
1
60
0
100
AcDbLine
10
0
20
0
30
0
11
-6.08897
21
0
31
0
39
0
210
0
220
0
230
1
0
LINE
5
D9
100
AcDbEntity
8
1
62
256
6
ByLayer
370
18
48
1
60
0
100
AcDbLine
10
4.65
20
62.46
30
0
11
0.7
21
62.46
31
0
39
0
210
0
220
0
230
1
0
LINE
5
DA
100
AcDbEntity
8
81
62
256
6
ByLayer
370
18
48
1
60
0
100
AcDbLine
10
130
20
0
30
0
11
132.367097
21
0
31
0
39
0
210
0
220
0
230
1
0
LINE
5
DB
100
AcDbEntity
8
SK2
62
256
6
ByLayer
370
13
48
1
60
0
100
AcDbLine
10
-84.6
20
62.5
30
0
11
-84.6
21
-62.5
31
0
39
0
210
0
220
0
230
1
0
LINE
5
DD
100
AcDbEntity
8
SK2
62
256
6
ByLayer
370
13
48
1
60
0
100
AcDbLine
10
-1.5875
20
-62.5
30
0
11
-86.6
21
-62.5
31
0
39
0
210
0
220
0
230
1
0
LINE
5
DE
100
AcDbEntity
8
SK2
62
256
6
ByLayer
370
13
48
1
60
0
100
AcDbLine
10
-1.5875
20
62.5
30
0
11
-86.6
21
62.5
31
0
39
0
210
0
220
0
230
1
0
LINE
5
DF
100
AcDbEntity
8
1
62
256
6
ByLayer
370
18
48
1
60
1
100
AcDbLine
10
-84.6
20
-62.5
30
0
11
-85.060784
21
-59.000002
31
0
39
0
210
0
220
0
230
1
0
LINE
5
E0
100
AcDbEntity
8
1
62
256
6
ByLayer
370
18
48
1
60
1
100
AcDbLine
10
-85.060784
20
-59.000002
30
0
11
-84.139216
21
-58.999998
31
0
39
0
210
0
220
0
230
1
0
LINE
5
E1
100
AcDbEntity
8
1
62
256
6
ByLayer
370
18
48
1
60
1
100
AcDbLine
10
-84.139216
20
-58.999998
30
0
11
-84.6
21
-62.5
31
0
39
0
210
0
220
0
230
1
0
LINE
5
E2
100
AcDbEntity
8
1
62
256
6
ByLayer
370
18
48
1
60
1
100
AcDbLine
10
-84.6
20
62.5
30
0
11
-84.139216
21
59.000002
31
0
39
0
210
0
220
0
230
1
0
LINE
5
E3
100
AcDbEntity
8
1
62
256
6
ByLayer
370
18
48
1
60
1
100
AcDbLine
10
-84.139216
20
59.000002
30
0
11
-85.060784
21
58.999998
31
0
39
0
210
0
220
0
230
1
0
LINE
5
E4
100
AcDbEntity
8
1
62
256
6
ByLayer
370
18
48
1
60
1
100
AcDbLine
10
-85.060784
20
58.999998
30
0
11
-84.6
21
62.5
31
0
39
0
210
0
220
0
230
1
0
LINE
5
E5
100
AcDbEntity
8
SK2
62
256
6
ByLayer
370
13
48
1
60
0
100
AcDbLine
10
155.1
20
40
30
0
11
155.1
21
-40
31
0
39
0
210
0
220
0
230
1
0
LINE
5
E6
100
AcDbEntity
8
SK2
62
256
6
ByLayer
370
13
48
1
60
0
100
AcDbLine
10
131.5875
20
-40
30
0
11
157.1
21
-40
31
0
39
0
210
0
220
0
230
1
0
LINE
5
E7
100
AcDbEntity
8
SK2
62
256
6
ByLayer
370
13
48
1
60
0
100
AcDbLine
10
131.5875
20
40
30
0
11
157.1
21
40
31
0
39
0
210
0
220
0
230
1
0
LINE
5
E8
100
AcDbEntity
8
1
62
256
6
ByLayer
370
18
48
1
60
1
100
AcDbLine
10
155.1
20
-40
30
0
11
154.639216
21
-36.500002
31
0
39
0
210
0
220
0
230
1
0
LINE
5
E9
100
AcDbEntity
8
1
62
256
6
ByLayer
370
18
48
1
60
1
100
AcDbLine
10
154.639216
20
-36.500002
30
0
11
155.560784
21
-36.499998
31
0
39
0
210
0
220
0
230
1
0
LINE
5
EA
100
AcDbEntity
8
1
62
256
6
ByLayer
370
18
48
1
60
1
100
AcDbLine
10
155.560784
20
-36.499998
30
0
11
155.1
21
-40
31
0
39
0
210
0
220
0
230
1
0
LINE
5
EB
100
AcDbEntity
8
1
62
256
6
ByLayer
370
18
48
1
60
1
100
AcDbLine
10
155.1
20
40
30
0
11
155.560784
21
36.500002
31
0
39
0
210
0
220
0
230
1
0
LINE
5
EC
100
AcDbEntity
8
1
62
256
6
ByLayer
370
18
48
1
60
1
100
AcDbLine
10
155.560784
20
36.500002
30
0
11
154.639216
21
36.499998
31
0
39
0
210
0
220
0
230
1
0
LINE
5
ED
100
AcDbEntity
8
1
62
256
6
ByLayer
370
18
48
1
60
1
100
AcDbLine
10
154.639216
20
36.499998
30
0
11
155.1
21
40
31
0
39
0
210
0
220
0
230
1
0
LINE
5
138
100
AcDbEntity
8
1
62
256
6
ByLayer
370
18
48
1
60
1
100
AcDbLine
10
-84.6
20
-62.5
30
0
11
-85.060784
21
-59.000002
31
0
39
0
210
0
220
0
230
1
0
LINE
5
139
100
AcDbEntity
8
1
62
256
6
ByLayer
370
18
48
1
60
1
100
AcDbLine
10
-85.060784
20
-59.000002
30
0
11
-84.139216
21
-58.999998
31
0
39
0
210
0
220
0
230
1
0
LINE
5
13A
100
AcDbEntity
8
1
62
256
6
ByLayer
370
18
48
1
60
1
100
AcDbLine
10
-84.139216
20
-58.999998
30
0
11
-84.6
21
-62.5
31
0
39
0
210
0
220
0
230
1
0
LINE
5
13C
100
AcDbEntity
8
1
62
256
6
ByLayer
370
18
48
1
60
1
100
AcDbLine
10
-84.6
20
62.5
30
0
11
-84.139216
21
59.000002
31
0
39
0
210
0
220
0
230
1
0
LINE
5
13D
100
AcDbEntity
8
1
62
256
6
ByLayer
370
18
48
1
60
1
100
AcDbLine
10
-84.139216
20
59.000002
30
0
11
-85.060784
21
58.999998
31
0
39
0
210
0
220
0
230
1
0
LINE
5
13E
100
AcDbEntity
8
1
62
256
6
ByLayer
370
18
48
1
60
1
100
AcDbLine
10
-85.060784
20
58.999998
30
0
11
-84.6
21
62.5
31
0
39
0
210
0
220
0
230
1
0
LINE
5
142
100
AcDbEntity
8
1
62
256
6
ByLayer
370
18
48
1
60
1
100
AcDbLine
10
155.1
20
-40
30
0
11
154.639216
21
-36.500002
31
0
39
0
210
0
220
0
230
1
0
LINE
5
143
100
AcDbEntity
8
1
62
256
6
ByLayer
370
18
48
1
60
1
100
AcDbLine
10
154.639216
20
-36.500002
30
0
11
155.560784
21
-36.499998
31
0
39
0
210
0
220
0
230
1
0
LINE
5
144
100
AcDbEntity
8
1
62
256
6
ByLayer
370
18
48
1
60
1
100
AcDbLine
10
155.560784
20
-36.499998
30
0
11
155.1
21
-40
31
0
39
0
210
0
220
0
230
1
0
LINE
5
146
100
AcDbEntity
8
1
62
256
6
ByLayer
370
18
48
1
60
1
100
AcDbLine
10
155.1
20
40
30
0
11
155.560784
21
36.500002
31
0
39
0
210
0
220
0
230
1
0
LINE
5
147
100
AcDbEntity
8
1
62
256
6
ByLayer
370
18
48
1
60
1
100
AcDbLine
10
155.560784
20
36.500002
30
0
11
154.639216
21
36.499998
31
0
39
0
210
0
220
0
230
1
0
LINE
5
148
100
AcDbEntity
8
1
62
256
6
ByLayer
370
18
48
1
60
1
100
AcDbLine
10
154.639216
20
36.499998
30
0
11
155.1
21
40
31
0
39
0
210
0
220
0
230
1
0
MTEXT
5
134
100
AcDbEntity
8
SK2
62
256
6
ByLayer
370
18
48
1
60
0
100
AcDbMText
10
-86.164634
20
-4.525121
30
0
210
0
220
0
230
1
1
%%c
40
3.5
41
0
44
1.084337
50
90
71
7
72
5
7
iso_b_vert
0
MTEXT
5
137
100
AcDbEntity
8
SK2
62
256
6
ByLayer
370
18
48
1
60
0
100
AcDbMText
10
-86.164634
20
0.697535
30
0
210
0
220
0
230
1
1
\W0.6217;125
40
3.5
41
0
44
1.084337
50
90
71
7
72
5
7
iso_b_vert
0
MTEXT
5
140
100
AcDbEntity
8
SK2
62
256
6
ByLayer
370
18
48
1
60
0
100
AcDbMText
10
153.535366
20
-3.655088
30
0
210
0
220
0
230
1
1
%%c
40
3.5
41
0
44
1.084337
50
90
71
7
72
5
7
iso_b_vert
0
MTEXT
5
141
100
AcDbEntity
8
SK2
62
256
6
ByLayer
370
18
48
1
60
0
100
AcDbMText
10
153.535366
20
1.567568
30
0
210
0
220
0
230
1
1
\W0.6740;80
40
3.5
41
0
44
1.084337
50
90
71
7
72
5
7
iso_b_vert
0
MTEXT
5
14A
100
AcDbEntity
8
SK6
62
256
6
ByLayer
370
18
48
1
60
0
100
AcDbMText
10
0.1855
20
-78.217366
30
0
210
0
220
0
230
1
1
\W0.7134;HA12-C8-080-130
40
3.5
41
0
44
1.084337
50
0
71
7
72
5
7
iso_b_vert
0
HATCH
5
13B
100
AcDbEntity
8
SK2
62
256
6
ByLayer
370
13
48
1
60
0
100
AcDbHatch
10
0
20
0
30
0
210
0
220
0
230
1
2
ANSI31
70
0
71
0
91
1
92
5
93
3
72
1
10
-84.6
20
-62.5
11
-85.0607837415528
21
-59.0000016925532
72
1
10
-85.0607837415528
20
-59.0000016925532
11
-84.1392162584472
21
-58.9999983074468
72
1
10
-84.1392162584472
20
-58.9999983074468
11
-84.6
21
-62.5
97
0
75
0
76
1
52
0
41
0.0062
77
0
78
1
53
45
43
0
44
0
45
-0.0139193969876572
46
0.0139193969876572
79
0
47
0
98
1
10
0
20
0
0
HATCH
5
13F
100
AcDbEntity
8
SK2
62
256
6
ByLayer
370
13
48
1
60
0
100
AcDbHatch
10
0
20
0
30
0
210
0
220
0
230
1
2
ANSI31
70
0
71
0
91
1
92
5
93
3
72
1
10
-84.6
20
62.5
11
-84.1392162584472
21
59.0000016925532
72
1
10
-84.1392162584472
20
59.0000016925532
11
-85.0607837415528
21
58.9999983074468
72
1
10
-85.0607837415528
20
58.9999983074468
11
-84.6
21
62.5
97
0
75
0
76
1
52
0
41
0.0062
77
0
78
1
53
45
43
0
44
0
45
-0.0139193969876572
46
0.0139193969876572
79
0
47
0
98
1
10
0
20
0
0
HATCH
5
145
100
AcDbEntity
8
SK2
62
256
6
ByLayer
370
13
48
1
60
0
100
AcDbHatch
10
0
20
0
30
0
210
0
220
0
230
1
2
ANSI31
70
0
71
0
91
1
92
5
93
3
72
1
10
155.1
20
-40
11
154.639216258447
21
-36.5000016925532
72
1
10
154.639216258447
20
-36.5000016925532
11
155.560783741553
21
-36.4999983074468
72
1
10
155.560783741553
20
-36.4999983074468
11
155.1
21
-40
97
0
75
0
76
1
52
0
41
0.0062
77
0
78
1
53
45
43
0
44
0
45
-0.0139193969876572
46
0.0139193969876572
79
0
47
0
98
1
10
0
20
0
0
HATCH
5
149
100
AcDbEntity
8
SK2
62
256
6
ByLayer
370
13
48
1
60
0
100
AcDbHatch
10
0
20
0
30
0
210
0
220
0
230
1
2
ANSI31
70
0
71
0
91
1
92
5
93
3
72
1
10
155.1
20
40
11
155.560783741553
21
36.5000016925532
72
1
10
155.560783741553
20
36.5000016925532
11
154.639216258447
21
36.4999983074468
72
1
10
154.639216258447
20
36.4999983074468
11
155.1
21
40
97
0
75
0
76
1
52
0
41
0.0062
77
0
78
1
53
45
43
0
44
0
45
-0.0139193969876572
46
0.0139193969876572
79
0
47
0
98
1
10
0
20
0
0
DIMENSION
5
14D
100
AcDbEntity
8
2
62
256
6
ByLayer
370
18
48
1
60
0
100
AcDbDimension
2
_U0
10
0
20
89.060025
30
0
11
65
21
89.060025
31
0
70
32
71
1
72
1
41
1
210
0
220
0
230
1
3
Standard
100
AcDbAlignedDimension
13
130
23
40
33
0
14
0
24
62.5
34
0
50
0
100
AcDbRotatedDimension
1001
ACAD
1000
DSTYLE
1002
{
1070
   371
1070
    13
1070
   372
1070
    13
1070
   170
1070
     0
1070
   144
1040
1.0
1070
   277
1070
     2
1070
   284
1070
     8
1070
   278
1070
    44
1070
   146
1040
1.0
1070
   345
1005
16
1070
   347
1005
16
1070
   346
1005
16
1070
   344
1005
0
1070
   343
1005
0
1070
   172
1070
     1
1070
    76
1070
     0
1070
    75
1070
     0
1070
   282
1070
     0
1070
   281
1070
     0
1070
    71
1070
     0
1070
    74
1070
     0
1070
   279
1070
     0
1070
   173
1070
     1
1070
   340
1005
135
1070
   271
1070
     1
1070
   272
1070
     2
1070
    77
1070
     1
1070
    73
1070
     1
1070
   171
1070
     3
1070
   274
1070
     4
1070
   177
1070
     2
1070
   176
1070
     2
1070
   178
1070
     2
1070
    78
1070
     8
1070
    48
1040
-0.1
1070
    41
1040
3.5
1070
   147
1040
1.75
1070
    42
1040
1.5875
1070
    44
1040
2.0
1070
   140
1040
3.5
1002
}
1001
ACAD_DSTYLE_DIM_LINETYPE
1070
   380
1005
16
1001
ACAD_DSTYLE_DIM_EXT1_LINETYPE
1070
   381
1005
16
1001
ACAD_DSTYLE_DIM_EXT2_LINETYPE
1070
   382
1005
16
0
DIMENSION
5
167
100
AcDbEntity
8
SK2
62
256
6
ByLayer
370
18
48
1
60
0
100
AcDbDimension
2
_U1
10
0
20
89.060025
30
0
11
-31.5
21
89.060025
31
0
70
32
71
1
72
1
41
1
210
0
220
0
230
1
3
Standard
100
AcDbAlignedDimension
13
-63
23
12.5
33
0
14
0
24
62.5
34
0
50
0
100
AcDbRotatedDimension
1001
ACAD
1000
DSTYLE
1002
{
1070
   371
1070
    13
1070
   372
1070
    13
1070
   170
1070
     0
1070
   144
1040
1.0
1070
   277
1070
     2
1070
   284
1070
     8
1070
   278
1070
    44
1070
   146
1040
1.0
1070
   345
1005
16
1070
   347
1005
16
1070
   346
1005
16
1070
   344
1005
0
1070
   343
1005
0
1070
   172
1070
     1
1070
    76
1070
     0
1070
    75
1070
     0
1070
   282
1070
     0
1070
   281
1070
     0
1070
    71
1070
     0
1070
    74
1070
     0
1070
   279
1070
     0
1070
   173
1070
     1
1070
   340
1005
135
1070
   271
1070
     1
1070
   272
1070
     2
1070
    77
1070
     1
1070
    73
1070
     1
1070
   171
1070
     3
1070
   274
1070
     4
1070
   177
1070
     2
1070
   176
1070
     2
1070
   178
1070
     2
1070
    78
1070
     8
1070
    48
1040
-0.1
1070
    41
1040
3.5
1070
   147
1040
1.75
1070
    42
1040
1.5875
1070
    44
1040
2.0
1070
   140
1040
3.5
1002
}
1001
ACAD_DSTYLE_DIM_LINETYPE
1070
   380
1005
16
1001
ACAD_DSTYLE_DIM_EXT1_LINETYPE
1070
   381
1005
16
1001
ACAD_DSTYLE_DIM_EXT2_LINETYPE
1070
   382
1005
16
0
ENDSEC
0
SECTION
2
OBJECTS
0
DICTIONARY
5
1ef
330
0
100
AcDbDictionary
280
0
281
1
3
ACAD_GROUP
350
1f0
3
ACAD_MLINESTYLE
350
1f1
0
DICTIONARY
5
1f0
330
0
100
AcDbDictionary
280
0
281
1
0
DICTIONARY
5
1f1
330
0
100
AcDbDictionary
280
0
281
1
3
Standard
350
18
0
MLINESTYLE
5
18
330
1f1
100
AcDbMlineStyle
2
Standard
70
0
3

62
256
51
90
52
90
71
2
49
-0.5
62
256
6
ByLayer
49
0.5
62
256
6
ByLayer
0
RASTERVARIABLES
5
1dd
330

100
AcDbRasterVariables
90
0
70
1
71
1
72
1
0
ENDSEC
0
EOF
