0
SECTION
2
HEADER
9
$ACADVER
1
AC1015
9
$DWGCODEPAGE
3
ANSI_1252
9
$HANDSEED
5
24c
9
$ANGBASE
50
0
9
$ANGDIR
70
0
9
$ATTMODE
70
1
9
$AUNITS
70
0
9
$AUPREC
70
0
9
$CECOLOR
62
256
9
$CELTSCALE
40
1
9
$CELTYPE
6
ByLayer
9
$CELWEIGHT
370
18
9
$CLAYER
8
0
9
$CMLJUST
70
0
9
$CMLSCALE
40
1
9
$CMLSTYLE
2
Standard
9
$DIMSTYLE
2
Standard
9
$TEXTSIZE
40
0.2
9
$TEXTSTYLE
7
Standard
9
$LUNITS
70
2
9
$LUPREC
70
4
9
$EXTNAMES
290
1
9
$INSUNITS
70
4
9
$LTSCALE
40
1
9
$LWDISPLAY
290
1
9
$PDMODE
70
0
9
$PDSIZE
40
0
9
$PLINEGEN
70
0
0
ENDSEC
0
SECTION
2
CLASSES
0
CLASS
1
RASTERVARIABLES
2
AcDbRasterVariables
3
ISM
90
0
280
0
281
0
0
ENDSEC
0
SECTION
2
TABLES
0
TABLE
2
VPORT
5
242
100
AcDbSymbolTable
0
VPORT
5
1
100
AcDbSymbolTableRecord
100
AcDbViewportTableRecord
2
*Active
70
0
10
0
20
0
11
1
21
1
12
-1
22
1
13
0
23
0
14
0.5
24
0.5
15
10
25
10
16
0
26
0
36
1
17
0
27
0
37
0
0
ENDTAB
0
TABLE
2
LTYPE
5
243
100
AcDbSymbolTable
0
LTYPE
5
14
100
AcDbSymbolTableRecord
100
AcDbLinetypeTableRecord
70
0
2
ByBlock
3

72
65
73
0
40
0
0
LTYPE
5
15
100
AcDbSymbolTableRecord
100
AcDbLinetypeTableRecord
70
0
2
ByLayer
3

72
65
73
0
40
0
0
LTYPE
5
16
100
AcDbSymbolTableRecord
100
AcDbLinetypeTableRecord
70
0
2
Continuous
3
Solid line
72
65
73
0
40
0
0
LTYPE
5
6E
100
AcDbSymbolTableRecord
100
AcDbLinetypeTableRecord
70
0
2
CENTER
3
____ _ ____ _ ____ _ ____
72
65
73
4
40
47.5
49
22
74
0
49
-8.5
74
0
49
8.5
74
0
49
-8.5
74
0
0
LTYPE
5
6F
100
AcDbSymbolTableRecord
100
AcDbLinetypeTableRecord
70
0
2
DASHED
3
__ __ __ __ __ __ __ __ __
72
65
73
2
40
25.72
49
12.86
74
0
49
-12.86
74
0
0
ENDTAB
0
TABLE
2
LAYER
5
244
100
AcDbSymbolTable
0
LAYER
5
10
100
AcDbSymbolTableRecord
100
AcDbLayerTableRecord
2
0
70
0
62
7
6
Continuous
290
1
370
-3
390
0
0
LAYER
5
71
100
AcDbSymbolTableRecord
100
AcDbLayerTableRecord
2
1
70
0
62
4
6
Continuous
290
1
370
-3
390
0
0
LAYER
5
73
100
AcDbSymbolTableRecord
100
AcDbLayerTableRecord
2
80
70
0
62
-6
6
Continuous
290
1
370
-3
390
0
0
LAYER
5
75
100
AcDbSymbolTableRecord
100
AcDbLayerTableRecord
2
81
70
0
62
-3
6
Continuous
290
1
370
-3
390
0
0
LAYER
5
E8
100
AcDbSymbolTableRecord
100
AcDbLayerTableRecord
2
4
70
0
62
-2
6
CENTER
290
1
370
-3
390
0
0
LAYER
5
16F
100
AcDbSymbolTableRecord
100
AcDbLayerTableRecord
2
Defpoints
70
0
62
7
6
Continuous
290
0
370
-3
390
0
0
LAYER
5
1AD
100
AcDbSymbolTableRecord
100
AcDbLayerTableRecord
2
2
70
0
62
7
6
Continuous
290
1
370
-3
390
0
0
LAYER
5
22e
100
AcDbSymbolTableRecord
100
AcDbLayerTableRecord
2
SK1
70
0
62
4
6
Continuous
290
1
370
-3
390
0
0
LAYER
5
22f
100
AcDbSymbolTableRecord
100
AcDbLayerTableRecord
2
SK4
70
0
62
2
6
CENTER
290
1
370
-3
390
0
0
LAYER
5
230
100
AcDbSymbolTableRecord
100
AcDbLayerTableRecord
2
SK2
70
0
62
7
6
Continuous
290
1
370
-3
390
0
0
LAYER
5
231
100
AcDbSymbolTableRecord
100
AcDbLayerTableRecord
2
SK6
70
0
62
5
6
Continuous
290
1
370
-3
390
0
0
ENDTAB
0
TABLE
2
STYLE
5
245
100
AcDbSymbolTable
0
STYLE
5
11
100
AcDbSymbolTableRecord
100
AcDbTextStyleTableRecord
2
Standard
3
txt
70
0
71
0
40
0
41
1
42
0
50
0
0
STYLE
5
154
100
AcDbSymbolTableRecord
100
AcDbTextStyleTableRecord
2
iso_b_vert
3
simplex.shx
70
0
71
0
40
0
41
1
42
0
50
0
0
STYLE
5
155
100
AcDbSymbolTableRecord
100
AcDbTextStyleTableRecord
2
DWGDirectTextStyle
3
simplex
70
0
71
0
40
0
41
1
42
0
50
0
0
ENDTAB
0
TABLE
2
DIMSTYLE
5
246
100
AcDbSymbolTable
100
AcDbDimStyleTable
0
DIMSTYLE
105
27
100
AcDbSymbolTableRecord
100
AcDbDimStyleTableRecord
2
Standard
70
0
3
<>
41
0.18
42
0.0625
44
0.18
140
0.18
147
0.09
73
0
74
0
77
1
271
2
275
0
278
52
280
0
340
11
0
ENDTAB
0
TABLE
2
VIEW
5
247
100
AcDbSymbolTable
0
ENDTAB
0
TABLE
2
UCS
5
248
100
AcDbSymbolTable
0
ENDTAB
0
TABLE
2
APPID
5
249
100
AcDbSymbolTable
0
APPID
5
12
100
AcDbSymbolTableRecord
100
AcDbRegAppTableRecord
2
ACAD
70
0
0
APPID
5
16B
100
AcDbSymbolTableRecord
100
AcDbRegAppTableRecord
2
ACAD_DSTYLE_DIMBREAK
70
0
0
APPID
5
1ED
100
AcDbSymbolTableRecord
100
AcDbRegAppTableRecord
2
ACAD_DSTYLE_DIM_LINETYPE
70
0
0
APPID
5
1EE
100
AcDbSymbolTableRecord
100
AcDbRegAppTableRecord
2
ACAD_DSTYLE_DIM_EXT1_LINETYPE
70
0
0
APPID
5
1EF
100
AcDbSymbolTableRecord
100
AcDbRegAppTableRecord
2
ACAD_DSTYLE_DIM_EXT2_LINETYPE
70
0
0
APPID
5
22A
100
AcDbSymbolTableRecord
100
AcDbRegAppTableRecord
2
ACAD_MLEADERVER
70
0
0
ENDTAB
0
TABLE
2
BLOCK_RECORD
5
24a
100
AcDbSymbolTable
0
BLOCK_RECORD
5
1F
100
AcDbSymbolTableRecord
100
AcDbBlockTableRecord
2
*Model_Space
340
0
70
0
0
BLOCK_RECORD
5
1B
100
AcDbSymbolTableRecord
100
AcDbBlockTableRecord
2
*Paper_Space
340
0
70
0
0
BLOCK_RECORD
5
23
100
AcDbSymbolTableRecord
100
AcDbBlockTableRecord
2
*Paper_Space0
340
0
70
0
0
BLOCK_RECORD
5
170
100
AcDbSymbolTableRecord
100
AcDbBlockTableRecord
2
*D1
340
0
70
0
0
BLOCK_RECORD
5
17C
100
AcDbSymbolTableRecord
100
AcDbBlockTableRecord
2
_U0
340
0
70
0
0
BLOCK_RECORD
5
189
100
AcDbSymbolTableRecord
100
AcDbBlockTableRecord
2
*D3
340
0
70
0
0
BLOCK_RECORD
5
195
100
AcDbSymbolTableRecord
100
AcDbBlockTableRecord
2
_U1
340
0
70
0
0
BLOCK_RECORD
5
1A1
100
AcDbSymbolTableRecord
100
AcDbBlockTableRecord
2
*D5
340
0
70
0
0
BLOCK_RECORD
5
1AE
100
AcDbSymbolTableRecord
100
AcDbBlockTableRecord
2
_U2
340
0
70
0
0
BLOCK_RECORD
5
1BA
100
AcDbSymbolTableRecord
100
AcDbBlockTableRecord
2
*D7
340
0
70
0
0
BLOCK_RECORD
5
1C6
100
AcDbSymbolTableRecord
100
AcDbBlockTableRecord
2
_U3
340
0
70
0
0
ENDTAB
0
ENDSEC
0
SECTION
2
BLOCKS
0
BLOCK
5
20
100
AcDbEntity
8
0
100
AcDbBlockBegin
2
*Model_Space
70
0
10
0
20
0
30
0
3
*Model_Space
0
ENDBLK
5
21
100
AcDbEntity
8
0
100
AcDbBlockEnd
0
BLOCK
5
1C
100
AcDbEntity
8
0
100
AcDbBlockBegin
2
*Paper_Space
70
0
10
0
20
0
30
0
3
*Paper_Space
0
ENDBLK
5
1D
100
AcDbEntity
8
0
100
AcDbBlockEnd
0
BLOCK
5
24
100
AcDbEntity
8
0
100
AcDbBlockBegin
2
*Paper_Space0
70
0
10
0
20
0
30
0
3
*Paper_Space0
0
ENDBLK
5
25
100
AcDbEntity
8
0
100
AcDbBlockEnd
0
BLOCK
5
171
100
AcDbEntity
8
0
100
AcDbBlockBegin
2
*D1
70
1
10
0
20
0
30
0
3
*D1
0
LINE
5
173
100
AcDbEntity
8
0
62
256
6
ByLayer
370
-2
48
1
60
0
100
AcDbLine
10
46.5875
20
43.75
30
0
11
59
21
43.75
31
0
39
0
210
0
220
0
230
1
0
LINE
5
174
100
AcDbEntity
8
0
62
256
6
ByLayer
370
-2
48
1
60
0
100
AcDbLine
10
46.5875
20
-43.75
30
0
11
59
21
-43.75
31
0
39
0
210
0
220
0
230
1
0
LINE
5
175
100
AcDbEntity
8
0
62
256
6
ByLayer
370
-2
48
1
60
0
100
AcDbLine
10
57
20
40.25
30
0
11
57
21
-40.25
31
0
39
0
210
0
220
0
230
1
0
SOLID
5
176
100
AcDbEntity
8
0
62
256
6
ByLayer
370
-1
48
1
60
0
100
AcDbTrace
10
57.583333
20
40.25
30
0
11
56.416667
21
40.25
31
0
12
57
22
43.75
32
0
13
57
23
43.75
33
0
39
0
210
0
220
0
230
1
0
SOLID
5
177
100
AcDbEntity
8
0
62
256
6
ByLayer
370
-1
48
1
60
0
100
AcDbTrace
10
56.416667
20
-40.25
30
0
11
57.583333
21
-40.25
31
0
12
57
22
-43.75
32
0
13
57
23
-43.75
33
0
39
0
210
0
220
0
230
1
0
MTEXT
5
178
100
AcDbEntity
8
0
62
256
6
ByLayer
370
18
48
1
60
0
100
AcDbMText
10
50
20
-34.265066
30
0
210
0
220
0
230
1
1
\A1;87.5
40
3.5
41
0
44
1
50
90
71
5
72
5
7
iso_b_vert
0
POINT
5
179
100
AcDbEntity
8
Defpoints
62
0
6
ByLayer
370
-1
48
1
60
0
100
AcDbPoint
10
45
20
43.75
30
0
39
0
210
0
220
0
230
1
50
360
0
POINT
5
17A
100
AcDbEntity
8
Defpoints
62
0
6
ByLayer
370
-1
48
1
60
0
100
AcDbPoint
10
45
20
-43.75
30
0
39
0
210
0
220
0
230
1
50
360
0
POINT
5
17B
100
AcDbEntity
8
Defpoints
62
0
6
ByLayer
370
-1
48
1
60
0
100
AcDbPoint
10
57
20
-43.75
30
0
39
0
210
0
220
0
230
1
50
360
0
ENDBLK
5
172
100
AcDbEntity
8
0
100
AcDbBlockEnd
0
BLOCK
5
184
100
AcDbEntity
8
0
100
AcDbBlockBegin
2
_U0
70
0
10
0
20
0
30
0
3
_U0
0
MTEXT
5
17D
100
AcDbEntity
8
SK2
62
256
6
ByLayer
370
18
48
1
60
0
100
AcDbMText
10
55.435366
20
-43.372631
30
0
210
0
220
0
230
1
1
%%c
40
3.5
41
0
44
1.084337
50
90
71
7
72
5
7
iso_b_vert
0
MTEXT
5
17E
100
AcDbEntity
8
SK2
62
256
6
ByLayer
370
18
48
1
60
0
100
AcDbMText
10
55.435366
20
-32.872631
30
0
210
0
220
0
230
1
1
\W0.7150;87,5
40
3.5
41
0
44
1.084337
50
90
71
7
72
5
7
iso_b_vert
0
LINE
5
17F
100
AcDbEntity
8
SK2
62
256
6
ByLayer
370
13
48
1
60
0
100
AcDbLine
10
46.5875
20
43.75
30
0
11
59
21
43.75
31
0
39
0
210
0
220
0
230
1
0
LINE
5
180
100
AcDbEntity
8
SK2
62
256
6
ByLayer
370
13
48
1
60
0
100
AcDbLine
10
46.5875
20
-43.75
30
0
11
59
21
-43.75
31
0
39
0
210
0
220
0
230
1
0
LINE
5
181
100
AcDbEntity
8
SK2
62
256
6
ByLayer
370
13
48
1
60
0
100
AcDbLine
10
57
20
43.75
30
0
11
57
21
-43.75
31
0
39
0
210
0
220
0
230
1
0
SOLID
5
182
100
AcDbEntity
8
SK2
62
256
6
ByLayer
370
18
48
1
60
0
100
AcDbTrace
10
57
20
43.75
30
0
11
57.460784
21
40.250002
31
0
12
56.539216
22
40.249998
32
0
13
56.539216
23
40.249998
33
0
39
0
210
0
220
0
230
1
0
SOLID
5
183
100
AcDbEntity
8
SK2
62
256
6
ByLayer
370
18
48
1
60
0
100
AcDbTrace
10
57
20
-43.75
30
0
11
56.539216
21
-40.250002
31
0
12
57.460784
22
-40.249998
32
0
13
57.460784
23
-40.249998
33
0
39
0
210
0
220
0
230
1
0
ENDBLK
5
185
100
AcDbEntity
8
0
100
AcDbBlockEnd
0
BLOCK
5
18A
100
AcDbEntity
8
0
100
AcDbBlockBegin
2
*D3
70
1
10
0
20
0
30
0
3
*D3
0
LINE
5
18C
100
AcDbEntity
8
0
62
256
6
ByLayer
370
-2
48
1
60
0
100
AcDbLine
10
90
20
21.5875
30
0
11
90
21
69.072999
31
0
39
0
210
0
220
0
230
1
0
LINE
5
18D
100
AcDbEntity
8
0
62
256
6
ByLayer
370
-2
48
1
60
0
100
AcDbLine
10
70
20
21.5875
30
0
11
70
21
69.072999
31
0
39
0
210
0
220
0
230
1
0
LINE
5
18E
100
AcDbEntity
8
0
62
256
6
ByLayer
370
-2
48
1
60
0
100
AcDbLine
10
86.5
20
67.072999
30
0
11
73.5
21
67.072999
31
0
39
0
210
0
220
0
230
1
0
SOLID
5
18F
100
AcDbEntity
8
0
62
256
6
ByLayer
370
-1
48
1
60
0
100
AcDbTrace
10
86.5
20
66.489666
30
0
11
86.5
21
67.656332
31
0
12
90
22
67.072999
32
0
13
90
23
67.072999
33
0
39
0
210
0
220
0
230
1
0
SOLID
5
190
100
AcDbEntity
8
0
62
256
6
ByLayer
370
-1
48
1
60
0
100
AcDbTrace
10
73.5
20
67.656332
30
0
11
73.5
21
66.489666
31
0
12
70
22
67.072999
32
0
13
70
23
67.072999
33
0
39
0
210
0
220
0
230
1
0
MTEXT
5
191
100
AcDbEntity
8
0
62
256
6
ByLayer
370
18
48
1
60
0
100
AcDbMText
10
80
20
74.072999
30
0
210
0
220
0
230
1
1
\A1;20
40
3.5
41
0
44
1
50
0
71
5
72
5
7
iso_b_vert
0
POINT
5
192
100
AcDbEntity
8
Defpoints
62
0
6
ByLayer
370
-1
48
1
60
0
100
AcDbPoint
10
90
20
20
30
0
39
0
210
0
220
0
230
1
50
360
0
POINT
5
193
100
AcDbEntity
8
Defpoints
62
0
6
ByLayer
370
-1
48
1
60
0
100
AcDbPoint
10
70
20
20
30
0
39
0
210
0
220
0
230
1
50
360
0
POINT
5
194
100
AcDbEntity
8
Defpoints
62
0
6
ByLayer
370
-1
48
1
60
0
100
AcDbPoint
10
70
20
67.072999
30
0
39
0
210
0
220
0
230
1
50
360
0
ENDBLK
5
18B
100
AcDbEntity
8
0
100
AcDbBlockEnd
0
BLOCK
5
19C
100
AcDbEntity
8
0
100
AcDbBlockBegin
2
_U1
70
0
10
0
20
0
30
0
3
_U1
0
MTEXT
5
196
100
AcDbEntity
8
SK2
62
256
6
ByLayer
370
18
48
1
60
0
100
AcDbMText
10
78.095034
20
68.105633
30
0
210
0
220
0
230
1
1
\W0.6740;20
40
3.5
41
0
44
1.084337
50
0
71
7
72
5
7
iso_b_vert
0
LINE
5
197
100
AcDbEntity
8
SK2
62
256
6
ByLayer
370
13
48
1
60
0
100
AcDbLine
10
90
20
21.5875
30
0
11
90
21
69.072999
31
0
39
0
210
0
220
0
230
1
0
LINE
5
198
100
AcDbEntity
8
SK2
62
256
6
ByLayer
370
13
48
1
60
0
100
AcDbLine
10
70
20
21.5875
30
0
11
70
21
69.072999
31
0
39
0
210
0
220
0
230
1
0
LINE
5
199
100
AcDbEntity
8
SK2
62
256
6
ByLayer
370
13
48
1
60
0
100
AcDbLine
10
90
20
67.072999
30
0
11
70
21
67.072999
31
0
39
0
210
0
220
0
230
1
0
SOLID
5
19A
100
AcDbEntity
8
SK2
62
256
6
ByLayer
370
18
48
1
60
0
100
AcDbTrace
10
90
20
67.072999
30
0
11
86.500002
21
66.612215
31
0
12
86.499998
22
67.533783
32
0
13
86.499998
23
67.533783
33
0
39
0
210
0
220
0
230
1
0
SOLID
5
19B
100
AcDbEntity
8
SK2
62
256
6
ByLayer
370
18
48
1
60
0
100
AcDbTrace
10
70
20
67.072999
30
0
11
73.499998
21
67.533783
31
0
12
73.500002
22
66.612215
32
0
13
73.500002
23
66.612215
33
0
39
0
210
0
220
0
230
1
0
ENDBLK
5
19D
100
AcDbEntity
8
0
100
AcDbBlockEnd
0
BLOCK
5
1A2
100
AcDbEntity
8
0
100
AcDbBlockBegin
2
*D5
70
1
10
0
20
0
30
0
3
*D5
0
LINE
5
1A4
100
AcDbEntity
8
0
62
256
6
ByLayer
370
-2
48
1
60
0
100
AcDbLine
10
90
20
21.5875
30
0
11
90
21
79.072999
31
0
39
0
210
0
220
0
230
1
0
LINE
5
1A5
100
AcDbEntity
8
0
62
256
6
ByLayer
370
-2
48
1
60
0
100
AcDbLine
10
0
20
51.5875
30
0
11
0
21
79.072999
31
0
39
0
210
0
220
0
230
1
0
LINE
5
1A6
100
AcDbEntity
8
0
62
256
6
ByLayer
370
-2
48
1
60
0
100
AcDbLine
10
86.5
20
77.072999
30
0
11
3.5
21
77.072999
31
0
39
0
210
0
220
0
230
1
0
SOLID
5
1A7
100
AcDbEntity
8
0
62
256
6
ByLayer
370
-1
48
1
60
0
100
AcDbTrace
10
86.5
20
76.489666
30
0
11
86.5
21
77.656332
31
0
12
90
22
77.072999
32
0
13
90
23
77.072999
33
0
39
0
210
0
220
0
230
1
0
SOLID
5
1A8
100
AcDbEntity
8
0
62
256
6
ByLayer
370
-1
48
1
60
0
100
AcDbTrace
10
3.5
20
77.656332
30
0
11
3.5
21
76.489666
31
0
12
0
22
77.072999
32
0
13
0
23
77.072999
33
0
39
0
210
0
220
0
230
1
0
MTEXT
5
1A9
100
AcDbEntity
8
0
62
256
6
ByLayer
370
18
48
1
60
0
100
AcDbMText
10
45
20
84.072999
30
0
210
0
220
0
230
1
1
\A1;90
40
3.5
41
0
44
1
50
0
71
5
72
5
7
iso_b_vert
0
POINT
5
1AA
100
AcDbEntity
8
Defpoints
62
0
6
ByLayer
370
-1
48
1
60
0
100
AcDbPoint
10
90
20
20
30
0
39
0
210
0
220
0
230
1
50
360
0
POINT
5
1AB
100
AcDbEntity
8
Defpoints
62
0
6
ByLayer
370
-1
48
1
60
0
100
AcDbPoint
10
0
20
50
30
0
39
0
210
0
220
0
230
1
50
360
0
POINT
5
1AC
100
AcDbEntity
8
Defpoints
62
0
6
ByLayer
370
-1
48
1
60
0
100
AcDbPoint
10
0
20
77.072999
30
0
39
0
210
0
220
0
230
1
50
360
0
ENDBLK
5
1A3
100
AcDbEntity
8
0
100
AcDbBlockEnd
0
BLOCK
5
1B5
100
AcDbEntity
8
0
100
AcDbBlockBegin
2
_U2
70
0
10
0
20
0
30
0
3
_U2
0
MTEXT
5
1AF
100
AcDbEntity
8
2
62
256
6
ByLayer
370
18
48
1
60
0
100
AcDbMText
10
43.095034
20
78.105633
30
0
210
0
220
0
230
1
1
\W0.6740;90
40
3.5
41
0
44
1.084337
50
0
71
7
72
5
7
iso_b_vert
0
LINE
5
1B0
100
AcDbEntity
8
2
62
256
6
ByLayer
370
13
48
1
60
0
100
AcDbLine
10
90
20
21.5875
30
0
11
90
21
79.072999
31
0
39
0
210
0
220
0
230
1
0
LINE
5
1B1
100
AcDbEntity
8
2
62
256
6
ByLayer
370
13
48
1
60
0
100
AcDbLine
10
0
20
51.5875
30
0
11
0
21
79.072999
31
0
39
0
210
0
220
0
230
1
0
LINE
5
1B2
100
AcDbEntity
8
2
62
256
6
ByLayer
370
13
48
1
60
0
100
AcDbLine
10
90
20
77.072999
30
0
11
0
21
77.072999
31
0
39
0
210
0
220
0
230
1
0
SOLID
5
1B3
100
AcDbEntity
8
2
62
256
6
ByLayer
370
18
48
1
60
0
100
AcDbTrace
10
90
20
77.072999
30
0
11
86.500002
21
76.612215
31
0
12
86.499998
22
77.533783
32
0
13
86.499998
23
77.533783
33
0
39
0
210
0
220
0
230
1
0
SOLID
5
1B4
100
AcDbEntity
8
2
62
256
6
ByLayer
370
18
48
1
60
0
100
AcDbTrace
10
0
20
77.072999
30
0
11
3.499998
21
77.533783
31
0
12
3.500002
22
76.612215
32
0
13
3.500002
23
76.612215
33
0
39
0
210
0
220
0
230
1
0
ENDBLK
5
1B6
100
AcDbEntity
8
0
100
AcDbBlockEnd
0
BLOCK
5
1BB
100
AcDbEntity
8
0
100
AcDbBlockBegin
2
*D7
70
1
10
0
20
0
30
0
3
*D7
0
LINE
5
1BD
100
AcDbEntity
8
0
62
256
6
ByLayer
370
-2
48
1
60
0
100
AcDbLine
10
-50
20
14.0875
30
0
11
-50
21
79.072999
31
0
39
0
210
0
220
0
230
1
0
LINE
5
1BE
100
AcDbEntity
8
0
62
256
6
ByLayer
370
-2
48
1
60
0
100
AcDbLine
10
0
20
51.5875
30
0
11
0
21
79.072999
31
0
39
0
210
0
220
0
230
1
0
LINE
5
1BF
100
AcDbEntity
8
0
62
256
6
ByLayer
370
-2
48
1
60
0
100
AcDbLine
10
-46.5
20
77.072999
30
0
11
-3.5
21
77.072999
31
0
39
0
210
0
220
0
230
1
0
SOLID
5
1C0
100
AcDbEntity
8
0
62
256
6
ByLayer
370
-1
48
1
60
0
100
AcDbTrace
10
-46.5
20
77.656332
30
0
11
-46.5
21
76.489666
31
0
12
-50
22
77.072999
32
0
13
-50
23
77.072999
33
0
39
0
210
0
220
0
230
1
0
SOLID
5
1C1
100
AcDbEntity
8
0
62
256
6
ByLayer
370
-1
48
1
60
0
100
AcDbTrace
10
-3.5
20
76.489666
30
0
11
-3.5
21
77.656332
31
0
12
0
22
77.072999
32
0
13
0
23
77.072999
33
0
39
0
210
0
220
0
230
1
0
MTEXT
5
1C2
100
AcDbEntity
8
0
62
256
6
ByLayer
370
18
48
1
60
0
100
AcDbMText
10
-25
20
84.072999
30
0
210
0
220
0
230
1
1
\A1;50
40
3.5
41
0
44
1
50
0
71
5
72
5
7
iso_b_vert
0
POINT
5
1C3
100
AcDbEntity
8
Defpoints
62
0
6
ByLayer
370
-1
48
1
60
0
100
AcDbPoint
10
-50
20
12.5
30
0
39
0
210
0
220
0
230
1
50
360
0
POINT
5
1C4
100
AcDbEntity
8
Defpoints
62
0
6
ByLayer
370
-1
48
1
60
0
100
AcDbPoint
10
0
20
50
30
0
39
0
210
0
220
0
230
1
50
360
0
POINT
5
1C5
100
AcDbEntity
8
Defpoints
62
0
6
ByLayer
370
-1
48
1
60
0
100
AcDbPoint
10
0
20
77.072999
30
0
39
0
210
0
220
0
230
1
50
360
0
ENDBLK
5
1BC
100
AcDbEntity
8
0
100
AcDbBlockEnd
0
BLOCK
5
1CD
100
AcDbEntity
8
0
100
AcDbBlockBegin
2
_U3
70
0
10
0
20
0
30
0
3
_U3
0
MTEXT
5
1C7
100
AcDbEntity
8
SK2
62
256
6
ByLayer
370
18
48
1
60
0
100
AcDbMText
10
-26.904966
20
78.105633
30
0
210
0
220
0
230
1
1
\W0.6740;50
40
3.5
41
0
44
1.084337
50
0
71
7
72
5
7
iso_b_vert
0
LINE
5
1C8
100
AcDbEntity
8
SK2
62
256
6
ByLayer
370
13
48
1
60
0
100
AcDbLine
10
-50
20
14.0875
30
0
11
-50
21
79.072999
31
0
39
0
210
0
220
0
230
1
0
LINE
5
1C9
100
AcDbEntity
8
SK2
62
256
6
ByLayer
370
13
48
1
60
0
100
AcDbLine
10
0
20
51.5875
30
0
11
0
21
79.072999
31
0
39
0
210
0
220
0
230
1
0
LINE
5
1CA
100
AcDbEntity
8
SK2
62
256
6
ByLayer
370
13
48
1
60
0
100
AcDbLine
10
-50
20
77.072999
30
0
11
0
21
77.072999
31
0
39
0
210
0
220
0
230
1
0
SOLID
5
1CB
100
AcDbEntity
8
SK2
62
256
6
ByLayer
370
18
48
1
60
0
100
AcDbTrace
10
-50
20
77.072999
30
0
11
-46.500002
21
77.533783
31
0
12
-46.499998
22
76.612215
32
0
13
-46.499998
23
76.612215
33
0
39
0
210
0
220
0
230
1
0
SOLID
5
1CC
100
AcDbEntity
8
SK2
62
256
6
ByLayer
370
18
48
1
60
0
100
AcDbTrace
10
0
20
77.072999
30
0
11
-3.499998
21
76.612215
31
0
12
-3.500002
22
77.533783
32
0
13
-3.500002
23
77.533783
33
0
39
0
210
0
220
0
230
1
0
ENDBLK
5
1CE
100
AcDbEntity
8
0
100
AcDbBlockEnd
0
ENDSEC
0
SECTION
2
ENTITIES
0
ARC
5
FF
100
AcDbEntity
8
SK1
62
256
6
ByLayer
370
18
48
1
60
0
100
AcDbCircle
39
0
10
-41.7
20
34.125
30
0
40
1.9
210
0
220
0
230
1
100
AcDbArc
50
270
51
313.914475
0
ARC
5
100
100
AcDbEntity
8
SK1
62
256
6
ByLayer
370
18
48
1
60
0
100
AcDbCircle
39
0
10
-36.7
20
-34.125
30
0
40
1.9
210
0
220
0
230
1
100
AcDbArc
50
34.893473
51
90
0
ARC
5
101
100
AcDbEntity
8
SK1
62
256
6
ByLayer
370
18
48
1
60
0
100
AcDbCircle
39
0
10
-0.8
20
38.632252
30
0
40
1
210
0
220
0
230
1
100
AcDbArc
50
270
51
323.130102
0
ARC
5
102
100
AcDbEntity
8
SK1
62
256
6
ByLayer
370
18
48
1
60
0
100
AcDbCircle
39
0
10
-0.8
20
-38.632252
30
0
40
1
210
0
220
0
230
1
100
AcDbArc
50
36.869898
51
90
0
ARC
5
103
100
AcDbEntity
8
1
62
256
6
ByLayer
370
18
48
1
60
0
100
AcDbCircle
39
0
10
70
20
25.814804
30
0
40
5.81480365322086
210
0
220
0
230
1
100
AcDbArc
50
238.940726
51
270
0
ARC
5
104
100
AcDbEntity
8
1
62
256
6
ByLayer
370
18
48
1
60
0
100
AcDbCircle
39
0
10
70
20
-25.814804
30
0
40
5.81480365322086
210
0
220
0
230
1
100
AcDbArc
50
90
51
121.059274
0
ARC
5
105
100
AcDbEntity
8
1
62
256
6
ByLayer
370
18
48
1
60
0
100
AcDbCircle
39
0
10
29.95
20
-44.31509
30
0
40
1
210
0
220
0
230
1
100
AcDbArc
50
121.059274
51
155.518265
0
ARC
5
106
100
AcDbEntity
8
1
62
256
6
ByLayer
370
18
48
1
60
0
100
AcDbCircle
39
0
10
29.95
20
44.31509
30
0
40
1
210
0
220
0
230
1
100
AcDbArc
50
204.471684
51
238.940726
0
ELLIPSE
5
107
100
AcDbEntity
8
SK1
62
256
6
ByLayer
370
13
48
1
60
0
100
AcDbEllipse
10
-36.7
20
-33.386024
30
0
11
-1.9
21
2.32675207226252E-16
31
0
210
0
220
0
230
1
40
0.891007
41
-2.02954223438805
42
-1.5707963267949
0
ELLIPSE
5
108
100
AcDbEntity
8
1
62
256
6
ByLayer
370
18
48
1
60
0
100
AcDbEllipse
10
20
20
7.636179
30
0
11
-1.75
21
2.14306111918916E-16
31
0
210
0
220
0
230
1
40
0.984808
41
-2.99158154521426
42
-0.108286653300172
0
ELLIPSE
5
109
100
AcDbEntity
8
1
62
256
6
ByLayer
370
18
48
1
60
0
100
AcDbEllipse
10
20
20
-7.636179
30
0
11
1.75
21
0
31
0
210
0
220
0
230
1
40
0.984808
41
-3.05676986430331
42
-0.0661700807436393
0
POINT
5
70
100
AcDbEntity
8
1
62
256
6
ByLayer
370
18
48
1
60
0
100
AcDbPoint
10
0
20
0
30
0
39
0
210
0
220
0
230
1
50
360
0
POINT
5
72
100
AcDbEntity
8
80
62
256
6
ByLayer
370
18
48
1
60
0
100
AcDbPoint
10
0
20
0
30
0
39
0
210
0
220
0
230
1
50
360
0
POINT
5
74
100
AcDbEntity
8
81
62
256
6
ByLayer
370
18
48
1
60
0
100
AcDbPoint
10
90
20
0
30
0
39
0
210
0
220
0
230
1
50
360
0
POINT
5
76
100
AcDbEntity
8
1
62
256
6
ByLayer
370
18
48
1
60
1
100
AcDbPoint
10
45
20
43.75
30
0
39
0
210
0
220
0
230
1
50
360
0
POINT
5
77
100
AcDbEntity
8
1
62
256
6
ByLayer
370
18
48
1
60
1
100
AcDbPoint
10
45
20
-43.75
30
0
39
0
210
0
220
0
230
1
50
360
0
POINT
5
78
100
AcDbEntity
8
1
62
256
6
ByLayer
370
18
48
1
60
1
100
AcDbPoint
10
90
20
20
30
0
39
0
210
0
220
0
230
1
50
360
0
POINT
5
79
100
AcDbEntity
8
1
62
256
6
ByLayer
370
18
48
1
60
1
100
AcDbPoint
10
70
20
20
30
0
39
0
210
0
220
0
230
1
50
360
0
POINT
5
7A
100
AcDbEntity
8
1
62
256
6
ByLayer
370
18
48
1
60
1
100
AcDbPoint
10
90
20
20
30
0
39
0
210
0
220
0
230
1
50
360
0
POINT
5
7B
100
AcDbEntity
8
1
62
256
6
ByLayer
370
18
48
1
60
1
100
AcDbPoint
10
0
20
50
30
0
39
0
210
0
220
0
230
1
50
360
0
POINT
5
7C
100
AcDbEntity
8
1
62
256
6
ByLayer
370
18
48
1
60
1
100
AcDbPoint
10
-50
20
12.5
30
0
39
0
210
0
220
0
230
1
50
360
0
POINT
5
7D
100
AcDbEntity
8
1
62
256
6
ByLayer
370
18
48
1
60
1
100
AcDbPoint
10
0
20
50
30
0
39
0
210
0
220
0
230
1
50
360
0
SPLINE
5
10A
100
AcDbEntity
8
SK1
62
256
6
ByLayer
370
18
48
1
60
0
100
AcDbSpline
70
4
71
3
72
29
73
25
40
0
40
0
40
0
40
0
40
0.0200728941389467
40
0.0617671184655347
40
0.103495929119936
40
0.145107023487235
40
0.18731752051794
40
0.229547299312986
40
0.271007092020652
40
0.312424091160564
40
0.353768888249227
40
0.395038085994912
40
0.436989138119478
40
0.478831742765872
40
0.519998145671131
40
0.561248425303329
40
0.622910033659984
40
0.685526649316972
40
0.748187267294308
40
0.810396540008305
40
0.872844840930612
40
0.936127478473468
40
0.97868045534814
40
1
40
1
40
1
40
1
41
1
10
-21.477567573124
20
-36.9314670051182
30
0
41
1
10
-21.4779868993164
20
-36.9314483333435
30
0
41
1
10
-21.4659702562967
20
-36.9297260962828
30
0
41
1
10
-21.3763273393265
20
-36.9182845878232
30
0
41
1
10
-21.1603496043143
20
-36.8915034912508
30
0
41
1
10
-20.8361077670363
20
-36.8541527832946
30
1E-16
41
1
10
-20.4096388983253
20
-36.8094097432049
30
1E-16
41
1
10
-19.8954947324488
20
-36.7607409648588
30
-3E-16
41
1
10
-19.2989192137732
20
-36.7137278886636
30
-3E-16
41
1
10
-18.6306746773593
20
-36.6734957778825
30
-3E-16
41
1
10
-17.9006044447476
20
-36.6439315218115
30
-2E-16
41
1
10
-17.1152471244124
20
-36.6295408335325
30
-2E-16
41
1
10
-16.2901625900654
20
-36.6332279371359
30
-1E-16
41
1
10
-15.4450409302727
20
-36.6555048382586
30
-1E-16
41
1
10
-14.597076832287
20
-36.6980760384862
30
0
41
1
10
-13.6243695175647
20
-36.770546664147
30
1E-16
41
1
10
-12.5438582753127
20
-36.8824711584176
30
1E-16
41
1
10
-11.427435424512
20
-37.0355053046038
30
2E-16
41
1
10
-10.4411057389533
20
-37.1969361687259
30
2E-16
41
1
10
-9.63508057137886
20
-37.3494717089645
30
-1E-16
41
1
10
-9.03263262341423
20
-37.4751319746334
30
-1E-16
41
1
10
-8.70514373518614
20
-37.5489169907563
30
-1E-16
41
1
10
-8.58688897116255
20
-37.5747854450234
30
0
41
1
10
-8.5703070766595
20
-37.578123754943
30
0
41
1
10
-8.56964638136333
20
-37.5781544986348
30
0
0
SPLINE
5
10B
100
AcDbEntity
8
SK1
62
256
6
ByLayer
370
18
48
1
60
0
100
AcDbSpline
70
4
71
3
72
28
73
24
40
0
40
0
40
0
40
0
40
0.25
40
0.25
40
0.375000000000001
40
0.375000000000001
40
0.500000000000001
40
0.500000000000001
40
0.625000000000001
40
0.625000000000001
40
0.750000000000001
40
0.750000000000001
40
0.812500000000003
40
0.812500000000003
40
0.875000000000005
40
0.875000000000005
40
0.906250000000004
40
0.906250000000004
40
0.937500000000003
40
0.937500000000003
40
0.968750000000001
40
0.968750000000001
40
1
40
1
40
1
40
1
41
1
10
-39.8
20
33.731867181004
30
-7E-16
41
1
10
-39.7999999999989
20
33.5934982940213
30
-7E-16
41
1
10
-39.8499328604566
20
33.4495320959711
30
-7E-16
41
1
10
-39.9786760357968
20
33.2265304775474
30
-7E-16
41
1
10
-40.0307804205494
20
33.1509812446764
30
-7E-16
41
1
10
-40.1517174586434
20
32.9975472577824
30
-7E-16
41
1
10
-40.2199418029989
20
32.9204273544261
30
-7E-16
41
1
10
-40.3699446706122
20
32.7659816807454
30
-7E-16
41
1
10
-40.4517476783099
20
32.688560134193
30
-7E-16
41
1
10
-40.6293280732628
20
32.5336399428529
30
-7E-16
41
1
10
-40.7248436064323
20
32.4560945344747
30
-7E-16
41
1
10
-40.8827947262705
20
32.3406067790668
30
-7E-16
41
1
10
-40.9380207067499
20
32.3021996830472
30
-7E-16
41
1
10
-41.0551079321724
20
32.2269849247296
30
-7E-16
41
1
10
-41.1171269705677
20
32.1899142945076
30
1E-15
41
1
10
-41.2188385127876
20
32.1377315395356
30
1E-15
41
1
10
-41.2542332468957
20
32.1209048401272
30
1E-15
41
1
10
-41.3299949303496
20
32.0892388210252
30
1E-15
41
1
10
-41.3705728908807
20
32.0743260732673
30
1E-15
41
1
10
-41.457414089094
20
32.0493660663453
30
1E-15
41
1
10
-41.5045201166844
20
32.0392554927684
30
1E-15
41
1
10
-41.601100423406
20
32.0281721119873
30
1E-15
41
1
10
-41.6517769015209
20
32.0272701379078
30
1E-15
41
1
10
-41.7000000000014
20
32.0309069691633
30
1E-15
0
SPLINE
5
10C
100
AcDbEntity
8
SK1
62
256
6
ByLayer
370
18
48
1
60
0
100
AcDbSpline
70
4
71
3
72
22
73
18
40
0
40
0
40
0
40
0
40
0.0624999999999998
40
0.0624999999999998
40
0.125
40
0.125
40
0.249999999999999
40
0.249999999999999
40
0.374999999999999
40
0.374999999999999
40
0.499999999999999
40
0.499999999999999
40
0.749999999999999
40
0.749999999999999
40
0.875
40
0.875
40
1
40
1
40
1
40
1
41
1
10
-35.8586343515163
20
-31.8681445143572
30
1.4E-15
41
1
10
-35.8532824870943
20
-31.916274640373
30
1.4E-15
41
1
10
-35.8420484718122
20
-31.9643163678555
30
1.4E-15
41
1
10
-35.8106132186993
20
-32.0583025828621
30
1.4E-15
41
1
10
-35.7904281681567
20
-32.1045597838675
30
1.4E-15
41
1
10
-35.7207592605222
20
-32.2415482348937
30
1.4E-15
41
1
10
-35.6625027525674
20
-32.3305315431174
30
1.4E-15
41
1
10
-35.539037071009
20
-32.5053321821077
30
-4E-16
41
1
10
-35.473686214462
20
-32.5911334031273
30
-4E-16
41
1
10
-35.3448966005915
20
-32.7602674648847
30
-4E-16
41
1
10
-35.2813492424227
20
-32.8436033441989
30
-4E-16
41
1
10
-35.1017936668652
20
-33.0900149905005
30
-4E-16
41
1
10
-34.996864779501
20
-33.2496002738163
30
-4E-16
41
1
10
-34.8839372794759
20
-33.4823184480597
30
-4E-16
41
1
10
-34.8536295063491
20
-33.5587714504723
30
-4E-16
41
1
10
-34.8116025552662
20
-33.7094259340464
30
-4E-16
41
1
10
-34.8
20
-33.7836072579488
30
-4E-16
41
1
10
-34.8
20
-33.8551849401855
30
-4E-16
0
SPLINE
5
10D
100
AcDbEntity
8
SK1
62
256
6
ByLayer
370
18
48
1
60
0
100
AcDbSpline
70
4
71
3
72
8
73
4
40
0
40
0
40
0
40
0
40
1
40
1
40
1
40
1
41
1
10
-48.0000748840348
20
32.2180191381091
30
6E-16
41
1
10
-48.0872671766728
20
32.2186394162915
30
6E-16
41
1
10
-48.1701858378083
20
32.2200218675636
30
6E-16
41
1
10
-48.2500000000026
20
32.2214193285102
30
6E-16
0
SPLINE
5
10E
100
AcDbEntity
8
SK1
62
256
6
ByLayer
370
18
48
1
60
0
100
AcDbSpline
70
4
71
3
72
18
73
14
40
0
40
0
40
0
40
0
40
0.249999999999998
40
0.249999999999998
40
0.499999999999996
40
0.499999999999996
40
0.624999999999997
40
0.624999999999997
40
0.749999999999998
40
0.749999999999998
40
0.874999999999999
40
0.874999999999999
40
1
40
1
40
1
40
1
41
1
10
-49.9
20
-30.4863255500981
30
5E-16
41
1
10
-49.9
20
-30.5331440500946
30
5E-16
41
1
10
-49.8880954243342
20
-30.5734119958504
30
5E-16
41
1
10
-49.8466949254967
20
-30.6341069216931
30
5E-16
41
1
10
-49.8172289822046
20
-30.6550057044745
30
5E-16
41
1
10
-49.7654721025835
20
-30.6684367338321
30
5E-16
41
1
10
-49.746966021924
20
-30.6699096269832
30
5E-16
41
1
10
-49.7088928990193
20
-30.6653800372027
30
5E-16
41
1
10
-49.6892337992104
20
-30.6593913261802
30
5E-16
41
1
10
-49.6516067034723
20
-30.6370510672176
30
5E-16
41
1
10
-49.6337937644521
20
-30.620851956592
30
5E-16
41
1
10
-49.6049071185944
20
-30.5734573819969
30
5E-16
41
1
10
-49.593918101674
20
-30.5421979817882
30
5E-16
41
1
10
-49.5895655549784
20
-30.4995501889754
30
5E-16
0
SPLINE
5
10F
100
AcDbEntity
8
SK1
62
256
6
ByLayer
370
18
48
1
60
0
100
AcDbSpline
70
4
71
3
72
16
73
12
40
0
40
0
40
0
40
0
40
0.125000000000004
40
0.125000000000004
40
0.250000000000005
40
0.250000000000005
40
0.500000000000004
40
0.500000000000004
40
0.750000000000003
40
0.750000000000003
40
1
40
1
40
1
40
1
41
1
10
-48.9697166806889
20
-31.0518395799783
30
6E-16
41
1
10
-48.9637063548781
20
-31.0986100644505
30
6E-16
41
1
10
-48.9503765441757
20
-31.1493366368437
30
6E-16
41
1
10
-48.9137832609594
20
-31.2530746683362
30
6E-16
41
1
10
-48.890805731673
20
-31.3058228219767
30
6E-16
41
1
10
-48.8136508224281
20
-31.4637040410836
30
6E-16
41
1
10
-48.7516550184804
20
-31.5682444455935
30
6E-16
41
1
10
-48.6194252885657
20
-31.7694638418396
30
6E-16
41
1
10
-48.5488137390866
20
-31.8663536140567
30
6E-16
41
1
10
-48.402748993605
20
-32.0509038470389
30
6E-16
41
1
10
-48.3272038467047
20
-32.13861715349
30
6E-16
41
1
10
-48.2499999999955
20
-32.221419328515
30
6E-16
0
SPLINE
5
110
100
AcDbEntity
8
SK1
62
256
6
ByLayer
370
18
48
1
60
0
100
AcDbSpline
70
4
71
3
72
28
73
24
40
0
40
0
40
0
40
0
40
8.08863043738E-05
40
0.0472778825368122
40
0.0946214945340382
40
0.132842630775567
40
0.170559229628535
40
0.208304097500042
40
0.264858272039869
40
0.321699436939201
40
0.378632456373665
40
0.434574605900299
40
0.490520251667976
40
0.547018744974984
40
0.603491275235756
40
0.659550124613112
40
0.715658929076256
40
0.772569609088025
40
0.829364583165478
40
0.886051193509904
40
0.942953625283276
40
0.999984087463872
40
1
40
1
40
1
40
1
41
1
10
-8.56919741722908
20
37.5781834493983
30
0
41
1
10
-8.56919933745837
20
37.5781833810001
30
0
41
1
10
-8.57036033266769
20
37.5781343201061
30
0
41
1
10
-8.61786328718546
20
37.5674111960028
30
0
41
1
10
-8.81597749264984
20
37.5233599995372
30
-1E-16
41
1
10
-9.1014535293437
20
37.4609237518126
30
-1E-16
41
1
10
-9.44913240219543
20
37.3881335252715
30
-1E-16
41
1
10
-9.94664032694496
20
37.2900121378618
30
3E-16
41
1
10
-10.6360591299709
20
37.1641722061321
30
2E-16
41
1
10
-11.5524104105643
20
37.0181772015833
30
2E-16
41
1
10
-12.5718320209767
20
36.8807052694482
30
1E-16
41
1
10
-13.6691395597381
20
36.765698346896
30
1E-16
41
1
10
-14.8108085408599
20
36.6823650738297
30
0
41
1
10
-15.9641434478308
20
36.63680009957
30
-1E-16
41
1
10
-17.0895662572706
20
36.6266760275307
30
-2E-16
41
1
10
-18.1458492598651
20
36.6500707086687
30
-2E-16
41
1
10
-19.1038095759529
20
36.698740715222
30
-3E-16
41
1
10
-19.9280394565639
20
36.7628680045703
30
-3E-16
41
1
10
-20.6039676986055
20
36.8281836873091
30
1E-16
41
1
10
-21.1021890482255
20
36.8845279249276
30
0
41
1
10
-21.4115276148872
20
36.9223665119818
30
0
41
1
10
-21.4761984790198
20
36.9315331726556
30
0
41
1
10
-21.4748786685479
20
36.9316062818512
30
0
41
1
10
-21.4748776699289
20
36.9316063362512
30
0
0
SPLINE
5
111
100
AcDbEntity
8
SK1
62
256
6
ByLayer
370
18
48
1
60
0
100
AcDbSpline
70
4
71
3
72
28
73
24
40
0
40
0
40
0
40
0
40
0.25
40
0.25
40
0.499999999999999
40
0.499999999999999
40
0.624999999999999
40
0.624999999999999
40
0.749999999999998
40
0.749999999999998
40
0.812499999999998
40
0.812499999999998
40
0.874999999999998
40
0.874999999999998
40
0.906249999999999
40
0.906249999999999
40
0.937499999999999
40
0.937499999999999
40
0.96875
40
0.96875
40
0.984375
40
0.984375
40
1
40
1
40
1
40
1
41
1
10
-48.0000748840301
20
-32.2180191381109
30
6E-16
41
1
10
-47.2920063015544
20
-32.2129820014557
30
7E-16
41
1
10
-46.5847885799496
20
-32.2049994907428
30
7E-16
41
1
10
-45.1729437467021
20
-32.1799971463907
30
8E-16
41
1
10
-44.4680645864856
20
-32.1631396658888
30
8E-16
41
1
10
-43.415409199457
20
-32.1257816327307
30
-9E-16
41
1
10
-43.0652911334007
20
-32.111287225081
30
-9E-16
41
1
10
-42.3674228186905
20
-32.0759871178214
30
1E-15
41
1
10
-42.0199833891343
20
-32.0553166766555
30
1E-15
41
1
10
-41.5029798735435
20
-32.0158941357554
30
1E-15
41
1
10
-41.3312906827058
20
-32.0013210311442
30
1E-15
41
1
10
-40.9909028378714
20
-31.9678620177118
30
1E-15
41
1
10
-40.821933462368
20
-31.9490274212945
30
1.1E-15
41
1
10
-40.5727061907896
20
-31.915108292349
30
1.1E-15
41
1
10
-40.490586850094
20
-31.9028734059452
30
1.1E-15
41
1
10
-40.3291688182513
20
-31.8756644049794
30
1.1E-15
41
1
10
-40.2498347547774
20
-31.8607246629206
30
1.1E-15
41
1
10
-40.0958429025148
20
-31.8263027117733
30
1.1E-15
41
1
10
-40.0206900004236
20
-31.8068984000489
30
1.1E-15
41
1
10
-39.9164550314465
20
-31.7708083954288
30
1.1E-15
41
1
10
-39.8836877170008
20
-31.7577598076127
30
1.1E-15
41
1
10
-39.8245985544229
20
-31.728342656003
30
1.1E-15
41
1
10
-39.7980274390186
20
-31.7118142979791
30
1.1E-15
41
1
10
-39.7785586500799
20
-31.6931118380392
30
1.1E-15
0
SPLINE
5
112
100
AcDbEntity
8
SK1
62
256
6
ByLayer
370
18
48
1
60
0
100
AcDbSpline
70
4
71
3
72
18
73
14
40
0
40
0
40
0
40
0
40
0.249999999999999
40
0.249999999999999
40
0.499999999999998
40
0.499999999999998
40
0.749999999999997
40
0.749999999999997
40
0.874999999999997
40
0.874999999999997
40
0.937499999999999
40
0.937499999999999
40
1
40
1
40
1
40
1
41
1
10
-36.7
20
-30.5167400608159
30
1.3E-15
41
1
10
-37.0018287508318
20
-30.5888393358362
30
1.3E-15
41
1
10
-37.2989191849967
20
-30.6646521442084
30
1.3E-15
41
1
10
-37.8794932717711
20
-30.8269417246916
30
1.2E-15
41
1
10
-38.163833200289
20
-30.9136573189832
30
1.2E-15
41
1
10
-38.7023271093627
20
-31.1006246277984
30
1.2E-15
41
1
10
-38.9577119316174
20
-31.2008741775998
30
1.2E-15
41
1
10
-39.3043580486321
20
-31.3690299746908
30
1.1E-15
41
1
10
-39.413743181854
20
-31.4280902527834
30
1.1E-15
41
1
10
-39.5643417048923
20
-31.5232596505823
30
1.1E-15
41
1
10
-39.6123981742516
20
-31.5562191934827
30
1.1E-15
41
1
10
-39.7010248175163
20
-31.6234380759346
30
1.1E-15
41
1
10
-39.7418257552054
20
-31.6578248205967
30
1.1E-15
41
1
10
-39.7785586500799
20
-31.6931118380392
30
1.1E-15
0
SPLINE
5
113
100
AcDbEntity
8
SK1
62
256
6
ByLayer
370
18
48
1
60
0
100
AcDbSpline
70
4
71
3
72
20
73
16
40
0
40
0
40
0
40
0
40
0.125000000000001
40
0.125000000000001
40
0.250000000000003
40
0.250000000000003
40
0.375000000000004
40
0.375000000000004
40
0.500000000000005
40
0.500000000000005
40
0.750000000000002
40
0.750000000000002
40
0.875000000000001
40
0.875000000000001
40
1
40
1
40
1
40
1
41
1
10
-49.5895655549784
20
30.4995501889755
30
5E-16
41
1
10
-49.5938438505297
20
30.5414704428013
30
5E-16
41
1
10
-49.6049683093642
20
30.5736536682674
30
5E-16
41
1
10
-49.63404517589
20
30.6211675217734
30
5E-16
41
1
10
-49.6518644269889
20
30.6372366968267
30
5E-16
41
1
10
-49.6892963863512
20
30.6593955935909
30
5E-16
41
1
10
-49.7090162772404
20
30.6654187392771
30
5E-16
41
1
10
-49.7472116456448
20
30.669914592121
30
5E-16
41
1
10
-49.7657471332944
20
30.6684012417398
30
5E-16
41
1
10
-49.8175132720515
20
30.6548592983592
30
5E-16
41
1
10
-49.8468765798769
20
30.6339008480967
30
5E-16
41
1
10
-49.877780648273
20
30.5885036001346
30
5E-16
41
1
10
-49.8859126744472
20
30.5710058767978
30
5E-16
41
1
10
-49.897027983605
20
30.5317088740763
30
5E-16
41
1
10
-49.9000000000001
20
30.5098178790646
30
5E-16
41
1
10
-49.9
20
30.4863255500981
30
5E-16
0
SPLINE
5
114
100
AcDbEntity
8
SK1
62
256
6
ByLayer
370
18
48
1
60
0
100
AcDbSpline
70
4
71
3
72
38
73
34
40
0
40
0
40
0
40
0
40
0.124999999999971
40
0.124999999999971
40
0.249999999999943
40
0.249999999999943
40
0.374999999999915
40
0.374999999999915
40
0.4374999999999
40
0.4374999999999
40
0.468749999999893
40
0.468749999999893
40
0.484374999999894
40
0.484374999999894
40
0.499999999999894
40
0.499999999999894
40
0.515624999999895
40
0.515624999999895
40
0.531249999999895
40
0.531249999999895
40
0.562499999999902
40
0.562499999999902
40
0.593749999999909
40
0.593749999999909
40
0.624999999999915
40
0.624999999999915
40
0.687499999999928
40
0.687499999999928
40
0.749999999999941
40
0.749999999999941
40
0.87499999999997
40
0.87499999999997
40
1
40
1
40
1
40
1
41
1
10
-48.9697166806889
20
31.0518395799782
30
6E-16
41
1
10
-48.9785920072052
20
30.9827745518777
30
6E-16
41
1
10
-48.9897988429112
20
30.911700118486
30
6E-16
41
1
10
-49.0180200701852
20
30.7651112497696
30
6E-16
41
1
10
-49.0349596018354
20
30.6896176440589
30
6E-16
41
1
10
-49.0776368040331
20
30.5317908512401
30
5E-16
41
1
10
-49.1028110851934
20
30.4499369160025
30
5E-16
41
1
10
-49.1550913172456
20
30.3173507228138
30
5E-16
41
1
10
-49.17489818653
20
30.2713888389702
30
5E-16
41
1
10
-49.213105131189
20
30.1984221538168
30
5E-16
41
1
10
-49.2271311024146
20
30.1735571398703
30
5E-16
41
1
10
-49.2532197444689
20
30.1341354250738
30
5E-16
41
1
10
-49.2626054593684
20
30.1209142770314
30
5E-16
41
1
10
-49.2836318505297
20
30.0945179347594
30
5E-16
41
1
10
-49.2953270589806
20
30.0813976247598
30
5E-16
41
1
10
-49.3193538244892
20
30.0587891916676
30
5E-16
41
1
10
-49.3315330405265
20
30.0495225827975
30
5E-16
41
1
10
-49.3534803255343
20
30.0364407310505
30
5E-16
41
1
10
-49.3632583160043
20
30.0324454472899
30
5E-16
41
1
10
-49.3893780959705
20
30.0251732526116
30
5E-16
41
1
10
-49.4027909668281
20
30.0261603638781
30
5E-16
41
1
10
-49.4261096109671
20
30.0320990988029
30
5E-16
41
1
10
-49.4360300073955
20
30.0373756104626
30
5E-16
41
1
10
-49.4536465627325
20
30.05009267426
30
5E-16
41
1
10
-49.4613809145867
20
30.0576000217042
30
5E-16
41
1
10
-49.4825843709668
20
30.0822611043647
30
5E-16
41
1
10
-49.4940886918431
20
30.1015166365301
30
5E-16
41
1
10
-49.5143265433238
20
30.14299171094
30
5E-16
41
1
10
-49.5230060395869
20
30.1653087850482
30
5E-16
41
1
10
-49.5461141913003
20
30.2350370912028
30
5E-16
41
1
10
-49.55769939786
20
30.2851732802834
30
5E-16
41
1
10
-49.5766217121051
20
30.3895051882632
30
5E-16
41
1
10
-49.5838739667785
20
30.4437819936304
30
5E-16
41
1
10
-49.5895655549792
20
30.4995501889748
30
5E-16
0
SPLINE
5
115
100
AcDbEntity
8
SK1
62
256
6
ByLayer
370
18
48
1
60
0
100
AcDbSpline
70
4
71
3
72
14
73
10
40
0
40
0
40
0
40
0
40
0.5
40
0.5
40
0.75
40
0.75
40
0.875
40
0.875
40
1
40
1
40
1
40
1
41
1
10
-48.0000748840304
20
32.2180191381098
30
6E-16
41
1
10
-46.9418373491891
20
32.2104909308025
30
7E-16
41
1
10
-45.8857893422584
20
32.196732490187
30
7E-16
41
1
10
-44.3083267061908
20
32.1570690384718
30
8E-16
41
1
10
-43.7836199124711
20
32.1406404640853
30
9E-16
41
1
10
-42.9994067134446
20
32.1077633942848
30
-9E-16
41
1
10
-42.7384837114112
20
32.0954119198531
30
9E-16
41
1
10
-42.2180175863266
20
32.0667099366044
30
1E-15
41
1
10
-41.9584607819819
20
32.0503992514928
30
1E-15
41
1
10
-41.7
20
32.0309069691676
30
1E-15
0
SPLINE
5
116
100
AcDbEntity
8
SK1
62
256
6
ByLayer
370
18
48
1
60
0
100
AcDbSpline
70
4
71
3
72
8
73
4
40
0
40
0
40
0
40
0
40
1
40
1
40
1
40
1
41
1
10
-48.0000748840348
20
-32.2180191381091
30
6E-16
41
1
10
-48.087267176674
20
-32.2186394162915
30
6E-16
41
1
10
-48.1701858378107
20
-32.2200218675636
30
6E-16
41
1
10
-48.2500000000061
20
-32.2214193285102
30
6E-16
0
SPLINE
5
117
100
AcDbEntity
8
SK1
62
256
6
ByLayer
370
18
48
1
60
0
100
AcDbSpline
70
4
71
3
72
16
73
12
40
0
40
0
40
0
40
0
40
0.249999999999999
40
0.249999999999999
40
0.499999999999999
40
0.499999999999999
40
0.749999999999998
40
0.749999999999998
40
0.874999999999998
40
0.874999999999998
40
1
40
1
40
1
40
1
41
1
10
-48.25
20
32.2214193285102
30
6E-16
41
1
10
-48.3271926111221
20
32.1386292038047
30
6E-16
41
1
10
-48.4027254550249
20
32.0509309488243
30
6E-16
41
1
10
-48.5487630795254
20
31.8664202589755
30
6E-16
41
1
10
-48.6193596629137
20
31.7695548980976
30
6E-16
41
1
10
-48.7515583290415
20
31.5684003800481
30
6E-16
41
1
10
-48.8135365930104
20
31.4639005301247
30
6E-16
41
1
10
-48.890678976663
20
31.3061007614431
30
6E-16
41
1
10
-48.9136547790544
20
31.2533832647304
30
6E-16
41
1
10
-48.9502629966483
20
31.1497138010379
30
6E-16
41
1
10
-48.9636881947292
20
31.098751381076
30
6E-16
41
1
10
-48.9697166806889
20
31.0518395799782
30
6E-16
0
SPLINE
5
118
100
AcDbEntity
8
SK1
62
256
6
ByLayer
370
18
48
1
60
0
100
AcDbSpline
70
4
71
3
72
40
73
36
40
0
40
0
40
0
40
0
40
0.125000000000009
40
0.125000000000009
40
0.250000000000017
40
0.250000000000017
40
0.31250000000002
40
0.31250000000002
40
0.375000000000023
40
0.375000000000023
40
0.406250000000024
40
0.406250000000024
40
0.437500000000025
40
0.437500000000025
40
0.468750000000027
40
0.468750000000027
40
0.484375000000027
40
0.484375000000027
40
0.500000000000028
40
0.500000000000028
40
0.515625000000029
40
0.515625000000029
40
0.531250000000029
40
0.531250000000029
40
0.562500000000028
40
0.562500000000028
40
0.625000000000024
40
0.625000000000024
40
0.68750000000002
40
0.68750000000002
40
0.750000000000017
40
0.750000000000017
40
0.875000000000008
40
0.875000000000008
40
1
40
1
40
1
40
1
41
1
10
-49.5895655549792
20
-30.4995501889747
30
5E-16
41
1
10
-49.5838353228094
20
-30.4434033463458
30
5E-16
41
1
10
-49.5765237282894
20
-30.3887657890136
30
5E-16
41
1
10
-49.5574093314111
20
-30.2837771770311
30
5E-16
41
1
10
-49.5456957326029
20
-30.2333409846472
30
5E-16
41
1
10
-49.5222591930027
20
-30.1632854640857
30
5E-16
41
1
10
-49.5134598230438
20
-30.1409133703465
30
5E-16
41
1
10
-49.4928886422764
20
-30.0993914077422
30
5E-16
41
1
10
-49.4811795919192
20
-30.0801448890007
30
5E-16
41
1
10
-49.4594795206729
20
-30.0556760550679
30
5E-16
41
1
10
-49.4515481246873
20
-30.0482624420088
30
5E-16
41
1
10
-49.4333883452651
20
-30.0358790510256
30
5E-16
41
1
10
-49.423180328387
20
-30.0308649643931
30
5E-16
41
1
10
-49.3989452107881
20
-30.0258282630629
30
5E-16
41
1
10
-49.3848860971834
20
-30.0254524368677
30
5E-16
41
1
10
-49.3572375948682
20
-30.0348646694981
30
5E-16
41
1
10
-49.3471371335927
20
-30.0396558058451
30
5E-16
41
1
10
-49.3240756254535
20
-30.0550189333781
30
5E-16
41
1
10
-49.311633741674
20
-30.0654809554194
30
5E-16
41
1
10
-49.2878974305992
20
-30.0894997512517
30
5E-16
41
1
10
-49.2766782142939
20
-30.1028469760892
30
5E-16
41
1
10
-49.2564939288942
20
-30.1293708479221
30
5E-16
41
1
10
-49.2473774605384
20
-30.1426915407753
30
5E-16
41
1
10
-49.2224337229422
20
-30.1815979777182
30
5E-16
41
1
10
-49.208462927181
20
-30.2068796389626
30
5E-16
41
1
10
-49.1713028177833
20
-30.2793276173569
30
5E-16
41
1
10
-49.1521030123029
20
-30.3244567972158
30
5E-16
41
1
10
-49.117846377049
20
-30.4123592208556
30
5E-16
41
1
10
-49.1032444980111
20
-30.4545620875276
30
5E-16
41
1
10
-49.0770941752504
20
-30.5364615922634
30
5E-16
41
1
10
-49.0655553917678
20
-30.5762354690865
30
5E-16
41
1
10
-49.0341580608355
20
-30.693093404698
30
6E-16
41
1
10
-49.0174697672
20
-30.7677510917348
30
6E-16
41
1
10
-48.9896238249295
20
-30.9128335552643
30
6E-16
41
1
10
-48.978535329285
20
-30.9832156018093
30
6E-16
41
1
10
-48.9697166806889
20
-31.0518395799783
30
6E-16
0
SPLINE
5
119
100
AcDbEntity
8
SK1
62
256
6
ByLayer
370
18
48
1
60
0
100
AcDbSpline
70
4
71
3
72
26
73
22
40
0
40
0
40
0
40
0
40
0.0312499999999981
40
0.0312499999999981
40
0.0624999999999963
40
0.0624999999999963
40
0.0937499999999944
40
0.0937499999999944
40
0.124999999999993
40
0.124999999999993
40
0.187499999999994
40
0.187499999999994
40
0.249999999999995
40
0.249999999999995
40
0.374999999999998
40
0.374999999999998
40
0.500000000000001
40
0.500000000000001
40
0.75
40
0.75
40
1
40
1
40
1
40
1
41
1
10
-36.7
20
-30.5167400608159
30
1.3E-15
41
1
10
-36.6723520115423
20
-30.5101356537868
30
1.3E-15
41
1
10
-36.6423696915966
20
-30.5065072694912
30
1.3E-15
41
1
10
-36.5803294033383
20
-30.5080299931912
30
1.3E-15
41
1
10
-36.5493451762329
20
-30.5133018760686
30
1.3E-15
41
1
10
-36.4931583412701
20
-30.5297936483297
30
1.3E-15
41
1
10
-36.4677835309982
20
-30.5407933374159
30
1.3E-15
41
1
10
-36.422169126104
20
-30.5649857809798
30
1.3E-15
41
1
10
-36.4014717604107
20
-30.5784333670386
30
1.3E-15
41
1
10
-36.3452074767482
20
-30.6198295358645
30
1.3E-15
41
1
10
-36.314332380426
20
-30.6492810703226
30
1.3E-15
41
1
10
-36.2587744633153
20
-30.7097676061227
30
1.3E-15
41
1
10
-36.2343979816069
20
-30.7408000948689
30
1.3E-15
41
1
10
-36.1684565731941
20
-30.833688204311
30
1.3E-15
41
1
10
-36.1332977691624
20
-30.8960495995319
30
1.3E-15
41
1
10
-36.0717993238636
20
-31.0206707065771
30
1.3E-15
41
1
10
-36.0457186531498
20
-31.082958226578
30
1.3E-15
41
1
10
-35.9766840938967
20
-31.2691988470955
30
1.3E-15
41
1
10
-35.9429353363203
20
-31.3921595601779
30
1.4E-15
41
1
10
-35.8903024847613
20
-31.6332833548405
30
1.4E-15
41
1
10
-35.8715743572718
20
-31.7517730859096
30
1.4E-15
41
1
10
-35.8586343515165
20
-31.8681445143572
30
1.4E-15
0
SPLINE
5
11A
100
AcDbEntity
8
1
62
256
6
ByLayer
370
18
48
1
60
0
100
AcDbSpline
70
4
71
3
72
8
73
4
40
0
40
0
40
0
40
0
40
1
40
1
40
1
40
1
41
1
10
21.9250000015204
20
-46.3120666982781
30
-4E-16
41
1
10
22.3573464429739
20
-47.0812017023052
30
-4E-16
41
1
10
22.7896928844274
20
-47.8513650384078
30
-4E-16
41
1
10
23.222039325881
20
-48.6224207223289
30
-4E-16
0
SPLINE
5
11B
100
AcDbEntity
8
1
62
256
6
ByLayer
370
18
48
1
60
0
100
AcDbSpline
70
4
71
3
72
8
73
4
40
0
40
0
40
0
40
0
40
1
40
1
40
1
40
1
41
1
10
28.95
20
31.05
30
1.8E-15
41
1
10
28.8500189350372
20
31.1499810649628
30
1.8E-15
41
1
10
28.7500188403065
20
31.2499811596935
30
1.8E-15
41
1
10
28.65
20
31.35
30
1.8E-15
0
SPLINE
5
11C
100
AcDbEntity
8
1
62
256
6
ByLayer
370
18
48
1
60
0
100
AcDbSpline
70
4
71
3
72
11
73
7
40
0
40
0
40
0
40
0
40
0.254137233829076
40
0.505508195622732
40
0.754124789137783
40
1
40
1
40
1
40
1
41
1
10
16.758178183218
20
39.0715226734553
30
1E-15
41
1
10
16.8709965998131
20
38.8208033216816
30
1E-15
41
1
10
17.0954054097569
20
38.3220936866815
30
1E-15
41
1
10
17.4274029803762
20
37.5768660199567
30
1.1E-15
41
1
10
17.7538678057231
20
36.8389611516781
30
1.1E-15
41
1
10
17.9683522454523
20
36.3488856909645
30
1.1E-15
41
1
10
18.0749999317805
20
36.1052064101864
30
1.1E-15
0
SPLINE
5
11D
100
AcDbEntity
8
1
62
256
6
ByLayer
370
18
48
1
60
0
100
AcDbSpline
70
4
71
3
72
18
73
14
40
0
40
0
40
0
40
0
40
0.250000000000008
40
0.250000000000008
40
0.375000000000009
40
0.375000000000009
40
0.50000000000001
40
0.50000000000001
40
0.62500000000001
40
0.62500000000001
40
0.750000000000011
40
0.750000000000011
40
1
40
1
40
1
40
1
41
1
10
18.075
20
45.2793571509137
30
-7E-16
41
1
10
18.075
20
45.2258951579939
30
-7E-16
41
1
10
18.0850987620181
20
45.1734873705315
30
-7E-16
41
1
10
18.1146615643392
20
45.0994985711344
30
-7E-16
41
1
10
18.1267390541631
20
45.0760690993221
30
-7E-16
41
1
10
18.1553121188661
20
45.0316613441459
30
-7E-16
41
1
10
18.1720193738144
20
45.0105106814329
30
-7E-16
41
1
10
18.2087066861074
20
44.97244290554
30
-7E-16
41
1
10
18.2287465288035
20
44.9553398928838
30
-7E-16
41
1
10
18.2722976889051
20
44.9250856644646
30
-7E-16
41
1
10
18.2957997133537
20
44.9120339458099
30
-7E-16
41
1
10
18.3684406058228
20
44.8807519638871
30
-7E-16
41
1
10
18.4215003788337
20
44.8695908606258
30
-6E-16
41
1
10
18.4749999999999
20
44.8695908606258
30
-6E-16
0
SPLINE
5
11E
100
AcDbEntity
8
1
62
256
6
ByLayer
370
18
48
1
60
0
100
AcDbSpline
70
4
71
3
72
32
73
28
40
0
40
0
40
0
40
0
40
0.125
40
0.125
40
0.1875
40
0.1875
40
0.25
40
0.3125
40
0.3125
40
0.375
40
0.375
40
0.4375
40
0.4375
40
0.5
40
0.5
40
0.625
40
0.625
40
0.6875
40
0.6875
40
0.75
40
0.75
40
0.8125
40
0.8125
40
0.875
40
0.9375
40
0.9375
40
1
40
1
40
1
40
1
41
1
10
18.475
20
-0.858414235669471
30
1.1E-15
41
1
10
18.5513861616256
20
-0.99411666421571
30
1.1E-15
41
1
10
18.6438595734137
20
-1.11676450203168
30
1.1E-15
41
1
10
18.8060069310246
20
-1.28172754657285
30
1.2E-15
41
1
10
18.8644562852337
20
-1.33379249054676
30
1.2E-15
41
1
10
18.9863395554145
20
-1.4286197671413
30
1.2E-15
41
1
10
19.1135926887495
20
-1.51473119137251
30
1.2E-15
41
1
10
19.2514036903976
20
-1.58371054593098
30
1.2E-15
41
1
10
19.3946849315288
20
-1.64381543852255
30
1.2E-15
41
1
10
19.4680791263995
20
-1.66897198245692
30
1.2E-15
41
1
10
19.6164454423366
20
-1.70917909982941
30
1.2E-15
41
1
10
19.6917046822207
20
-1.72435099761353
30
1.2E-15
41
1
10
19.8443892686378
20
-1.7447686569343
30
1.2E-15
41
1
10
19.9224072561298
20
-1.74998930808087
30
1.2E-15
41
1
10
20.1544609345367
20
-1.75002133384044
30
1.2E-15
41
1
10
20.3066731843661
20
-1.72988394172802
30
1.2E-15
41
1
10
20.5312300691848
20
-1.66922327357915
30
1.3E-15
41
1
10
20.6049149503392
20
-1.64392638340942
30
1.3E-15
41
1
10
20.7468111863411
20
-1.58451541588252
30
1.3E-15
41
1
10
20.8155120434473
20
-1.55027722803911
30
1.3E-15
41
1
10
20.9484162585472
20
-1.47272739409146
30
1.3E-15
41
1
10
21.0130448268982
20
-1.42907034617878
30
1.3E-15
41
1
10
21.1353630867129
20
-1.33396122018689
30
1.3E-15
41
1
10
21.2502848660041
20
-1.23162836948165
30
1.3E-15
41
1
10
21.3508223253872
20
-1.11524325828745
30
1.3E-15
41
1
10
21.4439897454673
20
-0.991656238272753
30
1.3E-15
41
1
10
21.4868069740588
20
-0.926265352461769
30
1.3E-15
41
1
10
21.5250000000019
20
-0.858414235666174
30
1.3E-15
0
SPLINE
5
11F
100
AcDbEntity
8
1
62
256
6
ByLayer
370
18
48
1
60
0
100
AcDbSpline
70
4
71
3
72
54
73
50
40
0
40
0
40
0
40
0
40
0.0095362379777561
40
0.019057112513428
40
0.0285650163722987
40
0.0380623521231706
40
0.0475515303620676
40
0.0570349679056672
40
0.0665150859611363
40
0.0759943082792316
40
0.0854750592976515
40
0.09495976228177
40
0.104450837469863
40
0.113950700229892
40
0.123461759234854
40
0.132986414663487
40
0.142527056432935
40
0.152086062469687
40
0.161665797024761
40
0.171268609038766
40
0.180896830562014
40
0.190552775234442
40
0.200238736829607
40
0.209956987866531
40
0.219709778292645
40
0.229499334240578
40
0.239327856861001
40
0.249197521233236
40
0.312152635818938
40
0.374343955252492
40
0.436373991774024
40
0.498849916621766
40
0.5613204204344
40
0.623421187270015
40
0.685742065249632
40
0.74886672872065
40
0.768596556040809
40
0.788192947365302
40
0.807673001249899
40
0.827054124160959
40
0.846353990242908
40
0.865590497613203
40
0.884781721658853
40
0.903945865899278
40
0.923101211056647
40
0.942266063032557
40
0.961458700525814
40
0.980697323037912
40
1
40
1
40
1
40
1
41
1
10
14.961
20
48.8741997228531
30
-9E-16
41
1
10
14.909229758598
20
48.874204258407
30
-9E-16
41
1
10
14.8057726807075
20
48.8742133222076
30
-9E-16
41
1
10
14.6507250616285
20
48.8748730740139
30
-9E-16
41
1
10
14.4959569562954
20
48.8760058326297
30
9E-16
41
1
10
14.3414674710307
20
48.8776569769513
30
9E-16
41
1
10
14.1872568824794
20
48.8798130156127
30
9E-16
41
1
10
14.033325154695
20
48.8824757535854
30
9E-16
41
1
10
13.8796723355937
20
48.885642454192
30
8E-16
41
1
10
13.7262984506774
20
48.8893111472101
30
8E-16
41
1
10
13.5732035312856
20
48.8934792078617
30
8E-16
41
1
10
13.4203876068354
20
48.8981437371836
30
8E-16
41
1
10
13.267850706708
20
48.9033014599628
30
8E-16
41
1
10
13.1155928595564
20
48.9089487519041
30
8E-16
41
1
10
12.9636140933102
20
48.9150816321441
30
8E-16
41
1
10
12.8119144350052
20
48.9216957650408
30
8E-16
41
1
10
12.6604939106618
20
48.9287864594593
30
8E-16
41
1
10
12.5093525451932
20
48.9363486687079
30
8E-16
41
1
10
12.3584903622043
20
48.9443769903023
30
8E-16
41
1
10
12.207907384263
20
48.952865665689
30
7E-16
41
1
10
12.0576036314562
20
48.9618085802247
30
7E-16
41
1
10
11.9075791264291
20
48.9711992620923
30
7E-16
41
1
10
11.7578338751877
20
48.9810308851525
30
7E-16
41
1
10
11.6083679388358
20
48.9912962569735
30
7E-16
41
1
10
11.459181164299
20
49.0019878623963
30
7E-16
41
1
10
11.3102741945966
20
49.0130976986689
30
7E-16
41
1
10
11.1616446767458
20
49.0246178928097
30
7E-16
41
1
10
10.7475757525214
20
49.0578914432394
30
7E-16
41
1
10
10.0862830823779
20
49.1180015249323
30
6E-16
41
1
10
9.21736655038279
20
49.212713679353
30
6E-16
41
1
10
8.40731496176198
20
49.3152184800002
30
5E-16
41
1
10
7.66075870258848
20
49.42190246159
30
-4E-16
41
1
10
6.98303467800687
20
49.5281978019238
30
4E-16
41
1
10
6.38276478989704
20
49.6302838782497
30
4E-16
41
1
10
5.86373572853756
20
49.7247468046571
30
4E-16
41
1
10
5.5290385767932
20
49.7887798424186
30
3E-16
41
1
10
5.32404322175822
20
49.8285524408471
30
-1E-16
41
1
10
5.21513278196309
20
49.849847057108
30
-1E-16
41
1
10
5.11578737186073
20
49.8694230049221
30
-1E-16
41
1
10
5.02600538741714
20
49.8872570987859
30
-1E-16
41
1
10
4.94578805065319
20
49.9033245966013
30
-1E-16
41
1
10
4.87513537277349
20
49.917601196828
30
-1E-16
41
1
10
4.8140489881807
20
49.9300621454317
30
1E-16
41
1
10
4.76252477858534
20
49.9406838543152
30
1E-16
41
1
10
4.72057944790223
20
49.9494383581979
30
1E-16
41
1
10
4.68815157121946
20
49.9563138954354
30
0
41
1
10
4.66547120995287
20
49.9612380690026
30
0
41
1
10
4.65167700862955
20
49.9643653493606
30
0
41
1
10
4.65055962189729
20
49.9647875406796
30
0
41
1
10
4.65000000000001
20
49.9649989871736
30
0
0
SPLINE
5
120
100
AcDbEntity
8
1
62
256
6
ByLayer
370
18
48
1
60
0
100
AcDbSpline
70
4
71
1
72
4
73
2
40
0
40
0
40
1
40
1
41
1
10
21.9250005514223
20
31.35
30
1.3E-15
41
1
10
23.4798734011593
20
31.35
30
1.4E-15
0
SPLINE
5
121
100
AcDbEntity
8
1
62
256
6
ByLayer
370
18
48
1
60
0
100
AcDbSpline
70
4
71
1
72
4
73
2
40
0
40
0
40
1
40
1
41
1
10
21.925
20
35.3951853359695
30
1.3E-15
41
1
10
21.925
20
36.1052058032436
30
1.3E-15
0
SPLINE
5
122
100
AcDbEntity
8
1
62
256
6
ByLayer
370
18
48
1
60
0
100
AcDbSpline
70
4
71
1
72
4
73
2
40
0
40
0
40
1
40
1
41
1
10
18.075
20
36.1052060278743
30
1.1E-15
41
1
10
18.075
20
35.3951855209089
30
1.1E-15
0
SPLINE
5
123
100
AcDbEntity
8
1
62
256
6
ByLayer
370
18
48
1
60
0
100
AcDbSpline
70
4
71
1
72
4
73
2
40
0
40
0
40
1
40
1
41
1
10
18.075
20
31.3499996674424
30
1.1E-15
41
1
10
18.075
20
31.1479816885673
30
1.1E-15
0
SPLINE
5
124
100
AcDbEntity
8
1
62
256
6
ByLayer
370
18
48
1
60
0
100
AcDbSpline
70
4
71
1
72
4
73
2
40
0
40
0
40
1
40
1
41
1
10
21.925
20
31.1479816885673
30
1.3E-15
41
1
10
21.925
20
31.3499996674424
30
1.3E-15
0
SPLINE
5
125
100
AcDbEntity
8
1
62
256
6
ByLayer
370
18
48
1
60
0
100
AcDbSpline
70
4
71
3
72
8
73
4
40
0
40
0
40
0
40
0
40
1
40
1
40
1
40
1
41
1
10
28.6499999999912
20
-48.324184255928
30
0
41
1
10
28.6391747630824
20
-48.3352874514737
30
0
41
1
10
28.6283494316052
20
-48.3463905548192
30
0
41
1
10
28.6175240057521
20
-48.3574935661475
30
0
0
SPLINE
5
126
100
AcDbEntity
8
1
62
256
6
ByLayer
370
18
48
1
60
0
100
AcDbSpline
70
4
71
3
72
18
73
14
40
0
40
0
40
0
40
0
40
0.125000000000002
40
0.125000000000002
40
0.250000000000004
40
0.250000000000004
40
0.375000000000006
40
0.375000000000006
40
0.500000000000007
40
0.500000000000007
40
0.750000000000004
40
0.750000000000004
40
1
40
1
40
1
40
1
41
1
10
18.475
20
33.6285314130724
30
1.1E-15
41
1
10
18.4434987369894
20
33.6285314130724
30
1.1E-15
41
1
10
18.4129304493033
20
33.6335454460468
30
1.1E-15
41
1
10
18.3534920432836
20
33.6526998810503
30
1.1E-15
41
1
10
18.3252736656945
20
33.6667501121099
30
1.1E-15
41
1
10
18.273475100613
20
33.7013305092828
30
1.1E-15
41
1
10
18.249607923552
20
33.7220658364735
30
1.1E-15
41
1
10
18.2072915355371
20
33.7672773212184
30
1.1E-15
41
1
10
18.188439999168
20
33.7920716989343
30
1.1E-15
41
1
10
18.1383780626368
20
33.8714311447422
30
1.1E-15
41
1
10
18.1147728929386
20
33.9284926539025
30
1.1E-15
41
1
10
18.0827688667537
20
34.0490833264241
30
1.1E-15
41
1
10
18.075
20
34.110859737085
30
1.1E-15
41
1
10
18.075
20
34.1733540203475
30
1.1E-15
0
SPLINE
5
127
100
AcDbEntity
8
1
62
256
6
ByLayer
370
18
48
1
60
0
100
AcDbSpline
70
4
71
3
72
11
73
7
40
0
40
0
40
0
40
0
40
0.245875358143763
40
0.494492001545735
40
0.745862914625325
40
1
40
1
40
1
40
1
41
1
10
18.0749999357283
20
31.1479822915826
30
1.1E-15
41
1
10
17.9683521845761
20
31.1476046891133
30
1.1E-15
41
1
10
17.7538676574331
20
31.1468452742527
30
1.1E-15
41
1
10
17.4274027686076
20
31.1457245012109
30
1.1E-15
41
1
10
17.0954052636318
20
31.1446021220878
30
1E-15
41
1
10
16.8709965379336
20
31.1438661242338
30
1E-15
41
1
10
16.758178185591
20
31.1434961115931
30
1E-15
0
SPLINE
5
128
100
AcDbEntity
8
1
62
256
6
ByLayer
370
18
48
1
60
0
100
AcDbSpline
70
4
71
3
72
54
73
50
40
0
40
0
40
0
40
0
40
0.0096072333043789
40
0.019198790751635
40
0.0287769093758423
40
0.0383438356382696
40
0.0479018238919886
40
0.05745313481886
40
0.0670000338442706
40
0.0765447895350756
40
0.0860896719863678
40
0.0956369512028226
40
0.105188895480358
40
0.114747769793864
40
0.124315834196752
40
0.1338953422379
40
0.143488539401473
40
0.153097661574918
40
0.162724933550162
40
0.172372567562848
40
0.182042761874044
40
0.191737699398659
40
0.201459546384299
40
0.211210451144092
40
0.220992542846442
40
0.230807930364416
40
0.240658701187004
40
0.25054692039405
40
0.313796680744763
40
0.376192313690771
40
0.438315804234785
40
0.500756751361544
40
0.563305890805261
40
0.625330134700819
40
0.687432558947276
40
0.750213993949898
40
0.769916510855545
40
0.78946869143545
40
0.808888635640702
40
0.828194815357255
40
0.847406030640296
40
0.866541361455336
40
0.885620115443036
40
0.904661772351395
40
0.923685925889659
40
0.942712223846928
40
0.961760307379429
40
0.980849750400039
40
1
40
1
40
1
40
1
41
1
10
4.65000000000001
20
-49.9544407665081
30
1E-16
41
1
10
4.65004887212646
20
-49.9533214647206
30
1E-16
41
1
10
4.65014653663613
20
-49.9510846874795
30
1E-16
41
1
10
4.65331058076785
20
-49.9471129475058
30
1E-16
41
1
10
4.65868562791334
20
-49.9426966856762
30
1E-16
41
1
10
4.66648725909457
20
-49.9377941248704
30
1E-16
41
1
10
4.67665782987828
20
-49.9324198518142
30
1E-16
41
1
10
4.68921276428821
20
-49.9265733790696
30
1E-16
41
1
10
4.70414793628959
20
-49.9202582514717
30
-2E-16
41
1
10
4.72146444987271
20
-49.9134769340878
30
-2E-16
41
1
10
4.74116200678847
20
-49.9062321803164
30
-2E-16
41
1
10
4.76324068227822
20
-49.8985266654787
30
-2E-16
41
1
10
4.78770044949476
20
-49.8903630848398
30
-2E-16
41
1
10
4.81454130696287
20
-49.8817441272277
30
-1E-16
41
1
10
4.84376324446856
20
-49.8726724819848
30
-1E-16
41
1
10
4.87536625226943
20
-49.863150836983
30
-1E-16
41
1
10
4.90935031870606
20
-49.8531818790327
30
-1E-16
41
1
10
4.94571543091755
20
-49.8427682936536
30
-1E-16
41
1
10
4.9844615748045
20
-49.8319127649975
30
-1E-16
41
1
10
5.02558873494203
20
-49.820617975799
30
-1E-16
41
1
10
5.06909689549232
20
-49.8088866070608
30
-1E-16
41
1
10
5.1149860371915
20
-49.7967213387736
30
3E-16
41
1
10
5.16325614912361
20
-49.7841248467537
30
3E-16
41
1
10
5.21390718508002
20
-49.7710998140295
30
3E-16
41
1
10
5.26693922767424
20
-49.7576488876956
30
3E-16
41
1
10
5.3223518733794
20
-49.7437748402654
30
3E-16
41
1
10
5.38014654001307
20
-49.7294799639188
30
3E-16
41
1
10
5.54846787268548
20
-49.6883261096001
30
3E-16
41
1
10
5.85958284095136
20
-49.6150581717902
30
4E-16
41
1
10
6.3772042212868
20
-49.5026670730621
30
4E-16
41
1
10
6.97567226543796
20
-49.3838428116532
30
4E-16
41
1
10
7.65191342328481
20
-49.2620332881957
30
5E-16
41
1
10
8.39686653798609
20
-49.1411514670395
30
5E-16
41
1
10
9.20488025523127
20
-49.0259057712842
30
6E-16
41
1
10
10.0708044760174
20
-48.9201438552549
30
6E-16
41
1
10
10.7778156950831
20
-48.848440539739
30
7E-16
41
1
10
11.289957610334
20
-48.8034212355726
30
7E-16
41
1
10
11.5880195517246
20
-48.7791818626514
30
7E-16
41
1
10
11.8873465999304
20
-48.7568582085559
30
7E-16
41
1
10
12.1879471574479
20
-48.7365091434252
30
7E-16
41
1
10
12.489818208905
20
-48.7181887926102
30
8E-16
41
1
10
12.792959649753
20
-48.7019451413557
30
8E-16
41
1
10
13.097370487357
20
-48.6878208319764
30
8E-16
41
1
10
13.4030498956768
20
-48.6758513957143
30
8E-16
41
1
10
13.709996851833
20
-48.6660715435712
30
8E-16
41
1
10
14.0182106404126
20
-48.6584918144519
30
9E-16
41
1
10
14.3276893091017
20
-48.6531857705041
30
9E-16
41
1
10
14.638435473063
20
-48.6499639197493
30
-9E-16
41
1
10
14.8460351199796
20
-48.6497185108259
30
-9E-16
41
1
10
14.95
20
-48.6495956112466
30
-9E-16
0
SPLINE
5
129
100
AcDbEntity
8
1
62
256
6
ByLayer
370
18
48
1
60
0
100
AcDbSpline
70
4
71
3
72
32
73
28
40
0
40
0
40
0
40
0
40
0.124999999999999
40
0.124999999999999
40
0.187499999999999
40
0.187499999999999
40
0.249999999999999
40
0.312499999999999
40
0.312499999999999
40
0.374999999999999
40
0.374999999999999
40
0.437499999999999
40
0.437499999999999
40
0.499999999999999
40
0.499999999999999
40
0.624999999999999
40
0.624999999999999
40
0.687499999999999
40
0.687499999999999
40
0.749999999999999
40
0.749999999999999
40
0.8125
40
0.8125
40
0.875
40
0.9375
40
0.9375
40
1
40
1
40
1
40
1
41
1
10
21.525
20
7.13671025908167
30
1.3E-15
41
1
10
21.4486138383744
20
7.00262939854511
30
1.3E-15
41
1
10
21.3561404265863
20
6.8813438690901
30
1.3E-15
41
1
10
21.1939930689754
20
6.71812236978494
30
1.3E-15
41
1
10
21.1355437147663
20
6.66658966880223
30
1.3E-15
41
1
10
21.0136604445855
20
6.57270811008974
30
1.3E-15
41
1
10
20.8864073112504
20
6.4874302405405
30
1.3E-15
41
1
10
20.7485963096024
20
6.41908820971207
30
1.3E-15
41
1
10
20.6053150684712
20
6.35952986801917
30
1.3E-15
41
1
10
20.5319208736005
20
6.33459707735202
30
1.3E-15
41
1
10
20.3835545576634
20
6.29474411539374
30
1.2E-15
41
1
10
20.3082953177793
20
6.27970369831229
30
1.2E-15
41
1
10
20.1556107313623
20
6.25946236843006
30
1.2E-15
41
1
10
20.0775927438702
20
6.25428635291254
30
1.2E-15
41
1
10
19.8455390654634
20
6.25425460185971
30
1.2E-15
41
1
10
19.6933268156339
20
6.27422159089795
30
1.2E-15
41
1
10
19.4687699308151
20
6.33434802757381
30
1.2E-15
41
1
10
19.3950850496608
20
6.3594198801176
30
1.2E-15
41
1
10
19.2531888136589
20
6.41829070974686
30
1.2E-15
41
1
10
19.1844879565527
20
6.45221272773574
30
1.2E-15
41
1
10
19.0515837414528
20
6.52902737412657
30
1.2E-15
41
1
10
18.9869551731018
20
6.57226196882786
30
1.2E-15
41
1
10
18.8646369132871
20
6.66642267742489
30
1.2E-15
41
1
10
18.7497152432194
20
6.76770962379797
30
1.1E-15
41
1
10
18.6491776746128
20
6.88283276927339
30
1.1E-15
41
1
10
18.5560102545326
20
7.0050340934871
30
1.1E-15
41
1
10
18.5131930259432
20
7.06966992512619
30
1.1E-15
41
1
10
18.475
20
7.13671025908167
30
1.1E-15
0
SPLINE
5
12A
100
AcDbEntity
8
1
62
256
6
ByLayer
370
18
48
1
60
0
100
AcDbSpline
70
4
71
3
72
18
73
14
40
0
40
0
40
0
40
0
40
0.125000000000003
40
0.125000000000003
40
0.250000000000006
40
0.250000000000006
40
0.375000000000008
40
0.375000000000008
40
0.500000000000011
40
0.500000000000011
40
0.750000000000006
40
0.750000000000006
40
1
40
1
40
1
40
1
41
1
10
18.475
20
-44.6344954491479
30
-6E-16
41
1
10
18.4481901666429
20
-44.6344954491479
30
-6E-16
41
1
10
18.4218513271603
20
-44.6372436508221
30
-6E-16
41
1
10
18.3700740143099
20
-44.6479935994871
30
-7E-16
41
1
10
18.3443563093877
20
-44.6561391473402
30
-7E-16
41
1
10
18.2956101762811
20
-44.6772463511922
30
-7E-16
41
1
10
18.2725331551858
20
-44.6901389643193
30
-7E-16
41
1
10
18.2289373266519
20
-44.7205410736944
30
-7E-16
41
1
10
18.20849122524
20
-44.73809042813
30
-7E-16
41
1
10
18.153611381455
20
-44.7954008848904
30
-7E-16
41
1
10
18.1243362782755
20
-44.841265007127
30
-7E-16
41
1
10
18.0852711547245
20
-44.9395516565004
30
-7E-16
41
1
10
18.075
20
-44.9928232341299
30
-7E-16
41
1
10
18.075
20
-45.0464003445336
30
-7E-16
0
SPLINE
5
12B
100
AcDbEntity
8
1
62
256
6
ByLayer
370
18
48
1
60
0
100
AcDbSpline
70
4
71
3
72
20
73
16
40
0
40
0
40
0
40
0
40
0.125
40
0.125
40
0.25
40
0.25
40
0.375000000000001
40
0.375000000000001
40
0.500000000000001
40
0.500000000000001
40
0.75
40
0.75
40
0.875
40
0.875
40
1
40
1
40
1
40
1
41
1
10
18.475
20
-8.8274562482483
30
1.1E-15
41
1
10
18.4380065148146
20
-8.76294770699565
30
1.1E-15
41
1
10
18.4055957501353
20
-8.69757931554463
30
1.1E-15
41
1
10
18.3495345456506
20
-8.56380175830611
30
1.1E-15
41
1
10
18.3258411647692
20
-8.49509856806051
30
1.1E-15
41
1
10
18.2880881975834
20
-8.35624167092934
30
1.1E-15
41
1
10
18.2738767598581
20
-8.28582374167701
30
1.1E-15
41
1
10
18.2547792248508
20
-8.1419336522105
30
1.1E-15
41
1
10
18.24992064233
20
-8.06776072732808
30
1.1E-15
41
1
10
18.2501617103198
20
-7.84547208694988
30
1.1E-15
41
1
10
18.2693366352307
20
-7.69792674624938
30
1.1E-15
41
1
10
18.326222538458
20
-7.47941731746744
30
1.1E-15
41
1
10
18.3498614114103
20
-7.407612453637
30
1.1E-15
41
1
10
18.4057310907038
20
-7.26887763656325
30
1.1E-15
41
1
10
18.4380470186177
20
-7.20157393906871
30
1.1E-15
41
1
10
18.475
20
-7.13671025908158
30
1.1E-15
0
SPLINE
5
12C
100
AcDbEntity
8
1
62
256
6
ByLayer
370
18
48
1
60
0
100
AcDbSpline
70
4
71
1
72
4
73
2
40
0
40
0
40
1
40
1
41
1
10
18.0749994195189
20
35.3951856198683
30
1.1E-15
41
1
10
16.5201265714029
20
38.9060239606272
30
1E-15
0
SPLINE
5
12D
100
AcDbEntity
8
1
62
256
6
ByLayer
370
18
48
1
60
0
100
AcDbSpline
70
4
71
3
72
11
73
7
40
0
40
0
40
0
40
0
40
0.245873543802586
40
0.494489572661989
40
0.745861085847218
40
1
40
1
40
1
40
1
41
1
10
21.9250001084174
20
36.105206392837
30
1.3E-15
41
1
10
22.031647061947
20
36.3488840256121
30
1.3E-15
41
1
10
22.2461305141355
20
36.8389572829244
30
1.4E-15
41
1
10
22.5725946224874
20
37.5768604807169
30
1.4E-15
41
1
10
22.9045929367774
20
38.3220897903753
30
1.4E-15
41
1
10
23.1290026998994
20
38.8208016436708
30
1.4E-15
41
1
10
23.2418218435626
20
39.0715226615121
30
1.4E-15
0
SPLINE
5
12E
100
AcDbEntity
8
1
62
256
6
ByLayer
370
18
48
1
60
0
100
AcDbSpline
70
4
71
3
72
8
73
4
40
0
40
0
40
0
40
0
40
1
40
1
40
1
40
1
41
1
10
28.65
20
-48.3241842559366
30
0
41
1
10
28.7501727948518
20
-48.1985935389418
30
0
41
1
10
28.850173933125
20
-48.0727284423713
30
0
41
1
10
28.95
20
-47.9465867815427
30
0
0
SPLINE
5
12F
100
AcDbEntity
8
1
62
256
6
ByLayer
370
18
48
1
60
0
100
AcDbSpline
70
4
71
3
72
8
73
4
40
0
40
0
40
0
40
0
40
1
40
1
40
1
40
1
41
1
10
28.6114756796627
20
48.5807491090864
30
0
41
1
10
28.4911660749246
20
48.6786548135954
30
0
41
1
10
28.3706723723928
20
48.7764710153612
30
0
41
1
10
28.25
20
48.8741997228531
30
0
0
SPLINE
5
130
100
AcDbEntity
8
1
62
256
6
ByLayer
370
18
48
1
60
0
100
AcDbSpline
70
4
71
3
72
8
73
4
40
0
40
0
40
0
40
0
40
1
40
1
40
1
40
1
41
1
10
28.9512337749264
20
31.55
30
1.8E-15
41
1
10
28.9503938211339
20
31.5728754239197
30
1.8E-15
41
1
10
28.95
20
31.5956805613096
30
1.8E-15
41
1
10
28.95
20
31.6184236536547
30
1.8E-15
0
SPLINE
5
131
100
AcDbEntity
8
1
62
256
6
ByLayer
370
18
48
1
60
0
100
AcDbSpline
70
4
71
3
72
8
73
4
40
0
40
0
40
0
40
0
40
1
40
1
40
1
40
1
41
1
10
18.0749999988855
20
46.5466038006508
30
-7E-16
41
1
10
17.6420715142049
20
47.3132188387785
30
-7E-16
41
1
10
17.2091430295243
20
48.0806865570511
30
-7E-16
41
1
10
16.7762145448437
20
48.8488944109713
30
-7E-16
0
SPLINE
5
132
100
AcDbEntity
8
1
62
256
6
ByLayer
370
18
48
1
60
0
100
AcDbSpline
70
4
71
3
72
8
73
4
40
0
40
0
40
0
40
0
40
1
40
1
40
1
40
1
41
1
10
23.2237854551473
20
48.8488944109602
30
-4E-16
41
1
10
22.7908569704687
20
48.0806865570444
30
-4E-16
41
1
10
22.3579284857902
20
47.3132188387763
30
-4E-16
41
1
10
21.9250000011116
20
46.546603800653
30
-4E-16
0
SPLINE
5
133
100
AcDbEntity
8
1
62
256
6
ByLayer
370
18
48
1
60
0
100
AcDbSpline
70
4
71
3
72
32
73
28
40
0
40
0
40
0
40
0
40
0.125000000000002
40
0.125000000000002
40
0.187500000000002
40
0.187500000000002
40
0.250000000000002
40
0.312500000000001
40
0.312500000000001
40
0.375000000000001
40
0.375000000000001
40
0.437500000000001
40
0.437500000000001
40
0.500000000000001
40
0.500000000000001
40
0.625000000000001
40
0.625000000000001
40
0.687500000000001
40
0.687500000000001
40
0.75
40
0.75
40
0.8125
40
0.8125
40
0.875
40
0.9375
40
0.9375
40
1
40
1
40
1
40
1
41
1
10
21.525
20
-8.82745624824835
30
1.3E-15
41
1
10
21.4486138383744
20
-8.96065699518161
30
1.3E-15
41
1
10
21.3561404265863
20
-9.08094054886934
30
1.3E-15
41
1
10
21.1939930689754
20
-9.24263282001343
30
1.3E-15
41
1
10
21.1355437147663
20
-9.29364804000204
30
1.3E-15
41
1
10
21.0136604445855
20
-9.38653975566419
30
1.3E-15
41
1
10
20.8864073112504
20
-9.47086828252657
30
1.3E-15
41
1
10
20.7485963096024
20
-9.53838905803212
30
1.3E-15
41
1
10
20.6053150684712
20
-9.5972142447755
30
1.3E-15
41
1
10
20.5319208736005
20
-9.62183017311946
30
1.3E-15
41
1
10
20.3835545576634
20
-9.66116977299058
30
1.2E-15
41
1
10
20.3082953177793
20
-9.67601216104055
30
1.2E-15
41
1
10
20.1556107313622
20
-9.6959857695532
30
1.2E-15
41
1
10
20.0775927438702
20
-9.70109242948556
30
1.2E-15
41
1
10
19.8455390654633
20
-9.70112375686534
30
1.2E-15
41
1
10
19.6933268156339
20
-9.68142782614808
30
1.2E-15
41
1
10
19.4687699308151
20
-9.62207607023211
30
1.2E-15
41
1
10
19.3950850496608
20
-9.59732277564342
30
1.2E-15
41
1
10
19.2531888136589
20
-9.53917684240375
30
1.2E-15
41
1
10
19.1844879565527
20
-9.50566279471809
30
1.2E-15
41
1
10
19.0515837414528
20
-9.42973408567605
30
1.2E-15
41
1
10
18.9869551731018
20
-9.38698108186122
30
1.2E-15
41
1
10
18.8646369132871
20
-9.29381338114024
30
1.2E-15
41
1
10
18.7497151339959
20
-9.19354381991005
30
1.1E-15
41
1
10
18.6491776746128
20
-9.07943318378554
30
1.1E-15
41
1
10
18.5560102545326
20
-8.95821559703492
30
1.1E-15
41
1
10
18.5131930259432
20
-8.89405652603438
30
1.1E-15
41
1
10
18.475
20
-8.82745624824835
30
1.1E-15
0
SPLINE
5
134
100
AcDbEntity
8
1
62
256
6
ByLayer
370
18
48
1
60
0
100
AcDbSpline
70
4
71
1
72
4
73
2
40
0
40
0
40
1
40
1
41
1
10
16.5201265988407
20
31.35
30
1E-15
41
1
10
18.0749994485777
20
31.35
30
1.1E-15
0
SPLINE
5
135
100
AcDbEntity
8
1
62
256
6
ByLayer
370
18
48
1
60
0
100
AcDbSpline
70
4
71
1
72
4
73
2
40
0
40
0
40
1
40
1
41
1
10
23.4798737430463
20
38.9060238187323
30
1.4E-15
41
1
10
21.9250008864194
20
35.3951854870824
30
1.3E-15
0
SPLINE
5
136
100
AcDbEntity
8
1
62
256
6
ByLayer
370
18
48
1
60
0
100
AcDbSpline
70
4
71
3
72
20
73
16
40
0
40
0
40
0
40
0
40
0.125
40
0.125
40
0.25
40
0.25
40
0.375
40
0.375
40
0.499999999999999
40
0.499999999999999
40
0.624999999999999
40
0.624999999999999
40
0.749999999999999
40
0.749999999999999
40
1
40
1
40
1
40
1
41
1
10
21.525
20
-0.858414235669471
30
1.3E-15
41
1
10
21.5618821391638
20
-0.792891950637767
30
1.3E-15
41
1
10
21.5947796768967
20
-0.724425773356444
30
1.3E-15
41
1
10
21.6508669401275
20
-0.585451334390683
30
1.3E-15
41
1
10
21.6741791153503
20
-0.514911239895298
30
1.3E-15
41
1
10
21.7117669210725
20
-0.371299479083404
30
1.3E-15
41
1
10
21.7260413131039
20
-0.298228041325899
30
1.3E-15
41
1
10
21.7452659700596
20
-0.149014337989826
30
1.3E-15
41
1
10
21.7500634182865
20
-0.07317830272126
30
1.3E-15
41
1
10
21.7499352939436
20
0.0761806998147847
30
1.3E-15
41
1
10
21.7451124848176
20
0.150357820374865
30
1.3E-15
41
1
10
21.726077299328
20
0.297795593585022
30
1.3E-15
41
1
10
21.711784318193
20
0.371364700324591
30
1.3E-15
41
1
10
21.6547553972071
20
0.588858001600727
30
1.3E-15
41
1
10
21.5992468803838
20
0.726512307811845
30
1.3E-15
41
1
10
21.525
20
0.858414235669471
30
1.3E-15
0
SPLINE
5
137
100
AcDbEntity
8
1
62
256
6
ByLayer
370
18
48
1
60
0
100
AcDbSpline
70
4
71
3
72
8
73
4
40
0
40
0
40
0
40
0
40
1
40
1
40
1
40
1
41
1
10
28.9512337749264
20
31.0487662250736
30
1.8E-15
41
1
10
28.9504092949858
20
31.0724071966239
30
1.8E-15
41
1
10
28.95
20
31.0959925391031
30
1.8E-15
41
1
10
28.95
20
31.1195230416855
30
1.8E-15
0
SPLINE
5
138
100
AcDbEntity
8
1
62
256
6
ByLayer
370
18
48
1
60
0
100
AcDbSpline
70
4
71
3
72
11
73
7
40
0
40
0
40
0
40
0
40
0.254137085374715
40
0.505507998454315
40
0.754124641856276
40
1
40
1
40
1
40
1
41
1
10
23.241821814409
20
31.1434961115931
30
1.4E-15
41
1
10
23.1290034620664
20
31.1438661242338
30
1.4E-15
41
1
10
22.9045947363682
20
31.1446021220878
30
1.4E-15
41
1
10
22.5725972313923
20
31.1457245012108
30
1.4E-15
41
1
10
22.2461323425668
20
31.1468452742527
30
1.4E-15
41
1
10
22.0316478154238
20
31.1476046891133
30
1.3E-15
41
1
10
21.9250000642717
20
31.1479822915826
30
1.3E-15
0
SPLINE
5
139
100
AcDbEntity
8
1
62
256
6
ByLayer
370
18
48
1
60
0
100
AcDbSpline
70
4
71
3
72
32
73
28
40
0
40
0
40
0
40
0
40
0.124999999999996
40
0.124999999999996
40
0.187499999999995
40
0.187499999999995
40
0.249999999999995
40
0.312499999999994
40
0.312499999999994
40
0.374999999999994
40
0.374999999999994
40
0.437499999999993
40
0.437499999999993
40
0.499999999999993
40
0.499999999999993
40
0.624999999999995
40
0.624999999999995
40
0.687499999999996
40
0.687499999999996
40
0.749999999999997
40
0.749999999999997
40
0.812499999999997
40
0.812499999999997
40
0.874999999999998
40
0.937499999999999
40
0.937499999999999
40
1
40
1
40
1
40
1
41
1
10
18.475
20
-7.13671025908167
30
1.1E-15
41
1
10
18.5513861616256
20
-7.00262939854505
30
1.1E-15
41
1
10
18.6438595734138
20
-6.88134386908996
30
1.1E-15
41
1
10
18.8060069310248
20
-6.71812236978477
30
1.2E-15
41
1
10
18.864456285234
20
-6.66658966880203
30
1.2E-15
41
1
10
18.9863395554148
20
-6.57270811008951
30
1.2E-15
41
1
10
19.11359268875
20
-6.48743024054025
30
1.2E-15
41
1
10
19.251403690398
20
-6.41908820971184
30
1.2E-15
41
1
10
19.3946849315294
20
-6.35952986801894
30
1.2E-15
41
1
10
19.4680791264001
20
-6.33459707735182
30
1.2E-15
41
1
10
19.6164454423373
20
-6.2947441153936
30
1.2E-15
41
1
10
19.6917046822215
20
-6.27970369831215
30
1.2E-15
41
1
10
19.8443892686386
20
-6.25946236842998
30
1.2E-15
41
1
10
19.9224072561307
20
-6.25428635291249
30
1.2E-15
41
1
10
20.1544609345376
20
-6.25425460185977
30
1.2E-15
41
1
10
20.3066731843671
20
-6.27422159089812
30
1.2E-15
41
1
10
20.531230069186
20
-6.33434802757415
30
1.3E-15
41
1
10
20.6049149503403
20
-6.359419880118
30
1.3E-15
41
1
10
20.7468111863422
20
-6.4182907097474
30
1.3E-15
41
1
10
20.8155120434485
20
-6.45221272773634
30
1.3E-15
41
1
10
20.9484162585484
20
-6.52902737412731
30
1.3E-15
41
1
10
21.0130448268994
20
-6.57226196882868
30
1.3E-15
41
1
10
21.1353630867141
20
-6.66642267742586
30
1.3E-15
41
1
10
21.2502848660052
20
-6.76770948572053
30
1.3E-15
41
1
10
21.3508223253883
20
-6.88283276927464
30
1.3E-15
41
1
10
21.4439897454683
20
-7.00503409348852
30
1.3E-15
41
1
10
21.4868069740568
20
-7.06966992512616
30
1.3E-15
41
1
10
21.525
20
-7.13671025908167
30
1.3E-15
0
SPLINE
5
13A
100
AcDbEntity
8
1
62
256
6
ByLayer
370
18
48
1
60
0
100
AcDbSpline
70
4
71
3
72
32
73
28
40
0
40
0
40
0
40
0
40
0.125000000000001
40
0.125000000000001
40
0.1875
40
0.1875
40
0.25
40
0.312499999999999
40
0.312499999999999
40
0.374999999999998
40
0.374999999999998
40
0.437499999999997
40
0.437499999999997
40
0.499999999999996
40
0.499999999999996
40
0.624999999999997
40
0.624999999999997
40
0.687499999999997
40
0.687499999999997
40
0.749999999999998
40
0.749999999999998
40
0.812499999999998
40
0.812499999999998
40
0.874999999999999
40
0.937499999999999
40
0.937499999999999
40
1
40
1
40
1
40
1
41
1
10
18.475
20
8.82745624824835
30
1.1E-15
41
1
10
18.5513861616256
20
8.96065699518167
30
1.1E-15
41
1
10
18.6438595734138
20
9.08094054886945
30
1.1E-15
41
1
10
18.8060069310248
20
9.2426328200136
30
1.2E-15
41
1
10
18.864456285234
20
9.29364804000224
30
1.2E-15
41
1
10
18.9863395554148
20
9.38653975566442
30
1.2E-15
41
1
10
19.1135922594057
20
9.47086892803409
30
1.2E-15
41
1
10
19.251403690398
20
9.53838905803235
30
1.2E-15
41
1
10
19.3946849315294
20
9.59721424477573
30
1.2E-15
41
1
10
19.4680791264001
20
9.62183017311966
30
1.2E-15
41
1
10
19.6164454423373
20
9.66116977299075
30
1.2E-15
41
1
10
19.6917046822215
20
9.67601216104069
30
1.2E-15
41
1
10
19.8443892686386
20
9.69598576955329
30
1.2E-15
41
1
10
19.9224072561307
20
9.70109242948558
30
1.2E-15
41
1
10
20.1544609345376
20
9.70112375686529
30
1.2E-15
41
1
10
20.3066731843671
20
9.68142782614794
30
1.2E-15
41
1
10
20.531230069186
20
9.62207607023177
30
1.3E-15
41
1
10
20.6049149503403
20
9.59732277564305
30
1.3E-15
41
1
10
20.7468111863422
20
9.53917684240324
30
1.3E-15
41
1
10
20.8155120434485
20
9.50566279471752
30
1.3E-15
41
1
10
20.9484162585484
20
9.42973408567534
30
1.3E-15
41
1
10
21.0130448268994
20
9.38698108186043
30
1.3E-15
41
1
10
21.1353630867141
20
9.2938133811393
30
1.3E-15
41
1
10
21.2502847567817
20
9.19354375936479
30
1.3E-15
41
1
10
21.3508223253883
20
9.07943318378429
30
1.3E-15
41
1
10
21.4439897454683
20
8.95821559703353
30
1.3E-15
41
1
10
21.4868069740568
20
8.8940565260344
30
1.3E-15
41
1
10
21.525
20
8.82745624824835
30
1.3E-15
0
SPLINE
5
13B
100
AcDbEntity
8
1
62
256
6
ByLayer
370
18
48
1
60
0
100
AcDbSpline
70
4
71
3
72
20
73
16
40
0
40
0
40
0
40
0
40
0.124999999999999
40
0.124999999999999
40
0.249999999999997
40
0.249999999999997
40
0.374999999999996
40
0.374999999999996
40
0.499999999999996
40
0.499999999999996
40
0.749999999999998
40
0.749999999999998
40
0.874999999999999
40
0.874999999999999
40
1
40
1
40
1
40
1
41
1
10
18.475
20
7.13671025908164
30
1.1E-15
41
1
10
18.4380065148146
20
7.20164503551683
30
1.1E-15
41
1
10
18.4055957501353
20
7.26914175517516
30
1.1E-15
41
1
10
18.3495345456506
20
7.40849667487311
30
1.1E-15
41
1
10
18.3258411647692
20
7.48068732427845
30
1.1E-15
41
1
10
18.2880881975834
20
7.62609647329765
30
1.1E-15
41
1
10
18.2738767598581
20
7.69958701504842
30
1.1E-15
41
1
10
18.2547792248508
20
7.84783657171087
30
1.1E-15
41
1
10
18.2499206423301
20
7.92327007570862
30
1.1E-15
41
1
10
18.2501617103198
20
8.14549857532577
30
1.1E-15
41
1
10
18.2693366352307
20
8.28765278262645
30
1.1E-15
41
1
10
18.326222538458
20
8.49630899217507
30
1.1E-15
41
1
10
18.3498614114103
20
8.56464729533124
30
1.1E-15
41
1
10
18.4057310907038
20
8.69783618605581
30
1.1E-15
41
1
10
18.4380470186177
20
8.76301833676294
30
1.1E-15
41
1
10
18.475
20
8.82745624824821
30
1.1E-15
0
SPLINE
5
13C
100
AcDbEntity
8
1
62
256
6
ByLayer
370
18
48
1
60
0
100
AcDbSpline
70
4
71
3
72
8
73
4
40
0
40
0
40
0
40
0
40
1
40
1
40
1
40
1
41
1
10
16.7779606741266
20
-48.6224207223154
30
-7E-16
41
1
10
17.2103071155776
20
-47.8513650383989
30
-7E-16
41
1
10
17.6426535570286
20
-47.0812017023007
30
-7E-16
41
1
10
18.0749999984796
20
-46.3120666982781
30
-7E-16
0
SPLINE
5
13D
100
AcDbEntity
8
1
62
256
6
ByLayer
370
18
48
1
60
0
100
AcDbSpline
70
4
71
3
72
20
73
16
40
0
40
0
40
0
40
0
40
0.124999999999999
40
0.124999999999999
40
0.249999999999999
40
0.249999999999999
40
0.374999999999998
40
0.374999999999998
40
0.499999999999997
40
0.499999999999997
40
0.749999999999997
40
0.749999999999997
40
0.874999999999999
40
0.874999999999999
40
1
40
1
40
1
40
1
41
1
10
21.5250000000008
20
8.8274562482469
30
1.3E-15
41
1
10
21.5619869726805
20
8.76295906337862
30
1.3E-15
41
1
10
21.594400837076
20
8.69758810320198
30
1.3E-15
41
1
10
21.6504733659192
20
8.56378223525979
30
1.3E-15
41
1
10
21.6741677662639
20
8.49507084950679
30
1.3E-15
41
1
10
21.7119187961555
20
8.35621081538133
30
1.3E-15
41
1
10
21.7261325980267
20
8.28577888363091
30
1.3E-15
41
1
10
21.7452313490292
20
8.14182830789827
30
1.3E-15
41
1
10
21.7500841294777
20
8.06760671390447
30
1.3E-15
41
1
10
21.7498283660267
20
7.84544014240527
30
1.3E-15
41
1
10
21.7306632069373
20
7.69789515429858
30
1.3E-15
41
1
10
21.6737425660449
20
7.4792987844443
30
1.3E-15
41
1
10
21.6501117172361
20
7.40753893321525
30
1.3E-15
41
1
10
21.5942520871461
20
7.2688426631957
30
1.3E-15
41
1
10
21.5619432409418
20
7.20155684164396
30
1.3E-15
41
1
10
21.525
20
7.13671025908158
30
1.3E-15
0
SPLINE
5
13E
100
AcDbEntity
8
1
62
256
6
ByLayer
370
18
48
1
60
0
100
AcDbSpline
70
4
71
3
72
8
73
4
40
0
40
0
40
0
40
0
40
1
40
1
40
1
40
1
41
1
10
23.479873571714
20
31.3500000292054
30
1.4E-15
41
1
10
23.4005232101866
20
31.2813115899456
30
1.4E-15
41
1
10
23.3211728486592
20
31.2124765745029
30
1.4E-15
41
1
10
23.2418224871317
20
31.1434959483805
30
1.4E-15
0
SPLINE
5
13F
100
AcDbEntity
8
1
62
256
6
ByLayer
370
18
48
1
60
0
100
AcDbSpline
70
4
71
3
72
8
73
4
40
0
40
0
40
0
40
0
40
1
40
1
40
1
40
1
41
1
10
28.25
20
31.35
30
1.7E-15
41
1
10
28.3835523376278
20
31.35
30
1.7E-15
41
1
10
28.5168878775508
20
31.35
30
1.7E-15
41
1
10
28.65
20
31.35
30
1.8E-15
0
SPLINE
5
140
100
AcDbEntity
8
1
62
256
6
ByLayer
370
18
48
1
60
0
100
AcDbSpline
70
4
71
3
72
8
73
4
40
0
40
0
40
0
40
0
40
1
40
1
40
1
40
1
41
1
10
28.65
20
38.390971920492
30
1.8E-15
41
1
10
28.5168878775508
20
38.5628274901519
30
1.7E-15
41
1
10
28.3835523376278
20
38.7345098985734
30
1.7E-15
41
1
10
28.25
20
38.9060242764536
30
1.7E-15
0
SPLINE
5
141
100
AcDbEntity
8
1
62
256
6
ByLayer
370
18
48
1
60
0
100
AcDbSpline
70
4
71
3
72
8
73
4
40
0
40
0
40
0
40
0
40
1
40
1
40
1
40
1
41
1
10
28.95
20
48.1717467401796
30
0
41
1
10
28.8501654918895
20
48.2952369476731
30
0
41
1
10
28.750164416673
20
48.41845833982
30
0
41
1
10
28.65
20
48.5414130820272
30
0
0
SPLINE
5
142
100
AcDbEntity
8
1
62
256
6
ByLayer
370
18
48
1
60
0
100
AcDbSpline
70
4
71
3
72
18
73
14
40
0
40
0
40
0
40
0
40
0.125138563808259
40
0.125138563808259
40
0.250277127616517
40
0.250277127616517
40
0.375415691424776
40
0.375415691424776
40
0.500554255233035
40
0.500554255233035
40
0.750831382849545
40
0.750831382849545
40
1
40
1
40
1
40
1
41
1
10
21.525
20
31.35
30
1.3E-15
41
1
10
21.5565012630106
20
31.35
30
1.3E-15
41
1
10
21.5870695506967
20
31.35
30
1.3E-15
41
1
10
21.6465079567164
20
31.35
30
1.3E-15
41
1
10
21.6747263343055
20
31.35
30
1.3E-15
41
1
10
21.726524899387
20
31.35
30
1.3E-15
41
1
10
21.7503920764479
20
31.35
30
1.3E-15
41
1
10
21.7927084644629
20
31.35
30
1.3E-15
41
1
10
21.811560000832
20
31.35
30
1.3E-15
41
1
10
21.8616219373632
20
31.35
30
1.3E-15
41
1
10
21.8852271070614
20
31.35
30
1.3E-15
41
1
10
21.917160258216
20
31.35
30
1.3E-15
41
1
10
21.9249419236792
20
31.3499999999999
30
1.3E-15
41
1
10
21.9249950000004
20
31.3499999999999
30
1.3E-15
0
SPLINE
5
143
100
AcDbEntity
8
1
62
256
6
ByLayer
370
18
48
1
60
0
100
AcDbSpline
70
4
71
3
72
18
73
14
40
0
40
0
40
0
40
0
40
0.249999999999997
40
0.249999999999997
40
0.374999999999993
40
0.374999999999993
40
0.499999999999989
40
0.499999999999989
40
0.624999999999985
40
0.624999999999985
40
0.74999999999998
40
0.74999999999998
40
1
40
1
40
1
40
1
41
1
10
21.925
20
-45.0464003445336
30
-4E-16
41
1
10
21.925
20
-44.9927973317854
30
-4E-16
41
1
10
21.9149632464786
20
-44.9402648840758
30
-4E-16
41
1
10
21.8855106670945
20
-44.8659784975754
30
-4E-16
41
1
10
21.8734746529813
20
-44.842447702897
30
-4E-16
41
1
10
21.8449915342835
20
-44.7978344149108
30
-4E-16
41
1
10
21.8283257164339
20
-44.7765652710677
30
-4E-16
41
1
10
21.7916763731046
20
-44.7382384548027
30
-4E-16
41
1
10
21.7716526779473
20
-44.721015284677
30
-4E-16
41
1
10
21.7281284714978
20
-44.6905393726375
30
-4E-16
41
1
10
21.7045842047396
20
-44.6773557947653
30
-4E-16
41
1
10
21.6318265144144
20
-44.6457761842377
30
-5E-16
41
1
10
21.5786492755801
20
-44.6344954491475
30
-5E-16
41
1
10
21.5250000000001
20
-44.6344954491475
30
-5E-16
0
SPLINE
5
144
100
AcDbEntity
8
1
62
256
6
ByLayer
370
18
48
1
60
0
100
AcDbSpline
70
4
71
3
72
8
73
4
40
0
40
0
40
0
40
0
40
1
40
1
40
1
40
1
41
1
10
28.95
20
38.2483689194716
30
1.8E-15
41
1
10
28.8500189350371
20
38.2959828478494
30
1.8E-15
41
1
10
28.7500188403065
20
38.3435169308148
30
1.8E-15
41
1
10
28.65
20
38.390971920492
30
1.8E-15
0
SPLINE
5
145
100
AcDbEntity
8
1
62
256
6
ByLayer
370
18
48
1
60
0
100
AcDbSpline
70
4
71
3
72
14
73
10
40
0
40
0
40
0
40
0
40
0.25
40
0.25
40
0.5
40
0.5
40
0.75
40
0.75
40
1
40
1
40
1
40
1
41
1
10
18.0749949995
20
31.35
30
1.1E-15
41
1
10
18.0750050005
20
31.35
30
1.1E-15
41
1
10
18.0827109873343
20
31.35
30
1.1E-15
41
1
10
18.1146122048334
20
31.35
30
1.1E-15
41
1
10
18.1384101878168
20
31.35
30
1.1E-15
41
1
10
18.2048078543951
20
31.35
30
1.1E-15
41
1
10
18.247397269193
20
31.35
30
1.1E-15
41
1
10
18.3510983344911
20
31.35
30
1.1E-15
41
1
10
18.4120098803097
20
31.35
30
1.1E-15
41
1
10
18.475
20
31.35
30
1.1E-15
0
SPLINE
5
146
100
AcDbEntity
8
1
62
256
6
ByLayer
370
18
48
1
60
0
100
AcDbSpline
70
4
71
3
72
32
73
28
40
0
40
0
40
0
40
0
40
0.124999999999998
40
0.124999999999998
40
0.187499999999998
40
0.187499999999998
40
0.249999999999999
40
0.312499999999999
40
0.312499999999999
40
0.374999999999999
40
0.374999999999999
40
0.437499999999999
40
0.437499999999999
40
0.499999999999999
40
0.499999999999999
40
0.624999999999999
40
0.624999999999999
40
0.687499999999999
40
0.687499999999999
40
0.749999999999999
40
0.749999999999999
40
0.8125
40
0.8125
40
0.875
40
0.9375
40
0.9375
40
1
40
1
40
1
40
1
41
1
10
21.5250000000019
20
0.858414235666174
30
1.3E-15
41
1
10
21.4486138383766
20
0.994116664212555
30
1.3E-15
41
1
10
21.3561404265864
20
1.11676450203163
30
1.3E-15
41
1
10
21.1939930689754
20
1.28172754657282
30
1.3E-15
41
1
10
21.1355437147663
20
1.33379249054676
30
1.3E-15
41
1
10
21.0136604445855
20
1.42861976714124
30
1.3E-15
41
1
10
20.8864077405947
20
1.51473188214092
30
1.3E-15
41
1
10
20.7485963096025
20
1.58371054593098
30
1.3E-15
41
1
10
20.6053150684712
20
1.64381543852255
30
1.3E-15
41
1
10
20.5319208736005
20
1.66897198245689
30
1.3E-15
41
1
10
20.3835545576635
20
1.70917909982938
30
1.2E-15
41
1
10
20.3082953177793
20
1.72435099761353
30
1.2E-15
41
1
10
20.1556107313623
20
1.7447686569343
30
1.2E-15
41
1
10
20.0775927438702
20
1.74998930808087
30
1.2E-15
41
1
10
19.8455390654634
20
1.75002133384044
30
1.2E-15
41
1
10
19.693326815634
20
1.72988394172802
30
1.2E-15
41
1
10
19.4687699308151
20
1.66922327357915
30
1.2E-15
41
1
10
19.3950850496608
20
1.64392638340945
30
1.2E-15
41
1
10
19.253188813659
20
1.58451541588252
30
1.2E-15
41
1
10
19.1844879565527
20
1.55027722803914
30
1.2E-15
41
1
10
19.0515837414528
20
1.47272739409149
30
1.2E-15
41
1
10
18.9869551731018
20
1.42907034617878
30
1.2E-15
41
1
10
18.8646369132871
20
1.33396122018692
30
1.2E-15
41
1
10
18.7497152432194
20
1.2316282686383
30
1.1E-15
41
1
10
18.6491776746128
20
1.11524325828748
30
1.1E-15
41
1
10
18.5560102545326
20
0.991656238272725
30
1.1E-15
41
1
10
18.5131930259432
20
0.926265352464981
30
1.1E-15
41
1
10
18.475
20
0.858414235669471
30
1.1E-15
0
SPLINE
5
147
100
AcDbEntity
8
1
62
256
6
ByLayer
370
18
48
1
60
0
100
AcDbSpline
70
4
71
3
72
10
73
6
40
0
40
0
40
0
40
0
40
0.927052019537787
40
0.927052019537787
40
1
40
1
40
1
40
1
41
1
10
29.0402196974093
20
-43.9
30
0
41
1
10
29.0402106790846
20
-43.9
30
0
41
1
10
29.0361011726344
20
-43.9
30
0
41
1
10
29.0281977575254
20
-43.9
30
0
41
1
10
29.0276015075785
20
-43.9
30
0
41
1
10
29.0269866974092
20
-43.9000000000001
30
0
0
SPLINE
5
148
100
AcDbEntity
8
1
62
256
6
ByLayer
370
18
48
1
60
0
100
AcDbSpline
70
4
71
3
72
8
73
4
40
0
40
0
40
0
40
0
40
1
40
1
40
1
40
1
41
1
10
23.2418228527537
20
39.0715226758951
30
1.4E-15
41
1
10
23.3211732352727
20
39.0165389509682
30
1.4E-15
41
1
10
23.4005236177918
20
38.9613725480608
30
1.4E-15
41
1
10
23.4798740003108
20
38.9060242409556
30
1.4E-15
0
SPLINE
5
149
100
AcDbEntity
8
1
62
256
6
ByLayer
370
18
48
1
60
0
100
AcDbSpline
70
4
71
3
72
8
73
4
40
0
40
0
40
0
40
0
40
1
40
1
40
1
40
1
41
1
10
16.5201263938909
20
38.9060242519602
30
1E-15
41
1
10
16.5994767571014
20
38.9613725589015
30
1E-15
41
1
10
16.6788271203118
20
39.0165389616457
30
1E-15
41
1
10
16.7581774835223
20
39.0715226864104
30
1E-15
0
SPLINE
5
14A
100
AcDbEntity
8
1
62
256
6
ByLayer
370
18
48
1
60
0
100
AcDbSpline
70
4
71
3
72
8
73
4
40
0
40
0
40
0
40
0
40
1
40
1
40
1
40
1
41
1
10
16.7581775128683
20
31.1434959483805
30
1E-15
41
1
10
16.6788271513408
20
31.2124765745029
30
1E-15
41
1
10
16.5994767898134
20
31.2813115899456
30
1E-15
41
1
10
16.520126428286
20
31.3500000292054
30
1E-15
0
SPLINE
5
14B
100
AcDbEntity
8
1
62
256
6
ByLayer
370
18
48
1
60
0
100
AcDbSpline
70
4
71
3
72
36
73
32
40
0
40
0
40
0
40
0
40
0.124999999999999
40
0.124999999999999
40
0.156249999999999
40
0.156249999999999
40
0.187499999999999
40
0.187499999999999
40
0.249999999999998
40
0.249999999999998
40
0.312499999999998
40
0.312499999999998
40
0.343749999999997
40
0.343749999999997
40
0.374999999999997
40
0.374999999999997
40
0.499999999999997
40
0.499999999999997
40
0.531249999999997
40
0.531249999999997
40
0.562499999999997
40
0.562499999999997
40
0.624999999999997
40
0.624999999999997
40
0.749999999999997
40
0.749999999999997
40
0.812499999999998
40
0.812499999999998
40
0.874999999999999
40
0.874999999999999
40
1
40
1
40
1
40
1
41
1
10
14.6467511395681
20
38.9060242764537
30
9E-16
41
1
10
13.9832285341507
20
38.9060242764536
30
9E-16
41
1
10
13.3347215217744
20
38.8536007542642
30
8E-16
41
1
10
12.5416814220239
20
38.7255085306534
30
8E-16
41
1
10
12.383963109061
20
38.6967182657897
30
8E-16
41
1
10
12.0703148101885
20
38.6326992925924
30
7E-16
41
1
10
11.9138588463049
20
38.5973313964736
30
7E-16
41
1
10
11.4520623352003
20
38.4825859574488
30
7E-16
41
1
10
11.1540548418276
20
38.3946725236202
30
7E-16
41
1
10
10.5763842373153
20
38.1969250689817
30
6E-16
41
1
10
10.296727818471
20
38.0870837881047
30
6E-16
41
1
10
9.89043876468227
20
37.9059676052274
30
6E-16
41
1
10
9.75721243195869
20
37.8428644174422
30
6E-16
41
1
10
9.49511503861015
20
37.7111519089432
30
6E-16
41
1
10
9.36636914159877
20
37.6425808216338
30
6E-16
41
1
10
8.73987118840057
20
37.28969128934
30
5E-16
41
1
10
8.2878002701184
20
36.9727862939199
30
5E-16
41
1
10
7.77542915937084
20
36.5355105945935
30
5E-16
41
1
10
7.67561378932746
20
36.4459838849724
30
5E-16
41
1
10
7.48116322311799
20
36.2627890675726
30
5E-16
41
1
10
7.38672762762477
20
36.1692900574886
30
5E-16
41
1
10
7.11319814865399
20
35.8850538034043
30
4E-16
41
1
10
6.94309571337084
20
35.6898731010346
30
4E-16
41
1
10
6.46580226958551
20
35.0879379951325
30
4E-16
41
1
10
6.19144846467972
20
34.6648408682257
30
4E-16
41
1
10
5.83544277713793
20
33.9988565429648
30
4E-16
41
1
10
5.72608056235424
20
33.7716238615613
30
4E-16
41
1
10
5.52474719399399
20
33.3067721853349
30
3E-16
41
1
10
5.43318832865455
20
33.0700379330775
30
3E-16
41
1
10
5.18460445300201
20
32.3504831278838
30
3E-16
41
1
10
5.05295798465576
20
31.8569541742863
30
3E-16
41
1
10
4.94999999999999
20
31.35
30
3E-16
0
SPLINE
5
14C
100
AcDbEntity
8
1
62
256
6
ByLayer
370
18
48
1
60
0
100
AcDbSpline
70
4
71
3
72
14
73
10
40
0
40
0
40
0
40
0
40
0.25
40
0.25
40
0.5
40
0.5
40
0.75
40
0.75
40
1
40
1
40
1
40
1
41
1
10
21.925
20
34.1733540203475
30
1.3E-15
41
1
10
21.925
20
34.1108627893629
30
1.3E-15
41
1
10
21.9172890126657
20
34.0494534877724
30
1.3E-15
41
1
10
21.8853877951666
20
33.9289470887802
30
1.3E-15
41
1
10
21.8615898121832
20
33.8714388679173
30
1.3E-15
41
1
10
21.7951921456049
20
33.7660665659034
30
1.3E-15
41
1
10
21.752602730807
20
33.7187708180694
30
1.3E-15
41
1
10
21.6489016655089
20
33.6494788884693
30
1.3E-15
41
1
10
21.5879901196903
20
33.6285314130724
30
1.3E-15
41
1
10
21.525
20
33.6285314130724
30
1.3E-15
0
SPLINE
5
14D
100
AcDbEntity
8
1
62
256
6
ByLayer
370
18
48
1
60
0
100
AcDbSpline
70
4
71
3
72
20
73
16
40
0
40
0
40
0
40
0
40
0.125
40
0.125
40
0.25
40
0.25
40
0.374999999999999
40
0.374999999999999
40
0.499999999999999
40
0.499999999999999
40
0.624999999999999
40
0.624999999999999
40
0.749999999999999
40
0.749999999999999
40
1
40
1
40
1
40
1
41
1
10
18.475
20
0.858414235669471
30
1.1E-15
41
1
10
18.4381192565166
20
0.792894430108078
30
1.1E-15
41
1
10
18.4052262937391
20
0.724440028335607
30
1.1E-15
41
1
10
18.3491306162516
20
0.585445818704017
30
1.1E-15
41
1
10
18.3258178179872
20
0.514901078832906
30
1.1E-15
41
1
10
18.2882314420506
20
0.371291669134024
30
1.1E-15
41
1
10
18.2739591589199
20
0.298227216685262
30
1.1E-15
41
1
10
18.2547369682819
20
0.149041631655877
30
1.1E-15
41
1
10
18.2499356599023
20
0.0731710380609343
30
1.1E-15
41
1
10
18.2500656654469
20
-0.0762169275473923
30
1.1E-15
41
1
10
18.2548912014723
20
-0.150398962549531
30
1.1E-15
41
1
10
18.2739287374885
20
-0.297829755677412
30
1.1E-15
41
1
10
18.2882156932725
20
-0.371367335825965
30
1.1E-15
41
1
10
18.3452562584783
20
-0.58889726897246
30
1.1E-15
41
1
10
18.4007734362341
20
-0.726548400925083
30
1.1E-15
41
1
10
18.475
20
-0.858414235669471
30
1.1E-15
0
SPLINE
5
14E
100
AcDbEntity
8
1
62
256
6
ByLayer
370
18
48
1
60
0
100
AcDbSpline
70
4
71
3
72
8
73
4
40
0
40
0
40
0
40
0
40
1
40
1
40
1
40
1
41
1
10
28.6114756796539
20
48.5807491090779
30
0
41
1
10
28.6243172281563
20
48.5676372062123
30
0
41
1
10
28.6371586683586
20
48.5545251972788
30
0
41
1
10
28.65
20
48.5414130820272
30
0
0
SPLINE
5
14F
100
AcDbEntity
8
1
62
256
6
ByLayer
370
18
48
1
60
0
100
AcDbSpline
70
4
71
3
72
11
73
7
40
0
40
0
40
0
40
0
40
0.134924958098463
40
0.134924958098463
40
0.999116102336725
40
1
40
1
40
1
40
1
41
1
10
29.0251187271578
20
43.9
30
0
41
1
10
29.0264101792331
20
43.9
30
0
41
1
10
29.0276328873675
20
43.9
30
0
41
1
10
29.0361111595005
20
43.9
30
0
41
1
10
29.0402245363571
20
43.9
30
0
41
1
10
29.0402202020765
20
43.9
30
0
41
1
10
29.0402192019765
20
43.9
30
0
0
SPLINE
5
150
100
AcDbEntity
8
1
62
256
6
ByLayer
370
18
48
1
60
0
100
AcDbSpline
70
4
71
3
72
8
73
4
40
0
40
0
40
0
40
0
40
1
40
1
40
1
40
1
41
1
10
28.25
20
-48.6495956112466
30
0
41
1
10
28.372685731087
20
-48.5523146869083
30
0
41
1
10
28.4951955292543
20
-48.4549480071683
30
0
41
1
10
28.6175240057521
20
-48.3574935661475
30
0
0
SPLINE
5
151
100
AcDbEntity
8
1
62
256
6
ByLayer
370
18
48
1
60
0
100
AcDbSpline
70
4
71
3
72
18
73
14
40
0
40
0
40
0
40
0
40
0.125
40
0.125
40
0.25
40
0.25
40
0.375
40
0.375
40
0.5
40
0.5
40
0.75
40
0.75
40
1
40
1
40
1
40
1
41
1
10
21.525
20
44.8695908606263
30
-5E-16
41
1
10
21.5517378464693
20
44.8695908606263
30
-5E-16
41
1
10
21.5780101894623
20
44.8723101582132
30
-5E-16
41
1
10
21.6296644478641
20
44.8829502990312
30
-5E-16
41
1
10
21.6553243182897
20
44.8910115548159
30
-5E-16
41
1
10
21.7040121339361
20
44.911927757222
30
-4E-16
41
1
10
21.7270694103048
20
44.9247079592142
30
-4E-16
41
1
10
21.7706424702431
20
44.9548552263696
30
-4E-16
41
1
10
21.7911169009721
20
44.9722869852765
30
-4E-16
41
1
10
21.8460780376992
20
45.0292352390516
30
-4E-16
41
1
10
21.8754510308215
20
45.0748760654238
30
-4E-16
41
1
10
21.9146673402983
20
45.1727794546347
30
-4E-16
41
1
10
21.925
20
45.2259166074628
30
-4E-16
41
1
10
21.925
20
45.2793571509137
30
-4E-16
0
SPLINE
5
152
100
AcDbEntity
8
1
62
256
6
ByLayer
370
18
48
1
60
0
100
AcDbSpline
70
4
71
3
72
20
73
16
40
0
40
0
40
0
40
0
40
0.124999999999998
40
0.124999999999998
40
0.249999999999996
40
0.249999999999996
40
0.374999999999995
40
0.374999999999995
40
0.499999999999994
40
0.499999999999994
40
0.749999999999993
40
0.749999999999993
40
0.874999999999997
40
0.874999999999997
40
1
40
1
40
1
40
1
41
1
10
21.5250000000008
20
-7.136710259083
30
1.3E-15
41
1
10
21.5619869726805
20
-7.20163360409745
30
1.3E-15
41
1
10
21.594400837076
20
-7.26913256750177
30
1.3E-15
41
1
10
21.6504733659192
20
-7.40851704551065
30
1.3E-15
41
1
10
21.6741677662639
20
-7.4807164171892
30
1.3E-15
41
1
10
21.7119187961555
20
-7.62612871840159
30
1.3E-15
41
1
10
21.7261325980267
20
-7.69963387411966
30
1.3E-15
41
1
10
21.7452313490292
20
-7.84794446503912
30
1.3E-15
41
1
10
21.7500841294777
20
-7.92342527956814
30
1.3E-15
41
1
10
21.7498283660267
20
-8.14552804418634
30
1.3E-15
41
1
10
21.7306632069373
20
-8.28768331434691
30
1.3E-15
41
1
10
21.6737425660449
20
-8.49642199786413
30
1.3E-15
41
1
10
21.6501117172361
20
-8.56471756359053
30
1.3E-15
41
1
10
21.5942520871461
20
-8.69787007479005
30
1.3E-15
41
1
10
21.5619432409418
20
-8.76303532195925
30
1.3E-15
41
1
10
21.525
20
-8.82745624824813
30
1.3E-15
0
LINE
5
7E
100
AcDbEntity
8
SK1
62
256
6
ByLayer
370
18
48
1
60
0
100
AcDbLine
10
-48.25
20
32.225
30
0
11
-48.25
21
32.221419
31
0
39
0
210
0
220
0
230
1
0
LINE
5
80
100
AcDbEntity
8
SK1
62
256
6
ByLayer
370
18
48
1
60
0
100
AcDbLine
10
-48.25
20
-32.225
30
0
11
-48.25
21
-32.221419
31
0
39
0
210
0
220
0
230
1
0
LINE
5
81
100
AcDbEntity
8
SK1
62
256
6
ByLayer
370
13
48
1
60
0
100
AcDbLine
10
-39.778559
20
-31.693112
30
0
11
-36.7
21
-31.693112
31
0
39
0
210
0
220
0
230
1
0
LINE
5
82
100
AcDbEntity
8
SK1
62
256
6
ByLayer
370
18
48
1
60
0
100
AcDbLine
10
-39.8
20
36.013514
30
0
11
-39.8
21
33.731867
31
0
39
0
210
0
220
0
230
1
0
LINE
5
83
100
AcDbEntity
8
SK1
62
256
6
ByLayer
370
13
48
1
60
0
100
AcDbLine
10
-41.7
20
32.225
30
0
11
-41.7
21
32.030907
31
0
39
0
210
0
220
0
230
1
0
LINE
5
84
100
AcDbEntity
8
SK1
62
256
6
ByLayer
370
13
48
1
60
0
100
AcDbLine
10
-48.000075
20
32.218019
30
0
11
-48.000075
21
-32.218019
31
0
39
0
210
0
220
0
230
1
0
LINE
5
85
100
AcDbEntity
8
SK1
62
256
6
ByLayer
370
18
48
1
60
0
100
AcDbLine
10
-34.8
20
-33.855185
30
0
11
-34.8
21
-36.264015
31
0
39
0
210
0
220
0
230
1
0
LINE
5
86
100
AcDbEntity
8
SK1
62
256
6
ByLayer
370
18
48
1
60
0
100
AcDbLine
10
-2.5
20
37.882252
30
0
11
-2.5
21
0
31
0
39
0
210
0
220
0
230
1
0
LINE
5
87
100
AcDbEntity
8
SK1
62
256
6
ByLayer
370
18
48
1
60
0
100
AcDbLine
10
-2.5
20
0
30
0
11
-2.5
21
-37.882252
31
0
39
0
210
0
220
0
230
1
0
LINE
5
88
100
AcDbEntity
8
SK1
62
256
6
ByLayer
370
13
48
1
60
0
100
AcDbLine
10
-49.589566
20
30.49955
30
0
11
-48.969717
21
31.05184
31
0
39
0
210
0
220
0
230
1
0
LINE
5
89
100
AcDbEntity
8
SK1
62
256
6
ByLayer
370
18
48
1
60
0
100
AcDbLine
10
-2.066987
20
37.632252
30
0
11
-2.066987
21
0
31
0
39
0
210
0
220
0
230
1
0
LINE
5
8A
100
AcDbEntity
8
SK1
62
256
6
ByLayer
370
18
48
1
60
0
100
AcDbLine
10
-2.066987
20
0
30
0
11
-2.066987
21
-37.632252
31
0
39
0
210
0
220
0
230
1
0
LINE
5
8B
100
AcDbEntity
8
SK1
62
256
6
ByLayer
370
13
48
1
60
0
100
AcDbLine
10
-0.8
20
0
30
0
11
-0.8
21
37.632252
31
0
39
0
210
0
220
0
230
1
0
LINE
5
8C
100
AcDbEntity
8
SK1
62
256
6
ByLayer
370
13
48
1
60
0
100
AcDbLine
10
-0.8
20
-37.632252
30
0
11
-0.8
21
0
31
0
39
0
210
0
220
0
230
1
0
LINE
5
8D
100
AcDbEntity
8
SK1
62
256
6
ByLayer
370
18
48
1
60
0
100
AcDbLine
10
-49.9
20
-30.486326
30
0
11
-49.9
21
30.486326
31
0
39
0
210
0
220
0
230
1
0
LINE
5
8E
100
AcDbEntity
8
SK1
62
256
6
ByLayer
370
13
48
1
60
0
100
AcDbLine
10
-49.589566
20
-30.49955
30
0
11
-48.969717
21
-31.05184
31
0
39
0
210
0
220
0
230
1
0
LINE
5
8F
100
AcDbEntity
8
SK1
62
256
6
ByLayer
370
13
48
1
60
0
100
AcDbLine
10
-36.7
20
-31.693112
30
0
11
-36.7
21
-32.225
31
0
39
0
210
0
220
0
230
1
0
LINE
5
90
100
AcDbEntity
8
SK1
62
256
6
ByLayer
370
13
48
1
60
0
100
AcDbLine
10
-36.7
20
-31.693112
30
0
11
-36.7
21
-30.51674
31
0
39
0
210
0
220
0
230
1
0
LINE
5
91
100
AcDbEntity
8
1
62
256
6
ByLayer
370
18
48
1
60
0
100
AcDbLine
10
4.65
20
-49.965
30
0
11
4.65
21
-49.954441
31
0
39
0
210
0
220
0
230
1
0
LINE
5
92
100
AcDbEntity
8
1
62
256
6
ByLayer
370
18
48
1
60
0
100
AcDbLine
10
28.65
20
31.55
30
0
11
28.95
21
31.55
31
0
39
0
210
0
220
0
230
1
0
LINE
5
93
100
AcDbEntity
8
1
62
256
6
ByLayer
370
13
48
1
60
0
100
AcDbLine
10
18.475
20
44.869591
30
0
11
18.475
21
33.628531
31
0
39
0
210
0
220
0
230
1
0
LINE
5
94
100
AcDbEntity
8
1
62
256
6
ByLayer
370
18
48
1
60
0
100
AcDbLine
10
28.25
20
31.35
30
0
11
23.479874
21
31.35
31
0
39
0
210
0
220
0
230
1
0
LINE
5
95
100
AcDbEntity
8
1
62
256
6
ByLayer
370
18
48
1
60
0
100
AcDbLine
10
16.758178
20
48.875313
30
0
11
16.758178
21
39.071523
31
0
39
0
210
0
220
0
230
1
0
LINE
5
96
100
AcDbEntity
8
1
62
256
6
ByLayer
370
18
48
1
60
0
100
AcDbLine
10
18.075
20
34.173354
30
0
11
18.075
21
35.395186
31
0
39
0
210
0
220
0
230
1
0
LINE
5
97
100
AcDbEntity
8
1
62
256
6
ByLayer
370
18
48
1
60
0
100
AcDbLine
10
28.95
20
31.618424
30
0
11
28.95
21
38.248369
31
0
39
0
210
0
220
0
230
1
0
LINE
5
98
100
AcDbEntity
8
1
62
256
6
ByLayer
370
13
48
1
60
0
100
AcDbLine
10
21.525
20
-44.634495
30
0
11
21.525
21
-8.827456
31
0
39
0
210
0
220
0
230
1
0
LINE
5
99
100
AcDbEntity
8
1
62
256
6
ByLayer
370
13
48
1
60
0
100
AcDbLine
10
18.475
20
7.13671
30
0
11
18.475
21
0.858414
31
0
39
0
210
0
220
0
230
1
0
LINE
5
9A
100
AcDbEntity
8
1
62
256
6
ByLayer
370
13
48
1
60
0
100
AcDbLine
10
14.646751
20
31.35
30
0
11
14.646751
21
38.906024
31
0
39
0
210
0
220
0
230
1
0
LINE
5
9B
100
AcDbEntity
8
1
62
256
6
ByLayer
370
18
48
1
60
0
100
AcDbLine
10
28.25
20
38.906024
30
0
11
28.25
21
48.8742
31
0
39
0
210
0
220
0
230
1
0
LINE
5
9C
100
AcDbEntity
8
1
62
256
6
ByLayer
370
18
48
1
60
0
100
AcDbLine
10
28.25
20
48.8742
30
0
11
23.238002
21
48.8742
31
0
39
0
210
0
220
0
230
1
0
LINE
5
9D
100
AcDbEntity
8
1
62
256
6
ByLayer
370
13
48
1
60
0
100
AcDbLine
10
67
20
0
30
0
11
67
21
20.833645
31
0
39
0
210
0
220
0
230
1
0
LINE
5
9E
100
AcDbEntity
8
1
62
256
6
ByLayer
370
13
48
1
60
0
100
AcDbLine
10
67
20
-20.833645
30
0
11
67
21
0
31
0
39
0
210
0
220
0
230
1
0
LINE
5
9F
100
AcDbEntity
8
1
62
256
6
ByLayer
370
13
48
1
60
0
100
AcDbLine
10
29.434075
20
43.458456
30
0
11
29.434075
21
-43.458456
31
0
39
0
210
0
220
0
230
1
0
LINE
5
A0
100
AcDbEntity
8
1
62
256
6
ByLayer
370
18
48
1
60
0
100
AcDbLine
10
14.95
20
-48.649596
30
0
11
16.758178
21
-48.649596
31
0
39
0
210
0
220
0
230
1
0
LINE
5
A1
100
AcDbEntity
8
1
62
256
6
ByLayer
370
18
48
1
60
0
100
AcDbLine
10
28.95
20
31.05
30
0
11
28.95
21
-47.946587
31
0
39
0
210
0
220
0
230
1
0
LINE
5
A2
100
AcDbEntity
8
1
62
256
6
ByLayer
370
18
48
1
60
0
100
AcDbLine
10
16.758178
20
48.8742
30
0
11
14.961
21
48.8742
31
0
39
0
210
0
220
0
230
1
0
LINE
5
A3
100
AcDbEntity
8
1
62
256
6
ByLayer
370
18
48
1
60
0
100
AcDbLine
10
18.475
20
31.35
30
0
11
21.525
21
31.35
31
0
39
0
210
0
220
0
230
1
0
LINE
5
A4
100
AcDbEntity
8
1
62
256
6
ByLayer
370
18
48
1
60
0
100
AcDbLine
10
16.520127
20
31.35
30
0
11
4.95
21
31.35
31
0
39
0
210
0
220
0
230
1
0
LINE
5
A5
100
AcDbEntity
8
1
62
256
6
ByLayer
370
18
48
1
60
0
100
AcDbLine
10
28.95
20
31.35
30
0
11
28.95
21
31.119523
31
0
39
0
210
0
220
0
230
1
0
LINE
5
A6
100
AcDbEntity
8
1
62
256
6
ByLayer
370
13
48
1
60
0
100
AcDbLine
10
21.525
20
33.628531
30
0
11
21.525
21
44.869591
31
0
39
0
210
0
220
0
230
1
0
LINE
5
A7
100
AcDbEntity
8
1
62
256
6
ByLayer
370
18
48
1
60
0
100
AcDbLine
10
16.758178
20
31.143496
30
0
11
16.758178
21
-48.651054
31
0
39
0
210
0
220
0
230
1
0
LINE
5
A8
100
AcDbEntity
8
1
62
256
6
ByLayer
370
18
48
1
60
0
100
AcDbLine
10
23.479874
20
38.906024
30
0
11
28.25
21
38.906024
31
0
39
0
210
0
220
0
230
1
0
LINE
5
A9
100
AcDbEntity
8
1
62
256
6
ByLayer
370
13
48
1
60
0
100
AcDbLine
10
70
20
0
30
0
11
70
21
20
31
0
39
0
210
0
220
0
230
1
0
LINE
5
AA
100
AcDbEntity
8
1
62
256
6
ByLayer
370
13
48
1
60
0
100
AcDbLine
10
70
20
-20
30
0
11
70
21
0
31
0
39
0
210
0
220
0
230
1
0
LINE
5
AB
100
AcDbEntity
8
1
62
256
6
ByLayer
370
18
48
1
60
0
100
AcDbLine
10
23.241822
20
39.071523
30
0
11
23.241822
21
48.875313
31
0
39
0
210
0
220
0
230
1
0
LINE
5
AC
100
AcDbEntity
8
1
62
256
6
ByLayer
370
18
48
1
60
0
100
AcDbLine
10
28.95
20
31.55
30
0
11
28.95
21
31.35
31
0
39
0
210
0
220
0
230
1
0
LINE
5
AD
100
AcDbEntity
8
1
62
256
6
ByLayer
370
13
48
1
60
0
100
AcDbLine
10
18.475
20
-0.858414
30
0
11
18.475
21
-7.13671
31
0
39
0
210
0
220
0
230
1
0
LINE
5
AE
100
AcDbEntity
8
1
62
256
6
ByLayer
370
13
48
1
60
0
100
AcDbLine
10
21.525
20
8.827456
30
0
11
21.525
21
31.35
31
0
39
0
210
0
220
0
230
1
0
LINE
5
AF
100
AcDbEntity
8
1
62
256
6
ByLayer
370
18
48
1
60
0
100
AcDbLine
10
18.075
20
46.546604
30
0
11
18.075
21
36.105206
31
0
39
0
210
0
220
0
230
1
0
LINE
5
B0
100
AcDbEntity
8
1
62
256
6
ByLayer
370
18
48
1
60
0
100
AcDbLine
10
0
20
49.265
30
0
11
0
21
0
31
0
39
0
210
0
220
0
230
1
0
LINE
5
B1
100
AcDbEntity
8
1
62
256
6
ByLayer
370
18
48
1
60
0
100
AcDbLine
10
0
20
0
30
0
11
0
21
-49.265
31
0
39
0
210
0
220
0
230
1
0
LINE
5
B2
100
AcDbEntity
8
1
62
256
6
ByLayer
370
18
48
1
60
0
100
AcDbLine
10
28.65
20
31.35
30
0
11
28.95
21
31.35
31
0
39
0
210
0
220
0
230
1
0
LINE
5
B3
100
AcDbEntity
8
1
62
256
6
ByLayer
370
18
48
1
60
0
100
AcDbLine
10
28.951234
20
31.55
30
0
11
28.949996
21
31.55
31
0
39
0
210
0
220
0
230
1
0
LINE
5
B4
100
AcDbEntity
8
1
62
256
6
ByLayer
370
18
48
1
60
0
100
AcDbLine
10
28.95
20
48.171747
30
0
11
28.95
21
38.248369
31
0
39
0
210
0
220
0
230
1
0
LINE
5
B5
100
AcDbEntity
8
1
62
256
6
ByLayer
370
13
48
1
60
0
100
AcDbLine
10
21.525
20
0.858414
30
0
11
21.525
21
7.13671
31
0
39
0
210
0
220
0
230
1
0
LINE
5
B6
100
AcDbEntity
8
1
62
256
6
ByLayer
370
18
48
1
60
0
100
AcDbLine
10
23.237164
20
-48.649596
30
0
11
28.25
21
-48.649596
31
0
39
0
210
0
220
0
230
1
0
LINE
5
B7
100
AcDbEntity
8
1
62
256
6
ByLayer
370
18
48
1
60
0
100
AcDbLine
10
90
20
0
30
0
11
90
21
19.7
31
0
39
0
210
0
220
0
230
1
0
LINE
5
B8
100
AcDbEntity
8
1
62
256
6
ByLayer
370
18
48
1
60
0
100
AcDbLine
10
90
20
-19.7
30
0
11
90
21
0
31
0
39
0
210
0
220
0
230
1
0
LINE
5
B9
100
AcDbEntity
8
1
62
256
6
ByLayer
370
18
48
1
60
0
100
AcDbLine
10
21.925
20
31.147982
30
0
11
21.925
21
-46.312067
31
0
39
0
210
0
220
0
230
1
0
LINE
5
BA
100
AcDbEntity
8
1
62
256
6
ByLayer
370
18
48
1
60
0
100
AcDbLine
10
23.241822
20
-48.651054
30
0
11
23.241822
21
31.143496
31
0
39
0
210
0
220
0
230
1
0
LINE
5
BB
100
AcDbEntity
8
1
62
256
6
ByLayer
370
18
48
1
60
0
100
AcDbLine
10
0.7
20
49.965
30
0
11
0.7
21
-49.965
31
0
39
0
210
0
220
0
230
1
0
LINE
5
BC
100
AcDbEntity
8
1
62
256
6
ByLayer
370
18
48
1
60
0
100
AcDbLine
10
18.475
20
44.869591
30
0
11
21.525
21
44.869591
31
0
39
0
210
0
220
0
230
1
0
LINE
5
BD
100
AcDbEntity
8
1
62
256
6
ByLayer
370
18
48
1
60
0
100
AcDbLine
10
28.65
20
31.55
30
0
11
28.65
21
38.390972
31
0
39
0
210
0
220
0
230
1
0
LINE
5
BE
100
AcDbEntity
8
1
62
256
6
ByLayer
370
18
48
1
60
0
100
AcDbLine
10
18.075
20
31.147982
30
0
11
18.075
21
-46.312067
31
0
39
0
210
0
220
0
230
1
0
LINE
5
BF
100
AcDbEntity
8
1
62
256
6
ByLayer
370
13
48
1
60
0
100
AcDbLine
10
21.525
20
-7.13671
30
0
11
21.525
21
-0.858414
31
0
39
0
210
0
220
0
230
1
0
LINE
5
C0
100
AcDbEntity
8
1
62
256
6
ByLayer
370
18
48
1
60
0
100
AcDbLine
10
14.646751
20
38.906024
30
0
11
16.520126
21
38.906024
31
0
39
0
210
0
220
0
230
1
0
LINE
5
C1
100
AcDbEntity
8
1
62
256
6
ByLayer
370
18
48
1
60
0
100
AcDbLine
10
18.475
20
33.628531
30
0
11
21.525
21
33.628531
31
0
39
0
210
0
220
0
230
1
0
LINE
5
C2
100
AcDbEntity
8
1
62
256
6
ByLayer
370
18
48
1
60
0
100
AcDbLine
10
21.925
20
35.395185
30
0
11
21.925
21
34.173354
31
0
39
0
210
0
220
0
230
1
0
LINE
5
C3
100
AcDbEntity
8
1
62
256
6
ByLayer
370
18
48
1
60
0
100
AcDbLine
10
89.7
20
0
30
0
11
89.7
21
20
31
0
39
0
210
0
220
0
230
1
0
LINE
5
C4
100
AcDbEntity
8
1
62
256
6
ByLayer
370
18
48
1
60
0
100
AcDbLine
10
89.7
20
-20
30
0
11
89.7
21
0
31
0
39
0
210
0
220
0
230
1
0
LINE
5
C5
100
AcDbEntity
8
1
62
256
6
ByLayer
370
18
48
1
60
0
100
AcDbLine
10
28.25
20
-48.649596
30
0
11
28.25
21
31.35
31
0
39
0
210
0
220
0
230
1
0
LINE
5
C6
100
AcDbEntity
8
1
62
256
6
ByLayer
370
13
48
1
60
0
100
AcDbLine
10
18.475
20
31.35
30
0
11
18.475
21
8.827456
31
0
39
0
210
0
220
0
230
1
0
LINE
5
C7
100
AcDbEntity
8
1
62
256
6
ByLayer
370
18
48
1
60
0
100
AcDbLine
10
21.925
20
46.546604
30
0
11
21.925
21
36.105206
31
0
39
0
210
0
220
0
230
1
0
LINE
5
C8
100
AcDbEntity
8
1
62
256
6
ByLayer
370
13
48
1
60
0
100
AcDbLine
10
18.475
20
-8.827456
30
0
11
18.475
21
-44.634495
31
0
39
0
210
0
220
0
230
1
0
LINE
5
C9
100
AcDbEntity
8
1
62
256
6
ByLayer
370
18
48
1
60
0
100
AcDbLine
10
21.525
20
-44.634495
30
0
11
18.475
21
-44.634495
31
0
39
0
210
0
220
0
230
1
0
LINE
5
CA
100
AcDbEntity
8
SK1
62
256
6
ByLayer
370
18
48
1
60
0
100
AcDbLine
10
92.9
20
-7
30
0
11
92.9
21
7
31
0
39
0
210
0
220
0
230
1
0
LINE
5
CB
100
AcDbEntity
8
SK1
62
256
6
ByLayer
370
18
48
1
60
0
100
AcDbLine
10
94.1
20
-5.8
30
0
11
94.1
21
5.8
31
0
39
0
210
0
220
0
230
1
0
LINE
5
CC
100
AcDbEntity
8
SK4
62
256
6
ByLayer
370
18
48
0.05
60
0
100
AcDbLine
10
-55
20
0
30
0
11
95
21
0
31
0
39
0
210
0
220
0
230
1
0
LINE
5
CE
100
AcDbEntity
8
SK1
62
256
6
ByLayer
370
18
48
1
60
0
100
AcDbLine
10
94.1
20
5.8
30
0
11
92.9
21
7
31
0
39
0
210
0
220
0
230
1
0
LINE
5
CF
100
AcDbEntity
8
SK1
62
256
6
ByLayer
370
18
48
1
60
0
100
AcDbLine
10
92.9
20
-7
30
0
11
94.1
21
-5.8
31
0
39
0
210
0
220
0
230
1
0
LINE
5
D0
100
AcDbEntity
8
SK1
62
256
6
ByLayer
370
18
48
1
60
0
100
AcDbLine
10
90
20
-7
30
0
11
92.9
21
-7
31
0
39
0
210
0
220
0
230
1
0
LINE
5
D1
100
AcDbEntity
8
SK1
62
256
6
ByLayer
370
18
48
1
60
0
100
AcDbLine
10
92.9
20
7
30
0
11
90
21
7
31
0
39
0
210
0
220
0
230
1
0
LINE
5
D2
100
AcDbEntity
8
SK1
62
256
6
ByLayer
370
18
48
1
60
0
100
AcDbLine
10
-41.7
20
32.225
30
0
11
-48.25
21
32.225
31
0
39
0
210
0
220
0
230
1
0
LINE
5
D3
100
AcDbEntity
8
SK1
62
256
6
ByLayer
370
18
48
1
60
0
100
AcDbLine
10
-48.25
20
32.225
30
0
11
-49.849203
21
30.625797
31
0
39
0
210
0
220
0
230
1
0
LINE
5
D4
100
AcDbEntity
8
SK1
62
256
6
ByLayer
370
18
48
1
60
0
100
AcDbLine
10
-49.849858
20
-30.625142
30
0
11
-48.25
21
-32.225
31
0
39
0
210
0
220
0
230
1
0
LINE
5
D5
100
AcDbEntity
8
SK1
62
256
6
ByLayer
370
18
48
1
60
0
100
AcDbLine
10
-48.25
20
-32.225
30
0
11
-36.7
21
-32.225
31
0
39
0
210
0
220
0
230
1
0
LINE
5
D6
100
AcDbEntity
8
SK1
62
256
6
ByLayer
370
18
48
1
60
0
100
AcDbLine
10
-2.066987
20
-37.632252
30
0
11
-0.8
21
-37.632252
31
0
39
0
210
0
220
0
230
1
0
LINE
5
D7
100
AcDbEntity
8
SK1
62
256
6
ByLayer
370
18
48
1
60
0
100
AcDbLine
10
-0.8
20
37.632252
30
0
11
-2.066987
21
37.632252
31
0
39
0
210
0
220
0
230
1
0
LINE
5
D8
100
AcDbEntity
8
SK1
62
256
6
ByLayer
370
18
48
1
60
0
100
AcDbLine
10
-34.8
20
-36.264015
30
0
11
-21.463745
21
-36.932164
31
0
39
0
210
0
220
0
230
1
0
LINE
5
D9
100
AcDbEntity
8
SK1
62
256
6
ByLayer
370
18
48
1
60
0
100
AcDbLine
10
-8.583769
20
-37.577453
30
0
11
-2.5
21
-37.882252
31
0
39
0
210
0
220
0
230
1
0
LINE
5
DA
100
AcDbEntity
8
SK1
62
256
6
ByLayer
370
18
48
1
60
0
100
AcDbLine
10
-2.5
20
37.882252
30
0
11
-8.582839
21
37.5775
31
0
39
0
210
0
220
0
230
1
0
LINE
5
DB
100
AcDbEntity
8
SK1
62
256
6
ByLayer
370
18
48
1
60
0
100
AcDbLine
10
-21.461266
20
36.932288
30
0
11
-39.8
21
36.013514
31
0
39
0
210
0
220
0
230
1
0
LINE
5
DC
100
AcDbEntity
8
SK1
62
256
6
ByLayer
370
18
48
1
60
0
100
AcDbLine
10
-2.066987
20
37.632252
30
0
11
-2.5
21
37.882252
31
0
39
0
210
0
220
0
230
1
0
LINE
5
DD
100
AcDbEntity
8
SK1
62
256
6
ByLayer
370
18
48
1
60
0
100
AcDbLine
10
-2.5
20
-37.882252
30
0
11
-2.066987
21
-37.632252
31
0
39
0
210
0
220
0
230
1
0
LINE
5
DE
100
AcDbEntity
8
1
62
256
6
ByLayer
370
18
48
1
60
0
100
AcDbLine
10
90
20
19.7
30
0
11
89.7
21
20
31
0
39
0
210
0
220
0
230
1
0
LINE
5
DF
100
AcDbEntity
8
1
62
256
6
ByLayer
370
18
48
1
60
0
100
AcDbLine
10
89.7
20
-20
30
0
11
90
21
-19.7
31
0
39
0
210
0
220
0
230
1
0
LINE
5
E0
100
AcDbEntity
8
1
62
256
6
ByLayer
370
18
48
1
60
0
100
AcDbLine
10
89.7
20
20
30
0
11
70
21
20
31
0
39
0
210
0
220
0
230
1
0
LINE
5
E1
100
AcDbEntity
8
1
62
256
6
ByLayer
370
18
48
1
60
0
100
AcDbLine
10
70
20
-20
30
0
11
89.7
21
-20
31
0
39
0
210
0
220
0
230
1
0
LINE
5
E2
100
AcDbEntity
8
1
62
256
6
ByLayer
370
18
48
1
60
0
100
AcDbLine
10
67
20
20.833645
30
0
11
29.434075
21
43.458456
31
0
39
0
210
0
220
0
230
1
0
LINE
5
E3
100
AcDbEntity
8
1
62
256
6
ByLayer
370
18
48
1
60
0
100
AcDbLine
10
29.434075
20
-43.458456
30
0
11
67
21
-20.833645
31
0
39
0
210
0
220
0
230
1
0
LINE
5
E4
100
AcDbEntity
8
1
62
256
6
ByLayer
370
18
48
1
60
0
100
AcDbLine
10
0
20
-49.265
30
0
11
0.7
21
-49.965
31
0
39
0
210
0
220
0
230
1
0
LINE
5
E5
100
AcDbEntity
8
1
62
256
6
ByLayer
370
18
48
1
60
0
100
AcDbLine
10
0.7
20
49.965
30
0
11
0
21
49.265
31
0
39
0
210
0
220
0
230
1
0
LINE
5
E6
100
AcDbEntity
8
1
62
256
6
ByLayer
370
18
48
1
60
0
100
AcDbLine
10
0.7
20
-49.965
30
0
11
4.65
21
-49.965
31
0
39
0
210
0
220
0
230
1
0
LINE
5
E7
100
AcDbEntity
8
4
62
256
6
ByLayer
370
18
48
0.05
60
0
100
AcDbLine
10
0
20
0
30
0
11
90
21
0
31
0
39
0
210
0
220
0
230
1
0
LINE
5
E9
100
AcDbEntity
8
80
62
256
6
ByLayer
370
18
48
1
60
0
100
AcDbLine
10
0
20
0
30
0
11
-6.08897
21
0
31
0
39
0
210
0
220
0
230
1
0
LINE
5
EA
100
AcDbEntity
8
1
62
256
6
ByLayer
370
18
48
1
60
0
100
AcDbLine
10
4.649535
20
49.965
30
0
11
0.7
21
49.965
31
0
39
0
210
0
220
0
230
1
0
LINE
5
EB
100
AcDbEntity
8
81
62
256
6
ByLayer
370
18
48
1
60
0
100
AcDbLine
10
90
20
0
30
0
11
92.367097
21
0
31
0
39
0
210
0
220
0
230
1
0
LINE
5
EC
100
AcDbEntity
8
SK2
62
256
6
ByLayer
370
13
48
1
60
0
100
AcDbLine
10
-71.6
20
50
30
0
11
-71.6
21
-50
31
0
39
0
210
0
220
0
230
1
0
LINE
5
EE
100
AcDbEntity
8
SK2
62
256
6
ByLayer
370
13
48
1
60
0
100
AcDbLine
10
-1.5875
20
-50
30
0
11
-73.6
21
-50
31
0
39
0
210
0
220
0
230
1
0
LINE
5
EF
100
AcDbEntity
8
SK2
62
256
6
ByLayer
370
13
48
1
60
0
100
AcDbLine
10
-1.5875
20
50
30
0
11
-73.6
21
50
31
0
39
0
210
0
220
0
230
1
0
LINE
5
F0
100
AcDbEntity
8
1
62
256
6
ByLayer
370
18
48
1
60
1
100
AcDbLine
10
-71.6
20
-50
30
0
11
-72.060784
21
-46.500002
31
0
39
0
210
0
220
0
230
1
0
LINE
5
F1
100
AcDbEntity
8
1
62
256
6
ByLayer
370
18
48
1
60
1
100
AcDbLine
10
-72.060784
20
-46.500002
30
0
11
-71.139216
21
-46.499998
31
0
39
0
210
0
220
0
230
1
0
LINE
5
F2
100
AcDbEntity
8
1
62
256
6
ByLayer
370
18
48
1
60
1
100
AcDbLine
10
-71.139216
20
-46.499998
30
0
11
-71.6
21
-50
31
0
39
0
210
0
220
0
230
1
0
LINE
5
F3
100
AcDbEntity
8
1
62
256
6
ByLayer
370
18
48
1
60
1
100
AcDbLine
10
-71.6
20
50
30
0
11
-71.139216
21
46.500002
31
0
39
0
210
0
220
0
230
1
0
LINE
5
F4
100
AcDbEntity
8
1
62
256
6
ByLayer
370
18
48
1
60
1
100
AcDbLine
10
-71.139216
20
46.500002
30
0
11
-72.060784
21
46.499998
31
0
39
0
210
0
220
0
230
1
0
LINE
5
F5
100
AcDbEntity
8
1
62
256
6
ByLayer
370
18
48
1
60
1
100
AcDbLine
10
-72.060784
20
46.499998
30
0
11
-71.6
21
50
31
0
39
0
210
0
220
0
230
1
0
LINE
5
F6
100
AcDbEntity
8
SK2
62
256
6
ByLayer
370
13
48
1
60
0
100
AcDbLine
10
115.1
20
20
30
0
11
115.1
21
-20
31
0
39
0
210
0
220
0
230
1
0
LINE
5
F7
100
AcDbEntity
8
SK2
62
256
6
ByLayer
370
13
48
1
60
0
100
AcDbLine
10
91.5875
20
-20
30
0
11
117.1
21
-20
31
0
39
0
210
0
220
0
230
1
0
LINE
5
F8
100
AcDbEntity
8
SK2
62
256
6
ByLayer
370
13
48
1
60
0
100
AcDbLine
10
91.5875
20
20
30
0
11
117.1
21
20
31
0
39
0
210
0
220
0
230
1
0
LINE
5
F9
100
AcDbEntity
8
1
62
256
6
ByLayer
370
18
48
1
60
1
100
AcDbLine
10
115.1
20
-20
30
0
11
114.639216
21
-16.500002
31
0
39
0
210
0
220
0
230
1
0
LINE
5
FA
100
AcDbEntity
8
1
62
256
6
ByLayer
370
18
48
1
60
1
100
AcDbLine
10
114.639216
20
-16.500002
30
0
11
115.560784
21
-16.499998
31
0
39
0
210
0
220
0
230
1
0
LINE
5
FB
100
AcDbEntity
8
1
62
256
6
ByLayer
370
18
48
1
60
1
100
AcDbLine
10
115.560784
20
-16.499998
30
0
11
115.1
21
-20
31
0
39
0
210
0
220
0
230
1
0
LINE
5
FC
100
AcDbEntity
8
1
62
256
6
ByLayer
370
18
48
1
60
1
100
AcDbLine
10
115.1
20
20
30
0
11
115.560784
21
16.500002
31
0
39
0
210
0
220
0
230
1
0
LINE
5
FD
100
AcDbEntity
8
1
62
256
6
ByLayer
370
18
48
1
60
1
100
AcDbLine
10
115.560784
20
16.500002
30
0
11
114.639216
21
16.499998
31
0
39
0
210
0
220
0
230
1
0
LINE
5
FE
100
AcDbEntity
8
1
62
256
6
ByLayer
370
18
48
1
60
1
100
AcDbLine
10
114.639216
20
16.499998
30
0
11
115.1
21
20
31
0
39
0
210
0
220
0
230
1
0
LINE
5
157
100
AcDbEntity
8
1
62
256
6
ByLayer
370
18
48
1
60
1
100
AcDbLine
10
-71.6
20
-50
30
0
11
-72.060784
21
-46.500002
31
0
39
0
210
0
220
0
230
1
0
LINE
5
158
100
AcDbEntity
8
1
62
256
6
ByLayer
370
18
48
1
60
1
100
AcDbLine
10
-72.060784
20
-46.500002
30
0
11
-71.139216
21
-46.499998
31
0
39
0
210
0
220
0
230
1
0
LINE
5
159
100
AcDbEntity
8
1
62
256
6
ByLayer
370
18
48
1
60
1
100
AcDbLine
10
-71.139216
20
-46.499998
30
0
11
-71.6
21
-50
31
0
39
0
210
0
220
0
230
1
0
LINE
5
15B
100
AcDbEntity
8
1
62
256
6
ByLayer
370
18
48
1
60
1
100
AcDbLine
10
-71.6
20
50
30
0
11
-71.139216
21
46.500002
31
0
39
0
210
0
220
0
230
1
0
LINE
5
15C
100
AcDbEntity
8
1
62
256
6
ByLayer
370
18
48
1
60
1
100
AcDbLine
10
-71.139216
20
46.500002
30
0
11
-72.060784
21
46.499998
31
0
39
0
210
0
220
0
230
1
0
LINE
5
15D
100
AcDbEntity
8
1
62
256
6
ByLayer
370
18
48
1
60
1
100
AcDbLine
10
-72.060784
20
46.499998
30
0
11
-71.6
21
50
31
0
39
0
210
0
220
0
230
1
0
LINE
5
161
100
AcDbEntity
8
1
62
256
6
ByLayer
370
18
48
1
60
1
100
AcDbLine
10
115.1
20
-20
30
0
11
114.639216
21
-16.500002
31
0
39
0
210
0
220
0
230
1
0
LINE
5
162
100
AcDbEntity
8
1
62
256
6
ByLayer
370
18
48
1
60
1
100
AcDbLine
10
114.639216
20
-16.500002
30
0
11
115.560784
21
-16.499998
31
0
39
0
210
0
220
0
230
1
0
LINE
5
163
100
AcDbEntity
8
1
62
256
6
ByLayer
370
18
48
1
60
1
100
AcDbLine
10
115.560784
20
-16.499998
30
0
11
115.1
21
-20
31
0
39
0
210
0
220
0
230
1
0
LINE
5
165
100
AcDbEntity
8
1
62
256
6
ByLayer
370
18
48
1
60
1
100
AcDbLine
10
115.1
20
20
30
0
11
115.560784
21
16.500002
31
0
39
0
210
0
220
0
230
1
0
LINE
5
166
100
AcDbEntity
8
1
62
256
6
ByLayer
370
18
48
1
60
1
100
AcDbLine
10
115.560784
20
16.500002
30
0
11
114.639216
21
16.499998
31
0
39
0
210
0
220
0
230
1
0
LINE
5
167
100
AcDbEntity
8
1
62
256
6
ByLayer
370
18
48
1
60
1
100
AcDbLine
10
114.639216
20
16.499998
30
0
11
115.1
21
20
31
0
39
0
210
0
220
0
230
1
0
MTEXT
5
153
100
AcDbEntity
8
SK2
62
256
6
ByLayer
370
18
48
1
60
0
100
AcDbMText
10
-73.164634
20
-4.525121
30
0
210
0
220
0
230
1
1
%%c
40
3.5
41
0
44
1.084337
50
90
71
7
72
5
7
iso_b_vert
0
MTEXT
5
156
100
AcDbEntity
8
SK2
62
256
6
ByLayer
370
18
48
1
60
0
100
AcDbMText
10
-73.164634
20
0.697535
30
0
210
0
220
0
230
1
1
\W0.6217;100
40
3.5
41
0
44
1.084337
50
90
71
7
72
5
7
iso_b_vert
0
MTEXT
5
15F
100
AcDbEntity
8
SK2
62
256
6
ByLayer
370
18
48
1
60
0
100
AcDbMText
10
113.535366
20
-3.839355
30
0
210
0
220
0
230
1
1
%%c
40
3.5
41
0
44
1.084337
50
90
71
7
72
5
7
iso_b_vert
0
MTEXT
5
160
100
AcDbEntity
8
SK2
62
256
6
ByLayer
370
18
48
1
60
0
100
AcDbMText
10
113.535366
20
1.383301
30
0
210
0
220
0
230
1
1
\W0.7361;40
40
3.5
41
0
44
1.084337
50
90
71
7
72
5
7
iso_b_vert
0
MTEXT
5
169
100
AcDbEntity
8
SK6
62
256
6
ByLayer
370
18
48
1
60
0
100
AcDbMText
10
0.1855
20
-65.717366
30
0
210
0
220
0
230
1
1
\W0.7540;HA10-C4HD-040-090
40
3.5
41
0
44
1.084337
50
0
71
7
72
5
7
iso_b_vert
0
HATCH
5
15A
100
AcDbEntity
8
SK2
62
256
6
ByLayer
370
13
48
1
60
0
100
AcDbHatch
10
0
20
0
30
0
210
0
220
0
230
1
2
ANSI31
70
0
71
0
91
1
92
5
93
3
72
1
10
-71.6
20
-50
11
-72.0607837415528
21
-46.5000016925532
72
1
10
-72.0607837415528
20
-46.5000016925532
11
-71.1392162584472
21
-46.4999983074468
72
1
10
-71.1392162584472
20
-46.4999983074468
11
-71.6
21
-50
97
0
75
0
76
1
52
0
41
0.0062
77
0
78
1
53
45
43
0
44
0
45
-0.0139193969876572
46
0.0139193969876572
79
0
47
0
98
1
10
0
20
0
0
HATCH
5
15E
100
AcDbEntity
8
SK2
62
256
6
ByLayer
370
13
48
1
60
0
100
AcDbHatch
10
0
20
0
30
0
210
0
220
0
230
1
2
ANSI31
70
0
71
0
91
1
92
5
93
3
72
1
10
-71.6
20
50
11
-71.1392162584472
21
46.5000016925532
72
1
10
-71.1392162584472
20
46.5000016925532
11
-72.0607837415528
21
46.4999983074468
72
1
10
-72.0607837415528
20
46.4999983074468
11
-71.6
21
50
97
0
75
0
76
1
52
0
41
0.0062
77
0
78
1
53
45
43
0
44
0
45
-0.0139193969876572
46
0.0139193969876572
79
0
47
0
98
1
10
0
20
0
0
HATCH
5
164
100
AcDbEntity
8
SK2
62
256
6
ByLayer
370
13
48
1
60
0
100
AcDbHatch
10
0
20
0
30
0
210
0
220
0
230
1
2
ANSI31
70
0
71
0
91
1
92
5
93
3
72
1
10
115.1
20
-20
11
114.639216258447
21
-16.5000016925532
72
1
10
114.639216258447
20
-16.5000016925532
11
115.560783741553
21
-16.4999983074468
72
1
10
115.560783741553
20
-16.4999983074468
11
115.1
21
-20
97
0
75
0
76
1
52
0
41
0.0062
77
0
78
1
53
45
43
0
44
0
45
-0.0139193969876572
46
0.0139193969876572
79
0
47
0
98
1
10
0
20
0
0
HATCH
5
168
100
AcDbEntity
8
SK2
62
256
6
ByLayer
370
13
48
1
60
0
100
AcDbHatch
10
0
20
0
30
0
210
0
220
0
230
1
2
ANSI31
70
0
71
0
91
1
92
5
93
3
72
1
10
115.1
20
20
11
115.560783741553
21
16.5000016925532
72
1
10
115.560783741553
20
16.5000016925532
11
114.639216258447
21
16.4999983074468
72
1
10
114.639216258447
20
16.4999983074468
11
115.1
21
20
97
0
75
0
76
1
52
0
41
0.0062
77
0
78
1
53
45
43
0
44
0
45
-0.0139193969876572
46
0.0139193969876572
79
0
47
0
98
1
10
0
20
0
0
DIMENSION
5
16C
100
AcDbEntity
8
SK2
62
256
6
ByLayer
370
18
48
1
60
0
100
AcDbDimension
2
_U0
10
57
20
-43.75
30
0
11
57
21
-34.265066
31
0
70
32
71
1
72
1
41
1
210
0
220
0
230
1
3
Standard
100
AcDbAlignedDimension
13
45
23
43.75
33
0
14
45
24
-43.75
34
0
50
90
100
AcDbRotatedDimension
1001
ACAD
1000
DSTYLE
1002
{
1070
   371
1070
    13
1070
   372
1070
    13
1070
   170
1070
     0
1070
   144
1040
1.0
1070
   277
1070
     2
1070
   284
1070
     8
1070
   278
1070
    44
1070
   146
1040
1.0
1070
   345
1005
16
1070
   347
1005
16
1070
   346
1005
16
1070
   344
1005
0
1070
   343
1005
0
1070
   172
1070
     1
1070
    76
1070
     0
1070
    75
1070
     0
1070
   282
1070
     0
1070
   281
1070
     0
1070
    71
1070
     0
1070
    74
1070
     0
1070
   279
1070
     0
1070
   173
1070
     1
1070
   340
1005
154
1070
   271
1070
     1
1070
   272
1070
     2
1070
    77
1070
     1
1070
    73
1070
     0
1070
   171
1070
     3
1070
   274
1070
     4
1070
   177
1070
     2
1070
   176
1070
     2
1070
   178
1070
     2
1070
    78
1070
     8
1070
    48
1040
-0.1
1070
    41
1040
3.5
1070
   147
1040
1.75
1070
    42
1040
1.5875
1070
    44
1040
2.0
1070
   140
1040
3.5
1002
}
1001
ACAD_DSTYLE_DIM_LINETYPE
1070
   380
1005
16
1001
ACAD_DSTYLE_DIM_EXT1_LINETYPE
1070
   381
1005
16
1001
ACAD_DSTYLE_DIM_EXT2_LINETYPE
1070
   382
1005
16
0
DIMENSION
5
186
100
AcDbEntity
8
SK2
62
256
6
ByLayer
370
18
48
1
60
0
100
AcDbDimension
2
_U1
10
70
20
67.072999
30
0
11
80
21
67.072999
31
0
70
32
71
1
72
1
41
1
210
0
220
0
230
1
3
Standard
100
AcDbAlignedDimension
13
90
23
20
33
0
14
70
24
20
34
0
50
0
100
AcDbRotatedDimension
1001
ACAD
1000
DSTYLE
1002
{
1070
   371
1070
    13
1070
   372
1070
    13
1070
   170
1070
     0
1070
   144
1040
1.0
1070
   277
1070
     2
1070
   284
1070
     8
1070
   278
1070
    44
1070
   146
1040
1.0
1070
   345
1005
16
1070
   347
1005
16
1070
   346
1005
16
1070
   344
1005
0
1070
   343
1005
0
1070
   172
1070
     1
1070
    76
1070
     0
1070
    75
1070
     0
1070
   282
1070
     0
1070
   281
1070
     0
1070
    71
1070
     0
1070
    74
1070
     0
1070
   279
1070
     0
1070
   173
1070
     1
1070
   340
1005
154
1070
   271
1070
     1
1070
   272
1070
     2
1070
    77
1070
     1
1070
    73
1070
     1
1070
   171
1070
     3
1070
   274
1070
     4
1070
   177
1070
     2
1070
   176
1070
     2
1070
   178
1070
     2
1070
    78
1070
     8
1070
    48
1040
-0.1
1070
    41
1040
3.5
1070
   147
1040
1.75
1070
    42
1040
1.5875
1070
    44
1040
2.0
1070
   140
1040
3.5
1002
}
1001
ACAD_DSTYLE_DIM_LINETYPE
1070
   380
1005
16
1001
ACAD_DSTYLE_DIM_EXT1_LINETYPE
1070
   381
1005
16
1001
ACAD_DSTYLE_DIM_EXT2_LINETYPE
1070
   382
1005
16
0
DIMENSION
5
19E
100
AcDbEntity
8
2
62
256
6
ByLayer
370
18
48
1
60
0
100
AcDbDimension
2
_U2
10
0
20
77.072999
30
0
11
45
21
77.072999
31
0
70
32
71
1
72
1
41
1
210
0
220
0
230
1
3
Standard
100
AcDbAlignedDimension
13
90
23
20
33
0
14
0
24
50
34
0
50
0
100
AcDbRotatedDimension
1001
ACAD
1000
DSTYLE
1002
{
1070
   371
1070
    13
1070
   372
1070
    13
1070
   170
1070
     0
1070
   144
1040
1.0
1070
   277
1070
     2
1070
   284
1070
     8
1070
   278
1070
    44
1070
   146
1040
1.0
1070
   345
1005
16
1070
   347
1005
16
1070
   346
1005
16
1070
   344
1005
0
1070
   343
1005
0
1070
   172
1070
     1
1070
    76
1070
     0
1070
    75
1070
     0
1070
   282
1070
     0
1070
   281
1070
     0
1070
    71
1070
     0
1070
    74
1070
     0
1070
   279
1070
     0
1070
   173
1070
     1
1070
   340
1005
154
1070
   271
1070
     1
1070
   272
1070
     2
1070
    77
1070
     1
1070
    73
1070
     1
1070
   171
1070
     3
1070
   274
1070
     4
1070
   177
1070
     2
1070
   176
1070
     2
1070
   178
1070
     2
1070
    78
1070
     8
1070
    48
1040
-0.1
1070
    41
1040
3.5
1070
   147
1040
1.75
1070
    42
1040
1.5875
1070
    44
1040
2.0
1070
   140
1040
3.5
1002
}
1001
ACAD_DSTYLE_DIM_LINETYPE
1070
   380
1005
16
1001
ACAD_DSTYLE_DIM_EXT1_LINETYPE
1070
   381
1005
16
1001
ACAD_DSTYLE_DIM_EXT2_LINETYPE
1070
   382
1005
16
0
DIMENSION
5
1B7
100
AcDbEntity
8
SK2
62
256
6
ByLayer
370
18
48
1
60
0
100
AcDbDimension
2
_U3
10
0
20
77.072999
30
0
11
-25
21
77.072999
31
0
70
32
71
1
72
1
41
1
210
0
220
0
230
1
3
Standard
100
AcDbAlignedDimension
13
-50
23
12.5
33
0
14
0
24
50
34
0
50
0
100
AcDbRotatedDimension
1001
ACAD
1000
DSTYLE
1002
{
1070
   371
1070
    13
1070
   372
1070
    13
1070
   170
1070
     0
1070
   144
1040
1.0
1070
   277
1070
     2
1070
   284
1070
     8
1070
   278
1070
    44
1070
   146
1040
1.0
1070
   345
1005
16
1070
   347
1005
16
1070
   346
1005
16
1070
   344
1005
0
1070
   343
1005
0
1070
   172
1070
     1
1070
    76
1070
     0
1070
    75
1070
     0
1070
   282
1070
     0
1070
   281
1070
     0
1070
    71
1070
     0
1070
    74
1070
     0
1070
   279
1070
     0
1070
   173
1070
     1
1070
   340
1005
154
1070
   271
1070
     1
1070
   272
1070
     2
1070
    77
1070
     1
1070
    73
1070
     1
1070
   171
1070
     3
1070
   274
1070
     4
1070
   177
1070
     2
1070
   176
1070
     2
1070
   178
1070
     2
1070
    78
1070
     8
1070
    48
1040
-0.1
1070
    41
1040
3.5
1070
   147
1040
1.75
1070
    42
1040
1.5875
1070
    44
1040
2.0
1070
   140
1040
3.5
1002
}
1001
ACAD_DSTYLE_DIM_LINETYPE
1070
   380
1005
16
1001
ACAD_DSTYLE_DIM_EXT1_LINETYPE
1070
   381
1005
16
1001
ACAD_DSTYLE_DIM_EXT2_LINETYPE
1070
   382
1005
16
0
ENDSEC
0
SECTION
2
OBJECTS
0
DICTIONARY
5
23f
330
0
100
AcDbDictionary
280
0
281
1
3
ACAD_GROUP
350
240
3
ACAD_MLINESTYLE
350
241
0
DICTIONARY
5
240
330
0
100
AcDbDictionary
280
0
281
1
0
DICTIONARY
5
241
330
0
100
AcDbDictionary
280
0
281
1
3
Standard
350
18
0
MLINESTYLE
5
18
330
241
100
AcDbMlineStyle
2
Standard
70
0
3

62
256
51
90
52
90
71
2
49
-0.5
62
256
6
ByLayer
49
0.5
62
256
6
ByLayer
0
RASTERVARIABLES
5
22d
330

100
AcDbRasterVariables
90
0
70
1
71
1
72
1
0
ENDSEC
0
EOF
