0
SECTION
2
HEADER
9
$ACADVER
1
AC1015
9
$DWGCODEPAGE
3
ANSI_1252
9
$HANDSEED
5
293
9
$ANGBASE
50
0
9
$ANGDIR
70
0
9
$ATTMODE
70
1
9
$AUNITS
70
0
9
$AUPREC
70
0
9
$CECOLOR
62
256
9
$CELTSCALE
40
1
9
$CELTYPE
6
ByLayer
9
$CELWEIGHT
370
18
9
$CLAYER
8
0
9
$CMLJUST
70
0
9
$CMLSCALE
40
1
9
$CMLSTYLE
2
Standard
9
$DIMSTYLE
2
Standard
9
$TEXTSIZE
40
0.2
9
$TEXTSTYLE
7
Standard
9
$LUNITS
70
2
9
$LUPREC
70
4
9
$EXTNAMES
290
1
9
$INSUNITS
70
4
9
$LTSCALE
40
1
9
$LWDISPLAY
290
1
9
$PDMODE
70
0
9
$PDSIZE
40
0
9
$PLINEGEN
70
0
0
ENDSEC
0
SECTION
2
CLASSES
0
CLASS
1
RASTERVARIABLES
2
AcDbRasterVariables
3
ISM
90
0
280
0
281
0
0
ENDSEC
0
SECTION
2
TABLES
0
TABLE
2
VPORT
5
289
100
AcDbSymbolTable
0
VPORT
5
1
100
AcDbSymbolTableRecord
100
AcDbViewportTableRecord
2
*Active
70
0
10
0
20
0
11
1
21
1
12
-1
22
1
13
0
23
0
14
0.5
24
0.5
15
10
25
10
16
0
26
0
36
1
17
0
27
0
37
0
0
ENDTAB
0
TABLE
2
LTYPE
5
28a
100
AcDbSymbolTable
0
LTYPE
5
14
100
AcDbSymbolTableRecord
100
AcDbLinetypeTableRecord
70
0
2
ByBlock
3

72
65
73
0
40
0
0
LTYPE
5
15
100
AcDbSymbolTableRecord
100
AcDbLinetypeTableRecord
70
0
2
ByLayer
3

72
65
73
0
40
0
0
LTYPE
5
16
100
AcDbSymbolTableRecord
100
AcDbLinetypeTableRecord
70
0
2
Continuous
3
Solid line
72
65
73
0
40
0
0
LTYPE
5
6E
100
AcDbSymbolTableRecord
100
AcDbLinetypeTableRecord
70
0
2
CENTER
3
____ _ ____ _ ____ _ ____
72
65
73
4
40
47.5
49
22
74
0
49
-8.5
74
0
49
8.5
74
0
49
-8.5
74
0
0
LTYPE
5
6F
100
AcDbSymbolTableRecord
100
AcDbLinetypeTableRecord
70
0
2
DASHED
3
__ __ __ __ __ __ __ __ __
72
65
73
2
40
25.72
49
12.86
74
0
49
-12.86
74
0
0
ENDTAB
0
TABLE
2
LAYER
5
28b
100
AcDbSymbolTable
0
LAYER
5
10
100
AcDbSymbolTableRecord
100
AcDbLayerTableRecord
2
0
70
0
62
7
6
Continuous
290
1
370
-3
390
0
0
LAYER
5
71
100
AcDbSymbolTableRecord
100
AcDbLayerTableRecord
2
81
70
0
62
-3
6
Continuous
290
1
370
-3
390
0
0
LAYER
5
73
100
AcDbSymbolTableRecord
100
AcDbLayerTableRecord
2
80
70
0
62
-6
6
Continuous
290
1
370
-3
390
0
0
LAYER
5
75
100
AcDbSymbolTableRecord
100
AcDbLayerTableRecord
2
1
70
0
62
4
6
Continuous
290
1
370
-3
390
0
0
LAYER
5
19E
100
AcDbSymbolTableRecord
100
AcDbLayerTableRecord
2
Defpoints
70
0
62
7
6
Continuous
290
0
370
-3
390
0
0
LAYER
5
1AB
100
AcDbSymbolTableRecord
100
AcDbLayerTableRecord
2
2
70
0
62
7
6
Continuous
290
1
370
-3
390
0
0
LAYER
5
276
100
AcDbSymbolTableRecord
100
AcDbLayerTableRecord
2
SK1
70
0
62
4
6
Continuous
290
1
370
-3
390
0
0
LAYER
5
277
100
AcDbSymbolTableRecord
100
AcDbLayerTableRecord
2
SK6
70
0
62
5
6
Continuous
290
1
370
-3
390
0
0
LAYER
5
278
100
AcDbSymbolTableRecord
100
AcDbLayerTableRecord
2
SK2
70
0
62
7
6
Continuous
290
1
370
-3
390
0
0
ENDTAB
0
TABLE
2
STYLE
5
28c
100
AcDbSymbolTable
0
STYLE
5
11
100
AcDbSymbolTableRecord
100
AcDbTextStyleTableRecord
2
Standard
3
txt
70
0
71
0
40
0
41
1
42
0
50
0
0
STYLE
5
197
100
AcDbSymbolTableRecord
100
AcDbTextStyleTableRecord
2
iso_b_vert
3
simplex.shx
70
0
71
0
40
0
41
1
42
0
50
0
0
STYLE
5
198
100
AcDbSymbolTableRecord
100
AcDbTextStyleTableRecord
2
DWGDirectTextStyle
3
simplex
70
0
71
0
40
0
41
1
42
0
50
0
0
ENDTAB
0
TABLE
2
DIMSTYLE
5
28d
100
AcDbSymbolTable
100
AcDbDimStyleTable
0
DIMSTYLE
105
27
100
AcDbSymbolTableRecord
100
AcDbDimStyleTableRecord
2
Standard
70
0
3
<>
41
0.18
42
0.0625
44
0.18
140
0.18
147
0.09
73
0
74
0
77
1
271
2
275
0
278
52
280
0
340
11
0
ENDTAB
0
TABLE
2
VIEW
5
28e
100
AcDbSymbolTable
0
ENDTAB
0
TABLE
2
UCS
5
28f
100
AcDbSymbolTable
0
ENDTAB
0
TABLE
2
APPID
5
290
100
AcDbSymbolTable
0
APPID
5
12
100
AcDbSymbolTableRecord
100
AcDbRegAppTableRecord
2
ACAD
70
0
0
APPID
5
19A
100
AcDbSymbolTableRecord
100
AcDbRegAppTableRecord
2
ACAD_DSTYLE_DIMBREAK
70
0
0
APPID
5
235
100
AcDbSymbolTableRecord
100
AcDbRegAppTableRecord
2
ACAD_DSTYLE_DIM_LINETYPE
70
0
0
APPID
5
236
100
AcDbSymbolTableRecord
100
AcDbRegAppTableRecord
2
ACAD_DSTYLE_DIM_EXT1_LINETYPE
70
0
0
APPID
5
237
100
AcDbSymbolTableRecord
100
AcDbRegAppTableRecord
2
ACAD_DSTYLE_DIM_EXT2_LINETYPE
70
0
0
APPID
5
272
100
AcDbSymbolTableRecord
100
AcDbRegAppTableRecord
2
ACAD_MLEADERVER
70
0
0
ENDTAB
0
TABLE
2
BLOCK_RECORD
5
291
100
AcDbSymbolTable
0
BLOCK_RECORD
5
1F
100
AcDbSymbolTableRecord
100
AcDbBlockTableRecord
2
*Model_Space
340
0
70
0
0
BLOCK_RECORD
5
1B
100
AcDbSymbolTableRecord
100
AcDbBlockTableRecord
2
*Paper_Space
340
0
70
0
0
BLOCK_RECORD
5
23
100
AcDbSymbolTableRecord
100
AcDbBlockTableRecord
2
*Paper_Space0
340
0
70
0
0
BLOCK_RECORD
5
19F
100
AcDbSymbolTableRecord
100
AcDbBlockTableRecord
2
*D1
340
0
70
0
0
BLOCK_RECORD
5
1AC
100
AcDbSymbolTableRecord
100
AcDbBlockTableRecord
2
_U0
340
0
70
0
0
BLOCK_RECORD
5
1B8
100
AcDbSymbolTableRecord
100
AcDbBlockTableRecord
2
*D3
340
0
70
0
0
BLOCK_RECORD
5
1C4
100
AcDbSymbolTableRecord
100
AcDbBlockTableRecord
2
_U1
340
0
70
0
0
BLOCK_RECORD
5
1D0
100
AcDbSymbolTableRecord
100
AcDbBlockTableRecord
2
*D5
340
0
70
0
0
BLOCK_RECORD
5
1DD
100
AcDbSymbolTableRecord
100
AcDbBlockTableRecord
2
_U2
340
0
70
0
0
BLOCK_RECORD
5
1E9
100
AcDbSymbolTableRecord
100
AcDbBlockTableRecord
2
*D7
340
0
70
0
0
BLOCK_RECORD
5
1F6
100
AcDbSymbolTableRecord
100
AcDbBlockTableRecord
2
_U3
340
0
70
0
0
BLOCK_RECORD
5
202
100
AcDbSymbolTableRecord
100
AcDbBlockTableRecord
2
*D9
340
0
70
0
0
BLOCK_RECORD
5
20E
100
AcDbSymbolTableRecord
100
AcDbBlockTableRecord
2
_U4
340
0
70
0
0
ENDTAB
0
ENDSEC
0
SECTION
2
BLOCKS
0
BLOCK
5
20
100
AcDbEntity
8
0
100
AcDbBlockBegin
2
*Model_Space
70
0
10
0
20
0
30
0
3
*Model_Space
0
ENDBLK
5
21
100
AcDbEntity
8
0
100
AcDbBlockEnd
0
BLOCK
5
1C
100
AcDbEntity
8
0
100
AcDbBlockBegin
2
*Paper_Space
70
0
10
0
20
0
30
0
3
*Paper_Space
0
ENDBLK
5
1D
100
AcDbEntity
8
0
100
AcDbBlockEnd
0
BLOCK
5
24
100
AcDbEntity
8
0
100
AcDbBlockBegin
2
*Paper_Space0
70
0
10
0
20
0
30
0
3
*Paper_Space0
0
ENDBLK
5
25
100
AcDbEntity
8
0
100
AcDbBlockEnd
0
BLOCK
5
1A0
100
AcDbEntity
8
0
100
AcDbBlockBegin
2
*D1
70
1
10
0
20
0
30
0
3
*D1
0
LINE
5
1A2
100
AcDbEntity
8
0
62
256
6
ByLayer
370
-2
48
1
60
0
100
AcDbLine
10
27.5875
20
34.5625
30
0
11
51.900808
21
34.5625
31
0
39
0
210
0
220
0
230
1
0
LINE
5
1A3
100
AcDbEntity
8
0
62
256
6
ByLayer
370
-2
48
1
60
0
100
AcDbLine
10
-122.4125
20
-12.4375
30
0
11
51.900808
21
-12.4375
31
0
39
0
210
0
220
0
230
1
0
LINE
5
1A4
100
AcDbEntity
8
0
62
256
6
ByLayer
370
-2
48
1
60
0
100
AcDbLine
10
49.900808
20
31.0625
30
0
11
49.900808
21
-8.9375
31
0
39
0
210
0
220
0
230
1
0
SOLID
5
1A5
100
AcDbEntity
8
0
62
256
6
ByLayer
370
-1
48
1
60
0
100
AcDbTrace
10
50.484142
20
31.0625
30
0
11
49.317475
21
31.0625
31
0
12
49.900808
22
34.5625
32
0
13
49.900808
23
34.5625
33
0
39
0
210
0
220
0
230
1
0
SOLID
5
1A6
100
AcDbEntity
8
0
62
256
6
ByLayer
370
-1
48
1
60
0
100
AcDbTrace
10
49.317475
20
-8.9375
30
0
11
50.484142
21
-8.9375
31
0
12
49.900808
22
-12.4375
32
0
13
49.900808
23
-12.4375
33
0
39
0
210
0
220
0
230
1
0
MTEXT
5
1A7
100
AcDbEntity
8
0
62
256
6
ByLayer
370
18
48
1
60
0
100
AcDbMText
10
42.900808
20
11.0625
30
0
210
0
220
0
230
1
1
\A1;47
40
3.5
41
0
44
1
50
90
71
5
72
5
7
iso_b_vert
0
POINT
5
1A8
100
AcDbEntity
8
Defpoints
62
0
6
ByLayer
370
-1
48
1
60
0
100
AcDbPoint
10
26
20
34.5625
30
0
39
0
210
0
220
0
230
1
50
360
0
POINT
5
1A9
100
AcDbEntity
8
Defpoints
62
0
6
ByLayer
370
-1
48
1
60
0
100
AcDbPoint
10
-124
20
-12.4375
30
0
39
0
210
0
220
0
230
1
50
360
0
POINT
5
1AA
100
AcDbEntity
8
Defpoints
62
0
6
ByLayer
370
-1
48
1
60
0
100
AcDbPoint
10
49.900808
20
-12.4375
30
0
39
0
210
0
220
0
230
1
50
360
0
ENDBLK
5
1A1
100
AcDbEntity
8
0
100
AcDbBlockEnd
0
BLOCK
5
1B3
100
AcDbEntity
8
0
100
AcDbBlockBegin
2
_U0
70
0
10
0
20
0
30
0
3
_U0
0
MTEXT
5
1AD
100
AcDbEntity
8
2
62
256
6
ByLayer
370
18
48
1
60
0
100
AcDbMText
10
49.211175
20
8.945267
30
0
210
0
220
0
230
1
1
\W0.7361;47
40
3.5
41
0
44
1.084337
50
90
71
7
72
5
7
iso_b_vert
0
LINE
5
1AE
100
AcDbEntity
8
2
62
256
6
ByLayer
370
13
48
1
60
0
100
AcDbLine
10
27.5875
20
34.5625
30
0
11
51.900808
21
34.5625
31
0
39
0
210
0
220
0
230
1
0
LINE
5
1AF
100
AcDbEntity
8
2
62
256
6
ByLayer
370
13
48
1
60
0
100
AcDbLine
10
-122.4125
20
-12.4375
30
0
11
51.900808
21
-12.4375
31
0
39
0
210
0
220
0
230
1
0
LINE
5
1B0
100
AcDbEntity
8
2
62
256
6
ByLayer
370
13
48
1
60
0
100
AcDbLine
10
49.900808
20
34.5625
30
0
11
49.900808
21
-12.4375
31
0
39
0
210
0
220
0
230
1
0
SOLID
5
1B1
100
AcDbEntity
8
2
62
256
6
ByLayer
370
18
48
1
60
0
100
AcDbTrace
10
49.900808
20
34.5625
30
0
11
50.361592
21
31.062502
31
0
12
49.440024
22
31.062498
32
0
13
49.440024
23
31.062498
33
0
39
0
210
0
220
0
230
1
0
SOLID
5
1B2
100
AcDbEntity
8
2
62
256
6
ByLayer
370
18
48
1
60
0
100
AcDbTrace
10
49.900808
20
-12.4375
30
0
11
49.440024
21
-8.937502
31
0
12
50.361592
22
-8.937498
32
0
13
50.361592
23
-8.937498
33
0
39
0
210
0
220
0
230
1
0
ENDBLK
5
1B4
100
AcDbEntity
8
0
100
AcDbBlockEnd
0
BLOCK
5
1B9
100
AcDbEntity
8
0
100
AcDbBlockBegin
2
*D3
70
1
10
0
20
0
30
0
3
*D3
0
LINE
5
1BB
100
AcDbEntity
8
0
62
256
6
ByLayer
370
-2
48
1
60
0
100
AcDbLine
10
20.4125
20
14.5625
30
0
11
41.900808
21
14.5625
31
0
39
0
210
0
220
0
230
1
0
LINE
5
1BC
100
AcDbEntity
8
0
62
256
6
ByLayer
370
-2
48
1
60
0
100
AcDbLine
10
27.5875
20
34.5625
30
0
11
41.900808
21
34.5625
31
0
39
0
210
0
220
0
230
1
0
LINE
5
1BD
100
AcDbEntity
8
0
62
256
6
ByLayer
370
-2
48
1
60
0
100
AcDbLine
10
39.900808
20
18.0625
30
0
11
39.900808
21
31.0625
31
0
39
0
210
0
220
0
230
1
0
SOLID
5
1BE
100
AcDbEntity
8
0
62
256
6
ByLayer
370
-1
48
1
60
0
100
AcDbTrace
10
39.317475
20
18.0625
30
0
11
40.484142
21
18.0625
31
0
12
39.900808
22
14.5625
32
0
13
39.900808
23
14.5625
33
0
39
0
210
0
220
0
230
1
0
SOLID
5
1BF
100
AcDbEntity
8
0
62
256
6
ByLayer
370
-1
48
1
60
0
100
AcDbTrace
10
40.484142
20
31.0625
30
0
11
39.317475
21
31.0625
31
0
12
39.900808
22
34.5625
32
0
13
39.900808
23
34.5625
33
0
39
0
210
0
220
0
230
1
0
MTEXT
5
1C0
100
AcDbEntity
8
0
62
256
6
ByLayer
370
18
48
1
60
0
100
AcDbMText
10
32.900808
20
24.5625
30
0
210
0
220
0
230
1
1
\A1;20
40
3.5
41
0
44
1
50
90
71
5
72
5
7
iso_b_vert
0
POINT
5
1C1
100
AcDbEntity
8
Defpoints
62
0
6
ByLayer
370
-1
48
1
60
0
100
AcDbPoint
10
18.825
20
14.5625
30
0
39
0
210
0
220
0
230
1
50
360
0
POINT
5
1C2
100
AcDbEntity
8
Defpoints
62
0
6
ByLayer
370
-1
48
1
60
0
100
AcDbPoint
10
26
20
34.5625
30
0
39
0
210
0
220
0
230
1
50
360
0
POINT
5
1C3
100
AcDbEntity
8
Defpoints
62
0
6
ByLayer
370
-1
48
1
60
0
100
AcDbPoint
10
39.900808
20
34.5625
30
0
39
0
210
0
220
0
230
1
50
360
0
ENDBLK
5
1BA
100
AcDbEntity
8
0
100
AcDbBlockEnd
0
BLOCK
5
1CB
100
AcDbEntity
8
0
100
AcDbBlockBegin
2
_U1
70
0
10
0
20
0
30
0
3
_U1
0
MTEXT
5
1C5
100
AcDbEntity
8
2
62
256
6
ByLayer
370
18
48
1
60
0
100
AcDbMText
10
39.211175
20
22.629534
30
0
210
0
220
0
230
1
1
\W0.6740;20
40
3.5
41
0
44
1.084337
50
90
71
7
72
5
7
iso_b_vert
0
LINE
5
1C6
100
AcDbEntity
8
2
62
256
6
ByLayer
370
13
48
1
60
0
100
AcDbLine
10
20.4125
20
14.5625
30
0
11
41.900808
21
14.5625
31
0
39
0
210
0
220
0
230
1
0
LINE
5
1C7
100
AcDbEntity
8
2
62
256
6
ByLayer
370
13
48
1
60
0
100
AcDbLine
10
27.5875
20
34.5625
30
0
11
41.900808
21
34.5625
31
0
39
0
210
0
220
0
230
1
0
LINE
5
1C8
100
AcDbEntity
8
2
62
256
6
ByLayer
370
13
48
1
60
0
100
AcDbLine
10
39.900808
20
14.5625
30
0
11
39.900808
21
34.5625
31
0
39
0
210
0
220
0
230
1
0
SOLID
5
1C9
100
AcDbEntity
8
2
62
256
6
ByLayer
370
18
48
1
60
0
100
AcDbTrace
10
39.900808
20
14.5625
30
0
11
39.440024
21
18.062498
31
0
12
40.361592
22
18.062502
32
0
13
40.361592
23
18.062502
33
0
39
0
210
0
220
0
230
1
0
SOLID
5
1CA
100
AcDbEntity
8
2
62
256
6
ByLayer
370
18
48
1
60
0
100
AcDbTrace
10
39.900808
20
34.5625
30
0
11
40.361592
21
31.062502
31
0
12
39.440024
22
31.062498
32
0
13
39.440024
23
31.062498
33
0
39
0
210
0
220
0
230
1
0
ENDBLK
5
1CC
100
AcDbEntity
8
0
100
AcDbBlockEnd
0
BLOCK
5
1D1
100
AcDbEntity
8
0
100
AcDbBlockBegin
2
*D5
70
1
10
0
20
0
30
0
3
*D5
0
LINE
5
1D3
100
AcDbEntity
8
0
62
256
6
ByLayer
370
-2
48
1
60
0
100
AcDbLine
10
-125.5875
20
-12.4375
30
0
11
-137.6
21
-12.4375
31
0
39
0
210
0
220
0
230
1
0
LINE
5
1D4
100
AcDbEntity
8
0
62
256
6
ByLayer
370
-2
48
1
60
0
100
AcDbLine
10
-125.5875
20
12.5625
30
0
11
-137.6
21
12.5625
31
0
39
0
210
0
220
0
230
1
0
LINE
5
1D5
100
AcDbEntity
8
0
62
256
6
ByLayer
370
-2
48
1
60
0
100
AcDbLine
10
-135.6
20
-8.9375
30
0
11
-135.6
21
9.0625
31
0
39
0
210
0
220
0
230
1
0
SOLID
5
1D6
100
AcDbEntity
8
0
62
256
6
ByLayer
370
-1
48
1
60
0
100
AcDbTrace
10
-136.183333
20
-8.9375
30
0
11
-135.016667
21
-8.9375
31
0
12
-135.6
22
-12.4375
32
0
13
-135.6
23
-12.4375
33
0
39
0
210
0
220
0
230
1
0
SOLID
5
1D7
100
AcDbEntity
8
0
62
256
6
ByLayer
370
-1
48
1
60
0
100
AcDbTrace
10
-135.016667
20
9.0625
30
0
11
-136.183333
21
9.0625
31
0
12
-135.6
22
12.5625
32
0
13
-135.6
23
12.5625
33
0
39
0
210
0
220
0
230
1
0
MTEXT
5
1D8
100
AcDbEntity
8
0
62
256
6
ByLayer
370
18
48
1
60
0
100
AcDbMText
10
-142.6
20
0.0625
30
0
210
0
220
0
230
1
1
\A1;25
40
3.5
41
0
44
1
50
90
71
5
72
5
7
iso_b_vert
0
POINT
5
1D9
100
AcDbEntity
8
Defpoints
62
0
6
ByLayer
370
-1
48
1
60
0
100
AcDbPoint
10
-124
20
-12.4375
30
0
39
0
210
0
220
0
230
1
50
360
0
POINT
5
1DA
100
AcDbEntity
8
Defpoints
62
0
6
ByLayer
370
-1
48
1
60
0
100
AcDbPoint
10
-124
20
12.5625
30
0
39
0
210
0
220
0
230
1
50
360
0
POINT
5
1DB
100
AcDbEntity
8
Defpoints
62
0
6
ByLayer
370
-1
48
1
60
0
100
AcDbPoint
10
-135.6
20
12.5625
30
0
39
0
210
0
220
0
230
1
50
360
0
ENDBLK
5
1D2
100
AcDbEntity
8
0
100
AcDbBlockEnd
0
BLOCK
5
1E4
100
AcDbEntity
8
0
100
AcDbBlockBegin
2
_U2
70
0
10
0
20
0
30
0
3
_U2
0
MTEXT
5
1DE
100
AcDbEntity
8
SK2
62
256
6
ByLayer
370
18
48
1
60
0
100
AcDbMText
10
-136.289634
20
-1.870466
30
0
210
0
220
0
230
1
1
\W0.6740;25
40
3.5
41
0
44
1.084337
50
90
71
7
72
5
7
iso_b_vert
0
LINE
5
1DF
100
AcDbEntity
8
SK2
62
256
6
ByLayer
370
13
48
1
60
0
100
AcDbLine
10
-125.5875
20
-12.4375
30
0
11
-137.6
21
-12.4375
31
0
39
0
210
0
220
0
230
1
0
LINE
5
1E0
100
AcDbEntity
8
SK2
62
256
6
ByLayer
370
13
48
1
60
0
100
AcDbLine
10
-125.5875
20
12.5625
30
0
11
-137.6
21
12.5625
31
0
39
0
210
0
220
0
230
1
0
LINE
5
1E1
100
AcDbEntity
8
SK2
62
256
6
ByLayer
370
13
48
1
60
0
100
AcDbLine
10
-135.6
20
-12.4375
30
0
11
-135.6
21
12.5625
31
0
39
0
210
0
220
0
230
1
0
SOLID
5
1E2
100
AcDbEntity
8
SK2
62
256
6
ByLayer
370
18
48
1
60
0
100
AcDbTrace
10
-135.6
20
-12.4375
30
0
11
-136.060784
21
-8.937502
31
0
12
-135.139216
22
-8.937498
32
0
13
-135.139216
23
-8.937498
33
0
39
0
210
0
220
0
230
1
0
SOLID
5
1E3
100
AcDbEntity
8
SK2
62
256
6
ByLayer
370
18
48
1
60
0
100
AcDbTrace
10
-135.6
20
12.5625
30
0
11
-135.139216
21
9.062502
31
0
12
-136.060784
22
9.062498
32
0
13
-136.060784
23
9.062498
33
0
39
0
210
0
220
0
230
1
0
ENDBLK
5
1E5
100
AcDbEntity
8
0
100
AcDbBlockEnd
0
BLOCK
5
1EA
100
AcDbEntity
8
0
100
AcDbBlockBegin
2
*D7
70
1
10
0
20
0
30
0
3
*D7
0
LINE
5
1EC
100
AcDbEntity
8
0
62
256
6
ByLayer
370
-2
48
1
60
0
100
AcDbLine
10
18
20
36.15
30
0
11
18
21
44.8125
31
0
39
0
210
0
220
0
230
1
0
LINE
5
1ED
100
AcDbEntity
8
0
62
256
6
ByLayer
370
-2
48
1
60
0
100
AcDbLine
10
26
20
36.15
30
0
11
26
21
44.8125
31
0
39
0
210
0
220
0
230
1
0
LINE
5
1EE
100
AcDbEntity
8
0
62
256
6
ByLayer
370
-2
48
1
60
0
100
AcDbLine
10
14.5
20
42.8125
30
0
11
11
21
42.8125
31
0
39
0
210
0
220
0
230
1
0
LINE
5
1EF
100
AcDbEntity
8
0
62
256
6
ByLayer
370
-2
48
1
60
0
100
AcDbLine
10
29.5
20
42.8125
30
0
11
33
21
42.8125
31
0
39
0
210
0
220
0
230
1
0
SOLID
5
1F0
100
AcDbEntity
8
0
62
256
6
ByLayer
370
-1
48
1
60
0
100
AcDbTrace
10
14.5
20
42.229167
30
0
11
14.5
21
43.395833
31
0
12
18
22
42.8125
32
0
13
18
23
42.8125
33
0
39
0
210
0
220
0
230
1
0
SOLID
5
1F1
100
AcDbEntity
8
0
62
256
6
ByLayer
370
-1
48
1
60
0
100
AcDbTrace
10
29.5
20
43.395833
30
0
11
29.5
21
42.229167
31
0
12
26
22
42.8125
32
0
13
26
23
42.8125
33
0
39
0
210
0
220
0
230
1
0
MTEXT
5
1F2
100
AcDbEntity
8
0
62
256
6
ByLayer
370
18
48
1
60
0
100
AcDbMText
10
22
20
49.8125
30
0
210
0
220
0
230
1
1
\A1;8
40
3.5
41
0
44
1
50
0
71
5
72
5
7
iso_b_vert
0
POINT
5
1F3
100
AcDbEntity
8
Defpoints
62
0
6
ByLayer
370
-1
48
1
60
0
100
AcDbPoint
10
18
20
34.5625
30
0
39
0
210
0
220
0
230
1
50
360
0
POINT
5
1F4
100
AcDbEntity
8
Defpoints
62
0
6
ByLayer
370
-1
48
1
60
0
100
AcDbPoint
10
26
20
34.5625
30
0
39
0
210
0
220
0
230
1
50
360
0
POINT
5
1F5
100
AcDbEntity
8
Defpoints
62
0
6
ByLayer
370
-1
48
1
60
0
100
AcDbPoint
10
26
20
42.8125
30
0
39
0
210
0
220
0
230
1
50
360
0
ENDBLK
5
1EB
100
AcDbEntity
8
0
100
AcDbBlockEnd
0
BLOCK
5
1FD
100
AcDbEntity
8
0
100
AcDbBlockBegin
2
_U3
70
0
10
0
20
0
30
0
3
_U3
0
MTEXT
5
1F7
100
AcDbEntity
8
2
62
256
6
ByLayer
370
18
48
1
60
0
100
AcDbMText
10
21.402767
20
43.845134
30
0
210
0
220
0
230
1
1
\W0.5404;8
40
3.5
41
0
44
1.084337
50
0
71
7
72
5
7
iso_b_vert
0
LINE
5
1F8
100
AcDbEntity
8
2
62
256
6
ByLayer
370
13
48
1
60
0
100
AcDbLine
10
18
20
36.15
30
0
11
18
21
44.8125
31
0
39
0
210
0
220
0
230
1
0
LINE
5
1F9
100
AcDbEntity
8
2
62
256
6
ByLayer
370
13
48
1
60
0
100
AcDbLine
10
26
20
36.15
30
0
11
26
21
44.8125
31
0
39
0
210
0
220
0
230
1
0
LINE
5
1FA
100
AcDbEntity
8
2
62
256
6
ByLayer
370
13
48
1
60
0
100
AcDbLine
10
18
20
42.8125
30
0
11
26
21
42.8125
31
0
39
0
210
0
220
0
230
1
0
SOLID
5
1FB
100
AcDbEntity
8
2
62
256
6
ByLayer
370
18
48
1
60
0
100
AcDbTrace
10
18
20
42.8125
30
0
11
21.499998
21
43.273284
31
0
12
21.500002
22
42.351716
32
0
13
21.500002
23
42.351716
33
0
39
0
210
0
220
0
230
1
0
SOLID
5
1FC
100
AcDbEntity
8
2
62
256
6
ByLayer
370
18
48
1
60
0
100
AcDbTrace
10
26
20
42.8125
30
0
11
22.500002
21
42.351716
31
0
12
22.499998
22
43.273284
32
0
13
22.499998
23
43.273284
33
0
39
0
210
0
220
0
230
1
0
ENDBLK
5
1FE
100
AcDbEntity
8
0
100
AcDbBlockEnd
0
BLOCK
5
203
100
AcDbEntity
8
0
100
AcDbBlockBegin
2
*D9
70
1
10
0
20
0
30
0
3
*D9
0
LINE
5
205
100
AcDbEntity
8
0
62
256
6
ByLayer
370
-2
48
1
60
0
100
AcDbLine
10
-124
20
-14.025
30
0
11
-124
21
-32.1875
31
0
39
0
210
0
220
0
230
1
0
LINE
5
206
100
AcDbEntity
8
0
62
256
6
ByLayer
370
-2
48
1
60
0
100
AcDbLine
10
26
20
32.975
30
0
11
26
21
-32.1875
31
0
39
0
210
0
220
0
230
1
0
LINE
5
207
100
AcDbEntity
8
0
62
256
6
ByLayer
370
-2
48
1
60
0
100
AcDbLine
10
-120.5
20
-30.1875
30
0
11
22.5
21
-30.1875
31
0
39
0
210
0
220
0
230
1
0
SOLID
5
208
100
AcDbEntity
8
0
62
256
6
ByLayer
370
-1
48
1
60
0
100
AcDbTrace
10
-120.5
20
-29.604167
30
0
11
-120.5
21
-30.770833
31
0
12
-124
22
-30.1875
32
0
13
-124
23
-30.1875
33
0
39
0
210
0
220
0
230
1
0
SOLID
5
209
100
AcDbEntity
8
0
62
256
6
ByLayer
370
-1
48
1
60
0
100
AcDbTrace
10
22.5
20
-30.770833
30
0
11
22.5
21
-29.604167
31
0
12
26
22
-30.1875
32
0
13
26
23
-30.1875
33
0
39
0
210
0
220
0
230
1
0
MTEXT
5
20A
100
AcDbEntity
8
0
62
256
6
ByLayer
370
18
48
1
60
0
100
AcDbMText
10
-49
20
-23.1875
30
0
210
0
220
0
230
1
1
\A1;150
40
3.5
41
0
44
1
50
0
71
5
72
5
7
iso_b_vert
0
POINT
5
20B
100
AcDbEntity
8
Defpoints
62
0
6
ByLayer
370
-1
48
1
60
0
100
AcDbPoint
10
-124
20
-12.4375
30
0
39
0
210
0
220
0
230
1
50
360
0
POINT
5
20C
100
AcDbEntity
8
Defpoints
62
0
6
ByLayer
370
-1
48
1
60
0
100
AcDbPoint
10
26
20
34.5625
30
0
39
0
210
0
220
0
230
1
50
360
0
POINT
5
20D
100
AcDbEntity
8
Defpoints
62
0
6
ByLayer
370
-1
48
1
60
0
100
AcDbPoint
10
26
20
-30.1875
30
0
39
0
210
0
220
0
230
1
50
360
0
ENDBLK
5
204
100
AcDbEntity
8
0
100
AcDbBlockEnd
0
BLOCK
5
215
100
AcDbEntity
8
0
100
AcDbBlockBegin
2
_U4
70
0
10
0
20
0
30
0
3
_U4
0
MTEXT
5
20F
100
AcDbEntity
8
SK2
62
256
6
ByLayer
370
18
48
1
60
0
100
AcDbMText
10
-51.775266
20
-29.154866
30
0
210
0
220
0
230
1
1
\W0.6217;150
40
3.5
41
0
44
1.084337
50
0
71
7
72
5
7
iso_b_vert
0
LINE
5
210
100
AcDbEntity
8
SK2
62
256
6
ByLayer
370
13
48
1
60
0
100
AcDbLine
10
-124
20
-14.025
30
0
11
-124
21
-32.1875
31
0
39
0
210
0
220
0
230
1
0
LINE
5
211
100
AcDbEntity
8
SK2
62
256
6
ByLayer
370
13
48
1
60
0
100
AcDbLine
10
26
20
32.975
30
0
11
26
21
-32.1875
31
0
39
0
210
0
220
0
230
1
0
LINE
5
212
100
AcDbEntity
8
SK2
62
256
6
ByLayer
370
13
48
1
60
0
100
AcDbLine
10
-124
20
-30.1875
30
0
11
26
21
-30.1875
31
0
39
0
210
0
220
0
230
1
0
SOLID
5
213
100
AcDbEntity
8
SK2
62
256
6
ByLayer
370
18
48
1
60
0
100
AcDbTrace
10
-124
20
-30.1875
30
0
11
-120.500002
21
-29.726716
31
0
12
-120.499998
22
-30.648284
32
0
13
-120.499998
23
-30.648284
33
0
39
0
210
0
220
0
230
1
0
SOLID
5
214
100
AcDbEntity
8
SK2
62
256
6
ByLayer
370
18
48
1
60
0
100
AcDbTrace
10
26
20
-30.1875
30
0
11
22.500002
21
-30.648284
31
0
12
22.499998
22
-29.726716
32
0
13
22.499998
23
-29.726716
33
0
39
0
210
0
220
0
230
1
0
ENDBLK
5
216
100
AcDbEntity
8
0
100
AcDbBlockEnd
0
ENDSEC
0
SECTION
2
ENTITIES
0
ARC
5
F4
100
AcDbEntity
8
SK1
62
256
6
ByLayer
370
18
48
1
60
0
100
AcDbCircle
39
0
10
-1.227723
20
14.0375
30
0
40
1.59999999999767
210
0
220
0
230
1
100
AcDbArc
50
270
51
290.726569
0
ARC
5
F6
100
AcDbEntity
8
1
62
256
6
ByLayer
370
18
48
1
60
0
100
AcDbCircle
39
0
10
11
20
6.2125
30
0
40
2.1768
210
0
220
0
230
1
100
AcDbArc
50
210
51
270
0
ARC
5
F7
100
AcDbEntity
8
1
62
256
6
ByLayer
370
18
48
1
60
0
100
AcDbCircle
39
0
10
11
20
6.2125
30
0
40
2.1768
210
0
220
0
230
1
100
AcDbArc
50
150
51
210
0
ARC
5
F8
100
AcDbEntity
8
1
62
256
6
ByLayer
370
18
48
1
60
0
100
AcDbCircle
39
0
10
11
20
6.2125
30
0
40
2.1768
210
0
220
0
230
1
100
AcDbArc
50
270
51
330
0
ARC
5
F9
100
AcDbEntity
8
1
62
256
6
ByLayer
370
18
48
1
60
0
100
AcDbCircle
39
0
10
11
20
6.2125
30
0
40
2.1768
210
0
220
0
230
1
100
AcDbArc
50
330
51
30
0
ARC
5
FA
100
AcDbEntity
8
1
62
256
6
ByLayer
370
18
48
1
60
0
100
AcDbCircle
39
0
10
11
20
6.2125
30
0
40
2.1768
210
0
220
0
230
1
100
AcDbArc
50
30
51
90
0
ARC
5
FB
100
AcDbEntity
8
1
62
256
6
ByLayer
370
18
48
1
60
0
100
AcDbCircle
39
0
10
11
20
6.2125
30
0
40
2.1768
210
0
220
0
230
1
100
AcDbArc
50
90
51
150
0
ARC
5
FE
100
AcDbEntity
8
1
62
256
6
ByLayer
370
18
48
1
60
0
100
AcDbCircle
39
0
10
11
20
6.2125
30
0
40
2.8067
210
0
220
0
230
1
100
AcDbArc
50
180
51
240
0
ARC
5
FF
100
AcDbEntity
8
1
62
256
6
ByLayer
370
18
48
1
60
0
100
AcDbCircle
39
0
10
11
20
6.2125
30
0
40
2.8067
210
0
220
0
230
1
100
AcDbArc
50
240
51
300
0
ARC
5
100
100
AcDbEntity
8
1
62
256
6
ByLayer
370
18
48
1
60
0
100
AcDbCircle
39
0
10
11
20
6.2125
30
0
40
2.8067
210
0
220
0
230
1
100
AcDbArc
50
60
51
120
0
ARC
5
101
100
AcDbEntity
8
1
62
256
6
ByLayer
370
18
48
1
60
0
100
AcDbCircle
39
0
10
11
20
6.2125
30
0
40
2.8067
210
0
220
0
230
1
100
AcDbArc
50
300
51
0
0
ARC
5
102
100
AcDbEntity
8
1
62
256
6
ByLayer
370
18
48
1
60
0
100
AcDbCircle
39
0
10
11
20
6.2125
30
0
40
2.8067
210
0
220
0
230
1
100
AcDbArc
50
0
51
60
0
ARC
5
103
100
AcDbEntity
8
1
62
256
6
ByLayer
370
18
48
1
60
0
100
AcDbCircle
39
0
10
11
20
6.2125
30
0
40
2.8067
210
0
220
0
230
1
100
AcDbArc
50
120
51
180
0
ARC
5
104
100
AcDbEntity
8
SK1
62
256
6
ByLayer
370
18
48
1
60
0
100
AcDbCircle
39
0
10
-1.227723
20
14.0375
30
0
40
1.59999999999739
210
0
220
0
230
1
100
AcDbArc
50
300.977392
51
317.788056
0
CIRCLE
5
F5
100
AcDbEntity
8
1
62
256
6
ByLayer
370
18
48
1
60
0
100
AcDbCircle
10
11
20
6.2125
30
0
40
5.75000000000001
39
0
210
0
220
0
230
1
0
CIRCLE
5
FC
100
AcDbEntity
8
1
62
256
6
ByLayer
370
18
48
1
60
0
100
AcDbCircle
10
11
20
6.2125
30
0
40
5.35
39
0
210
0
220
0
230
1
0
CIRCLE
5
FD
100
AcDbEntity
8
1
62
256
6
ByLayer
370
13
48
1
60
0
100
AcDbCircle
10
11
20
6.2125
30
0
40
4.55
39
0
210
0
220
0
230
1
0
ELLIPSE
5
105
100
AcDbEntity
8
SK1
62
256
6
ByLayer
370
18
48
1
60
0
100
AcDbEllipse
10
-3.301981
20
-12.45059
30
0
11
3.00000000000099
21
3.51436609374873E-15
31
0
210
0
220
0
230
1
40
0.004363
41
0.846871315211041
42
1.5707963267949
0
ELLIPSE
5
106
100
AcDbEntity
8
SK1
62
256
6
ByLayer
370
18
48
1
60
0
100
AcDbEllipse
10
-3.301981
20
-8.507883
30
0
11
0.0800284643855706
21
-26.7548845690061
31
0
210
0
220
0
230
1
40
0.112089
41
1.80591639491693
42
2.46971344895062
0
ELLIPSE
5
107
100
AcDbEntity
8
SK1
62
256
6
ByLayer
370
18
48
1
60
0
100
AcDbEllipse
10
-3.301981
20
-11.62271
30
0
11
2.99999999998778
21
3.51436609373325E-15
31
0
210
0
220
0
230
1
40
0.36397
41
-0.846871315212466
42
-0.26179938779893
0
ELLIPSE
5
108
100
AcDbEntity
8
SK1
62
256
6
ByLayer
370
18
48
1
60
0
100
AcDbEllipse
10
-0.083092
20
-6.999588
30
0
11
1.04091540074363E-16
21
1.6999999999912
31
0
210
0
220
0
230
1
40
0.267949
41
2.35924994306662
42
-2.9581508927632
0
ELLIPSE
5
109
100
AcDbEntity
8
SK1
62
256
6
ByLayer
370
18
48
1
60
0
100
AcDbEllipse
10
-25.73391
20
-6.999492
30
0
11
64.9179414945594
21
-0.189658295414235
31
0
210
0
220
0
230
1
40
0.026022
41
1.16327273272377
42
1.16842005680268
0
ELLIPSE
5
10A
100
AcDbEntity
8
SK1
62
256
6
ByLayer
370
18
48
1
60
0
100
AcDbEllipse
10
-0.083092
20
-6.999588
30
0
11
1.04091540091287E-16
21
1.7000000002676
31
0
210
0
220
0
230
1
40
0.267949
41
0.514165236363557
42
0.782342710481069
0
ELLIPSE
5
10B
100
AcDbEntity
8
1
62
256
6
ByLayer
370
18
48
1
60
0
100
AcDbEllipse
10
-0.083092
20
-6.999588
30
0
11
1.04091540074901E-16
21
1.69999999999998
31
0
210
0
220
0
230
1
40
0.267949
41
-2.95815089276384
42
-0.18344176082596
0
ELLIPSE
5
10C
100
AcDbEntity
8
1
62
256
6
ByLayer
370
18
48
1
60
0
100
AcDbEllipse
10
-25.735574
20
-6.999588
30
0
11
64.920380617315
21
-0.189625594227656
31
0
210
0
220
0
230
1
40
0.026023
41
1.16083724616879
42
1.16326101485543
0
ELLIPSE
5
10D
100
AcDbEntity
8
1
62
256
6
ByLayer
370
18
48
1
60
0
100
AcDbEllipse
10
218.199999
20
45.180389
30
0
11
193.024999172126
21
2.26120170778725E-13
31
0
210
0
220
0
230
1
40
0.80402
41
-3.05330395273584
42
-3.01171089077124
0
ELLIPSE
5
10E
100
AcDbEntity
8
1
62
256
6
ByLayer
370
18
48
1
60
0
100
AcDbEllipse
10
218.199801
20
25.117454
30
0
11
1.49360960223539E-14
21
243.933015302978
31
0
210
0
220
0
230
1
40
0.791302
41
1.58044734115624
42
1.59152052522932
0
ELLIPSE
5
10F
100
AcDbEntity
8
1
62
256
6
ByLayer
370
18
48
1
60
0
100
AcDbEllipse
10
218.2
20
-12.438045
30
0
11
193.024999979483
21
2.26120171724507E-13
31
0
210
0
220
0
230
1
40
0.004363
41
3.01171089104099
42
3.13826332275783
0
ELLIPSE
5
110
100
AcDbEntity
8
1
62
256
6
ByLayer
370
18
48
1
60
0
100
AcDbEllipse
10
95.999997
20
25.117454
30
0
11
5.97173308479355E-15
21
97.5290233658174
31
0
210
0
220
0
230
1
40
0.791303
41
1.59486392636915
42
1.62264981788128
0
ELLIPSE
5
111
100
AcDbEntity
8
1
62
256
6
ByLayer
370
18
48
1
60
0
100
AcDbEllipse
10
95.867177
20
-873.139414
30
0
11
13.3736790636358
21
-5981.09280044961
31
0
210
0
220
0
230
1
40
0.012685
41
-1.72118088804373
42
-1.71979306784633
0
ELLIPSE
5
112
100
AcDbEntity
8
1
62
256
6
ByLayer
370
18
48
1
60
0
100
AcDbEllipse
10
18.825
20
14.711571
30
0
11
1.70802881877509E-16
21
2.78951487299376
31
0
210
0
220
0
230
1
40
0.573576
41
2.24851344251473
42
3.14159265358979
0
ELLIPSE
5
113
100
AcDbEntity
8
1
62
256
6
ByLayer
370
18
48
1
60
0
100
AcDbEllipse
10
218.199976
20
25.775092
30
0
11
1.6879254632047E-14
21
275.66825175064
31
0
210
0
220
0
230
1
40
0.700207
41
1.59152051584897
42
1.61069812254396
0
ELLIPSE
5
114
100
AcDbEntity
8
1
62
256
6
ByLayer
370
18
48
1
60
0
100
AcDbEllipse
10
96
20
25.775092
30
0
11
6.74864164620671E-15
21
110.217322083004
31
0
210
0
220
0
230
1
40
0.700208
41
1.62264981688165
42
1.67270429297565
0
ELLIPSE
5
115
100
AcDbEntity
8
1
62
256
6
ByLayer
370
18
48
1
60
0
100
AcDbEllipse
10
218.199997
20
-12.669125
30
0
11
193.024997303282
21
2.26120168589456E-13
31
0
210
0
220
0
230
1
40
0.36397
41
3.10169086005753
42
3.13834247588168
0
ELLIPSE
5
116
100
AcDbEntity
8
SK1
62
256
6
ByLayer
370
18
48
1
60
0
100
AcDbEllipse
10
-3.301981
20
0.466302
30
0
11
0.0800284640354398
21
-26.7548845746619
31
0
210
0
220
0
230
1
40
0.112089
41
1.8059163949996
42
2.03869391317167
0
ELLIPSE
5
117
100
AcDbEntity
8
SK1
62
256
6
ByLayer
370
18
48
1
60
0
100
AcDbEllipse
10
-0.083092
20
-6.999588
30
0
11
3.46597991383467E-10
21
-1.69999999041799
31
0
210
0
220
0
230
1
40
0.267949
41
2.95815089219148
42
3.05935729912804
0
POINT
5
70
100
AcDbEntity
8
81
62
256
6
ByLayer
370
18
48
1
60
0
100
AcDbPoint
10
26
20
34.5625
30
0
39
0
210
0
220
0
230
1
50
360
0
POINT
5
72
100
AcDbEntity
8
80
62
256
6
ByLayer
370
18
48
1
60
0
100
AcDbPoint
10
0
20
0
30
0
39
0
210
0
220
0
230
1
50
360
0
POINT
5
74
100
AcDbEntity
8
1
62
256
6
ByLayer
370
18
48
1
60
1
100
AcDbPoint
10
26
20
34.5625
30
0
39
0
210
0
220
0
230
1
50
360
0
POINT
5
76
100
AcDbEntity
8
1
62
256
6
ByLayer
370
18
48
1
60
1
100
AcDbPoint
10
-124
20
-12.4375
30
0
39
0
210
0
220
0
230
1
50
360
0
POINT
5
77
100
AcDbEntity
8
1
62
256
6
ByLayer
370
18
48
1
60
1
100
AcDbPoint
10
18.825
20
14.5625
30
0
39
0
210
0
220
0
230
1
50
360
0
POINT
5
78
100
AcDbEntity
8
1
62
256
6
ByLayer
370
18
48
1
60
1
100
AcDbPoint
10
26
20
34.5625
30
0
39
0
210
0
220
0
230
1
50
360
0
POINT
5
79
100
AcDbEntity
8
1
62
256
6
ByLayer
370
18
48
1
60
1
100
AcDbPoint
10
-124
20
-12.4375
30
0
39
0
210
0
220
0
230
1
50
360
0
POINT
5
7A
100
AcDbEntity
8
1
62
256
6
ByLayer
370
18
48
1
60
1
100
AcDbPoint
10
-124
20
12.5625
30
0
39
0
210
0
220
0
230
1
50
360
0
POINT
5
7B
100
AcDbEntity
8
1
62
256
6
ByLayer
370
18
48
1
60
1
100
AcDbPoint
10
18
20
34.5625
30
0
39
0
210
0
220
0
230
1
50
360
0
POINT
5
7C
100
AcDbEntity
8
1
62
256
6
ByLayer
370
18
48
1
60
1
100
AcDbPoint
10
26
20
34.5625
30
0
39
0
210
0
220
0
230
1
50
360
0
POINT
5
7D
100
AcDbEntity
8
1
62
256
6
ByLayer
370
18
48
1
60
1
100
AcDbPoint
10
-124
20
-12.4375
30
0
39
0
210
0
220
0
230
1
50
360
0
POINT
5
7E
100
AcDbEntity
8
1
62
256
6
ByLayer
370
18
48
1
60
1
100
AcDbPoint
10
26
20
34.5625
30
0
39
0
210
0
220
0
230
1
50
360
0
SPLINE
5
118
100
AcDbEntity
8
SK1
62
256
6
ByLayer
370
18
48
1
60
0
100
AcDbSpline
70
4
71
3
72
38
73
34
40
0
40
0
40
0
40
0
40
0.124999999999998
40
0.124999999999998
40
0.187499999999995
40
0.187499999999995
40
0.218749999999996
40
0.218749999999996
40
0.249999999999997
40
0.249999999999997
40
0.374999999999995
40
0.374999999999995
40
0.406249999999995
40
0.421874999999996
40
0.421874999999996
40
0.437499999999997
40
0.437499999999997
40
0.5
40
0.5
40
0.625000000000006
40
0.625000000000006
40
0.656250000000007
40
0.656250000000007
40
0.687500000000008
40
0.687500000000008
40
0.750000000000008
40
0.812500000000009
40
0.812500000000009
40
0.843750000000008
40
0.843750000000008
40
0.875000000000007
40
0.875000000000007
40
1
40
1
40
1
40
1
41
1
10
-0.404203485069701
20
-8.20533681787157
30
0
41
1
10
-0.425470667350567
20
-8.12645016095374
30
0
41
1
10
-0.447737342976041
20
-8.04126581975748
30
0
41
1
10
-0.479986162325872
20
-7.90405483283021
30
0
41
1
10
-0.490546284011458
20
-7.85673205240673
30
0
41
1
10
-0.505765502445684
20
-7.7832460111517
30
0
41
1
10
-0.510742485041931
20
-7.75829281835325
30
0
41
1
10
-0.520396438327793
20
-7.70769378190539
30
0
41
1
10
-0.525048627315357
20
-7.68218040209877
30
0
41
1
10
-0.547323582041486
20
-7.55354744373091
30
0
41
1
10
-0.561978629427983
20
-7.44725881696289
30
0
41
1
10
-0.574669057419158
20
-7.30992500878205
30
0
41
1
10
-0.578054872018015
20
-7.26838664085111
30
0
41
1
10
-0.580763763265963
20
-7.22632542423383
30
0
41
1
10
-0.58241432884256
20
-7.19816629914061
30
0
41
1
10
-0.583162899224533
20
-7.18400433113891
30
0
41
1
10
-0.586487915295152
20
-7.11328321689516
30
0
41
1
10
-0.5878200500361
20
-7.05688610689182
30
0
41
1
10
-0.587870298262317
20
-6.88821837738439
30
0
41
1
10
-0.582619077467541
20
-6.77646770117178
30
0
41
1
10
-0.569926129548037
20
-6.63765184882905
30
0
41
1
10
-0.567082407455075
20
-6.60995125345889
30
0
41
1
10
-0.560890134128016
20
-6.55529683856716
30
0
41
1
10
-0.557534380280259
20
-6.52825874367127
30
0
41
1
10
-0.546761688913193
20
-6.44798514530547
30
0
41
1
10
-0.53051736871322
20
-6.34319145556537
30
0
41
1
10
-0.51128598594488
20
-6.24269183576286
30
0
41
1
10
-0.496037288962782
20
-6.16890748027757
30
0
41
1
10
-0.490808930540709
20
-6.14454529811528
30
0
41
1
10
-0.48022671612793
20
-6.09678681731393
30
0
41
1
10
-0.474862747241161
20
-6.0733389519333
30
0
41
1
10
-0.447821178459265
20
-5.95820181331345
30
0
41
1
10
-0.425476331396681
20
-5.87274685536005
30
0
41
1
10
-0.404203485069701
20
-5.79383918871679
30
0
0
SPLINE
5
119
100
AcDbEntity
8
1
62
256
6
ByLayer
370
18
48
1
60
0
100
AcDbSpline
70
4
71
3
72
12
73
8
40
0
40
0
40
0
40
0
40
0.499999999999998
40
0.499999999999998
40
0.749999999999999
40
0.749999999999999
40
1
40
1
40
1
40
1
41
1
10
22.75
20
23.2719652409408
30
0
41
1
10
22.9316505382194
20
23.2417078086475
30
0
41
1
10
23.1130313510507
20
23.2105656218987
30
0
41
1
10
23.3842159656053
20
23.1609440969969
30
0
41
1
10
23.4744602903146
20
23.1439097643633
30
0
41
1
10
23.6544462479019
20
23.1081921670451
30
0
41
1
10
23.7441988591773
20
23.0895449137503
30
0
41
1
10
23.8334693797938
20
23.0693163044646
30
0
0
SPLINE
5
11A
100
AcDbEntity
8
1
62
256
6
ByLayer
370
18
48
1
60
0
100
AcDbSpline
70
4
71
3
72
8
73
4
40
0
40
0
40
0
40
0
40
1
40
1
40
1
40
1
41
1
10
22.6659227623864
20
23.4784744183105
30
0
41
1
10
22.6949588630145
20
23.4098667597019
30
0
41
1
10
22.7233572962832
20
23.3411147398105
30
0
41
1
10
22.75
20
23.2719652409408
30
0
0
SPLINE
5
11B
100
AcDbEntity
8
1
62
256
6
ByLayer
370
18
48
1
60
0
100
AcDbSpline
70
4
71
3
72
14
73
10
40
0
40
0
40
0
40
0
40
0.25
40
0.25
40
0.5
40
0.5
40
0.75
40
0.75
40
1
40
1
40
1
40
1
41
1
10
22.5249688692691
20
23.5625000000026
30
0
41
1
10
22.5408924235823
20
23.5625000000025
30
0
41
1
10
22.5563652115645
20
23.5604137746706
30
0
41
1
10
22.5864122942749
20
23.5521534605949
30
0
41
1
10
22.6001698725936
20
23.5462017851155
30
0
41
1
10
22.6252653512689
20
23.5308559183434
30
0
41
1
10
22.6359768990419
20
23.5218426947342
30
0
41
1
10
22.6540016926827
20
23.5013357270155
30
0
41
1
10
22.6609418426605
20
23.4902435344355
30
0
41
1
10
22.6659227623863
20
23.4784744183105
30
0
0
SPLINE
5
11C
100
AcDbEntity
8
1
62
256
6
ByLayer
370
18
48
1
60
0
100
AcDbSpline
70
4
71
3
72
20
73
16
40
0
40
0
40
0
40
0
40
0.250000000000219
40
0.250000000000219
40
0.375000000000182
40
0.375000000000182
40
0.500000000000146
40
0.500000000000146
40
0.625000000000109
40
0.625000000000109
40
0.750000000000073
40
0.750000000000073
40
0.875000000000036
40
0.875000000000036
40
1
40
1
40
1
40
1
41
1
10
21.3340772376138
20
23.4784744183108
30
0
41
1
10
21.3390821443165
20
23.4903002118231
30
0
41
1
10
21.3460101541563
20
23.5013408615426
30
0
41
1
10
21.3594587425234
20
23.5166539312387
30
0
41
1
10
21.3644624767869
20
23.5215333683442
30
0
41
1
10
21.3752015670467
20
23.53051502139
30
0
41
1
10
21.3809735972712
20
23.534663052109
30
0
41
1
10
21.3933521809151
20
23.5422483516989
30
0
41
1
10
21.400030436953
20
23.5457130107951
30
0
41
1
10
21.4138652213026
20
23.5516750290781
30
0
41
1
10
21.4210222313756
20
23.5541878771009
30
0
41
1
10
21.4358172431231
20
23.558273820448
30
0
41
1
10
21.443504199663
20
23.5598533011998
30
0
41
1
10
21.4591670561377
20
23.5619680723927
30
0
41
1
10
21.4670652829311
20
23.5625000000113
30
0
41
1
10
21.4750311307301
20
23.5625000000114
30
0
0
SPLINE
5
11D
100
AcDbEntity
8
1
62
256
6
ByLayer
370
18
48
1
60
0
100
AcDbSpline
70
4
71
3
72
8
73
4
40
0
40
0
40
0
40
0
40
1
40
1
40
1
40
1
41
1
10
21.25
20
23.2719652409408
30
0
41
1
10
21.2766504418036
20
23.3411348235386
30
0
41
1
10
21.3050472946191
20
23.4098813092044
30
0
41
1
10
21.3340772376138
20
23.4784744183108
30
0
0
SPLINE
5
11E
100
AcDbEntity
8
1
62
256
6
ByLayer
370
18
48
1
60
0
100
AcDbSpline
70
4
71
3
72
12
73
8
40
0
40
0
40
0
40
0
40
0.249999999999982
40
0.249999999999982
40
0.499999999999964
40
0.499999999999964
40
1
40
1
40
1
40
1
41
1
10
20.1665306202061
20
23.0693163044647
30
0
41
1
10
20.2556452647748
20
23.0895095923963
30
0
41
1
10
20.3453480733421
20
23.1081500132426
30
0
41
1
10
20.5253440219202
20
23.1438722653747
30
0
41
1
10
20.6156675261323
20
23.1609224840509
30
0
41
1
10
20.8869806727467
20
23.2105684100485
30
0
41
1
10
21.068372721303
20
23.2417116829737
30
0
41
1
10
21.25
20
23.2719652409408
30
0
0
SPLINE
5
11F
100
AcDbEntity
8
1
62
256
6
ByLayer
370
18
48
1
60
0
100
AcDbSpline
70
4
71
3
72
31
73
27
40
0
40
0
40
0
40
0
40
0.125000000000016
40
0.125000000000016
40
0.250000000000032
40
0.250000000000032
40
0.281250000000042
40
0.281250000000042
40
0.312500000000052
40
0.375000000000072
40
0.375000000000072
40
0.500000000000112
40
0.500000000000112
40
0.56250000000013
40
0.56250000000013
40
0.625000000000148
40
0.625000000000148
40
0.750000000000155
40
0.750000000000155
40
0.781250000000149
40
0.781250000000149
40
0.812500000000143
40
0.812500000000143
40
0.875000000000095
40
0.875000000000095
40
1
40
1
40
1
40
1
41
1
10
18.8500001674976
20
14.5625
30
0
41
1
10
18.8500283407292
20
14.4775887940839
30
0
41
1
10
18.843368464776
20
14.3938498510159
30
0
41
1
10
18.8172576480444
20
14.2286139475077
30
0
41
1
10
18.7978055315842
20
14.1471171931376
30
0
41
1
10
18.7652507369009
20
14.046690473186
30
0
41
1
10
18.7583116953093
20
14.0266448254808
30
0
41
1
10
18.7437187456539
20
13.9870384351462
30
0
41
1
10
18.7207264081484
20
13.9282512042115
30
0
41
1
10
18.6944850466103
20
13.871297340827
30
0
41
1
10
18.637750621548
20
13.759788775276
30
0
41
1
10
18.5942847860676
20
13.6886339133327
30
0
41
1
10
18.520465198601
20
13.5867662067072
30
0
41
1
10
18.4943162354533
20
13.5535256667129
30
0
41
1
10
18.4399732870255
20
13.4897824919018
30
0
41
1
10
18.4117036592161
20
13.4591571923399
30
0
41
1
10
18.3236764313378
20
13.3709337732174
30
0
41
1
10
18.2607197414801
20
13.316966281222
30
0
41
1
10
18.1766382521462
20
13.2556190316029
30
0
41
1
10
18.1595511341984
20
13.2436569337435
30
0
41
1
10
18.1248277827461
20
13.2203559259342
30
0
41
1
10
18.1071613695413
20
13.2089996127683
30
0
41
1
10
18.0536983595321
20
13.1761067334731
30
0
41
1
10
18.0173607282828
20
13.1556853021193
30
0
41
1
10
17.9062981417172
20
13.0988619156409
30
0
41
1
10
17.8295360831393
20
13.0668735913028
30
0
41
1
10
17.7500000000015
20
13.0408955269403
30
0
0
SPLINE
5
120
100
AcDbEntity
8
1
62
256
6
ByLayer
370
18
48
1
60
0
100
AcDbSpline
70
4
71
3
72
9
73
5
40
0
40
0
40
0
40
0
40
0.5
40
1
40
1
40
1
40
1
41
1
10
17.75
20
13.0492620361203
30
0
41
1
10
17.75
20
13.048418214967
30
0
41
1
10
17.75
20
13.0461532130784
30
0
41
1
10
17.7500000000001
20
13.0428091170199
30
0
41
1
10
17.75
20
13.0408955269434
30
0
0
SPLINE
5
121
100
AcDbEntity
8
1
62
256
6
ByLayer
370
18
48
1
60
0
100
AcDbSpline
70
4
71
3
72
9
73
5
40
0
40
0
40
0
40
0
40
0.5
40
1
40
1
40
1
40
1
41
1
10
17.230516978761
20
12.9625
30
0
41
1
10
17.3195683668288
20
12.9625
30
0
41
1
10
17.4951472196058
20
12.9772707381111
30
0
41
1
10
17.6658882206393
20
13.0203540004083
30
0
41
1
10
17.7500000000003
20
13.0492620361204
30
0
0
SPLINE
5
122
100
AcDbEntity
8
1
62
256
6
ByLayer
370
18
48
1
60
0
100
AcDbSpline
70
4
71
3
72
21
73
17
40
0
40
0
40
0
40
0
40
0.125000000000095
40
0.187500000000121
40
0.187500000000121
40
0.250000000000147
40
0.250000000000147
40
0.500000000000114
40
0.500000000000114
40
0.625000000000092
40
0.625000000000092
40
0.687500000000083
40
0.687500000000083
40
0.750000000000074
40
0.750000000000074
40
1
40
1
40
1
40
1
41
1
10
17.7918536195426
20
12.9625
30
0
41
1
10
17.8323171023755
20
12.9625
30
0
41
1
10
17.8952166330377
20
12.9653681476013
30
0
41
1
10
17.9610071543526
20
12.9732785307903
30
0
41
1
10
18.0054632313238
20
12.9797594640923
30
0
41
1
10
18.027914616947
20
12.9835954581863
30
0
41
1
10
18.1403441431715
20
13.005716598005
30
0
41
1
10
18.2315754129587
20
13.0329258043005
30
0
41
1
10
18.3673190755121
20
13.0893745946852
30
0
41
1
10
18.4123848559617
20
13.1107974337515
30
0
41
1
10
18.4793127587917
20
13.1470326330516
30
0
41
1
10
18.5015056263055
20
13.1597972711888
30
0
41
1
10
18.5451778699723
20
13.1864528438532
30
0
41
1
10
18.5667117046037
20
13.2003721032328
30
0
41
1
10
18.6727423025021
20
13.2728785060893
30
0
41
1
10
18.7523379830685
20
13.3401829760703
30
0
41
1
10
18.8249999999929
20
13.4162949417789
30
0
0
SPLINE
5
123
100
AcDbEntity
8
1
62
256
6
ByLayer
370
18
48
1
60
0
100
AcDbSpline
70
4
71
3
72
22
73
18
40
0
40
0
40
0
40
0
40
0.25000000000001
40
0.25000000000001
40
0.375000000000014
40
0.375000000000014
40
0.437500000000019
40
0.437500000000019
40
0.500000000000024
40
0.500000000000024
40
0.750000000000009
40
0.750000000000009
40
0.875000000000006
40
0.875000000000006
40
0.937500000000003
40
0.937500000000003
40
1
40
1
40
1
40
1
41
1
10
19.2253935029774
20
14.5625
30
0
41
1
10
19.2326556518254
20
14.4610801039845
30
0
41
1
10
19.230373458387
20
14.3601995221807
30
0
41
1
10
19.2122920038909
20
14.2097069261762
30
0
41
1
10
19.2038060004117
20
14.1596816678119
30
0
41
1
10
19.1871823459512
20
14.084863851971
30
0
41
1
10
19.1809907650584
20
14.0599613295305
30
0
41
1
10
19.1672552189387
20
14.0102327027062
30
0
41
1
10
19.1596894715645
20
13.9853455990964
30
0
41
1
10
19.1186682540774
20
13.8621225477768
30
0
41
1
10
19.0757356530638
20
13.7671279442858
30
0
41
1
10
18.9947871033979
20
13.6304993681896
30
0
41
1
10
18.965026126306
20
13.5859407645061
30
0
41
1
10
18.9158043015703
20
13.5207256217572
30
0
41
1
10
18.8986073908732
20
13.4992341342525
30
0
41
1
10
18.8628654414312
20
13.4571427508208
30
0
41
1
10
18.8442953851443
20
13.4365064601915
30
0
41
1
10
18.824999999992
20
13.4162949417778
30
0
0
SPLINE
5
124
100
AcDbEntity
8
1
62
256
6
ByLayer
370
18
48
1
60
0
100
AcDbSpline
70
4
71
3
72
37
73
33
40
0
40
0
40
0
40
0
40
0.125000000000027
40
0.125000000000027
40
0.250000000000053
40
0.250000000000053
40
0.37500000000008
40
0.37500000000008
40
0.437500000000105
40
0.437500000000105
40
0.500000000000129
40
0.500000000000129
40
0.562500000000154
40
0.562500000000154
40
0.625000000000178
40
0.625000000000178
40
0.687500000000203
40
0.687500000000203
40
0.718750000000211
40
0.718750000000211
40
0.750000000000218
40
0.750000000000218
40
0.81250000000016
40
0.81250000000016
40
0.843750000000135
40
0.843750000000135
40
0.87500000000011
40
0.906250000000085
40
0.906250000000085
40
0.937500000000061
40
0.937500000000061
40
1
40
1
40
1
40
1
41
1
10
8.19330000000008
20
6.21250000000001
30
0
41
1
10
8.19330000000014
20
6.17605915125961
30
0
41
1
10
8.19472521357605
20
6.13958155559956
30
0
41
1
10
8.20049972414856
20
6.06695289977503
30
0
41
1
10
8.20485432960601
20
6.03072126672171
30
0
41
1
10
8.21673476691095
20
5.95892044783633
30
0
41
1
10
8.22427434176032
20
5.9232503514381
30
0
41
1
10
8.23832058861086
20
5.87064856749348
30
0
41
1
10
8.24346119699536
20
5.85326004335471
30
0
41
1
10
8.25477621291773
20
5.81881360005056
30
0
41
1
10
8.2609515293482
20
5.80175878017809
30
0
41
1
10
8.27440668282932
20
5.76826979481152
30
0
41
1
10
8.28169363799734
20
5.75180767645421
30
0
41
1
10
8.29759642441536
20
5.71956174414285
30
0
41
1
10
8.3062375307812
20
5.7037438654032
30
0
41
1
10
8.32486539888404
20
5.67344133532529
30
0
41
1
10
8.33487203122206
20
5.65890060544439
30
0
41
1
10
8.3511761785274
20
5.63824676515998
30
0
41
1
10
8.35682784517698
20
5.63155619463222
30
0
41
1
10
8.36863037717666
20
5.61862462188188
30
0
41
1
10
8.37481237701434
20
5.61235655870163
30
0
41
1
10
8.39391752302302
20
5.59464017879799
30
0
41
1
10
8.4074200577007
20
5.58421497116328
30
0
41
1
10
8.4291013864358
20
5.57121143879866
30
0
41
1
10
8.43662646646027
20
5.56729663212431
30
0
41
1
10
8.45187703072847
20
5.56064060808049
30
0
41
1
10
8.46732332679406
20
5.55513818925388
30
0
41
1
10
8.48316878536255
20
5.55203721018003
30
0
41
1
10
8.49922196443447
20
5.5502063920344
30
0
41
1
10
8.50728040268774
20
5.54994496970176
30
0
41
1
10
8.53096523198636
20
5.55104049157737
30
0
41
1
10
8.54634066983206
20
5.55423321703387
30
0
41
1
10
8.56134335770128
20
5.55962924142361
30
0
0
SPLINE
5
125
100
AcDbEntity
8
1
62
256
6
ByLayer
370
18
48
1
60
0
100
AcDbSpline
70
4
71
3
72
35
73
31
40
0
40
0
40
0
40
0
40
0.124999999999979
40
0.124999999999979
40
0.249999999999958
40
0.249999999999958
40
0.374999999999937
40
0.374999999999937
40
0.437499999999891
40
0.437499999999891
40
0.499999999999846
40
0.499999999999846
40
0.624999999999817
40
0.624999999999817
40
0.687499999999825
40
0.687499999999825
40
0.718749999999837
40
0.718749999999837
40
0.74999999999985
40
0.74999999999985
40
0.812499999999884
40
0.812499999999884
40
0.843749999999905
40
0.843749999999905
40
0.874999999999925
40
0.906249999999946
40
0.906249999999946
40
0.937499999999967
40
0.937499999999967
40
1
40
1
40
1
40
1
41
1
10
9.59665000000007
20
3.78182649919822
30
0
41
1
10
9.56510965071297
20
3.80003632834948
30
0
41
1
10
9.53421557387995
20
3.8195187107203
30
0
41
1
10
9.47421161671906
20
3.86082860387873
30
0
41
1
10
9.44509160660292
20
3.8826519753037
30
0
41
1
10
9.38880064271402
20
3.92887564616947
30
0
41
1
10
9.36171693883946
20
3.95320592606825
30
0
41
1
10
9.32322240952908
20
3.99162365847877
30
0
41
1
10
9.31073667276397
20
4.00476157557401
30
0
41
1
10
9.286550223473
20
4.03178783301735
30
0
41
1
10
9.2748510469558
20
4.04567735247534
30
0
41
1
10
9.24137174694226
20
4.08834656771867
30
0
41
1
10
9.22101600407041
20
4.11830866047978
30
0
41
1
10
9.19553981976097
20
4.16539939322772
30
0
41
1
10
9.18785711463173
20
4.18154610971592
30
0
41
1
10
9.17808317982769
20
4.20617676676292
30
0
41
1
10
9.17511545638791
20
4.21445690431796
30
0
41
1
10
9.1698396957965
20
4.23117343289431
30
0
41
1
10
9.16752616670334
20
4.23963930730577
30
0
41
1
10
9.16180039789293
20
4.26497652104558
30
0
41
1
10
9.15956113249436
20
4.28183826620332
30
0
41
1
10
9.15918832947935
20
4.30705009076342
30
0
41
1
10
9.15957528676884
20
4.31550169505852
30
0
41
1
10
9.16145976709686
20
4.33198389739525
30
0
41
1
10
9.16443594505782
20
4.34806068489237
30
0
41
1
10
9.169680759659
20
4.36328635398246
30
0
41
1
10
9.17612382476167
20
4.37805892874269
30
0
41
1
10
9.17992280182037
20
4.38514335025627
30
0
41
1
10
9.19269592430231
20
4.40504336013007
30
0
41
1
10
9.20312600414124
20
4.41672865291036
30
0
41
1
10
9.21526901653553
20
4.42699677594979
30
0
0
SPLINE
5
126
100
AcDbEntity
8
1
62
256
6
ByLayer
370
18
48
1
60
0
100
AcDbSpline
70
4
71
3
72
50
73
46
40
0
40
0
40
0
40
0
40
0.0312499999999839
40
0.0312499999999839
40
0.0624999999999678
40
0.0624999999999678
40
0.0937499999999518
40
0.0937499999999518
40
0.124999999999936
40
0.124999999999936
40
0.15624999999992
40
0.15624999999992
40
0.187499999999903
40
0.187499999999903
40
0.218749999999887
40
0.218749999999887
40
0.249999999999871
40
0.249999999999871
40
0.31249999999988
40
0.31249999999988
40
0.374999999999888
40
0.374999999999888
40
0.437499999999897
40
0.437499999999897
40
0.499999999999905
40
0.499999999999905
40
0.624999999999922
40
0.624999999999922
40
0.687499999999933
40
0.687499999999933
40
0.749999999999944
40
0.749999999999944
40
0.812499999999955
40
0.812499999999955
40
0.843749999999962
40
0.843749999999962
40
0.87499999999997
40
0.87499999999997
40
0.906249999999977
40
0.906249999999977
40
0.937499999999985
40
0.937499999999985
40
0.968749999999992
40
0.968749999999992
40
1
40
1
40
1
40
1
41
1
10
8.58134335770129
20
5.56100103823448
30
0
41
1
10
8.59501130852325
20
5.56193852080193
30
0
41
1
10
8.60870600578389
20
5.56141488064077
30
0
41
1
10
8.63614732276366
20
5.55803341093826
30
0
41
1
10
8.6498802792411
20
5.55516243987918
30
0
41
1
10
8.67696363107052
20
5.54758980234252
30
0
41
1
10
8.69041077071157
20
5.54286268126165
30
0
41
1
10
8.71684528316229
20
5.53196420987479
30
0
41
1
10
8.72985518562126
20
5.5257893156373
30
0
41
1
10
8.75553671933321
20
5.51220863089912
30
0
41
1
10
8.76818323587582
20
5.50481214512263
30
0
41
1
10
8.7929935882633
20
5.48906875264524
30
0
41
1
10
8.80518309858763
20
5.48070751156877
30
0
41
1
10
8.82919040653417
20
5.4631147944111
30
0
41
1
10
8.84101183598074
20
5.45387748804708
30
0
41
1
10
8.86417103204508
20
5.43473764324557
30
0
41
1
10
8.8755300442217
20
5.42481984284848
30
0
41
1
10
8.90901371225291
20
5.3941101364104
30
0
41
1
10
8.93060200063832
20
5.37230506863921
30
0
41
1
10
8.97201803752796
20
5.32687030752925
30
0
41
1
10
8.99188125963732
20
5.30321367197931
30
0
41
1
10
9.03008002061415
20
5.25416604536767
30
0
41
1
10
9.04837218509223
20
5.22881855884194
30
0
41
1
10
9.08314511894591
20
5.17697010111092
30
0
41
1
10
9.0996744633425
20
5.15040541389578
30
0
41
1
10
9.14668184798316
20
5.06884891163023
30
0
41
1
10
9.1740884330836
20
5.01298387292124
30
0
41
1
10
9.20895602592793
20
4.92678047522489
30
0
41
1
10
9.21954456848238
20
4.89754509042837
30
0
41
1
10
9.23803381785288
20
4.83917157068345
30
0
41
1
10
9.24598671353053
20
4.80993107975763
30
0
41
1
10
9.2589718113932
20
4.75127676933016
30
0
41
1
10
9.26401319265918
20
4.72186401705039
30
0
41
1
10
9.26884877029934
20
4.67753315779791
30
0
41
1
10
9.2700014789109
20
4.6626755872833
30
0
41
1
10
9.27122042021225
20
4.63329477237778
30
0
41
1
10
9.27129429760473
20
4.6187326229358
30
0
41
1
10
9.27021830987294
20
4.58988680075012
30
0
41
1
10
9.26906994681607
20
4.57560283459338
30
0
41
1
10
9.26531396472683
20
4.54735194649004
30
0
41
1
10
9.26269610856099
20
4.53333337891192
30
0
41
1
10
9.25567390813674
20
4.5059067843124
30
0
41
1
10
9.25131552110821
20
4.49265569718943
30
0
41
1
10
9.24055789385994
20
4.46724932156906
30
0
41
1
10
9.23416441764283
20
4.45509092290391
30
0
41
1
10
9.22645702742298
20
4.44363138562065
30
0
0
SPLINE
5
127
100
AcDbEntity
8
1
62
256
6
ByLayer
370
18
48
1
60
0
100
AcDbSpline
70
4
71
3
72
8
73
4
40
0
40
0
40
0
40
0
40
1
40
1
40
1
40
1
41
1
10
8.56134335770128
20
5.55962924142364
30
0
41
1
10
8.56800978109692
20
5.56008649034132
30
0
41
1
10
8.57467644586313
20
5.56054375581459
30
0
41
1
10
8.58134335770129
20
5.56100103823448
30
0
0
SPLINE
5
128
100
AcDbEntity
8
1
62
256
6
ByLayer
370
18
48
1
60
0
100
AcDbSpline
70
4
71
3
72
8
73
4
40
0
40
0
40
0
40
0
40
1
40
1
40
1
40
1
41
1
10
9.21526901653553
20
4.42699677594979
30
0
41
1
10
9.21899821741192
20
4.43254144350394
30
0
41
1
10
9.22272755331113
20
4.43808631181335
30
0
41
1
10
9.22645702742255
20
4.44363138562002
30
0
0
SPLINE
5
129
100
AcDbEntity
8
1
62
256
6
ByLayer
370
18
48
1
60
0
100
AcDbSpline
70
4
71
3
72
35
73
31
40
0
40
0
40
0
40
0
40
0.12500000000002
40
0.12500000000002
40
0.250000000000039
40
0.250000000000039
40
0.375000000000059
40
0.375000000000059
40
0.437500000000069
40
0.437500000000069
40
0.50000000000008
40
0.50000000000008
40
0.625000000000101
40
0.625000000000101
40
0.687500000000112
40
0.687500000000112
40
0.718750000000069
40
0.718750000000069
40
0.750000000000026
40
0.750000000000026
40
0.812500000000026
40
0.812500000000026
40
0.843750000000022
40
0.843750000000022
40
0.875000000000018
40
0.906250000000013
40
0.906250000000013
40
0.937500000000009
40
0.937500000000009
40
1
40
1
40
1
40
1
41
1
10
12.4033500000001
20
3.78182649919822
30
0
41
1
10
12.371809650713
20
3.76361667004696
30
0
41
1
10
12.3394903742371
20
3.74660280586855
30
0
41
1
10
12.2737129787538
20
3.71529280121885
30
0
41
1
10
12.2402533796455
20
3.70098581841231
30
0
41
1
10
12.1720770244751
20
3.67534824911388
30
0
41
1
10
12.1374645320643
20
3.66405821347928
30
0
41
1
10
12.0849465351857
20
3.64992983939504
30
0
41
1
10
12.0673258968459
20
3.64568583271907
30
0
41
1
10
12.0318272466853
20
3.63825288192746
30
0
41
1
10
12.0139489817297
20
3.63506585758924
30
0
41
1
10
11.9602567073627
20
3.62740654089819
30
0
41
1
10
11.9241309024451
20
3.62475899683884
30
0
41
1
10
11.8706110394478
20
3.62624134040937
30
0
41
1
10
11.8527862202167
20
3.62766128084175
30
0
41
1
10
11.8265684781001
20
3.63151213353001
30
0
41
1
10
11.8179138069108
20
3.63308207841729
30
0
41
1
10
11.8007989882048
20
3.63687140000897
30
0
41
1
10
11.7923105613527
20
3.63910076224769
30
0
41
1
10
11.7675050061877
20
3.64681070787154
30
0
41
1
10
11.7517826738296
20
3.65330231972945
30
0
41
1
10
11.7297621917774
20
3.6655853751279
30
0
41
1
10
11.7226363663998
20
3.67014629211835
30
0
41
1
10
11.7093046006299
20
3.68001940112376
30
0
41
1
10
11.6968697832266
20
3.69063524059268
30
0
41
1
10
11.6863063743056
20
3.70279021782045
30
0
41
1
10
11.6767344818353
20
3.71575636325773
30
0
41
1
10
11.6724986813627
20
3.72258858465574
30
0
41
1
10
11.6616513285174
20
3.74360043814758
30
0
41
1
10
11.6567466080384
20
3.7584757986418
30
0
41
1
10
11.6539256588343
20
3.77412601737342
30
0
0
SPLINE
5
12A
100
AcDbEntity
8
1
62
256
6
ByLayer
370
18
48
1
60
0
100
AcDbSpline
70
4
71
3
72
35
73
31
40
0
40
0
40
0
40
0
40
0.125000000000049
40
0.125000000000049
40
0.250000000000099
40
0.250000000000099
40
0.375000000000148
40
0.375000000000148
40
0.500000000000198
40
0.500000000000198
40
0.562500000000224
40
0.562500000000224
40
0.625000000000249
40
0.625000000000249
40
0.687500000000275
40
0.687500000000275
40
0.718750000000245
40
0.718750000000245
40
0.750000000000215
40
0.750000000000215
40
0.812500000000154
40
0.812500000000154
40
0.843750000000124
40
0.843750000000124
40
0.875000000000094
40
0.906250000000064
40
0.906250000000064
40
0.937500000000034
40
0.937500000000034
40
1
40
1
40
1
40
1
41
1
10
9.59665000000007
20
3.78182649919822
30
0
41
1
10
9.62818964068205
20
3.76361707916036
30
0
41
1
10
9.66046839050722
20
3.74662302261356
30
0
41
1
10
9.72629273042332
20
3.71528949518586
30
0
41
1
10
9.75975163491123
20
3.70098479943525
30
0
41
1
10
9.82786697007901
20
3.67536844375203
30
0
41
1
10
9.86253826253252
20
3.66405354883281
30
0
41
1
10
9.93276250329262
20
3.64516968407352
30
0
41
1
10
9.96833340625733
20
3.63758435892507
30
0
41
1
10
10.0220395184431
20
3.62993653411709
30
0
41
1
10
10.0399728163221
20
3.62801622771485
30
0
41
1
10
10.0759069573455
20
3.62567201283736
30
0
41
1
10
10.0938641684491
20
3.62525530797617
30
0
41
1
10
10.1293559738153
20
3.62624253367176
30
0
41
1
10
10.1469404772025
20
3.62763853295098
30
0
41
1
10
10.1729995451175
20
3.63144026930345
30
0
41
1
10
10.1816325923285
20
3.63299388109547
30
0
41
1
10
10.1987728263576
20
3.6367649785557
30
0
41
1
10
10.2072878541332
20
3.63898888202414
30
0
41
1
10
10.2321395291712
20
3.6466752320224
30
0
41
1
10
10.2479407419181
20
3.65316464641848
30
0
41
1
10
10.2701408925116
20
3.66552314383736
30
0
41
1
10
10.2772692127895
20
3.67008496040177
30
0
41
1
10
10.2905467941197
20
3.67990091090425
30
0
41
1
10
10.3029531586216
20
3.69046481510313
30
0
41
1
10
10.3135286775652
20
3.70258999850304
30
0
41
1
10
10.3231260577992
20
3.7155449547937
30
0
41
1
10
10.3274015098717
20
3.72241463431649
30
0
41
1
10
10.3383183637023
20
3.74350356888007
30
0
41
1
10
10.3432450184465
20
3.75842934358914
30
0
41
1
10
10.3460743411658
20
3.77412601737342
30
0
0
SPLINE
5
12B
100
AcDbEntity
8
1
62
256
6
ByLayer
370
18
48
1
60
0
100
AcDbSpline
70
4
71
3
72
52
73
48
40
0
40
0
40
0
40
0
40
0.0156249999999927
40
0.0156249999999927
40
0.0312499999999853
40
0.0312499999999853
40
0.0625000000000018
40
0.0625000000000018
40
0.0937500000000181
40
0.0937500000000181
40
0.125000000000034
40
0.125000000000034
40
0.187500000000067
40
0.187500000000067
40
0.218750000000058
40
0.218750000000058
40
0.250000000000049
40
0.250000000000049
40
0.312500000000033
40
0.312500000000033
40
0.375000000000017
40
0.375000000000017
40
0.437500000000001
40
0.437500000000001
40
0.499999999999985
40
0.499999999999985
40
0.562499999999968
40
0.562499999999968
40
0.624999999999952
40
0.624999999999952
40
0.687499999999936
40
0.687499999999936
40
0.74999999999992
40
0.74999999999992
40
0.812499999999904
40
0.812499999999904
40
0.84374999999992
40
0.84374999999992
40
0.874999999999936
40
0.874999999999936
40
0.906249999999952
40
0.906249999999952
40
0.937499999999968
40
0.937499999999968
40
0.968749999999984
40
0.968749999999984
40
1
40
1
40
1
40
1
41
1
10
11.645113669721
20
3.79213242385518
30
0
41
1
10
11.6420990260252
20
3.79829254265314
30
0
41
1
10
11.638754848497
20
3.80428758126348
30
0
41
1
10
11.6314752400977
20
3.81598266457732
30
0
41
1
10
11.627530122633
20
3.82169274398805
30
0
41
1
10
11.615036014092
20
3.83823456038175
30
0
41
1
10
11.605799444807
20
3.84854866576791
30
0
41
1
10
11.5858825121228
20
3.86805579373498
30
0
41
1
10
11.5751988978009
20
3.87724624472847
30
0
41
1
10
11.5525988849606
20
3.89468696350556
30
0
41
1
10
11.5407178703132
20
3.90290276608519
30
0
41
1
10
11.5039498487549
20
3.92604180731433
30
0
41
1
10
11.4777182279133
20
3.9396189399591
30
0
41
1
10
11.4369838724419
20
3.95759474621025
30
0
41
1
10
11.4231526670323
20
3.96319594754698
30
0
41
1
10
11.3950263028791
20
3.97369906972989
30
0
41
1
10
11.3807168356991
20
3.97860404183672
30
0
41
1
10
11.3373979197549
20
3.99227545080061
30
0
41
1
10
11.3079223314426
20
4.00003908676774
30
0
41
1
10
11.2478946737294
20
4.01323284552504
30
0
41
1
10
11.2173926862306
20
4.01864145868828
30
0
41
1
10
11.1560055894736
20
4.02721702722135
30
0
41
1
10
11.1250216614617
20
4.03040149172156
30
0
41
1
10
11.062616445595
20
4.03464748697812
30
0
41
1
10
11.0313414520581
20
4.03570011888439
30
0
41
1
10
10.968647981407
20
4.03569988109558
30
0
41
1
10
10.9373892421371
20
4.03464699659739
30
0
41
1
10
10.8750486733737
20
4.03040715354072
30
0
41
1
10
10.8439791624668
20
4.02721634112532
30
0
41
1
10
10.7825068591267
20
4.01862597879006
30
0
41
1
10
10.7519815909539
20
4.01320876677559
30
0
41
1
10
10.6919844984128
20
4.00001547956356
30
0
41
1
10
10.662446032776
20
3.99223298164844
30
0
41
1
10
10.6046206445301
20
3.97396974059635
30
0
41
1
10
10.5765107120323
20
3.96355457078539
30
0
41
1
10
10.5357575202421
20
3.94556331129755
30
0
41
1
10
10.5223891127881
20
3.93915615573775
30
0
41
1
10
10.4963676246454
20
3.92551338563212
30
0
41
1
10
10.4836988865872
20
3.91827348373411
30
0
41
1
10
10.459145837386
20
3.90281231188473
30
0
41
1
10
10.4472869483898
20
3.89460443447803
30
0
41
1
10
10.4247158675303
20
3.87717484375253
30
0
41
1
10
10.4139477058575
20
3.86791010603619
30
0
41
1
10
10.3938890811837
20
3.84822249978015
30
0
41
1
10
10.3846742376355
20
3.83788168150235
30
0
41
1
10
10.368190228144
20
3.81599511770369
30
0
41
1
10
10.3609156426976
20
3.80445271259097
30
0
41
1
10
10.3548863302788
20
3.79213242385452
30
0
0
SPLINE
5
12C
100
AcDbEntity
8
1
62
256
6
ByLayer
370
18
48
1
60
0
100
AcDbSpline
70
4
71
3
72
8
73
4
40
0
40
0
40
0
40
0
40
1
40
1
40
1
40
1
41
1
10
10.3548863302788
20
3.79213242385452
30
0
41
1
10
10.3519488925521
20
3.78613006762794
30
0
41
1
10
10.3490115636851
20
3.78012793384525
30
0
41
1
10
10.3460743411659
20
3.77412601737339
30
0
0
SPLINE
5
12D
100
AcDbEntity
8
1
62
256
6
ByLayer
370
18
48
1
60
0
100
AcDbSpline
70
4
71
3
72
8
73
4
40
0
40
0
40
0
40
0
40
1
40
1
40
1
40
1
41
1
10
11.6539256588343
20
3.77412601737342
30
0
41
1
10
11.6509884363151
20
3.78012793384525
30
0
41
1
10
11.6480511074481
20
3.78613006762794
30
0
41
1
10
11.6451136697214
20
3.79213242385452
30
0
0
SPLINE
5
12E
100
AcDbEntity
8
1
62
256
6
ByLayer
370
18
48
1
60
0
100
AcDbSpline
70
4
71
3
72
35
73
31
40
0
40
0
40
0
40
0
40
0.125000000000004
40
0.125000000000004
40
0.250000000000008
40
0.250000000000008
40
0.375000000000012
40
0.375000000000012
40
0.437500000000015
40
0.437500000000015
40
0.500000000000018
40
0.500000000000018
40
0.625000000000022
40
0.625000000000022
40
0.687500000000024
40
0.687500000000024
40
0.718750000000026
40
0.718750000000026
40
0.750000000000028
40
0.750000000000028
40
0.812500000000028
40
0.812500000000028
40
0.843750000000023
40
0.843750000000023
40
0.875000000000019
40
0.906250000000014
40
0.906250000000014
40
0.937500000000009
40
0.937500000000009
40
1
40
1
40
1
40
1
41
1
10
9.59665000000007
20
8.64317350080179
30
0
41
1
10
9.62819034928728
20
8.66138332995305
30
0
41
1
10
9.66050962576313
20
8.67839719413146
30
0
41
1
10
9.72628702124638
20
8.70970719878113
30
0
41
1
10
9.75974662035466
20
8.72401418158771
30
0
41
1
10
9.8279229755251
20
8.74965175088616
30
0
41
1
10
9.86253546793589
20
8.7609417865207
30
0
41
1
10
9.91505346481435
20
8.77507016060494
30
0
41
1
10
9.93267410315417
20
8.77931416728094
30
0
41
1
10
9.96817275331486
20
8.78674711807253
30
0
41
1
10
9.98605101827039
20
8.78993414241077
30
0
41
1
10
10.0397432926375
20
8.79759345910182
30
0
41
1
10
10.075869097555
20
8.80024100316115
30
0
41
1
10
10.1293889605523
20
8.79875865959065
30
0
41
1
10
10.1472137797834
20
8.79733871915826
30
0
41
1
10
10.1734315219001
20
8.79348786646997
30
0
41
1
10
10.1820861930895
20
8.79191792158272
30
0
41
1
10
10.1992010117953
20
8.78812859999104
30
0
41
1
10
10.2076894386474
20
8.78589923775229
30
0
41
1
10
10.2324949938125
20
8.77818929212845
30
0
41
1
10
10.2482173261705
20
8.77169768027053
30
0
41
1
10
10.2702378082228
20
8.75941462487208
30
0
41
1
10
10.2773636336004
20
8.75485370788167
30
0
41
1
10
10.2906953993702
20
8.74498059887625
30
0
41
1
10
10.3031302167735
20
8.7343647594073
30
0
41
1
10
10.3136936256945
20
8.72220978217953
30
0
41
1
10
10.3232655181649
20
8.70924363674229
30
0
41
1
10
10.3275013186375
20
8.70241141534424
30
0
41
1
10
10.3383486714827
20
8.6813995618524
30
0
41
1
10
10.3432533919617
20
8.66652420135821
30
0
41
1
10
10.3460743411658
20
8.65087398262659
30
0
0
SPLINE
5
12F
100
AcDbEntity
8
1
62
256
6
ByLayer
370
18
48
1
60
0
100
AcDbSpline
70
4
71
3
72
35
73
31
40
0
40
0
40
0
40
0
40
0.124999999999992
40
0.124999999999992
40
0.249999999999983
40
0.249999999999983
40
0.374999999999975
40
0.374999999999975
40
0.499999999999967
40
0.499999999999967
40
0.562499999999915
40
0.562499999999915
40
0.624999999999863
40
0.624999999999863
40
0.687499999999811
40
0.687499999999811
40
0.718749999999789
40
0.718749999999789
40
0.749999999999766
40
0.749999999999766
40
0.812499999999814
40
0.812499999999814
40
0.84374999999984
40
0.84374999999984
40
0.874999999999867
40
0.906249999999894
40
0.906249999999894
40
0.93749999999992
40
0.93749999999992
40
1
40
1
40
1
40
1
41
1
10
12.40335
20
8.64317350080179
30
0
41
1
10
12.3718103593181
20
8.66138292083966
30
0
41
1
10
12.3395316094929
20
8.67837697738645
30
0
41
1
10
12.2737072695768
20
8.70971050481418
30
0
41
1
10
12.2402483650889
20
8.72401520056476
30
0
41
1
10
12.1721330299211
20
8.74963155624798
30
0
41
1
10
12.1374617374676
20
8.7609464511672
30
0
41
1
10
12.0672374967075
20
8.77983031592646
30
0
41
1
10
12.0316665937428
20
8.78741564107494
30
0
41
1
10
11.977960481557
20
8.79506346588289
30
0
41
1
10
11.960027183678
20
8.79698377228513
30
0
41
1
10
11.9240930426546
20
8.79932798716263
30
0
41
1
10
11.906135831551
20
8.79974469202384
30
0
41
1
10
11.8706440261848
20
8.79875746632823
30
0
41
1
10
11.8530595227977
20
8.797361467049
30
0
41
1
10
11.8270004548825
20
8.79355973069653
30
0
41
1
10
11.8183674076716
20
8.79200611890451
30
0
41
1
10
11.8012271736425
20
8.78823502144431
30
0
41
1
10
11.7927121458669
20
8.78601111797585
30
0
41
1
10
11.7678604708289
20
8.77832476797758
30
0
41
1
10
11.752059258082
20
8.77183535358151
30
0
41
1
10
11.7298591074885
20
8.75947685616265
30
0
41
1
10
11.7227307872107
20
8.75491503959822
30
0
41
1
10
11.7094532058805
20
8.74509908909576
30
0
41
1
10
11.6970468413786
20
8.73453518489688
30
0
41
1
10
11.6864713224349
20
8.72241000149697
30
0
41
1
10
11.676873942201
20
8.70945504520631
30
0
41
1
10
11.6725984901285
20
8.70258536568349
30
0
41
1
10
11.6616816362979
20
8.68149643111994
30
0
41
1
10
11.6567549815537
20
8.66657065641084
30
0
41
1
10
11.6539256588343
20
8.65087398262659
30
0
0
SPLINE
5
130
100
AcDbEntity
8
1
62
256
6
ByLayer
370
18
48
1
60
0
100
AcDbSpline
70
4
71
3
72
52
73
48
40
0
40
0
40
0
40
0
40
0.0156250000000231
40
0.0156250000000231
40
0.0312500000000463
40
0.0312500000000463
40
0.0625000000000583
40
0.0625000000000583
40
0.0937500000000703
40
0.0937500000000703
40
0.125000000000082
40
0.125000000000082
40
0.187500000000111
40
0.187500000000111
40
0.218750000000101
40
0.218750000000101
40
0.25000000000009
40
0.25000000000009
40
0.31250000000007
40
0.31250000000007
40
0.375000000000051
40
0.375000000000051
40
0.437500000000031
40
0.437500000000031
40
0.500000000000012
40
0.500000000000012
40
0.562499999999992
40
0.562499999999992
40
0.624999999999973
40
0.624999999999973
40
0.687499999999953
40
0.687499999999953
40
0.749999999999934
40
0.749999999999934
40
0.812499999999914
40
0.812499999999914
40
0.843749999999929
40
0.843749999999929
40
0.874999999999943
40
0.874999999999943
40
0.906249999999957
40
0.906249999999957
40
0.937499999999971
40
0.937499999999971
40
0.968749999999986
40
0.968749999999986
40
1
40
1
40
1
40
1
41
1
10
10.3548863302791
20
8.6328675761448
30
0
41
1
10
10.3579009739749
20
8.62670745734684
30
0
41
1
10
10.3612451515031
20
8.6207124187365
30
0
41
1
10
10.3685247599024
20
8.60901733542266
30
0
41
1
10
10.372469877367
20
8.60330725601196
30
0
41
1
10
10.3849639859081
20
8.58676543961826
30
0
41
1
10
10.3942005551931
20
8.57645133423208
30
0
41
1
10
10.4141174878774
20
8.556944206265
30
0
41
1
10
10.4248011021993
20
8.54775375527149
30
0
41
1
10
10.4474011150396
20
8.53031303649442
30
0
41
1
10
10.4592821296869
20
8.52209723391476
30
0
41
1
10
10.4960501512453
20
8.49895819268565
30
0
41
1
10
10.5222817720869
20
8.48538106004091
30
0
41
1
10
10.5630161275583
20
8.46740525378974
30
0
41
1
10
10.5768473329678
20
8.46180405245303
30
0
41
1
10
10.604973697121
20
8.45130093027009
30
0
41
1
10
10.6192831643011
20
8.44639595816329
30
0
41
1
10
10.6626020802453
20
8.43272454919938
30
0
41
1
10
10.6920776685576
20
8.42496091323224
30
0
41
1
10
10.7521053262708
20
8.41176715447497
30
0
41
1
10
10.7826073137696
20
8.4063585413117
30
0
41
1
10
10.8439944105265
20
8.39778297277863
30
0
41
1
10
10.8749783385385
20
8.39459850827842
30
0
41
1
10
10.9373835544051
20
8.39035251302187
30
0
41
1
10
10.9686585479421
20
8.38929988111559
30
0
41
1
10
11.0313520185931
20
8.38930011890443
30
0
41
1
10
11.062610757863
20
8.39035300340259
30
0
41
1
10
11.1249513266265
20
8.39459284645926
30
0
41
1
10
11.1560208375333
20
8.39778365887466
30
0
41
1
10
11.2174931408734
20
8.40637402120993
30
0
41
1
10
11.2480184090461
20
8.41179123322439
30
0
41
1
10
11.3080155015874
20
8.42498452043642
30
0
41
1
10
11.3375539672241
20
8.43276701835154
30
0
41
1
10
11.39537935547
20
8.45103025940364
30
0
41
1
10
11.4234892879678
20
8.46144542921462
30
0
41
1
10
11.4642424797581
20
8.47943668870244
30
0
41
1
10
11.4776108872121
20
8.48584384426223
30
0
41
1
10
11.5036323753547
20
8.49948661436787
30
0
41
1
10
11.516301113413
20
8.5067265162659
30
0
41
1
10
11.5408541626141
20
8.52218768811525
30
0
41
1
10
11.5527130516103
20
8.53039556552199
30
0
41
1
10
11.5752841324699
20
8.54782515624748
30
0
41
1
10
11.5860522941426
20
8.55708989396379
30
0
41
1
10
11.6061109188164
20
8.57677750021983
30
0
41
1
10
11.6153257623646
20
8.58711831849766
30
0
41
1
10
11.6318097718561
20
8.60900488229632
30
0
41
1
10
11.6390843573027
20
8.62054728740904
30
0
41
1
10
11.6451136697214
20
8.63286757614546
30
0
0
SPLINE
5
131
100
AcDbEntity
8
1
62
256
6
ByLayer
370
18
48
1
60
0
100
AcDbSpline
70
4
71
3
72
8
73
4
40
0
40
0
40
0
40
0
40
1
40
1
40
1
40
1
41
1
10
11.6451136697214
20
8.63286757614546
30
0
41
1
10
11.6480511074481
20
8.63886993237205
30
0
41
1
10
11.6509884363151
20
8.64487206615473
30
0
41
1
10
11.6539256588343
20
8.65087398262659
30
0
0
SPLINE
5
132
100
AcDbEntity
8
1
62
256
6
ByLayer
370
18
48
1
60
0
100
AcDbSpline
70
4
71
3
72
8
73
4
40
0
40
0
40
0
40
0
40
1
40
1
40
1
40
1
41
1
10
10.3460743411658
20
8.65087398262659
30
0
41
1
10
10.349011563685
20
8.64487206615473
30
0
41
1
10
10.351948892552
20
8.63886993237205
30
0
41
1
10
10.3548863302788
20
8.63286757614546
30
0
0
SPLINE
5
133
100
AcDbEntity
8
1
62
256
6
ByLayer
370
18
48
1
60
0
100
AcDbSpline
70
4
71
3
72
35
73
31
40
0
40
0
40
0
40
0
40
0.124999999999997
40
0.124999999999997
40
0.249999999999994
40
0.249999999999994
40
0.374999999999991
40
0.374999999999991
40
0.4375
40
0.4375
40
0.50000000000001
40
0.50000000000001
40
0.625000000000043
40
0.625000000000043
40
0.687500000000065
40
0.687500000000065
40
0.718750000000097
40
0.718750000000097
40
0.750000000000129
40
0.750000000000129
40
0.812500000000126
40
0.812500000000126
40
0.843750000000091
40
0.843750000000091
40
0.875000000000056
40
0.906250000000021
40
0.906250000000021
40
0.937499999999986
40
0.937499999999986
40
1
40
1
40
1
40
1
41
1
10
13.8067000000001
20
6.21250000000001
30
0
41
1
10
13.8067000000001
20
6.17608034169743
30
0
41
1
10
13.8052748003572
20
6.13958409514819
30
0
41
1
10
13.7995013620348
20
6.06696419734013
30
0
41
1
10
13.7951617730426
20
6.03083384310858
30
0
41
1
10
13.7832763817611
20
5.95897260294439
30
0
41
1
10
13.7757475932248
20
5.92335228741103
30
0
41
1
10
13.7617241256568
20
5.87080618091628
30
0
41
1
10
13.756589224082
20
5.85342425714506
30
0
41
1
10
13.7452770232124
20
5.81896504891011
30
0
41
1
10
13.739097934774
20
5.80188850511388
30
0
41
1
10
13.7188849604205
20
5.7515599731795
30
0
41
1
10
13.7031148983748
20
5.71895033635909
30
0
41
1
10
13.6750712196869
20
5.67334194718163
30
0
41
1
10
13.6649291055851
20
5.6586151711258
30
0
41
1
10
13.6484852982724
20
5.63783536676706
30
0
41
1
10
13.6427983505228
20
5.63112517409934
30
0
41
1
10
13.6309592924084
20
5.61819796711464
30
0
41
1
10
13.6247843946493
20
5.61196145494193
30
0
41
1
10
13.6057046082948
20
5.59433418682596
30
0
41
1
10
13.5922215413353
20
5.58396405352613
30
0
41
1
10
13.5705738622981
20
5.57103528436451
30
0
41
1
10
13.563061079631
20
5.56714459705984
30
0
41
1
10
13.547844833533
20
5.56053550372849
30
0
41
1
10
13.5324338381689
20
5.55507455570029
30
0
41
1
10
13.5166256146466
20
5.552003863838
30
0
41
1
10
13.5006106570737
20
5.55019743451501
30
0
41
1
10
13.4925758795424
20
5.54994523439944
30
0
41
1
10
13.4689554042152
20
5.55105707801752
30
0
41
1
10
13.4536206038973
20
5.55424714573141
30
0
41
1
10
13.4386566422988
20
5.55962924142361
30
0
0
SPLINE
5
134
100
AcDbEntity
8
1
62
256
6
ByLayer
370
18
48
1
60
0
100
AcDbSpline
70
4
71
3
72
35
73
31
40
0
40
0
40
0
40
0
40
0.125000000000033
40
0.125000000000033
40
0.250000000000067
40
0.250000000000067
40
0.3750000000001
40
0.3750000000001
40
0.500000000000133
40
0.500000000000133
40
0.562500000000127
40
0.562500000000127
40
0.625000000000121
40
0.625000000000121
40
0.687500000000115
40
0.687500000000115
40
0.718750000000114
40
0.718750000000114
40
0.750000000000114
40
0.750000000000114
40
0.812500000000083
40
0.812500000000083
40
0.843750000000067
40
0.843750000000067
40
0.875000000000051
40
0.906250000000036
40
0.906250000000036
40
0.93750000000002
40
0.93750000000002
40
1
40
1
40
1
40
1
41
1
10
12.4033500000001
20
3.78182649919822
30
0
41
1
10
12.4348896406821
20
3.80003591923608
30
0
41
1
10
12.4657463002775
20
3.81949310831374
30
0
41
1
10
12.5257941009781
20
3.86083189515452
30
0
41
1
10
12.5549117831355
20
3.88265580854855
30
0
41
1
10
12.6111538654934
20
3.92883724134953
30
0
41
1
10
12.6382884981614
20
3.95320601393675
30
0
41
1
10
12.6897545251446
20
4.00458005801679
30
0
41
1
10
12.7141090609015
20
4.03159270104552
30
0
41
1
10
12.7475853275618
20
4.07427964613294
30
0
41
1
10
12.7582150106286
20
4.0888501844687
30
0
41
1
10
12.7782122307762
20
4.11879795601936
30
0
41
1
10
12.7875517133237
20
4.13414100458559
30
0
41
1
10
12.8044426534751
20
4.16537142250672
30
0
41
1
10
12.8120259343292
20
4.18129804879251
30
0
41
1
10
12.821763068027
20
4.20576673178223
30
0
41
1
10
12.824734124353
20
4.21401997587498
30
0
41
1
10
12.8300383751669
20
4.23074940270109
30
0
41
1
10
12.8323699321554
20
4.23923558480288
30
0
41
1
10
12.8381391953135
20
4.26460094171151
30
0
41
1
10
12.8404198039643
20
4.28152990055898
30
0
41
1
10
12.8408171065438
20
4.30693504365024
30
0
41
1
10
12.8404306176505
20
4.31538925837944
30
0
41
1
10
12.8385685458182
20
4.33179595636341
30
0
41
1
10
12.8356231186696
20
4.34782213529007
30
0
41
1
10
12.8304101612917
20
4.36304339505347
30
0
41
1
10
12.823989530156
20
4.37783244829114
30
0
41
1
10
12.8201779392096
20
4.38496993816003
30
0
41
1
10
12.8073728130541
20
4.40496867818851
30
0
41
1
10
12.796910040357
20
4.4166981737072
30
0
41
1
10
12.7847309834646
20
4.42699677594979
30
0
0
SPLINE
5
135
100
AcDbEntity
8
1
62
256
6
ByLayer
370
18
48
1
60
0
100
AcDbSpline
70
4
71
3
72
52
73
48
40
0
40
0
40
0
40
0
40
0.0156250000000193
40
0.0156250000000193
40
0.0312500000000387
40
0.0312500000000387
40
0.0625000000000769
40
0.0625000000000769
40
0.093750000000115
40
0.093750000000115
40
0.125000000000153
40
0.125000000000153
40
0.187500000000181
40
0.187500000000181
40
0.218750000000193
40
0.218750000000193
40
0.250000000000205
40
0.250000000000205
40
0.312500000000185
40
0.312500000000185
40
0.375000000000165
40
0.375000000000165
40
0.437500000000145
40
0.437500000000145
40
0.500000000000124
40
0.500000000000124
40
0.562500000000104
40
0.562500000000104
40
0.625000000000084
40
0.625000000000084
40
0.687500000000064
40
0.687500000000064
40
0.750000000000044
40
0.750000000000044
40
0.812500000000024
40
0.812500000000024
40
0.84375000000002
40
0.84375000000002
40
0.875000000000016
40
0.875000000000016
40
0.906250000000012
40
0.906250000000012
40
0.937500000000008
40
0.937500000000008
40
0.968750000000004
40
0.968750000000004
40
1
40
1
40
1
40
1
41
1
10
13.4186566422981
20
5.56100103823454
30
0
41
1
10
13.4118145010808
20
5.56147033960957
30
0
41
1
10
13.4049505565836
20
5.56157171622058
30
0
41
1
10
13.3911825131347
20
5.5611149320741
30
0
41
1
10
13.3842648805751
20
5.56055339983416
30
0
41
1
10
13.3636921930829
20
5.55800409263682
30
0
41
1
10
13.3501416311587
20
5.55516204168529
30
0
41
1
10
13.3232894964422
20
5.54766703599881
30
0
41
1
10
13.3099885252485
20
5.54300998008853
30
0
41
1
10
13.2835844133073
20
5.53215815423155
30
0
41
1
10
13.2705288122371
20
5.525976795014
30
0
41
1
10
13.2321058039343
20
5.50570427491209
30
0
41
1
10
13.2072318517325
20
5.48977559120326
30
0
41
1
10
13.1712971691298
20
5.4634865076838
30
0
41
1
10
13.1595307837758
20
5.45430893310254
30
0
41
1
10
13.1363716310697
20
5.43520234832124
30
0
41
1
10
13.1249690670303
20
5.42526247228213
30
0
41
1
10
13.0914698215901
20
5.39458289509204
30
0
41
1
10
13.0700085214606
20
5.37293810480563
30
0
41
1
10
13.0285685623487
20
5.32754950767495
30
0
41
1
10
13.0086335722007
20
5.30383831821666
30
0
41
1
10
12.9705133636208
20
5.25496331722721
30
0
41
1
10
12.9522635724601
20
5.22972268070984
30
0
41
1
10
12.9173838247703
20
5.17780117606901
30
0
41
1
10
12.90083472203
20
5.15124255311582
30
0
41
1
10
12.8694881926357
20
5.09694829598627
30
0
41
1
10
12.8547706477235
20
5.06935099143922
30
0
41
1
10
12.8272721751369
20
5.01324255367538
30
0
41
1
10
12.8145007442939
20
4.98474016173913
30
0
41
1
10
12.7912040646339
20
4.92720840424983
30
0
41
1
10
12.7806328737697
20
4.89806414054766
30
0
41
1
10
12.7620600493842
20
4.83950849064777
30
0
41
1
10
12.7540306574653
20
4.81003618006005
30
0
41
1
10
12.7409343940488
20
4.75082630432934
30
0
41
1
10
12.735899229441
20
4.72127480378202
30
0
41
1
10
12.7311035213083
20
4.67698587466245
30
0
41
1
10
12.7299680770621
20
4.66220491641926
30
0
41
1
10
12.7287723184802
20
4.63284826159062
30
0
41
1
10
12.7287078884157
20
4.61825686164931
30
0
41
1
10
12.729821131409
20
4.58926271137605
30
0
41
1
10
12.7309999172562
20
4.57488867354124
30
0
41
1
10
12.7348088451724
20
4.54662674876334
30
0
41
1
10
12.7374482625577
20
4.53266887834448
30
0
41
1
10
12.7444689173782
20
4.50545379668398
30
0
41
1
10
12.7488169069286
20
4.4923030989404
30
0
41
1
10
12.7595292224341
20
4.46708424606521
30
0
41
1
10
12.7658879457592
20
4.45501306771027
30
0
41
1
10
12.7735429725776
20
4.44363138562005
30
0
0
SPLINE
5
136
100
AcDbEntity
8
1
62
256
6
ByLayer
370
18
48
1
60
0
100
AcDbSpline
70
4
71
3
72
8
73
4
40
0
40
0
40
0
40
0
40
1
40
1
40
1
40
1
41
1
10
12.7735429725776
20
4.44363138562002
30
0
41
1
10
12.777272446689
20
4.43808631181335
30
0
41
1
10
12.7810017825882
20
4.43254144350394
30
0
41
1
10
12.7847309834646
20
4.42699677594979
30
0
0
SPLINE
5
137
100
AcDbEntity
8
1
62
256
6
ByLayer
370
18
48
1
60
0
100
AcDbSpline
70
4
71
3
72
8
73
4
40
0
40
0
40
0
40
0
40
1
40
1
40
1
40
1
41
1
10
13.4386566422988
20
5.55962924142361
30
0
41
1
10
13.4319902189032
20
5.56008649034132
30
0
41
1
10
13.425323554137
20
5.56054375581459
30
0
41
1
10
13.4186566422989
20
5.56100103823448
30
0
0
SPLINE
5
138
100
AcDbEntity
8
1
62
256
6
ByLayer
370
18
48
1
60
0
100
AcDbSpline
70
4
71
3
72
52
73
48
40
0
40
0
40
0
40
0
40
0.0156250000000026
40
0.0156250000000026
40
0.0312500000000051
40
0.0312500000000051
40
0.0625000000000103
40
0.0625000000000103
40
0.0937500000000155
40
0.0937500000000155
40
0.125000000000021
40
0.125000000000021
40
0.187500000000027
40
0.187500000000027
40
0.218750000000027
40
0.218750000000027
40
0.250000000000027
40
0.250000000000027
40
0.312500000000024
40
0.312500000000024
40
0.37500000000002
40
0.37500000000002
40
0.437500000000017
40
0.437500000000017
40
0.500000000000014
40
0.500000000000014
40
0.562500000000011
40
0.562500000000011
40
0.625000000000008
40
0.625000000000008
40
0.687500000000004
40
0.687500000000004
40
0.750000000000001
40
0.750000000000001
40
0.812499999999998
40
0.812499999999998
40
0.843749999999998
40
0.843749999999998
40
0.874999999999999
40
0.874999999999999
40
0.906249999999999
40
0.906249999999999
40
0.937499999999999
40
0.937499999999999
40
0.96875
40
0.96875
40
1
40
1
40
1
40
1
41
1
10
12.7735429725772
20
7.98136861437933
30
0
41
1
10
12.7697154750557
20
7.97567779695643
30
0
41
1
10
12.7661957080865
20
7.96978413495711
30
0
41
1
10
12.7597072730371
20
7.95763226749679
30
0
41
1
10
12.7567347579421
20
7.95136065584614
30
0
41
1
10
12.748656178991
20
7.93226953225508
30
0
41
1
10
12.7443421863517
20
7.91911337591739
30
0
41
1
10
12.7374069843195
20
7.89211124226381
30
0
41
1
10
12.7347896274478
20
7.87826373536006
30
0
41
1
10
12.7309855283467
20
7.849971190726
30
0
41
1
10
12.7298109419241
20
7.83557402892879
30
0
41
1
10
12.7281559551795
20
7.79216246759776
30
0
41
1
10
12.7295136238193
20
7.76265665124413
30
0
41
1
10
12.734313296688
20
7.71839176147353
30
0
41
1
10
12.7363781167435
20
7.70361298555557
30
0
41
1
10
12.7413453281906
20
7.67400327859133
30
0
41
1
10
12.7442522313313
20
7.65915843044542
30
0
41
1
10
12.7540719018352
20
7.61480744429142
30
0
41
1
10
12.7620861900181
20
7.58539901803789
30
0
41
1
10
12.7806738886195
20
7.52681666214991
30
0
41
1
10
12.7912408859702
20
7.49769685952836
30
0
41
1
10
12.8145077741472
20
7.44024629000583
30
0
41
1
10
12.8272419109985
20
7.41182118898828
30
0
41
1
10
12.8547673791753
20
7.35565368909087
30
0
41
1
10
12.8694932699722
20
7.32804243423143
30
0
41
1
10
12.9008402112289
20
7.27374841489066
30
0
41
1
10
12.9173814055864
20
7.24720399484181
30
0
41
1
10
12.9522235017633
20
7.19533540013461
30
0
41
1
10
12.9705215818272
20
7.17002382061378
30
0
41
1
10
13.0086972055073
20
7.1210824254598
30
0
41
1
10
13.0286512828158
20
7.09735537377205
30
0
41
1
10
13.0700755509715
20
7.05199301108419
30
0
41
1
10
13.0915846246893
20
7.03030319841159
30
0
41
1
10
13.1363137495188
20
6.98935656373297
30
0
41
1
10
13.1593885174087
20
6.97022023299664
30
0
41
1
10
13.1953460010663
20
6.94392256336491
30
0
41
1
10
13.2075789642741
20
6.93554876068148
30
0
41
1
10
13.2324046938349
20
6.91983487595851
30
0
41
1
10
13.2450090018287
20
6.91248337791521
30
0
41
1
10
13.2706752940231
20
6.8989503994913
30
0
41
1
10
13.2837129688666
20
6.89278423906325
30
0
41
1
10
13.3100929776421
20
6.88195190501082
30
0
41
1
10
13.3235005567002
20
6.8772587723083
30
0
41
1
10
13.3505798361946
20
6.86973129690384
30
0
41
1
10
13.3641426692932
20
6.86692141743805
30
0
41
1
10
13.3913389942902
20
6.86358912836153
30
0
41
1
10
13.4049723030617
20
6.8630603551193
30
0
41
1
10
13.4186566422989
20
6.8639989617655
30
0
0
SPLINE
5
139
100
AcDbEntity
8
1
62
256
6
ByLayer
370
18
48
1
60
0
100
AcDbSpline
70
4
71
3
72
8
73
4
40
0
40
0
40
0
40
0
40
1
40
1
40
1
40
1
41
1
10
13.4186566422989
20
6.8639989617655
30
0
41
1
10
13.425323554137
20
6.86445624418539
30
0
41
1
10
13.4319902189032
20
6.86491350965866
30
0
41
1
10
13.4386566422988
20
6.86537075857637
30
0
0
SPLINE
5
13A
100
AcDbEntity
8
1
62
256
6
ByLayer
370
18
48
1
60
0
100
AcDbSpline
70
4
71
3
72
35
73
31
40
0
40
0
40
0
40
0
40
0.124999999999974
40
0.124999999999974
40
0.249999999999949
40
0.249999999999949
40
0.374999999999923
40
0.374999999999923
40
0.499999999999898
40
0.499999999999898
40
0.562499999999874
40
0.562499999999874
40
0.624999999999851
40
0.624999999999851
40
0.687499999999828
40
0.687499999999828
40
0.718749999999843
40
0.718749999999843
40
0.749999999999859
40
0.749999999999859
40
0.812499999999897
40
0.812499999999897
40
0.843749999999916
40
0.843749999999916
40
0.874999999999935
40
0.906249999999954
40
0.906249999999954
40
0.937499999999973
40
0.937499999999973
40
1
40
1
40
1
40
1
41
1
10
13.8067000000001
20
6.21250000000001
30
0
41
1
10
13.8067
20
6.2489188400757
30
0
41
1
10
13.8052779097704
20
6.28537008570015
30
0
41
1
10
13.7995013705549
20
6.35804239996867
30
0
41
1
10
13.7951601482243
20
6.39417100911331
30
0
41
1
10
13.7832868954145
20
6.4659687975975
30
0
41
1
10
13.775750235629
20
6.50165246510392
30
0
41
1
10
13.7569920218521
20
6.57191037394324
30
0
41
1
10
13.7457756546443
20
6.60650834212049
30
0
41
1
10
13.7255458091187
20
6.65684311201585
30
0
41
1
10
13.7182421943066
20
6.67333395675385
30
0
41
1
10
13.7023052734307
20
6.70562594318201
30
0
41
1
10
13.6936875448746
20
6.72138569660939
30
0
41
1
10
13.6750866796599
20
6.75162888883497
30
0
41
1
10
13.6650854571268
20
6.76615951584148
30
0
41
1
10
13.6487635229095
20
6.78682646247873
30
0
41
1
10
13.6431015320246
20
6.79352609477948
30
0
41
1
10
13.6312655488093
20
6.80648442414537
30
0
41
1
10
13.6250820780223
20
6.81274670277872
30
0
41
1
10
13.6059996661424
20
6.83042570968908
30
0
41
1
10
13.5924790620462
20
6.84086525414051
30
0
41
1
10
13.5706762140322
20
6.85391189981289
30
0
41
1
10
13.563161404861
20
6.85780429797765
30
0
41
1
10
13.5480217516985
20
6.86439504545913
30
0
41
1
10
13.5326699600482
20
6.86985732018695
30
0
41
1
10
13.5168814837265
20
6.8729533965504
30
0
41
1
10
13.5008634723569
20
6.87478749349745
30
0
41
1
10
13.4927764293381
20
6.87505530384348
30
0
41
1
10
13.4690544493519
20
6.87396510930841
30
0
41
1
10
13.4536650219106
20
6.87076883011807
30
0
41
1
10
13.4386566422988
20
6.86537075857637
30
0
0
SPLINE
5
13B
100
AcDbEntity
8
1
62
256
6
ByLayer
370
18
48
1
60
0
100
AcDbSpline
70
4
71
3
72
35
73
31
40
0
40
0
40
0
40
0
40
0.124999999999967
40
0.124999999999967
40
0.249999999999933
40
0.249999999999933
40
0.3749999999999
40
0.3749999999999
40
0.437499999999849
40
0.437499999999849
40
0.499999999999798
40
0.499999999999798
40
0.624999999999754
40
0.624999999999754
40
0.687499999999754
40
0.687499999999754
40
0.718749999999768
40
0.718749999999768
40
0.749999999999782
40
0.749999999999782
40
0.812499999999841
40
0.812499999999841
40
0.843749999999869
40
0.843749999999869
40
0.874999999999897
40
0.906249999999925
40
0.906249999999925
40
0.937499999999953
40
0.937499999999953
40
1
40
1
40
1
40
1
41
1
10
12.40335
20
8.64317350080179
30
0
41
1
10
12.4348903492872
20
8.62496367165053
30
0
41
1
10
12.4657844261202
20
8.60548128927968
30
0
41
1
10
12.525788383281
20
8.56417139612125
30
0
41
1
10
12.5549083933971
20
8.54234802469628
30
0
41
1
10
12.6111993572861
20
8.49612435383054
30
0
41
1
10
12.6382830611607
20
8.47179407393176
30
0
41
1
10
12.6767775904711
20
8.43337634152121
30
0
41
1
10
12.6892633272363
20
8.420238424426
30
0
41
1
10
12.7134497765272
20
8.39321216698266
30
0
41
1
10
12.7251489530443
20
8.37932264752465
30
0
41
1
10
12.7586282530579
20
8.33665343228134
30
0
41
1
10
12.7789839959297
20
8.30669133952023
30
0
41
1
10
12.8044601802392
20
8.2596006067723
30
0
41
1
10
12.8121428853684
20
8.24345389028406
30
0
41
1
10
12.8219168201725
20
8.21882323323706
30
0
41
1
10
12.8248845436122
20
8.21054309568206
30
0
41
1
10
12.8301603042037
20
8.1938265671057
30
0
41
1
10
12.8324738332968
20
8.18536069269422
30
0
41
1
10
12.8381996021072
20
8.16002347895443
30
0
41
1
10
12.8404388675058
20
8.14316173379669
30
0
41
1
10
12.8408116705208
20
8.11794990923659
30
0
41
1
10
12.8404247132313
20
8.1094983049415
30
0
41
1
10
12.8385402329032
20
8.09301610260474
30
0
41
1
10
12.8355640549423
20
8.07693931510761
30
0
41
1
10
12.8303192403411
20
8.06171364601752
30
0
41
1
10
12.8238761752384
20
8.04694107125729
30
0
41
1
10
12.8200771981797
20
8.03985664974371
30
0
41
1
10
12.8073040756979
20
8.01995663986995
30
0
41
1
10
12.796873995859
20
8.00827134708962
30
0
41
1
10
12.7847309834646
20
7.99800322405022
30
0
0
SPLINE
5
13C
100
AcDbEntity
8
1
62
256
6
ByLayer
370
18
48
1
60
0
100
AcDbSpline
70
4
71
3
72
8
73
4
40
0
40
0
40
0
40
0
40
1
40
1
40
1
40
1
41
1
10
12.7847309834646
20
7.99800322405022
30
0
41
1
10
12.7810017825882
20
7.99245855649608
30
0
41
1
10
12.777272446689
20
7.98691368818666
30
0
41
1
10
12.7735429725776
20
7.98136861437996
30
0
0
SPLINE
5
13D
100
AcDbEntity
8
1
62
256
6
ByLayer
370
18
48
1
60
0
100
AcDbSpline
70
4
71
3
72
39
73
35
40
0
40
0
40
0
40
0
40
0.125000000000066
40
0.125000000000066
40
0.250000000000132
40
0.250000000000132
40
0.375000000000197
40
0.375000000000197
40
0.437500000000231
40
0.437500000000231
40
0.500000000000265
40
0.500000000000265
40
0.562500000000299
40
0.562500000000299
40
0.625000000000333
40
0.625000000000333
40
0.687500000000367
40
0.687500000000367
40
0.718750000000352
40
0.718750000000352
40
0.750000000000337
40
0.750000000000337
40
0.812500000000249
40
0.812500000000249
40
0.843750000000208
40
0.843750000000208
40
0.875000000000166
40
0.875000000000166
40
0.906250000000124
40
0.906250000000124
40
0.937500000000083
40
0.968750000000042
40
0.968750000000042
40
1
40
1
40
1
40
1
41
1
10
8.19330000000008
20
6.21250000000001
30
0
41
1
10
8.19330000000008
20
6.2489248722859
30
0
41
1
10
8.19472385504002
20
6.2853850946986
30
0
41
1
10
8.2004935190987
20
6.35798529795451
30
0
41
1
10
8.20484357597854
20
6.3941964159942
30
0
41
1
10
8.21671454483726
20
6.46597461901544
30
0
41
1
10
8.22424456953098
20
6.50161874246373
30
0
41
1
10
8.23828090795328
20
6.55421248199576
30
0
41
1
10
8.24341610659931
20
6.57159147396197
30
0
41
1
10
8.25471271502147
20
6.606004198698
30
0
41
1
10
8.26088343987411
20
6.62306075244572
30
0
41
1
10
8.27434390672377
20
6.6565848504292
30
0
41
1
10
8.28163537657343
20
6.67306693333035
30
0
41
1
10
8.29755319687737
20
6.70535781174883
30
0
41
1
10
8.306141810442
20
6.72108402379436
30
0
41
1
10
8.32470114345114
20
6.75130763675574
30
0
41
1
10
8.33468343161911
20
6.76583823488838
30
0
41
1
10
8.35098415609397
20
6.78652081568634
30
0
41
1
10
8.35664030090572
20
6.79322827372224
30
0
41
1
10
8.3684683424471
20
6.8062075971626
30
0
41
1
10
8.37463508394796
20
6.81246783306759
30
0
41
1
10
8.39367423374321
20
6.83015610276951
30
0
41
1
10
8.40717353606146
20
6.84061835172164
30
0
41
1
10
8.42896739641472
20
6.85371744606749
30
0
41
1
10
8.43645931988763
20
6.85761868685748
30
0
41
1
10
8.45161509754186
20
6.86425647600484
30
0
41
1
10
8.45932036565432
20
6.86701927561137
30
0
41
1
10
8.47499862672268
20
6.87135809607841
30
0
41
1
10
8.48303688034738
20
6.87293951792634
30
0
41
1
10
8.49905029457588
20
6.8747821035067
30
0
41
1
10
8.51494373139366
20
6.87532315766154
30
0
41
1
10
8.530603861804
20
6.87338363920574
30
0
41
1
10
8.54614981033512
20
6.87024189284372
30
0
41
1
10
8.55384154751053
20
6.86806893846983
30
0
41
1
10
8.56134335770128
20
6.86537075857637
30
0
0
SPLINE
5
13E
100
AcDbEntity
8
1
62
256
6
ByLayer
370
18
48
1
60
0
100
AcDbSpline
70
4
71
3
72
8
73
4
40
0
40
0
40
0
40
0
40
1
40
1
40
1
40
1
41
1
10
9.22645702742255
20
7.98136861437996
30
0
41
1
10
9.22272755331113
20
7.98691368818666
30
0
41
1
10
9.21899821741192
20
7.99245855649608
30
0
41
1
10
9.21526901653553
20
7.99800322405022
30
0
0
SPLINE
5
13F
100
AcDbEntity
8
1
62
256
6
ByLayer
370
18
48
1
60
0
100
AcDbSpline
70
4
71
3
72
35
73
31
40
0
40
0
40
0
40
0
40
0.124999999999987
40
0.124999999999987
40
0.249999999999973
40
0.249999999999973
40
0.37499999999996
40
0.37499999999996
40
0.499999999999946
40
0.499999999999946
40
0.562499999999969
40
0.562499999999969
40
0.624999999999991
40
0.624999999999991
40
0.687500000000013
40
0.687500000000013
40
0.718750000000016
40
0.718750000000016
40
0.750000000000019
40
0.750000000000019
40
0.812500000000001
40
0.812500000000001
40
0.843749999999997
40
0.843749999999997
40
0.874999999999994
40
0.90624999999999
40
0.90624999999999
40
0.937499999999987
40
0.937499999999987
40
1
40
1
40
1
40
1
41
1
10
9.59665000000007
20
8.64317350080179
30
0
41
1
10
9.56511035931811
20
8.62496408076393
30
0
41
1
10
9.53425369972268
20
8.60550689168628
30
0
41
1
10
9.47420589902205
20
8.56416810484546
30
0
41
1
10
9.44508821686463
20
8.54234419145143
30
0
41
1
10
9.38884613450671
20
8.49616275865046
30
0
41
1
10
9.36171150183873
20
8.47179398606326
30
0
41
1
10
9.31024547485558
20
8.42041994198323
30
0
41
1
10
9.28589093909866
20
8.39340729895446
30
0
41
1
10
9.25241467243836
20
8.35072035386705
30
0
41
1
10
9.24178498937147
20
8.33614981553131
30
0
41
1
10
9.22178776922397
20
8.30620204398065
30
0
41
1
10
9.21244828667653
20
8.29085899541442
30
0
41
1
10
9.19555734652502
20
8.25962857749329
30
0
41
1
10
9.18797406567094
20
8.2437019512075
30
0
41
1
10
9.17823693197306
20
8.21923326821778
30
0
41
1
10
9.17526587564717
20
8.21098002412504
30
0
41
1
10
9.16996162483329
20
8.19425059729895
30
0
41
1
10
9.16763006784475
20
8.18576441519713
30
0
41
1
10
9.16186080468663
20
8.16039905828848
30
0
41
1
10
9.15958019603585
20
8.14347009944103
30
0
41
1
10
9.1591828934564
20
8.11806495634977
30
0
41
1
10
9.15956938234964
20
8.10961074162057
30
0
41
1
10
9.16143145418198
20
8.0932040436366
30
0
41
1
10
9.16437688133047
20
8.07717786470991
30
0
41
1
10
9.16958983870848
20
8.06195660494652
30
0
41
1
10
9.17601046984413
20
8.04716755170884
30
0
41
1
10
9.17982206079046
20
8.04003006183999
30
0
41
1
10
9.19262718694606
20
8.0200313218115
30
0
41
1
10
9.20308995964311
20
8.00830182629278
30
0
41
1
10
9.21526901653553
20
7.99800322405022
30
0
0
SPLINE
5
140
100
AcDbEntity
8
1
62
256
6
ByLayer
370
18
48
1
60
0
100
AcDbSpline
70
4
71
3
72
8
73
4
40
0
40
0
40
0
40
0
40
1
40
1
40
1
40
1
41
1
10
8.58134335770129
20
6.8639989617655
30
0
41
1
10
8.57467644586313
20
6.86445624418539
30
0
41
1
10
8.56800978109692
20
6.86491350965866
30
0
41
1
10
8.56134335770128
20
6.86537075857637
30
0
0
SPLINE
5
141
100
AcDbEntity
8
1
62
256
6
ByLayer
370
18
48
1
60
0
100
AcDbSpline
70
4
71
3
72
50
73
46
40
0
40
0
40
0
40
0
40
0.0312500000000298
40
0.0312500000000298
40
0.046875000000038
40
0.046875000000038
40
0.0625000000000462
40
0.0625000000000462
40
0.125000000000049
40
0.125000000000049
40
0.156250000000048
40
0.156250000000048
40
0.187500000000048
40
0.187500000000048
40
0.250000000000042
40
0.250000000000042
40
0.281250000000037
40
0.281250000000037
40
0.312500000000032
40
0.312500000000032
40
0.375000000000032
40
0.375000000000032
40
0.500000000000032
40
0.500000000000032
40
0.562500000000045
40
0.562500000000045
40
0.625000000000058
40
0.625000000000058
40
0.687500000000072
40
0.687500000000072
40
0.750000000000085
40
0.750000000000085
40
0.812500000000099
40
0.812500000000099
40
0.843750000000082
40
0.843750000000082
40
0.875000000000066
40
0.875000000000066
40
0.906250000000049
40
0.906250000000049
40
0.937500000000033
40
0.937500000000033
40
0.968750000000016
40
0.968750000000016
40
1
40
1
40
1
40
1
41
1
10
9.22645702742255
20
7.98136861437996
30
0
41
1
10
9.23415517207391
20
7.96992282363539
30
0
41
1
10
9.24055860981176
20
7.95775405452204
30
0
41
1
10
9.24864629814795
20
7.93864568520564
30
0
41
1
10
9.25108663994109
20
7.93213218716099
30
0
41
1
10
9.25550284079804
20
7.91884154822122
30
0
41
1
10
9.25748277896727
20
7.91204493715645
30
0
41
1
10
9.26622751106902
20
7.87780640596654
30
0
41
1
10
9.26969702760968
20
7.8494705269305
30
0
41
1
10
9.27129975651548
20
7.80592734754876
30
0
41
1
10
9.27121171929736
20
7.79118949864147
30
0
41
1
10
9.26996535353615
20
7.7617709996365
30
0
41
1
10
9.26881127682697
20
7.74705451242502
30
0
41
1
10
9.26396917678804
20
7.70287223400848
30
0
41
1
10
9.258914349375
20
7.67337341384163
30
0
41
1
10
9.2490653298812
20
7.62902167291469
30
0
41
1
10
9.24539147872579
20
7.61418796128922
30
0
41
1
10
9.23736475443877
20
7.58463480876603
30
0
41
1
10
9.23302643836507
20
7.56996210736011
30
0
41
1
10
9.21911657769007
20
7.52622586506467
30
0
41
1
10
9.20865561353037
20
7.49744221932204
30
0
41
1
10
9.1740818745439
20
7.41207002010387
30
0
41
1
10
9.1468332738016
20
7.35644031339109
30
0
41
1
10
9.09981814447332
20
7.27483070867066
30
0
41
1
10
9.08326614252073
20
7.2482161206492
30
0
41
1
10
9.04840650076792
20
7.19622686486136
30
0
41
1
10
9.03009441574193
20
7.17085308614446
30
0
41
1
10
8.99188680917879
20
7.12179280601995
30
0
41
1
10
8.97191391258366
20
7.09800756761339
30
0
41
1
10
8.93044449864436
20
7.05253009279829
30
0
41
1
10
8.90891314577541
20
7.03078734689336
30
0
41
1
10
8.86412603796089
20
6.9897312790097
30
0
41
1
10
8.84102068527605
20
6.97054371366596
30
0
41
1
10
8.80501468557085
20
6.94417453180969
30
0
41
1
10
8.7927646121089
20
6.93577740056753
30
0
41
1
10
8.76790224678606
20
6.92001828074632
30
0
41
1
10
8.7552792188628
20
6.91264537857163
30
0
41
1
10
8.72957452482876
20
6.89907229692761
30
0
41
1
10
8.71651559625377
20
6.89288670539588
30
0
41
1
10
8.69009323072919
20
6.88201988985756
30
0
41
1
10
8.67666486702802
20
6.87731156771949
30
0
41
1
10
8.64953860384287
20
6.8697574806136
30
0
41
1
10
8.63595223677538
20
6.86693710516698
30
0
41
1
10
8.60870864520922
20
6.86359092752375
30
0
41
1
10
8.59505160520311
20
6.86305871525522
30
0
41
1
10
8.58134335770129
20
6.8639989617655
30
0
0
SPLINE
5
142
100
AcDbEntity
8
SK1
62
256
6
ByLayer
370
18
48
1
60
0
100
AcDbSpline
70
4
71
3
72
10
73
6
40
0
40
0
40
0
40
0
40
0.5
40
0.5
40
1
40
1
40
1
40
1
41
1
10
-0.404203485069701
20
12.6657072639062
30
0
41
1
10
-0.434766133394817
20
12.6473597816764
30
0
41
1
10
-0.471608526733036
20
12.6266185796751
30
0
41
1
10
-0.557388966424696
20
12.5839017771939
30
0
41
1
10
-0.606328955807669
20
12.5619169372574
30
0
41
1
10
-0.661472121625906
20
12.5410509570913
30
0
0
SPLINE
5
143
100
AcDbEntity
8
1
62
256
6
ByLayer
370
18
48
1
60
0
100
AcDbSpline
70
4
71
5
72
12
73
6
40
0
40
0
40
0
40
0
40
0
40
0
40
1
40
1
40
1
40
1
40
1
40
1
41
1
10
25.3308891689797
20
4.56954889462398
30
0
41
1
10
25.5658838431202
20
4.60091295608012
30
0
41
1
10
25.789354483419
20
4.71921506005597
30
0
41
1
10
25.9575286846636
20
4.9196305106183
30
0
41
1
10
26.0344964733538
20
5.16062174316875
30
0
41
1
10
26.02423857727
20
5.39739550989998
30
0
0
SPLINE
5
144
100
AcDbEntity
8
1
62
256
6
ByLayer
370
18
48
1
60
0
100
AcDbSpline
70
4
71
11
72
24
73
12
40
0
40
0
40
0
40
0
40
0
40
0
40
0
40
0
40
0
40
0
40
0
40
0
40
1
40
1
40
1
40
1
40
1
40
1
40
1
40
1
40
1
40
1
40
1
40
1
41
1
10
25.75719902133
20
11.51360689109
30
0
41
1
10
25.75681837037
20
11.52232523158
30
0
41
1
10
25.75601926908
20
11.53102530194
30
0
41
1
10
25.75480269182
20
11.53968478664
30
0
41
1
10
25.75317095177
20
11.54828142845
30
0
41
1
10
25.75112769695
20
11.5567931203
30
0
41
1
10
25.74867789884
20
11.56519799687
30
0
41
1
10
25.7458278338
20
11.57347452502
30
0
41
1
10
25.74258505709
20
11.58160159254
30
0
41
1
10
25.73895837013
20
11.58955859446
30
0
41
1
10
25.73495778084
20
11.5973255163
30
0
41
1
10
25.73059445771
20
11.60488301365
30
0
0
SPLINE
5
145
100
AcDbEntity
8
1
62
256
6
ByLayer
370
18
48
1
60
0
100
AcDbSpline
70
4
71
11
72
24
73
12
40
0
40
0
40
0
40
0
40
0
40
0
40
0
40
0
40
0
40
0
40
0
40
0
40
1
40
1
40
1
40
1
40
1
40
1
40
1
40
1
40
1
40
1
40
1
40
1
41
1
10
25.32679491924
20
26.82071566957
30
0
41
1
10
25.32203493034
20
26.81247112695
30
0
41
1
10
25.31770662482
20
26.80397735207
30
0
41
1
10
25.31382450226
20
26.79525945903
30
0
41
1
10
25.31040141866
20
26.78634351111
30
0
41
1
10
25.30744851536
20
26.77725639771
30
0
41
1
10
25.30497515872
20
26.76802570516
30
0
41
1
10
25.30298889127
20
26.75867958246
30
0
41
1
10
25.30149539465
20
26.74924660322
30
0
41
1
10
25.3004984649
20
26.73975562497
30
0
41
1
10
25.30000000003
20
26.73023564724
30
0
41
1
10
25.30000000004
20
26.72071566951
30
0
0
SPLINE
5
146
100
AcDbEntity
8
1
62
256
6
ByLayer
370
18
48
1
60
0
100
AcDbSpline
70
4
71
11
72
24
73
12
40
0
40
0
40
0
40
0
40
0
40
0
40
0
40
0
40
0
40
0
40
0
40
0
40
1
40
1
40
1
40
1
40
1
40
1
40
1
40
1
40
1
40
1
40
1
40
1
41
1
10
25.75719902133
20
27.61139310891
30
0
41
1
10
25.75681837037
20
27.60267476842
30
0
41
1
10
25.75601926908
20
27.59397469806
30
0
41
1
10
25.75480269182
20
27.58531521336
30
0
41
1
10
25.75317095177
20
27.57671857155
30
0
41
1
10
25.75112769695
20
27.5682068797
30
0
41
1
10
25.74867789884
20
27.55980200313
30
0
41
1
10
25.7458278338
20
27.55152547498
30
0
41
1
10
25.74258505709
20
27.54339840746
30
0
41
1
10
25.73895837013
20
27.53544140554
30
0
41
1
10
25.73495778084
20
27.5276744837
30
0
41
1
10
25.73059445771
20
27.52011698635
30
0
0
SPLINE
5
147
100
AcDbEntity
8
1
62
256
6
ByLayer
370
18
48
1
60
0
100
AcDbSpline
70
4
71
5
72
12
73
6
40
0
40
0
40
0
40
0
40
0
40
0
40
1
40
1
40
1
40
1
40
1
40
1
41
1
10
25.22500000167
20
34.5625
30
0
41
1
10
25.4832314034
20
34.5624130546
30
0
41
1
10
25.74194805403
20
34.4586489023
30
0
41
1
10
25.94303528014
20
34.248590443
30
0
41
1
10
26.035415612
20
33.9855939055
30
0
41
1
10
26.02423857727
20
33.7276044901
30
0
0
SPLINE
5
148
100
AcDbEntity
8
1
62
256
6
ByLayer
370
18
48
1
60
0
100
AcDbSpline
70
4
71
5
72
12
73
6
40
0
40
0
40
0
40
0
40
0
40
0
40
1
40
1
40
1
40
1
40
1
40
1
41
1
10
18.77499999833
20
34.5625
30
0
41
1
10
18.5167685966
20
34.5624130546
30
0
41
1
10
18.25805194597
20
34.4586489023
30
0
41
1
10
18.05696471986
20
34.248590443
30
0
41
1
10
17.964584388
20
33.9855939055
30
0
41
1
10
17.97576142273
20
33.7276044901
30
0
0
SPLINE
5
149
100
AcDbEntity
8
1
62
256
6
ByLayer
370
18
48
1
60
0
100
AcDbSpline
70
4
71
11
72
24
73
12
40
0
40
0
40
0
40
0
40
0
40
0
40
0
40
0
40
0
40
0
40
0
40
0
40
1
40
1
40
1
40
1
40
1
40
1
40
1
40
1
40
1
40
1
40
1
40
1
41
1
10
18.24280097867
20
27.61139310891
30
0
41
1
10
18.24318162963
20
27.60267476842
30
0
41
1
10
18.24398073092
20
27.59397469806
30
0
41
1
10
18.24519730818
20
27.58531521336
30
0
41
1
10
18.24682904823
20
27.57671857155
30
0
41
1
10
18.24887230305
20
27.5682068797
30
0
41
1
10
18.25132210116
20
27.55980200313
30
0
41
1
10
18.2541721662
20
27.55152547498
30
0
41
1
10
18.25741494291
20
27.54339840746
30
0
41
1
10
18.26104162987
20
27.53544140554
30
0
41
1
10
18.26504221916
20
27.5276744837
30
0
41
1
10
18.26940554229
20
27.52011698635
30
0
0
SPLINE
5
14A
100
AcDbEntity
8
1
62
256
6
ByLayer
370
18
48
1
60
0
100
AcDbSpline
70
4
71
11
72
24
73
12
40
0
40
0
40
0
40
0
40
0
40
0
40
0
40
0
40
0
40
0
40
0
40
0
40
1
40
1
40
1
40
1
40
1
40
1
40
1
40
1
40
1
40
1
40
1
40
1
41
1
10
18.67320508076
20
26.82071566957
30
0
41
1
10
18.67796506966
20
26.81247112695
30
0
41
1
10
18.68229337518
20
26.80397735207
30
0
41
1
10
18.68617549774
20
26.79525945903
30
0
41
1
10
18.68959858134
20
26.78634351111
30
0
41
1
10
18.69255148464
20
26.77725639771
30
0
41
1
10
18.69502484128
20
26.76802570516
30
0
41
1
10
18.69701110873
20
26.75867958246
30
0
41
1
10
18.69850460535
20
26.74924660322
30
0
41
1
10
18.6995015351
20
26.73975562497
30
0
41
1
10
18.69999999997
20
26.73023564724
30
0
41
1
10
18.69999999996
20
26.72071566951
30
0
0
SPLINE
5
14B
100
AcDbEntity
8
1
62
256
6
ByLayer
370
18
48
1
60
0
100
AcDbSpline
70
4
71
5
72
15
73
9
40
0
40
0
40
0
40
0
40
0
40
0
40
0.0074613573021939
40
0.0074613573021939
40
0.0074613573021939
40
1
40
1
40
1
40
1
40
1
40
1
41
1
10
24.4946660869447
20
31.0586060347578
30
0
41
1
10
24.494007369979
20
31.0581209068597
30
0
41
1
10
24.4933491611723
20
31.0576351973132
30
0
41
1
10
24.492691459377
20
31.0571489078709
30
0
41
1
10
24.4046115115438
20
30.9918970251105
30
0
41
1
10
24.32559581576
20
30.9162903458
30
0
41
1
10
24.25521885667
20
30.8359438481
30
0
41
1
10
24.19055251387
20
30.7506536441
30
0
41
1
10
24.13202062009
20
30.6633681941
30
0
0
SPLINE
5
14C
100
AcDbEntity
8
1
62
256
6
ByLayer
370
18
48
1
60
0
100
AcDbSpline
70
4
71
5
72
15
73
9
40
0
40
0
40
0
40
0
40
0
40
0
40
0.0074613572676734
40
0.0074613572676734
40
0.0074613572676734
40
1
40
1
40
1
40
1
40
1
40
1
41
1
10
19.5053339130706
20
31.0586060347465
30
0
41
1
10
19.5059926300333
20
31.0581209068507
30
0
41
1
10
19.506650838837
20
31.0576351973064
30
0
41
1
10
19.5073085406291
20
31.0571489078664
30
0
41
1
10
19.5953884884589
20
30.9918970251079
30
0
41
1
10
19.67440418424
20
30.9162903458
30
0
41
1
10
19.74478114333
20
30.8359438481
30
0
41
1
10
19.80944748613
20
30.7506536441
30
0
41
1
10
19.86797937991
20
30.6633681941
30
0
0
SPLINE
5
14D
100
AcDbEntity
8
1
62
256
6
ByLayer
370
18
48
1
60
0
100
AcDbSpline
70
4
71
5
72
15
73
9
40
0
40
0
40
0
40
0
40
0
40
0
40
0.437068328965547
40
0.437068328965547
40
0.437068328965547
40
1
40
1
40
1
40
1
40
1
40
1
41
1
10
23.48457438325
20
30.0935782149
30
0
41
1
10
23.54157409501
20
30.0936473805
30
0
41
1
10
23.59621097841
20
30.1041724572
30
0
41
1
10
23.6494498694
20
30.1246295952
30
0
41
1
10
23.76011486912
20
30.1852463326
30
0
41
1
10
23.85213126732
20
30.2703759745
30
0
41
1
10
23.89767396789
20
30.3216602355
30
0
41
1
10
23.94018419429
20
30.3771792816
30
0
41
1
10
23.97759794375
20
30.433086004
30
0
0
SPLINE
5
14E
100
AcDbEntity
8
1
62
256
6
ByLayer
370
18
48
1
60
0
100
AcDbSpline
70
4
71
5
72
15
73
9
40
0
40
0
40
0
40
0
40
0
40
0
40
0.437068328965547
40
0.437068328965547
40
0.437068328965547
40
1
40
1
40
1
40
1
40
1
40
1
41
1
10
20.51542561675
20
30.0935782149
30
0
41
1
10
20.45842590499
20
30.0936473805
30
0
41
1
10
20.40378902159
20
30.1041724572
30
0
41
1
10
20.3505501306
20
30.1246295952
30
0
41
1
10
20.23988513088
20
30.1852463326
30
0
41
1
10
20.14786873268
20
30.2703759745
30
0
41
1
10
20.10232603211
20
30.3216602355
30
0
41
1
10
20.05981580571
20
30.3771792816
30
0
41
1
10
20.02240205625
20
30.433086004
30
0
0
SPLINE
5
14F
100
AcDbEntity
8
1
62
256
6
ByLayer
370
18
48
1
60
0
100
AcDbSpline
70
4
71
5
72
12
73
6
40
0
40
0
40
0
40
0
40
0
40
0
40
1
40
1
40
1
40
1
40
1
40
1
41
1
10
21.729999999302
20
25.56272626063
30
0
41
1
10
21.729999999302
20
25.55271841521
30
0
41
1
10
21.729999999302
20
25.54164050042
30
0
41
1
10
21.729999999302
20
25.52980327683
30
0
41
1
10
21.729999999302
20
25.51758590949
30
0
41
1
10
21.729999999302
20
25.505368617
30
0
0
SPLINE
5
150
100
AcDbEntity
8
1
62
256
6
ByLayer
370
18
48
1
60
0
100
AcDbSpline
70
4
71
5
72
12
73
6
40
0
40
0
40
0
40
0
40
0
40
0
40
1
40
1
40
1
40
1
40
1
40
1
41
1
10
22.270000000698
20
25.56272626063
30
0
41
1
10
22.270000000698
20
25.55271841521
30
0
41
1
10
22.270000000698
20
25.54164050042
30
0
41
1
10
22.270000000698
20
25.52980327683
30
0
41
1
10
22.270000000698
20
25.51758590949
30
0
41
1
10
22.270000000698
20
25.505368617
30
0
0
SPLINE
5
151
100
AcDbEntity
8
1
62
256
6
ByLayer
370
18
48
1
60
0
100
AcDbSpline
70
4
71
5
72
12
73
6
40
0
40
0
40
0
40
0
40
0
40
0
40
1
40
1
40
1
40
1
40
1
40
1
41
1
10
22.270000736044
20
25.50535699163
30
0
41
1
10
22.3083114203009
20
25.5053261726168
30
0
41
1
10
22.3466297168706
20
25.5040985886775
30
0
41
1
10
22.3848382344001
20
25.5012793601911
30
0
41
1
10
22.4228891774297
20
25.4973460301949
30
0
41
1
10
22.4606636600114
20
25.4920212005385
30
0
0
SPLINE
5
152
100
AcDbEntity
8
1
62
256
6
ByLayer
370
18
48
1
60
0
100
AcDbSpline
70
4
71
5
72
12
73
6
40
0
40
0
40
0
40
0
40
0
40
0
40
1
40
1
40
1
40
1
40
1
40
1
41
1
10
21.729999263956
20
25.50535699163
30
0
41
1
10
21.6916885796991
20
25.5053261726168
30
0
41
1
10
21.6533702831293
20
25.5040985886775
30
0
41
1
10
21.6151617655998
20
25.5012793601911
30
0
41
1
10
21.5771108225704
20
25.4973460301949
30
0
41
1
10
21.5393363399885
20
25.4920212005385
30
0
0
SPLINE
5
153
100
AcDbEntity
8
1
62
256
6
ByLayer
370
13
48
1
60
0
100
AcDbSpline
70
4
71
3
72
26
73
22
40
0
40
0
40
0
40
0
40
0.0039953692451368
40
0.0081034076466655
40
0.0162182804968255
40
0.0320941361820922
40
0.0628014698360295
40
0.122365117924873
40
0.179522955805341
40
0.243498148205801
40
0.359092368685258
40
0.494172294572881
40
0.539711050367035
40
0.58788317725277
40
0.638705922078287
40
0.692193967160139
40
0.748359904089101
40
0.807214605180608
40
0.86876751745324
40
0.933026897389499
40
1
40
1
40
1
40
1
41
1
10
21.539264413028
20
25.4920211895393
30
0
41
1
10
21.5386418742991
20
25.4918863298765
30
0
41
1
10
21.5373792412891
20
25.491612807517
30
0
41
1
10
21.5348560500032
20
25.4910584753096
30
0
41
1
10
21.530509460636
20
25.4900095964269
30
0
41
1
10
21.5221452268077
20
25.4876720869229
30
0
41
1
10
21.5063622610878
20
25.48197234302
30
0
41
1
10
21.4859940138695
20
25.4710460148373
30
0
41
1
10
21.4638415648396
20
25.454257316577
30
0
41
1
10
21.4380901789606
20
25.4292660451138
30
0
41
1
10
21.4094800160259
20
25.3919499192361
30
0
41
1
10
21.3882788267736
20
25.3538803637017
30
0
41
1
10
21.3743461377933
20
25.3235660075609
30
0
41
1
10
21.3662769713977
20
25.3041574957788
30
0
41
1
10
21.3585180647719
20
25.2834487177511
30
0
41
1
10
21.3511304272492
20
25.2614382297694
30
0
41
1
10
21.344179202278
20
25.2381260589631
30
0
41
1
10
21.3377258815962
20
25.2135126741646
30
0
41
1
10
21.3318578474314
20
25.1875951493225
30
0
41
1
10
21.3265688119932
20
25.1603847239504
30
0
41
1
10
21.3237365990028
20
25.1417385915716
30
0
41
1
10
21.3222912092066
20
25.1322227361
30
0
0
SPLINE
5
154
100
AcDbEntity
8
1
62
256
6
ByLayer
370
18
48
1
60
0
100
AcDbSpline
70
4
71
5
72
12
73
6
40
0
40
0
40
0
40
0
40
0
40
0
40
1
40
1
40
1
40
1
40
1
40
1
41
1
10
21.530198243564
20
25.54940181492
30
0
41
1
10
21.5321746964012
20
25.5394253268473
30
0
41
1
10
21.5341508999295
20
25.5283576206838
30
0
41
1
10
21.5360635768049
20
25.5165144554111
30
0
41
1
10
21.5378468219245
20
25.5042826684554
30
0
41
1
10
21.5394499644976
20
25.4920503298062
30
0
0
SPLINE
5
155
100
AcDbEntity
8
1
62
256
6
ByLayer
370
18
48
1
60
0
100
AcDbSpline
70
4
71
5
72
12
73
6
40
0
40
0
40
0
40
0
40
0
40
0
40
1
40
1
40
1
40
1
40
1
40
1
41
1
10
22.469801756436
20
25.54940181492
30
0
41
1
10
22.4678253035987
20
25.5394253268473
30
0
41
1
10
22.4658491000705
20
25.5283576206838
30
0
41
1
10
22.4639364231952
20
25.5165144554111
30
0
41
1
10
22.4621531780754
20
25.5042826684554
30
0
41
1
10
22.4605500355024
20
25.4920503298062
30
0
0
SPLINE
5
156
100
AcDbEntity
8
1
62
256
6
ByLayer
370
13
48
1
60
0
100
AcDbSpline
70
4
71
5
72
12
73
6
40
0
40
0
40
0
40
0
40
0
40
0
40
1
40
1
40
1
40
1
40
1
40
1
41
1
10
22.4606628573109
20
25.4920233837883
30
0
41
1
10
22.5479023308193
20
25.4760543748799
30
0
41
1
10
22.6090477757444
20
25.3854768257608
30
0
41
1
10
22.6388163111911
20
25.3107634085756
30
0
41
1
10
22.6659281284468
20
25.2201094695955
30
0
41
1
10
22.677600452873
20
25.1322227361
30
0
0
SPLINE
5
157
100
AcDbEntity
8
1
62
256
6
ByLayer
370
13
48
1
60
0
100
AcDbSpline
70
4
71
5
72
12
73
6
40
0
40
0
40
0
40
0
40
0
40
0
40
1
40
1
40
1
40
1
40
1
40
1
41
1
10
21.266914648241
20
24.92041328442
30
0
41
1
10
21.279919281998
20
24.96241139387
30
0
41
1
10
21.291936474904
20
25.00460329739
30
0
41
1
10
21.302989154613
20
25.04696695877
30
0
41
1
10
21.313094685179
20
25.0894797832
30
0
41
1
10
21.322267476332
20
25.13211955257
30
0
0
SPLINE
5
158
100
AcDbEntity
8
1
62
256
6
ByLayer
370
18
48
1
60
0
100
AcDbSpline
70
4
71
5
72
12
73
6
40
0
40
0
40
0
40
0
40
0
40
0
40
1
40
1
40
1
40
1
40
1
40
1
41
1
10
21.226326205991
20
25.1895803803304
30
0
41
1
10
21.2528164355345
20
25.1860088988331
30
0
41
1
10
21.2793244557216
20
25.1772745295151
30
0
41
1
10
21.3017949778879
20
25.163862684879
30
0
41
1
10
21.3164241276161
20
25.1480419467943
30
0
41
1
10
21.3223964047706
20
25.1322310584347
30
0
0
SPLINE
5
159
100
AcDbEntity
8
1
62
256
6
ByLayer
370
18
48
1
60
0
100
AcDbSpline
70
4
71
5
72
12
73
6
40
0
40
0
40
0
40
0
40
0
40
0
40
1
40
1
40
1
40
1
40
1
40
1
41
1
10
22.7736988421292
20
25.1894555849334
30
0
41
1
10
22.7472291541027
20
25.1858645409242
30
0
41
1
10
22.7207563538127
20
25.1771227484244
30
0
41
1
10
22.6983207608288
20
25.1637185476615
30
0
41
1
10
22.68370907412
20
25.1479137535479
30
0
41
1
10
22.677732523668
20
25.13211955257
30
0
0
SPLINE
5
15A
100
AcDbEntity
8
1
62
256
6
ByLayer
370
13
48
1
60
0
100
AcDbSpline
70
4
71
5
72
12
73
6
40
0
40
0
40
0
40
0
40
0
40
0
40
1
40
1
40
1
40
1
40
1
40
1
41
1
10
22.733085351759
20
24.92041328442
30
0
41
1
10
22.720080718002
20
24.96241139387
30
0
41
1
10
22.708063525096
20
25.00460329739
30
0
41
1
10
22.697010845387
20
25.04696695877
30
0
41
1
10
22.686905314821
20
25.0894797832
30
0
41
1
10
22.677732523668
20
25.13211955257
30
0
0
SPLINE
5
15B
100
AcDbEntity
8
1
62
256
6
ByLayer
370
18
48
1
60
0
100
AcDbSpline
70
4
71
5
72
12
73
6
40
0
40
0
40
0
40
0
40
0
40
0
40
1
40
1
40
1
40
1
40
1
40
1
41
1
10
22.825521332762
20
24.97777092767
30
0
41
1
10
22.801138352077
20
24.97304245407
30
0
41
1
10
22.776744469982
20
24.96381669698
30
0
41
1
10
22.75557359778
20
24.95067991478
30
0
41
1
10
22.740705626901
20
24.93554321724
30
0
41
1
10
22.733085349363
20
24.92041328443
30
0
0
SPLINE
5
15C
100
AcDbEntity
8
1
62
256
6
ByLayer
370
18
48
1
60
0
100
AcDbSpline
70
4
71
5
72
12
73
6
40
0
40
0
40
0
40
0
40
0
40
0
40
1
40
1
40
1
40
1
40
1
40
1
41
1
10
22.763887563487
20
24.92041328426
30
0
41
1
10
22.755759150896
20
24.92041328432
30
0
41
1
10
22.748456221514
20
24.92041328444
30
0
41
1
10
22.742159397245
20
24.92041328435
30
0
41
1
10
22.737008782037
20
24.92041328437
30
0
41
1
10
22.733085349363
20
24.92041328443
30
0
0
SPLINE
5
15D
100
AcDbEntity
8
1
62
256
6
ByLayer
370
18
48
1
60
0
100
AcDbSpline
70
4
71
5
72
12
73
6
40
0
40
0
40
0
40
0
40
0
40
0
40
1
40
1
40
1
40
1
40
1
40
1
41
1
10
21.236112436513
20
24.92041328426
30
0
41
1
10
21.244240849104
20
24.92041328432
30
0
41
1
10
21.251543778486
20
24.92041328444
30
0
41
1
10
21.257840602755
20
24.92041328435
30
0
41
1
10
21.262991217963
20
24.92041328437
30
0
41
1
10
21.266914650637
20
24.92041328443
30
0
0
SPLINE
5
15E
100
AcDbEntity
8
1
62
256
6
ByLayer
370
18
48
1
60
0
100
AcDbSpline
70
4
71
5
72
12
73
6
40
0
40
0
40
0
40
0
40
0
40
0
40
1
40
1
40
1
40
1
40
1
40
1
41
1
10
21.174478667238
20
24.97777092767
30
0
41
1
10
21.198861647923
20
24.97304245407
30
0
41
1
10
21.223255530018
20
24.96381669698
30
0
41
1
10
21.24442640222
20
24.95067991478
30
0
41
1
10
21.259294373099
20
24.93554321724
30
0
41
1
10
21.266914650637
20
24.92041328443
30
0
0
SPLINE
5
15F
100
AcDbEntity
8
1
62
256
6
ByLayer
370
18
48
1
60
0
100
AcDbSpline
70
4
71
5
72
12
73
6
40
0
40
0
40
0
40
0
40
0
40
0
40
1
40
1
40
1
40
1
40
1
40
1
41
1
10
22.825521332797
20
24.97777092791
30
0
41
1
10
22.811491844426
20
24.9693488447
30
0
41
1
10
22.797461630167
20
24.95875805827
30
0
41
1
10
22.784317877831
20
24.94652621377
30
0
41
1
10
22.772937530182
20
24.93346941129
30
0
41
1
10
22.763887563487
20
24.92041328426
30
0
0
SPLINE
5
160
100
AcDbEntity
8
1
62
256
6
ByLayer
370
18
48
1
60
0
100
AcDbSpline
70
4
71
5
72
12
73
6
40
0
40
0
40
0
40
0
40
0
40
0
40
1
40
1
40
1
40
1
40
1
40
1
41
1
10
21.174478667203
20
24.97777092791
30
0
41
1
10
21.188508155574
20
24.9693488447
30
0
41
1
10
21.202538369833
20
24.95875805827
30
0
41
1
10
21.215682122169
20
24.94652621377
30
0
41
1
10
21.227062469818
20
24.93346941129
30
0
41
1
10
21.236112436513
20
24.92041328426
30
0
0
SPLINE
5
161
100
AcDbEntity
8
1
62
256
6
ByLayer
370
18
48
1
60
0
100
AcDbSpline
70
4
71
8
72
18
73
9
40
0
40
0
40
0
40
0
40
0
40
0
40
0
40
0
40
0
40
1
40
1
40
1
40
1
40
1
40
1
40
1
40
1
40
1
41
1
10
22.85566488864
20
24.81782762777
30
0
41
1
10
22.861321169267
20
24.82598778272
30
0
41
1
10
22.867809892465
20
24.8341479373
30
0
41
1
10
22.875029198244
20
24.84216114147
30
0
41
1
10
22.882856239019
20
24.84988044356
30
0
41
1
10
22.891151029836
20
24.85716444815
30
0
41
1
10
22.899761632917
20
24.86388288168
30
0
41
1
10
22.908530142886
20
24.86992142068
30
0
41
1
10
22.917298652793
20
24.87518527141
30
0
0
SPLINE
5
162
100
AcDbEntity
8
1
62
256
6
ByLayer
370
18
48
1
60
0
100
AcDbSpline
70
4
71
5
72
12
73
6
40
0
40
0
40
0
40
0
40
0
40
0
40
1
40
1
40
1
40
1
40
1
40
1
41
1
10
22.899933833468
20
24.8178276268
30
0
41
1
10
22.890291515484
20
24.81782762618
30
0
41
1
10
22.880857494547
20
24.81782762758
30
0
41
1
10
22.871824074795
20
24.81782762618
30
0
41
1
10
22.863375066566
20
24.81782762708
30
0
41
1
10
22.855664886196
20
24.81782762689
30
0
0
SPLINE
5
163
100
AcDbEntity
8
1
62
256
6
ByLayer
370
18
48
1
60
0
100
AcDbSpline
70
4
71
5
72
12
73
6
40
0
40
0
40
0
40
0
40
0
40
0
40
1
40
1
40
1
40
1
40
1
40
1
41
1
10
21.100066166532
20
24.8178276268
30
0
41
1
10
21.109708484516
20
24.81782762618
30
0
41
1
10
21.119142505453
20
24.81782762758
30
0
41
1
10
21.128175925205
20
24.81782762618
30
0
41
1
10
21.136624933434
20
24.81782762708
30
0
41
1
10
21.144335113804
20
24.81782762689
30
0
0
SPLINE
5
164
100
AcDbEntity
8
1
62
256
6
ByLayer
370
18
48
1
60
0
100
AcDbSpline
70
4
71
8
72
18
73
9
40
0
40
0
40
0
40
0
40
0
40
0
40
0
40
0
40
0
40
1
40
1
40
1
40
1
40
1
40
1
40
1
40
1
40
1
41
1
10
21.14433511136
20
24.81782762777
30
0
41
1
10
21.138678830733
20
24.82598778272
30
0
41
1
10
21.132190107535
20
24.8341479373
30
0
41
1
10
21.124970801756
20
24.84216114147
30
0
41
1
10
21.117143760981
20
24.84988044356
30
0
41
1
10
21.108848970164
20
24.85716444815
30
0
41
1
10
21.100238367083
20
24.86388288168
30
0
41
1
10
21.091469857114
20
24.86992142068
30
0
41
1
10
21.082701347207
20
24.87518527141
30
0
0
SPLINE
5
165
100
AcDbEntity
8
1
62
256
6
ByLayer
370
18
48
1
60
0
100
AcDbSpline
70
4
71
2
72
6
73
3
40
0
40
0
40
0
40
1
40
1
40
1
41
1
10
24.1258036235489
20
26.6742947579408
30
0
41
1
10
24.034650357267
20
26.6072684892365
30
0
41
1
10
23.9512316974
20
26.5226210950061
30
0
0
SPLINE
5
166
100
AcDbEntity
8
1
62
256
6
ByLayer
370
18
48
1
60
0
100
AcDbSpline
70
4
71
5
72
12
73
6
40
0
40
0
40
0
40
0
40
0
40
0
40
1
40
1
40
1
40
1
40
1
40
1
41
1
10
23.31209567514
20
26.14316632218
30
0
41
1
10
23.42805171218
20
26.14298682909
30
0
41
1
10
23.54324011152
20
26.1738312314
30
0
41
1
10
23.64201216634
20
26.22904446845
30
0
41
1
10
23.72741253594
20
26.2953341277
30
0
41
1
10
23.80016761479
20
26.36926334812
30
0
0
SPLINE
5
167
100
AcDbEntity
8
1
62
256
6
ByLayer
370
18
48
1
60
0
100
AcDbSpline
70
4
71
5
72
12
73
6
40
0
40
0
40
0
40
0
40
0
40
0
40
1
40
1
40
1
40
1
40
1
40
1
41
1
10
20.68790432486
20
26.14316632218
30
0
41
1
10
20.57194828782
20
26.14298682909
30
0
41
1
10
20.45675988848
20
26.1738312314
30
0
41
1
10
20.35798783366
20
26.22904446845
30
0
41
1
10
20.27258746406
20
26.2953341277
30
0
41
1
10
20.19983238521
20
26.36926334812
30
0
0
SPLINE
5
168
100
AcDbEntity
8
1
62
256
6
ByLayer
370
18
48
1
60
0
100
AcDbSpline
70
4
71
3
72
20
73
16
40
0
40
0
40
0
40
0
40
0.0728250660510566
40
0.146312952644191
40
0.220469580917935
40
0.295300696636301
40
0.370811875033038
40
0.447008525573576
40
0.523895896630347
40
0.601479080064968
40
0.679763015719635
40
0.758752495810065
40
0.838452169223561
40
0.918866545713859
40
1
40
1
40
1
40
1
41
1
10
19.8741991582131
20
26.6742917666895
30
0
41
1
10
19.8787869903061
20
26.6708941607446
30
0
41
1
10
19.8880044108476
20
26.6640680253948
30
0
41
1
10
19.9016826224314
20
26.6535940364157
30
0
41
1
10
19.915329161727
20
26.6428904899994
30
0
41
1
10
19.9289263638087
20
26.6319434450309
30
0
41
1
10
19.9424760074961
20
26.6207566873241
30
0
41
1
10
19.9559745788872
20
26.6093291921897
30
0
41
1
10
19.9694199588994
20
26.5976612249318
30
0
41
1
10
19.9828097269295
20
26.5857527629703
30
0
41
1
10
19.9961411698193
20
26.573603625339
30
0
41
1
10
20.0094129907327
20
26.5612145687937
30
0
41
1
10
20.022618374251
20
26.54858271093
30
0
41
1
10
20.0357713480519
20
26.535718959236
30
0
41
1
10
20.0444231475261
20
26.5269999863058
30
0
41
1
10
20.0487683026034
20
26.522621095
30
0
0
SPLINE
5
169
100
AcDbEntity
8
1
62
256
6
ByLayer
370
13
48
1
60
0
100
AcDbSpline
70
4
71
5
72
12
73
6
40
0
40
0
40
0
40
0
40
0
40
0
40
1
40
1
40
1
40
1
40
1
40
1
41
1
10
21.226141306736
20
25.18947719621
30
0
41
1
10
21.217582609762
20
25.14685023177
30
0
41
1
10
21.208152983685
20
25.10434577374
30
0
41
1
10
21.197838098408
20
25.06198305591
30
0
41
1
10
21.186620437052
20
25.0197832651
30
0
41
1
10
21.174478667237
20
24.97777092836
30
0
0
SPLINE
5
16A
100
AcDbEntity
8
1
62
256
6
ByLayer
370
18
48
1
60
0
100
AcDbSpline
70
4
71
5
72
22
73
16
40
0
40
0
40
0
40
0
40
0
40
0
40
0.333333333333333
40
0.333333333333333
40
0.333333333333333
40
0.333333333333333
40
0.333333333333333
40
0.666666666666667
40
0.666666666666667
40
0.666666666666667
40
0.666666666666667
40
0.666666666666667
40
1
40
1
40
1
40
1
40
1
40
1
41
1
10
21.226326205883
20
25.18958037975
30
0
41
1
10
21.238961457627
20
25.25644048968
30
0
41
1
10
21.262341427919
20
25.32206077285
30
0
41
1
10
21.293365245885
20
25.38626569857
30
0
41
1
10
21.336080699906
20
25.44500096524
30
0
41
1
10
21.3964898566921
20
25.4915884251499
30
0
41
1
10
21.411855779939
20
25.50343860435
30
0
41
1
10
21.428398229572
20
25.51438292131
30
0
41
1
10
21.446043755703
20
25.52411676176
30
0
41
1
10
21.464629049531
20
25.53237403676
30
0
41
1
10
21.4842880940404
20
25.5388022793877
30
0
41
1
10
21.493171627794
20
25.54170707521
30
0
41
1
10
21.502163322634
20
25.54433190399
30
0
41
1
10
21.511419986669
20
25.54652361099
30
0
41
1
10
21.520769031311
20
25.54807234072
30
0
41
1
10
21.530198243564
20
25.54940181511
30
0
0
SPLINE
5
16B
100
AcDbEntity
8
1
62
256
6
ByLayer
370
18
48
1
60
0
100
AcDbSpline
70
4
71
5
72
19
73
13
40
0
40
0
40
0
40
0
40
0
40
0
40
0.44522345479053
40
0.44522345479053
40
0.44522345479053
40
0.55477654520947
40
0.55477654520947
40
0.55477654520947
40
0.55477654520947
40
1
40
1
40
1
40
1
40
1
40
1
41
1
10
21.53019413476
20
25.54940429806
30
0
41
1
10
21.549999910566
20
25.55205877067
30
0
41
1
10
21.569875731782
20
25.55434150192
30
0
41
1
10
21.589801719445
20
25.55633537624
30
0
41
1
10
21.614682310915
20
25.55842888491
30
0
41
1
10
21.639614652967
20
25.56001014375
30
0
41
1
10
21.644539981953
20
25.56030203956
30
0
41
1
10
21.649467039189
20
25.56057337586
30
0
41
1
10
21.669500239245
20
25.56155470334
30
0
41
1
10
21.684609778014
20
25.56216416951
30
0
41
1
10
21.699741524439
20
25.56253257604
30
0
41
1
10
21.71486854179
20
25.56268546629
30
0
41
1
10
21.729999228246
20
25.56271845637
30
0
0
SPLINE
5
16C
100
AcDbEntity
8
1
62
256
6
ByLayer
370
18
48
1
60
0
100
AcDbSpline
70
4
71
5
72
19
73
13
40
0
40
0
40
0
40
0
40
0
40
0
40
0.44522345479053
40
0.44522345479053
40
0.44522345479053
40
0.55477654520947
40
0.55477654520947
40
0.55477654520947
40
0.55477654520947
40
1
40
1
40
1
40
1
40
1
40
1
41
1
10
22.46980586524
20
25.54940429806
30
0
41
1
10
22.450000089434
20
25.55205877067
30
0
41
1
10
22.430124268218
20
25.55434150192
30
0
41
1
10
22.410198280555
20
25.55633537624
30
0
41
1
10
22.385317689085
20
25.55842888491
30
0
41
1
10
22.360385347033
20
25.56001014375
30
0
41
1
10
22.355460018047
20
25.56030203956
30
0
41
1
10
22.350532960811
20
25.56057337586
30
0
41
1
10
22.330499760755
20
25.56155470334
30
0
41
1
10
22.315390221986
20
25.56216416951
30
0
41
1
10
22.300258475561
20
25.56253257604
30
0
41
1
10
22.28513145821
20
25.56268546629
30
0
41
1
10
22.270000771754
20
25.56271845637
30
0
0
SPLINE
5
16D
100
AcDbEntity
8
1
62
256
6
ByLayer
370
18
48
1
60
0
100
AcDbSpline
70
4
71
5
72
22
73
16
40
0
40
0
40
0
40
0
40
0
40
0
40
0.333333333333333
40
0.333333333333333
40
0.333333333333333
40
0.333333333333333
40
0.333333333333333
40
0.666666666666667
40
0.666666666666667
40
0.666666666666667
40
0.666666666666667
40
0.666666666666667
40
1
40
1
40
1
40
1
40
1
40
1
41
1
10
22.773673794117
20
25.18958037975
30
0
41
1
10
22.761038542373
20
25.25644048968
30
0
41
1
10
22.737658572081
20
25.32206077285
30
0
41
1
10
22.706634754115
20
25.38626569857
30
0
41
1
10
22.663919300094
20
25.44500096524
30
0
41
1
10
22.6035101433078
20
25.4915884251499
30
0
41
1
10
22.588144220061
20
25.50343860435
30
0
41
1
10
22.571601770428
20
25.51438292131
30
0
41
1
10
22.553956244297
20
25.52411676176
30
0
41
1
10
22.535370950469
20
25.53237403676
30
0
41
1
10
22.5157119059596
20
25.5388022793877
30
0
41
1
10
22.506828372206
20
25.54170707521
30
0
41
1
10
22.497836677366
20
25.54433190399
30
0
41
1
10
22.488580013331
20
25.54652361099
30
0
41
1
10
22.479230968689
20
25.54807234072
30
0
41
1
10
22.469801756436
20
25.54940181511
30
0
0
SPLINE
5
16E
100
AcDbEntity
8
1
62
256
6
ByLayer
370
13
48
1
60
0
100
AcDbSpline
70
4
71
5
72
12
73
6
40
0
40
0
40
0
40
0
40
0
40
0
40
1
40
1
40
1
40
1
40
1
40
1
41
1
10
22.773858693264
20
25.18947719621
30
0
41
1
10
22.782417390238
20
25.14685023177
30
0
41
1
10
22.791847016315
20
25.10434577374
30
0
41
1
10
22.802161901592
20
25.06198305591
30
0
41
1
10
22.813379562948
20
25.0197832651
30
0
41
1
10
22.825521332763
20
24.97777092836
30
0
0
SPLINE
5
16F
100
AcDbEntity
8
1
62
256
6
ByLayer
370
18
48
1
60
0
100
AcDbSpline
70
4
71
5
72
12
73
6
40
0
40
0
40
0
40
0
40
0
40
0
40
1
40
1
40
1
40
1
40
1
40
1
41
1
10
22.899933833868
20
24.81782762775
30
0
41
1
10
22.902931242685
20
24.83010058831
30
0
41
1
10
22.906275668435
20
24.84237364203
30
0
41
1
10
22.909867425935
20
24.8542375973
30
0
41
1
10
22.913583064616
20
24.8652845514
30
0
41
1
10
22.917298651634
20
24.87518527138
30
0
0
SPLINE
5
170
100
AcDbEntity
8
1
62
256
6
ByLayer
370
18
48
1
60
0
100
AcDbSpline
70
4
71
5
72
12
73
6
40
0
40
0
40
0
40
0
40
0
40
0
40
1
40
1
40
1
40
1
40
1
40
1
41
1
10
21.100066166132
20
24.81782762775
30
0
41
1
10
21.097068757315
20
24.83010058831
30
0
41
1
10
21.093724331565
20
24.84237364203
30
0
41
1
10
21.090132574065
20
24.8542375973
30
0
41
1
10
21.086416935384
20
24.8652845514
30
0
41
1
10
21.082701348366
20
24.87518527138
30
0
0
SPLINE
5
171
100
AcDbEntity
8
1
62
256
6
ByLayer
370
18
48
1
60
0
100
AcDbSpline
70
4
71
5
72
12
73
6
40
0
40
0
40
0
40
0
40
0
40
0
40
1
40
1
40
1
40
1
40
1
40
1
41
1
10
19.89196158154
20
24.5136014917
30
0
41
1
10
19.8889642711
20
24.52587398982
30
0
41
1
10
19.88561997588
20
24.5381464632
30
0
41
1
10
19.8820283378
20
24.55000994804
30
0
41
1
10
19.87831290452
20
24.56105637966
30
0
41
1
10
19.87459748043
20
24.57095663571
30
0
0
SPLINE
5
172
100
AcDbEntity
8
1
62
256
6
ByLayer
370
18
48
1
60
0
100
AcDbSpline
70
4
71
5
72
12
73
6
40
0
40
0
40
0
40
0
40
0
40
0
40
1
40
1
40
1
40
1
40
1
40
1
41
1
10
24.10803841846
20
24.5136014917
30
0
41
1
10
24.1110357289
20
24.52587398982
30
0
41
1
10
24.11438002412
20
24.5381464632
30
0
41
1
10
24.1179716622
20
24.55000994804
30
0
41
1
10
24.12168709548
20
24.56105637966
30
0
41
1
10
24.12540251957
20
24.57095663571
30
0
0
SPLINE
5
173
100
AcDbEntity
8
1
62
256
6
ByLayer
370
13
48
1
60
0
100
AcDbSpline
70
4
71
5
72
12
73
6
40
0
40
0
40
0
40
0
40
0
40
0
40
1
40
1
40
1
40
1
40
1
40
1
41
1
10
19.873669773722
20
24.5709088156965
30
0
41
1
10
19.8736054166596
20
24.9915864162273
30
0
41
1
10
19.8735467094559
20
25.4122640173488
30
0
41
1
10
19.8734915531635
20
25.8329416186895
30
0
41
1
10
19.8734394580242
20
26.2536192202488
30
0
41
1
10
19.8733899526488
20
26.6742968220425
30
0
0
SPLINE
5
174
100
AcDbEntity
8
1
62
256
6
ByLayer
370
18
48
1
60
0
100
AcDbSpline
70
4
71
3
72
28
73
24
40
0
40
0
40
0
40
0
40
0.0551217751835137
40
0.109310996196049
40
0.16259049817387
40
0.2149843063755
40
0.266517685330083
40
0.31721718627137
40
0.367110691993122
40
0.41622745814732
40
0.464598149886854
40
0.51225487264256
40
0.559231195735909
40
0.605562167442799
40
0.651284320092079
40
0.696435663775886
40
0.74105566729733
40
0.785185225091267
40
0.828866609030962
40
0.872143404282193
40
0.915060428682711
40
0.957663635517176
40
1
40
1
40
1
40
1
41
1
10
19.8742060846232
20
26.6743042712702
30
0
41
1
10
19.8713189883924
20
26.6763867932281
30
0
41
1
10
19.8655936400334
20
26.6805166048872
30
0
41
1
10
19.8568908851758
20
26.6863892635644
30
0
41
1
10
19.8481997644475
20
26.6919560220581
30
0
41
1
10
19.8395089990275
20
26.6971986019244
30
0
41
1
10
19.8308238311045
20
26.7021217550345
30
0
41
1
10
19.8221451885122
20
26.7067242336713
30
0
41
1
10
19.8134751282545
20
26.711006375089
30
0
41
1
10
19.8048154137017
20
26.7149681191704
30
0
41
1
10
19.7961678864776
20
26.7186095265836
30
0
41
1
10
19.7875343691467
20
26.721930643335
30
0
41
1
10
19.7789166906622
20
26.7249315358917
30
0
41
1
10
19.7703166797533
20
26.7276122834762
30
0
41
1
10
19.7617361665842
20
26.7299729753802
30
0
41
1
10
19.753176982757
20
26.7320137301168
30
0
41
1
10
19.7446409598324
20
26.7337346245771
30
0
41
1
10
19.736129935118
20
26.7351359563593
30
0
41
1
10
19.7276457300113
20
26.7362172827428
30
0
41
1
10
19.7191902290046
20
26.7369809569316
30
0
41
1
10
19.7107650876685
20
26.7374191116496
30
0
41
1
10
19.7023728076361
20
26.7375616552605
30
0
41
1
10
19.6967839877565
20
26.7373860918605
30
0
41
1
10
19.6939983566097
20
26.7372985859316
30
0
0
SPLINE
5
175
100
AcDbEntity
8
1
62
256
6
ByLayer
370
18
48
1
60
0
100
AcDbSpline
70
4
71
5
72
12
73
6
40
0
40
0
40
0
40
0
40
0
40
0
40
1
40
1
40
1
40
1
40
1
40
1
41
1
10
19.6939965022489
20
26.7373287842856
30
0
41
1
10
19.6698960804706
20
26.7240679046649
30
0
41
1
10
19.64676272298
20
26.7089012244671
30
0
41
1
10
19.6247182201413
20
26.6921209845735
30
0
41
1
10
19.6038333098437
20
26.6740638290925
30
0
41
1
10
19.584122918
20
26.65507589514
30
0
0
SPLINE
5
176
100
AcDbEntity
8
1
62
256
6
ByLayer
370
13
48
1
60
0
100
AcDbSpline
70
4
71
3
72
36
73
32
40
0
40
0
40
0
40
0
40
0.0398968292393718
40
0.0793541845669752
40
0.11837672528979
40
0.156969269094712
40
0.195136797121915
40
0.232884459176881
40
0.270217579058473
40
0.307141659991914
40
0.343662390140275
40
0.379785648174389
40
0.415517508877367
40
0.450864248755036
40
0.485832351619197
40
0.520428514111743
40
0.554659651133182
40
0.588532901132841
40
0.622055631215748
40
0.655235442025576
40
0.688080172341064
40
0.720597903345676
40
0.752796962499187
40
0.784685926962159
40
0.816273626506226
40
0.847569145841971
40
0.878581826304338
40
0.909321266824102
40
0.939797324119364
40
0.970020112039787
40
1
40
1
40
1
40
1
41
1
10
19.5841294400682
20
24.3938737783527
30
0
41
1
10
19.5872978941064
20
24.3972186479685
30
0
41
1
10
19.5935999008406
20
24.4038715425947
30
0
41
1
10
19.6032181411173
20
24.4135830786205
30
0
41
1
10
19.6128865158779
20
24.4230267940269
30
0
41
1
10
19.6226166340622
20
24.4321879010617
30
0
41
1
10
19.6324006355571
20
24.4410702255634
30
0
41
1
10
19.6422358234702
20
24.4496727435976
30
0
41
1
10
19.652118174603
20
24.4579957636947
30
0
41
1
10
19.6620440513607
20
24.4660392966122
30
0
41
1
10
19.6720097522598
20
24.4738034839373
30
0
41
1
10
19.6820116319817
20
24.4812884841159
30
0
41
1
10
19.6920460712634
20
24.4884945014791
30
0
41
1
10
19.7021094863047
20
24.4954217775883
30
0
41
1
10
19.7121983276988
20
24.5020705925184
30
0
41
1
10
19.7223090820656
20
24.5084412635285
30
0
41
1
10
19.7324382729146
20
24.5145341444267
30
0
41
1
10
19.7425824616531
20
24.5203496247663
30
0
41
1
10
19.7527382485033
20
24.5258881290683
30
0
41
1
10
19.7629022733701
20
24.5311501161428
30
0
41
1
10
19.7730712167381
20
24.5361360780322
30
0
41
1
10
19.7832418002471
20
24.5408465403945
30
0
41
1
10
19.793410788258
20
24.5452820576178
30
0
41
1
10
19.8035749855844
20
24.5494432273575
30
0
41
1
10
19.8137312491418
20
24.553330633661
30
0
41
1
10
19.8238764482077
20
24.5569450528947
30
0
41
1
10
19.8340076136415
20
24.5602866924657
30
0
41
1
10
19.8441213912413
20
24.5633579905444
30
0
41
1
10
19.8542160577736
20
24.5661533008079
30
0
41
1
10
19.8642840951536
20
24.568696896912
30
0
41
1
10
19.8710141035088
20
24.5701733373255
30
0
41
1
10
19.8743655308915
20
24.5709085790325
30
0
0
SPLINE
5
177
100
AcDbEntity
8
1
62
256
6
ByLayer
370
13
48
1
60
0
100
AcDbSpline
70
4
71
5
72
12
73
6
40
0
40
0
40
0
40
0
40
0
40
0
40
1
40
1
40
1
40
1
40
1
40
1
41
1
10
24.41587629097
20
24.39386632335
30
0
41
1
10
24.369125889056
20
24.443765342052
30
0
41
1
10
24.316848233812
20
24.4888392270177
30
0
41
1
10
24.2588397513694
20
24.5277263636056
30
0
41
1
10
24.1938808641052
20
24.5565789533698
30
0
41
1
10
24.1256345762366
20
24.5709079833223
30
0
0
SPLINE
5
178
100
AcDbEntity
8
1
62
256
6
ByLayer
370
18
48
1
60
0
100
AcDbSpline
70
4
71
5
72
12
73
6
40
0
40
0
40
0
40
0
40
0
40
0
40
1
40
1
40
1
40
1
40
1
40
1
41
1
10
24.3060034977511
20
26.7373287842856
30
0
41
1
10
24.3301039195294
20
26.7240679046649
30
0
41
1
10
24.35323727702
20
26.7089012244671
30
0
41
1
10
24.3752817798587
20
26.6921209845735
30
0
41
1
10
24.3961666901563
20
26.6740638290925
30
0
41
1
10
24.415877082
20
26.65507589514
30
0
0
SPLINE
5
179
100
AcDbEntity
8
1
62
256
6
ByLayer
370
18
48
1
60
0
100
AcDbSpline
70
4
71
3
72
27
73
23
40
0
40
0
40
0
40
0
40
0.0578302361332264
40
0.114602197772092
40
0.170346760507035
40
0.225096554752472
40
0.27888603803877
40
0.331751562498362
40
0.383731435667172
40
0.43486597249265
40
0.485197536229065
40
0.534770565726751
40
0.583631586522725
40
0.631829203110833
40
0.67941406985129
40
0.726438838202788
40
0.772958078314673
40
0.819028173540067
40
0.864707187116168
40
0.910054701061613
40
0.955131628301118
40
1
40
1
40
1
40
1
41
1
10
24.1257938739698
20
26.6743040765449
30
0
41
1
10
24.1288232390844
20
26.6764869898821
30
0
41
1
10
24.1348265329182
20
26.6808128699529
30
0
41
1
10
24.1439521512248
20
26.6869505025811
30
0
41
1
10
24.1530588581602
20
26.6927512492831
30
0
41
1
10
24.1621599588079
20
26.698195459023
30
0
41
1
10
24.171250988722
20
26.7032882333476
30
0
41
1
10
24.1803321267021
20
26.7080282154929
30
0
41
1
10
24.1894023494778
20
26.7124157292724
30
0
41
1
10
24.1984609560379
20
26.7164506555415
30
0
41
1
10
24.2075071689571
20
26.720132986625
30
0
41
1
10
24.2165402376854
20
26.7234626812496
30
0
41
1
10
24.225559410612
20
26.7264397042814
30
0
41
1
10
24.2345639415618
20
26.7290640114612
30
0
41
1
10
24.2435530867749
20
26.7313355739849
30
0
41
1
10
24.2525261064063
20
26.7332543005185
30
0
41
1
10
24.2614822578495
20
26.7348203250338
30
0
41
1
10
24.270420817618
20
26.7360329549184
30
0
41
1
10
24.2793409996107
20
26.7368945472557
30
0
41
1
10
24.2882422561701
20
26.7373962252384
30
0
41
1
10
24.2971231672301
20
26.7375706392162
30
0
41
1
10
24.3030423894436
20
26.7373876897488
30
0
41
1
10
24.3059951381206
20
26.7372964271169
30
0
0
SPLINE
5
17A
100
AcDbEntity
8
1
62
256
6
ByLayer
370
13
48
1
60
0
100
AcDbSpline
70
4
71
5
72
12
73
6
40
0
40
0
40
0
40
0
40
0
40
0
40
1
40
1
40
1
40
1
40
1
40
1
41
1
10
24.1263302262779
20
24.5709088156939
30
0
41
1
10
24.1263945833403
20
24.9915864162249
30
0
41
1
10
24.126453290544
20
25.4122640173467
30
0
41
1
10
24.1265084468364
20
25.8329416186876
30
0
41
1
10
24.1265605419757
20
26.2536192202471
30
0
41
1
10
24.1266100473512
20
26.674296822041
30
0
0
SPLINE
5
17B
100
AcDbEntity
8
1
62
256
6
ByLayer
370
13
48
1
60
0
100
AcDbSpline
70
4
71
5
72
12
73
6
40
0
40
0
40
0
40
0
40
0
40
0
40
1
40
1
40
1
40
1
40
1
40
1
41
1
10
19.89196215133
20
24.51359915869
30
0
41
1
10
19.83504373541
20
24.49929778226
30
0
41
1
10
19.78086408801
20
24.47138514454
30
0
41
1
10
19.73248225618
20
24.43412932108
30
0
41
1
10
19.68888633844
20
24.3911349824
30
0
41
1
10
19.64990067765
20
24.34367848899
30
0
0
SPLINE
5
17C
100
AcDbEntity
8
1
62
256
6
ByLayer
370
13
48
1
60
0
100
AcDbSpline
70
4
71
5
72
12
73
6
40
0
40
0
40
0
40
0
40
0
40
0
40
1
40
1
40
1
40
1
40
1
40
1
41
1
10
24.10803784867
20
24.51359915869
30
0
41
1
10
24.16495626459
20
24.49929778226
30
0
41
1
10
24.21913591199
20
24.47138514454
30
0
41
1
10
24.26751774382
20
24.43412932108
30
0
41
1
10
24.31111366156
20
24.3911349824
30
0
41
1
10
24.35009932235
20
24.34367848899
30
0
0
SPLINE
5
17D
100
AcDbEntity
8
1
62
256
6
ByLayer
370
13
48
1
60
0
100
AcDbSpline
70
4
71
5
72
12
73
6
40
0
40
0
40
0
40
0
40
0
40
0
40
1
40
1
40
1
40
1
40
1
40
1
41
1
10
24.3501098966436
20
24.3436868211121
30
0
41
1
10
24.420536821601
20
24.2580317993418
30
0
41
1
10
24.498182896621
20
24.1781791467942
30
0
41
1
10
24.5839332661031
20
24.1061183128688
30
0
41
1
10
24.6794145312873
20
24.0454014338881
30
0
41
1
10
24.7827695867351
20
24.002912378842
30
0
0
SPLINE
5
17E
100
AcDbEntity
8
1
62
256
6
ByLayer
370
18
48
1
60
0
100
AcDbSpline
70
4
71
5
72
12
73
6
40
0
40
0
40
0
40
0
40
0
40
0
40
1
40
1
40
1
40
1
40
1
40
1
41
1
10
24.35010959018
20
24.34368719384
30
0
41
1
10
24.36371421769
20
24.3552188692
30
0
41
1
10
24.3780216031
20
24.36675075487
30
0
41
1
10
24.39211411792
20
24.3775033301
30
0
41
1
10
24.40497949689
20
24.38670425165
30
0
41
1
10
24.41588603575
20
24.39387456607
30
0
0
SPLINE
5
17F
100
AcDbEntity
8
1
62
256
6
ByLayer
370
18
48
1
60
0
100
AcDbSpline
70
4
71
5
72
12
73
6
40
0
40
0
40
0
40
0
40
0
40
0
40
1
40
1
40
1
40
1
40
1
40
1
41
1
10
19.64989040982
20
24.34368719384
30
0
41
1
10
19.63628578231
20
24.3552188692
30
0
41
1
10
19.6219783969
20
24.36675075487
30
0
41
1
10
19.60788588208
20
24.3775033301
30
0
41
1
10
19.59502050311
20
24.38670425165
30
0
41
1
10
19.58411396425
20
24.39387456607
30
0
0
SPLINE
5
180
100
AcDbEntity
8
1
62
256
6
ByLayer
370
13
48
1
60
0
100
AcDbSpline
70
4
71
5
72
12
73
6
40
0
40
0
40
0
40
0
40
0
40
0
40
1
40
1
40
1
40
1
40
1
40
1
41
1
10
19.6498901033563
20
24.3436868211121
30
0
41
1
10
19.579463178399
20
24.2580317993418
30
0
41
1
10
19.501817103379
20
24.1781791467942
30
0
41
1
10
19.4160667338968
20
24.1061183128688
30
0
41
1
10
19.3205854687127
20
24.0454014338881
30
0
41
1
10
19.2172304132649
20
24.002912378842
30
0
0
SPLINE
5
181
100
AcDbEntity
8
1
62
256
6
ByLayer
370
18
48
1
60
0
100
AcDbSpline
70
4
71
5
72
12
73
6
40
0
40
0
40
0
40
0
40
0
40
0
40
1
40
1
40
1
40
1
40
1
40
1
41
1
10
19.19078825924
20
24.06004184198
30
0
41
1
10
19.19607091623
20
24.05034748179
30
0
41
1
10
19.20155362061
20
24.03939454875
30
0
41
1
10
19.20704241528
20
24.02753823438
30
0
41
1
10
19.21232846593
20
24.01522963975
30
0
41
1
10
19.21723190396
20
24.00292107339
30
0
0
SPLINE
5
182
100
AcDbEntity
8
1
62
256
6
ByLayer
370
13
48
1
60
0
100
AcDbSpline
70
4
71
5
72
12
73
6
40
0
40
0
40
0
40
0
40
0
40
0
40
1
40
1
40
1
40
1
40
1
40
1
41
1
10
19.1825022667899
20
23.9982330272908
30
0
41
1
10
19.1809038943932
20
24.0104215087867
30
0
41
1
10
19.1793055702391
20
24.0226096226958
30
0
41
1
10
19.1777576702172
20
24.0344133648688
30
0
41
1
10
19.1763104182162
20
24.0454498836545
30
0
41
1
10
19.1750048826456
20
24.0554061514645
30
0
0
SPLINE
5
183
100
AcDbEntity
8
1
62
256
6
ByLayer
370
13
48
1
60
0
100
AcDbSpline
70
4
71
5
72
12
73
6
40
0
40
0
40
0
40
0
40
0
40
0
40
1
40
1
40
1
40
1
40
1
40
1
41
1
10
24.81749773321
20
23.99823302729
30
0
41
1
10
24.8190961288782
20
24.0104222892848
30
0
41
1
10
24.8206945349797
20
24.0226116312688
30
0
41
1
10
24.8222425822445
20
24.0344169401093
30
0
41
1
10
24.8236900492846
20
24.0454552308225
30
0
41
1
10
24.8249958700107
20
24.0554133358172
30
0
0
SPLINE
5
184
100
AcDbEntity
8
1
62
256
6
ByLayer
370
18
48
1
60
0
100
AcDbSpline
70
4
71
5
72
12
73
6
40
0
40
0
40
0
40
0
40
0
40
0
40
1
40
1
40
1
40
1
40
1
40
1
41
1
10
24.80921174076
20
24.06004184198
30
0
41
1
10
24.80392908377
20
24.05034748179
30
0
41
1
10
24.79844637939
20
24.03939454875
30
0
41
1
10
24.79295758472
20
24.02753823438
30
0
41
1
10
24.78767153407
20
24.01522963975
30
0
41
1
10
24.78276809604
20
24.00292107339
30
0
0
SPLINE
5
185
100
AcDbEntity
8
1
62
256
6
ByLayer
370
18
48
1
60
0
100
AcDbSpline
70
4
71
8
72
18
73
9
40
0
40
0
40
0
40
0
40
0
40
0
40
0
40
0
40
0
40
1
40
1
40
1
40
1
40
1
40
1
40
1
40
1
40
1
41
1
10
25.3
20
24.0501889785
30
0
41
1
10
25.3
20
24.04393408468
30
0
41
1
10
25.3
20
24.03729698803
30
0
41
1
10
25.3
20
24.0303332608
30
0
41
1
10
25.3
20
24.02310322996
30
0
41
1
10
25.3
20
24.0156709396
30
0
41
1
10
25.3
20
24.00810296585
30
0
41
1
10
25.3
20
24.00046715035
30
0
41
1
10
25.3
20
23.99283133486
30
0
0
SPLINE
5
186
100
AcDbEntity
8
1
62
256
6
ByLayer
370
13
48
1
60
0
100
AcDbSpline
70
4
71
3
72
10
73
6
40
0
40
0
40
0
40
0
40
0.5
40
0.5
40
1
40
1
40
1
40
1
41
1
10
24.89998729813
20
24.0501889784984
30
0
41
1
10
24.8999870796342
20
24.0418549893033
30
0
41
1
10
24.8999868611385
20
24.0326247987167
30
0
41
1
10
24.8999864241469
20
24.0132200302183
30
0
41
1
10
24.8999862056512
20
24.0030482465792
30
0
41
1
10
24.8999859871554
20
23.9928743252867
30
0
0
SPLINE
5
187
100
AcDbEntity
8
1
62
256
6
ByLayer
370
18
48
1
60
0
100
AcDbSpline
70
4
71
8
72
18
73
9
40
0
40
0
40
0
40
0
40
0
40
0
40
0
40
0
40
0
40
1
40
1
40
1
40
1
40
1
40
1
40
1
40
1
40
1
41
1
10
18.7
20
15.0748110215
30
0
41
1
10
18.7
20
15.08106591532
30
0
41
1
10
18.7
20
15.08770301197
30
0
41
1
10
18.7
20
15.0946667392
30
0
41
1
10
18.7
20
15.10189677004
30
0
41
1
10
18.7
20
15.1093290604
30
0
41
1
10
18.7
20
15.11689703415
30
0
41
1
10
18.7
20
15.12453284965
30
0
41
1
10
18.7
20
15.13216866514
30
0
0
SPLINE
5
188
100
AcDbEntity
8
1
62
256
6
ByLayer
370
13
48
1
60
0
100
AcDbSpline
70
4
71
5
72
12
73
6
40
0
40
0
40
0
40
0
40
0
40
0
40
1
40
1
40
1
40
1
40
1
40
1
41
1
10
19.1000127396186
20
24.0502018288363
30
0
41
1
10
19.1000131086938
20
24.040197754055
30
0
41
1
10
19.1000133911713
20
24.0291251879979
30
0
41
1
10
19.1000136167084
20
24.0172945631076
30
0
41
1
10
19.1000138145088
20
24.0050844057222
30
0
41
1
10
19.100014012349
20
23.992874325298
30
0
0
SPLINE
5
189
100
AcDbEntity
8
1
62
256
6
ByLayer
370
18
48
1
60
0
100
AcDbSpline
70
4
71
8
72
18
73
9
40
0
40
0
40
0
40
0
40
0
40
0
40
0
40
0
40
0
40
1
40
1
40
1
40
1
40
1
40
1
40
1
40
1
40
1
41
1
10
18.7
20
24.0501889785
30
0
41
1
10
18.7
20
24.04393408468
30
0
41
1
10
18.7
20
24.03729698803
30
0
41
1
10
18.7
20
24.0303332608
30
0
41
1
10
18.7
20
24.02310322996
30
0
41
1
10
18.7
20
24.0156709396
30
0
41
1
10
18.7
20
24.00810296585
30
0
41
1
10
18.7
20
24.00046715035
30
0
41
1
10
18.7
20
23.99283133486
30
0
0
SPLINE
5
18A
100
AcDbEntity
8
1
62
256
6
ByLayer
370
18
48
1
60
0
100
AcDbSpline
70
4
71
5
72
12
73
6
40
0
40
0
40
0
40
0
40
0
40
0
40
1
40
1
40
1
40
1
40
1
40
1
41
1
10
24.7827706541953
20
24.0029205480075
30
0
41
1
10
24.7895739846429
20
24.0015233464929
30
0
41
1
10
24.7964754712399
20
24.0003454735756
30
0
41
1
10
24.8034473416523
20
23.9993998119326
30
0
41
1
10
24.8104636156781
20
23.9986942166871
30
0
41
1
10
24.81749773321
20
23.99823302729
30
0
0
SPLINE
5
18B
100
AcDbEntity
8
1
62
256
6
ByLayer
370
13
48
1
60
0
100
AcDbSpline
70
4
71
5
72
12
73
6
40
0
40
0
40
0
40
0
40
0
40
0
40
1
40
1
40
1
40
1
40
1
40
1
41
1
10
19.1825039968531
20
23.9982091738559
30
0
41
1
10
19.1660977592793
20
23.996051236202
30
0
41
1
10
19.1496183641878
20
23.9944254699007
30
0
41
1
10
19.1330910020739
20
23.9933461574982
30
0
41
1
10
19.1165449231867
20
23.9928257658732
30
0
41
1
10
19.1000140129149
20
23.9928743252963
30
0
0
SPLINE
5
18C
100
AcDbEntity
8
1
62
256
6
ByLayer
370
13
48
1
60
0
100
AcDbSpline
70
4
71
5
72
12
73
6
40
0
40
0
40
0
40
0
40
0
40
0
40
1
40
1
40
1
40
1
40
1
40
1
41
1
10
24.8174960031468
20
23.9982091738559
30
0
41
1
10
24.8339022407207
20
23.996051236202
30
0
41
1
10
24.8503816358121
20
23.9944254699007
30
0
41
1
10
24.8669089979261
20
23.9933461574982
30
0
41
1
10
24.8834550768132
20
23.9928257658732
30
0
41
1
10
24.8999859870851
20
23.9928743252963
30
0
0
SPLINE
5
18D
100
AcDbEntity
8
1
62
256
6
ByLayer
370
18
48
1
60
0
100
AcDbSpline
70
4
71
5
72
12
73
6
40
0
40
0
40
0
40
0
40
0
40
0
40
1
40
1
40
1
40
1
40
1
40
1
41
1
10
19.2172293458047
20
24.0029205480075
30
0
41
1
10
19.2104260153571
20
24.0015233464929
30
0
41
1
10
19.20352452876
20
24.0003454735756
30
0
41
1
10
19.1965526583477
20
23.9993998119326
30
0
41
1
10
19.1895363843219
20
23.9986942166871
30
0
41
1
10
19.18250226679
20
23.99823302729
30
0
0
SPLINE
5
18E
100
AcDbEntity
8
1
62
256
6
ByLayer
370
18
48
1
60
0
100
AcDbSpline
70
4
71
3
72
47
73
43
40
0
40
0
40
0
40
0
40
0.0287631811385695
40
0.0572730386985008
40
0.0855333248621416
40
0.113547892092542
40
0.14132069510647
40
0.168855792790743
40
0.196157350050416
40
0.223229639577067
40
0.25007704352453
40
0.276704055078746
40
0.303115279908216
40
0.329315437479625
40
0.355309362224318
40
0.381102004539309
40
0.406698431607132
40
0.432103828017706
40
0.457323496175982
40
0.482362856478101
40
0.507227447240058
40
0.531922924361886
40
0.556455060711579
40
0.580829745213743
40
0.605052981627926
40
0.629130887003284
40
0.653069689798158
40
0.676875727652684
40
0.700555444806997
40
0.72411538915708
40
0.747562208944521
40
0.770902649077706
40
0.794143547084686
40
0.817291828701839
40
0.84035450310405
40
0.863338657785805
40
0.886251453106034
40
0.909100116511908
40
0.931891936460746
40
0.954634256061554
40
0.977334466460817
40
1
40
1
40
1
40
1
41
1
10
19.5841202563053
20
26.6550790769361
30
0
41
1
10
19.5803476236056
20
26.6514720426637
30
0
41
1
10
19.5728355846011
20
26.6442897420526
30
0
41
1
10
19.5614069131735
20
26.6337865108956
30
0
41
1
10
19.5499265943853
20
26.6235433607984
30
0
41
1
10
19.5383818723867
20
26.6135760310055
30
0
41
1
10
19.52677887041
20
26.6038806741468
30
0
41
1
10
19.5151187169933
20
26.5944586003832
30
0
41
1
10
19.5034038589761
20
26.5853097338392
30
0
41
1
10
19.4916363913297
20
26.5764343433641
30
0
41
1
10
19.4798184984236
20
26.5678325848588
30
0
41
1
10
19.4679523367951
20
26.5595046224755
30
0
41
1
10
19.4560400656718
20
26.5514505966831
30
0
41
1
10
19.4440838384105
20
26.5436706328506
30
0
41
1
10
19.4320858042827
20
26.5361648391112
30
0
41
1
10
19.4200481075304
20
26.5289333070654
30
0
41
1
10
19.4079728871496
20
26.5219761117338
30
0
41
1
10
19.3958622764892
20
26.515293311711
30
0
41
1
10
19.3837184029035
20
26.508884949267
30
0
41
1
10
19.3715433873985
20
26.5027510504633
30
0
41
1
10
19.3593393442847
20
26.4968916252671
30
0
41
1
10
19.3471083808356
20
26.4913066676657
30
0
41
1
10
19.3348525969489
20
26.4859961557819
30
0
41
1
10
19.322574084814
20
26.4809600519899
30
0
41
1
10
19.3102749285819
20
26.4761983030309
30
0
41
1
10
19.297957204041
20
26.4717108401291
30
0
41
1
10
19.2856229782946
20
26.4674975791083
30
0
41
1
10
19.2732743094433
20
26.4635584205098
30
0
41
1
10
19.2609132462703
20
26.4598932497035
30
0
41
1
10
19.2485418279292
20
26.4565019370271
30
0
41
1
10
19.2361620836358
20
26.4533843378238
30
0
41
1
10
19.2237760323606
20
26.4505402928581
30
0
41
1
10
19.2113856825254
20
26.4479696273353
30
0
41
1
10
19.1989930317054
20
26.4456721551032
30
0
41
1
10
19.1866000663111
20
26.4436476636329
30
0
41
1
10
19.1742087613609
20
26.4418959703487
30
0
41
1
10
19.1618210799287
20
26.4404167140373
30
0
41
1
10
19.1494389738019
20
26.439210130388
30
0
41
1
10
19.1370643796587
20
26.4382741700482
30
0
41
1
10
19.1246992319107
20
26.437615216
30
0
41
1
10
19.1123454135657
20
26.4372082117573
30
0
41
1
10
19.1041130402898
20
26.4371660902486
30
0
41
1
10
19.1
20
26.4371450455927
30
0
0
SPLINE
5
18F
100
AcDbEntity
8
1
62
256
6
ByLayer
370
13
48
1
60
0
100
AcDbSpline
70
4
71
3
72
14
73
10
40
0
40
0
40
0
40
0
40
0.141623314433634
40
0.283587055670672
40
0.425934098694581
40
0.568706973170293
40
0.71194782946266
40
0.855698406273283
40
1
40
1
40
1
40
1
41
1
10
19.1000127010847
20
24.0502178255945
30
0
41
1
10
19.1035649959469
20
24.0502313839468
30
0
41
1
10
19.1106781244939
20
24.0502585332424
30
0
41
1
10
19.1213578414791
20
24.0505756505672
30
0
41
1
10
19.132057864168
20
24.0510957707277
30
0
41
1
10
19.1427771799099
20
24.0518378824309
30
0
41
1
10
19.1535137919971
20
24.0528021459484
30
0
41
1
10
19.1642691335038
20
24.0539711193365
30
0
41
1
10
19.171429834014
20
24.0549331919275
30
0
41
1
10
19.1750170331449
20
24.0554151484006
30
0
0
SPLINE
5
190
100
AcDbEntity
8
1
62
256
6
ByLayer
370
18
48
1
60
0
100
AcDbSpline
70
4
71
5
72
12
73
6
40
0
40
0
40
0
40
0
40
0
40
0
40
1
40
1
40
1
40
1
40
1
40
1
41
1
10
19.19078826391
20
24.0600418334
30
0
41
1
10
19.18777287907
20
24.05877727087
30
0
41
1
10
19.18474081027
20
24.05756814699
30
0
41
1
10
19.18154137222
20
24.05659293678
30
0
41
1
10
19.17829670126
20
24.05598559577
30
0
41
1
10
19.17502751382
20
24.05543267505
30
0
0
SPLINE
5
191
100
AcDbEntity
8
1
62
256
6
ByLayer
370
13
48
1
60
0
100
AcDbSpline
70
4
71
3
72
42
73
38
40
0
40
0
40
0
40
0
40
0.023969641976553
40
0.0481675123981595
40
0.0725984230559351
40
0.097267049372851
40
0.122177932924626
40
0.14733548408643
40
0.172743984785084
40
0.198407591336164
40
0.224330337348616
40
0.25051613667959
40
0.276968786424669
40
0.303691969929356
40
0.330689259809365
40
0.357964120968729
40
0.385519913604893
40
0.413359896192915
40
0.441487228440059
40
0.469904974204422
40
0.498616104371271
40
0.527623499682283
40
0.556929953513192
40
0.586538174596035
40
0.616450789683671
40
0.646670346152941
40
0.677199314546175
40
0.7080400910481
40
0.739194999898236
40
0.770666295737467
40
0.802456165889329
40
0.834566732574844
40
0.86700005506241
40
0.899758131752297
40
0.932842902197001
40
0.966256249057949
40
1
40
1
40
1
40
1
41
1
10
19.1907933528178
20
24.0600333696968
30
0
41
1
10
19.1945744097653
20
24.0617462464512
30
0
41
1
10
19.2021725252305
20
24.065188309223
30
0
41
1
10
19.2135058120382
20
24.0706351974797
30
0
41
1
10
19.2248580435682
20
24.076319882324
30
0
41
1
10
19.2362191511827
20
24.0822619666247
30
0
41
1
10
19.2475898263326
20
24.0884566570494
30
0
41
1
10
19.2589678108475
20
24.0949057795301
30
0
41
1
10
19.2703516241315
20
24.101609347264
30
0
41
1
10
19.2817395499243
20
24.1085678530073
30
0
41
1
10
19.2931299119936
20
24.1157816454406
30
0
41
1
10
19.3045209993369
20
24.1232510984675
30
0
41
1
10
19.3159110867135
20
24.1309765648653
30
0
41
1
10
19.3272984292583
20
24.1389583885883
30
0
41
1
10
19.3386812641571
20
24.147196901116
30
0
41
1
10
19.350057810411
20
24.1556924221421
30
0
41
1
10
19.3614262691321
20
24.164445259082
30
0
41
1
10
19.3727848237046
20
24.1734557069016
30
0
41
1
10
19.3841316399934
20
24.1827240478589
30
0
41
1
10
19.3954648665514
20
24.1922505512701
30
0
41
1
10
19.4067826348369
20
24.2020354732686
30
0
41
1
10
19.4180830594396
20
24.2120790565673
30
0
41
1
10
19.4293642383141
20
24.2223815302203
30
0
41
1
10
19.4406242530253
20
24.2329431093845
30
0
41
1
10
19.4518611689899
20
24.2437639950892
30
0
41
1
10
19.4630730357726
20
24.2548443739731
30
0
41
1
10
19.4742578872174
20
24.2661844181557
30
0
41
1
10
19.4854137422409
20
24.2777842845964
30
0
41
1
10
19.4965386031622
20
24.2896441164066
30
0
41
1
10
19.5076304634051
20
24.3017640367605
30
0
41
1
10
19.5186872797298
20
24.3141441708588
30
0
41
1
10
19.5297070789022
20
24.3267845616082
30
0
41
1
10
19.5406875550548
20
24.3396854879847
30
0
41
1
10
19.5516275966071
20
24.3528462578383
30
0
41
1
10
19.5625215035135
20
24.366269779949
30
0
41
1
10
19.5733808939918
20
24.3799452439681
30
0
41
1
10
19.5805261706496
20
24.3892118103137
30
0
41
1
10
19.5841163858888
20
24.3938678886299
30
0
0
SPLINE
5
192
100
AcDbEntity
8
1
62
256
6
ByLayer
370
13
48
1
60
0
100
AcDbSpline
70
4
71
5
72
12
73
6
40
0
40
0
40
0
40
0
40
0
40
0
40
1
40
1
40
1
40
1
40
1
40
1
41
1
10
24.8092062662102
20
24.0600309728911
30
0
41
1
10
24.715247989833
20
24.1020278821963
30
0
41
1
10
24.6284476439156
20
24.1616475440502
30
0
41
1
10
24.5504934070876
20
24.2321982989645
30
0
41
1
10
24.4799066201829
20
24.3102466236969
30
0
41
1
10
24.4158826262002
20
24.3938692912784
30
0
0
SPLINE
5
193
100
AcDbEntity
8
1
62
256
6
ByLayer
370
18
48
1
60
0
100
AcDbSpline
70
4
71
5
72
12
73
6
40
0
40
0
40
0
40
0
40
0
40
0
40
1
40
1
40
1
40
1
40
1
40
1
41
1
10
24.80921173609
20
24.0600418334
30
0
41
1
10
24.81222712093
20
24.05877727087
30
0
41
1
10
24.81525918973
20
24.05756814699
30
0
41
1
10
24.81845862778
20
24.05659293678
30
0
41
1
10
24.82170329874
20
24.05598559577
30
0
41
1
10
24.82497248618
20
24.05543267505
30
0
0
SPLINE
5
194
100
AcDbEntity
8
1
62
256
6
ByLayer
370
13
48
1
60
0
100
AcDbSpline
70
4
71
5
72
12
73
6
40
0
40
0
40
0
40
0
40
0
40
0
40
1
40
1
40
1
40
1
40
1
40
1
41
1
10
24.8999872992
20
24.05023068322
30
0
41
1
10
24.8849563018625
20
24.0501835659138
30
0
41
1
10
24.8699115094735
20
24.0506885962297
30
0
41
1
10
24.8548837447707
20
24.0517360382309
30
0
41
1
10
24.8398996134581
20
24.0533137904747
30
0
41
1
10
24.8249820278265
20
24.0554079888699
30
0
0
SPLINE
5
195
100
AcDbEntity
8
1
62
256
6
ByLayer
370
18
48
1
60
0
100
AcDbSpline
70
4
71
2
72
8
73
5
40
0
40
0
40
0
40
0.5
40
0.5
40
1
40
1
40
1
41
1
10
24.4158825927756
20
26.6550820305357
30
0
41
1
10
24.5213406829866
20
26.5534470863661
30
0
41
1
10
24.6375221331614
20
26.498281544502
30
0
41
1
10
24.766549649722
20
26.4370164040192
30
0
41
1
10
24.9
20
26.43714504559
30
0
0
LINE
5
7F
100
AcDbEntity
8
80
62
256
6
ByLayer
370
18
48
1
60
0
100
AcDbLine
10
0
20
0
30
0
11
-5
21
0
31
0
39
0
210
0
220
0
230
1
0
LINE
5
80
100
AcDbEntity
8
81
62
256
6
ByLayer
370
18
48
1
60
0
100
AcDbLine
10
26
20
34.5625
30
0
11
26
21
39.5625
31
0
39
0
210
0
220
0
230
1
0
LINE
5
81
100
AcDbEntity
8
SK1
62
256
6
ByLayer
370
18
48
1
60
0
100
AcDbLine
10
-124
20
-12.4375
30
0
11
-3.301981
21
-12.4375
31
0
39
0
210
0
220
0
230
1
0
LINE
5
83
100
AcDbEntity
8
SK1
62
256
6
ByLayer
370
18
48
1
60
0
100
AcDbLine
10
-124
20
12.4375
30
0
11
-3.301981
21
12.4375
31
0
39
0
210
0
220
0
230
1
0
LINE
5
84
100
AcDbEntity
8
SK1
62
256
6
ByLayer
370
18
48
1
60
0
100
AcDbLine
10
-124
20
-12.4375
30
0
11
-124
21
12.4375
31
0
39
0
210
0
220
0
230
1
0
LINE
5
85
100
AcDbEntity
8
SK1
62
256
6
ByLayer
370
18
48
1
60
0
100
AcDbLine
10
-3.301981
20
12.4375
30
0
11
-1.497907
21
12.4375
31
0
39
0
210
0
220
0
230
1
0
LINE
5
86
100
AcDbEntity
8
SK1
62
256
6
ByLayer
370
13
48
1
60
0
100
AcDbLine
10
-3.301981
20
-12.4375
30
0
11
-3.301981
21
12.4375
31
0
39
0
210
0
220
0
230
1
0
LINE
5
87
100
AcDbEntity
8
SK1
62
256
6
ByLayer
370
18
48
1
60
0
100
AcDbLine
10
0
20
-5.327877
30
0
11
0
21
-5.523715
31
0
39
0
210
0
220
0
230
1
0
LINE
5
88
100
AcDbEntity
8
SK1
62
256
6
ByLayer
370
18
48
1
60
0
100
AcDbLine
10
-1.497907
20
12.4375
30
0
11
-1.227723
21
12.4375
31
0
39
0
210
0
220
0
230
1
0
LINE
5
89
100
AcDbEntity
8
SK1
62
256
6
ByLayer
370
13
48
1
60
0
100
AcDbLine
10
-0.404203
20
-2.266348
30
0
11
-0.404203
21
-5.793839
31
0
39
0
210
0
220
0
230
1
0
LINE
5
8A
100
AcDbEntity
8
SK1
62
256
6
ByLayer
370
18
48
1
60
0
100
AcDbLine
10
-0.404203
20
-2.266348
30
0
11
-0.307118
21
-5.519392
31
0
39
0
210
0
220
0
230
1
0
LINE
5
8B
100
AcDbEntity
8
SK1
62
256
6
ByLayer
370
18
48
1
60
0
100
AcDbLine
10
0
20
-11.356266
30
0
11
0
21
-12.440783
31
0
39
0
210
0
220
0
230
1
0
LINE
5
8C
100
AcDbEntity
8
SK1
62
256
6
ByLayer
370
18
48
1
60
0
100
AcDbLine
10
-1.31499
20
-12.440783
30
0
11
0
21
-12.440783
31
0
39
0
210
0
220
0
230
1
0
LINE
5
8D
100
AcDbEntity
8
SK1
62
256
6
ByLayer
370
18
48
1
60
0
100
AcDbLine
10
0
20
-11.356266
30
0
11
-0.404203
21
-11.905318
31
0
39
0
210
0
220
0
230
1
0
LINE
5
8E
100
AcDbEntity
8
SK1
62
256
6
ByLayer
370
18
48
1
60
0
100
AcDbLine
10
0
20
-11.356266
30
0
11
0
21
-8.671065
31
0
39
0
210
0
220
0
230
1
0
LINE
5
8F
100
AcDbEntity
8
SK1
62
256
6
ByLayer
370
13
48
1
60
0
100
AcDbLine
10
-0.404203
20
-8.205337
30
0
11
-0.404203
21
-11.905318
31
0
39
0
210
0
220
0
230
1
0
LINE
5
90
100
AcDbEntity
8
SK1
62
256
6
ByLayer
370
18
48
1
60
0
100
AcDbLine
10
0
20
-8.671062
30
0
11
0
21
-5.523715
31
0
39
0
210
0
220
0
230
1
0
LINE
5
91
100
AcDbEntity
8
1
62
256
6
ByLayer
370
18
48
1
60
0
100
AcDbLine
10
0
20
-5.327877
30
0
11
0
21
-5.523715
31
0
39
0
210
0
220
0
230
1
0
LINE
5
92
100
AcDbEntity
8
1
62
256
6
ByLayer
370
18
48
1
60
0
100
AcDbLine
10
0
20
-8.671062
30
0
11
0
21
-5.523715
31
0
39
0
210
0
220
0
230
1
0
LINE
5
93
100
AcDbEntity
8
1
62
256
6
ByLayer
370
18
48
1
60
0
100
AcDbLine
10
0
20
-11.356266
30
0
11
0
21
-12.440783
31
0
39
0
210
0
220
0
230
1
0
LINE
5
94
100
AcDbEntity
8
1
62
256
6
ByLayer
370
18
48
1
60
0
100
AcDbLine
10
0
20
-12.440783
30
0
11
25.17602
21
-12.440783
31
0
39
0
210
0
220
0
230
1
0
LINE
5
95
100
AcDbEntity
8
1
62
256
6
ByLayer
370
18
48
1
60
0
100
AcDbLine
10
0
20
-11.356266
30
0
11
0
21
-8.671065
31
0
39
0
210
0
220
0
230
1
0
LINE
5
96
100
AcDbEntity
8
1
62
256
6
ByLayer
370
18
48
1
60
0
100
AcDbLine
10
0
20
-5.328111
30
0
11
0
21
12.9625
31
0
39
0
210
0
220
0
230
1
0
LINE
5
97
100
AcDbEntity
8
1
62
256
6
ByLayer
370
18
48
1
60
0
100
AcDbLine
10
23.833469
20
23.069316
30
0
11
25.183989
21
22.76329
31
0
39
0
210
0
220
0
230
1
0
LINE
5
98
100
AcDbEntity
8
1
62
256
6
ByLayer
370
18
48
1
60
0
100
AcDbLine
10
21.475031
20
23.5625
30
0
11
22.524969
21
23.5625
31
0
39
0
210
0
220
0
230
1
0
LINE
5
99
100
AcDbEntity
8
1
62
256
6
ByLayer
370
18
48
1
60
0
100
AcDbLine
10
18.847351
20
22.770391
30
0
11
20.166531
21
23.069316
31
0
39
0
210
0
220
0
230
1
0
LINE
5
9A
100
AcDbEntity
8
1
62
256
6
ByLayer
370
18
48
1
60
0
100
AcDbLine
10
26.800808
20
25.079887
30
0
11
26.800808
21
-12.328962
31
0
39
0
210
0
220
0
230
1
0
LINE
5
9B
100
AcDbEntity
8
1
62
256
6
ByLayer
370
13
48
1
60
0
100
AcDbLine
10
18.85
20
14.5625
30
0
11
19.225394
21
14.5625
31
0
39
0
210
0
220
0
230
1
0
LINE
5
9C
100
AcDbEntity
8
1
62
256
6
ByLayer
370
18
48
1
60
0
100
AcDbLine
10
17.57859
20
12.9625
30
0
11
17.791854
21
12.9625
31
0
39
0
210
0
220
0
230
1
0
LINE
5
9D
100
AcDbEntity
8
1
62
256
6
ByLayer
370
18
48
1
60
0
100
AcDbLine
10
25.328642
20
-9.138614
30
0
11
25.328642
21
11.922056
31
0
39
0
210
0
220
0
230
1
0
LINE
5
9E
100
AcDbEntity
8
1
62
256
6
ByLayer
370
18
48
1
60
0
100
AcDbLine
10
17.57859
20
12.9625
30
0
11
1.632601
21
12.9625
31
0
39
0
210
0
220
0
230
1
0
LINE
5
9F
100
AcDbEntity
8
1
62
256
6
ByLayer
370
18
48
1
60
0
100
AcDbLine
10
18.92873
20
20.0625
30
0
11
25.21645
21
20.0625
31
0
39
0
210
0
220
0
230
1
0
LINE
5
A0
100
AcDbEntity
8
1
62
256
6
ByLayer
370
13
48
1
60
0
100
AcDbLine
10
18.825
20
13.416295
30
0
11
18.825
21
11.922056
31
0
39
0
210
0
220
0
230
1
0
LINE
5
A1
100
AcDbEntity
8
1
62
256
6
ByLayer
370
18
48
1
60
0
100
AcDbLine
10
25.328642
20
11.922056
30
0
11
18.825
21
11.922056
31
0
39
0
210
0
220
0
230
1
0
LINE
5
A2
100
AcDbEntity
8
1
62
256
6
ByLayer
370
18
48
1
60
0
100
AcDbLine
10
25.328642
20
14.778352
30
0
11
25.328642
21
11.922056
31
0
39
0
210
0
220
0
230
1
0
LINE
5
A3
100
AcDbEntity
8
1
62
256
6
ByLayer
370
18
48
1
60
0
100
AcDbLine
10
1.632601
20
12.9625
30
0
11
1.632601
21
-9.138614
31
0
39
0
210
0
220
0
230
1
0
LINE
5
A4
100
AcDbEntity
8
1
62
256
6
ByLayer
370
18
48
1
60
0
100
AcDbLine
10
1.632601
20
12.9625
30
0
11
0
21
12.9625
31
0
39
0
210
0
220
0
230
1
0
LINE
5
A5
100
AcDbEntity
8
1
62
256
6
ByLayer
370
18
48
1
60
0
100
AcDbLine
10
1.632601
20
-9.138614
30
0
11
25.328642
21
-9.138614
31
0
39
0
210
0
220
0
230
1
0
LINE
5
A6
100
AcDbEntity
8
1
62
256
6
ByLayer
370
18
48
1
60
0
100
AcDbLine
10
1.632601
20
-9.138614
30
0
11
0
21
-11.356266
31
0
39
0
210
0
220
0
230
1
0
LINE
5
A7
100
AcDbEntity
8
1
62
256
6
ByLayer
370
18
48
1
60
0
100
AcDbLine
10
25.328642
20
-9.138614
30
0
11
25.328642
21
-9.866554
31
0
39
0
210
0
220
0
230
1
0
LINE
5
A8
100
AcDbEntity
8
SK1
62
256
6
ByLayer
370
18
48
1
60
0
100
AcDbLine
10
0
20
-5.328111
30
0
11
0
21
12.9625
31
0
39
0
210
0
220
0
230
1
0
LINE
5
A9
100
AcDbEntity
8
SK1
62
256
6
ByLayer
370
18
48
1
60
0
100
AcDbLine
10
0
20
12.9625
30
0
11
-0.04266
21
12.9625
31
0
39
0
210
0
220
0
230
1
0
LINE
5
AA
100
AcDbEntity
8
SK1
62
256
6
ByLayer
370
13
48
1
60
0
100
AcDbLine
10
-0.404203
20
12.665707
30
0
11
-0.404203
21
6.707837
31
0
39
0
210
0
220
0
230
1
0
LINE
5
AB
100
AcDbEntity
8
SK1
62
256
6
ByLayer
370
18
48
1
60
0
100
AcDbLine
10
-0.045675
20
-5.305333
30
0
11
-0.404203
21
6.707837
31
0
39
0
210
0
220
0
230
1
0
LINE
5
AC
100
AcDbEntity
8
1
62
256
6
ByLayer
370
18
48
1
60
0
100
AcDbLine
10
26.024239
20
5.397396
30
0
11
25.757199
21
11.513607
31
0
39
0
210
0
220
0
230
1
0
LINE
5
AD
100
AcDbEntity
8
1
62
256
6
ByLayer
370
18
48
1
60
0
100
AcDbLine
10
25.730594
20
11.604883
30
0
11
25.328644
21
12.301082
31
0
39
0
210
0
220
0
230
1
0
LINE
5
AE
100
AcDbEntity
8
1
62
256
6
ByLayer
370
18
48
1
60
0
100
AcDbLine
10
18.7
20
26.437145
30
0
11
18.7
21
26.720716
31
0
39
0
210
0
220
0
230
1
0
LINE
5
AF
100
AcDbEntity
8
1
62
256
6
ByLayer
370
18
48
1
60
0
100
AcDbLine
10
25.3
20
26.437145
30
0
11
25.3
21
26.720716
31
0
39
0
210
0
220
0
230
1
0
LINE
5
B0
100
AcDbEntity
8
1
62
256
6
ByLayer
370
18
48
1
60
0
100
AcDbLine
10
25.730594
20
27.520117
30
0
11
25.326795
21
26.820716
31
0
39
0
210
0
220
0
230
1
0
LINE
5
B1
100
AcDbEntity
8
1
62
256
6
ByLayer
370
18
48
1
60
0
100
AcDbLine
10
26.024239
20
33.727604
30
0
11
25.757199
21
27.611393
31
0
39
0
210
0
220
0
230
1
0
LINE
5
B2
100
AcDbEntity
8
1
62
256
6
ByLayer
370
18
48
1
60
0
100
AcDbLine
10
18.775
20
34.5625
30
0
11
25.225
21
34.5625
31
0
39
0
210
0
220
0
230
1
0
LINE
5
B3
100
AcDbEntity
8
1
62
256
6
ByLayer
370
18
48
1
60
0
100
AcDbLine
10
17.975761
20
33.727604
30
0
11
18.242801
21
27.611393
31
0
39
0
210
0
220
0
230
1
0
LINE
5
B4
100
AcDbEntity
8
1
62
256
6
ByLayer
370
18
48
1
60
0
100
AcDbLine
10
18.269406
20
27.520117
30
0
11
18.673205
21
26.820716
31
0
39
0
210
0
220
0
230
1
0
LINE
5
B5
100
AcDbEntity
8
1
62
256
6
ByLayer
370
18
48
1
60
0
100
AcDbLine
10
24.494665
20
31.058608
30
0
11
24.305993
21
26.737316
31
0
39
0
210
0
220
0
230
1
0
LINE
5
B6
100
AcDbEntity
8
1
62
256
6
ByLayer
370
18
48
1
60
0
100
AcDbLine
10
19.505335
20
31.058608
30
0
11
19.694007
21
26.737316
31
0
39
0
210
0
220
0
230
1
0
LINE
5
B7
100
AcDbEntity
8
1
62
256
6
ByLayer
370
13
48
1
60
0
100
AcDbLine
10
24.132021
20
30.663371
30
0
11
23.951232
21
26.522623
31
0
39
0
210
0
220
0
230
1
0
LINE
5
B8
100
AcDbEntity
8
1
62
256
6
ByLayer
370
13
48
1
60
0
100
AcDbLine
10
19.867979
20
30.663371
30
0
11
20.048768
21
26.522623
31
0
39
0
210
0
220
0
230
1
0
LINE
5
B9
100
AcDbEntity
8
1
62
256
6
ByLayer
370
18
48
1
60
0
100
AcDbLine
10
23.977598
20
30.433086
30
0
11
24.132023
21
30.663371
31
0
39
0
210
0
220
0
230
1
0
LINE
5
BA
100
AcDbEntity
8
1
62
256
6
ByLayer
370
18
48
1
60
0
100
AcDbLine
10
24.494664
20
31.058606
30
0
11
22
21
31.058606
31
0
39
0
210
0
220
0
230
1
0
LINE
5
BB
100
AcDbEntity
8
1
62
256
6
ByLayer
370
18
48
1
60
0
100
AcDbLine
10
19.505336
20
31.058606
30
0
11
22
21
31.058606
31
0
39
0
210
0
220
0
230
1
0
LINE
5
BC
100
AcDbEntity
8
1
62
256
6
ByLayer
370
18
48
1
60
0
100
AcDbLine
10
20.022402
20
30.433086
30
0
11
19.867977
21
30.663371
31
0
39
0
210
0
220
0
230
1
0
LINE
5
BD
100
AcDbEntity
8
1
62
256
6
ByLayer
370
18
48
1
60
0
100
AcDbLine
10
23.484574
20
30.093578
30
0
11
22
21
30.093578
31
0
39
0
210
0
220
0
230
1
0
LINE
5
BE
100
AcDbEntity
8
1
62
256
6
ByLayer
370
18
48
1
60
0
100
AcDbLine
10
20.515426
20
30.093578
30
0
11
22
21
30.093578
31
0
39
0
210
0
220
0
230
1
0
LINE
5
BF
100
AcDbEntity
8
1
62
256
6
ByLayer
370
13
48
1
60
0
100
AcDbLine
10
23.977598
20
30.433086
30
0
11
23.800168
21
26.369263
31
0
39
0
210
0
220
0
230
1
0
LINE
5
C0
100
AcDbEntity
8
1
62
256
6
ByLayer
370
13
48
1
60
0
100
AcDbLine
10
23.484574
20
30.093578
30
0
11
23.312096
21
26.143166
31
0
39
0
210
0
220
0
230
1
0
LINE
5
C1
100
AcDbEntity
8
1
62
256
6
ByLayer
370
13
48
1
60
0
100
AcDbLine
10
20.515426
20
30.093578
30
0
11
20.687904
21
26.143166
31
0
39
0
210
0
220
0
230
1
0
LINE
5
C2
100
AcDbEntity
8
1
62
256
6
ByLayer
370
13
48
1
60
0
100
AcDbLine
10
20.022402
20
30.433086
30
0
11
20.199832
21
26.369264
31
0
39
0
210
0
220
0
230
1
0
LINE
5
C3
100
AcDbEntity
8
1
62
256
6
ByLayer
370
13
48
1
60
0
100
AcDbLine
10
21.73
20
25.505369
30
0
11
22.27
21
25.505369
31
0
39
0
210
0
220
0
230
1
0
LINE
5
C4
100
AcDbEntity
8
1
62
256
6
ByLayer
370
13
48
1
60
0
100
AcDbLine
10
22.27
20
23.562419
30
0
11
22.27
21
25.505364
31
0
39
0
210
0
220
0
230
1
0
LINE
5
C5
100
AcDbEntity
8
1
62
256
6
ByLayer
370
13
48
1
60
0
100
AcDbLine
10
21.73
20
23.562419
30
0
11
21.73
21
25.505364
31
0
39
0
210
0
220
0
230
1
0
LINE
5
C6
100
AcDbEntity
8
1
62
256
6
ByLayer
370
13
48
1
60
0
100
AcDbLine
10
21.539264
20
23.562435
30
0
11
21.539264
21
25.492035
31
0
39
0
210
0
220
0
230
1
0
LINE
5
C7
100
AcDbEntity
8
1
62
256
6
ByLayer
370
13
48
1
60
0
100
AcDbLine
10
22.460736
20
23.562435
30
0
11
22.460736
21
25.492035
31
0
39
0
210
0
220
0
230
1
0
LINE
5
C8
100
AcDbEntity
8
1
62
256
6
ByLayer
370
13
48
1
60
0
100
AcDbLine
10
21.322267
20
23.449425
30
0
11
21.322267
21
25.132158
31
0
39
0
210
0
220
0
230
1
0
LINE
5
C9
100
AcDbEntity
8
1
62
256
6
ByLayer
370
13
48
1
60
0
100
AcDbLine
10
22.677733
20
23.449425
30
0
11
22.677733
21
25.132158
31
0
39
0
210
0
220
0
230
1
0
LINE
5
CA
100
AcDbEntity
8
1
62
256
6
ByLayer
370
13
48
1
60
0
100
AcDbLine
10
22.733085
20
23.313458
30
0
11
22.733085
21
24.920413
31
0
39
0
210
0
220
0
230
1
0
LINE
5
CB
100
AcDbEntity
8
1
62
256
6
ByLayer
370
13
48
1
60
0
100
AcDbLine
10
21.266915
20
23.313458
30
0
11
21.266915
21
24.920413
31
0
39
0
210
0
220
0
230
1
0
LINE
5
CC
100
AcDbEntity
8
1
62
256
6
ByLayer
370
13
48
1
60
0
100
AcDbLine
10
22.763888
20
23.269339
30
0
11
22.763888
21
24.920413
31
0
39
0
210
0
220
0
230
1
0
LINE
5
CD
100
AcDbEntity
8
1
62
256
6
ByLayer
370
13
48
1
60
0
100
AcDbLine
10
21.236112
20
23.269506
30
0
11
21.236112
21
24.920413
31
0
39
0
210
0
220
0
230
1
0
LINE
5
CE
100
AcDbEntity
8
1
62
256
6
ByLayer
370
13
48
1
60
0
100
AcDbLine
10
22.763888
20
24.920413
30
0
11
22.855665
21
24.817828
31
0
39
0
210
0
220
0
230
1
0
LINE
5
CF
100
AcDbEntity
8
1
62
256
6
ByLayer
370
13
48
1
60
0
100
AcDbLine
10
21.236112
20
24.920413
30
0
11
21.144335
21
24.817828
31
0
39
0
210
0
220
0
230
1
0
LINE
5
D0
100
AcDbEntity
8
1
62
256
6
ByLayer
370
13
48
1
60
0
100
AcDbLine
10
22.855665
20
24.817828
30
0
11
22.855665
21
23.252068
31
0
39
0
210
0
220
0
230
1
0
LINE
5
D1
100
AcDbEntity
8
1
62
256
6
ByLayer
370
13
48
1
60
0
100
AcDbLine
10
21.144335
20
24.817828
30
0
11
21.144335
21
23.253218
31
0
39
0
210
0
220
0
230
1
0
LINE
5
D2
100
AcDbEntity
8
1
62
256
6
ByLayer
370
18
48
1
60
0
100
AcDbLine
10
23.800168
20
26.369263
30
0
11
23.951233
21
26.522623
31
0
39
0
210
0
220
0
230
1
0
LINE
5
D3
100
AcDbEntity
8
1
62
256
6
ByLayer
370
18
48
1
60
0
100
AcDbLine
10
22
20
26.143167
30
0
11
23.312096
21
26.143166
31
0
39
0
210
0
220
0
230
1
0
LINE
5
D4
100
AcDbEntity
8
1
62
256
6
ByLayer
370
18
48
1
60
0
100
AcDbLine
10
22
20
26.143167
30
0
11
20.687904
21
26.143166
31
0
39
0
210
0
220
0
230
1
0
LINE
5
D5
100
AcDbEntity
8
1
62
256
6
ByLayer
370
18
48
1
60
0
100
AcDbLine
10
20.199832
20
26.369263
30
0
11
20.048767
21
26.522623
31
0
39
0
210
0
220
0
230
1
0
LINE
5
D6
100
AcDbEntity
8
1
62
256
6
ByLayer
370
13
48
1
60
0
100
AcDbLine
10
21.174479
20
24.977771
30
0
11
21.082701
21
24.875185
31
0
39
0
210
0
220
0
230
1
0
LINE
5
D7
100
AcDbEntity
8
1
62
256
6
ByLayer
370
13
48
1
60
0
100
AcDbLine
10
21.729999
20
25.562726
30
0
11
22.270001
21
25.562726
31
0
39
0
210
0
220
0
230
1
0
LINE
5
D8
100
AcDbEntity
8
1
62
256
6
ByLayer
370
13
48
1
60
0
100
AcDbLine
10
22.825521
20
24.977771
30
0
11
22.917299
21
24.875185
31
0
39
0
210
0
220
0
230
1
0
LINE
5
D9
100
AcDbEntity
8
1
62
256
6
ByLayer
370
13
48
1
60
0
100
AcDbLine
10
24.125632
20
24.570902
30
0
11
22.917299
21
24.875185
31
0
39
0
210
0
220
0
230
1
0
LINE
5
DA
100
AcDbEntity
8
1
62
256
6
ByLayer
370
13
48
1
60
0
100
AcDbLine
10
19.874368
20
24.570902
30
0
11
21.082701
21
24.875185
31
0
39
0
210
0
220
0
230
1
0
LINE
5
DB
100
AcDbEntity
8
1
62
256
6
ByLayer
370
18
48
1
60
0
100
AcDbLine
10
18.7
20
15.074811
30
0
11
18.7
21
13.923739
31
0
39
0
210
0
220
0
230
1
0
LINE
5
DC
100
AcDbEntity
8
1
62
256
6
ByLayer
370
18
48
1
60
0
100
AcDbLine
10
18.7
20
24.050189
30
0
11
18.7
21
26.437145
31
0
39
0
210
0
220
0
230
1
0
LINE
5
DD
100
AcDbEntity
8
1
62
256
6
ByLayer
370
18
48
1
60
0
100
AcDbLine
10
19.1
20
26.437145
30
0
11
18.7
21
26.437145
31
0
39
0
210
0
220
0
230
1
0
LINE
5
DE
100
AcDbEntity
8
1
62
256
6
ByLayer
370
18
48
1
60
0
100
AcDbLine
10
25.3
20
24.050189
30
0
11
25.3
21
26.437145
31
0
39
0
210
0
220
0
230
1
0
LINE
5
DF
100
AcDbEntity
8
1
62
256
6
ByLayer
370
18
48
1
60
0
100
AcDbLine
10
24.9
20
26.437145
30
0
11
25.3
21
26.437145
31
0
39
0
210
0
220
0
230
1
0
LINE
5
E0
100
AcDbEntity
8
1
62
256
6
ByLayer
370
13
48
1
60
0
100
AcDbLine
10
21.100066
20
24.817828
30
0
11
21.100066
21
23.245499
31
0
39
0
210
0
220
0
230
1
0
LINE
5
E1
100
AcDbEntity
8
1
62
256
6
ByLayer
370
13
48
1
60
0
100
AcDbLine
10
19.891962
20
24.513602
30
0
11
21.100066
21
24.817828
31
0
39
0
210
0
220
0
230
1
0
LINE
5
E2
100
AcDbEntity
8
1
62
256
6
ByLayer
370
13
48
1
60
0
100
AcDbLine
10
24.108038
20
24.513602
30
0
11
22.899934
21
24.817828
31
0
39
0
210
0
220
0
230
1
0
LINE
5
E3
100
AcDbEntity
8
1
62
256
6
ByLayer
370
13
48
1
60
0
100
AcDbLine
10
22.899934
20
24.817828
30
0
11
22.899934
21
23.243857
31
0
39
0
210
0
220
0
230
1
0
LINE
5
E4
100
AcDbEntity
8
1
62
256
6
ByLayer
370
13
48
1
60
0
100
AcDbLine
10
25.3
20
24.050189
30
0
11
24.899992
21
24.050189
31
0
39
0
210
0
220
0
230
1
0
LINE
5
E5
100
AcDbEntity
8
1
62
256
6
ByLayer
370
13
48
1
60
0
100
AcDbLine
10
18.7
20
15.074811
30
0
11
18.849834
21
15.074811
31
0
39
0
210
0
220
0
230
1
0
LINE
5
E6
100
AcDbEntity
8
1
62
256
6
ByLayer
370
13
48
1
60
0
100
AcDbLine
10
18.7
20
24.050189
30
0
11
19.100008
21
24.050189
31
0
39
0
210
0
220
0
230
1
0
LINE
5
E7
100
AcDbEntity
8
1
62
256
6
ByLayer
370
13
48
1
60
0
100
AcDbLine
10
24.782768
20
24.00291
30
0
11
24.782768
21
22.854092
31
0
39
0
210
0
220
0
230
1
0
LINE
5
E8
100
AcDbEntity
8
1
62
256
6
ByLayer
370
18
48
1
60
0
100
AcDbLine
10
18.7
20
23.992831
30
0
11
18.7
21
15.132169
31
0
39
0
210
0
220
0
230
1
0
LINE
5
E9
100
AcDbEntity
8
1
62
256
6
ByLayer
370
13
48
1
60
0
100
AcDbLine
10
18.7
20
15.132169
30
0
11
18.849818
21
15.132169
31
0
39
0
210
0
220
0
230
1
0
LINE
5
EA
100
AcDbEntity
8
1
62
256
6
ByLayer
370
13
48
1
60
0
100
AcDbLine
10
18.7
20
23.992831
30
0
11
19.100014
21
23.992831
31
0
39
0
210
0
220
0
230
1
0
LINE
5
EB
100
AcDbEntity
8
1
62
256
6
ByLayer
370
13
48
1
60
0
100
AcDbLine
10
25.3
20
23.992831
30
0
11
24.899986
21
23.992831
31
0
39
0
210
0
220
0
230
1
0
LINE
5
EC
100
AcDbEntity
8
1
62
256
6
ByLayer
370
13
48
1
60
0
100
AcDbLine
10
24.817498
20
23.998222
30
0
11
24.817498
21
22.84632
31
0
39
0
210
0
220
0
230
1
0
LINE
5
ED
100
AcDbEntity
8
1
62
256
6
ByLayer
370
18
48
1
60
0
100
AcDbLine
10
25.3
20
23.992831
30
0
11
25.3
21
15.855836
31
0
39
0
210
0
220
0
230
1
0
LINE
5
EE
100
AcDbEntity
8
1
62
256
6
ByLayer
370
13
48
1
60
0
100
AcDbLine
10
19.182502
20
23.998222
30
0
11
19.182502
21
22.84632
31
0
39
0
210
0
220
0
230
1
0
LINE
5
EF
100
AcDbEntity
8
1
62
256
6
ByLayer
370
13
48
1
60
0
100
AcDbLine
10
19.217232
20
24.00291
30
0
11
19.217232
21
22.854092
31
0
39
0
210
0
220
0
230
1
0
LINE
5
F0
100
AcDbEntity
8
1
62
256
6
ByLayer
370
13
48
1
60
0
100
AcDbLine
10
19.1
20
24.050203
30
0
11
19.1
21
26.437145
31
0
39
0
210
0
220
0
230
1
0
LINE
5
F1
100
AcDbEntity
8
1
62
256
6
ByLayer
370
13
48
1
60
0
100
AcDbLine
10
19.584123
20
26.655076
30
0
11
19.584123
21
24.393869
31
0
39
0
210
0
220
0
230
1
0
LINE
5
F2
100
AcDbEntity
8
1
62
256
6
ByLayer
370
13
48
1
60
0
100
AcDbLine
10
24.415877
20
26.655076
30
0
11
24.415877
21
24.393869
31
0
39
0
210
0
220
0
230
1
0
LINE
5
F3
100
AcDbEntity
8
1
62
256
6
ByLayer
370
13
48
1
60
0
100
AcDbLine
10
24.9
20
24.050203
30
0
11
24.9
21
26.437145
31
0
39
0
210
0
220
0
230
1
0
MTEXT
5
196
100
AcDbEntity
8
SK6
62
256
6
ByLayer
370
18
48
1
60
0
100
AcDbMText
10
-83.414096
20
-40.656508
30
0
210
0
220
0
230
1
1
\W0.7786;C2A-RS25-RGL20B-140DB
40
3.5
41
0
44
1.084337
50
0
71
7
72
5
7
iso_b_vert
0
DIMENSION
5
19B
100
AcDbEntity
8
2
62
256
6
ByLayer
370
18
48
1
60
0
100
AcDbDimension
2
_U0
10
49.900808
20
-12.4375
30
0
11
49.900808
21
11.0625
31
0
70
32
71
1
72
1
41
1
210
0
220
0
230
1
3
Standard
100
AcDbAlignedDimension
13
26
23
34.5625
33
0
14
-124
24
-12.4375
34
0
50
90
100
AcDbRotatedDimension
1001
ACAD
1000
DSTYLE
1002
{
1070
   371
1070
    13
1070
   372
1070
    13
1070
   170
1070
     0
1070
   144
1040
1.0
1070
   277
1070
     2
1070
   284
1070
     8
1070
   278
1070
    46
1070
   146
1040
1.0
1070
   345
1005
16
1070
   347
1005
16
1070
   346
1005
16
1070
   344
1005
0
1070
   343
1005
0
1070
   172
1070
     1
1070
    76
1070
     0
1070
    75
1070
     0
1070
   282
1070
     0
1070
   281
1070
     0
1070
    71
1070
     0
1070
    74
1070
     0
1070
   279
1070
     0
1070
   173
1070
     1
1070
   340
1005
197
1070
   271
1070
     2
1070
   272
1070
     2
1070
    77
1070
     1
1070
    73
1070
     0
1070
   171
1070
     3
1070
   274
1070
     4
1070
   177
1070
     2
1070
   176
1070
     2
1070
   178
1070
     2
1070
    78
1070
     8
1070
    48
1040
-0.1
1070
    41
1040
3.5
1070
   147
1040
1.75
1070
    42
1040
1.5875
1070
    44
1040
2.0
1070
   140
1040
3.5
1002
}
1001
ACAD_DSTYLE_DIM_LINETYPE
1070
   380
1005
16
1001
ACAD_DSTYLE_DIM_EXT1_LINETYPE
1070
   381
1005
16
1001
ACAD_DSTYLE_DIM_EXT2_LINETYPE
1070
   382
1005
16
0
DIMENSION
5
1B5
100
AcDbEntity
8
2
62
256
6
ByLayer
370
18
48
1
60
0
100
AcDbDimension
2
_U1
10
39.900808
20
34.5625
30
0
11
39.900808
21
24.5625
31
0
70
32
71
1
72
1
41
1
210
0
220
0
230
1
3
Standard
100
AcDbAlignedDimension
13
18.825
23
14.5625
33
0
14
26
24
34.5625
34
0
50
90
100
AcDbRotatedDimension
1001
ACAD
1000
DSTYLE
1002
{
1070
   371
1070
    13
1070
   372
1070
    13
1070
   170
1070
     0
1070
   144
1040
1.0
1070
   277
1070
     2
1070
   284
1070
     8
1070
   278
1070
    46
1070
   146
1040
1.0
1070
   345
1005
16
1070
   347
1005
16
1070
   346
1005
16
1070
   344
1005
0
1070
   343
1005
0
1070
   172
1070
     1
1070
    76
1070
     0
1070
    75
1070
     0
1070
   282
1070
     0
1070
   281
1070
     0
1070
    71
1070
     0
1070
    74
1070
     0
1070
   279
1070
     0
1070
   173
1070
     1
1070
   340
1005
197
1070
   271
1070
     2
1070
   272
1070
     2
1070
    77
1070
     1
1070
    73
1070
     0
1070
   171
1070
     3
1070
   274
1070
     4
1070
   177
1070
     2
1070
   176
1070
     2
1070
   178
1070
     2
1070
    78
1070
     8
1070
    48
1040
-0.1
1070
    41
1040
3.5
1070
   147
1040
1.75
1070
    42
1040
1.5875
1070
    44
1040
2.0
1070
   140
1040
3.5
1002
}
1001
ACAD_DSTYLE_DIM_LINETYPE
1070
   380
1005
16
1001
ACAD_DSTYLE_DIM_EXT1_LINETYPE
1070
   381
1005
16
1001
ACAD_DSTYLE_DIM_EXT2_LINETYPE
1070
   382
1005
16
0
DIMENSION
5
1CD
100
AcDbEntity
8
SK2
62
256
6
ByLayer
370
18
48
1
60
0
100
AcDbDimension
2
_U2
10
-135.6
20
12.5625
30
0
11
-135.6
21
0.0625
31
0
70
32
71
1
72
1
41
1
210
0
220
0
230
1
3
Standard
100
AcDbAlignedDimension
13
-124
23
-12.4375
33
0
14
-124
24
12.5625
34
0
50
90
100
AcDbRotatedDimension
1001
ACAD
1000
DSTYLE
1002
{
1070
   371
1070
    13
1070
   372
1070
    13
1070
   170
1070
     0
1070
   144
1040
1.0
1070
   277
1070
     2
1070
   284
1070
     8
1070
   278
1070
    46
1070
   146
1040
1.0
1070
   345
1005
16
1070
   347
1005
16
1070
   346
1005
16
1070
   344
1005
0
1070
   343
1005
0
1070
   172
1070
     1
1070
    76
1070
     0
1070
    75
1070
     0
1070
   282
1070
     0
1070
   281
1070
     0
1070
    71
1070
     0
1070
    74
1070
     0
1070
   279
1070
     0
1070
   173
1070
     1
1070
   340
1005
197
1070
   271
1070
     2
1070
   272
1070
     2
1070
    77
1070
     1
1070
    73
1070
     0
1070
   171
1070
     3
1070
   274
1070
     4
1070
   177
1070
     2
1070
   176
1070
     2
1070
   178
1070
     2
1070
    78
1070
     8
1070
    48
1040
-0.1
1070
    41
1040
3.5
1070
   147
1040
1.75
1070
    42
1040
1.5875
1070
    44
1040
2.0
1070
   140
1040
3.5
1002
}
1001
ACAD_DSTYLE_DIM_LINETYPE
1070
   380
1005
16
1001
ACAD_DSTYLE_DIM_EXT1_LINETYPE
1070
   381
1005
16
1001
ACAD_DSTYLE_DIM_EXT2_LINETYPE
1070
   382
1005
16
0
DIMENSION
5
1E6
100
AcDbEntity
8
2
62
256
6
ByLayer
370
18
48
1
60
0
100
AcDbDimension
2
_U3
10
26
20
42.8125
30
0
11
22
21
42.8125
31
0
70
32
71
1
72
1
41
1
210
0
220
0
230
1
3
Standard
100
AcDbAlignedDimension
13
18
23
34.5625
33
0
14
26
24
34.5625
34
0
50
0
100
AcDbRotatedDimension
1001
ACAD
1000
DSTYLE
1002
{
1070
   371
1070
    13
1070
   372
1070
    13
1070
   170
1070
     0
1070
   144
1040
1.0
1070
   277
1070
     2
1070
   284
1070
     8
1070
   278
1070
    46
1070
   146
1040
1.0
1070
   345
1005
16
1070
   347
1005
16
1070
   346
1005
16
1070
   344
1005
0
1070
   343
1005
0
1070
   172
1070
     1
1070
    76
1070
     0
1070
    75
1070
     0
1070
   282
1070
     0
1070
   281
1070
     0
1070
    71
1070
     0
1070
    74
1070
     0
1070
   279
1070
     0
1070
   173
1070
     1
1070
   340
1005
197
1070
   271
1070
     2
1070
   272
1070
     2
1070
    77
1070
     1
1070
    73
1070
     1
1070
   171
1070
     3
1070
   274
1070
     4
1070
   177
1070
     2
1070
   176
1070
     2
1070
   178
1070
     2
1070
    78
1070
     8
1070
    48
1040
-0.1
1070
    41
1040
3.5
1070
   147
1040
1.75
1070
    42
1040
1.5875
1070
    44
1040
2.0
1070
   140
1040
3.5
1002
}
1001
ACAD_DSTYLE_DIM_LINETYPE
1070
   380
1005
16
1001
ACAD_DSTYLE_DIM_EXT1_LINETYPE
1070
   381
1005
16
1001
ACAD_DSTYLE_DIM_EXT2_LINETYPE
1070
   382
1005
16
0
DIMENSION
5
1FF
100
AcDbEntity
8
SK2
62
256
6
ByLayer
370
18
48
1
60
0
100
AcDbDimension
2
_U4
10
26
20
-30.1875
30
0
11
-49
21
-30.1875
31
0
70
32
71
1
72
1
41
1
210
0
220
0
230
1
3
Standard
100
AcDbAlignedDimension
13
-124
23
-12.4375
33
0
14
26
24
34.5625
34
0
50
0
100
AcDbRotatedDimension
1001
ACAD
1000
DSTYLE
1002
{
1070
   371
1070
    13
1070
   372
1070
    13
1070
   170
1070
     0
1070
   144
1040
1.0
1070
   277
1070
     2
1070
   284
1070
     8
1070
   278
1070
    46
1070
   146
1040
1.0
1070
   345
1005
16
1070
   347
1005
16
1070
   346
1005
16
1070
   344
1005
0
1070
   343
1005
0
1070
   172
1070
     1
1070
    76
1070
     0
1070
    75
1070
     0
1070
   282
1070
     0
1070
   281
1070
     0
1070
    71
1070
     0
1070
    74
1070
     0
1070
   279
1070
     0
1070
   173
1070
     1
1070
   340
1005
197
1070
   271
1070
     1
1070
   272
1070
     2
1070
    77
1070
     1
1070
    73
1070
     1
1070
   171
1070
     3
1070
   274
1070
     4
1070
   177
1070
     2
1070
   176
1070
     2
1070
   178
1070
     2
1070
    78
1070
     8
1070
    48
1040
-0.1
1070
    41
1040
3.5
1070
   147
1040
1.75
1070
    42
1040
1.5875
1070
    44
1040
2.0
1070
   140
1040
3.5
1002
}
1001
ACAD_DSTYLE_DIM_LINETYPE
1070
   380
1005
16
1001
ACAD_DSTYLE_DIM_EXT1_LINETYPE
1070
   381
1005
16
1001
ACAD_DSTYLE_DIM_EXT2_LINETYPE
1070
   382
1005
16
0
ENDSEC
0
SECTION
2
OBJECTS
0
DICTIONARY
5
286
330
0
100
AcDbDictionary
280
0
281
1
3
ACAD_GROUP
350
287
3
ACAD_MLINESTYLE
350
288
0
DICTIONARY
5
287
330
0
100
AcDbDictionary
280
0
281
1
0
DICTIONARY
5
288
330
0
100
AcDbDictionary
280
0
281
1
3
Standard
350
18
0
MLINESTYLE
5
18
330
288
100
AcDbMlineStyle
2
Standard
70
0
3

62
256
51
90
52
90
71
2
49
-0.5
62
256
6
ByLayer
49
0.5
62
256
6
ByLayer
0
RASTERVARIABLES
5
275
330

100
AcDbRasterVariables
90
0
70
1
71
1
72
1
0
ENDSEC
0
EOF
