0
SECTION
2
HEADER
9
$ACADVER
1
AC1015
9
$DWGCODEPAGE
3
ANSI_1252
9
$HANDSEED
5
29d
9
$ANGBASE
50
0
9
$ANGDIR
70
0
9
$ATTMODE
70
1
9
$AUNITS
70
0
9
$AUPREC
70
0
9
$CECOLOR
62
256
9
$CELTSCALE
40
1
9
$CELTYPE
6
ByLayer
9
$CELWEIGHT
370
18
9
$CLAYER
8
0
9
$CMLJUST
70
0
9
$CMLSCALE
40
1
9
$CMLSTYLE
2
Standard
9
$DIMSTYLE
2
Standard
9
$TEXTSIZE
40
0.2
9
$TEXTSTYLE
7
Standard
9
$LUNITS
70
2
9
$LUPREC
70
4
9
$EXTNAMES
290
1
9
$INSUNITS
70
4
9
$LTSCALE
40
1
9
$LWDISPLAY
290
1
9
$PDMODE
70
0
9
$PDSIZE
40
0
9
$PLINEGEN
70
0
0
ENDSEC
0
SECTION
2
CLASSES
0
CLASS
1
RASTERVARIABLES
2
AcDbRasterVariables
3
ISM
90
0
280
0
281
0
0
ENDSEC
0
SECTION
2
TABLES
0
TABLE
2
VPORT
5
293
100
AcDbSymbolTable
0
VPORT
5
1
100
AcDbSymbolTableRecord
100
AcDbViewportTableRecord
2
*Active
70
0
10
0
20
0
11
1
21
1
12
-1
22
1
13
0
23
0
14
0.5
24
0.5
15
10
25
10
16
0
26
0
36
1
17
0
27
0
37
0
0
ENDTAB
0
TABLE
2
LTYPE
5
294
100
AcDbSymbolTable
0
LTYPE
5
14
100
AcDbSymbolTableRecord
100
AcDbLinetypeTableRecord
70
0
2
ByBlock
3

72
65
73
0
40
0
0
LTYPE
5
15
100
AcDbSymbolTableRecord
100
AcDbLinetypeTableRecord
70
0
2
ByLayer
3

72
65
73
0
40
0
0
LTYPE
5
16
100
AcDbSymbolTableRecord
100
AcDbLinetypeTableRecord
70
0
2
Continuous
3
Solid line
72
65
73
0
40
0
0
LTYPE
5
6E
100
AcDbSymbolTableRecord
100
AcDbLinetypeTableRecord
70
0
2
CENTER
3
____ _ ____ _ ____ _ ____
72
65
73
4
40
47.5
49
22
74
0
49
-8.5
74
0
49
8.5
74
0
49
-8.5
74
0
0
LTYPE
5
6F
100
AcDbSymbolTableRecord
100
AcDbLinetypeTableRecord
70
0
2
DASHED
3
__ __ __ __ __ __ __ __ __
72
65
73
2
40
25.72
49
12.86
74
0
49
-12.86
74
0
0
ENDTAB
0
TABLE
2
LAYER
5
295
100
AcDbSymbolTable
0
LAYER
5
10
100
AcDbSymbolTableRecord
100
AcDbLayerTableRecord
2
0
70
0
62
7
6
Continuous
290
1
370
-3
390
0
0
LAYER
5
71
100
AcDbSymbolTableRecord
100
AcDbLayerTableRecord
2
81
70
0
62
-3
6
Continuous
290
1
370
-3
390
0
0
LAYER
5
73
100
AcDbSymbolTableRecord
100
AcDbLayerTableRecord
2
80
70
0
62
-6
6
Continuous
290
1
370
-3
390
0
0
LAYER
5
75
100
AcDbSymbolTableRecord
100
AcDbLayerTableRecord
2
1
70
0
62
4
6
Continuous
290
1
370
-3
390
0
0
LAYER
5
1A8
100
AcDbSymbolTableRecord
100
AcDbLayerTableRecord
2
Defpoints
70
0
62
7
6
Continuous
290
0
370
-3
390
0
0
LAYER
5
1B5
100
AcDbSymbolTableRecord
100
AcDbLayerTableRecord
2
2
70
0
62
7
6
Continuous
290
1
370
-3
390
0
0
LAYER
5
280
100
AcDbSymbolTableRecord
100
AcDbLayerTableRecord
2
SK1
70
0
62
4
6
Continuous
290
1
370
-3
390
0
0
LAYER
5
281
100
AcDbSymbolTableRecord
100
AcDbLayerTableRecord
2
SK6
70
0
62
5
6
Continuous
290
1
370
-3
390
0
0
LAYER
5
282
100
AcDbSymbolTableRecord
100
AcDbLayerTableRecord
2
SK2
70
0
62
7
6
Continuous
290
1
370
-3
390
0
0
ENDTAB
0
TABLE
2
STYLE
5
296
100
AcDbSymbolTable
0
STYLE
5
11
100
AcDbSymbolTableRecord
100
AcDbTextStyleTableRecord
2
Standard
3
txt
70
0
71
0
40
0
41
1
42
0
50
0
0
STYLE
5
1A1
100
AcDbSymbolTableRecord
100
AcDbTextStyleTableRecord
2
iso_b_vert
3
simplex.shx
70
0
71
0
40
0
41
1
42
0
50
0
0
STYLE
5
1A2
100
AcDbSymbolTableRecord
100
AcDbTextStyleTableRecord
2
DWGDirectTextStyle
3
simplex
70
0
71
0
40
0
41
1
42
0
50
0
0
ENDTAB
0
TABLE
2
DIMSTYLE
5
297
100
AcDbSymbolTable
100
AcDbDimStyleTable
0
DIMSTYLE
105
27
100
AcDbSymbolTableRecord
100
AcDbDimStyleTableRecord
2
Standard
70
0
3
<>
41
0.18
42
0.0625
44
0.18
140
0.18
147
0.09
73
0
74
0
77
1
271
2
275
0
278
52
280
0
340
11
0
ENDTAB
0
TABLE
2
VIEW
5
298
100
AcDbSymbolTable
0
ENDTAB
0
TABLE
2
UCS
5
299
100
AcDbSymbolTable
0
ENDTAB
0
TABLE
2
APPID
5
29a
100
AcDbSymbolTable
0
APPID
5
12
100
AcDbSymbolTableRecord
100
AcDbRegAppTableRecord
2
ACAD
70
0
0
APPID
5
1A4
100
AcDbSymbolTableRecord
100
AcDbRegAppTableRecord
2
ACAD_DSTYLE_DIMBREAK
70
0
0
APPID
5
23F
100
AcDbSymbolTableRecord
100
AcDbRegAppTableRecord
2
ACAD_DSTYLE_DIM_LINETYPE
70
0
0
APPID
5
240
100
AcDbSymbolTableRecord
100
AcDbRegAppTableRecord
2
ACAD_DSTYLE_DIM_EXT1_LINETYPE
70
0
0
APPID
5
241
100
AcDbSymbolTableRecord
100
AcDbRegAppTableRecord
2
ACAD_DSTYLE_DIM_EXT2_LINETYPE
70
0
0
APPID
5
27C
100
AcDbSymbolTableRecord
100
AcDbRegAppTableRecord
2
ACAD_MLEADERVER
70
0
0
ENDTAB
0
TABLE
2
BLOCK_RECORD
5
29b
100
AcDbSymbolTable
0
BLOCK_RECORD
5
1F
100
AcDbSymbolTableRecord
100
AcDbBlockTableRecord
2
*Model_Space
340
0
70
0
0
BLOCK_RECORD
5
1B
100
AcDbSymbolTableRecord
100
AcDbBlockTableRecord
2
*Paper_Space
340
0
70
0
0
BLOCK_RECORD
5
23
100
AcDbSymbolTableRecord
100
AcDbBlockTableRecord
2
*Paper_Space0
340
0
70
0
0
BLOCK_RECORD
5
1A9
100
AcDbSymbolTableRecord
100
AcDbBlockTableRecord
2
*D1
340
0
70
0
0
BLOCK_RECORD
5
1B6
100
AcDbSymbolTableRecord
100
AcDbBlockTableRecord
2
_U0
340
0
70
0
0
BLOCK_RECORD
5
1C2
100
AcDbSymbolTableRecord
100
AcDbBlockTableRecord
2
*D3
340
0
70
0
0
BLOCK_RECORD
5
1CE
100
AcDbSymbolTableRecord
100
AcDbBlockTableRecord
2
_U1
340
0
70
0
0
BLOCK_RECORD
5
1DA
100
AcDbSymbolTableRecord
100
AcDbBlockTableRecord
2
*D5
340
0
70
0
0
BLOCK_RECORD
5
1E7
100
AcDbSymbolTableRecord
100
AcDbBlockTableRecord
2
_U2
340
0
70
0
0
BLOCK_RECORD
5
1F3
100
AcDbSymbolTableRecord
100
AcDbBlockTableRecord
2
*D7
340
0
70
0
0
BLOCK_RECORD
5
200
100
AcDbSymbolTableRecord
100
AcDbBlockTableRecord
2
_U3
340
0
70
0
0
BLOCK_RECORD
5
20C
100
AcDbSymbolTableRecord
100
AcDbBlockTableRecord
2
*D9
340
0
70
0
0
BLOCK_RECORD
5
218
100
AcDbSymbolTableRecord
100
AcDbBlockTableRecord
2
_U4
340
0
70
0
0
ENDTAB
0
ENDSEC
0
SECTION
2
BLOCKS
0
BLOCK
5
20
100
AcDbEntity
8
0
100
AcDbBlockBegin
2
*Model_Space
70
0
10
0
20
0
30
0
3
*Model_Space
0
ENDBLK
5
21
100
AcDbEntity
8
0
100
AcDbBlockEnd
0
BLOCK
5
1C
100
AcDbEntity
8
0
100
AcDbBlockBegin
2
*Paper_Space
70
0
10
0
20
0
30
0
3
*Paper_Space
0
ENDBLK
5
1D
100
AcDbEntity
8
0
100
AcDbBlockEnd
0
BLOCK
5
24
100
AcDbEntity
8
0
100
AcDbBlockBegin
2
*Paper_Space0
70
0
10
0
20
0
30
0
3
*Paper_Space0
0
ENDBLK
5
25
100
AcDbEntity
8
0
100
AcDbBlockEnd
0
BLOCK
5
1AA
100
AcDbEntity
8
0
100
AcDbBlockBegin
2
*D1
70
1
10
0
20
0
30
0
3
*D1
0
LINE
5
1AC
100
AcDbEntity
8
0
62
256
6
ByLayer
370
-2
48
1
60
0
100
AcDbLine
10
27.5875
20
34.5625
30
0
11
61.721158
21
34.5625
31
0
39
0
210
0
220
0
230
1
0
LINE
5
1AD
100
AcDbEntity
8
0
62
256
6
ByLayer
370
-2
48
1
60
0
100
AcDbLine
10
-122.4125
20
-12.4375
30
0
11
61.721158
21
-12.4375
31
0
39
0
210
0
220
0
230
1
0
LINE
5
1AE
100
AcDbEntity
8
0
62
256
6
ByLayer
370
-2
48
1
60
0
100
AcDbLine
10
59.721158
20
31.0625
30
0
11
59.721158
21
-8.9375
31
0
39
0
210
0
220
0
230
1
0
SOLID
5
1AF
100
AcDbEntity
8
0
62
256
6
ByLayer
370
-1
48
1
60
0
100
AcDbTrace
10
60.304491
20
31.0625
30
0
11
59.137825
21
31.0625
31
0
12
59.721158
22
34.5625
32
0
13
59.721158
23
34.5625
33
0
39
0
210
0
220
0
230
1
0
SOLID
5
1B0
100
AcDbEntity
8
0
62
256
6
ByLayer
370
-1
48
1
60
0
100
AcDbTrace
10
59.137825
20
-8.9375
30
0
11
60.304491
21
-8.9375
31
0
12
59.721158
22
-12.4375
32
0
13
59.721158
23
-12.4375
33
0
39
0
210
0
220
0
230
1
0
MTEXT
5
1B1
100
AcDbEntity
8
0
62
256
6
ByLayer
370
18
48
1
60
0
100
AcDbMText
10
52.721158
20
11.0625
30
0
210
0
220
0
230
1
1
\A1;47
40
3.5
41
0
44
1
50
90
71
5
72
5
7
iso_b_vert
0
POINT
5
1B2
100
AcDbEntity
8
Defpoints
62
0
6
ByLayer
370
-1
48
1
60
0
100
AcDbPoint
10
26
20
34.5625
30
0
39
0
210
0
220
0
230
1
50
360
0
POINT
5
1B3
100
AcDbEntity
8
Defpoints
62
0
6
ByLayer
370
-1
48
1
60
0
100
AcDbPoint
10
-124
20
-12.4375
30
0
39
0
210
0
220
0
230
1
50
360
0
POINT
5
1B4
100
AcDbEntity
8
Defpoints
62
0
6
ByLayer
370
-1
48
1
60
0
100
AcDbPoint
10
59.721158
20
-12.4375
30
0
39
0
210
0
220
0
230
1
50
360
0
ENDBLK
5
1AB
100
AcDbEntity
8
0
100
AcDbBlockEnd
0
BLOCK
5
1BD
100
AcDbEntity
8
0
100
AcDbBlockBegin
2
_U0
70
0
10
0
20
0
30
0
3
_U0
0
MTEXT
5
1B7
100
AcDbEntity
8
2
62
256
6
ByLayer
370
18
48
1
60
0
100
AcDbMText
10
59.031525
20
8.945267
30
0
210
0
220
0
230
1
1
\W0.7361;47
40
3.5
41
0
44
1.084337
50
90
71
7
72
5
7
iso_b_vert
0
LINE
5
1B8
100
AcDbEntity
8
2
62
256
6
ByLayer
370
13
48
1
60
0
100
AcDbLine
10
27.5875
20
34.5625
30
0
11
61.721158
21
34.5625
31
0
39
0
210
0
220
0
230
1
0
LINE
5
1B9
100
AcDbEntity
8
2
62
256
6
ByLayer
370
13
48
1
60
0
100
AcDbLine
10
-122.4125
20
-12.4375
30
0
11
61.721158
21
-12.4375
31
0
39
0
210
0
220
0
230
1
0
LINE
5
1BA
100
AcDbEntity
8
2
62
256
6
ByLayer
370
13
48
1
60
0
100
AcDbLine
10
59.721158
20
34.5625
30
0
11
59.721158
21
-12.4375
31
0
39
0
210
0
220
0
230
1
0
SOLID
5
1BB
100
AcDbEntity
8
2
62
256
6
ByLayer
370
18
48
1
60
0
100
AcDbTrace
10
59.721158
20
34.5625
30
0
11
60.181942
21
31.062502
31
0
12
59.260374
22
31.062498
32
0
13
59.260374
23
31.062498
33
0
39
0
210
0
220
0
230
1
0
SOLID
5
1BC
100
AcDbEntity
8
2
62
256
6
ByLayer
370
18
48
1
60
0
100
AcDbTrace
10
59.721158
20
-12.4375
30
0
11
59.260374
21
-8.937502
31
0
12
60.181942
22
-8.937498
32
0
13
60.181942
23
-8.937498
33
0
39
0
210
0
220
0
230
1
0
ENDBLK
5
1BE
100
AcDbEntity
8
0
100
AcDbBlockEnd
0
BLOCK
5
1C3
100
AcDbEntity
8
0
100
AcDbBlockBegin
2
*D3
70
1
10
0
20
0
30
0
3
*D3
0
LINE
5
1C5
100
AcDbEntity
8
0
62
256
6
ByLayer
370
-2
48
1
60
0
100
AcDbLine
10
20.412597
20
14.5625
30
0
11
51.721158
21
14.5625
31
0
39
0
210
0
220
0
230
1
0
LINE
5
1C6
100
AcDbEntity
8
0
62
256
6
ByLayer
370
-2
48
1
60
0
100
AcDbLine
10
27.5875
20
34.5625
30
0
11
51.721158
21
34.5625
31
0
39
0
210
0
220
0
230
1
0
LINE
5
1C7
100
AcDbEntity
8
0
62
256
6
ByLayer
370
-2
48
1
60
0
100
AcDbLine
10
49.721158
20
18.0625
30
0
11
49.721158
21
31.0625
31
0
39
0
210
0
220
0
230
1
0
SOLID
5
1C8
100
AcDbEntity
8
0
62
256
6
ByLayer
370
-1
48
1
60
0
100
AcDbTrace
10
49.137825
20
18.0625
30
0
11
50.304491
21
18.0625
31
0
12
49.721158
22
14.5625
32
0
13
49.721158
23
14.5625
33
0
39
0
210
0
220
0
230
1
0
SOLID
5
1C9
100
AcDbEntity
8
0
62
256
6
ByLayer
370
-1
48
1
60
0
100
AcDbTrace
10
50.304491
20
31.0625
30
0
11
49.137825
21
31.0625
31
0
12
49.721158
22
34.5625
32
0
13
49.721158
23
34.5625
33
0
39
0
210
0
220
0
230
1
0
MTEXT
5
1CA
100
AcDbEntity
8
0
62
256
6
ByLayer
370
18
48
1
60
0
100
AcDbMText
10
42.721158
20
24.5625
30
0
210
0
220
0
230
1
1
\A1;20
40
3.5
41
0
44
1
50
90
71
5
72
5
7
iso_b_vert
0
POINT
5
1CB
100
AcDbEntity
8
Defpoints
62
0
6
ByLayer
370
-1
48
1
60
0
100
AcDbPoint
10
18.825097
20
14.5625
30
0
39
0
210
0
220
0
230
1
50
360
0
POINT
5
1CC
100
AcDbEntity
8
Defpoints
62
0
6
ByLayer
370
-1
48
1
60
0
100
AcDbPoint
10
26
20
34.5625
30
0
39
0
210
0
220
0
230
1
50
360
0
POINT
5
1CD
100
AcDbEntity
8
Defpoints
62
0
6
ByLayer
370
-1
48
1
60
0
100
AcDbPoint
10
49.721158
20
34.5625
30
0
39
0
210
0
220
0
230
1
50
360
0
ENDBLK
5
1C4
100
AcDbEntity
8
0
100
AcDbBlockEnd
0
BLOCK
5
1D5
100
AcDbEntity
8
0
100
AcDbBlockBegin
2
_U1
70
0
10
0
20
0
30
0
3
_U1
0
MTEXT
5
1CF
100
AcDbEntity
8
2
62
256
6
ByLayer
370
18
48
1
60
0
100
AcDbMText
10
49.031525
20
22.629534
30
0
210
0
220
0
230
1
1
\W0.6740;20
40
3.5
41
0
44
1.084337
50
90
71
7
72
5
7
iso_b_vert
0
LINE
5
1D0
100
AcDbEntity
8
2
62
256
6
ByLayer
370
13
48
1
60
0
100
AcDbLine
10
20.412597
20
14.5625
30
0
11
51.721158
21
14.5625
31
0
39
0
210
0
220
0
230
1
0
LINE
5
1D1
100
AcDbEntity
8
2
62
256
6
ByLayer
370
13
48
1
60
0
100
AcDbLine
10
27.5875
20
34.5625
30
0
11
51.721158
21
34.5625
31
0
39
0
210
0
220
0
230
1
0
LINE
5
1D2
100
AcDbEntity
8
2
62
256
6
ByLayer
370
13
48
1
60
0
100
AcDbLine
10
49.721158
20
14.5625
30
0
11
49.721158
21
34.5625
31
0
39
0
210
0
220
0
230
1
0
SOLID
5
1D3
100
AcDbEntity
8
2
62
256
6
ByLayer
370
18
48
1
60
0
100
AcDbTrace
10
49.721158
20
14.5625
30
0
11
49.260374
21
18.062498
31
0
12
50.181942
22
18.062502
32
0
13
50.181942
23
18.062502
33
0
39
0
210
0
220
0
230
1
0
SOLID
5
1D4
100
AcDbEntity
8
2
62
256
6
ByLayer
370
18
48
1
60
0
100
AcDbTrace
10
49.721158
20
34.5625
30
0
11
50.181942
21
31.062502
31
0
12
49.260374
22
31.062498
32
0
13
49.260374
23
31.062498
33
0
39
0
210
0
220
0
230
1
0
ENDBLK
5
1D6
100
AcDbEntity
8
0
100
AcDbBlockEnd
0
BLOCK
5
1DB
100
AcDbEntity
8
0
100
AcDbBlockBegin
2
*D5
70
1
10
0
20
0
30
0
3
*D5
0
LINE
5
1DD
100
AcDbEntity
8
0
62
256
6
ByLayer
370
-2
48
1
60
0
100
AcDbLine
10
-125.5875
20
-12.4375
30
0
11
-137.6
21
-12.4375
31
0
39
0
210
0
220
0
230
1
0
LINE
5
1DE
100
AcDbEntity
8
0
62
256
6
ByLayer
370
-2
48
1
60
0
100
AcDbLine
10
-125.5875
20
12.5625
30
0
11
-137.6
21
12.5625
31
0
39
0
210
0
220
0
230
1
0
LINE
5
1DF
100
AcDbEntity
8
0
62
256
6
ByLayer
370
-2
48
1
60
0
100
AcDbLine
10
-135.6
20
-8.9375
30
0
11
-135.6
21
9.0625
31
0
39
0
210
0
220
0
230
1
0
SOLID
5
1E0
100
AcDbEntity
8
0
62
256
6
ByLayer
370
-1
48
1
60
0
100
AcDbTrace
10
-136.183333
20
-8.9375
30
0
11
-135.016667
21
-8.9375
31
0
12
-135.6
22
-12.4375
32
0
13
-135.6
23
-12.4375
33
0
39
0
210
0
220
0
230
1
0
SOLID
5
1E1
100
AcDbEntity
8
0
62
256
6
ByLayer
370
-1
48
1
60
0
100
AcDbTrace
10
-135.016667
20
9.0625
30
0
11
-136.183333
21
9.0625
31
0
12
-135.6
22
12.5625
32
0
13
-135.6
23
12.5625
33
0
39
0
210
0
220
0
230
1
0
MTEXT
5
1E2
100
AcDbEntity
8
0
62
256
6
ByLayer
370
18
48
1
60
0
100
AcDbMText
10
-142.6
20
0.0625
30
0
210
0
220
0
230
1
1
\A1;25
40
3.5
41
0
44
1
50
90
71
5
72
5
7
iso_b_vert
0
POINT
5
1E3
100
AcDbEntity
8
Defpoints
62
0
6
ByLayer
370
-1
48
1
60
0
100
AcDbPoint
10
-124
20
-12.4375
30
0
39
0
210
0
220
0
230
1
50
360
0
POINT
5
1E4
100
AcDbEntity
8
Defpoints
62
0
6
ByLayer
370
-1
48
1
60
0
100
AcDbPoint
10
-124
20
12.5625
30
0
39
0
210
0
220
0
230
1
50
360
0
POINT
5
1E5
100
AcDbEntity
8
Defpoints
62
0
6
ByLayer
370
-1
48
1
60
0
100
AcDbPoint
10
-135.6
20
12.5625
30
0
39
0
210
0
220
0
230
1
50
360
0
ENDBLK
5
1DC
100
AcDbEntity
8
0
100
AcDbBlockEnd
0
BLOCK
5
1EE
100
AcDbEntity
8
0
100
AcDbBlockBegin
2
_U2
70
0
10
0
20
0
30
0
3
_U2
0
MTEXT
5
1E8
100
AcDbEntity
8
SK2
62
256
6
ByLayer
370
18
48
1
60
0
100
AcDbMText
10
-136.289634
20
-1.870466
30
0
210
0
220
0
230
1
1
\W0.6740;25
40
3.5
41
0
44
1.084337
50
90
71
7
72
5
7
iso_b_vert
0
LINE
5
1E9
100
AcDbEntity
8
SK2
62
256
6
ByLayer
370
13
48
1
60
0
100
AcDbLine
10
-125.5875
20
-12.4375
30
0
11
-137.6
21
-12.4375
31
0
39
0
210
0
220
0
230
1
0
LINE
5
1EA
100
AcDbEntity
8
SK2
62
256
6
ByLayer
370
13
48
1
60
0
100
AcDbLine
10
-125.5875
20
12.5625
30
0
11
-137.6
21
12.5625
31
0
39
0
210
0
220
0
230
1
0
LINE
5
1EB
100
AcDbEntity
8
SK2
62
256
6
ByLayer
370
13
48
1
60
0
100
AcDbLine
10
-135.6
20
-12.4375
30
0
11
-135.6
21
12.5625
31
0
39
0
210
0
220
0
230
1
0
SOLID
5
1EC
100
AcDbEntity
8
SK2
62
256
6
ByLayer
370
18
48
1
60
0
100
AcDbTrace
10
-135.6
20
-12.4375
30
0
11
-136.060784
21
-8.937502
31
0
12
-135.139216
22
-8.937498
32
0
13
-135.139216
23
-8.937498
33
0
39
0
210
0
220
0
230
1
0
SOLID
5
1ED
100
AcDbEntity
8
SK2
62
256
6
ByLayer
370
18
48
1
60
0
100
AcDbTrace
10
-135.6
20
12.5625
30
0
11
-135.139216
21
9.062502
31
0
12
-136.060784
22
9.062498
32
0
13
-136.060784
23
9.062498
33
0
39
0
210
0
220
0
230
1
0
ENDBLK
5
1EF
100
AcDbEntity
8
0
100
AcDbBlockEnd
0
BLOCK
5
1F4
100
AcDbEntity
8
0
100
AcDbBlockBegin
2
*D7
70
1
10
0
20
0
30
0
3
*D7
0
LINE
5
1F6
100
AcDbEntity
8
0
62
256
6
ByLayer
370
-2
48
1
60
0
100
AcDbLine
10
18
20
36.15
30
0
11
18
21
44.8125
31
0
39
0
210
0
220
0
230
1
0
LINE
5
1F7
100
AcDbEntity
8
0
62
256
6
ByLayer
370
-2
48
1
60
0
100
AcDbLine
10
26
20
36.15
30
0
11
26
21
44.8125
31
0
39
0
210
0
220
0
230
1
0
LINE
5
1F8
100
AcDbEntity
8
0
62
256
6
ByLayer
370
-2
48
1
60
0
100
AcDbLine
10
14.5
20
42.8125
30
0
11
11
21
42.8125
31
0
39
0
210
0
220
0
230
1
0
LINE
5
1F9
100
AcDbEntity
8
0
62
256
6
ByLayer
370
-2
48
1
60
0
100
AcDbLine
10
29.5
20
42.8125
30
0
11
33
21
42.8125
31
0
39
0
210
0
220
0
230
1
0
SOLID
5
1FA
100
AcDbEntity
8
0
62
256
6
ByLayer
370
-1
48
1
60
0
100
AcDbTrace
10
14.5
20
42.229167
30
0
11
14.5
21
43.395833
31
0
12
18
22
42.8125
32
0
13
18
23
42.8125
33
0
39
0
210
0
220
0
230
1
0
SOLID
5
1FB
100
AcDbEntity
8
0
62
256
6
ByLayer
370
-1
48
1
60
0
100
AcDbTrace
10
29.5
20
43.395833
30
0
11
29.5
21
42.229167
31
0
12
26
22
42.8125
32
0
13
26
23
42.8125
33
0
39
0
210
0
220
0
230
1
0
MTEXT
5
1FC
100
AcDbEntity
8
0
62
256
6
ByLayer
370
18
48
1
60
0
100
AcDbMText
10
22
20
49.8125
30
0
210
0
220
0
230
1
1
\A1;8
40
3.5
41
0
44
1
50
0
71
5
72
5
7
iso_b_vert
0
POINT
5
1FD
100
AcDbEntity
8
Defpoints
62
0
6
ByLayer
370
-1
48
1
60
0
100
AcDbPoint
10
18
20
34.5625
30
0
39
0
210
0
220
0
230
1
50
360
0
POINT
5
1FE
100
AcDbEntity
8
Defpoints
62
0
6
ByLayer
370
-1
48
1
60
0
100
AcDbPoint
10
26
20
34.5625
30
0
39
0
210
0
220
0
230
1
50
360
0
POINT
5
1FF
100
AcDbEntity
8
Defpoints
62
0
6
ByLayer
370
-1
48
1
60
0
100
AcDbPoint
10
26
20
42.8125
30
0
39
0
210
0
220
0
230
1
50
360
0
ENDBLK
5
1F5
100
AcDbEntity
8
0
100
AcDbBlockEnd
0
BLOCK
5
207
100
AcDbEntity
8
0
100
AcDbBlockBegin
2
_U3
70
0
10
0
20
0
30
0
3
_U3
0
MTEXT
5
201
100
AcDbEntity
8
2
62
256
6
ByLayer
370
18
48
1
60
0
100
AcDbMText
10
21.402767
20
43.845134
30
0
210
0
220
0
230
1
1
\W0.5404;8
40
3.5
41
0
44
1.084337
50
0
71
7
72
5
7
iso_b_vert
0
LINE
5
202
100
AcDbEntity
8
2
62
256
6
ByLayer
370
13
48
1
60
0
100
AcDbLine
10
18
20
36.15
30
0
11
18
21
44.8125
31
0
39
0
210
0
220
0
230
1
0
LINE
5
203
100
AcDbEntity
8
2
62
256
6
ByLayer
370
13
48
1
60
0
100
AcDbLine
10
26
20
36.15
30
0
11
26
21
44.8125
31
0
39
0
210
0
220
0
230
1
0
LINE
5
204
100
AcDbEntity
8
2
62
256
6
ByLayer
370
13
48
1
60
0
100
AcDbLine
10
18
20
42.8125
30
0
11
26
21
42.8125
31
0
39
0
210
0
220
0
230
1
0
SOLID
5
205
100
AcDbEntity
8
2
62
256
6
ByLayer
370
18
48
1
60
0
100
AcDbTrace
10
18
20
42.8125
30
0
11
21.499998
21
43.273284
31
0
12
21.500002
22
42.351716
32
0
13
21.500002
23
42.351716
33
0
39
0
210
0
220
0
230
1
0
SOLID
5
206
100
AcDbEntity
8
2
62
256
6
ByLayer
370
18
48
1
60
0
100
AcDbTrace
10
26
20
42.8125
30
0
11
22.500002
21
42.351716
31
0
12
22.499998
22
43.273284
32
0
13
22.499998
23
43.273284
33
0
39
0
210
0
220
0
230
1
0
ENDBLK
5
208
100
AcDbEntity
8
0
100
AcDbBlockEnd
0
BLOCK
5
20D
100
AcDbEntity
8
0
100
AcDbBlockBegin
2
*D9
70
1
10
0
20
0
30
0
3
*D9
0
LINE
5
20F
100
AcDbEntity
8
0
62
256
6
ByLayer
370
-2
48
1
60
0
100
AcDbLine
10
-124
20
-14.025
30
0
11
-124
21
-32.1875
31
0
39
0
210
0
220
0
230
1
0
LINE
5
210
100
AcDbEntity
8
0
62
256
6
ByLayer
370
-2
48
1
60
0
100
AcDbLine
10
26
20
32.975
30
0
11
26
21
-32.1875
31
0
39
0
210
0
220
0
230
1
0
LINE
5
211
100
AcDbEntity
8
0
62
256
6
ByLayer
370
-2
48
1
60
0
100
AcDbLine
10
-120.5
20
-30.1875
30
0
11
22.5
21
-30.1875
31
0
39
0
210
0
220
0
230
1
0
SOLID
5
212
100
AcDbEntity
8
0
62
256
6
ByLayer
370
-1
48
1
60
0
100
AcDbTrace
10
-120.5
20
-29.604167
30
0
11
-120.5
21
-30.770833
31
0
12
-124
22
-30.1875
32
0
13
-124
23
-30.1875
33
0
39
0
210
0
220
0
230
1
0
SOLID
5
213
100
AcDbEntity
8
0
62
256
6
ByLayer
370
-1
48
1
60
0
100
AcDbTrace
10
22.5
20
-30.770833
30
0
11
22.5
21
-29.604167
31
0
12
26
22
-30.1875
32
0
13
26
23
-30.1875
33
0
39
0
210
0
220
0
230
1
0
MTEXT
5
214
100
AcDbEntity
8
0
62
256
6
ByLayer
370
18
48
1
60
0
100
AcDbMText
10
-49
20
-23.1875
30
0
210
0
220
0
230
1
1
\A1;150
40
3.5
41
0
44
1
50
0
71
5
72
5
7
iso_b_vert
0
POINT
5
215
100
AcDbEntity
8
Defpoints
62
0
6
ByLayer
370
-1
48
1
60
0
100
AcDbPoint
10
-124
20
-12.4375
30
0
39
0
210
0
220
0
230
1
50
360
0
POINT
5
216
100
AcDbEntity
8
Defpoints
62
0
6
ByLayer
370
-1
48
1
60
0
100
AcDbPoint
10
26
20
34.5625
30
0
39
0
210
0
220
0
230
1
50
360
0
POINT
5
217
100
AcDbEntity
8
Defpoints
62
0
6
ByLayer
370
-1
48
1
60
0
100
AcDbPoint
10
26
20
-30.1875
30
0
39
0
210
0
220
0
230
1
50
360
0
ENDBLK
5
20E
100
AcDbEntity
8
0
100
AcDbBlockEnd
0
BLOCK
5
21F
100
AcDbEntity
8
0
100
AcDbBlockBegin
2
_U4
70
0
10
0
20
0
30
0
3
_U4
0
MTEXT
5
219
100
AcDbEntity
8
SK2
62
256
6
ByLayer
370
18
48
1
60
0
100
AcDbMText
10
-51.775266
20
-29.154866
30
0
210
0
220
0
230
1
1
\W0.6217;150
40
3.5
41
0
44
1.084337
50
0
71
7
72
5
7
iso_b_vert
0
LINE
5
21A
100
AcDbEntity
8
SK2
62
256
6
ByLayer
370
13
48
1
60
0
100
AcDbLine
10
-124
20
-14.025
30
0
11
-124
21
-32.1875
31
0
39
0
210
0
220
0
230
1
0
LINE
5
21B
100
AcDbEntity
8
SK2
62
256
6
ByLayer
370
13
48
1
60
0
100
AcDbLine
10
26
20
32.975
30
0
11
26
21
-32.1875
31
0
39
0
210
0
220
0
230
1
0
LINE
5
21C
100
AcDbEntity
8
SK2
62
256
6
ByLayer
370
13
48
1
60
0
100
AcDbLine
10
-124
20
-30.1875
30
0
11
26
21
-30.1875
31
0
39
0
210
0
220
0
230
1
0
SOLID
5
21D
100
AcDbEntity
8
SK2
62
256
6
ByLayer
370
18
48
1
60
0
100
AcDbTrace
10
-124
20
-30.1875
30
0
11
-120.500002
21
-29.726716
31
0
12
-120.499998
22
-30.648284
32
0
13
-120.499998
23
-30.648284
33
0
39
0
210
0
220
0
230
1
0
SOLID
5
21E
100
AcDbEntity
8
SK2
62
256
6
ByLayer
370
18
48
1
60
0
100
AcDbTrace
10
26
20
-30.1875
30
0
11
22.500002
21
-30.648284
31
0
12
22.499998
22
-29.726716
32
0
13
22.499998
23
-29.726716
33
0
39
0
210
0
220
0
230
1
0
ENDBLK
5
220
100
AcDbEntity
8
0
100
AcDbBlockEnd
0
ENDSEC
0
SECTION
2
ENTITIES
0
ARC
5
FB
100
AcDbEntity
8
SK1
62
256
6
ByLayer
370
18
48
1
60
0
100
AcDbCircle
39
0
10
-1.227723
20
14.0375
30
0
40
1.59999999999784
210
0
220
0
230
1
100
AcDbArc
50
270
51
290.726569
0
ARC
5
FD
100
AcDbEntity
8
SK1
62
256
6
ByLayer
370
18
48
1
60
0
100
AcDbCircle
39
0
10
-1.227723
20
14.0375
30
0
40
1.60000000007474
210
0
220
0
230
1
100
AcDbArc
50
300.977392
51
317.788056
0
ARC
5
FE
100
AcDbEntity
8
1
62
256
6
ByLayer
370
18
48
1
60
0
100
AcDbCircle
39
0
10
10.999799
20
6.2125
30
0
40
2.1768
210
0
220
0
230
1
100
AcDbArc
50
210
51
270
0
ARC
5
FF
100
AcDbEntity
8
1
62
256
6
ByLayer
370
18
48
1
60
0
100
AcDbCircle
39
0
10
10.999799
20
6.2125
30
0
40
2.1768
210
0
220
0
230
1
100
AcDbArc
50
90
51
150
0
ARC
5
100
100
AcDbEntity
8
1
62
256
6
ByLayer
370
18
48
1
60
0
100
AcDbCircle
39
0
10
10.999799
20
6.2125
30
0
40
2.1768
210
0
220
0
230
1
100
AcDbArc
50
330
51
30
0
ARC
5
101
100
AcDbEntity
8
1
62
256
6
ByLayer
370
18
48
1
60
0
100
AcDbCircle
39
0
10
10.999799
20
6.2125
30
0
40
2.1768
210
0
220
0
230
1
100
AcDbArc
50
150
51
210
0
ARC
5
102
100
AcDbEntity
8
1
62
256
6
ByLayer
370
18
48
1
60
0
100
AcDbCircle
39
0
10
10.999799
20
6.2125
30
0
40
2.1768
210
0
220
0
230
1
100
AcDbArc
50
30
51
90
0
ARC
5
103
100
AcDbEntity
8
1
62
256
6
ByLayer
370
18
48
1
60
0
100
AcDbCircle
39
0
10
10.999799
20
6.2125
30
0
40
2.1768
210
0
220
0
230
1
100
AcDbArc
50
270
51
330
0
ARC
5
106
100
AcDbEntity
8
1
62
256
6
ByLayer
370
18
48
1
60
0
100
AcDbCircle
39
0
10
10.999799
20
6.2125
30
0
40
2.8067
210
0
220
0
230
1
100
AcDbArc
50
180
51
240
0
ARC
5
107
100
AcDbEntity
8
1
62
256
6
ByLayer
370
18
48
1
60
0
100
AcDbCircle
39
0
10
10.999799
20
6.2125
30
0
40
2.8067
210
0
220
0
230
1
100
AcDbArc
50
240
51
300
0
ARC
5
108
100
AcDbEntity
8
1
62
256
6
ByLayer
370
18
48
1
60
0
100
AcDbCircle
39
0
10
10.999799
20
6.2125
30
0
40
2.8067
210
0
220
0
230
1
100
AcDbArc
50
60
51
120
0
ARC
5
109
100
AcDbEntity
8
1
62
256
6
ByLayer
370
18
48
1
60
0
100
AcDbCircle
39
0
10
10.999799
20
6.2125
30
0
40
2.8067
210
0
220
0
230
1
100
AcDbArc
50
300
51
0
0
ARC
5
10A
100
AcDbEntity
8
1
62
256
6
ByLayer
370
18
48
1
60
0
100
AcDbCircle
39
0
10
10.999799
20
6.2125
30
0
40
2.8067
210
0
220
0
230
1
100
AcDbArc
50
0
51
60
0
ARC
5
10B
100
AcDbEntity
8
1
62
256
6
ByLayer
370
18
48
1
60
0
100
AcDbCircle
39
0
10
10.999799
20
6.2125
30
0
40
2.8067
210
0
220
0
230
1
100
AcDbArc
50
120
51
180
0
CIRCLE
5
FC
100
AcDbEntity
8
1
62
256
6
ByLayer
370
18
48
1
60
0
100
AcDbCircle
10
10.999799
20
6.2125
30
0
40
5.74999999999996
39
0
210
0
220
0
230
1
0
CIRCLE
5
104
100
AcDbEntity
8
1
62
256
6
ByLayer
370
18
48
1
60
0
100
AcDbCircle
10
10.999799
20
6.2125
30
0
40
5.35
39
0
210
0
220
0
230
1
0
CIRCLE
5
105
100
AcDbEntity
8
1
62
256
6
ByLayer
370
13
48
1
60
0
100
AcDbCircle
10
10.999799
20
6.2125
30
0
40
4.55
39
0
210
0
220
0
230
1
0
ELLIPSE
5
10C
100
AcDbEntity
8
SK1
62
256
6
ByLayer
370
18
48
1
60
0
100
AcDbEllipse
10
-3.301981
20
-12.45059
30
0
11
3.00000000000148
21
3.51436609374931E-15
31
0
210
0
220
0
230
1
40
0.004363
41
0.846871315207974
42
1.5707963267949
0
ELLIPSE
5
10D
100
AcDbEntity
8
SK1
62
256
6
ByLayer
370
18
48
1
60
0
100
AcDbEllipse
10
-3.301981
20
-8.50786
30
0
11
0.0800284643905186
21
-26.7548845689443
31
0
210
0
220
0
230
1
40
0.112089
41
1.80591639491561
42
2.46971207336815
0
ELLIPSE
5
10E
100
AcDbEntity
8
SK1
62
256
6
ByLayer
370
18
48
1
60
0
100
AcDbEllipse
10
-3.301981
20
-11.62271
30
0
11
2.99999999997336
21
3.51436609371637E-15
31
0
210
0
220
0
230
1
40
0.36397
41
-0.84687131521106
42
-0.26179938779858
0
ELLIPSE
5
10F
100
AcDbEntity
8
SK1
62
256
6
ByLayer
370
18
48
1
60
0
100
AcDbEllipse
10
-0.083092
20
-6.999588
30
0
11
1.04091540074585E-16
21
1.69999999999482
31
0
210
0
220
0
230
1
40
0.267949
41
2.35924994306749
42
-2.95815089276343
0
ELLIPSE
5
110
100
AcDbEntity
8
SK1
62
256
6
ByLayer
370
18
48
1
60
0
100
AcDbEllipse
10
-25.73091
20
-6.999324
30
0
11
64.9136873865768
21
-0.189715302735298
31
0
210
0
220
0
230
1
40
0.026021
41
1.1632947873637
42
1.16844238907213
0
ELLIPSE
5
111
100
AcDbEntity
8
SK1
62
256
6
ByLayer
370
18
48
1
60
0
100
AcDbEllipse
10
-0.083092
20
-6.999588
30
0
11
1.43127991340853E-10
21
1.6999999991622
31
0
210
0
220
0
230
1
40
0.267949
41
0.514163615384848
42
0.782342710730209
0
ELLIPSE
5
112
100
AcDbEntity
8
1
62
256
6
ByLayer
370
18
48
1
60
0
100
AcDbEllipse
10
-0.083092
20
-6.999588
30
0
11
1.04091540074904E-16
21
1.70000000000003
31
0
210
0
220
0
230
1
40
0.267949
41
-2.95815089276369
42
-0.18344176082604
0
ELLIPSE
5
113
100
AcDbEntity
8
1
62
256
6
ByLayer
370
18
48
1
60
0
100
AcDbEllipse
10
-43.725853
20
23.075064
30
0
11
178.081321786462
21
-0.60487632824136
31
0
210
0
220
0
230
1
40
0.004294
41
1.18967192452038
42
1.19601549493536
0
ELLIPSE
5
114
100
AcDbEntity
8
1
62
256
6
ByLayer
370
18
48
1
60
0
100
AcDbEllipse
10
-25.735477
20
-6.999588
30
0
11
64.9203806174692
21
-0.189625594225165
31
0
210
0
220
0
230
1
40
0.026023
41
1.16084135208596
42
1.16326265033609
0
ELLIPSE
5
115
100
AcDbEntity
8
1
62
256
6
ByLayer
370
18
48
1
60
0
100
AcDbEllipse
10
58.200097
20
45.20273
30
0
11
33.0250000002643
21
3.86873134156474E-14
31
0
210
0
220
0
230
1
40
0.80402
41
-2.67939831061821
42
-2.28287961910428
0
ELLIPSE
5
116
100
AcDbEntity
8
1
62
256
6
ByLayer
370
18
48
1
60
0
100
AcDbEllipse
10
57.823686
20
614.066782
30
0
11
5.34774495438813
21
1645.46059589988
31
0
210
0
220
0
230
1
40
0.019574
41
1.93660791647396
42
1.93821558205014
0
ELLIPSE
5
117
100
AcDbEntity
8
1
62
256
6
ByLayer
370
18
48
1
60
0
100
AcDbEllipse
10
59.261939
20
-607.913634
30
0
11
5.97641914175188
21
-1707.63877739728
31
0
210
0
220
0
230
1
40
0.019652
41
-1.94561733957712
42
-1.94508657954886
0
ELLIPSE
5
118
100
AcDbEntity
8
1
62
256
6
ByLayer
370
18
48
1
60
0
100
AcDbEllipse
10
58.200097
20
25.082057
30
0
11
2.55532765069705E-15
21
41.7330457697051
31
0
210
0
220
0
230
1
40
0.791339
41
1.62739344323772
42
1.69136597896892
0
ELLIPSE
5
119
100
AcDbEntity
8
1
62
256
6
ByLayer
370
18
48
1
60
0
100
AcDbEllipse
10
58.200097
20
-12.438045
30
0
11
33.0250000000116
21
3.86873134153514E-14
31
0
210
0
220
0
230
1
40
0.004363
41
2.28287961910212
42
-3.12432670881927
0
ELLIPSE
5
11A
100
AcDbEntity
8
1
62
256
6
ByLayer
370
18
48
1
60
0
100
AcDbEllipse
10
51.000097
20
25.082057
30
0
11
2.48955843713949E-15
21
40.6589175267433
31
0
210
0
220
0
230
1
40
0.791339
41
1.62676492245338
42
1.69456734201069
0
ELLIPSE
5
11B
100
AcDbEntity
8
1
62
256
6
ByLayer
370
18
48
1
60
0
100
AcDbEllipse
10
51.004819
20
-255.177527
30
0
11
5.36802966068723
21
-2495.95694175562
31
0
210
0
220
0
230
1
40
0.012712
41
-1.68242938904757
42
-1.67910593020466
0
ELLIPSE
5
11C
100
AcDbEntity
8
1
62
256
6
ByLayer
370
18
48
1
60
0
100
AcDbEllipse
10
58.200097
20
-12.669125
30
0
11
33.0249999976243
21
3.86873134125548E-14
31
0
210
0
220
0
230
1
40
0.36397
41
2.90713776336105
42
3.12259485851081
0
ELLIPSE
5
11D
100
AcDbEntity
8
1
62
256
6
ByLayer
370
18
48
1
60
0
100
AcDbEllipse
10
58.200098
20
25.735212
30
0
11
2.88783232920723E-15
21
47.1634386052858
31
0
210
0
220
0
230
1
40
0.700225
41
1.69136597767737
42
1.80525121677266
0
ELLIPSE
5
11E
100
AcDbEntity
8
1
62
256
6
ByLayer
370
18
48
1
60
0
100
AcDbEllipse
10
51.000098
20
25.735212
30
0
11
2.81350507729435E-15
21
45.9495423735558
31
0
210
0
220
0
230
1
40
0.700225
41
1.69456734103994
42
1.81641013346968
0
ELLIPSE
5
11F
100
AcDbEntity
8
1
62
256
6
ByLayer
370
18
48
1
60
0
100
AcDbEllipse
10
18.825097
20
14.711783
30
0
11
1.70800088912786E-16
21
2.78946925891191
31
0
210
0
220
0
230
1
40
0.573586
41
2.24862413728671
42
-3.14159265358977
0
ELLIPSE
5
120
100
AcDbEntity
8
SK1
62
256
6
ByLayer
370
18
48
1
60
0
100
AcDbEllipse
10
-3.301981
20
0.466325
30
0
11
0.0800284641854507
21
-26.7548845721094
31
0
210
0
220
0
230
1
40
0.112089
41
1.80591639496571
42
2.03869297521247
0
ELLIPSE
5
121
100
AcDbEntity
8
SK1
62
256
6
ByLayer
370
18
48
1
60
0
100
AcDbEllipse
10
-0.083092
20
-6.999588
30
0
11
2.42090034477324E-10
21
-1.69999999286189
31
0
210
0
220
0
230
1
40
0.267949
41
2.95815089233985
42
3.05935577985609
0
POINT
5
70
100
AcDbEntity
8
81
62
256
6
ByLayer
370
18
48
1
60
0
100
AcDbPoint
10
26
20
34.5625
30
0
39
0
210
0
220
0
230
1
50
360
0
POINT
5
72
100
AcDbEntity
8
80
62
256
6
ByLayer
370
18
48
1
60
0
100
AcDbPoint
10
0
20
0
30
0
39
0
210
0
220
0
230
1
50
360
0
POINT
5
74
100
AcDbEntity
8
1
62
256
6
ByLayer
370
18
48
1
60
1
100
AcDbPoint
10
26
20
34.5625
30
0
39
0
210
0
220
0
230
1
50
360
0
POINT
5
76
100
AcDbEntity
8
1
62
256
6
ByLayer
370
18
48
1
60
1
100
AcDbPoint
10
-124
20
-12.4375
30
0
39
0
210
0
220
0
230
1
50
360
0
POINT
5
77
100
AcDbEntity
8
1
62
256
6
ByLayer
370
18
48
1
60
1
100
AcDbPoint
10
18.825097
20
14.5625
30
0
39
0
210
0
220
0
230
1
50
360
0
POINT
5
78
100
AcDbEntity
8
1
62
256
6
ByLayer
370
18
48
1
60
1
100
AcDbPoint
10
26
20
34.5625
30
0
39
0
210
0
220
0
230
1
50
360
0
POINT
5
79
100
AcDbEntity
8
1
62
256
6
ByLayer
370
18
48
1
60
1
100
AcDbPoint
10
-124
20
-12.4375
30
0
39
0
210
0
220
0
230
1
50
360
0
POINT
5
7A
100
AcDbEntity
8
1
62
256
6
ByLayer
370
18
48
1
60
1
100
AcDbPoint
10
-124
20
12.5625
30
0
39
0
210
0
220
0
230
1
50
360
0
POINT
5
7B
100
AcDbEntity
8
1
62
256
6
ByLayer
370
18
48
1
60
1
100
AcDbPoint
10
18
20
34.5625
30
0
39
0
210
0
220
0
230
1
50
360
0
POINT
5
7C
100
AcDbEntity
8
1
62
256
6
ByLayer
370
18
48
1
60
1
100
AcDbPoint
10
26
20
34.5625
30
0
39
0
210
0
220
0
230
1
50
360
0
POINT
5
7D
100
AcDbEntity
8
1
62
256
6
ByLayer
370
18
48
1
60
1
100
AcDbPoint
10
-124
20
-12.4375
30
0
39
0
210
0
220
0
230
1
50
360
0
POINT
5
7E
100
AcDbEntity
8
1
62
256
6
ByLayer
370
18
48
1
60
1
100
AcDbPoint
10
26
20
34.5625
30
0
39
0
210
0
220
0
230
1
50
360
0
SPLINE
5
122
100
AcDbEntity
8
SK1
62
256
6
ByLayer
370
18
48
1
60
0
100
AcDbSpline
70
4
71
3
72
38
73
34
40
0
40
0
40
0
40
0
40
0.125000000000018
40
0.125000000000018
40
0.187500000000024
40
0.187500000000024
40
0.218750000000025
40
0.218750000000025
40
0.250000000000026
40
0.250000000000026
40
0.375000000000026
40
0.375000000000026
40
0.406250000000027
40
0.421875000000027
40
0.421875000000027
40
0.437500000000027
40
0.437500000000027
40
0.500000000000025
40
0.500000000000025
40
0.625000000000021
40
0.625000000000021
40
0.656250000000019
40
0.656250000000019
40
0.687500000000017
40
0.687500000000017
40
0.750000000000016
40
0.812500000000015
40
0.812500000000015
40
0.843750000000014
40
0.843750000000014
40
0.875000000000012
40
0.875000000000012
40
1
40
1
40
1
40
1
41
1
10
-0.404203485069701
20
-8.20533681787413
30
0
41
1
10
-0.42547066735051
20
-8.1264501609563
30
0
41
1
10
-0.447737342976041
20
-8.04126581976004
30
0
41
1
10
-0.479986162325815
20
-7.90405483283277
30
0
41
1
10
-0.490546284011401
20
-7.85673205240929
30
0
41
1
10
-0.505765502445627
20
-7.78324601115426
30
0
41
1
10
-0.510742485041931
20
-7.75829281835581
30
0
41
1
10
-0.520396438327793
20
-7.70769378190798
30
0
41
1
10
-0.525048627315329
20
-7.68218040210135
30
0
41
1
10
-0.547323582041486
20
-7.55354744373349
30
0
41
1
10
-0.561978629427983
20
-7.44725881696547
30
0
41
1
10
-0.574669057419158
20
-7.30992500878463
30
0
41
1
10
-0.578054872018015
20
-7.26838664085369
30
0
41
1
10
-0.580763763265963
20
-7.22632542423642
30
0
41
1
10
-0.582414328842503
20
-7.1981662991432
30
0
41
1
10
-0.583162899224561
20
-7.1840043311415
30
0
41
1
10
-0.58648791529518
20
-7.11328321689771
30
0
41
1
10
-0.5878200500361
20
-7.05688610689441
30
0
41
1
10
-0.587870298262288
20
-6.88821837738698
30
0
41
1
10
-0.582619077467541
20
-6.77646770117437
30
0
41
1
10
-0.569926129548037
20
-6.63765184883164
30
0
41
1
10
-0.567082407455075
20
-6.60995125346147
30
0
41
1
10
-0.560890134127987
20
-6.55529683856977
30
0
41
1
10
-0.557534380280259
20
-6.52825874367386
30
0
41
1
10
-0.546761688913193
20
-6.44798514530808
30
0
41
1
10
-0.530517368713163
20
-6.34319145556799
30
0
41
1
10
-0.511285985944852
20
-6.24269183576544
30
0
41
1
10
-0.496037288962697
20
-6.16890748028015
30
0
41
1
10
-0.49080893054068
20
-6.14454529811789
30
0
41
1
10
-0.480226716127987
20
-6.09678681731654
30
0
41
1
10
-0.47486274724119
20
-6.07333895193588
30
0
41
1
10
-0.447821178459265
20
-5.95820181331607
30
0
41
1
10
-0.425476331396652
20
-5.87274685536266
30
0
41
1
10
-0.404203485069701
20
-5.7938391887194
30
0
0
SPLINE
5
123
100
AcDbEntity
8
1
62
256
6
ByLayer
370
18
48
1
60
0
100
AcDbSpline
70
4
71
3
72
12
73
8
40
0
40
0
40
0
40
0
40
0.500000000000039
40
0.500000000000039
40
0.75000000000002
40
0.75000000000002
40
1
40
1
40
1
40
1
41
1
10
22.7398945797149
20
23.2672514580699
30
0
41
1
10
22.9098937856683
20
23.2376853314424
30
0
41
1
10
23.0796056916387
20
23.2072172524209
30
0
41
1
10
23.3332627490452
20
23.1586557545419
30
0
41
1
10
23.4176604595555
20
23.1419831040954
30
0
41
1
10
23.5859529791288
20
23.1070589894499
30
0
41
1
10
23.6698570877819
20
23.088836720475
30
0
41
1
10
23.7532969702714
20
23.0691570553138
30
0
0
SPLINE
5
124
100
AcDbEntity
8
1
62
256
6
ByLayer
370
18
48
1
60
0
100
AcDbSpline
70
4
71
3
72
8
73
4
40
0
40
0
40
0
40
0
40
1
40
1
40
1
40
1
41
1
10
22.656962599855
20
23.4749207953542
30
0
41
1
10
22.6856460148212
20
23.4059530655035
30
0
41
1
10
22.7136744223802
20
23.3368244024308
30
0
41
1
10
22.739894579716
20
23.2672514580702
30
0
0
SPLINE
5
125
100
AcDbEntity
8
1
62
256
6
ByLayer
370
18
48
1
60
0
100
AcDbSpline
70
4
71
3
72
14
73
10
40
0
40
0
40
0
40
0
40
0.25
40
0.25
40
0.5
40
0.5
40
0.75
40
0.75
40
1
40
1
40
1
40
1
41
1
10
22.51647430052
20
23.559817800142
30
0
41
1
10
22.5323962168878
20
23.5597363248702
30
0
41
1
10
22.5479295088422
20
23.5575538200646
30
0
41
1
10
22.577896247713
20
23.5491271432596
30
0
41
1
10
22.5916686459277
20
23.5430671663968
30
0
41
1
10
22.6166235990434
20
23.5275868924925
30
0
41
1
10
22.6272844935761
20
23.5185033662934
30
0
41
1
10
22.6451972911957
20
23.4978498129632
30
0
41
1
10
22.6520458597221
20
23.4867428327797
30
0
41
1
10
22.6569625998549
20
23.4749207953541
30
0
0
SPLINE
5
126
100
AcDbEntity
8
1
62
256
6
ByLayer
370
18
48
1
60
0
100
AcDbSpline
70
4
71
3
72
20
73
16
40
0
40
0
40
0
40
0
40
0.25
40
0.25
40
0.375
40
0.375
40
0.5
40
0.5
40
0.625
40
0.625
40
0.75
40
0.75
40
0.875
40
0.875
40
1
40
1
40
1
40
1
41
1
10
21.3251238362059
20
23.4820194958117
30
0
41
1
10
21.3301794928643
20
23.4937606079092
30
0
41
1
10
21.3371610458616
20
23.5047590755436
30
0
41
1
10
21.3507684373331
20
23.5200478664373
30
0
41
1
10
21.3557681536269
20
23.5248562456905
30
0
41
1
10
21.366547839091
20
23.5337567335053
30
0
41
1
10
21.3723484719037
20
23.537872885015
30
0
41
1
10
21.3848125632125
20
23.5454034585749
30
0
41
1
10
21.3915244152662
20
23.5488291383329
30
0
41
1
10
21.4053503720855
20
23.5546875378311
30
0
41
1
10
21.412514076277
20
23.5571577544274
30
0
41
1
10
21.4273517057046
20
23.5611641677428
30
0
41
1
10
21.4350943401246
20
23.5627065361244
30
0
41
1
10
21.4507126281979
20
23.564725350693
30
0
41
1
10
21.4585912540013
20
23.5652143510798
30
0
41
1
10
21.4665405659878
20
23.5651739236913
30
0
0
SPLINE
5
127
100
AcDbEntity
8
1
62
256
6
ByLayer
370
18
48
1
60
0
100
AcDbSpline
70
4
71
3
72
8
73
4
40
0
40
0
40
0
40
0
40
1
40
1
40
1
40
1
41
1
10
21.2399100721003
20
23.276672314065
30
0
41
1
10
21.2669948383734
20
23.3454579528181
30
0
41
1
10
21.2957558470872
20
23.4138161197482
30
0
41
1
10
21.3251238362059
20
23.4820194958116
30
0
0
SPLINE
5
128
100
AcDbEntity
8
1
62
256
6
ByLayer
370
18
48
1
60
0
100
AcDbSpline
70
4
71
3
72
14
73
10
40
0
40
0
40
0
40
0
40
0.25
40
0.25
40
0.5
40
0.5
40
0.75
40
0.75
40
1
40
1
40
1
40
1
41
1
10
20.0803207727525
20
23.0694892859597
30
0
41
1
10
20.175887549778
20
23.0902603135677
30
0
41
1
10
20.2719783555525
20
23.1093203815247
30
0
41
1
10
20.464657366481
20
23.1458165029722
30
0
41
1
10
20.5612591181578
20
23.1632083269169
30
0
41
1
10
20.7547680066886
20
23.1969948888306
30
0
41
1
10
20.8516811655111
20
23.2133790339452
30
0
41
1
10
21.0456745107582
20
23.2454795794439
30
0
41
1
10
21.1427610346689
20
23.2611930951506
30
0
41
1
10
21.2399100721003
20
23.2766723140652
30
0
0
SPLINE
5
129
100
AcDbEntity
8
1
62
256
6
ByLayer
370
18
48
1
60
0
100
AcDbSpline
70
4
71
3
72
21
73
17
40
0
40
0
40
0
40
0
40
0.214736625327572
40
0.214736625327572
40
0.280175239883615
40
0.280175239883615
40
0.345613854439657
40
0.345613854439657
40
0.47649108355173
40
0.607368312663804
40
0.607368312663804
40
0.672806927219835
40
0.672806927219835
40
0.738245541775866
40
0.738245541775866
40
1
40
1
40
1
40
1
41
1
10
26.0825044982144
20
8.16942437513777
30
0
41
1
10
26.0957466664741
20
8.10485730527961
30
0
41
1
10
26.1080063174155
20
8.03601804032303
30
0
41
1
10
26.1225692878402
20
7.94039816559848
30
0
41
1
10
26.1258712043062
20
7.91761766206267
30
0
41
1
10
26.1321933667394
20
7.87170486092595
30
0
41
1
10
26.1352226614079
20
7.84851632597736
30
0
41
1
10
26.1439149998415
20
7.77826369786095
30
0
41
1
10
26.154451390046
20
7.68276434706397
30
0
41
1
10
26.1628449646762
20
7.58363475478055
30
0
41
1
10
26.1683058887618
20
7.50790174323916
30
0
41
1
10
26.1699869644741
20
7.4824260667146
30
0
41
1
10
26.1730631444619
20
7.43100329382543
30
0
41
1
10
26.1744606893093
20
7.40500263740927
30
0
41
1
10
26.1806789473902
20
7.27447248596997
30
0
41
1
10
26.1831888254094
20
7.16900942239104
30
0
41
1
10
26.1831888254094
20
7.06249999999736
30
0
0
SPLINE
5
12A
100
AcDbEntity
8
1
62
256
6
ByLayer
370
18
48
1
60
0
100
AcDbSpline
70
4
71
3
72
22
73
18
40
0
40
0
40
0
40
0
40
0.275985817344675
40
0.275985817344675
40
0.413978726017013
40
0.413978726017013
40
0.482975180353186
40
0.482975180353186
40
0.551971634689359
40
0.551971634689359
40
0.827957452034012
40
0.827957452034012
40
0.896953906370181
40
0.896953906370181
40
0.965950360706351
40
0.965950360706351
40
1
40
1
40
1
40
1
41
1
10
26.1831888254094
20
6.76249999999737
30
0
41
1
10
26.1831888254094
20
6.64895596219324
30
0
41
1
10
26.1803398593581
20
6.53740112003439
30
0
41
1
10
26.1720356227684
20
6.37291852643577
30
0
41
1
10
26.168591612527
20
6.3185695306137
30
0
41
1
10
26.1624060169056
20
6.23777897666855
30
0
41
1
10
26.1601667518453
20
6.2108949426875
30
0
41
1
10
26.1553867221841
20
6.15783772181948
30
0
41
1
10
26.1528470862042
20
6.13166131076679
30
0
41
1
10
26.1394265458754
20
6.00250125245029
30
0
41
1
10
26.1263963952205
20
5.9046339134367
30
0
41
1
10
26.1074623895713
20
5.78902099345038
30
0
41
1
10
26.1035421850105
20
5.76623755135353
30
0
41
1
10
26.0954361811666
20
5.72135886390413
30
0
41
1
10
26.0912503384987
20
5.69927106175959
30
0
41
1
10
26.0848734029151
20
5.6671548321159
30
0
41
1
10
26.0827431786456
20
5.65666924828872
30
0
41
1
10
26.0805903575896
20
5.64630929860809
30
0
0
SPLINE
5
12B
100
AcDbEntity
8
1
62
256
6
ByLayer
370
18
48
1
60
0
100
AcDbSpline
70
4
71
3
72
30
73
26
40
0
40
0
40
0
40
0
40
0.125000000000024
40
0.125000000000024
40
0.250000000000048
40
0.250000000000048
40
0.281250000000052
40
0.281250000000052
40
0.312500000000055
40
0.375000000000058
40
0.375000000000058
40
0.500000000000046
40
0.500000000000046
40
0.531250000000036
40
0.531250000000036
40
0.562500000000026
40
0.625000000000032
40
0.625000000000032
40
0.750000000000014
40
0.750000000000014
40
0.81250000000002
40
0.81250000000002
40
0.875000000000025
40
0.875000000000025
40
1
40
1
40
1
40
1
41
1
10
18.8816377492302
20
14.5624999999974
30
0
41
1
10
18.8817046414602
20
14.4754502656919
30
0
41
1
10
18.8747726264106
20
14.3896203422155
30
0
41
1
10
18.8475146437321
20
14.220294872294
30
0
41
1
10
18.8271878384871
20
14.1367994718338
30
0
41
1
10
18.7931129474984
20
14.0339406498377
30
0
41
1
10
18.7858609544134
20
14.0134503119205
30
0
41
1
10
18.7706190116702
20
13.9729981017918
30
0
41
1
10
18.746602522705
20
13.9129692039224
30
0
41
1
10
18.7191843174657
20
13.8548553386823
30
0
41
1
10
18.659883710755
20
13.7411407753088
30
0
41
1
10
18.6144270412001
20
13.6686654442906
30
0
41
1
10
18.5499997242892
20
13.5823534299261
30
0
41
1
10
18.5366999277744
20
13.5652686976467
30
0
41
1
10
18.5095211620298
20
13.5317810859977
30
0
41
1
10
18.4678738530964
20
13.4825479952093
30
0
41
1
10
18.4236381729466
20
13.4362541181308
30
0
41
1
10
18.3317805566834
20
13.3475116122486
30
0
41
1
10
18.2660490024202
20
13.2934521111877
30
0
41
1
10
18.1605714476727
20
13.2201756673877
30
0
41
1
10
18.1241401232368
20
13.1970019279721
30
0
41
1
10
18.0500855751118
20
13.1540257618255
30
0
41
1
10
18.0123531547978
20
13.1341347665083
30
0
41
1
10
17.8970724771018
20
13.0791805171046
30
0
41
1
10
17.8174545542606
20
13.0488048542189
30
0
41
1
10
17.7349936092876
20
13.0248683602677
30
0
0
SPLINE
5
12C
100
AcDbEntity
8
1
62
256
6
ByLayer
370
18
48
1
60
0
100
AcDbSpline
70
4
71
3
72
8
73
4
40
0
40
0
40
0
40
0
40
1
40
1
40
1
40
1
41
1
10
17.7434488384314
20
13.0445903378888
30
0
41
1
10
17.7406304314167
20
13.0399726827322
30
0
41
1
10
17.7378120212439
20
13.0330667204235
30
0
41
1
10
17.7349936092876
20
13.0248683602674
30
0
0
SPLINE
5
12D
100
AcDbEntity
8
1
62
256
6
ByLayer
370
18
48
1
60
0
100
AcDbSpline
70
4
71
3
72
9
73
5
40
0
40
0
40
0
40
0
40
0.5
40
1
40
1
40
1
40
1
41
1
10
17.2379616386641
20
12.9624999999974
30
0
41
1
10
17.3244803887814
20
12.9624999999974
30
0
41
1
10
17.4952022563952
20
12.9764513295826
30
0
41
1
10
17.6614713363727
20
13.0172300182762
30
0
41
1
10
17.7434488384162
20
13.0445903378839
30
0
0
SPLINE
5
12E
100
AcDbEntity
8
1
62
256
6
ByLayer
370
18
48
1
60
0
100
AcDbSpline
70
4
71
3
72
36
73
32
40
0
40
0
40
0
40
0
40
0.12500000000004
40
0.12500000000004
40
0.250000000000079
40
0.250000000000079
40
0.281250000000088
40
0.281250000000088
40
0.312500000000096
40
0.312500000000096
40
0.375000000000114
40
0.375000000000114
40
0.500000000000147
40
0.500000000000147
40
0.531250000000148
40
0.531250000000148
40
0.56250000000015
40
0.56250000000015
40
0.625000000000148
40
0.625000000000148
40
0.750000000000143
40
0.750000000000143
40
0.781250000000121
40
0.781250000000121
40
0.812500000000099
40
0.875000000000055
40
0.93750000000001
40
0.93750000000001
40
0.968750000000005
40
0.968750000000005
40
1
40
1
40
1
40
1
41
1
10
19.7907252282667
20
14.5624999999974
30
0
41
1
10
19.804453458685
20
14.4842892840104
30
0
41
1
10
19.8124687375031
20
14.4060070823903
30
0
41
1
10
19.8165709472506
20
14.2492934208405
30
0
41
1
10
19.8126688036897
20
14.1708620976206
30
0
41
1
10
19.7994431301416
20
14.0727184859207
30
0
41
1
10
19.7963777225713
20
14.0530845047454
30
0
41
1
10
19.789370750704
20
14.013805579127
30
0
41
1
10
19.7854200835801
20
13.9941214760286
30
0
41
1
10
19.7722612263042
20
13.9353587480244
30
0
41
1
10
19.7617768648554
20
13.8966592087889
30
0
41
1
10
19.7250135473009
20
13.7820360143596
30
0
41
1
10
19.6934742176397
20
13.7075739291737
30
0
41
1
10
19.6440547386022
20
13.617273474415
30
0
41
1
10
19.6336671392724
20
13.5993533351138
30
0
41
1
10
19.6118363390077
20
13.5638063504437
30
0
41
1
10
19.6003614891394
20
13.5461354219523
30
0
41
1
10
19.5645751450842
20
13.4940232001721
30
0
41
1
10
19.5388906093685
20
13.4604338663779
30
0
41
1
10
19.4561857704558
20
13.3632297118069
30
0
41
1
10
19.3935740260334
20
13.3031410320216
30
0
41
1
10
19.304654449665
20
13.2347494990941
30
0
41
1
10
19.2863965365643
20
13.2214636459167
30
0
41
1
10
19.2492517698601
20
13.1959092795538
30
0
41
1
10
19.192451625349
20
13.1589971639229
30
0
41
1
10
19.0924071964876
20
13.1045250554566
30
0
41
1
10
19.0065885959537
20
13.0685269715349
30
0
41
1
10
18.9399846588693
20
13.0444642620968
30
0
41
1
10
18.9173651450433
20
13.0369203120551
30
0
41
1
10
18.8715785923039
20
13.0229041895615
30
0
41
1
10
18.848453268079
20
13.0164420714022
30
0
41
1
10
18.825097477176
20
13.0105221762673
30
0
0
SPLINE
5
12F
100
AcDbEntity
8
1
62
256
6
ByLayer
370
18
48
1
60
0
100
AcDbSpline
70
4
71
3
72
12
73
8
40
0
40
0
40
0
40
0
40
0.250000000000051
40
0.250000000000051
40
0.500000000000102
40
0.500000000000102
40
1
40
1
40
1
40
1
41
1
10
18.4461075272841
20
12.9624999999973
30
0
41
1
10
18.4773286146395
20
12.9624999999973
30
0
41
1
10
18.508793745508
20
12.96349339907
30
0
41
1
10
18.572210634389
20
12.9675215020046
30
0
41
1
10
18.6040128477967
20
12.9705511204025
30
0
41
1
10
18.6990631751842
20
12.9826000070795
30
0
41
1
10
18.7622120268711
20
12.9945828628487
30
0
41
1
10
18.825097477176
20
13.0105221762662
30
0
0
SPLINE
5
130
100
AcDbEntity
8
SK1
62
256
6
ByLayer
370
18
48
1
60
0
100
AcDbSpline
70
4
71
3
72
10
73
6
40
0
40
0
40
0
40
0
40
0.5
40
0.5
40
1
40
1
40
1
40
1
41
1
10
-0.404203485069701
20
12.6657072639062
30
0
41
1
10
-0.434766010019359
20
12.6473598557417
30
0
41
1
10
-0.471608229551407
20
12.626618747077
30
0
41
1
10
-0.557388224769653
20
12.5839021271104
30
0
41
1
10
-0.606327943475719
20
12.5619173765841
30
0
41
1
10
-0.661470786013211
20
12.5410514624831
30
0
0
SPLINE
5
131
100
AcDbEntity
8
1
62
256
6
ByLayer
370
18
48
1
60
0
100
AcDbSpline
70
4
71
11
72
24
73
12
40
0
40
0
40
0
40
0
40
0
40
0
40
0
40
0
40
0
40
0
40
0
40
0
40
1
40
1
40
1
40
1
40
1
40
1
40
1
40
1
40
1
40
1
40
1
40
1
41
1
10
25.3268113247704
20
26.8207156695674
30
0
41
1
10
25.322051451868
20
26.8124711269474
30
0
41
1
10
25.3177232518258
20
26.8039773520674
30
0
41
1
10
25.3138412238704
20
26.7952594590274
30
0
41
1
10
25.3104182236885
20
26.7863435111074
30
0
41
1
10
25.3074653923487
20
26.7772563977074
30
0
41
1
10
25.3049920959826
20
26.7680257051574
30
0
41
1
10
25.3030058769365
20
26.7586795824574
30
0
41
1
10
25.301512416712
20
26.7492466032174
30
0
41
1
10
25.3005155112565
20
26.7397556249674
30
0
41
1
10
25.3000170585337
20
26.7302356472374
30
0
41
1
10
25.3000170585437
20
26.7207156695074
30
0
0
SPLINE
5
132
100
AcDbEntity
8
1
62
256
6
ByLayer
370
18
48
1
60
0
100
AcDbSpline
70
4
71
11
72
24
73
12
40
0
40
0
40
0
40
0
40
0
40
0
40
0
40
0
40
0
40
0
40
0
40
0
40
1
40
1
40
1
40
1
40
1
40
1
40
1
40
1
40
1
40
1
40
1
40
1
41
1
10
25.7572049382161
20
27.6113931089074
30
0
41
1
10
25.7568242965323
20
27.6026747684174
30
0
41
1
10
25.7560252147158
20
27.5939746980574
30
0
41
1
10
25.7548086671029
20
27.5853152133574
30
0
41
1
10
25.7531769668173
20
27.5767185715474
30
0
41
1
10
25.75113376179
20
27.5682068796974
30
0
41
1
10
25.7486840233798
20
27.5598020031274
30
0
41
1
10
25.7458340277939
20
27.5515254749774
30
0
41
1
10
25.7425913301081
20
27.5433984074574
30
0
41
1
10
25.7389647315279
20
27.5354414055374
30
0
41
1
10
25.7349642397294
20
27.5276744836974
30
0
41
1
10
25.7306010229305
20
27.5201169863474
30
0
0
SPLINE
5
133
100
AcDbEntity
8
1
62
256
6
ByLayer
370
18
48
1
60
0
100
AcDbSpline
70
4
71
5
72
12
73
6
40
0
40
0
40
0
40
0
40
0
40
0
40
1
40
1
40
1
40
1
40
1
40
1
41
1
10
25.2250188878722
20
34.5624999999974
30
0
41
1
10
25.4832439966835
20
34.5624130545974
30
0
41
1
10
25.7419543425697
20
34.4586489022974
30
0
41
1
10
25.9430366683295
20
34.2485904429974
30
0
41
1
10
26.0354147489425
20
33.9855939054974
30
0
41
1
10
26.0242379865904
20
33.7276044900974
30
0
0
SPLINE
5
134
100
AcDbEntity
8
1
62
256
6
ByLayer
370
18
48
1
60
0
100
AcDbSpline
70
4
71
5
72
12
73
6
40
0
40
0
40
0
40
0
40
0
40
0
40
1
40
1
40
1
40
1
40
1
40
1
41
1
10
18.7751760664825
20
34.5624999999974
30
0
41
1
10
18.5169509576679
20
34.5624130545974
30
0
41
1
10
18.2582406117788
20
34.4586489022974
30
0
41
1
10
18.0571582860262
20
34.2485904429974
30
0
41
1
10
17.9647802054064
20
33.9855939054974
30
0
41
1
10
17.9759569677613
20
33.7276044900974
30
0
0
SPLINE
5
135
100
AcDbEntity
8
1
62
256
6
ByLayer
370
18
48
1
60
0
100
AcDbSpline
70
4
71
11
72
24
73
12
40
0
40
0
40
0
40
0
40
0
40
0
40
0
40
0
40
0
40
0
40
0
40
0
40
1
40
1
40
1
40
1
40
1
40
1
40
1
40
1
40
1
40
1
40
1
40
1
41
1
10
18.2429900161357
20
27.6113931089074
30
0
41
1
10
18.2433706578196
20
27.6026747684174
30
0
41
1
10
18.244169739636
20
27.5939746980574
30
0
41
1
10
18.2453862872489
20
27.5853152133574
30
0
41
1
10
18.2470179875346
20
27.5767185715474
30
0
41
1
10
18.2490611925619
20
27.5682068796974
30
0
41
1
10
18.251510930972
20
27.5598020031274
30
0
41
1
10
18.254360926558
20
27.5515254749774
30
0
41
1
10
18.2576036242438
20
27.5433984074574
30
0
41
1
10
18.2612302228239
20
27.5354414055374
30
0
41
1
10
18.2652307146224
20
27.5276744836974
30
0
41
1
10
18.2695939314213
20
27.5201169863474
30
0
0
SPLINE
5
136
100
AcDbEntity
8
1
62
256
6
ByLayer
370
18
48
1
60
0
100
AcDbSpline
70
4
71
11
72
24
73
12
40
0
40
0
40
0
40
0
40
0
40
0
40
0
40
0
40
0
40
0
40
0
40
0
40
1
40
1
40
1
40
1
40
1
40
1
40
1
40
1
40
1
40
1
40
1
40
1
41
1
10
18.6733836295814
20
26.8207156695674
30
0
41
1
10
18.6781435024838
20
26.8124711269474
30
0
41
1
10
18.6824717025261
20
26.8039773520674
30
0
41
1
10
18.6863537304815
20
26.7952594590274
30
0
41
1
10
18.6897767306633
20
26.7863435111074
30
0
41
1
10
18.6927295620032
20
26.7772563977074
30
0
41
1
10
18.6952028583692
20
26.7680257051574
30
0
41
1
10
18.6971890774153
20
26.7586795824574
30
0
41
1
10
18.6986825376398
20
26.7492466032174
30
0
41
1
10
18.6996794430954
20
26.7397556249674
30
0
41
1
10
18.7001778958181
20
26.7302356472374
30
0
41
1
10
18.7001778958081
20
26.7207156695074
30
0
0
SPLINE
5
137
100
AcDbEntity
8
1
62
256
6
ByLayer
370
18
48
1
60
0
100
AcDbSpline
70
4
71
5
72
15
73
9
40
0
40
0
40
0
40
0
40
0
40
0
40
0.437068328965547
40
0.437068328965547
40
0.437068328965547
40
1
40
1
40
1
40
1
40
1
40
1
41
1
10
23.4814941152615
20
30.0935782148974
30
0
41
1
10
23.5384926636026
20
30.0936473804974
30
0
41
1
10
23.5931624823998
20
30.1041724571974
30
0
41
1
10
23.646466668154
20
30.1246295951974
30
0
41
1
10
23.7573263018637
20
30.1852463325974
30
0
41
1
10
23.8496175933656
20
30.2703759744974
30
0
41
1
10
23.8953261383034
20
30.3216602354974
30
0
41
1
10
23.9380160624281
20
30.3771792815974
30
0
41
1
10
23.9756108999223
20
30.4330860039974
30
0
0
SPLINE
5
138
100
AcDbEntity
8
1
62
256
6
ByLayer
370
18
48
1
60
0
100
AcDbSpline
70
4
71
5
72
15
73
9
40
0
40
0
40
0
40
0
40
0
40
0
40
0.0074613573022642
40
0.0074613573022642
40
0.0074613573022642
40
1
40
1
40
1
40
1
40
1
40
1
41
1
10
24.4947027616944
20
31.0586060347552
30
0
41
1
10
24.494042481426
20
31.0581209068571
30
0
41
1
10
24.4933827074146
20
31.0576351973106
30
0
41
1
10
24.4927234385186
20
31.0571489078683
30
0
41
1
10
24.4044332084135
20
30.9918970251079
30
0
41
1
10
24.3251733778118
20
30.9162903457974
30
0
41
1
10
24.254536477267
20
30.8359438480974
30
0
41
1
10
24.1895940949935
20
30.7506536440974
30
0
41
1
10
24.1307794772191
20
30.6633681940974
30
0
0
SPLINE
5
139
100
AcDbEntity
8
1
62
256
6
ByLayer
370
18
48
1
60
0
100
AcDbSpline
70
4
71
5
72
15
73
9
40
0
40
0
40
0
40
0
40
0
40
0
40
0.0074613572675739
40
0.0074613572675739
40
0.0074613572675739
40
1
40
1
40
1
40
1
40
1
40
1
41
1
10
19.505492174326
20
31.0586060347438
30
0
41
1
10
19.506149295881
20
31.058120906848
30
0
41
1
10
19.5068059073998
20
31.0576351973038
30
0
41
1
10
19.5074620100356
20
31.0571489078638
30
0
41
1
10
19.5953273827012
20
30.9918970251052
30
0
41
1
10
19.6740950925509
20
30.9162903457974
30
0
41
1
10
19.7442086801124
20
30.8359438480974
30
0
41
1
10
19.8085958316926
20
30.7506536440974
30
0
41
1
10
19.8668421487163
20
30.6633681940974
30
0
0
SPLINE
5
13A
100
AcDbEntity
8
1
62
256
6
ByLayer
370
18
48
1
60
0
100
AcDbSpline
70
4
71
5
72
15
73
9
40
0
40
0
40
0
40
0
40
0
40
0
40
0.437068328965547
40
0.437068328965547
40
0.437068328965547
40
1
40
1
40
1
40
1
40
1
40
1
41
1
10
20.5124177048225
20
30.0935782148974
30
0
41
1
10
20.4554196077291
20
30.0936473804974
30
0
41
1
10
20.400818322651
20
30.1041724571974
30
0
41
1
10
20.3476473212137
20
30.1246295951974
30
0
41
1
10
20.2371823491393
20
30.1852463325974
30
0
41
1
10
20.1454453289906
20
30.2703759744974
30
0
41
1
10
20.1000706924754
20
30.3216602354974
30
0
41
1
10
20.0577422356886
20
30.3771792815974
30
0
41
1
10
20.0205113977561
20
30.4330860039974
30
0
0
SPLINE
5
13B
100
AcDbEntity
8
1
62
256
6
ByLayer
370
18
48
1
60
0
100
AcDbSpline
70
4
71
5
72
12
73
6
40
0
40
0
40
0
40
0
40
0
40
0
40
1
40
1
40
1
40
1
40
1
40
1
41
1
10
21.7241250986242
20
25.5627262606274
30
0
41
1
10
21.7240761773384
20
25.5527184152074
30
0
41
1
10
21.7240379240246
20
25.5416405004174
30
0
41
1
10
21.7240118681311
20
25.5298032768274
30
0
41
1
10
21.7239988442662
20
25.5175859094874
30
0
41
1
10
21.7239988439588
20
25.5053686169974
30
0
0
SPLINE
5
13C
100
AcDbEntity
8
1
62
256
6
ByLayer
370
18
48
1
60
0
100
AcDbSpline
70
4
71
5
72
12
73
6
40
0
40
0
40
0
40
0
40
0
40
0
40
1
40
1
40
1
40
1
40
1
40
1
41
1
10
21.7239981085838
20
25.5053569916274
30
0
41
1
10
21.68568835882
20
25.5053261726142
30
0
41
1
10
21.6473647283761
20
25.5040985886749
30
0
41
1
10
21.6091446205217
20
25.5012793601885
30
0
41
1
10
21.5710759000081
20
25.4973460301923
30
0
41
1
10
21.5332776418172
20
25.4920212005359
30
0
0
SPLINE
5
13D
100
AcDbEntity
8
1
62
256
6
ByLayer
370
18
48
1
60
0
100
AcDbSpline
70
4
71
5
72
12
73
6
40
0
40
0
40
0
40
0
40
0
40
0
40
1
40
1
40
1
40
1
40
1
40
1
41
1
10
22.2641119406011
20
25.5627262606274
30
0
41
1
10
22.2640630193153
20
25.5527184152074
30
0
41
1
10
22.2640247660015
20
25.5416405004174
30
0
41
1
10
22.263998710108
20
25.5298032768274
30
0
41
1
10
22.2639856862431
20
25.5175859094874
30
0
41
1
10
22.2639856859358
20
25.5053686169974
30
0
0
SPLINE
5
13E
100
AcDbEntity
8
1
62
256
6
ByLayer
370
18
48
1
60
0
100
AcDbSpline
70
4
71
5
72
12
73
6
40
0
40
0
40
0
40
0
40
0
40
0
40
1
40
1
40
1
40
1
40
1
40
1
41
1
10
22.2639864212169
20
25.5053569916274
30
0
41
1
10
22.3022961727581
20
25.5053261726142
30
0
41
1
10
22.340607267874
20
25.5040985886749
30
0
41
1
10
22.3788023328494
20
25.5012793601885
30
0
41
1
10
22.4168336438454
20
25.4973460301923
30
0
41
1
10
22.4545825097431
20
25.4920212005359
30
0
0
SPLINE
5
13F
100
AcDbEntity
8
1
62
256
6
ByLayer
370
13
48
1
60
0
100
AcDbSpline
70
4
71
3
72
26
73
22
40
0
40
0
40
0
40
0
40
0.0039953692449419
40
0.0081034076465227
40
0.0162182804968531
40
0.0320941361820765
40
0.062801469836063
40
0.122365117924816
40
0.179522955805236
40
0.243498148205782
40
0.359092368685251
40
0.49417229457283
40
0.539711050367017
40
0.587883177252738
40
0.638705922078264
40
0.692193967160152
40
0.748359904089089
40
0.807214605180583
40
0.868767517453248
40
0.933026897389452
40
1
40
1
40
1
40
1
41
1
10
21.5332056694994
20
25.4920211895367
30
0
41
1
10
21.5325827292354
20
25.4918863298739
30
0
41
1
10
21.5313192818318
20
25.4916128075143
30
0
41
1
10
21.5287942926439
20
25.491058475307
30
0
41
1
10
21.5244442699326
20
25.4900095964243
30
0
41
1
10
21.5160720873187
20
25.4876720869202
30
0
41
1
10
21.5002692442295
20
25.4819723430174
30
0
41
1
10
21.4798630520776
20
25.4710460148347
30
0
41
1
10
21.4576530197901
20
25.4542573165743
30
0
41
1
10
21.4318151857205
20
25.4292660451112
30
0
41
1
10
21.4030751478488
20
25.3919499192335
30
0
41
1
10
21.3817414197791
20
25.3538803636991
30
0
41
1
10
21.3677033653827
20
25.3235660075582
30
0
41
1
10
21.3595666838405
20
25.3041574957761
30
0
41
1
10
21.35173564614
20
25.2834487177485
30
0
41
1
10
21.344271235175
20
25.2614382297668
30
0
41
1
10
21.3372386098559
20
25.2381260589605
30
0
41
1
10
21.3306993107447
20
25.2135126741619
30
0
41
1
10
21.3247408108527
20
25.1875951493199
30
0
41
1
10
21.3193569489416
20
25.1603847239478
30
0
41
1
10
21.3164600830228
20
25.141738591569
30
0
41
1
10
21.3149816982916
20
25.1322227360974
30
0
0
SPLINE
5
140
100
AcDbEntity
8
1
62
256
6
ByLayer
370
18
48
1
60
0
100
AcDbSpline
70
4
71
5
72
12
73
6
40
0
40
0
40
0
40
0
40
0
40
0
40
1
40
1
40
1
40
1
40
1
40
1
41
1
10
21.5242630776137
20
25.5494018149174
30
0
41
1
10
21.526190720516
20
25.5394253268447
30
0
41
1
10
21.528128994543
20
25.5283576206812
30
0
41
1
10
21.5300161773687
20
25.5165144554085
30
0
41
1
10
21.5317871953599
20
25.5042826684528
30
0
41
1
10
21.5333913378194
20
25.4920503298035
30
0
0
SPLINE
5
141
100
AcDbEntity
8
1
62
256
6
ByLayer
370
18
48
1
60
0
100
AcDbSpline
70
4
71
5
72
12
73
6
40
0
40
0
40
0
40
0
40
0
40
0
40
1
40
1
40
1
40
1
40
1
40
1
41
1
10
22.4638436930109
20
25.5494018149174
30
0
41
1
10
22.4618185265682
20
25.5394253268447
30
0
41
1
10
22.4598044898561
20
25.5283576206812
30
0
41
1
10
22.4578664121522
20
25.5165144554085
30
0
41
1
10
22.4560710268169
20
25.5042826684528
30
0
41
1
10
22.4544689622652
20
25.4920503298035
30
0
0
SPLINE
5
142
100
AcDbEntity
8
1
62
256
6
ByLayer
370
13
48
1
60
0
100
AcDbSpline
70
4
71
5
72
12
73
6
40
0
40
0
40
0
40
0
40
0
40
0
40
1
40
1
40
1
40
1
40
1
40
1
41
1
10
22.4545816912735
20
25.4920233837857
30
0
41
1
10
22.5417632803851
20
25.4760543748773
30
0
41
1
10
22.6025909687832
20
25.3854768257582
30
0
41
1
10
22.6320979045547
20
25.310763408573
30
0
41
1
10
22.6588925279257
20
25.2201094695928
30
0
41
1
10
22.6702576968704
20
25.1322227360974
30
0
0
SPLINE
5
143
100
AcDbEntity
8
1
62
256
6
ByLayer
370
13
48
1
60
0
100
AcDbSpline
70
4
71
5
72
12
73
6
40
0
40
0
40
0
40
0
40
0
40
0
40
1
40
1
40
1
40
1
40
1
40
1
41
1
10
21.2584970983001
20
24.9204132844174
30
0
41
1
10
21.2717213801414
20
24.9624113938674
30
0
41
1
10
21.2839592601907
20
25.0046032973874
30
0
41
1
10
21.2952335501285
20
25.0469669587674
30
0
41
1
10
21.3055614952467
20
25.0894797831974
30
0
41
1
10
21.3149573885548
20
25.1321195525674
30
0
0
SPLINE
5
144
100
AcDbEntity
8
1
62
256
6
ByLayer
370
18
48
1
60
0
100
AcDbSpline
70
4
71
5
72
12
73
6
40
0
40
0
40
0
40
0
40
0
40
0
40
1
40
1
40
1
40
1
40
1
40
1
41
1
10
21.2186395188821
20
25.1895803803278
30
0
41
1
10
21.2451116442938
20
25.1860088988305
30
0
41
1
10
21.2716529996648
20
25.1772745295125
30
0
41
1
10
21.2942116678611
20
25.1638626848764
30
0
41
1
10
21.3089688573598
20
25.1480419467917
30
0
41
1
10
21.3150865974968
20
25.1322310584321
30
0
0
SPLINE
5
145
100
AcDbEntity
8
1
62
256
6
ByLayer
370
18
48
1
60
0
100
AcDbSpline
70
4
71
5
72
12
73
6
40
0
40
0
40
0
40
0
40
0
40
0
40
1
40
1
40
1
40
1
40
1
40
1
41
1
10
21.2274122258871
20
24.9204132842574
30
0
41
1
10
21.2355848542595
20
24.9204132843174
30
0
41
1
10
21.2429393153989
20
24.9204132844374
30
0
41
1
10
21.2492939800673
20
24.9204132843474
30
0
41
1
10
21.2545074016587
20
24.9204132843674
30
0
41
1
10
21.258497100702
20
24.9204132844274
30
0
0
SPLINE
5
146
100
AcDbEntity
8
1
62
256
6
ByLayer
370
18
48
1
60
0
100
AcDbSpline
70
4
71
5
72
12
73
6
40
0
40
0
40
0
40
0
40
0
40
0
40
1
40
1
40
1
40
1
40
1
40
1
41
1
10
21.1657578488861
20
24.9777709276674
30
0
41
1
10
21.19011712103
20
24.9730424540674
30
0
41
1
10
21.2145321020496
20
24.9638166969774
30
0
41
1
10
21.235772432675
20
24.9506799147774
30
0
41
1
10
21.250748116809
20
24.9355432172374
30
0
41
1
10
21.258497100702
20
24.9204132844274
30
0
0
SPLINE
5
147
100
AcDbEntity
8
1
62
256
6
ByLayer
370
18
48
1
60
0
100
AcDbSpline
70
4
71
5
72
12
73
6
40
0
40
0
40
0
40
0
40
0
40
0
40
1
40
1
40
1
40
1
40
1
40
1
41
1
10
22.7659738377151
20
25.1894555849308
30
0
41
1
10
22.7394876102344
20
25.1858645409216
30
0
41
1
10
22.7130496187043
20
25.1771227484218
30
0
41
1
10
22.6907033034394
20
25.1637185476589
30
0
41
1
10
22.6762203005989
20
25.1479137535453
30
0
41
1
10
22.6703894041637
20
25.1321195525674
30
0
0
SPLINE
5
148
100
AcDbEntity
8
1
62
256
6
ByLayer
370
13
48
1
60
0
100
AcDbSpline
70
4
71
5
72
12
73
6
40
0
40
0
40
0
40
0
40
0
40
0
40
1
40
1
40
1
40
1
40
1
40
1
41
1
10
22.7246320722723
20
24.9204132844174
30
0
41
1
10
22.711847720427
20
24.9624113938674
30
0
41
1
10
22.7000518003654
20
25.0046032973874
30
0
41
1
10
22.6892212695772
20
25.0469669587674
30
0
41
1
10
22.6793386460927
20
25.0894797831974
30
0
41
1
10
22.6703894041637
20
25.1321195525674
30
0
0
SPLINE
5
149
100
AcDbEntity
8
1
62
256
6
ByLayer
370
18
48
1
60
0
100
AcDbSpline
70
4
71
5
72
12
73
6
40
0
40
0
40
0
40
0
40
0
40
0
40
1
40
1
40
1
40
1
40
1
40
1
41
1
10
22.816760279665
20
24.9777709276674
30
0
41
1
10
22.792354778831
20
24.9730424540674
30
0
41
1
10
22.7679831845839
20
24.9638166969774
30
0
41
1
10
22.7468828026438
20
24.9506799147774
30
0
41
1
10
22.7321232696638
20
24.9355432172374
30
0
41
1
10
22.7246320698823
20
24.9204132844274
30
0
0
SPLINE
5
14A
100
AcDbEntity
8
1
62
256
6
ByLayer
370
18
48
1
60
0
100
AcDbSpline
70
4
71
5
72
12
73
6
40
0
40
0
40
0
40
0
40
0
40
0
40
1
40
1
40
1
40
1
40
1
40
1
41
1
10
22.755150122059
20
24.9204132842574
30
0
41
1
10
22.7470663214167
20
24.9204132843174
30
0
41
1
10
22.7398152797265
20
24.9204132844374
30
0
41
1
10
22.7335766027553
20
24.9204132843474
30
0
41
1
10
22.7284890449645
20
24.9204132843674
30
0
41
1
10
22.7246320698823
20
24.9204132844274
30
0
0
SPLINE
5
14B
100
AcDbEntity
8
1
62
256
6
ByLayer
370
18
48
1
60
0
100
AcDbSpline
70
4
71
5
72
12
73
6
40
0
40
0
40
0
40
0
40
0
40
0
40
1
40
1
40
1
40
1
40
1
40
1
41
1
10
21.1657578488512
20
24.9777709279074
30
0
41
1
10
21.1797458254022
20
24.9693488446974
30
0
41
1
10
21.1937561439105
20
24.9587580582674
30
0
41
1
10
21.2069042909686
20
24.9465262137674
30
0
41
1
10
21.2183130305877
20
24.9334694112874
30
0
41
1
10
21.2274122258871
20
24.9204132842574
30
0
0
SPLINE
5
14C
100
AcDbEntity
8
1
62
256
6
ByLayer
370
18
48
1
60
0
100
AcDbSpline
70
4
71
5
72
12
73
6
40
0
40
0
40
0
40
0
40
0
40
0
40
1
40
1
40
1
40
1
40
1
40
1
41
1
10
21.0907300403313
20
24.8178276267974
30
0
41
1
10
21.1003839929459
20
24.8178276261774
30
0
41
1
10
21.1098378916513
20
24.8178276275774
30
0
41
1
10
21.1188992008841
20
24.8178276261774
30
0
41
1
10
21.1273835461622
20
24.8178276270774
30
0
41
1
10
21.1351356670395
20
24.8178276268874
30
0
0
SPLINE
5
14D
100
AcDbEntity
8
1
62
256
6
ByLayer
370
18
48
1
60
0
100
AcDbSpline
70
4
71
8
72
18
73
9
40
0
40
0
40
0
40
0
40
0
40
0
40
0
40
0
40
0
40
1
40
1
40
1
40
1
40
1
40
1
40
1
40
1
40
1
41
1
10
21.1351356646085
20
24.8178276277674
30
0
41
1
10
21.1294486158176
20
24.8259877827174
30
0
41
1
10
21.1229365699778
20
24.8341479372974
30
0
41
1
10
21.1157019411571
20
24.8421611414674
30
0
41
1
10
21.1078679433172
20
24.8498804435574
30
0
41
1
10
21.099574719112
20
24.8571644481474
30
0
41
1
10
21.0909741462235
20
24.8638828816774
30
0
41
1
10
21.0822238575291
20
24.8699214206774
30
0
41
1
10
21.0734812927497
20
24.8751852714074
30
0
0
SPLINE
5
14E
100
AcDbEntity
8
1
62
256
6
ByLayer
370
18
48
1
60
0
100
AcDbSpline
70
4
71
5
72
12
73
6
40
0
40
0
40
0
40
0
40
0
40
0
40
1
40
1
40
1
40
1
40
1
40
1
41
1
10
22.8167602797001
20
24.9777709279074
30
0
41
1
10
22.8026899632866
20
24.9693488446974
30
0
41
1
10
22.7886405370897
20
24.9587580582674
30
0
41
1
10
22.7755018200838
20
24.9465262137674
30
0
41
1
10
22.7641504190669
20
24.9334694112874
30
0
41
1
10
22.755150122059
20
24.9204132842574
30
0
0
SPLINE
5
14F
100
AcDbEntity
8
1
62
256
6
ByLayer
370
18
48
1
60
0
100
AcDbSpline
70
4
71
8
72
18
73
9
40
0
40
0
40
0
40
0
40
0
40
0
40
0
40
0
40
0
40
1
40
1
40
1
40
1
40
1
40
1
40
1
40
1
40
1
41
1
10
22.846423737989
20
24.8178276277674
30
0
41
1
10
22.8520489747729
20
24.8259877827174
30
0
41
1
10
22.858514059078
20
24.8341479372974
30
0
41
1
10
22.8657176899564
20
24.8421611414674
30
0
41
1
10
22.8735373921876
20
24.8498804435574
30
0
41
1
10
22.8818333453401
20
24.8571644481474
30
0
41
1
10
22.8904535589449
20
24.8638828816774
30
0
41
1
10
22.8992398628237
20
24.8699214206774
30
0
41
1
10
22.9080338904934
20
24.8751852714074
30
0
0
SPLINE
5
150
100
AcDbEntity
8
1
62
256
6
ByLayer
370
18
48
1
60
0
100
AcDbSpline
70
4
71
5
72
12
73
6
40
0
40
0
40
0
40
0
40
0
40
0
40
1
40
1
40
1
40
1
40
1
40
1
41
1
10
22.8905538457618
20
24.8178276267974
30
0
41
1
10
22.8809236323614
20
24.8178276261774
30
0
41
1
10
22.8715099489937
20
24.8178276275774
30
0
41
1
10
22.8625048589987
20
24.8178276261774
30
0
41
1
10
22.8540915996115
20
24.8178276270774
30
0
41
1
10
22.8464237355321
20
24.8178276268874
30
0
0
SPLINE
5
151
100
AcDbEntity
8
1
62
256
6
ByLayer
370
18
48
1
60
0
100
AcDbSpline
70
4
71
5
72
12
73
6
40
0
40
0
40
0
40
0
40
0
40
0
40
1
40
1
40
1
40
1
40
1
40
1
41
1
10
21.0907300399439
20
24.8178276277474
30
0
41
1
10
21.0877290147912
20
24.8301005883074
30
0
41
1
10
21.0843947196999
20
24.8423736420274
30
0
41
1
10
21.0808269706882
20
24.8542375972974
30
0
41
1
10
21.077148392843
20
24.8652845513974
30
0
41
1
10
21.0734812939085
20
24.8751852713774
30
0
0
SPLINE
5
152
100
AcDbEntity
8
1
62
256
6
ByLayer
370
18
48
1
60
0
100
AcDbSpline
70
4
71
2
72
6
73
3
40
0
40
0
40
0
40
1
40
1
40
1
41
1
10
24.1253040640058
20
26.6742947579382
30
0
41
1
10
24.0338253721087
20
26.6072684892339
30
0
41
1
10
23.9499949602276
20
26.5226210950035
30
0
0
SPLINE
5
153
100
AcDbEntity
8
1
62
256
6
ByLayer
370
18
48
1
60
0
100
AcDbSpline
70
4
71
5
72
12
73
6
40
0
40
0
40
0
40
0
40
0
40
0
40
1
40
1
40
1
40
1
40
1
40
1
41
1
10
23.3090196103359
20
26.1431663221774
30
0
41
1
10
23.4249719493481
20
26.1429868290874
30
0
41
1
10
23.540308307952
20
26.1738312313974
30
0
41
1
10
23.6393478649431
20
26.2290444684474
30
0
41
1
10
23.7250702005086
20
26.2953341276974
30
0
41
1
10
23.7981848948143
20
26.3692633481174
30
0
0
SPLINE
5
154
100
AcDbEntity
8
1
62
256
6
ByLayer
370
18
48
1
60
0
100
AcDbSpline
70
4
71
5
72
12
73
6
40
0
40
0
40
0
40
0
40
0
40
0
40
1
40
1
40
1
40
1
40
1
40
1
41
1
10
20.684892209748
20
26.1431663221774
30
0
41
1
10
20.5689381262139
20
26.1429868290874
30
0
41
1
10
20.4539033002579
20
26.1738312313974
30
0
41
1
10
20.3554035616196
20
26.2290444684474
30
0
41
1
10
20.2703293202785
20
26.2953341276974
30
0
41
1
10
20.1979374028642
20
26.3692633481174
30
0
0
SPLINE
5
155
100
AcDbEntity
8
1
62
256
6
ByLayer
370
18
48
1
60
0
100
AcDbSpline
70
4
71
3
72
20
73
16
40
0
40
0
40
0
40
0
40
0.0728250660510236
40
0.146312952644049
40
0.220469580918004
40
0.295300696636171
40
0.370811875033006
40
0.447008525573669
40
0.523895896630372
40
0.60147908006503
40
0.679763015719427
40
0.7587524958103
40
0.838452169223705
40
0.918866545713849
40
1
40
1
40
1
40
1
41
1
10
19.8738032748648
20
26.6742917666869
30
0
41
1
10
19.8783743981592
20
26.670894160742
30
0
41
1
10
19.8875582490279
20
26.6640680253922
30
0
41
1
10
19.9011849544508
20
26.6535940364131
30
0
41
1
10
19.9147788598734
20
26.6428904899968
30
0
41
1
10
19.9283222316081
20
26.6319434450283
30
0
41
1
10
19.9418168667468
20
26.6207566873215
30
0
41
1
10
19.9552592463282
20
26.6093291921871
30
0
41
1
10
19.9686472527579
20
26.5976612249292
30
0
41
1
10
19.9819784657397
20
26.5857527629677
30
0
41
1
10
19.9952501718945
20
26.5736036253363
30
0
41
1
10
20.0084610789489
20
26.5612145687911
30
0
41
1
10
20.0216043586418
20
26.5485827109274
30
0
41
1
10
20.0346940929165
20
26.5357189592333
30
0
41
1
10
20.0433030348084
20
26.5269999863032
30
0
41
1
10
20.0476266657113
20
26.5226210949974
30
0
0
SPLINE
5
156
100
AcDbEntity
8
1
62
256
6
ByLayer
370
13
48
1
60
0
100
AcDbSpline
70
4
71
5
72
12
73
6
40
0
40
0
40
0
40
0
40
0
40
0
40
1
40
1
40
1
40
1
40
1
40
1
41
1
10
21.2184541197342
20
25.1894771962074
30
0
41
1
10
21.2096872566151
20
25.1468502317674
30
0
41
1
10
21.200050084467
20
25.1043457737374
30
0
41
1
10
21.1895283675665
20
25.0619830559074
30
0
41
1
10
21.1781046930266
20
25.0197832650974
30
0
41
1
10
21.1657578488849
20
24.9777709283574
30
0
0
SPLINE
5
157
100
AcDbEntity
8
1
62
256
6
ByLayer
370
18
48
1
60
0
100
AcDbSpline
70
4
71
5
72
22
73
16
40
0
40
0
40
0
40
0
40
0
40
0
40
0.333333333333333
40
0.333333333333333
40
0.333333333333333
40
0.333333333333333
40
0.333333333333333
40
0.666666666666667
40
0.666666666666667
40
0.666666666666667
40
0.666666666666667
40
0.666666666666667
40
1
40
1
40
1
40
1
40
1
40
1
41
1
10
21.2186395187714
20
25.1895803797474
30
0
41
1
10
21.2316012969566
20
25.2564404896774
30
0
41
1
10
21.2553014711652
20
25.3220607728474
30
0
41
1
10
21.2866383880367
20
25.3862656985674
30
0
41
1
10
21.3296399185422
20
25.4450009652374
30
0
41
1
10
21.3902753381323
20
25.4915884251473
30
0
41
1
10
21.4056988145229
20
25.5034386043474
30
0
41
1
10
21.4222943604888
20
25.5143829213074
30
0
41
1
10
21.4399870390587
20
25.5241167617574
30
0
41
1
10
21.4586122442069
20
25.5323740367574
30
0
41
1
10
21.4783022329384
20
25.5388022793851
30
0
41
1
10
21.4871997497744
20
25.5417070752074
30
0
41
1
10
21.4962040564839
20
25.5443319039874
30
0
41
1
10
21.5054712087129
20
25.5465236109874
30
0
41
1
10
21.514827596232
20
25.5480723407174
30
0
41
1
10
21.5242630776118
20
25.5494018151074
30
0
0
SPLINE
5
158
100
AcDbEntity
8
1
62
256
6
ByLayer
370
18
48
1
60
0
100
AcDbSpline
70
4
71
5
72
19
73
13
40
0
40
0
40
0
40
0
40
0
40
0
40
0.44522345479053
40
0.44522345479053
40
0.44522345479053
40
0.55477654520947
40
0.55477654520947
40
0.55477654520947
40
0.55477654520947
40
1
40
1
40
1
40
1
40
1
40
1
41
1
10
21.5242589810469
20
25.5494042980574
30
0
41
1
10
21.5440772501385
20
25.5520587706674
30
0
41
1
10
21.5639637457275
20
25.5543415019174
30
0
41
1
10
21.5838989946321
20
25.5563353762374
30
0
41
1
10
21.6087892134778
20
25.5584288849074
30
0
41
1
10
21.6337286776399
20
25.5600101437474
30
0
41
1
10
21.6386553134805
20
25.5603020395574
30
0
41
1
10
21.6435835770289
20
25.5605733758574
30
0
41
1
10
21.6636210859441
20
25.5615547033374
30
0
41
1
10
21.6787332357769
20
25.5621641695074
30
0
41
1
10
21.693866414345
20
25.5625325760374
30
0
41
1
10
21.7089938104398
20
25.5626854662874
30
0
41
1
10
21.7241242894385
20
25.5627184563674
30
0
0
SPLINE
5
159
100
AcDbEntity
8
1
62
256
6
ByLayer
370
18
48
1
60
0
100
AcDbSpline
70
4
71
5
72
19
73
13
40
0
40
0
40
0
40
0
40
0
40
0
40
0.44522345479053
40
0.44522345479053
40
0.44522345479053
40
0.55477654520947
40
0.55477654520947
40
0.55477654520947
40
0.55477654520947
40
1
40
1
40
1
40
1
40
1
40
1
41
1
10
22.4638478138518
20
25.5494042980574
30
0
41
1
10
22.444055496637
20
25.5520587706674
30
0
41
1
10
22.4241913185135
20
25.5543415019174
30
0
41
1
10
22.4042755632567
20
25.5563353762374
30
0
41
1
10
22.3794058118073
20
25.5584288849074
30
0
41
1
10
22.3544818070326
20
25.5600101437474
30
0
41
1
10
22.3495580249547
20
25.5603020395574
30
0
41
1
10
22.3446324141689
20
25.5605733758574
30
0
41
1
10
22.324604499362
20
25.5615547033374
30
0
41
1
10
22.3094983080744
20
25.5621641695074
30
0
41
1
10
22.2943687312925
20
25.5625325760374
30
0
41
1
10
22.2792428299548
20
25.5626854662874
30
0
41
1
10
22.2641126734898
20
25.5627184563674
30
0
0
SPLINE
5
15A
100
AcDbEntity
8
1
62
256
6
ByLayer
370
18
48
1
60
0
100
AcDbSpline
70
4
71
5
72
22
73
16
40
0
40
0
40
0
40
0
40
0
40
0
40
0.333333333333333
40
0.333333333333333
40
0.333333333333333
40
0.333333333333333
40
0.333333333333333
40
0.666666666666667
40
0.666666666666667
40
0.666666666666667
40
0.666666666666667
40
0.666666666666667
40
1
40
1
40
1
40
1
40
1
40
1
41
1
10
22.7659493992362
20
25.1895803797474
30
0
41
1
10
22.7536412897577
20
25.2564404896774
30
0
41
1
10
22.730582662889
20
25.3220607728474
30
0
41
1
10
22.6998734558858
20
25.3862656985674
30
0
41
1
10
22.6574461602402
20
25.4450009652374
30
0
41
1
10
22.597266210515
20
25.4915884251473
30
0
41
1
10
22.5819585893253
20
25.5034386043474
30
0
41
1
10
22.5654700422809
20
25.5143829213074
30
0
41
1
10
22.5478725286069
20
25.5241167617574
30
0
41
1
10
22.5293280519201
20
25.5323740367574
30
0
41
1
10
22.5097009097868
20
25.5388022793851
30
0
41
1
10
22.5008317920866
20
25.5417070752074
30
0
41
1
10
22.4918531473586
20
25.5443319039874
30
0
41
1
10
22.4826074226744
20
25.5465236109874
30
0
41
1
10
22.4732661765687
20
25.5480723407174
30
0
41
1
10
22.463843693009
20
25.5494018151074
30
0
0
SPLINE
5
15B
100
AcDbEntity
8
1
62
256
6
ByLayer
370
13
48
1
60
0
100
AcDbSpline
70
4
71
5
72
12
73
6
40
0
40
0
40
0
40
0
40
0
40
0
40
1
40
1
40
1
40
1
40
1
40
1
41
1
10
22.7661337894812
20
25.1894771962074
30
0
41
1
10
22.7744839031713
20
25.1468502317674
30
0
41
1
10
22.7837055235906
20
25.1043457737374
30
0
41
1
10
22.7938130745111
20
25.0619830559074
30
0
41
1
10
22.8048241759502
20
25.0197832650974
30
0
41
1
10
22.8167602796658
20
24.9777709283574
30
0
0
SPLINE
5
15C
100
AcDbEntity
8
1
62
256
6
ByLayer
370
18
48
1
60
0
100
AcDbSpline
70
4
71
5
72
12
73
6
40
0
40
0
40
0
40
0
40
0
40
0
40
1
40
1
40
1
40
1
40
1
40
1
41
1
10
22.8905538461744
20
24.8178276277474
30
0
41
1
10
22.8935474925663
20
24.8301005883074
30
0
41
1
10
22.8969018859724
20
24.8423736420274
30
0
41
1
10
22.9005174769036
20
24.8542375972974
30
0
41
1
10
22.9042699953253
20
24.8652845513974
30
0
41
1
10
22.9080338893343
20
24.8751852713774
30
0
0
SPLINE
5
15D
100
AcDbEntity
8
1
62
256
6
ByLayer
370
18
48
1
60
0
100
AcDbSpline
70
4
71
5
72
12
73
6
40
0
40
0
40
0
40
0
40
0
40
0
40
1
40
1
40
1
40
1
40
1
40
1
41
1
10
19.8811677379304
20
24.5136014916974
30
0
41
1
10
19.8781668130743
20
24.5258739898174
30
0
41
1
10
19.8748326502223
20
24.5381464631974
30
0
41
1
10
19.8712650211911
20
24.5500099480374
30
0
41
1
10
19.8675866478166
20
24.5610563796574
30
0
41
1
10
19.8639197108944
20
24.5709566357074
30
0
0
SPLINE
5
15E
100
AcDbEntity
8
1
62
256
6
ByLayer
370
18
48
1
60
0
100
AcDbSpline
70
4
71
5
72
12
73
6
40
0
40
0
40
0
40
0
40
0
40
0
40
1
40
1
40
1
40
1
40
1
40
1
41
1
10
24.0971418320319
20
24.5136014916974
30
0
41
1
10
24.1001353819711
20
24.5258739898174
30
0
41
1
10
24.1034896465628
20
24.5381464631974
30
0
41
1
10
24.1071051186403
20
24.5500099480374
30
0
41
1
10
24.1108574307408
20
24.5610563796574
30
0
41
1
10
24.114621160914
20
24.5709566357074
30
0
0
SPLINE
5
15F
100
AcDbEntity
8
1
62
256
6
ByLayer
370
13
48
1
60
0
100
AcDbSpline
70
4
71
5
72
12
73
6
40
0
40
0
40
0
40
0
40
0
40
0
40
1
40
1
40
1
40
1
40
1
40
1
41
1
10
19.8629917845549
20
24.5709088156939
30
0
41
1
10
19.8649838413004
20
24.9915864162247
30
0
41
1
10
19.8669815477696
20
25.4122640173462
30
0
41
1
10
19.8689828050658
20
25.8329416186869
30
0
41
1
10
19.8709871234421
20
26.2536192202462
30
0
41
1
10
19.87299403152
20
26.6742968220399
30
0
0
SPLINE
5
160
100
AcDbEntity
8
1
62
256
6
ByLayer
370
18
48
1
60
0
100
AcDbSpline
70
4
71
3
72
28
73
24
40
0
40
0
40
0
40
0
40
0.0551217751837246
40
0.109310996196116
40
0.162590498173854
40
0.214984306375475
40
0.266517685330291
40
0.317217186271689
40
0.367110691993146
40
0.416227458147443
40
0.464598149886772
40
0.512254872642612
40
0.559231195735981
40
0.60556216744295
40
0.651284320092152
40
0.696435663775863
40
0.741055667297449
40
0.78518522509112
40
0.82886660903087
40
0.872143404281963
40
0.915060428682915
40
0.957663635517032
40
1
40
1
40
1
40
1
41
1
10
19.8738101707624
20
26.6743042712676
30
0
41
1
10
19.8709334423211
20
26.6763867932255
30
0
41
1
10
19.8652286541378
20
26.6805166048846
30
0
41
1
10
19.8565565270261
20
26.6863892635618
30
0
41
1
10
19.847895539509
20
26.6919560220555
30
0
41
1
10
19.8392344168985
20
26.6971986019218
30
0
41
1
10
19.8305784003653
20
26.7021217550319
30
0
41
1
10
19.8219284178724
20
26.7067242336686
30
0
41
1
10
19.8132865260548
20
26.7110063750864
30
0
41
1
10
19.8046544878432
20
26.7149681191678
30
0
41
1
10
19.7960341442408
20
26.718609526581
30
0
41
1
10
19.787427317037
20
26.7219306433323
30
0
41
1
10
19.7788358342469
20
26.7249315358891
30
0
41
1
10
19.7702615235033
20
26.7276122834735
30
0
41
1
10
19.7617062137058
20
26.7299729753776
30
0
41
1
10
19.7531717350494
20
26.7320137301142
30
0
41
1
10
19.7446599174533
20
26.7337346245745
30
0
41
1
10
19.736172596683
20
26.7351359563567
30
0
41
1
10
19.7277115914702
20
26.7362172827402
30
0
41
1
10
19.7192787870129
20
26.736980956929
30
0
41
1
10
19.7108758264144
20
26.7374191116469
30
0
41
1
10
19.7025052466711
20
26.7375616552579
30
0
41
1
10
19.6969305176142
20
26.7373860918579
30
0
41
1
10
19.6941519097454
20
26.737298585929
30
0
0
SPLINE
5
161
100
AcDbEntity
8
1
62
256
6
ByLayer
370
18
48
1
60
0
100
AcDbSpline
70
4
71
5
72
12
73
6
40
0
40
0
40
0
40
0
40
0
40
0
40
1
40
1
40
1
40
1
40
1
40
1
41
1
10
19.6941501935172
20
26.737328784283
30
0
41
1
10
19.6700503545026
20
26.7240679046623
30
0
41
1
10
19.6469175430266
20
26.7089012244645
30
0
41
1
10
19.6248735492786
20
26.6921209845708
30
0
41
1
10
19.6039891311301
20
26.6740638290899
30
0
41
1
10
19.5842792683963
20
26.6550758951374
30
0
0
SPLINE
5
162
100
AcDbEntity
8
1
62
256
6
ByLayer
370
13
48
1
60
0
100
AcDbSpline
70
4
71
3
72
36
73
32
40
0
40
0
40
0
40
0
40
0.0398968292395701
40
0.0793541845670503
40
0.118376725289987
40
0.156969269094873
40
0.195136797122014
40
0.232884459177005
40
0.270217579058543
40
0.307141659992062
40
0.343662390140478
40
0.379785648174533
40
0.415517508877517
40
0.450864248755116
40
0.485832351619379
40
0.520428514111906
40
0.554659651133182
40
0.588532901132835
40
0.622055631215828
40
0.655235442025622
40
0.688080172341182
40
0.720597903345811
40
0.752796962499225
40
0.784685926962306
40
0.816273626506275
40
0.847569145842097
40
0.87858182630439
40
0.909321266824158
40
0.939797324119307
40
0.97002011203984
40
1
40
1
40
1
40
1
41
1
10
19.5732322549505
20
24.3938737783501
30
0
41
1
10
19.5764022248016
20
24.3972186479659
30
0
41
1
10
19.5827072464642
20
24.403871542592
30
0
41
1
10
19.5923303278127
20
24.4135830786179
30
0
41
1
10
19.602003748398
20
24.4230267940243
30
0
41
1
10
19.6117391419233
20
24.4321879010592
30
0
41
1
10
19.6215286425709
20
24.4410702255607
30
0
41
1
10
19.631369555218
20
24.4496727435949
30
0
41
1
10
19.6412578559209
20
24.4579957636921
30
0
41
1
10
19.6511899064678
20
24.4660392966096
30
0
41
1
10
19.6611620041996
20
24.4738034839346
30
0
41
1
10
19.6711705022538
20
24.4812884841133
30
0
41
1
10
19.6812117794163
20
24.4884945014765
30
0
41
1
10
19.6912822495476
20
24.4954217775857
30
0
41
1
10
19.7013783605181
20
24.5020705925158
30
0
41
1
10
19.7114965958506
20
24.5084412635259
30
0
41
1
10
19.72163347559
20
24.5145341444241
30
0
41
1
10
19.7317855573186
20
24.5203496247637
30
0
41
1
10
19.741949437082
20
24.5258881290657
30
0
41
1
10
19.7521217502628
20
24.5311501161402
30
0
41
1
10
19.762299172487
20
24.5361360780296
30
0
41
1
10
19.7724784202037
20
24.5408465403919
30
0
41
1
10
19.7826562522637
20
24.5452820576152
30
0
41
1
10
19.7928294676449
20
24.5494432273549
30
0
41
1
10
19.8029949171533
20
24.5533306336584
30
0
41
1
10
19.8131494635288
20
24.556945052892
30
0
41
1
10
19.8232901312636
20
24.5602866924631
30
0
41
1
10
19.8334135577928
20
24.5633579905418
30
0
41
1
10
19.8435180175292
20
24.5661533008054
30
0
41
1
10
19.8535959665857
20
24.5686968969094
30
0
41
1
10
19.8603327277341
20
24.5701733373229
30
0
41
1
10
19.8636875178906
20
24.5709085790299
30
0
0
SPLINE
5
163
100
AcDbEntity
8
1
62
256
6
ByLayer
370
13
48
1
60
0
100
AcDbSpline
70
4
71
5
72
12
73
6
40
0
40
0
40
0
40
0
40
0
40
0
40
1
40
1
40
1
40
1
40
1
40
1
41
1
10
19.8811683084077
20
24.5135991586874
30
0
41
1
10
19.8241812138587
20
24.4992977822574
30
0
41
1
10
19.7699361924696
20
24.4713851445374
30
0
41
1
10
19.7214959823832
20
24.4341293210774
30
0
41
1
10
19.6778474611438
20
24.3911349823974
30
0
41
1
10
19.6388147596608
20
24.3436784889874
30
0
0
SPLINE
5
164
100
AcDbEntity
8
1
62
256
6
ByLayer
370
18
48
1
60
0
100
AcDbSpline
70
4
71
5
72
12
73
6
40
0
40
0
40
0
40
0
40
0
40
0
40
1
40
1
40
1
40
1
40
1
40
1
41
1
10
19.6388044794414
20
24.3436871938374
30
0
41
1
10
19.6251834368528
20
24.3552188691974
30
0
41
1
10
19.6108874681839
20
24.3667507548674
30
0
41
1
10
19.596835390164
20
24.3775033300974
30
0
41
1
10
19.5840365634991
20
24.3867042516474
30
0
41
1
10
19.5732167718321
20
24.3938745660674
30
0
0
SPLINE
5
165
100
AcDbEntity
8
1
62
256
6
ByLayer
370
13
48
1
60
0
100
AcDbSpline
70
4
71
5
72
12
73
6
40
0
40
0
40
0
40
0
40
0
40
0
40
1
40
1
40
1
40
1
40
1
40
1
41
1
10
19.638804172608
20
24.3436868211095
30
0
41
1
10
19.5682922694486
20
24.2580317993391
30
0
41
1
10
19.4905525054899
20
24.1781791467916
30
0
41
1
10
19.4046986683038
20
24.1061183128661
30
0
41
1
10
19.3091021939685
20
24.0454014338855
30
0
41
1
10
19.205622428734
20
24.0029123788394
30
0
0
SPLINE
5
166
100
AcDbEntity
8
1
62
256
6
ByLayer
370
13
48
1
60
0
100
AcDbSpline
70
4
71
5
72
12
73
6
40
0
40
0
40
0
40
0
40
0
40
0
40
1
40
1
40
1
40
1
40
1
40
1
41
1
10
24.4048613630341
20
24.3938663233474
30
0
41
1
10
24.3581353843521
20
24.4437653420494
30
0
41
1
10
24.3058916339243
20
24.4888392270151
30
0
41
1
10
24.2479276345664
20
24.527726363603
30
0
41
1
10
24.1830275937873
20
24.5565789533672
30
0
41
1
10
24.1148529738461
20
24.5709079833197
30
0
0
SPLINE
5
167
100
AcDbEntity
8
1
62
256
6
ByLayer
370
18
48
1
60
0
100
AcDbSpline
70
4
71
5
72
12
73
6
40
0
40
0
40
0
40
0
40
0
40
0
40
1
40
1
40
1
40
1
40
1
40
1
41
1
10
24.3060447976623
20
26.737328784283
30
0
41
1
10
24.3301446275837
20
26.7240679046623
30
0
41
1
10
24.3532774036017
20
26.7089012244645
30
0
41
1
10
24.375321341113
20
26.6921209845708
30
0
41
1
10
24.3962057256587
20
26.6740638290899
30
0
41
1
10
24.4159156859556
20
26.6550758951374
30
0
0
SPLINE
5
168
100
AcDbEntity
8
1
62
256
6
ByLayer
370
18
48
1
60
0
100
AcDbSpline
70
4
71
3
72
27
73
23
40
0
40
0
40
0
40
0
40
0.0578302361332241
40
0.114602197772344
40
0.170346760506911
40
0.225096554752464
40
0.278886038038914
40
0.331751562498442
40
0.383731435666911
40
0.434865972492551
40
0.485197536228842
40
0.534770565726612
40
0.58363158652265
40
0.631829203110811
40
0.679414069851039
40
0.726438838202511
40
0.772958078314348
40
0.81902817354015
40
0.864707187115895
40
0.910054701061544
40
0.955131628300758
40
1
40
1
40
1
40
1
41
1
10
24.1252943544227
20
26.6743040765423
30
0
41
1
10
24.1283344705116
20
26.6764869898794
30
0
41
1
10
24.1343590695546
20
26.6808128699503
30
0
41
1
10
24.1435163919815
20
26.6869505025785
30
0
41
1
10
24.1526542383585
20
26.6927512492806
30
0
41
1
10
24.1617859196433
20
26.6981954590204
30
0
41
1
10
24.1709069730613
20
26.703288233345
30
0
41
1
10
24.1800175802299
20
26.7080282154903
30
0
41
1
10
24.1891167204441
20
26.7124157292698
30
0
41
1
10
24.1982036953687
20
26.7164506555389
30
0
41
1
10
24.2072777302665
20
26.7201329866224
30
0
41
1
10
24.2163380773104
20
26.723462681247
30
0
41
1
10
24.2253839876402
20
26.7264397042788
30
0
41
1
10
24.2344147178518
20
26.7290640114586
30
0
41
1
10
24.2434295270009
20
26.7313355739823
30
0
41
1
10
24.252427678004
20
26.7332543005159
30
0
41
1
10
24.2614084313188
20
26.7348203250312
30
0
41
1
10
24.2703710655129
20
26.7360329549158
30
0
41
1
10
24.2793148003595
20
26.7368945472531
30
0
41
1
10
24.2882390800914
20
26.7373962252358
30
0
41
1
10
24.2971425283149
20
26.7375706392135
30
0
41
1
10
24.3030763797876
20
26.7373876897462
30
0
41
1
10
24.3060364261338
20
26.7372964271143
30
0
0
SPLINE
5
169
100
AcDbEntity
8
1
62
256
6
ByLayer
370
13
48
1
60
0
100
AcDbSpline
70
4
71
5
72
12
73
6
40
0
40
0
40
0
40
0
40
0
40
0
40
1
40
1
40
1
40
1
40
1
40
1
41
1
10
24.1155486027753
20
24.5709088156912
30
0
41
1
10
24.1176693705089
20
24.9915864162223
30
0
41
1
10
24.1197844885242
20
25.4122640173441
30
0
41
1
10
24.121896055717
20
25.832941618685
30
0
41
1
10
24.124004561833
20
26.2536192202445
30
0
41
1
10
24.1261104782489
20
26.6742968220384
30
0
0
SPLINE
5
16A
100
AcDbEntity
8
1
62
256
6
ByLayer
370
18
48
1
60
0
100
AcDbSpline
70
4
71
5
72
12
73
6
40
0
40
0
40
0
40
0
40
0
40
0
40
1
40
1
40
1
40
1
40
1
40
1
41
1
10
19.1792989311869
20
24.0600418419774
30
0
41
1
10
19.1845299658617
20
24.0503474817874
30
0
41
1
10
19.1899735910286
20
24.0393945487474
30
0
41
1
10
19.195437757053
20
24.0275382343774
30
0
41
1
10
19.200714566679
20
24.0152296397474
30
0
41
1
10
19.2056239212287
20
24.0029210733874
30
0
0
SPLINE
5
16B
100
AcDbEntity
8
1
62
256
6
ByLayer
370
13
48
1
60
0
100
AcDbSpline
70
4
71
5
72
12
73
6
40
0
40
0
40
0
40
0
40
0
40
0
40
1
40
1
40
1
40
1
40
1
40
1
41
1
10
19.170873918207
20
23.9982330272882
30
0
41
1
10
19.1692756052477
20
24.0104215087841
30
0
41
1
10
19.1676905253687
20
24.0226096226932
30
0
41
1
10
19.1661690603408
20
24.0344133648662
30
0
41
1
10
19.1647605765201
20
24.0454498836519
30
0
41
1
10
19.1635045751002
20
24.0554061514618
30
0
0
SPLINE
5
16C
100
AcDbEntity
8
1
62
256
6
ByLayer
370
18
48
1
60
0
100
AcDbSpline
70
4
71
8
72
18
73
9
40
0
40
0
40
0
40
0
40
0
40
0
40
0
40
0
40
0
40
1
40
1
40
1
40
1
40
1
40
1
40
1
40
1
40
1
41
1
10
18.6885096643024
20
15.0748110214974
30
0
41
1
10
18.6884790883097
20
15.0810659153174
30
0
41
1
10
18.688452322987
20
15.0877030119674
30
0
41
1
10
18.6884296399888
20
15.0946667391974
30
0
41
1
10
18.6884112635753
20
15.1018967700374
30
0
41
1
10
18.6883973655377
20
15.1093290603974
30
0
41
1
10
18.6883880616038
20
15.1168970341474
30
0
41
1
10
18.6883834096369
20
15.1245328496474
30
0
41
1
10
18.6883834096371
20
15.1321686651374
30
0
0
SPLINE
5
16D
100
AcDbEntity
8
1
62
256
6
ByLayer
370
13
48
1
60
0
100
AcDbSpline
70
4
71
5
72
12
73
6
40
0
40
0
40
0
40
0
40
0
40
0
40
1
40
1
40
1
40
1
40
1
40
1
41
1
10
19.0885125276944
20
24.0502018288337
30
0
41
1
10
19.0884640228281
20
24.0401977540523
30
0
41
1
10
19.0884260915787
20
24.0291251879952
30
0
41
1
10
19.0884002887411
20
24.017294563105
30
0
41
1
10
19.0883874760913
20
24.0050844057196
30
0
41
1
10
19.0883876739268
20
23.9928743252954
30
0
0
SPLINE
5
16E
100
AcDbEntity
8
1
62
256
6
ByLayer
370
18
48
1
60
0
100
AcDbSpline
70
4
71
8
72
18
73
9
40
0
40
0
40
0
40
0
40
0
40
0
40
0
40
0
40
0
40
1
40
1
40
1
40
1
40
1
40
1
40
1
40
1
40
1
41
1
10
18.6885096643024
20
24.0501889784974
30
0
41
1
10
18.6884790883097
20
24.0439340846774
30
0
41
1
10
18.688452322987
20
24.0372969880274
30
0
41
1
10
18.6884296399888
20
24.0303332607974
30
0
41
1
10
18.6884112635753
20
24.0231032299574
30
0
41
1
10
18.6883973655377
20
24.0156709395974
30
0
41
1
10
18.6883880616038
20
24.0081029658474
30
0
41
1
10
18.6883834096369
20
24.0004671503474
30
0
41
1
10
18.6883834096371
20
23.9928313348574
30
0
0
SPLINE
5
16F
100
AcDbEntity
8
1
62
256
6
ByLayer
370
13
48
1
60
0
100
AcDbSpline
70
4
71
5
72
12
73
6
40
0
40
0
40
0
40
0
40
0
40
0
40
1
40
1
40
1
40
1
40
1
40
1
41
1
10
19.1708756482081
20
23.9982091738533
30
0
41
1
10
19.1544698104428
20
23.9960512361994
30
0
41
1
10
19.1379908169426
20
23.9944254698981
30
0
41
1
10
19.1214638575887
20
23.9933461574956
30
0
41
1
10
19.1049181819178
20
23.9928257658706
30
0
41
1
10
19.0883876744927
20
23.9928743252937
30
0
0
SPLINE
5
170
100
AcDbEntity
8
1
62
256
6
ByLayer
370
18
48
1
60
0
100
AcDbSpline
70
4
71
5
72
12
73
6
40
0
40
0
40
0
40
0
40
0
40
0
40
1
40
1
40
1
40
1
40
1
40
1
41
1
10
19.2056213599869
20
24.0029205480049
30
0
41
1
10
19.1988098211827
20
24.0015233464903
30
0
41
1
10
19.191902122265
20
24.000345473573
30
0
41
1
10
19.1849261264629
20
23.99939981193
30
0
41
1
10
19.1779078642333
20
23.9986942166845
30
0
41
1
10
19.1708739181873
20
23.9982330272874
30
0
0
SPLINE
5
171
100
AcDbEntity
8
1
62
256
6
ByLayer
370
13
48
1
60
0
100
AcDbSpline
70
4
71
5
72
12
73
6
40
0
40
0
40
0
40
0
40
0
40
0
40
1
40
1
40
1
40
1
40
1
40
1
41
1
10
24.097141262957
20
24.5135991586874
30
0
41
1
10
24.1539882261247
20
24.4992977822574
30
0
41
1
10
24.208099858896
20
24.4713851445374
30
0
41
1
10
24.2564209544073
20
24.4341293210774
30
0
41
1
10
24.2999621438445
20
24.3911349823974
30
0
41
1
10
24.3388988638353
20
24.3436784889874
30
0
0
SPLINE
5
172
100
AcDbEntity
8
1
62
256
6
ByLayer
370
13
48
1
60
0
100
AcDbSpline
70
4
71
5
72
12
73
6
40
0
40
0
40
0
40
0
40
0
40
0
40
1
40
1
40
1
40
1
40
1
40
1
41
1
10
24.3389094248544
20
24.3436868211095
30
0
41
1
10
24.4092479391007
20
24.2580317993391
30
0
41
1
10
24.4867965408219
20
24.1781791467916
30
0
41
1
10
24.5724392632481
20
24.1061183128661
30
0
41
1
10
24.6678006656589
20
24.0454014338855
30
0
41
1
10
24.7710259739405
20
24.0029123788394
30
0
0
SPLINE
5
173
100
AcDbEntity
8
1
62
256
6
ByLayer
370
18
48
1
60
0
100
AcDbSpline
70
4
71
5
72
12
73
6
40
0
40
0
40
0
40
0
40
0
40
0
40
1
40
1
40
1
40
1
40
1
40
1
41
1
10
24.3389091187755
20
24.3436871938374
30
0
41
1
10
24.3524966681365
20
24.3552188691974
30
0
41
1
10
24.3668147729658
20
24.3667507548674
30
0
41
1
10
24.3809470377367
20
24.3775033300974
30
0
41
1
10
24.3938783419714
20
24.3867042516474
30
0
41
1
10
24.404871096455
20
24.3938745660674
30
0
0
SPLINE
5
174
100
AcDbEntity
8
1
62
256
6
ByLayer
370
18
48
1
60
0
100
AcDbSpline
70
4
71
5
72
12
73
6
40
0
40
0
40
0
40
0
40
0
40
0
40
1
40
1
40
1
40
1
40
1
40
1
41
1
10
24.7975854956898
20
24.0600418419774
30
0
41
1
10
24.7922514738539
20
24.0503474817874
30
0
41
1
10
24.7867299574801
20
24.0393945487474
30
0
41
1
10
24.7812168016806
20
24.0275382343774
30
0
41
1
10
24.7759217676412
20
24.0152296397474
30
0
41
1
10
24.7710244851176
20
24.0029210733874
30
0
0
SPLINE
5
175
100
AcDbEntity
8
1
62
256
6
ByLayer
370
13
48
1
60
0
100
AcDbSpline
70
4
71
5
72
12
73
6
40
0
40
0
40
0
40
0
40
0
40
0
40
1
40
1
40
1
40
1
40
1
40
1
41
1
10
24.8057320637426
20
23.9982330272874
30
0
41
1
10
24.8073304204591
20
24.0104222892821
30
0
41
1
10
24.8089419750144
20
24.0226116312662
30
0
41
1
10
24.8105163671468
20
24.0344169401067
30
0
41
1
10
24.8120025207802
20
24.0454552308199
30
0
41
1
10
24.8133578047798
20
24.0554133358145
30
0
0
SPLINE
5
176
100
AcDbEntity
8
1
62
256
6
ByLayer
370
18
48
1
60
0
100
AcDbSpline
70
4
71
5
72
12
73
6
40
0
40
0
40
0
40
0
40
0
40
0
40
1
40
1
40
1
40
1
40
1
40
1
41
1
10
24.7710270400616
20
24.0029205480049
30
0
41
1
10
24.777821830568
20
24.0015233464903
30
0
41
1
10
24.7847167684757
20
24.000345473573
30
0
41
1
10
24.7916841736991
20
23.99939981193
30
0
41
1
10
24.7986981175579
20
23.9986942166845
30
0
41
1
10
24.8057320637426
20
23.9982330272874
30
0
0
SPLINE
5
177
100
AcDbEntity
8
1
62
256
6
ByLayer
370
13
48
1
60
0
100
AcDbSpline
70
4
71
5
72
12
73
6
40
0
40
0
40
0
40
0
40
0
40
0
40
1
40
1
40
1
40
1
40
1
40
1
41
1
10
24.8057303337215
20
23.9982091738533
30
0
41
1
10
24.8221361714869
20
23.9960512361994
30
0
41
1
10
24.8386151649872
20
23.9944254698981
30
0
41
1
10
24.855142124341
20
23.9933461574956
30
0
41
1
10
24.8716878000119
20
23.9928257658706
30
0
41
1
10
24.8882183074371
20
23.9928743252937
30
0
0
SPLINE
5
178
100
AcDbEntity
8
1
62
256
6
ByLayer
370
18
48
1
60
0
100
AcDbSpline
70
4
71
8
72
18
73
9
40
0
40
0
40
0
40
0
40
0
40
0
40
0
40
0
40
0
40
1
40
1
40
1
40
1
40
1
40
1
40
1
40
1
40
1
41
1
10
25.288348826958
20
24.0501889784974
30
0
41
1
10
25.2883182509654
20
24.0439340846774
30
0
41
1
10
25.2882914856426
20
24.0372969880274
30
0
41
1
10
25.2882688026444
20
24.0303332607974
30
0
41
1
10
25.2882504262309
20
24.0231032299574
30
0
41
1
10
25.2882365281934
20
24.0156709395974
30
0
41
1
10
25.2882272242594
20
24.0081029658474
30
0
41
1
10
25.2882225722925
20
24.0004671503474
30
0
41
1
10
25.2882225722927
20
23.9928313348574
30
0
0
SPLINE
5
179
100
AcDbEntity
8
1
62
256
6
ByLayer
370
13
48
1
60
0
100
AcDbSpline
70
4
71
3
72
10
73
6
40
0
40
0
40
0
40
0
40
0.5
40
0.5
40
1
40
1
40
1
40
1
41
1
10
24.8883458731154
20
24.0501889784958
30
0
41
1
10
24.8883049153265
20
24.0418549893007
30
0
41
1
10
24.8882729107418
20
24.032624798714
30
0
41
1
10
24.8882297282994
20
24.0132200302156
30
0
41
1
10
24.8882185565971
20
24.0030482465766
30
0
41
1
10
24.888218307572
20
23.9928743252841
30
0
0
SPLINE
5
17A
100
AcDbEntity
8
1
62
256
6
ByLayer
370
18
48
1
60
0
100
AcDbSpline
70
4
71
3
72
47
73
43
40
0
40
0
40
0
40
0
40
0.0287631811385916
40
0.0572730386984904
40
0.0855333248621916
40
0.113547892092579
40
0.141320695106515
40
0.168855792790749
40
0.196157350050451
40
0.2232296395771
40
0.250077043524567
40
0.276704055078765
40
0.303115279908241
40
0.329315437479633
40
0.355309362224347
40
0.381102004539335
40
0.406698431607127
40
0.432103828017722
40
0.457323496175984
40
0.482362856478167
40
0.507227447240125
40
0.531922924361885
40
0.556455060711604
40
0.5808297452138
40
0.605052981627911
40
0.629130887003362
40
0.653069689798173
40
0.676875727652688
40
0.700555444806972
40
0.724115389157114
40
0.747562208944516
40
0.770902649077737
40
0.794143547084662
40
0.817291828701857
40
0.84035450310408
40
0.86333865778588
40
0.886251453106098
40
0.909100116511901
40
0.931891936460801
40
0.954634256061622
40
0.977334466460853
40
1
40
1
40
1
40
1
41
1
10
19.5842766348727
20
26.6550790769335
30
0
41
1
10
19.5805040956454
20
26.6514720426611
30
0
41
1
10
19.5729922427627
20
26.64428974205
30
0
41
1
10
19.5615638740827
20
26.633786510893
30
0
41
1
10
19.5500838701604
20
26.6235433607958
30
0
41
1
10
19.5385394744314
20
26.6135760310029
30
0
41
1
10
19.5269368071276
20
26.6038806741442
30
0
41
1
10
19.5152769946142
20
26.5944586003805
30
0
41
1
10
19.5035624815596
20
26.5853097338366
30
0
41
1
10
19.4917953609836
20
26.5764343433615
30
0
41
1
10
19.4799778154651
20
26.5678325848562
30
0
41
1
10
19.4681119999254
20
26.5595046224728
30
0
41
1
10
19.4562000721468
20
26.5514505966804
30
0
41
1
10
19.4442441842098
20
26.5436706328479
30
0
41
1
10
19.4322464842793
20
26.5361648391086
30
0
41
1
10
19.4202091156577
20
26.5289333070627
30
0
41
1
10
19.4081342165686
20
26.5219761117312
30
0
41
1
10
19.396023919753
20
26.5152933117084
30
0
41
1
10
19.3838803521226
20
26.5088849492643
30
0
41
1
10
19.371705634403
20
26.5027510504607
30
0
41
1
10
19.359501880787
20
26.4968916252645
30
0
41
1
10
19.3472711985903
20
26.491306667663
30
0
41
1
10
19.3350156879126
20
26.4859961557793
30
0
41
1
10
19.3227374413034
20
26.4809600519873
30
0
41
1
10
19.3104385434307
20
26.4761983030282
30
0
41
1
10
19.2981210707552
20
26.4717108401265
30
0
41
1
10
19.2857870912067
20
26.4674975791057
30
0
41
1
10
19.2734386638654
20
26.4635584205072
30
0
41
1
10
19.2610778386451
20
26.4598932497009
30
0
41
1
10
19.2487066559805
20
26.4565019370245
30
0
41
1
10
19.2363271465167
20
26.4533843378212
30
0
41
1
10
19.2239413308012
20
26.4505402928555
30
0
41
1
10
19.2115512189781
20
26.4479696273326
30
0
41
1
10
19.1991588104895
20
26.4456721551006
30
0
41
1
10
19.1867660937545
20
26.4436476636303
30
0
41
1
10
19.1743750459457
20
26.441895970346
30
0
41
1
10
19.1619876324147
20
26.4404167140346
30
0
41
1
10
19.1496058074265
20
26.4392101303854
30
0
41
1
10
19.1372315100415
20
26.4382741700456
30
0
41
1
10
19.124866678055
20
26.4376152159973
30
0
41
1
10
19.1125131947657
20
26.4372082117547
30
0
41
1
10
19.1042810661722
20
26.437166090246
30
0
41
1
10
19.1001681481303
20
26.4371450455901
30
0
0
SPLINE
5
17B
100
AcDbEntity
8
1
62
256
6
ByLayer
370
13
48
1
60
0
100
AcDbSpline
70
4
71
3
72
14
73
10
40
0
40
0
40
0
40
0
40
0.141623314433696
40
0.28358705567074
40
0.425934098694697
40
0.568706973170328
40
0.711947829462673
40
0.855698406272954
40
1
40
1
40
1
40
1
41
1
10
19.0885127583732
20
24.0502178255919
30
0
41
1
10
19.092064939382
20
24.0502313839442
30
0
41
1
10
19.0991778399487
20
24.0502585332398
30
0
41
1
10
19.1098573347116
20
24.0505756505646
30
0
41
1
10
19.120557217225
20
24.0510957707251
30
0
41
1
10
19.1312764794009
20
24.0518378824282
30
0
41
1
10
19.1420131198615
20
24.0528021459458
30
0
41
1
10
19.1527685622867
20
24.0539711193339
30
0
41
1
10
19.1599293910872
20
24.0549331919249
30
0
41
1
10
19.1635166544859
20
24.0554151483979
30
0
0
SPLINE
5
17C
100
AcDbEntity
8
1
62
256
6
ByLayer
370
18
48
1
60
0
100
AcDbSpline
70
4
71
5
72
12
73
6
40
0
40
0
40
0
40
0
40
0
40
0
40
1
40
1
40
1
40
1
40
1
40
1
41
1
10
19.1792989358112
20
24.0600418333974
30
0
41
1
10
19.1762797501113
20
24.0587772708674
30
0
41
1
10
19.1732441369326
20
24.0575681469874
30
0
41
1
10
19.1700422986708
20
24.0565929367774
30
0
41
1
10
19.1667968859767
20
24.0559855957674
30
0
41
1
10
19.1635272138606
20
24.0554326750474
30
0
0
SPLINE
5
17D
100
AcDbEntity
8
1
62
256
6
ByLayer
370
13
48
1
60
0
100
AcDbSpline
70
4
71
3
72
42
73
38
40
0
40
0
40
0
40
0
40
0.0239696419765416
40
0.0481675123981314
40
0.0725984230559013
40
0.0972670493728672
40
0.122177932924635
40
0.147335484086434
40
0.172743984785089
40
0.198407591336175
40
0.224330337348629
40
0.25051613667962
40
0.276968786424665
40
0.303691969929362
40
0.330689259809418
40
0.357964120968713
40
0.385519913604878
40
0.413359896192899
40
0.441487228440065
40
0.469904974204432
40
0.498616104371286
40
0.527623499682292
40
0.556929953513172
40
0.586538174596064
40
0.616450789683646
40
0.646670346152962
40
0.677199314546158
40
0.708040091048133
40
0.739194999898233
40
0.770666295737456
40
0.802456165889336
40
0.834566732574851
40
0.867000055062397
40
0.899758131752291
40
0.932842902196982
40
0.966256249057944
40
1
40
1
40
1
40
1
41
1
10
19.1793039792685
20
24.0600333696942
30
0
41
1
10
19.1830902718903
20
24.0617462464486
30
0
41
1
10
19.1906989085558
20
24.0651883092204
30
0
41
1
10
19.2020480045727
20
24.0706351974771
30
0
41
1
10
19.2134161531253
20
24.0763198823214
30
0
41
1
10
19.2247932783088
20
24.082261966622
30
0
41
1
10
19.2361800682331
20
24.0884566570467
30
0
41
1
10
19.2475742604499
20
24.0949057795275
30
0
41
1
10
19.2589743704734
20
24.1016093472614
30
0
41
1
10
19.2703786781836
20
24.1085678530047
30
0
41
1
10
19.2817855036196
20
24.115781645438
30
0
41
1
10
19.2931931321565
20
24.1232510984649
30
0
41
1
10
19.3045998350465
20
24.1309765648627
30
0
41
1
10
19.3160038640344
20
24.1389583885857
30
0
41
1
10
19.3274034530343
20
24.1471969011133
30
0
41
1
10
19.338796817897
20
24.1556924221395
30
0
41
1
10
19.3501821567074
20
24.1644452590794
30
0
41
1
10
19.3615576499483
20
24.173455706899
30
0
41
1
10
19.372921460712
20
24.1827240478563
30
0
41
1
10
19.3842717349081
20
24.1922505512675
30
0
41
1
10
19.3956066014849
20
24.202035473266
30
0
41
1
10
19.4069241726567
20
24.2120790565647
30
0
41
1
10
19.4182225441406
20
24.2223815302177
30
0
41
1
10
19.4294997954026
20
24.2329431093818
30
0
41
1
10
19.4407539899032
20
24.2437639950866
30
0
41
1
10
19.4519831753945
20
24.2548443739704
30
0
41
1
10
19.4631853840545
20
24.2661844181531
30
0
41
1
10
19.474358633283
20
24.2777842845938
30
0
41
1
10
19.4855009240313
20
24.289644116404
30
0
41
1
10
19.4966102485149
20
24.3017640367579
30
0
41
1
10
19.5076845624199
20
24.3141441708562
30
0
41
1
10
19.5187218916738
20
24.3267845616056
30
0
41
1
10
19.5297199294369
20
24.3396854879821
30
0
41
1
10
19.5406775644313
20
24.3528462578357
30
0
41
1
10
19.5515890928645
20
24.3662697799464
30
0
41
1
10
19.562466145334
20
24.3799452439655
30
0
41
1
10
19.5696231338675
20
24.3892118103111
30
0
41
1
10
19.573219233855
20
24.3938678886273
30
0
0
SPLINE
5
17E
100
AcDbEntity
8
1
62
256
6
ByLayer
370
13
48
1
60
0
100
AcDbSpline
70
4
71
5
72
12
73
6
40
0
40
0
40
0
40
0
40
0
40
0
40
1
40
1
40
1
40
1
40
1
40
1
41
1
10
24.7975799997981
20
24.0600309728885
30
0
41
1
10
24.7037561465967
20
24.1020278821938
30
0
41
1
10
24.6170863826012
20
24.1616475440476
30
0
41
1
10
24.539254646601
20
24.232198298962
30
0
41
1
10
24.4687831365725
20
24.3102466236944
30
0
41
1
10
24.4048676451266
20
24.3938692912758
30
0
0
SPLINE
5
17F
100
AcDbEntity
8
1
62
256
6
ByLayer
370
18
48
1
60
0
100
AcDbSpline
70
4
71
5
72
12
73
6
40
0
40
0
40
0
40
0
40
0
40
0
40
1
40
1
40
1
40
1
40
1
40
1
41
1
10
24.7975854909744
20
24.0600418333974
30
0
41
1
10
24.8005969279889
20
24.0587772708674
30
0
41
1
10
24.8036253046315
20
24.0575681469874
30
0
41
1
10
24.8068221865335
20
24.0565929367774
30
0
41
1
10
24.8100659576187
20
24.0559855957674
30
0
41
1
10
24.813334501047
20
24.0554326750474
30
0
0
SPLINE
5
180
100
AcDbEntity
8
1
62
256
6
ByLayer
370
13
48
1
60
0
100
AcDbSpline
70
4
71
5
72
12
73
6
40
0
40
0
40
0
40
0
40
0
40
0
40
1
40
1
40
1
40
1
40
1
40
1
41
1
10
24.8883458870048
20
24.0502306832174
30
0
41
1
10
24.873315241479
20
24.0501835659112
30
0
41
1
10
24.8582709709601
20
24.0506885962271
30
0
41
1
10
24.8432438944424
20
24.0517360382283
30
0
41
1
10
24.8282606132615
20
24.053313790472
30
0
41
1
10
24.8133440348884
20
24.0554079888673
30
0
0
SPLINE
5
181
100
AcDbEntity
8
1
62
256
6
ByLayer
370
18
48
1
60
0
100
AcDbSpline
70
4
71
2
72
8
73
5
40
0
40
0
40
0
40
0.5
40
0.5
40
1
40
1
40
1
41
1
10
24.4159211965969
20
26.6550820305331
30
0
41
1
10
24.5213767168686
20
26.5534470863635
30
0
41
1
10
24.6375553357835
20
26.4982815444994
30
0
41
1
10
24.7665797080345
20
26.4370164040166
30
0
41
1
10
24.9000268062216
20
26.4371450455874
30
0
0
SPLINE
5
182
100
AcDbEntity
8
1
62
256
6
ByLayer
370
18
48
1
60
0
100
AcDbSpline
70
4
71
3
72
37
73
33
40
0
40
0
40
0
40
0
40
0.124999999999987
40
0.124999999999987
40
0.249999999999974
40
0.249999999999974
40
0.374999999999962
40
0.374999999999962
40
0.437499999999942
40
0.437499999999942
40
0.499999999999923
40
0.499999999999923
40
0.562499999999903
40
0.562499999999903
40
0.624999999999883
40
0.624999999999883
40
0.687499999999864
40
0.687499999999864
40
0.718749999999849
40
0.718749999999849
40
0.749999999999835
40
0.749999999999835
40
0.812499999999873
40
0.812499999999873
40
0.843749999999896
40
0.843749999999896
40
0.874999999999919
40
0.906249999999942
40
0.906249999999942
40
0.937499999999966
40
0.937499999999966
40
1
40
1
40
1
40
1
41
1
10
8.19309894841771
20
6.21249999999725
30
0
41
1
10
8.19309894841774
20
6.17605915125688
30
0
41
1
10
8.19452416199366
20
6.13958155559683
30
0
41
1
10
8.20029867256616
20
6.0669528997723
30
0
41
1
10
8.20465327802361
20
6.03072126671898
30
0
41
1
10
8.21653371532861
20
5.95892044783361
30
0
41
1
10
8.22407329017798
20
5.92325035143537
30
0
41
1
10
8.23811953702852
20
5.87064856749075
30
0
41
1
10
8.24326014541302
20
5.85326004335198
30
0
41
1
10
8.25457516133537
20
5.81881360004783
30
0
41
1
10
8.26075047776587
20
5.80175878017536
30
0
41
1
10
8.27420563124699
20
5.76826979480876
30
0
41
1
10
8.28149258641494
20
5.75180767645148
30
0
41
1
10
8.29739537283299
20
5.71956174414012
30
0
41
1
10
8.30603647919884
20
5.70374386540047
30
0
41
1
10
8.32466434730173
20
5.67344133532256
30
0
41
1
10
8.3346709796397
20
5.65890060544166
30
0
41
1
10
8.350975126945
20
5.63824676515722
30
0
41
1
10
8.35662679359456
20
5.6315561946295
30
0
41
1
10
8.36842932559429
20
5.61862462187912
30
0
41
1
10
8.37461132543208
20
5.61235655869888
30
0
41
1
10
8.39371647144065
20
5.59464017879523
30
0
41
1
10
8.40721900611828
20
5.58421497116055
30
0
41
1
10
8.42890033485341
20
5.57121143879593
30
0
41
1
10
8.43642541487793
20
5.56729663212158
30
0
41
1
10
8.4516759791461
20
5.56064060807776
30
0
41
1
10
8.46712227521164
20
5.55513818925115
30
0
41
1
10
8.48296773378019
20
5.5520372101773
30
0
41
1
10
8.4990209128521
20
5.55020639203167
30
0
41
1
10
8.5070793511054
20
5.54994496969903
30
0
41
1
10
8.53076418040402
20
5.55104049157461
30
0
41
1
10
8.54613961824973
20
5.55423321703114
30
0
41
1
10
8.56114230611894
20
5.55962924142088
30
0
0
SPLINE
5
183
100
AcDbEntity
8
1
62
256
6
ByLayer
370
18
48
1
60
0
100
AcDbSpline
70
4
71
3
72
35
73
31
40
0
40
0
40
0
40
0
40
0.125000000000092
40
0.125000000000092
40
0.250000000000184
40
0.250000000000184
40
0.375000000000277
40
0.375000000000277
40
0.437500000000288
40
0.437500000000288
40
0.500000000000299
40
0.500000000000299
40
0.625000000000326
40
0.625000000000326
40
0.687500000000311
40
0.687500000000311
40
0.718750000000284
40
0.718750000000284
40
0.750000000000257
40
0.750000000000257
40
0.812500000000183
40
0.812500000000183
40
0.843750000000151
40
0.843750000000151
40
0.875000000000119
40
0.906250000000087
40
0.906250000000087
40
0.937500000000055
40
0.937500000000055
40
1
40
1
40
1
40
1
41
1
10
9.59644894841767
20
3.78182649919549
30
0
41
1
10
9.56490859913055
20
3.80003632834675
30
0
41
1
10
9.53401452229761
20
3.81951871071757
30
0
41
1
10
9.47401056513681
20
3.860828603876
30
0
41
1
10
9.44489055502061
20
3.88265197530097
30
0
41
1
10
9.38859959113171
20
3.92887564616675
30
0
41
1
10
9.36151588725707
20
3.95320592606552
30
0
41
1
10
9.32302135794674
20
3.99162365847604
30
0
41
1
10
9.31053562118163
20
4.00476157557128
30
0
41
1
10
9.28634917189063
20
4.03178783301462
30
0
41
1
10
9.27464999537344
20
4.04567735247261
30
0
41
1
10
9.24117069535987
20
4.08834656771595
30
0
41
1
10
9.22081495248804
20
4.11830866047703
30
0
41
1
10
9.19533876817866
20
4.16539939322499
30
0
41
1
10
9.18765606304939
20
4.1815461097132
30
0
41
1
10
9.17788212824533
20
4.20617676676019
30
0
41
1
10
9.17491440480552
20
4.2144569043152
30
0
41
1
10
9.1696386442141
20
4.23117343289158
30
0
41
1
10
9.16732511512109
20
4.23963930730304
30
0
41
1
10
9.16159934631062
20
4.26497652104283
30
0
41
1
10
9.15936008091199
20
4.28183826620057
30
0
41
1
10
9.15898727789704
20
4.30705009076067
30
0
41
1
10
9.15937423518648
20
4.31550169505576
30
0
41
1
10
9.16125871551458
20
4.33198389739252
30
0
41
1
10
9.16423489347554
20
4.34806068488965
30
0
41
1
10
9.16947970807669
20
4.36328635397973
30
0
41
1
10
9.17592277317934
20
4.37805892873996
30
0
41
1
10
9.179721750238
20
4.38514335025351
30
0
41
1
10
9.19249487271995
20
4.40504336012731
30
0
41
1
10
9.20292495255885
20
4.41672865290764
30
0
41
1
10
9.21506796495316
20
4.42699677594706
30
0
0
SPLINE
5
184
100
AcDbEntity
8
1
62
256
6
ByLayer
370
18
48
1
60
0
100
AcDbSpline
70
4
71
3
72
50
73
46
40
0
40
0
40
0
40
0
40
0.0312499999999988
40
0.0312499999999988
40
0.0624999999999974
40
0.0624999999999974
40
0.0937499999999962
40
0.0937499999999962
40
0.124999999999995
40
0.124999999999995
40
0.156249999999994
40
0.156249999999994
40
0.187499999999993
40
0.187499999999993
40
0.218749999999991
40
0.218749999999991
40
0.24999999999999
40
0.24999999999999
40
0.312499999999989
40
0.312499999999989
40
0.374999999999987
40
0.374999999999987
40
0.437499999999986
40
0.437499999999986
40
0.499999999999984
40
0.499999999999984
40
0.624999999999982
40
0.624999999999982
40
0.687499999999982
40
0.687499999999982
40
0.749999999999983
40
0.749999999999983
40
0.812499999999984
40
0.812499999999984
40
0.843749999999987
40
0.843749999999987
40
0.874999999999989
40
0.874999999999989
40
0.906249999999992
40
0.906249999999992
40
0.937499999999995
40
0.937499999999995
40
0.968749999999997
40
0.968749999999997
40
1
40
1
40
1
40
1
41
1
10
8.58114230611892
20
5.56100103823175
30
0
41
1
10
8.59481025694089
20
5.56193852079917
30
0
41
1
10
8.60850495420152
20
5.56141488063804
30
0
41
1
10
8.6359462711813
20
5.55803341093551
30
0
41
1
10
8.64967922765874
20
5.55516243987643
30
0
41
1
10
8.67676257948813
20
5.54758980233979
30
0
41
1
10
8.6902097191292
20
5.54286268125892
30
0
41
1
10
8.71664423157992
20
5.53196420987203
30
0
41
1
10
8.72965413403895
20
5.52578931563454
30
0
41
1
10
8.75533566775084
20
5.5122086308964
30
0
41
1
10
8.76798218429352
20
5.5048121451199
30
0
41
1
10
8.79279253668091
20
5.48906875264251
30
0
41
1
10
8.80498204700521
20
5.48070751156604
30
0
41
1
10
8.82898935495172
20
5.46311479440834
30
0
41
1
10
8.84081078439831
20
5.45387748804435
30
0
41
1
10
8.86396998046268
20
5.43473764324281
30
0
41
1
10
8.87532899263931
20
5.42481984284572
30
0
41
1
10
8.90881266067049
20
5.39411013640765
30
0
41
1
10
8.93040094905592
20
5.37230506863645
30
0
41
1
10
8.97181698594557
20
5.32687030752649
30
0
41
1
10
8.99168020805493
20
5.30321367197658
30
0
41
1
10
9.02987896903178
20
5.25416604536494
30
0
41
1
10
9.04817113350998
20
5.22881855883921
30
0
41
1
10
9.08294406736351
20
5.17697010110817
30
0
41
1
10
9.09947341176019
20
5.15040541389305
30
0
41
1
10
9.14648079640082
20
5.0688489116275
30
0
41
1
10
9.1738873815012
20
5.01298387291851
30
0
41
1
10
9.20875497434562
20
4.92678047522216
30
0
41
1
10
9.21934351690007
20
4.89754509042564
30
0
41
1
10
9.23783276627054
20
4.83917157068069
30
0
41
1
10
9.24578566194816
20
4.8099310797549
30
0
41
1
10
9.25877075981089
20
4.75127676932743
30
0
41
1
10
9.26381214107681
20
4.72186401704764
30
0
41
1
10
9.26864771871703
20
4.67753315779515
30
0
41
1
10
9.26980042732853
20
4.66267558728058
30
0
41
1
10
9.27101936862994
20
4.63329477237502
30
0
41
1
10
9.27109324602242
20
4.61873262293307
30
0
41
1
10
9.27001725829061
20
4.58988680074737
30
0
41
1
10
9.26886889523377
20
4.57560283459065
30
0
41
1
10
9.26511291314446
20
4.54735194648731
30
0
41
1
10
9.26249505697859
20
4.53333337890919
30
0
41
1
10
9.25547285655443
20
4.50590678430964
30
0
41
1
10
9.25111446952587
20
4.49265569718671
30
0
41
1
10
9.24035684227758
20
4.46724932156633
30
0
41
1
10
9.23396336606052
20
4.45509092290118
30
0
41
1
10
9.22625597584062
20
4.44363138561792
30
0
0
SPLINE
5
185
100
AcDbEntity
8
1
62
256
6
ByLayer
370
18
48
1
60
0
100
AcDbSpline
70
4
71
3
72
8
73
4
40
0
40
0
40
0
40
0
40
1
40
1
40
1
40
1
41
1
10
8.56114230611894
20
5.55962924142088
30
0
41
1
10
8.56780872951458
20
5.56008649033859
30
0
41
1
10
8.57447539428077
20
5.56054375581186
30
0
41
1
10
8.58114230611892
20
5.56100103823175
30
0
0
SPLINE
5
186
100
AcDbEntity
8
1
62
256
6
ByLayer
370
18
48
1
60
0
100
AcDbSpline
70
4
71
3
72
8
73
4
40
0
40
0
40
0
40
0
40
1
40
1
40
1
40
1
41
1
10
9.21506796495316
20
4.42699677594706
30
0
41
1
10
9.21879716582959
20
4.43254144350121
30
0
41
1
10
9.22252650172877
20
4.43808631181062
30
0
41
1
10
9.22625597584019
20
4.44363138561729
30
0
0
SPLINE
5
187
100
AcDbEntity
8
1
62
256
6
ByLayer
370
18
48
1
60
0
100
AcDbSpline
70
4
71
3
72
35
73
31
40
0
40
0
40
0
40
0
40
0.124999999999997
40
0.124999999999997
40
0.249999999999995
40
0.249999999999995
40
0.374999999999992
40
0.374999999999992
40
0.437499999999992
40
0.437499999999992
40
0.499999999999992
40
0.499999999999992
40
0.624999999999897
40
0.624999999999897
40
0.68749999999985
40
0.68749999999985
40
0.718749999999869
40
0.718749999999869
40
0.749999999999888
40
0.749999999999888
40
0.812499999999923
40
0.812499999999923
40
0.843749999999936
40
0.843749999999936
40
0.874999999999949
40
0.906249999999961
40
0.906249999999961
40
0.937499999999974
40
0.937499999999974
40
1
40
1
40
1
40
1
41
1
10
12.4031489484177
20
3.78182649919549
30
0
41
1
10
12.3716085991305
20
3.76361667004423
30
0
41
1
10
12.3392893226547
20
3.74660280586579
30
0
41
1
10
12.2735119271714
20
3.71529280121612
30
0
41
1
10
12.2400523280631
20
3.70098581840955
30
0
41
1
10
12.1718759728928
20
3.67534824911112
30
0
41
1
10
12.137263480482
20
3.66405821347655
30
0
41
1
10
12.0847454836035
20
3.64992983939231
30
0
41
1
10
12.0671248452635
20
3.64568583271631
30
0
41
1
10
12.0316261951029
20
3.63825288192473
30
0
41
1
10
12.0137479301474
20
3.63506585758648
30
0
41
1
10
11.9600556557803
20
3.62740654089544
30
0
41
1
10
11.9239298508628
20
3.62475899683611
30
0
41
1
10
11.8704099878655
20
3.62624134040661
30
0
41
1
10
11.8525851686343
20
3.62766128083899
30
0
41
1
10
11.8263674265178
20
3.63151213352728
30
0
41
1
10
11.8177127553284
20
3.63308207841453
30
0
41
1
10
11.8005979366224
20
3.63687140000621
30
0
41
1
10
11.7921095097704
20
3.63910076224496
30
0
41
1
10
11.7673039546053
20
3.64681070786881
30
0
41
1
10
11.7515816222473
20
3.65330231972672
30
0
41
1
10
11.729561140195
20
3.66558537512518
30
0
41
1
10
11.7224353148174
20
3.67014629211562
30
0
41
1
10
11.7091035490476
20
3.680019401121
30
0
41
1
10
11.6966687316443
20
3.69063524058993
30
0
41
1
10
11.6861053227233
20
3.70279021781772
30
0
41
1
10
11.6765334302529
20
3.71575636325497
30
0
41
1
10
11.6722976297803
20
3.72258858465301
30
0
41
1
10
11.6614502769351
20
3.74360043814485
30
0
41
1
10
11.6565455564561
20
3.75847579863907
30
0
41
1
10
11.653724607252
20
3.77412601737066
30
0
0
SPLINE
5
188
100
AcDbEntity
8
1
62
256
6
ByLayer
370
18
48
1
60
0
100
AcDbSpline
70
4
71
3
72
52
73
48
40
0
40
0
40
0
40
0
40
0.0156249999999961
40
0.0156249999999961
40
0.0312499999999922
40
0.0312499999999922
40
0.0624999999999569
40
0.0624999999999569
40
0.0937499999999215
40
0.0937499999999215
40
0.124999999999886
40
0.124999999999886
40
0.187499999999815
40
0.187499999999815
40
0.218749999999805
40
0.218749999999805
40
0.249999999999795
40
0.249999999999795
40
0.312499999999824
40
0.312499999999824
40
0.374999999999853
40
0.374999999999853
40
0.437499999999882
40
0.437499999999882
40
0.499999999999912
40
0.499999999999912
40
0.562499999999941
40
0.562499999999941
40
0.62499999999997
40
0.62499999999997
40
0.687499999999999
40
0.687499999999999
40
0.750000000000028
40
0.750000000000028
40
0.812500000000057
40
0.812500000000057
40
0.843750000000048
40
0.843750000000048
40
0.875000000000038
40
0.875000000000038
40
0.906250000000029
40
0.906250000000029
40
0.937500000000019
40
0.937500000000019
40
0.96875000000001
40
0.96875000000001
40
1
40
1
40
1
40
1
41
1
10
11.6449126181386
20
3.79213242385245
30
0
41
1
10
11.6418979744429
20
3.79829254265039
30
0
41
1
10
11.6385537969147
20
3.80428758126075
30
0
41
1
10
11.6312741885153
20
3.81598266457459
30
0
41
1
10
11.6273290710508
20
3.82169274398529
30
0
41
1
10
11.6148349625097
20
3.83823456037899
30
0
41
1
10
11.6055983932247
20
3.84854866576515
30
0
41
1
10
11.5856814605404
20
3.86805579373225
30
0
41
1
10
11.5749978462186
20
3.87724624472574
30
0
41
1
10
11.5523978333783
20
3.89468696350281
30
0
41
1
10
11.5405168187308
20
3.90290276608246
30
0
41
1
10
11.5037487971725
20
3.92604180731161
30
0
41
1
10
11.4775171763309
20
3.93961893995635
30
0
41
1
10
11.4367828208595
20
3.95759474620752
30
0
41
1
10
11.42295161545
20
3.96319594754422
30
0
41
1
10
11.3948252512968
20
3.97369906972716
30
0
41
1
10
11.3805157841167
20
3.97860404183396
30
0
41
1
10
11.3371968681726
20
3.99227545079788
30
0
41
1
10
11.3077212798602
20
4.00003908676501
30
0
41
1
10
11.2476936221471
20
4.01323284552231
30
0
41
1
10
11.2171916346482
20
4.01864145868555
30
0
41
1
10
11.1558045378913
20
4.02721702721863
30
0
41
1
10
11.1248206098793
20
4.03040149171883
30
0
41
1
10
11.0624153940127
20
4.03464748697539
30
0
41
1
10
11.0311404004756
20
4.03570011888166
30
0
41
1
10
10.9684469298247
20
4.03569988109282
30
0
41
1
10
10.9371881905548
20
4.03464699659466
30
0
41
1
10
10.8748476217914
20
4.03040715353799
30
0
41
1
10
10.8437781108844
20
4.0272163411226
30
0
41
1
10
10.7823058075444
20
4.01862597878733
30
0
41
1
10
10.7517805393716
20
4.01320876677286
30
0
41
1
10
10.6917834468304
20
4.00001547956083
30
0
41
1
10
10.6622449811938
20
3.99223298164571
30
0
41
1
10
10.6044195929478
20
3.97396974059362
30
0
41
1
10
10.5763096604499
20
3.96355457078263
30
0
41
1
10
10.5355564686598
20
3.94556331129482
30
0
41
1
10
10.5221880612057
20
3.93915615573502
30
0
41
1
10
10.4961665730631
20
3.92551338562939
30
0
41
1
10
10.4834978350049
20
3.91827348373138
30
0
41
1
10
10.4589447858037
20
3.902812311882
30
0
41
1
10
10.4470858968074
20
3.8946044344753
30
0
41
1
10
10.4245148159479
20
3.87717484374977
30
0
41
1
10
10.4137466542752
20
3.86791010603346
30
0
41
1
10
10.3936880296013
20
3.84822249977742
30
0
41
1
10
10.3844731860532
20
3.83788168149962
30
0
41
1
10
10.3679891765616
20
3.81599511770094
30
0
41
1
10
10.3607145911153
20
3.80445271258824
30
0
41
1
10
10.3546852786964
20
3.7921324238518
30
0
0
SPLINE
5
189
100
AcDbEntity
8
1
62
256
6
ByLayer
370
18
48
1
60
0
100
AcDbSpline
70
4
71
3
72
8
73
4
40
0
40
0
40
0
40
0
40
1
40
1
40
1
40
1
41
1
10
10.3546852786964
20
3.7921324238518
30
0
41
1
10
10.3517478409697
20
3.78613006762521
30
0
41
1
10
10.3488105121027
20
3.78012793384252
30
0
41
1
10
10.3458732895835
20
3.77412601737066
30
0
0
SPLINE
5
18A
100
AcDbEntity
8
1
62
256
6
ByLayer
370
18
48
1
60
0
100
AcDbSpline
70
4
71
3
72
35
73
31
40
0
40
0
40
0
40
0
40
0.124999999999913
40
0.124999999999913
40
0.249999999999825
40
0.249999999999825
40
0.374999999999738
40
0.374999999999738
40
0.499999999999651
40
0.499999999999651
40
0.562499999999654
40
0.562499999999654
40
0.624999999999657
40
0.624999999999657
40
0.68749999999966
40
0.68749999999966
40
0.718749999999664
40
0.718749999999664
40
0.749999999999669
40
0.749999999999669
40
0.812499999999764
40
0.812499999999764
40
0.843749999999812
40
0.843749999999812
40
0.874999999999859
40
0.906249999999907
40
0.906249999999907
40
0.937499999999955
40
0.937499999999955
40
1
40
1
40
1
40
1
41
1
10
9.59644894841767
20
3.78182649919549
30
0
41
1
10
9.62798858909963
20
3.76361707915763
30
0
41
1
10
9.66026733892485
20
3.74662302261083
30
0
41
1
10
9.72609167884096
20
3.7152894951831
30
0
41
1
10
9.75955058332886
20
3.70098479943252
30
0
41
1
10
9.82766591849656
20
3.67536844374928
30
0
41
1
10
9.86233721095019
20
3.66405354883008
30
0
41
1
10
9.93256145171023
20
3.64516968407079
30
0
41
1
10
9.96813235467491
20
3.63758435892231
30
0
41
1
10
10.0218384668607
20
3.62993653411436
30
0
41
1
10
10.0397717647398
20
3.62801622771212
30
0
41
1
10
10.0757059057632
20
3.62567201283463
30
0
41
1
10
10.0936631168667
20
3.62525530797342
30
0
41
1
10
10.1291549222329
20
3.62624253366903
30
0
41
1
10
10.1467394256201
20
3.62763853294825
30
0
41
1
10
10.1727984935353
20
3.63144026930072
30
0
41
1
10
10.1814315407462
20
3.63299388109274
30
0
41
1
10
10.1985717747753
20
3.63676497855295
30
0
41
1
10
10.2070868025508
20
3.63898888202141
30
0
41
1
10
10.2319384775888
20
3.64667523201968
30
0
41
1
10
10.2477396903358
20
3.65316464641575
30
0
41
1
10
10.2699398409293
20
3.66552314383461
30
0
41
1
10
10.2770681612071
20
3.67008496039904
30
0
41
1
10
10.2903457425374
20
3.6799009109015
30
0
41
1
10
10.3027521070392
20
3.69046481510037
30
0
41
1
10
10.3133276259829
20
3.70258999850032
30
0
41
1
10
10.3229250062168
20
3.71554495479094
30
0
41
1
10
10.3272004582893
20
3.72241463431377
30
0
41
1
10
10.3381173121199
20
3.74350356887734
30
0
41
1
10
10.3430439668642
20
3.75842934358644
30
0
41
1
10
10.3458732895835
20
3.77412601737066
30
0
0
SPLINE
5
18B
100
AcDbEntity
8
1
62
256
6
ByLayer
370
18
48
1
60
0
100
AcDbSpline
70
4
71
3
72
8
73
4
40
0
40
0
40
0
40
0
40
1
40
1
40
1
40
1
41
1
10
11.653724607252
20
3.77412601737066
30
0
41
1
10
11.6507873847327
20
3.78012793384252
30
0
41
1
10
11.6478500558657
20
3.78613006762521
30
0
41
1
10
11.644912618139
20
3.7921324238518
30
0
0
SPLINE
5
18C
100
AcDbEntity
8
1
62
256
6
ByLayer
370
18
48
1
60
0
100
AcDbSpline
70
4
71
3
72
35
73
31
40
0
40
0
40
0
40
0
40
0.124999999999961
40
0.124999999999961
40
0.249999999999921
40
0.249999999999921
40
0.374999999999882
40
0.374999999999882
40
0.437499999999863
40
0.437499999999863
40
0.499999999999845
40
0.499999999999845
40
0.624999999999806
40
0.624999999999806
40
0.687499999999786
40
0.687499999999786
40
0.718749999999777
40
0.718749999999777
40
0.749999999999768
40
0.749999999999768
40
0.812499999999833
40
0.812499999999833
40
0.843749999999861
40
0.843749999999861
40
0.874999999999889
40
0.906249999999917
40
0.906249999999917
40
0.937499999999944
40
0.937499999999944
40
1
40
1
40
1
40
1
41
1
10
9.5964489484177
20
8.64317350079904
30
0
41
1
10
9.62798929770494
20
8.66138332995033
30
0
41
1
10
9.66030857418073
20
8.67839719412873
30
0
41
1
10
9.72608596966401
20
8.70970719877838
30
0
41
1
10
9.75954556877232
20
8.72401418158498
30
0
41
1
10
9.82772192394276
20
8.7496517508834
30
0
41
1
10
9.86233441635358
20
8.76094178651798
30
0
41
1
10
9.9148524132321
20
8.77507016060221
30
0
41
1
10
9.93247305157189
20
8.77931416727819
30
0
41
1
10
9.96797170173249
20
8.78674711806977
30
0
41
1
10
9.98584996668808
20
8.78993414240804
30
0
41
1
10
10.0395422410551
20
8.79759345909909
30
0
41
1
10
10.0756680459727
20
8.80024100315842
30
0
41
1
10
10.1291879089699
20
8.79875865958792
30
0
41
1
10
10.1470127282011
20
8.79733871915553
30
0
41
1
10
10.1732304703177
20
8.79348786646722
30
0
41
1
10
10.181885141507
20
8.79191792157997
30
0
41
1
10
10.1989999602131
20
8.78812859998831
30
0
41
1
10
10.2074883870651
20
8.78589923774956
30
0
41
1
10
10.2322939422302
20
8.77818929212572
30
0
41
1
10
10.2480162745882
20
8.77169768026781
30
0
41
1
10
10.2700367566404
20
8.75941462486932
30
0
41
1
10
10.277162582018
20
8.75485370787891
30
0
41
1
10
10.2904943477879
20
8.74498059887353
30
0
41
1
10
10.3029291651912
20
8.73436475940457
30
0
41
1
10
10.3134925741122
20
8.7222097821768
30
0
41
1
10
10.3230644665826
20
8.70924363673956
30
0
41
1
10
10.327300267055
20
8.70241141534152
30
0
41
1
10
10.3381476199003
20
8.68139956184964
30
0
41
1
10
10.3430523403793
20
8.66652420135546
30
0
41
1
10
10.3458732895835
20
8.65087398262384
30
0
0
SPLINE
5
18D
100
AcDbEntity
8
1
62
256
6
ByLayer
370
18
48
1
60
0
100
AcDbSpline
70
4
71
3
72
52
73
48
40
0
40
0
40
0
40
0
40
0.0156249999999555
40
0.0156249999999555
40
0.0312499999999108
40
0.0312499999999108
40
0.062499999999856
40
0.062499999999856
40
0.0937499999998013
40
0.0937499999998013
40
0.124999999999746
40
0.124999999999746
40
0.187499999999686
40
0.187499999999686
40
0.21874999999968
40
0.21874999999968
40
0.249999999999675
40
0.249999999999675
40
0.312499999999715
40
0.312499999999715
40
0.374999999999753
40
0.374999999999753
40
0.437499999999793
40
0.437499999999793
40
0.499999999999832
40
0.499999999999832
40
0.562499999999871
40
0.562499999999871
40
0.62499999999991
40
0.62499999999991
40
0.687499999999949
40
0.687499999999949
40
0.749999999999988
40
0.749999999999988
40
0.812500000000027
40
0.812500000000027
40
0.843750000000023
40
0.843750000000023
40
0.875000000000018
40
0.875000000000018
40
0.906250000000014
40
0.906250000000014
40
0.937500000000009
40
0.937500000000009
40
0.968750000000005
40
0.968750000000005
40
1
40
1
40
1
40
1
41
1
10
10.3546852786968
20
8.63286757614205
30
0
41
1
10
10.3576999223926
20
8.62670745734411
30
0
41
1
10
10.3610440999207
20
8.62071241873377
30
0
41
1
10
10.3683237083201
20
8.60901733541994
30
0
41
1
10
10.3722688257847
20
8.6033072560092
30
0
41
1
10
10.3847629343258
20
8.5867654396155
30
0
41
1
10
10.3939995036108
20
8.57645133422935
30
0
41
1
10
10.413916436295
20
8.55694420626227
30
0
41
1
10
10.424600050617
20
8.54775375526876
30
0
41
1
10
10.4472000634572
20
8.53031303649169
30
0
41
1
10
10.4590810781046
20
8.52209723391204
30
0
41
1
10
10.4958490996629
20
8.49895819268292
30
0
41
1
10
10.5220807205045
20
8.48538106003818
30
0
41
1
10
10.5628150759759
20
8.46740525378701
30
0
41
1
10
10.5766462813855
20
8.4618040524503
30
0
41
1
10
10.6047726455387
20
8.45130093026737
30
0
41
1
10
10.6190821127187
20
8.44639595816057
30
0
41
1
10
10.6624010286628
20
8.43272454919665
30
0
41
1
10
10.6918766169752
20
8.42496091322951
30
0
41
1
10
10.7519042746885
20
8.41176715447222
30
0
41
1
10
10.7824062621873
20
8.40635854130898
30
0
41
1
10
10.8437933589441
20
8.3977829727759
30
0
41
1
10
10.8747772869561
20
8.39459850827566
30
0
41
1
10
10.9371825028227
20
8.39035251301914
30
0
41
1
10
10.9684574963598
20
8.38929988111286
30
0
41
1
10
11.0311509670108
20
8.3893001189017
30
0
41
1
10
11.0624097062806
20
8.39035300339987
30
0
41
1
10
11.1247502750441
20
8.3945928464565
30
0
41
1
10
11.155819785951
20
8.39778365887193
30
0
41
1
10
11.217292089291
20
8.4063740212072
30
0
41
1
10
11.2478173574638
20
8.41179123322166
30
0
41
1
10
11.307814450005
20
8.4249845204337
30
0
41
1
10
11.3373529156417
20
8.43276701834881
30
0
41
1
10
11.3951783038877
20
8.45103025940091
30
0
41
1
10
11.4232882363855
20
8.46144542921189
30
0
41
1
10
11.4640414281757
20
8.47943668869971
30
0
41
1
10
11.4774098356297
20
8.48584384425951
30
0
41
1
10
11.5034313237724
20
8.49948661436514
30
0
41
1
10
11.5161000618306
20
8.50672651626314
30
0
41
1
10
11.5406531110318
20
8.52218768811252
30
0
41
1
10
11.5525120000281
20
8.53039556551926
30
0
41
1
10
11.5750830808875
20
8.54782515624476
30
0
41
1
10
11.5858512425603
20
8.55708989396106
30
0
41
1
10
11.6059098672341
20
8.5767775002171
30
0
41
1
10
11.6151247107823
20
8.5871183184949
30
0
41
1
10
11.6316087202738
20
8.60900488229356
30
0
41
1
10
11.6388833057202
20
8.62054728740628
30
0
41
1
10
11.644912618139
20
8.63286757614273
30
0
0
SPLINE
5
18E
100
AcDbEntity
8
1
62
256
6
ByLayer
370
18
48
1
60
0
100
AcDbSpline
70
4
71
3
72
8
73
4
40
0
40
0
40
0
40
0
40
1
40
1
40
1
40
1
41
1
10
11.644912618139
20
8.63286757614273
30
0
41
1
10
11.6478500558657
20
8.63886993236932
30
0
41
1
10
11.6507873847327
20
8.644872066152
30
0
41
1
10
11.653724607252
20
8.65087398262384
30
0
0
SPLINE
5
18F
100
AcDbEntity
8
1
62
256
6
ByLayer
370
18
48
1
60
0
100
AcDbSpline
70
4
71
3
72
35
73
31
40
0
40
0
40
0
40
0
40
0.124999999999956
40
0.124999999999956
40
0.249999999999912
40
0.249999999999912
40
0.374999999999867
40
0.374999999999867
40
0.499999999999823
40
0.499999999999823
40
0.562499999999848
40
0.562499999999848
40
0.624999999999873
40
0.624999999999873
40
0.687499999999897
40
0.687499999999897
40
0.718749999999912
40
0.718749999999912
40
0.749999999999928
40
0.749999999999928
40
0.812499999999962
40
0.812499999999962
40
0.843749999999977
40
0.843749999999977
40
0.874999999999991
40
0.906250000000006
40
0.906250000000006
40
0.937500000000021
40
0.937500000000021
40
1
40
1
40
1
40
1
41
1
10
12.4031489484177
20
8.64317350079907
30
0
41
1
10
12.3716093077358
20
8.66138292083693
30
0
41
1
10
12.3393305579105
20
8.67837697738372
30
0
41
1
10
12.2735062179944
20
8.70971050481143
30
0
41
1
10
12.2400473135066
20
8.72401520056204
30
0
41
1
10
12.1719319783387
20
8.74963155624525
30
0
41
1
10
12.1372606858853
20
8.76094645116444
30
0
41
1
10
12.0670364451251
20
8.77983031592373
30
0
41
1
10
12.0314655421604
20
8.78741564107222
30
0
41
1
10
11.9777594299746
20
8.79506346588016
30
0
41
1
10
11.9598261320957
20
8.7969837722824
30
0
41
1
10
11.9238919910723
20
8.7993279871599
30
0
41
1
10
11.9059347799687
20
8.79974469202111
30
0
41
1
10
11.8704429746024
20
8.7987574663255
30
0
41
1
10
11.8528584712153
20
8.79736146704627
30
0
41
1
10
11.8267994033002
20
8.79355973069377
30
0
41
1
10
11.8181663560893
20
8.79200611890178
30
0
41
1
10
11.8010261220601
20
8.78823502144155
30
0
41
1
10
11.7925110942846
20
8.78601111797312
30
0
41
1
10
11.7676594192466
20
8.77832476797485
30
0
41
1
10
11.7518582064997
20
8.77183535357878
30
0
41
1
10
11.7296580559062
20
8.75947685615992
30
0
41
1
10
11.7225297356283
20
8.75491503959549
30
0
41
1
10
11.7092521542981
20
8.745099089093
30
0
41
1
10
11.6968456263008
20
8.73453532638689
30
0
41
1
10
11.6862702708526
20
8.72241000149421
30
0
41
1
10
11.6766728906186
20
8.70945504520355
30
0
41
1
10
11.6723974385461
20
8.70258536568076
30
0
41
1
10
11.6614805847155
20
8.68149643111718
30
0
41
1
10
11.6565539299713
20
8.66657065640811
30
0
41
1
10
11.653724607252
20
8.65087398262384
30
0
0
SPLINE
5
190
100
AcDbEntity
8
1
62
256
6
ByLayer
370
18
48
1
60
0
100
AcDbSpline
70
4
71
3
72
8
73
4
40
0
40
0
40
0
40
0
40
1
40
1
40
1
40
1
41
1
10
10.3458732895835
20
8.65087398262384
30
0
41
1
10
10.3488105121027
20
8.644872066152
30
0
41
1
10
10.3517478409697
20
8.63886993236932
30
0
41
1
10
10.3546852786964
20
8.63286757614273
30
0
0
SPLINE
5
191
100
AcDbEntity
8
1
62
256
6
ByLayer
370
18
48
1
60
0
100
AcDbSpline
70
4
71
3
72
35
73
31
40
0
40
0
40
0
40
0
40
0.125000000000013
40
0.125000000000013
40
0.250000000000027
40
0.250000000000027
40
0.37500000000004
40
0.37500000000004
40
0.437500000000033
40
0.437500000000033
40
0.500000000000027
40
0.500000000000027
40
0.624999999999971
40
0.624999999999971
40
0.687499999999938
40
0.687499999999938
40
0.718749999999894
40
0.718749999999894
40
0.749999999999851
40
0.749999999999851
40
0.812499999999845
40
0.812499999999845
40
0.843749999999885
40
0.843749999999885
40
0.874999999999925
40
0.906249999999964
40
0.906249999999964
40
0.937500000000004
40
0.937500000000004
40
1
40
1
40
1
40
1
41
1
10
13.8064989484177
20
6.21249999999725
30
0
41
1
10
13.8064989484177
20
6.1760803416947
30
0
41
1
10
13.8050737487748
20
6.13958409514547
30
0
41
1
10
13.7993003104524
20
6.06696419733737
30
0
41
1
10
13.7949607214603
20
6.03083384310585
30
0
41
1
10
13.7830753301788
20
5.95897260294163
30
0
41
1
10
13.7755465416426
20
5.92335228740828
30
0
41
1
10
13.7615230740744
20
5.87080618091352
30
0
41
1
10
13.7563881724997
20
5.85342425714231
30
0
41
1
10
13.74507597163
20
5.81896504890736
30
0
41
1
10
13.7388968831917
20
5.80188850511115
30
0
41
1
10
13.7186839088381
20
5.75155997317674
30
0
41
1
10
13.7029138467925
20
5.71895033635633
30
0
41
1
10
13.6748701681046
20
5.6733419471789
30
0
41
1
10
13.6647280540027
20
5.65861517112307
30
0
41
1
10
13.6482842466901
20
5.63783536676434
30
0
41
1
10
13.6425972989405
20
5.63112517409661
30
0
41
1
10
13.6307582408261
20
5.61819796711191
30
0
41
1
10
13.624583343067
20
5.61196145493921
30
0
41
1
10
13.6055035567125
20
5.59433418682323
30
0
41
1
10
13.592020489753
20
5.5839640535234
30
0
41
1
10
13.5703728107157
20
5.57103528436176
30
0
41
1
10
13.5628600280487
20
5.56714459705708
30
0
41
1
10
13.5476437819507
20
5.56053550372573
30
0
41
1
10
13.5322327865865
20
5.55507455569756
30
0
41
1
10
13.5164245630643
20
5.55200386383527
30
0
41
1
10
13.5004096054913
20
5.55019743451228
30
0
41
1
10
13.4923748279601
20
5.54994523439672
30
0
41
1
10
13.4687543526329
20
5.55105707801479
30
0
41
1
10
13.4534195523149
20
5.55424714572868
30
0
41
1
10
13.4384555907165
20
5.55962924142088
30
0
0
SPLINE
5
192
100
AcDbEntity
8
1
62
256
6
ByLayer
370
18
48
1
60
0
100
AcDbSpline
70
4
71
3
72
52
73
48
40
0
40
0
40
0
40
0
40
0.0156249999999901
40
0.0156249999999901
40
0.0312499999999803
40
0.0312499999999803
40
0.0624999999999616
40
0.0624999999999616
40
0.0937499999999428
40
0.0937499999999428
40
0.124999999999924
40
0.124999999999924
40
0.187499999999932
40
0.187499999999932
40
0.218749999999934
40
0.218749999999934
40
0.249999999999936
40
0.249999999999936
40
0.312499999999944
40
0.312499999999944
40
0.374999999999952
40
0.374999999999952
40
0.437499999999961
40
0.437499999999961
40
0.499999999999969
40
0.499999999999969
40
0.562499999999978
40
0.562499999999978
40
0.624999999999986
40
0.624999999999986
40
0.687499999999994
40
0.687499999999994
40
0.750000000000003
40
0.750000000000003
40
0.812500000000011
40
0.812500000000011
40
0.843750000000009
40
0.843750000000009
40
0.875000000000008
40
0.875000000000008
40
0.906250000000006
40
0.906250000000006
40
0.937500000000004
40
0.937500000000004
40
0.968750000000002
40
0.968750000000002
40
1
40
1
40
1
40
1
41
1
10
13.4184555907157
20
5.56100103823181
30
0
41
1
10
13.4116134494985
20
5.56147033960684
30
0
41
1
10
13.4047495050012
20
5.56157171621786
30
0
41
1
10
13.3909814615523
20
5.56111493207135
30
0
41
1
10
13.3840638289928
20
5.56055339983143
30
0
41
1
10
13.3634911415005
20
5.55800409263409
30
0
41
1
10
13.3499405795764
20
5.55516204168256
30
0
41
1
10
13.3230884448598
20
5.54766703599606
30
0
41
1
10
13.3097874736663
20
5.5430099800858
30
0
41
1
10
13.2833833617249
20
5.53215815422882
30
0
41
1
10
13.2703277606548
20
5.52597679501127
30
0
41
1
10
13.231904752352
20
5.50570427490936
30
0
41
1
10
13.2070308001502
20
5.4897755912005
30
0
41
1
10
13.1710961175475
20
5.46348650768107
30
0
41
1
10
13.1593297321935
20
5.45430893309981
30
0
41
1
10
13.1361705794874
20
5.43520234831851
30
0
41
1
10
13.124768015448
20
5.42526247227937
30
0
41
1
10
13.0912687700076
20
5.39458289508929
30
0
41
1
10
13.0698074698782
20
5.3729381048029
30
0
41
1
10
13.0283675107664
20
5.32754950767222
30
0
41
1
10
13.0084325206184
20
5.30383831821393
30
0
41
1
10
12.9703123120384
20
5.25496331722448
30
0
41
1
10
12.9520625208777
20
5.22972268070711
30
0
41
1
10
12.917182773188
20
5.17780117606625
30
0
41
1
10
12.9006336704477
20
5.15124255311309
30
0
41
1
10
12.8692871410534
20
5.09694829598351
30
0
41
1
10
12.8545695961411
20
5.06935099143649
30
0
41
1
10
12.8270711235546
20
5.01324255367265
30
0
41
1
10
12.8142996927115
20
4.9847401617364
30
0
41
1
10
12.7910030130516
20
4.9272084042471
30
0
41
1
10
12.7804318221873
20
4.8980641405449
30
0
41
1
10
12.7618589978019
20
4.83950849064502
30
0
41
1
10
12.7538296058829
20
4.81003618005732
30
0
41
1
10
12.7407333424665
20
4.75082630432658
30
0
41
1
10
12.7356981778586
20
4.72127480377929
30
0
41
1
10
12.7309024697261
20
4.67698587465972
30
0
41
1
10
12.7297670254798
20
4.66220491641653
30
0
41
1
10
12.7285712668979
20
4.6328482615879
30
0
41
1
10
12.7285068368334
20
4.61825686164659
30
0
41
1
10
12.7296200798267
20
4.58926271137329
30
0
41
1
10
12.7307988656738
20
4.57488867353851
30
0
41
1
10
12.73460779359
20
4.54662674876062
30
0
41
1
10
12.7372472109753
20
4.53266887834175
30
0
41
1
10
12.7442678657959
20
4.50545379668125
30
0
41
1
10
12.7486158553462
20
4.49230309893767
30
0
41
1
10
12.7593281708517
20
4.46708424606248
30
0
41
1
10
12.7656868941769
20
4.45501306770754
30
0
41
1
10
12.7733419209952
20
4.44363138561729
30
0
0
SPLINE
5
193
100
AcDbEntity
8
1
62
256
6
ByLayer
370
18
48
1
60
0
100
AcDbSpline
70
4
71
3
72
8
73
4
40
0
40
0
40
0
40
0
40
1
40
1
40
1
40
1
41
1
10
12.7733419209952
20
4.44363138561729
30
0
41
1
10
12.7770713951067
20
4.43808631181062
30
0
41
1
10
12.7808007310059
20
4.43254144350121
30
0
41
1
10
12.7845299318823
20
4.42699677594706
30
0
0
SPLINE
5
194
100
AcDbEntity
8
1
62
256
6
ByLayer
370
18
48
1
60
0
100
AcDbSpline
70
4
71
3
72
35
73
31
40
0
40
0
40
0
40
0
40
0.124999999999974
40
0.124999999999974
40
0.249999999999949
40
0.249999999999949
40
0.374999999999923
40
0.374999999999923
40
0.499999999999897
40
0.499999999999897
40
0.562499999999911
40
0.562499999999911
40
0.624999999999924
40
0.624999999999924
40
0.687499999999937
40
0.687499999999937
40
0.718749999999946
40
0.718749999999946
40
0.749999999999956
40
0.749999999999956
40
0.812499999999964
40
0.812499999999964
40
0.843749999999968
40
0.843749999999968
40
0.874999999999972
40
0.906249999999976
40
0.906249999999976
40
0.93749999999998
40
0.93749999999998
40
1
40
1
40
1
40
1
41
1
10
12.4031489484177
20
3.78182649919549
30
0
41
1
10
12.4346885890997
20
3.80003591923335
30
0
41
1
10
12.4655452486952
20
3.81949310831101
30
0
41
1
10
12.5255930493958
20
3.86083189515179
30
0
41
1
10
12.5547107315531
20
3.88265580854582
30
0
41
1
10
12.6109528139111
20
3.92883724134677
30
0
41
1
10
12.638087446579
20
3.95320601393399
30
0
41
1
10
12.6895534735622
20
4.00458005801406
30
0
41
1
10
12.7139080093192
20
4.0315927010428
30
0
41
1
10
12.7473842759795
20
4.07427964613021
30
0
41
1
10
12.7580139590463
20
4.08885018446597
30
0
41
1
10
12.7780111791938
20
4.11879795601663
30
0
41
1
10
12.7873506617413
20
4.13414100458286
30
0
41
1
10
12.8042416018928
20
4.16537142250399
30
0
41
1
10
12.8118248827468
20
4.18129804878978
30
0
41
1
10
12.8215620164447
20
4.20576673177951
30
0
41
1
10
12.8245330727706
20
4.21401997587222
30
0
41
1
10
12.8298373235845
20
4.23074940269834
30
0
41
1
10
12.8321688805731
20
4.23923558480016
30
0
41
1
10
12.8379381437312
20
4.26460094170878
30
0
41
1
10
12.8402187523819
20
4.28152990055625
30
0
41
1
10
12.8406160549614
20
4.30693504364748
30
0
41
1
10
12.8402295660681
20
4.31538925837668
30
0
41
1
10
12.8383674942358
20
4.33179595636068
30
0
41
1
10
12.8354222713714
20
4.34782220613221
30
0
41
1
10
12.8302091097093
20
4.36304339505074
30
0
41
1
10
12.8237884785737
20
4.37783244828842
30
0
41
1
10
12.8199768876273
20
4.38496993815727
30
0
41
1
10
12.8071717614718
20
4.40496867818578
30
0
41
1
10
12.7967089887746
20
4.41669817370448
30
0
41
1
10
12.7845299318823
20
4.42699677594706
30
0
0
SPLINE
5
195
100
AcDbEntity
8
1
62
256
6
ByLayer
370
18
48
1
60
0
100
AcDbSpline
70
4
71
3
72
8
73
4
40
0
40
0
40
0
40
0
40
1
40
1
40
1
40
1
41
1
10
13.4384555907165
20
5.55962924142088
30
0
41
1
10
13.4317891673209
20
5.56008649033859
30
0
41
1
10
13.4251225025546
20
5.56054375581186
30
0
41
1
10
13.4184555907165
20
5.56100103823175
30
0
0
SPLINE
5
196
100
AcDbEntity
8
1
62
256
6
ByLayer
370
18
48
1
60
0
100
AcDbSpline
70
4
71
3
72
52
73
48
40
0
40
0
40
0
40
0
40
0.0156250000000019
40
0.0156250000000019
40
0.0312500000000038
40
0.0312500000000038
40
0.0625000000000074
40
0.0625000000000074
40
0.0937500000000112
40
0.0937500000000112
40
0.125000000000015
40
0.125000000000015
40
0.187500000000022
40
0.187500000000022
40
0.218750000000029
40
0.218750000000029
40
0.250000000000036
40
0.250000000000036
40
0.312500000000033
40
0.312500000000033
40
0.375000000000031
40
0.375000000000031
40
0.437500000000029
40
0.437500000000029
40
0.500000000000028
40
0.500000000000028
40
0.562500000000026
40
0.562500000000026
40
0.625000000000024
40
0.625000000000024
40
0.687500000000022
40
0.687500000000022
40
0.75000000000002
40
0.75000000000002
40
0.812500000000018
40
0.812500000000018
40
0.843750000000015
40
0.843750000000015
40
0.875000000000012
40
0.875000000000012
40
0.906250000000009
40
0.906250000000009
40
0.937500000000006
40
0.937500000000006
40
0.968750000000003
40
0.968750000000003
40
1
40
1
40
1
40
1
41
1
10
12.7733419209948
20
7.98136861437661
30
0
41
1
10
12.7695144234733
20
7.9756777969537
30
0
41
1
10
12.7659946565042
20
7.96978413495438
30
0
41
1
10
12.7595062214547
20
7.95763226749403
30
0
41
1
10
12.7565337063597
20
7.95136065584339
30
0
41
1
10
12.7484551274086
20
7.93226953225235
30
0
41
1
10
12.7441411347693
20
7.91911337591466
30
0
41
1
10
12.7372059327371
20
7.89211124226108
30
0
41
1
10
12.7345885758654
20
7.87826373535734
30
0
41
1
10
12.7307844767644
20
7.84997119072327
30
0
41
1
10
12.7296098903416
20
7.83557402892606
30
0
41
1
10
12.7279549035971
20
7.79216246759503
30
0
41
1
10
12.7293125722371
20
7.76265665124143
30
0
41
1
10
12.7341122451057
20
7.7183917614708
30
0
41
1
10
12.7361770651611
20
7.70361298555284
30
0
41
1
10
12.7411442766084
20
7.6740032785886
30
0
41
1
10
12.744051179749
20
7.65915843044269
30
0
41
1
10
12.7538708502527
20
7.61480744428869
30
0
41
1
10
12.7618851384357
20
7.58539901803513
30
0
41
1
10
12.7804728370371
20
7.52681666214718
30
0
41
1
10
12.7910398343879
20
7.49769685952563
30
0
41
1
10
12.8143067225648
20
7.4402462900031
30
0
41
1
10
12.8270408594161
20
7.41182118898553
30
0
41
1
10
12.854566327593
20
7.35565368908814
30
0
41
1
10
12.8692922183898
20
7.32804243422868
30
0
41
1
10
12.9006391596465
20
7.27374841488793
30
0
41
1
10
12.9171803540041
20
7.24720399483908
30
0
41
1
10
12.9520224501809
20
7.19533540013188
30
0
41
1
10
12.9703205302448
20
7.17002382061105
30
0
41
1
10
13.0084961539249
20
7.12108242545705
30
0
41
1
10
13.0284502312335
20
7.09735537376932
30
0
41
1
10
13.0698744993892
20
7.05199301108146
30
0
41
1
10
13.0913835731069
20
7.03030319840886
30
0
41
1
10
13.1361126979364
20
6.98935656373021
30
0
41
1
10
13.1591874658264
20
6.97022023299391
30
0
41
1
10
13.195144949484
20
6.94392256336218
30
0
41
1
10
13.2073779126918
20
6.93554876067876
30
0
41
1
10
13.2322036422526
20
6.91983487595576
30
0
41
1
10
13.2448079502463
20
6.91248337791248
30
0
41
1
10
13.2704742424407
20
6.89895039948854
30
0
41
1
10
13.2835119172842
20
6.89278423906049
30
0
41
1
10
13.3098919260598
20
6.88195190500809
30
0
41
1
10
13.3232995051179
20
6.87725877230554
30
0
41
1
10
13.3503787846122
20
6.86973129690108
30
0
41
1
10
13.3639416177109
20
6.86692141743532
30
0
41
1
10
13.3911379427078
20
6.8635891283588
30
0
41
1
10
13.4047712514794
20
6.86306035511657
30
0
41
1
10
13.4184555907165
20
6.86399896176277
30
0
0
SPLINE
5
197
100
AcDbEntity
8
1
62
256
6
ByLayer
370
18
48
1
60
0
100
AcDbSpline
70
4
71
3
72
8
73
4
40
0
40
0
40
0
40
0
40
1
40
1
40
1
40
1
41
1
10
13.4184555907165
20
6.86399896176277
30
0
41
1
10
13.4251225025546
20
6.86445624418266
30
0
41
1
10
13.4317891673209
20
6.86491350965593
30
0
41
1
10
13.4384555907165
20
6.86537075857362
30
0
0
SPLINE
5
198
100
AcDbEntity
8
1
62
256
6
ByLayer
370
18
48
1
60
0
100
AcDbSpline
70
4
71
3
72
35
73
31
40
0
40
0
40
0
40
0
40
0.125000000000056
40
0.125000000000056
40
0.250000000000112
40
0.250000000000112
40
0.375000000000168
40
0.375000000000168
40
0.500000000000224
40
0.500000000000224
40
0.562500000000253
40
0.562500000000253
40
0.625000000000283
40
0.625000000000283
40
0.687500000000313
40
0.687500000000313
40
0.718750000000306
40
0.718750000000306
40
0.7500000000003
40
0.7500000000003
40
0.812500000000228
40
0.812500000000228
40
0.843750000000192
40
0.843750000000192
40
0.875000000000156
40
0.90625000000012
40
0.90625000000012
40
0.937500000000084
40
0.937500000000084
40
1
40
1
40
1
40
1
41
1
10
13.8064989484177
20
6.21249999999725
30
0
41
1
10
13.8064989484177
20
6.24891884007297
30
0
41
1
10
13.805076858188
20
6.28537008569739
30
0
41
1
10
13.7993003189725
20
6.35804239996591
30
0
41
1
10
13.794959096642
20
6.39417100911055
30
0
41
1
10
13.7830858438321
20
6.46596879759477
30
0
41
1
10
13.7755491840466
20
6.50165246510116
30
0
41
1
10
13.7567909702697
20
6.57191037394048
30
0
41
1
10
13.7455746030619
20
6.60650834211776
30
0
41
1
10
13.7253447575363
20
6.65684311201309
30
0
41
1
10
13.7180411427243
20
6.67333395675109
30
0
41
1
10
13.7021042218484
20
6.70562594317926
30
0
41
1
10
13.6934864932923
20
6.72138569660666
30
0
41
1
10
13.6748856280775
20
6.75162888883222
30
0
41
1
10
13.6648844055445
20
6.76615951583875
30
0
41
1
10
13.6485624713272
20
6.786826462476
30
0
41
1
10
13.6429004804422
20
6.79352609477672
30
0
41
1
10
13.631064497227
20
6.80648442414264
30
0
41
1
10
13.6248810264399
20
6.812746702776
30
0
41
1
10
13.6057986145601
20
6.83042570968635
30
0
41
1
10
13.5922780104639
20
6.84086525413775
30
0
41
1
10
13.5704751624498
20
6.85391189981016
30
0
41
1
10
13.5629603532787
20
6.85780429797489
30
0
41
1
10
13.5478207001161
20
6.8643950454564
30
0
41
1
10
13.5324689084658
20
6.8698573201842
30
0
41
1
10
13.5166804321441
20
6.87295339654767
30
0
41
1
10
13.5006624207745
20
6.87478749349472
30
0
41
1
10
13.4925753777557
20
6.87505530384075
30
0
41
1
10
13.4688533977696
20
6.87396510930569
30
0
41
1
10
13.4534639703283
20
6.87076883011534
30
0
41
1
10
13.4384555907165
20
6.86537075857362
30
0
0
SPLINE
5
199
100
AcDbEntity
8
1
62
256
6
ByLayer
370
18
48
1
60
0
100
AcDbSpline
70
4
71
3
72
35
73
31
40
0
40
0
40
0
40
0
40
0.125000000000094
40
0.125000000000094
40
0.250000000000187
40
0.250000000000187
40
0.37500000000028
40
0.37500000000028
40
0.437500000000292
40
0.437500000000292
40
0.500000000000305
40
0.500000000000305
40
0.625000000000329
40
0.625000000000329
40
0.687500000000319
40
0.687500000000319
40
0.718750000000294
40
0.718750000000294
40
0.750000000000269
40
0.750000000000269
40
0.812500000000188
40
0.812500000000188
40
0.843750000000158
40
0.843750000000158
40
0.875000000000128
40
0.906250000000098
40
0.906250000000098
40
0.937500000000068
40
0.937500000000068
40
1
40
1
40
1
40
1
41
1
10
12.4031489484177
20
8.64317350079907
30
0
41
1
10
12.4346892977049
20
8.62496367164781
30
0
41
1
10
12.4655833745379
20
8.60548128927695
30
0
41
1
10
12.5255873316987
20
8.56417139611852
30
0
41
1
10
12.5547073418149
20
8.54234802469355
30
0
41
1
10
12.6109983057037
20
8.49612435382781
30
0
41
1
10
12.6380820095783
20
8.471794073929
30
0
41
1
10
12.6765765388886
20
8.43337634151848
30
0
41
1
10
12.6890622756539
20
8.42023842442327
30
0
41
1
10
12.7132487249448
20
8.39321216697991
30
0
41
1
10
12.724947901462
20
8.37932264752192
30
0
41
1
10
12.7584272014756
20
8.33665343227861
30
0
41
1
10
12.7787829443474
20
8.3066913395175
30
0
41
1
10
12.8042591286568
20
8.25960060676954
30
0
41
1
10
12.811941833786
20
8.24345389028133
30
0
41
1
10
12.82171576859
20
8.21882323323433
30
0
41
1
10
12.8246834920299
20
8.21054309567933
30
0
41
1
10
12.8299592526213
20
8.19382656710295
30
0
41
1
10
12.8322727817144
20
8.18536069269149
30
0
41
1
10
12.8379985505248
20
8.16002347895167
30
0
41
1
10
12.8402378159234
20
8.14316173379396
30
0
41
1
10
12.8406106189384
20
8.11794990923383
30
0
41
1
10
12.8402236616489
20
8.10949830493874
30
0
41
1
10
12.8383391813209
20
8.09301610260201
30
0
41
1
10
12.8353630033599
20
8.07693931510488
30
0
41
1
10
12.8301181887587
20
8.06171364601479
30
0
41
1
10
12.8236751236561
20
8.04694107125457
30
0
41
1
10
12.8198761465974
20
8.03985664974098
30
0
41
1
10
12.8071030241155
20
8.01995663986719
30
0
41
1
10
12.7966729442766
20
8.00827134708689
30
0
41
1
10
12.7845299318823
20
7.99800322404747
30
0
0
SPLINE
5
19A
100
AcDbEntity
8
1
62
256
6
ByLayer
370
18
48
1
60
0
100
AcDbSpline
70
4
71
3
72
8
73
4
40
0
40
0
40
0
40
0
40
1
40
1
40
1
40
1
41
1
10
12.7845299318823
20
7.99800322404747
30
0
41
1
10
12.7808007310059
20
7.99245855649332
30
0
41
1
10
12.7770713951067
20
7.9869136881839
30
0
41
1
10
12.7733419209952
20
7.9813686143772
30
0
0
SPLINE
5
19B
100
AcDbEntity
8
1
62
256
6
ByLayer
370
18
48
1
60
0
100
AcDbSpline
70
4
71
3
72
8
73
4
40
0
40
0
40
0
40
0
40
1
40
1
40
1
40
1
41
1
10
9.22625597584019
20
7.9813686143772
30
0
41
1
10
9.22252650172877
20
7.9869136881839
30
0
41
1
10
9.21879716582959
20
7.99245855649332
30
0
41
1
10
9.21506796495316
20
7.99800322404747
30
0
0
SPLINE
5
19C
100
AcDbEntity
8
1
62
256
6
ByLayer
370
18
48
1
60
0
100
AcDbSpline
70
4
71
3
72
35
73
31
40
0
40
0
40
0
40
0
40
0.125000000000008
40
0.125000000000008
40
0.250000000000015
40
0.250000000000015
40
0.375000000000023
40
0.375000000000023
40
0.500000000000031
40
0.500000000000031
40
0.56250000000001
40
0.56250000000001
40
0.62499999999999
40
0.62499999999999
40
0.687499999999969
40
0.687499999999969
40
0.718749999999961
40
0.718749999999961
40
0.749999999999954
40
0.749999999999954
40
0.812499999999956
40
0.812499999999956
40
0.843749999999963
40
0.843749999999963
40
0.87499999999997
40
0.906249999999977
40
0.906249999999977
40
0.937499999999984
40
0.937499999999984
40
1
40
1
40
1
40
1
41
1
10
9.5964489484177
20
8.64317350079904
30
0
41
1
10
9.5649093077358
20
8.6249640807612
30
0
41
1
10
9.53405264814032
20
8.60550689168352
30
0
41
1
10
9.47400484743966
20
8.56416810484274
30
0
41
1
10
9.44488716528224
20
8.54234419144871
30
0
41
1
10
9.38864508292434
20
8.49616275864773
30
0
41
1
10
9.36151045025639
20
8.47179398606053
30
0
41
1
10
9.31004442327318
20
8.42041994198047
30
0
41
1
10
9.28568988751627
20
8.39340729895173
30
0
41
1
10
9.25221362085603
20
8.35072035386432
30
0
41
1
10
9.2415839377891
20
8.33614981552859
30
0
41
1
10
9.22158671764163
20
8.30620204397792
30
0
41
1
10
9.21224723509414
20
8.2908589954117
30
0
41
1
10
9.19535629494268
20
8.25962857749056
30
0
41
1
10
9.18777301408863
20
8.24370195120477
30
0
41
1
10
9.17803588039072
20
8.21923326821502
30
0
41
1
10
9.17506482406475
20
8.21098002412231
30
0
41
1
10
9.1697605732509
20
8.19425059729619
30
0
41
1
10
9.16742901626239
20
8.18576441519437
30
0
41
1
10
9.16165975310415
20
8.16039905828575
30
0
41
1
10
9.15937914445351
20
8.14347009943828
30
0
41
1
10
9.15898184187407
20
8.11806495634701
30
0
41
1
10
9.15936833076734
20
8.10961074161784
30
0
41
1
10
9.16123040259961
20
8.09320404363388
30
0
41
1
10
9.1641758297481
20
8.07717786470718
30
0
41
1
10
9.16938878712611
20
8.06195660494379
30
0
41
1
10
9.17580941826174
20
8.04716755170611
30
0
41
1
10
9.17962100920815
20
8.04003006183726
30
0
41
1
10
9.19242613536363
20
8.02003132180877
30
0
41
1
10
9.20288890806077
20
8.00830182629005
30
0
41
1
10
9.21506796495316
20
7.99800322404747
30
0
0
SPLINE
5
19D
100
AcDbEntity
8
1
62
256
6
ByLayer
370
18
48
1
60
0
100
AcDbSpline
70
4
71
3
72
39
73
35
40
0
40
0
40
0
40
0
40
0.124999999999932
40
0.124999999999932
40
0.249999999999864
40
0.249999999999864
40
0.374999999999795
40
0.374999999999795
40
0.437499999999762
40
0.437499999999762
40
0.499999999999729
40
0.499999999999729
40
0.562499999999696
40
0.562499999999696
40
0.624999999999663
40
0.624999999999663
40
0.68749999999963
40
0.68749999999963
40
0.718749999999639
40
0.718749999999639
40
0.749999999999648
40
0.749999999999648
40
0.81249999999974
40
0.81249999999974
40
0.843749999999784
40
0.843749999999784
40
0.874999999999827
40
0.874999999999827
40
0.90624999999987
40
0.90624999999987
40
0.937499999999913
40
0.968749999999957
40
0.968749999999957
40
1
40
1
40
1
40
1
41
1
10
8.19309894841771
20
6.21249999999725
30
0
41
1
10
8.19309894841768
20
6.24892487228317
30
0
41
1
10
8.1945228034576
20
6.28538509469584
30
0
41
1
10
8.20029246751636
20
6.35798529795179
30
0
41
1
10
8.20464252439618
20
6.39419641599147
30
0
41
1
10
8.21651349325498
20
6.46597461901268
30
0
41
1
10
8.22404351794864
20
6.50161874246098
30
0
41
1
10
8.23807985637086
20
6.55421248199301
30
0
41
1
10
8.24321505501698
20
6.57159147395924
30
0
41
1
10
8.25451166343908
20
6.60600419869525
30
0
41
1
10
8.26068238829171
20
6.62306075244297
30
0
41
1
10
8.27414285514138
20
6.65658485042647
30
0
41
1
10
8.2814343249911
20
6.67306693332759
30
0
41
1
10
8.29735214529504
20
6.7053578117461
30
0
41
1
10
8.30594075885972
20
6.72108402379163
30
0
41
1
10
8.32450009186877
20
6.75130763675301
30
0
41
1
10
8.33448238003675
20
6.76583823488562
30
0
41
1
10
8.35078310451169
20
6.78652081568362
30
0
41
1
10
8.35643924932336
20
6.79322827371951
30
0
41
1
10
8.36826729086474
20
6.80620759715984
30
0
41
1
10
8.37443403236566
20
6.81246783306486
30
0
41
1
10
8.3934731821609
20
6.83015610276678
30
0
41
1
10
8.40697248447907
20
6.84061835171889
30
0
41
1
10
8.42876634483238
20
6.85371744606474
30
0
41
1
10
8.43625826830527
20
6.85761868685472
30
0
41
1
10
8.45141404595947
20
6.86425647600208
30
0
41
1
10
8.45911931407204
20
6.86701927560864
30
0
41
1
10
8.47479757514034
20
6.87135809607568
30
0
41
1
10
8.48283582876505
20
6.87293951792361
30
0
41
1
10
8.49884924299349
20
6.87478210350397
30
0
41
1
10
8.51474267498332
20
6.87532304563848
30
0
41
1
10
8.53040281022169
20
6.87338363920301
30
0
41
1
10
8.54594875875279
20
6.87024189284099
30
0
41
1
10
8.55364049592822
20
6.86806893846708
30
0
41
1
10
8.56114230611894
20
6.86537075857362
30
0
0
SPLINE
5
19E
100
AcDbEntity
8
1
62
256
6
ByLayer
370
18
48
1
60
0
100
AcDbSpline
70
4
71
3
72
8
73
4
40
0
40
0
40
0
40
0
40
1
40
1
40
1
40
1
41
1
10
8.58114230611892
20
6.86399896176277
30
0
41
1
10
8.57447539428077
20
6.86445624418266
30
0
41
1
10
8.56780872951458
20
6.86491350965593
30
0
41
1
10
8.56114230611894
20
6.86537075857362
30
0
0
SPLINE
5
19F
100
AcDbEntity
8
1
62
256
6
ByLayer
370
18
48
1
60
0
100
AcDbSpline
70
4
71
3
72
50
73
46
40
0
40
0
40
0
40
0
40
0.031249999999974
40
0.031249999999974
40
0.0468749999999679
40
0.0468749999999679
40
0.0624999999999617
40
0.0624999999999617
40
0.124999999999979
40
0.124999999999979
40
0.156249999999982
40
0.156249999999982
40
0.187499999999986
40
0.187499999999986
40
0.249999999999986
40
0.249999999999986
40
0.28124999999999
40
0.28124999999999
40
0.312499999999994
40
0.312499999999994
40
0.374999999999993
40
0.374999999999993
40
0.499999999999989
40
0.499999999999989
40
0.562499999999973
40
0.562499999999973
40
0.624999999999957
40
0.624999999999957
40
0.687499999999941
40
0.687499999999941
40
0.749999999999925
40
0.749999999999925
40
0.812499999999909
40
0.812499999999909
40
0.843749999999924
40
0.843749999999924
40
0.874999999999939
40
0.874999999999939
40
0.906249999999955
40
0.906249999999955
40
0.93749999999997
40
0.93749999999997
40
0.968749999999985
40
0.968749999999985
40
1
40
1
40
1
40
1
41
1
10
9.22625597584019
20
7.9813686143772
30
0
41
1
10
9.23395412049157
20
7.96992282363266
30
0
41
1
10
9.24035755822942
20
7.95775405451931
30
0
41
1
10
9.24844524656561
20
7.93864568520291
30
0
41
1
10
9.25088558835873
20
7.93213218715826
30
0
41
1
10
9.25530178921571
20
7.91884154821847
30
0
41
1
10
9.25728172738499
20
7.91204493715372
30
0
41
1
10
9.26602645948665
20
7.87780640596378
30
0
41
1
10
9.26949597602729
20
7.84947052692775
30
0
41
1
10
9.27109870493311
20
7.80592734754603
30
0
41
1
10
9.27101066771496
20
7.79118949863874
30
0
41
1
10
9.26976430195373
20
7.76177099963374
30
0
41
1
10
9.2686102252446
20
7.74705451242227
30
0
41
1
10
9.26376812520564
20
7.70287223400575
30
0
41
1
10
9.25871329779267
20
7.6733734138389
30
0
41
1
10
9.24886427829875
20
7.62902167291193
30
0
41
1
10
9.24519042714346
20
7.61418796128649
30
0
41
1
10
9.23716370285641
20
7.5846348087633
30
0
41
1
10
9.23282538678268
20
7.56996210735738
30
0
41
1
10
9.21891552610771
20
7.52622586506195
30
0
41
1
10
9.20845456194795
20
7.49744221931928
30
0
41
1
10
9.17388082296154
20
7.41207002010114
30
0
41
1
10
9.1466322222193
20
7.35644031338836
30
0
41
1
10
9.09961709289098
20
7.27483070866793
30
0
41
1
10
9.08306509093833
20
7.24821612064648
30
0
41
1
10
9.04820544918562
20
7.19622686485863
30
0
41
1
10
9.02989336415953
20
7.1708530861417
30
0
41
1
10
8.9916857575964
20
7.12179280601723
30
0
41
1
10
8.97171286100129
20
7.09800756761067
30
0
41
1
10
8.93024344706205
20
7.05253009279554
30
0
41
1
10
8.90871209419311
20
7.03078734689063
30
0
41
1
10
8.86392498637852
20
6.98973127900697
30
0
41
1
10
8.84081963369374
20
6.97054371366323
30
0
41
1
10
8.80481363398849
20
6.94417453180694
30
0
41
1
10
8.79256356052662
20
6.9357774005648
30
0
41
1
10
8.7677011952037
20
6.92001828074359
30
0
41
1
10
8.75507816728037
20
6.9126453785689
30
0
41
1
10
8.72937347324645
20
6.89907229692489
30
0
41
1
10
8.71631454467149
20
6.89288670539315
30
0
41
1
10
8.68989217914685
20
6.8820198898548
30
0
41
1
10
8.67646381544569
20
6.87731156771676
30
0
41
1
10
8.6493375522605
20
6.86975748061087
30
0
41
1
10
8.63575118519302
20
6.86693710516425
30
0
41
1
10
8.6085075936268
20
6.86359092752102
30
0
41
1
10
8.5948505536208
20
6.86305871525249
30
0
41
1
10
8.58114230611892
20
6.86399896176277
30
0
0
LINE
5
7F
100
AcDbEntity
8
80
62
256
6
ByLayer
370
18
48
1
60
0
100
AcDbLine
10
0
20
0
30
0
11
-5
21
0
31
0
39
0
210
0
220
0
230
1
0
LINE
5
80
100
AcDbEntity
8
81
62
256
6
ByLayer
370
18
48
1
60
0
100
AcDbLine
10
26
20
34.5625
30
0
11
26
21
39.5625
31
0
39
0
210
0
220
0
230
1
0
LINE
5
81
100
AcDbEntity
8
SK1
62
256
6
ByLayer
370
18
48
1
60
0
100
AcDbLine
10
-124
20
-12.4375
30
0
11
-3.301981
21
-12.4375
31
0
39
0
210
0
220
0
230
1
0
LINE
5
83
100
AcDbEntity
8
SK1
62
256
6
ByLayer
370
18
48
1
60
0
100
AcDbLine
10
-124
20
12.4375
30
0
11
-3.301981
21
12.4375
31
0
39
0
210
0
220
0
230
1
0
LINE
5
84
100
AcDbEntity
8
SK1
62
256
6
ByLayer
370
18
48
1
60
0
100
AcDbLine
10
-124
20
-12.4375
30
0
11
-124
21
12.4375
31
0
39
0
210
0
220
0
230
1
0
LINE
5
85
100
AcDbEntity
8
SK1
62
256
6
ByLayer
370
18
48
1
60
0
100
AcDbLine
10
-3.301981
20
12.4375
30
0
11
-1.497903
21
12.4375
31
0
39
0
210
0
220
0
230
1
0
LINE
5
86
100
AcDbEntity
8
SK1
62
256
6
ByLayer
370
13
48
1
60
0
100
AcDbLine
10
-3.301981
20
-12.4375
30
0
11
-3.301981
21
12.4375
31
0
39
0
210
0
220
0
230
1
0
LINE
5
87
100
AcDbEntity
8
SK1
62
256
6
ByLayer
370
18
48
1
60
0
100
AcDbLine
10
0
20
-5.327875
30
0
11
0
21
-5.523714
31
0
39
0
210
0
220
0
230
1
0
LINE
5
88
100
AcDbEntity
8
SK1
62
256
6
ByLayer
370
18
48
1
60
0
100
AcDbLine
10
-1.497903
20
12.4375
30
0
11
-1.227723
21
12.4375
31
0
39
0
210
0
220
0
230
1
0
LINE
5
89
100
AcDbEntity
8
SK1
62
256
6
ByLayer
370
13
48
1
60
0
100
AcDbLine
10
-0.404203
20
-2.266325
30
0
11
-0.404203
21
-5.793839
31
0
39
0
210
0
220
0
230
1
0
LINE
5
8A
100
AcDbEntity
8
SK1
62
256
6
ByLayer
370
18
48
1
60
0
100
AcDbLine
10
-0.404203
20
-2.266325
30
0
11
-0.307117
21
-5.519391
31
0
39
0
210
0
220
0
230
1
0
LINE
5
8B
100
AcDbEntity
8
SK1
62
256
6
ByLayer
370
18
48
1
60
0
100
AcDbLine
10
0
20
-11.356266
30
0
11
0
21
-12.440783
31
0
39
0
210
0
220
0
230
1
0
LINE
5
8C
100
AcDbEntity
8
SK1
62
256
6
ByLayer
370
18
48
1
60
0
100
AcDbLine
10
-1.31499
20
-12.440783
30
0
11
0
21
-12.440783
31
0
39
0
210
0
220
0
230
1
0
LINE
5
8D
100
AcDbEntity
8
SK1
62
256
6
ByLayer
370
18
48
1
60
0
100
AcDbLine
10
0
20
-11.356266
30
0
11
0
21
-8.671065
31
0
39
0
210
0
220
0
230
1
0
LINE
5
8E
100
AcDbEntity
8
SK1
62
256
6
ByLayer
370
18
48
1
60
0
100
AcDbLine
10
0
20
-11.356266
30
0
11
-0.404203
21
-11.905318
31
0
39
0
210
0
220
0
230
1
0
LINE
5
8F
100
AcDbEntity
8
SK1
62
256
6
ByLayer
370
13
48
1
60
0
100
AcDbLine
10
-0.404203
20
-8.205337
30
0
11
-0.404203
21
-11.905318
31
0
39
0
210
0
220
0
230
1
0
LINE
5
90
100
AcDbEntity
8
SK1
62
256
6
ByLayer
370
18
48
1
60
0
100
AcDbLine
10
0
20
-8.671062
30
0
11
0
21
-5.523714
31
0
39
0
210
0
220
0
230
1
0
LINE
5
91
100
AcDbEntity
8
1
62
256
6
ByLayer
370
18
48
1
60
0
100
AcDbLine
10
0
20
-5.327875
30
0
11
0
21
-5.523714
31
0
39
0
210
0
220
0
230
1
0
LINE
5
92
100
AcDbEntity
8
1
62
256
6
ByLayer
370
18
48
1
60
0
100
AcDbLine
10
0
20
-8.671062
30
0
11
0
21
-5.523714
31
0
39
0
210
0
220
0
230
1
0
LINE
5
93
100
AcDbEntity
8
1
62
256
6
ByLayer
370
18
48
1
60
0
100
AcDbLine
10
0
20
-11.356266
30
0
11
0
21
-12.440783
31
0
39
0
210
0
220
0
230
1
0
LINE
5
94
100
AcDbEntity
8
1
62
256
6
ByLayer
370
18
48
1
60
0
100
AcDbLine
10
0
20
-12.440783
30
0
11
25.181057
21
-12.440783
31
0
39
0
210
0
220
0
230
1
0
LINE
5
95
100
AcDbEntity
8
1
62
256
6
ByLayer
370
18
48
1
60
0
100
AcDbLine
10
0
20
-11.356266
30
0
11
0
21
-8.671065
31
0
39
0
210
0
220
0
230
1
0
LINE
5
96
100
AcDbEntity
8
1
62
256
6
ByLayer
370
18
48
1
60
0
100
AcDbLine
10
0
20
-5.328111
30
0
11
0
21
12.9625
31
0
39
0
210
0
220
0
230
1
0
LINE
5
97
100
AcDbEntity
8
1
62
256
6
ByLayer
370
13
48
1
60
0
100
AcDbLine
10
26.183189
20
7.0625
30
0
11
26.078614
21
7.0625
31
0
39
0
210
0
220
0
230
1
0
LINE
5
98
100
AcDbEntity
8
1
62
256
6
ByLayer
370
13
48
1
60
0
100
AcDbLine
10
26.183189
20
6.7625
30
0
11
26.078614
21
6.7625
31
0
39
0
210
0
220
0
230
1
0
LINE
5
99
100
AcDbEntity
8
1
62
256
6
ByLayer
370
18
48
1
60
0
100
AcDbLine
10
25.844788
20
23.101644
30
0
11
25.344597
21
23.100752
31
0
39
0
210
0
220
0
230
1
0
LINE
5
9A
100
AcDbEntity
8
1
62
256
6
ByLayer
370
18
48
1
60
0
100
AcDbLine
10
25.834254
20
25.57126
30
0
11
25.34462
21
25.570387
31
0
39
0
210
0
220
0
230
1
0
LINE
5
9B
100
AcDbEntity
8
1
62
256
6
ByLayer
370
18
48
1
60
0
100
AcDbLine
10
25.844788
20
17.153828
30
0
11
25.726322
21
17.154037
31
0
39
0
210
0
220
0
230
1
0
LINE
5
9C
100
AcDbEntity
8
1
62
256
6
ByLayer
370
18
48
1
60
0
100
AcDbLine
10
23.753297
20
23.069157
30
0
11
25.227977
21
22.721347
31
0
39
0
210
0
220
0
230
1
0
LINE
5
9D
100
AcDbEntity
8
1
62
256
6
ByLayer
370
18
48
1
60
0
100
AcDbLine
10
18.875478
20
22.807622
30
0
11
20.080321
21
23.069489
31
0
39
0
210
0
220
0
230
1
0
LINE
5
9E
100
AcDbEntity
8
1
62
256
6
ByLayer
370
18
48
1
60
0
100
AcDbLine
10
36.621158
20
25.102228
30
0
11
36.621158
21
-12.328962
31
0
39
0
210
0
220
0
230
1
0
LINE
5
9F
100
AcDbEntity
8
1
62
256
6
ByLayer
370
18
48
1
60
0
100
AcDbLine
10
26.00832
20
33.3625
30
0
11
28.640207
21
33.3625
31
0
39
0
210
0
220
0
230
1
0
LINE
5
A0
100
AcDbEntity
8
1
62
256
6
ByLayer
370
18
48
1
60
0
100
AcDbLine
10
25.834254
20
29.376185
30
0
11
25.834254
21
25.57126
31
0
39
0
210
0
220
0
230
1
0
LINE
5
A1
100
AcDbEntity
8
1
62
256
6
ByLayer
370
18
48
1
60
0
100
AcDbLine
10
25.844788
20
23.101644
30
0
11
25.844788
21
17.153828
31
0
39
0
210
0
220
0
230
1
0
LINE
5
A2
100
AcDbEntity
8
1
62
256
6
ByLayer
370
18
48
1
60
0
100
AcDbLine
10
26.183189
20
7.0625
30
0
11
26.183189
21
6.7625
31
0
39
0
210
0
220
0
230
1
0
LINE
5
A3
100
AcDbEntity
8
1
62
256
6
ByLayer
370
13
48
1
60
0
100
AcDbLine
10
18.881638
20
14.5625
30
0
11
19.790725
21
14.5625
31
0
39
0
210
0
220
0
230
1
0
LINE
5
A4
100
AcDbEntity
8
1
62
256
6
ByLayer
370
18
48
1
60
0
100
AcDbLine
10
26.078624
20
-9.148757
30
0
11
26.078624
21
-9.876697
31
0
39
0
210
0
220
0
230
1
0
LINE
5
A5
100
AcDbEntity
8
1
62
256
6
ByLayer
370
18
48
1
60
0
100
AcDbLine
10
26.078624
20
-9.148757
30
0
11
26.078624
21
11.922314
31
0
39
0
210
0
220
0
230
1
0
LINE
5
A6
100
AcDbEntity
8
1
62
256
6
ByLayer
370
18
48
1
60
0
100
AcDbLine
10
17.578799
20
12.9625
30
0
11
1.625133
21
12.9625
31
0
39
0
210
0
220
0
230
1
0
LINE
5
A7
100
AcDbEntity
8
1
62
256
6
ByLayer
370
18
48
1
60
0
100
AcDbLine
10
1.625133
20
-9.148757
30
0
11
26.078624
21
-9.148757
31
0
39
0
210
0
220
0
230
1
0
LINE
5
A8
100
AcDbEntity
8
1
62
256
6
ByLayer
370
18
48
1
60
0
100
AcDbLine
10
1.625133
20
-9.148757
30
0
11
0
21
-11.356266
31
0
39
0
210
0
220
0
230
1
0
LINE
5
A9
100
AcDbEntity
8
1
62
256
6
ByLayer
370
18
48
1
60
0
100
AcDbLine
10
1.625133
20
12.9625
30
0
11
1.625133
21
-9.148757
31
0
39
0
210
0
220
0
230
1
0
LINE
5
AA
100
AcDbEntity
8
1
62
256
6
ByLayer
370
18
48
1
60
0
100
AcDbLine
10
1.625133
20
12.9625
30
0
11
0
21
12.9625
31
0
39
0
210
0
220
0
230
1
0
LINE
5
AB
100
AcDbEntity
8
1
62
256
6
ByLayer
370
18
48
1
60
0
100
AcDbLine
10
19.071232
20
20.0625
30
0
11
25.41485
21
20.0625
31
0
39
0
210
0
220
0
230
1
0
LINE
5
AC
100
AcDbEntity
8
1
62
256
6
ByLayer
370
18
48
1
60
0
100
AcDbLine
10
26.078624
20
11.922314
30
0
11
18.825097
21
11.922314
31
0
39
0
210
0
220
0
230
1
0
LINE
5
AD
100
AcDbEntity
8
1
62
256
6
ByLayer
370
18
48
1
60
0
100
AcDbLine
10
26.078624
20
14.77854
30
0
11
26.078624
21
11.922314
31
0
39
0
210
0
220
0
230
1
0
LINE
5
AE
100
AcDbEntity
8
1
62
256
6
ByLayer
370
13
48
1
60
0
100
AcDbLine
10
18.825097
20
13.010522
30
0
11
18.825097
21
11.922314
31
0
39
0
210
0
220
0
230
1
0
LINE
5
AF
100
AcDbEntity
8
1
62
256
6
ByLayer
370
18
48
1
60
0
100
AcDbLine
10
17.578799
20
12.9625
30
0
11
18.446108
21
12.9625
31
0
39
0
210
0
220
0
230
1
0
LINE
5
B0
100
AcDbEntity
8
SK1
62
256
6
ByLayer
370
18
48
1
60
0
100
AcDbLine
10
0
20
-5.328111
30
0
11
0
21
12.9625
31
0
39
0
210
0
220
0
230
1
0
LINE
5
B1
100
AcDbEntity
8
SK1
62
256
6
ByLayer
370
18
48
1
60
0
100
AcDbLine
10
0
20
12.9625
30
0
11
-0.04266
21
12.9625
31
0
39
0
210
0
220
0
230
1
0
LINE
5
B2
100
AcDbEntity
8
SK1
62
256
6
ByLayer
370
13
48
1
60
0
100
AcDbLine
10
-0.404203
20
12.665707
30
0
11
-0.404203
21
6.707859
31
0
39
0
210
0
220
0
230
1
0
LINE
5
B3
100
AcDbEntity
8
SK1
62
256
6
ByLayer
370
18
48
1
60
0
100
AcDbLine
10
-0.045675
20
-5.305333
30
0
11
-0.404203
21
6.707859
31
0
39
0
210
0
220
0
230
1
0
LINE
5
B4
100
AcDbEntity
8
1
62
256
6
ByLayer
370
18
48
1
60
0
100
AcDbLine
10
18.700178
20
26.437145
30
0
11
18.700178
21
26.720716
31
0
39
0
210
0
220
0
230
1
0
LINE
5
B5
100
AcDbEntity
8
1
62
256
6
ByLayer
370
18
48
1
60
0
100
AcDbLine
10
25.730601
20
27.520117
30
0
11
25.326811
21
26.820716
31
0
39
0
210
0
220
0
230
1
0
LINE
5
B6
100
AcDbEntity
8
1
62
256
6
ByLayer
370
18
48
1
60
0
100
AcDbLine
10
26.024238
20
33.727604
30
0
11
25.757205
21
27.611393
31
0
39
0
210
0
220
0
230
1
0
LINE
5
B7
100
AcDbEntity
8
1
62
256
6
ByLayer
370
18
48
1
60
0
100
AcDbLine
10
18.775176
20
34.5625
30
0
11
25.225019
21
34.5625
31
0
39
0
210
0
220
0
230
1
0
LINE
5
B8
100
AcDbEntity
8
1
62
256
6
ByLayer
370
18
48
1
60
0
100
AcDbLine
10
17.975957
20
33.727604
30
0
11
18.24299
21
27.611393
31
0
39
0
210
0
220
0
230
1
0
LINE
5
B9
100
AcDbEntity
8
1
62
256
6
ByLayer
370
18
48
1
60
0
100
AcDbLine
10
18.269594
20
27.520117
30
0
11
18.673384
21
26.820716
31
0
39
0
210
0
220
0
230
1
0
LINE
5
BA
100
AcDbEntity
8
1
62
256
6
ByLayer
370
18
48
1
60
0
100
AcDbLine
10
19.505493
20
31.058608
30
0
11
19.69416
21
26.737316
31
0
39
0
210
0
220
0
230
1
0
LINE
5
BB
100
AcDbEntity
8
1
62
256
6
ByLayer
370
18
48
1
60
0
100
AcDbLine
10
24.494702
20
31.058608
30
0
11
24.306035
21
26.737316
31
0
39
0
210
0
220
0
230
1
0
LINE
5
BC
100
AcDbEntity
8
1
62
256
6
ByLayer
370
13
48
1
60
0
100
AcDbLine
10
19.866842
20
30.663371
30
0
11
20.047627
21
26.522623
31
0
39
0
210
0
220
0
230
1
0
LINE
5
BD
100
AcDbEntity
8
1
62
256
6
ByLayer
370
13
48
1
60
0
100
AcDbLine
10
24.13078
20
30.663371
30
0
11
23.949995
21
26.522623
31
0
39
0
210
0
220
0
230
1
0
LINE
5
BE
100
AcDbEntity
8
1
62
256
6
ByLayer
370
13
48
1
60
0
100
AcDbLine
10
20.020511
20
30.433086
30
0
11
20.197937
21
26.369264
31
0
39
0
210
0
220
0
230
1
0
LINE
5
BF
100
AcDbEntity
8
1
62
256
6
ByLayer
370
13
48
1
60
0
100
AcDbLine
10
20.512418
20
30.093578
30
0
11
20.684892
21
26.143166
31
0
39
0
210
0
220
0
230
1
0
LINE
5
C0
100
AcDbEntity
8
1
62
256
6
ByLayer
370
13
48
1
60
0
100
AcDbLine
10
23.975611
20
30.433086
30
0
11
23.798185
21
26.369263
31
0
39
0
210
0
220
0
230
1
0
LINE
5
C1
100
AcDbEntity
8
1
62
256
6
ByLayer
370
13
48
1
60
0
100
AcDbLine
10
23.481494
20
30.093578
30
0
11
23.30902
21
26.143166
31
0
39
0
210
0
220
0
230
1
0
LINE
5
C2
100
AcDbEntity
8
1
62
256
6
ByLayer
370
18
48
1
60
0
100
AcDbLine
10
23.975611
20
30.433086
30
0
11
24.130782
21
30.663371
31
0
39
0
210
0
220
0
230
1
0
LINE
5
C3
100
AcDbEntity
8
1
62
256
6
ByLayer
370
18
48
1
60
0
100
AcDbLine
10
24.494701
20
31.058606
30
0
11
22.000097
21
31.058606
31
0
39
0
210
0
220
0
230
1
0
LINE
5
C4
100
AcDbEntity
8
1
62
256
6
ByLayer
370
18
48
1
60
0
100
AcDbLine
10
19.505494
20
31.058606
30
0
11
22.000097
21
31.058606
31
0
39
0
210
0
220
0
230
1
0
LINE
5
C5
100
AcDbEntity
8
1
62
256
6
ByLayer
370
18
48
1
60
0
100
AcDbLine
10
20.020511
20
30.433086
30
0
11
19.86684
21
30.663371
31
0
39
0
210
0
220
0
230
1
0
LINE
5
C6
100
AcDbEntity
8
1
62
256
6
ByLayer
370
18
48
1
60
0
100
AcDbLine
10
20.512418
20
30.093578
30
0
11
21.996956
21
30.093578
31
0
39
0
210
0
220
0
230
1
0
LINE
5
C7
100
AcDbEntity
8
1
62
256
6
ByLayer
370
18
48
1
60
0
100
AcDbLine
10
23.481494
20
30.093578
30
0
11
21.996956
21
30.093578
31
0
39
0
210
0
220
0
230
1
0
LINE
5
C8
100
AcDbEntity
8
1
62
256
6
ByLayer
370
13
48
1
60
0
100
AcDbLine
10
21.723999
20
25.505369
30
0
11
22.263986
21
25.505369
31
0
39
0
210
0
220
0
230
1
0
LINE
5
C9
100
AcDbEntity
8
1
62
256
6
ByLayer
370
13
48
1
60
0
100
AcDbLine
10
21.723999
20
23.563812
30
0
11
21.723999
21
25.505364
31
0
39
0
210
0
220
0
230
1
0
LINE
5
CA
100
AcDbEntity
8
1
62
256
6
ByLayer
370
13
48
1
60
0
100
AcDbLine
10
22.263986
20
23.561026
30
0
11
22.263986
21
25.505364
31
0
39
0
210
0
220
0
230
1
0
LINE
5
CB
100
AcDbEntity
8
1
62
256
6
ByLayer
370
13
48
1
60
0
100
AcDbLine
10
21.533206
20
23.564751
30
0
11
21.533206
21
25.492035
31
0
39
0
210
0
220
0
230
1
0
LINE
5
CC
100
AcDbEntity
8
1
62
256
6
ByLayer
370
13
48
1
60
0
100
AcDbLine
10
22.454654
20
23.560118
30
0
11
22.454654
21
25.492035
31
0
39
0
210
0
220
0
230
1
0
LINE
5
CD
100
AcDbEntity
8
1
62
256
6
ByLayer
370
13
48
1
60
0
100
AcDbLine
10
21.314957
20
23.457519
30
0
11
21.314957
21
25.132158
31
0
39
0
210
0
220
0
230
1
0
LINE
5
CE
100
AcDbEntity
8
1
62
256
6
ByLayer
370
13
48
1
60
0
100
AcDbLine
10
22.670389
20
23.441245
30
0
11
22.670389
21
25.132158
31
0
39
0
210
0
220
0
230
1
0
LINE
5
CF
100
AcDbEntity
8
1
62
256
6
ByLayer
370
13
48
1
60
0
100
AcDbLine
10
21.258497
20
23.321411
30
0
11
21.258497
21
24.920413
31
0
39
0
210
0
220
0
230
1
0
LINE
5
D0
100
AcDbEntity
8
1
62
256
6
ByLayer
370
13
48
1
60
0
100
AcDbLine
10
22.724632
20
23.305421
30
0
11
22.724632
21
24.920413
31
0
39
0
210
0
220
0
230
1
0
LINE
5
D1
100
AcDbEntity
8
1
62
256
6
ByLayer
370
13
48
1
60
0
100
AcDbLine
10
21.227412
20
23.274529
30
0
11
21.227412
21
24.920413
31
0
39
0
210
0
220
0
230
1
0
LINE
5
D2
100
AcDbEntity
8
1
62
256
6
ByLayer
370
13
48
1
60
0
100
AcDbLine
10
21.227412
20
24.920413
30
0
11
21.135136
21
24.817828
31
0
39
0
210
0
220
0
230
1
0
LINE
5
D3
100
AcDbEntity
8
1
62
256
6
ByLayer
370
13
48
1
60
0
100
AcDbLine
10
22.75515
20
23.264148
30
0
11
22.75515
21
24.920413
31
0
39
0
210
0
220
0
230
1
0
LINE
5
D4
100
AcDbEntity
8
1
62
256
6
ByLayer
370
13
48
1
60
0
100
AcDbLine
10
21.135136
20
24.817828
30
0
11
21.135136
21
23.259459
31
0
39
0
210
0
220
0
230
1
0
LINE
5
D5
100
AcDbEntity
8
1
62
256
6
ByLayer
370
13
48
1
60
0
100
AcDbLine
10
22.75515
20
24.920413
30
0
11
22.846424
21
24.817828
31
0
39
0
210
0
220
0
230
1
0
LINE
5
D6
100
AcDbEntity
8
1
62
256
6
ByLayer
370
13
48
1
60
0
100
AcDbLine
10
22.846424
20
24.817828
30
0
11
22.846424
21
23.24632
31
0
39
0
210
0
220
0
230
1
0
LINE
5
D7
100
AcDbEntity
8
1
62
256
6
ByLayer
370
18
48
1
60
0
100
AcDbLine
10
23.798185
20
26.369263
30
0
11
23.949997
21
26.522623
31
0
39
0
210
0
220
0
230
1
0
LINE
5
D8
100
AcDbEntity
8
1
62
256
6
ByLayer
370
18
48
1
60
0
100
AcDbLine
10
21.996956
20
26.143167
30
0
11
23.30902
21
26.143166
31
0
39
0
210
0
220
0
230
1
0
LINE
5
D9
100
AcDbEntity
8
1
62
256
6
ByLayer
370
18
48
1
60
0
100
AcDbLine
10
21.996956
20
26.143167
30
0
11
20.684892
21
26.143166
31
0
39
0
210
0
220
0
230
1
0
LINE
5
DA
100
AcDbEntity
8
1
62
256
6
ByLayer
370
18
48
1
60
0
100
AcDbLine
10
20.197937
20
26.369263
30
0
11
20.047625
21
26.522623
31
0
39
0
210
0
220
0
230
1
0
LINE
5
DB
100
AcDbEntity
8
1
62
256
6
ByLayer
370
13
48
1
60
0
100
AcDbLine
10
19.86369
20
24.570902
30
0
11
21.073481
21
24.875185
31
0
39
0
210
0
220
0
230
1
0
LINE
5
DC
100
AcDbEntity
8
1
62
256
6
ByLayer
370
13
48
1
60
0
100
AcDbLine
10
21.165758
20
24.977771
30
0
11
21.073481
21
24.875185
31
0
39
0
210
0
220
0
230
1
0
LINE
5
DD
100
AcDbEntity
8
1
62
256
6
ByLayer
370
13
48
1
60
0
100
AcDbLine
10
21.724125
20
25.562726
30
0
11
22.264112
21
25.562726
31
0
39
0
210
0
220
0
230
1
0
LINE
5
DE
100
AcDbEntity
8
1
62
256
6
ByLayer
370
13
48
1
60
0
100
AcDbLine
10
22.81676
20
24.977771
30
0
11
22.908034
21
24.875185
31
0
39
0
210
0
220
0
230
1
0
LINE
5
DF
100
AcDbEntity
8
1
62
256
6
ByLayer
370
13
48
1
60
0
100
AcDbLine
10
24.11485
20
24.570902
30
0
11
22.908034
21
24.875185
31
0
39
0
210
0
220
0
230
1
0
LINE
5
E0
100
AcDbEntity
8
1
62
256
6
ByLayer
370
18
48
1
60
0
100
AcDbLine
10
18.68851
20
24.050189
30
0
11
18.700178
21
26.437145
31
0
39
0
210
0
220
0
230
1
0
LINE
5
E1
100
AcDbEntity
8
1
62
256
6
ByLayer
370
18
48
1
60
0
100
AcDbLine
10
19.100168
20
26.437145
30
0
11
18.700178
21
26.437145
31
0
39
0
210
0
220
0
230
1
0
LINE
5
E2
100
AcDbEntity
8
1
62
256
6
ByLayer
370
18
48
1
60
0
100
AcDbLine
10
18.68851
20
15.074811
30
0
11
18.694478
21
13.85392
31
0
39
0
210
0
220
0
230
1
0
LINE
5
E3
100
AcDbEntity
8
1
62
256
6
ByLayer
370
13
48
1
60
0
100
AcDbLine
10
21.09073
20
24.817828
30
0
11
21.09073
21
23.252068
31
0
39
0
210
0
220
0
230
1
0
LINE
5
E4
100
AcDbEntity
8
1
62
256
6
ByLayer
370
13
48
1
60
0
100
AcDbLine
10
19.881168
20
24.513602
30
0
11
21.09073
21
24.817828
31
0
39
0
210
0
220
0
230
1
0
LINE
5
E5
100
AcDbEntity
8
1
62
256
6
ByLayer
370
13
48
1
60
0
100
AcDbLine
10
18.68851
20
15.074811
30
0
11
18.881246
21
15.074811
31
0
39
0
210
0
220
0
230
1
0
LINE
5
E6
100
AcDbEntity
8
1
62
256
6
ByLayer
370
13
48
1
60
0
100
AcDbLine
10
18.68851
20
24.050189
30
0
11
19.088508
21
24.050189
31
0
39
0
210
0
220
0
230
1
0
LINE
5
E7
100
AcDbEntity
8
1
62
256
6
ByLayer
370
18
48
1
60
0
100
AcDbLine
10
18.688383
20
23.992831
30
0
11
18.688383
21
15.132169
31
0
39
0
210
0
220
0
230
1
0
LINE
5
E8
100
AcDbEntity
8
1
62
256
6
ByLayer
370
13
48
1
60
0
100
AcDbLine
10
18.688383
20
15.132169
30
0
11
18.881204
21
15.132169
31
0
39
0
210
0
220
0
230
1
0
LINE
5
E9
100
AcDbEntity
8
1
62
256
6
ByLayer
370
13
48
1
60
0
100
AcDbLine
10
18.688383
20
23.992831
30
0
11
19.088388
21
23.992831
31
0
39
0
210
0
220
0
230
1
0
LINE
5
EA
100
AcDbEntity
8
1
62
256
6
ByLayer
370
13
48
1
60
0
100
AcDbLine
10
19.170874
20
23.998222
30
0
11
19.170874
21
22.871687
31
0
39
0
210
0
220
0
230
1
0
LINE
5
EB
100
AcDbEntity
8
1
62
256
6
ByLayer
370
13
48
1
60
0
100
AcDbLine
10
19.205624
20
24.00291
30
0
11
19.205624
21
22.879347
31
0
39
0
210
0
220
0
230
1
0
LINE
5
EC
100
AcDbEntity
8
1
62
256
6
ByLayer
370
18
48
1
60
0
100
AcDbLine
10
24.900027
20
26.437145
30
0
11
25.300017
21
26.437145
31
0
39
0
210
0
220
0
230
1
0
LINE
5
ED
100
AcDbEntity
8
1
62
256
6
ByLayer
370
13
48
1
60
0
100
AcDbLine
10
24.097142
20
24.513602
30
0
11
22.890554
21
24.817828
31
0
39
0
210
0
220
0
230
1
0
LINE
5
EE
100
AcDbEntity
8
1
62
256
6
ByLayer
370
13
48
1
60
0
100
AcDbLine
10
22.890554
20
24.817828
30
0
11
22.890554
21
23.237781
31
0
39
0
210
0
220
0
230
1
0
LINE
5
EF
100
AcDbEntity
8
1
62
256
6
ByLayer
370
18
48
1
60
0
100
AcDbLine
10
25.344623
20
20.858862
30
0
11
25.344623
21
26.851328
31
0
39
0
210
0
220
0
230
1
0
LINE
5
F0
100
AcDbEntity
8
1
62
256
6
ByLayer
370
18
48
1
60
0
100
AcDbLine
10
25.300017
20
26.437145
30
0
11
25.300017
21
26.720716
31
0
39
0
210
0
220
0
230
1
0
LINE
5
F1
100
AcDbEntity
8
1
62
256
6
ByLayer
370
18
48
1
60
0
100
AcDbLine
10
25.288349
20
24.050189
30
0
11
25.300017
21
26.437145
31
0
39
0
210
0
220
0
230
1
0
LINE
5
F2
100
AcDbEntity
8
1
62
256
6
ByLayer
370
13
48
1
60
0
100
AcDbLine
10
24.771024
20
24.00291
30
0
11
24.771024
21
22.829115
31
0
39
0
210
0
220
0
230
1
0
LINE
5
F3
100
AcDbEntity
8
1
62
256
6
ByLayer
370
13
48
1
60
0
100
AcDbLine
10
24.805732
20
23.998222
30
0
11
24.805732
21
22.820815
31
0
39
0
210
0
220
0
230
1
0
LINE
5
F4
100
AcDbEntity
8
1
62
256
6
ByLayer
370
18
48
1
60
0
100
AcDbLine
10
25.288223
20
23.992831
30
0
11
25.288223
21
21.630634
31
0
39
0
210
0
220
0
230
1
0
LINE
5
F5
100
AcDbEntity
8
1
62
256
6
ByLayer
370
13
48
1
60
0
100
AcDbLine
10
25.288349
20
24.050189
30
0
11
24.888351
21
24.050189
31
0
39
0
210
0
220
0
230
1
0
LINE
5
F6
100
AcDbEntity
8
1
62
256
6
ByLayer
370
13
48
1
60
0
100
AcDbLine
10
25.288223
20
23.992831
30
0
11
24.888218
21
23.992831
31
0
39
0
210
0
220
0
230
1
0
LINE
5
F7
100
AcDbEntity
8
1
62
256
6
ByLayer
370
13
48
1
60
0
100
AcDbLine
10
19.0885
20
24.050203
30
0
11
19.100168
21
26.437145
31
0
39
0
210
0
220
0
230
1
0
LINE
5
F8
100
AcDbEntity
8
1
62
256
6
ByLayer
370
13
48
1
60
0
100
AcDbLine
10
19.584279
20
26.655076
30
0
11
19.573226
21
24.393869
31
0
39
0
210
0
220
0
230
1
0
LINE
5
F9
100
AcDbEntity
8
1
62
256
6
ByLayer
370
13
48
1
60
0
100
AcDbLine
10
24.415916
20
26.655076
30
0
11
24.404862
21
24.393869
31
0
39
0
210
0
220
0
230
1
0
LINE
5
FA
100
AcDbEntity
8
1
62
256
6
ByLayer
370
13
48
1
60
0
100
AcDbLine
10
24.888359
20
24.050203
30
0
11
24.900027
21
26.437145
31
0
39
0
210
0
220
0
230
1
0
MTEXT
5
1A0
100
AcDbEntity
8
SK6
62
256
6
ByLayer
370
18
48
1
60
0
100
AcDbMText
10
-78.503921
20
-40.656508
30
0
210
0
220
0
230
1
1
\W0.7854;C2A-RS25-RGL20B-050DB
40
3.5
41
0
44
1.084337
50
0
71
7
72
5
7
iso_b_vert
0
DIMENSION
5
1A5
100
AcDbEntity
8
2
62
256
6
ByLayer
370
18
48
1
60
0
100
AcDbDimension
2
_U0
10
59.721158
20
-12.4375
30
0
11
59.721158
21
11.0625
31
0
70
32
71
1
72
1
41
1
210
0
220
0
230
1
3
Standard
100
AcDbAlignedDimension
13
26
23
34.5625
33
0
14
-124
24
-12.4375
34
0
50
90
100
AcDbRotatedDimension
1001
ACAD
1000
DSTYLE
1002
{
1070
   371
1070
    13
1070
   372
1070
    13
1070
   170
1070
     0
1070
   144
1040
1.0
1070
   277
1070
     2
1070
   284
1070
     8
1070
   278
1070
    46
1070
   146
1040
1.0
1070
   345
1005
16
1070
   347
1005
16
1070
   346
1005
16
1070
   344
1005
0
1070
   343
1005
0
1070
   172
1070
     1
1070
    76
1070
     0
1070
    75
1070
     0
1070
   282
1070
     0
1070
   281
1070
     0
1070
    71
1070
     0
1070
    74
1070
     0
1070
   279
1070
     0
1070
   173
1070
     1
1070
   340
1005
1A1
1070
   271
1070
     2
1070
   272
1070
     2
1070
    77
1070
     1
1070
    73
1070
     0
1070
   171
1070
     3
1070
   274
1070
     4
1070
   177
1070
     2
1070
   176
1070
     2
1070
   178
1070
     2
1070
    78
1070
     8
1070
    48
1040
-0.1
1070
    41
1040
3.5
1070
   147
1040
1.75
1070
    42
1040
1.5875
1070
    44
1040
2.0
1070
   140
1040
3.5
1002
}
1001
ACAD_DSTYLE_DIM_LINETYPE
1070
   380
1005
16
1001
ACAD_DSTYLE_DIM_EXT1_LINETYPE
1070
   381
1005
16
1001
ACAD_DSTYLE_DIM_EXT2_LINETYPE
1070
   382
1005
16
0
DIMENSION
5
1BF
100
AcDbEntity
8
2
62
256
6
ByLayer
370
18
48
1
60
0
100
AcDbDimension
2
_U1
10
49.721158
20
34.5625
30
0
11
49.721158
21
24.5625
31
0
70
32
71
1
72
1
41
1
210
0
220
0
230
1
3
Standard
100
AcDbAlignedDimension
13
18.825097
23
14.5625
33
0
14
26
24
34.5625
34
0
50
90
100
AcDbRotatedDimension
1001
ACAD
1000
DSTYLE
1002
{
1070
   371
1070
    13
1070
   372
1070
    13
1070
   170
1070
     0
1070
   144
1040
1.0
1070
   277
1070
     2
1070
   284
1070
     8
1070
   278
1070
    46
1070
   146
1040
1.0
1070
   345
1005
16
1070
   347
1005
16
1070
   346
1005
16
1070
   344
1005
0
1070
   343
1005
0
1070
   172
1070
     1
1070
    76
1070
     0
1070
    75
1070
     0
1070
   282
1070
     0
1070
   281
1070
     0
1070
    71
1070
     0
1070
    74
1070
     0
1070
   279
1070
     0
1070
   173
1070
     1
1070
   340
1005
1A1
1070
   271
1070
     2
1070
   272
1070
     2
1070
    77
1070
     1
1070
    73
1070
     0
1070
   171
1070
     3
1070
   274
1070
     4
1070
   177
1070
     2
1070
   176
1070
     2
1070
   178
1070
     2
1070
    78
1070
     8
1070
    48
1040
-0.1
1070
    41
1040
3.5
1070
   147
1040
1.75
1070
    42
1040
1.5875
1070
    44
1040
2.0
1070
   140
1040
3.5
1002
}
1001
ACAD_DSTYLE_DIM_LINETYPE
1070
   380
1005
16
1001
ACAD_DSTYLE_DIM_EXT1_LINETYPE
1070
   381
1005
16
1001
ACAD_DSTYLE_DIM_EXT2_LINETYPE
1070
   382
1005
16
0
DIMENSION
5
1D7
100
AcDbEntity
8
SK2
62
256
6
ByLayer
370
18
48
1
60
0
100
AcDbDimension
2
_U2
10
-135.6
20
12.5625
30
0
11
-135.6
21
0.0625
31
0
70
32
71
1
72
1
41
1
210
0
220
0
230
1
3
Standard
100
AcDbAlignedDimension
13
-124
23
-12.4375
33
0
14
-124
24
12.5625
34
0
50
90
100
AcDbRotatedDimension
1001
ACAD
1000
DSTYLE
1002
{
1070
   371
1070
    13
1070
   372
1070
    13
1070
   170
1070
     0
1070
   144
1040
1.0
1070
   277
1070
     2
1070
   284
1070
     8
1070
   278
1070
    46
1070
   146
1040
1.0
1070
   345
1005
16
1070
   347
1005
16
1070
   346
1005
16
1070
   344
1005
0
1070
   343
1005
0
1070
   172
1070
     1
1070
    76
1070
     0
1070
    75
1070
     0
1070
   282
1070
     0
1070
   281
1070
     0
1070
    71
1070
     0
1070
    74
1070
     0
1070
   279
1070
     0
1070
   173
1070
     1
1070
   340
1005
1A1
1070
   271
1070
     2
1070
   272
1070
     2
1070
    77
1070
     1
1070
    73
1070
     0
1070
   171
1070
     3
1070
   274
1070
     4
1070
   177
1070
     2
1070
   176
1070
     2
1070
   178
1070
     2
1070
    78
1070
     8
1070
    48
1040
-0.1
1070
    41
1040
3.5
1070
   147
1040
1.75
1070
    42
1040
1.5875
1070
    44
1040
2.0
1070
   140
1040
3.5
1002
}
1001
ACAD_DSTYLE_DIM_LINETYPE
1070
   380
1005
16
1001
ACAD_DSTYLE_DIM_EXT1_LINETYPE
1070
   381
1005
16
1001
ACAD_DSTYLE_DIM_EXT2_LINETYPE
1070
   382
1005
16
0
DIMENSION
5
1F0
100
AcDbEntity
8
2
62
256
6
ByLayer
370
18
48
1
60
0
100
AcDbDimension
2
_U3
10
26
20
42.8125
30
0
11
22
21
42.8125
31
0
70
32
71
1
72
1
41
1
210
0
220
0
230
1
3
Standard
100
AcDbAlignedDimension
13
18
23
34.5625
33
0
14
26
24
34.5625
34
0
50
0
100
AcDbRotatedDimension
1001
ACAD
1000
DSTYLE
1002
{
1070
   371
1070
    13
1070
   372
1070
    13
1070
   170
1070
     0
1070
   144
1040
1.0
1070
   277
1070
     2
1070
   284
1070
     8
1070
   278
1070
    46
1070
   146
1040
1.0
1070
   345
1005
16
1070
   347
1005
16
1070
   346
1005
16
1070
   344
1005
0
1070
   343
1005
0
1070
   172
1070
     1
1070
    76
1070
     0
1070
    75
1070
     0
1070
   282
1070
     0
1070
   281
1070
     0
1070
    71
1070
     0
1070
    74
1070
     0
1070
   279
1070
     0
1070
   173
1070
     1
1070
   340
1005
1A1
1070
   271
1070
     2
1070
   272
1070
     2
1070
    77
1070
     1
1070
    73
1070
     1
1070
   171
1070
     3
1070
   274
1070
     4
1070
   177
1070
     2
1070
   176
1070
     2
1070
   178
1070
     2
1070
    78
1070
     8
1070
    48
1040
-0.1
1070
    41
1040
3.5
1070
   147
1040
1.75
1070
    42
1040
1.5875
1070
    44
1040
2.0
1070
   140
1040
3.5
1002
}
1001
ACAD_DSTYLE_DIM_LINETYPE
1070
   380
1005
16
1001
ACAD_DSTYLE_DIM_EXT1_LINETYPE
1070
   381
1005
16
1001
ACAD_DSTYLE_DIM_EXT2_LINETYPE
1070
   382
1005
16
0
DIMENSION
5
209
100
AcDbEntity
8
SK2
62
256
6
ByLayer
370
18
48
1
60
0
100
AcDbDimension
2
_U4
10
26
20
-30.1875
30
0
11
-49
21
-30.1875
31
0
70
32
71
1
72
1
41
1
210
0
220
0
230
1
3
Standard
100
AcDbAlignedDimension
13
-124
23
-12.4375
33
0
14
26
24
34.5625
34
0
50
0
100
AcDbRotatedDimension
1001
ACAD
1000
DSTYLE
1002
{
1070
   371
1070
    13
1070
   372
1070
    13
1070
   170
1070
     0
1070
   144
1040
1.0
1070
   277
1070
     2
1070
   284
1070
     8
1070
   278
1070
    46
1070
   146
1040
1.0
1070
   345
1005
16
1070
   347
1005
16
1070
   346
1005
16
1070
   344
1005
0
1070
   343
1005
0
1070
   172
1070
     1
1070
    76
1070
     0
1070
    75
1070
     0
1070
   282
1070
     0
1070
   281
1070
     0
1070
    71
1070
     0
1070
    74
1070
     0
1070
   279
1070
     0
1070
   173
1070
     1
1070
   340
1005
1A1
1070
   271
1070
     1
1070
   272
1070
     2
1070
    77
1070
     1
1070
    73
1070
     1
1070
   171
1070
     3
1070
   274
1070
     4
1070
   177
1070
     2
1070
   176
1070
     2
1070
   178
1070
     2
1070
    78
1070
     8
1070
    48
1040
-0.1
1070
    41
1040
3.5
1070
   147
1040
1.75
1070
    42
1040
1.5875
1070
    44
1040
2.0
1070
   140
1040
3.5
1002
}
1001
ACAD_DSTYLE_DIM_LINETYPE
1070
   380
1005
16
1001
ACAD_DSTYLE_DIM_EXT1_LINETYPE
1070
   381
1005
16
1001
ACAD_DSTYLE_DIM_EXT2_LINETYPE
1070
   382
1005
16
0
ENDSEC
0
SECTION
2
OBJECTS
0
DICTIONARY
5
290
330
0
100
AcDbDictionary
280
0
281
1
3
ACAD_GROUP
350
291
3
ACAD_MLINESTYLE
350
292
0
DICTIONARY
5
291
330
0
100
AcDbDictionary
280
0
281
1
0
DICTIONARY
5
292
330
0
100
AcDbDictionary
280
0
281
1
3
Standard
350
18
0
MLINESTYLE
5
18
330
292
100
AcDbMlineStyle
2
Standard
70
0
3

62
256
51
90
52
90
71
2
49
-0.5
62
256
6
ByLayer
49
0.5
62
256
6
ByLayer
0
RASTERVARIABLES
5
27f
330

100
AcDbRasterVariables
90
0
70
1
71
1
72
1
0
ENDSEC
0
EOF
