0
SECTION
2
HEADER
9
$ACADVER
1
AC1015
9
$DWGCODEPAGE
3
ANSI_1252
9
$HANDSEED
5
231
9
$ANGBASE
50
0
9
$ANGDIR
70
0
9
$ATTMODE
70
1
9
$AUNITS
70
0
9
$AUPREC
70
0
9
$CECOLOR
62
256
9
$CELTSCALE
40
1
9
$CELTYPE
6
ByLayer
9
$CELWEIGHT
370
18
9
$CLAYER
8
0
9
$CMLJUST
70
0
9
$CMLSCALE
40
1
9
$CMLSTYLE
2
Standard
9
$DIMSTYLE
2
Standard
9
$TEXTSIZE
40
0.2
9
$TEXTSTYLE
7
Standard
9
$LUNITS
70
2
9
$LUPREC
70
4
9
$EXTNAMES
290
1
9
$INSUNITS
70
4
9
$LTSCALE
40
1
9
$LWDISPLAY
290
1
9
$PDMODE
70
0
9
$PDSIZE
40
0
9
$PLINEGEN
70
0
0
ENDSEC
0
SECTION
2
CLASSES
0
CLASS
1
RASTERVARIABLES
2
AcDbRasterVariables
3
ISM
90
0
280
0
281
0
0
ENDSEC
0
SECTION
2
TABLES
0
TABLE
2
VPORT
5
227
100
AcDbSymbolTable
0
VPORT
5
1
100
AcDbSymbolTableRecord
100
AcDbViewportTableRecord
2
*Active
70
0
10
0
20
0
11
1
21
1
12
-1
22
1
13
0
23
0
14
0.5
24
0.5
15
10
25
10
16
0
26
0
36
1
17
0
27
0
37
0
0
ENDTAB
0
TABLE
2
LTYPE
5
228
100
AcDbSymbolTable
0
LTYPE
5
14
100
AcDbSymbolTableRecord
100
AcDbLinetypeTableRecord
70
0
2
ByBlock
3

72
65
73
0
40
0
0
LTYPE
5
15
100
AcDbSymbolTableRecord
100
AcDbLinetypeTableRecord
70
0
2
ByLayer
3

72
65
73
0
40
0
0
LTYPE
5
16
100
AcDbSymbolTableRecord
100
AcDbLinetypeTableRecord
70
0
2
Continuous
3
Solid line
72
65
73
0
40
0
0
LTYPE
5
6E
100
AcDbSymbolTableRecord
100
AcDbLinetypeTableRecord
70
0
2
CENTER
3
____ _ ____ _ ____ _ ____
72
65
73
4
40
47.5
49
22
74
0
49
-8.5
74
0
49
8.5
74
0
49
-8.5
74
0
0
LTYPE
5
6F
100
AcDbSymbolTableRecord
100
AcDbLinetypeTableRecord
70
0
2
DASHED
3
__ __ __ __ __ __ __ __ __
72
65
73
2
40
25.72
49
12.86
74
0
49
-12.86
74
0
0
ENDTAB
0
TABLE
2
LAYER
5
229
100
AcDbSymbolTable
0
LAYER
5
10
100
AcDbSymbolTableRecord
100
AcDbLayerTableRecord
2
0
70
0
62
7
6
Continuous
290
1
370
-3
390
0
0
LAYER
5
71
100
AcDbSymbolTableRecord
100
AcDbLayerTableRecord
2
81
70
0
62
-3
6
Continuous
290
1
370
-3
390
0
0
LAYER
5
73
100
AcDbSymbolTableRecord
100
AcDbLayerTableRecord
2
80
70
0
62
-6
6
Continuous
290
1
370
-3
390
0
0
LAYER
5
75
100
AcDbSymbolTableRecord
100
AcDbLayerTableRecord
2
1
70
0
62
4
6
Continuous
290
1
370
-3
390
0
0
LAYER
5
13C
100
AcDbSymbolTableRecord
100
AcDbLayerTableRecord
2
Defpoints
70
0
62
7
6
Continuous
290
0
370
-3
390
0
0
LAYER
5
149
100
AcDbSymbolTableRecord
100
AcDbLayerTableRecord
2
2
70
0
62
7
6
Continuous
290
1
370
-3
390
0
0
LAYER
5
214
100
AcDbSymbolTableRecord
100
AcDbLayerTableRecord
2
SK1
70
0
62
4
6
Continuous
290
1
370
-3
390
0
0
LAYER
5
215
100
AcDbSymbolTableRecord
100
AcDbLayerTableRecord
2
SK6
70
0
62
5
6
Continuous
290
1
370
-3
390
0
0
LAYER
5
216
100
AcDbSymbolTableRecord
100
AcDbLayerTableRecord
2
SK2
70
0
62
7
6
Continuous
290
1
370
-3
390
0
0
ENDTAB
0
TABLE
2
STYLE
5
22a
100
AcDbSymbolTable
0
STYLE
5
11
100
AcDbSymbolTableRecord
100
AcDbTextStyleTableRecord
2
Standard
3
txt
70
0
71
0
40
0
41
1
42
0
50
0
0
STYLE
5
135
100
AcDbSymbolTableRecord
100
AcDbTextStyleTableRecord
2
iso_b_vert
3
simplex.shx
70
0
71
0
40
0
41
1
42
0
50
0
0
STYLE
5
136
100
AcDbSymbolTableRecord
100
AcDbTextStyleTableRecord
2
DWGDirectTextStyle
3
simplex
70
0
71
0
40
0
41
1
42
0
50
0
0
ENDTAB
0
TABLE
2
DIMSTYLE
5
22b
100
AcDbSymbolTable
100
AcDbDimStyleTable
0
DIMSTYLE
105
27
100
AcDbSymbolTableRecord
100
AcDbDimStyleTableRecord
2
Standard
70
0
3
<>
41
0.18
42
0.0625
44
0.18
140
0.18
147
0.09
73
0
74
0
77
1
271
2
275
0
278
52
280
0
340
11
0
ENDTAB
0
TABLE
2
VIEW
5
22c
100
AcDbSymbolTable
0
ENDTAB
0
TABLE
2
UCS
5
22d
100
AcDbSymbolTable
0
ENDTAB
0
TABLE
2
APPID
5
22e
100
AcDbSymbolTable
0
APPID
5
12
100
AcDbSymbolTableRecord
100
AcDbRegAppTableRecord
2
ACAD
70
0
0
APPID
5
138
100
AcDbSymbolTableRecord
100
AcDbRegAppTableRecord
2
ACAD_DSTYLE_DIMBREAK
70
0
0
APPID
5
1D3
100
AcDbSymbolTableRecord
100
AcDbRegAppTableRecord
2
ACAD_DSTYLE_DIM_LINETYPE
70
0
0
APPID
5
1D4
100
AcDbSymbolTableRecord
100
AcDbRegAppTableRecord
2
ACAD_DSTYLE_DIM_EXT1_LINETYPE
70
0
0
APPID
5
1D5
100
AcDbSymbolTableRecord
100
AcDbRegAppTableRecord
2
ACAD_DSTYLE_DIM_EXT2_LINETYPE
70
0
0
APPID
5
210
100
AcDbSymbolTableRecord
100
AcDbRegAppTableRecord
2
ACAD_MLEADERVER
70
0
0
ENDTAB
0
TABLE
2
BLOCK_RECORD
5
22f
100
AcDbSymbolTable
0
BLOCK_RECORD
5
1F
100
AcDbSymbolTableRecord
100
AcDbBlockTableRecord
2
*Model_Space
340
0
70
0
0
BLOCK_RECORD
5
1B
100
AcDbSymbolTableRecord
100
AcDbBlockTableRecord
2
*Paper_Space
340
0
70
0
0
BLOCK_RECORD
5
23
100
AcDbSymbolTableRecord
100
AcDbBlockTableRecord
2
*Paper_Space0
340
0
70
0
0
BLOCK_RECORD
5
13D
100
AcDbSymbolTableRecord
100
AcDbBlockTableRecord
2
*D1
340
0
70
0
0
BLOCK_RECORD
5
14A
100
AcDbSymbolTableRecord
100
AcDbBlockTableRecord
2
_U0
340
0
70
0
0
BLOCK_RECORD
5
156
100
AcDbSymbolTableRecord
100
AcDbBlockTableRecord
2
*D3
340
0
70
0
0
BLOCK_RECORD
5
162
100
AcDbSymbolTableRecord
100
AcDbBlockTableRecord
2
_U1
340
0
70
0
0
BLOCK_RECORD
5
16E
100
AcDbSymbolTableRecord
100
AcDbBlockTableRecord
2
*D5
340
0
70
0
0
BLOCK_RECORD
5
17B
100
AcDbSymbolTableRecord
100
AcDbBlockTableRecord
2
_U2
340
0
70
0
0
BLOCK_RECORD
5
187
100
AcDbSymbolTableRecord
100
AcDbBlockTableRecord
2
*D7
340
0
70
0
0
BLOCK_RECORD
5
194
100
AcDbSymbolTableRecord
100
AcDbBlockTableRecord
2
_U3
340
0
70
0
0
BLOCK_RECORD
5
1A0
100
AcDbSymbolTableRecord
100
AcDbBlockTableRecord
2
*D9
340
0
70
0
0
BLOCK_RECORD
5
1AC
100
AcDbSymbolTableRecord
100
AcDbBlockTableRecord
2
_U4
340
0
70
0
0
ENDTAB
0
ENDSEC
0
SECTION
2
BLOCKS
0
BLOCK
5
20
100
AcDbEntity
8
0
100
AcDbBlockBegin
2
*Model_Space
70
0
10
0
20
0
30
0
3
*Model_Space
0
ENDBLK
5
21
100
AcDbEntity
8
0
100
AcDbBlockEnd
0
BLOCK
5
1C
100
AcDbEntity
8
0
100
AcDbBlockBegin
2
*Paper_Space
70
0
10
0
20
0
30
0
3
*Paper_Space
0
ENDBLK
5
1D
100
AcDbEntity
8
0
100
AcDbBlockEnd
0
BLOCK
5
24
100
AcDbEntity
8
0
100
AcDbBlockBegin
2
*Paper_Space0
70
0
10
0
20
0
30
0
3
*Paper_Space0
0
ENDBLK
5
25
100
AcDbEntity
8
0
100
AcDbBlockEnd
0
BLOCK
5
13E
100
AcDbEntity
8
0
100
AcDbBlockBegin
2
*D1
70
1
10
0
20
0
30
0
3
*D1
0
LINE
5
140
100
AcDbEntity
8
0
62
256
6
ByLayer
370
-2
48
1
60
0
100
AcDbLine
10
24.5875
20
32.5625
30
0
11
59.27511
21
32.5625
31
0
39
0
210
0
220
0
230
1
0
LINE
5
141
100
AcDbEntity
8
0
62
256
6
ByLayer
370
-2
48
1
60
0
100
AcDbLine
10
-125.4125
20
-12.4375
30
0
11
59.27511
21
-12.4375
31
0
39
0
210
0
220
0
230
1
0
LINE
5
142
100
AcDbEntity
8
0
62
256
6
ByLayer
370
-2
48
1
60
0
100
AcDbLine
10
57.27511
20
29.0625
30
0
11
57.27511
21
-8.9375
31
0
39
0
210
0
220
0
230
1
0
SOLID
5
143
100
AcDbEntity
8
0
62
256
6
ByLayer
370
-1
48
1
60
0
100
AcDbTrace
10
57.858443
20
29.0625
30
0
11
56.691776
21
29.0625
31
0
12
57.27511
22
32.5625
32
0
13
57.27511
23
32.5625
33
0
39
0
210
0
220
0
230
1
0
SOLID
5
144
100
AcDbEntity
8
0
62
256
6
ByLayer
370
-1
48
1
60
0
100
AcDbTrace
10
56.691776
20
-8.9375
30
0
11
57.858443
21
-8.9375
31
0
12
57.27511
22
-12.4375
32
0
13
57.27511
23
-12.4375
33
0
39
0
210
0
220
0
230
1
0
MTEXT
5
145
100
AcDbEntity
8
0
62
256
6
ByLayer
370
18
48
1
60
0
100
AcDbMText
10
50.27511
20
10.0625
30
0
210
0
220
0
230
1
1
\A1;45
40
3.5
41
0
44
1
50
90
71
5
72
5
7
iso_b_vert
0
POINT
5
146
100
AcDbEntity
8
Defpoints
62
0
6
ByLayer
370
-1
48
1
60
0
100
AcDbPoint
10
23
20
32.5625
30
0
39
0
210
0
220
0
230
1
50
360
0
POINT
5
147
100
AcDbEntity
8
Defpoints
62
0
6
ByLayer
370
-1
48
1
60
0
100
AcDbPoint
10
-127
20
-12.4375
30
0
39
0
210
0
220
0
230
1
50
360
0
POINT
5
148
100
AcDbEntity
8
Defpoints
62
0
6
ByLayer
370
-1
48
1
60
0
100
AcDbPoint
10
57.27511
20
-12.4375
30
0
39
0
210
0
220
0
230
1
50
360
0
ENDBLK
5
13F
100
AcDbEntity
8
0
100
AcDbBlockEnd
0
BLOCK
5
151
100
AcDbEntity
8
0
100
AcDbBlockBegin
2
_U0
70
0
10
0
20
0
30
0
3
_U0
0
MTEXT
5
14B
100
AcDbEntity
8
2
62
256
6
ByLayer
370
18
48
1
60
0
100
AcDbMText
10
56.585476
20
7.945267
30
0
210
0
220
0
230
1
1
\W0.7361;45
40
3.5
41
0
44
1.084337
50
90
71
7
72
5
7
iso_b_vert
0
LINE
5
14C
100
AcDbEntity
8
2
62
256
6
ByLayer
370
13
48
1
60
0
100
AcDbLine
10
24.5875
20
32.5625
30
0
11
59.27511
21
32.5625
31
0
39
0
210
0
220
0
230
1
0
LINE
5
14D
100
AcDbEntity
8
2
62
256
6
ByLayer
370
13
48
1
60
0
100
AcDbLine
10
-125.4125
20
-12.4375
30
0
11
59.27511
21
-12.4375
31
0
39
0
210
0
220
0
230
1
0
LINE
5
14E
100
AcDbEntity
8
2
62
256
6
ByLayer
370
13
48
1
60
0
100
AcDbLine
10
57.27511
20
32.5625
30
0
11
57.27511
21
-12.4375
31
0
39
0
210
0
220
0
230
1
0
SOLID
5
14F
100
AcDbEntity
8
2
62
256
6
ByLayer
370
18
48
1
60
0
100
AcDbTrace
10
57.27511
20
32.5625
30
0
11
57.735893
21
29.062502
31
0
12
56.814326
22
29.062498
32
0
13
56.814326
23
29.062498
33
0
39
0
210
0
220
0
230
1
0
SOLID
5
150
100
AcDbEntity
8
2
62
256
6
ByLayer
370
18
48
1
60
0
100
AcDbTrace
10
57.27511
20
-12.4375
30
0
11
56.814326
21
-8.937502
31
0
12
57.735893
22
-8.937498
32
0
13
57.735893
23
-8.937498
33
0
39
0
210
0
220
0
230
1
0
ENDBLK
5
152
100
AcDbEntity
8
0
100
AcDbBlockEnd
0
BLOCK
5
157
100
AcDbEntity
8
0
100
AcDbBlockBegin
2
*D3
70
1
10
0
20
0
30
0
3
*D3
0
LINE
5
159
100
AcDbEntity
8
0
62
256
6
ByLayer
370
-2
48
1
60
0
100
AcDbLine
10
20.91261
20
14.5625
30
0
11
49.27511
21
14.5625
31
0
39
0
210
0
220
0
230
1
0
LINE
5
15A
100
AcDbEntity
8
0
62
256
6
ByLayer
370
-2
48
1
60
0
100
AcDbLine
10
24.5875
20
32.5625
30
0
11
49.27511
21
32.5625
31
0
39
0
210
0
220
0
230
1
0
LINE
5
15B
100
AcDbEntity
8
0
62
256
6
ByLayer
370
-2
48
1
60
0
100
AcDbLine
10
47.27511
20
18.0625
30
0
11
47.27511
21
29.0625
31
0
39
0
210
0
220
0
230
1
0
SOLID
5
15C
100
AcDbEntity
8
0
62
256
6
ByLayer
370
-1
48
1
60
0
100
AcDbTrace
10
46.691776
20
18.0625
30
0
11
47.858443
21
18.0625
31
0
12
47.27511
22
14.5625
32
0
13
47.27511
23
14.5625
33
0
39
0
210
0
220
0
230
1
0
SOLID
5
15D
100
AcDbEntity
8
0
62
256
6
ByLayer
370
-1
48
1
60
0
100
AcDbTrace
10
47.858443
20
29.0625
30
0
11
46.691776
21
29.0625
31
0
12
47.27511
22
32.5625
32
0
13
47.27511
23
32.5625
33
0
39
0
210
0
220
0
230
1
0
MTEXT
5
15E
100
AcDbEntity
8
0
62
256
6
ByLayer
370
18
48
1
60
0
100
AcDbMText
10
40.27511
20
23.5625
30
0
210
0
220
0
230
1
1
\A1;18
40
3.5
41
0
44
1
50
90
71
5
72
5
7
iso_b_vert
0
POINT
5
15F
100
AcDbEntity
8
Defpoints
62
0
6
ByLayer
370
-1
48
1
60
0
100
AcDbPoint
10
19.32511
20
14.5625
30
0
39
0
210
0
220
0
230
1
50
360
0
POINT
5
160
100
AcDbEntity
8
Defpoints
62
0
6
ByLayer
370
-1
48
1
60
0
100
AcDbPoint
10
23
20
32.5625
30
0
39
0
210
0
220
0
230
1
50
360
0
POINT
5
161
100
AcDbEntity
8
Defpoints
62
0
6
ByLayer
370
-1
48
1
60
0
100
AcDbPoint
10
47.27511
20
32.5625
30
0
39
0
210
0
220
0
230
1
50
360
0
ENDBLK
5
158
100
AcDbEntity
8
0
100
AcDbBlockEnd
0
BLOCK
5
169
100
AcDbEntity
8
0
100
AcDbBlockBegin
2
_U1
70
0
10
0
20
0
30
0
3
_U1
0
MTEXT
5
163
100
AcDbEntity
8
2
62
256
6
ByLayer
370
18
48
1
60
0
100
AcDbMText
10
46.585476
20
22.066967
30
0
210
0
220
0
230
1
1
\W0.5321;18
40
3.5
41
0
44
1.084337
50
90
71
7
72
5
7
iso_b_vert
0
LINE
5
164
100
AcDbEntity
8
2
62
256
6
ByLayer
370
13
48
1
60
0
100
AcDbLine
10
20.91261
20
14.5625
30
0
11
49.27511
21
14.5625
31
0
39
0
210
0
220
0
230
1
0
LINE
5
165
100
AcDbEntity
8
2
62
256
6
ByLayer
370
13
48
1
60
0
100
AcDbLine
10
24.5875
20
32.5625
30
0
11
49.27511
21
32.5625
31
0
39
0
210
0
220
0
230
1
0
LINE
5
166
100
AcDbEntity
8
2
62
256
6
ByLayer
370
13
48
1
60
0
100
AcDbLine
10
47.27511
20
14.5625
30
0
11
47.27511
21
32.5625
31
0
39
0
210
0
220
0
230
1
0
SOLID
5
167
100
AcDbEntity
8
2
62
256
6
ByLayer
370
18
48
1
60
0
100
AcDbTrace
10
47.27511
20
14.5625
30
0
11
46.814326
21
18.062498
31
0
12
47.735893
22
18.062502
32
0
13
47.735893
23
18.062502
33
0
39
0
210
0
220
0
230
1
0
SOLID
5
168
100
AcDbEntity
8
2
62
256
6
ByLayer
370
18
48
1
60
0
100
AcDbTrace
10
47.27511
20
32.5625
30
0
11
47.735893
21
29.062502
31
0
12
46.814326
22
29.062498
32
0
13
46.814326
23
29.062498
33
0
39
0
210
0
220
0
230
1
0
ENDBLK
5
16A
100
AcDbEntity
8
0
100
AcDbBlockEnd
0
BLOCK
5
16F
100
AcDbEntity
8
0
100
AcDbBlockBegin
2
*D5
70
1
10
0
20
0
30
0
3
*D5
0
LINE
5
171
100
AcDbEntity
8
0
62
256
6
ByLayer
370
-2
48
1
60
0
100
AcDbLine
10
-128.5875
20
-12.4375
30
0
11
-140.6
21
-12.4375
31
0
39
0
210
0
220
0
230
1
0
LINE
5
172
100
AcDbEntity
8
0
62
256
6
ByLayer
370
-2
48
1
60
0
100
AcDbLine
10
-128.5875
20
12.5625
30
0
11
-140.6
21
12.5625
31
0
39
0
210
0
220
0
230
1
0
LINE
5
173
100
AcDbEntity
8
0
62
256
6
ByLayer
370
-2
48
1
60
0
100
AcDbLine
10
-138.6
20
-8.9375
30
0
11
-138.6
21
9.0625
31
0
39
0
210
0
220
0
230
1
0
SOLID
5
174
100
AcDbEntity
8
0
62
256
6
ByLayer
370
-1
48
1
60
0
100
AcDbTrace
10
-139.183333
20
-8.9375
30
0
11
-138.016667
21
-8.9375
31
0
12
-138.6
22
-12.4375
32
0
13
-138.6
23
-12.4375
33
0
39
0
210
0
220
0
230
1
0
SOLID
5
175
100
AcDbEntity
8
0
62
256
6
ByLayer
370
-1
48
1
60
0
100
AcDbTrace
10
-138.016667
20
9.0625
30
0
11
-139.183333
21
9.0625
31
0
12
-138.6
22
12.5625
32
0
13
-138.6
23
12.5625
33
0
39
0
210
0
220
0
230
1
0
MTEXT
5
176
100
AcDbEntity
8
0
62
256
6
ByLayer
370
18
48
1
60
0
100
AcDbMText
10
-145.6
20
0.0625
30
0
210
0
220
0
230
1
1
\A1;25
40
3.5
41
0
44
1
50
90
71
5
72
5
7
iso_b_vert
0
POINT
5
177
100
AcDbEntity
8
Defpoints
62
0
6
ByLayer
370
-1
48
1
60
0
100
AcDbPoint
10
-127
20
-12.4375
30
0
39
0
210
0
220
0
230
1
50
360
0
POINT
5
178
100
AcDbEntity
8
Defpoints
62
0
6
ByLayer
370
-1
48
1
60
0
100
AcDbPoint
10
-127
20
12.5625
30
0
39
0
210
0
220
0
230
1
50
360
0
POINT
5
179
100
AcDbEntity
8
Defpoints
62
0
6
ByLayer
370
-1
48
1
60
0
100
AcDbPoint
10
-138.6
20
12.5625
30
0
39
0
210
0
220
0
230
1
50
360
0
ENDBLK
5
170
100
AcDbEntity
8
0
100
AcDbBlockEnd
0
BLOCK
5
182
100
AcDbEntity
8
0
100
AcDbBlockBegin
2
_U2
70
0
10
0
20
0
30
0
3
_U2
0
MTEXT
5
17C
100
AcDbEntity
8
SK2
62
256
6
ByLayer
370
18
48
1
60
0
100
AcDbMText
10
-139.289634
20
-1.870466
30
0
210
0
220
0
230
1
1
\W0.6740;25
40
3.5
41
0
44
1.084337
50
90
71
7
72
5
7
iso_b_vert
0
LINE
5
17D
100
AcDbEntity
8
SK2
62
256
6
ByLayer
370
13
48
1
60
0
100
AcDbLine
10
-128.5875
20
-12.4375
30
0
11
-140.6
21
-12.4375
31
0
39
0
210
0
220
0
230
1
0
LINE
5
17E
100
AcDbEntity
8
SK2
62
256
6
ByLayer
370
13
48
1
60
0
100
AcDbLine
10
-128.5875
20
12.5625
30
0
11
-140.6
21
12.5625
31
0
39
0
210
0
220
0
230
1
0
LINE
5
17F
100
AcDbEntity
8
SK2
62
256
6
ByLayer
370
13
48
1
60
0
100
AcDbLine
10
-138.6
20
-12.4375
30
0
11
-138.6
21
12.5625
31
0
39
0
210
0
220
0
230
1
0
SOLID
5
180
100
AcDbEntity
8
SK2
62
256
6
ByLayer
370
18
48
1
60
0
100
AcDbTrace
10
-138.6
20
-12.4375
30
0
11
-139.060784
21
-8.937502
31
0
12
-138.139216
22
-8.937498
32
0
13
-138.139216
23
-8.937498
33
0
39
0
210
0
220
0
230
1
0
SOLID
5
181
100
AcDbEntity
8
SK2
62
256
6
ByLayer
370
18
48
1
60
0
100
AcDbTrace
10
-138.6
20
12.5625
30
0
11
-138.139216
21
9.062502
31
0
12
-139.060784
22
9.062498
32
0
13
-139.060784
23
9.062498
33
0
39
0
210
0
220
0
230
1
0
ENDBLK
5
183
100
AcDbEntity
8
0
100
AcDbBlockEnd
0
BLOCK
5
188
100
AcDbEntity
8
0
100
AcDbBlockBegin
2
*D7
70
1
10
0
20
0
30
0
3
*D7
0
LINE
5
18A
100
AcDbEntity
8
0
62
256
6
ByLayer
370
-2
48
1
60
0
100
AcDbLine
10
19
20
34.15
30
0
11
19
21
42.8125
31
0
39
0
210
0
220
0
230
1
0
LINE
5
18B
100
AcDbEntity
8
0
62
256
6
ByLayer
370
-2
48
1
60
0
100
AcDbLine
10
23
20
34.15
30
0
11
23
21
42.8125
31
0
39
0
210
0
220
0
230
1
0
LINE
5
18C
100
AcDbEntity
8
0
62
256
6
ByLayer
370
-2
48
1
60
0
100
AcDbLine
10
15.5
20
40.8125
30
0
11
12
21
40.8125
31
0
39
0
210
0
220
0
230
1
0
LINE
5
18D
100
AcDbEntity
8
0
62
256
6
ByLayer
370
-2
48
1
60
0
100
AcDbLine
10
26.5
20
40.8125
30
0
11
30
21
40.8125
31
0
39
0
210
0
220
0
230
1
0
SOLID
5
18E
100
AcDbEntity
8
0
62
256
6
ByLayer
370
-1
48
1
60
0
100
AcDbTrace
10
15.5
20
40.229167
30
0
11
15.5
21
41.395833
31
0
12
19
22
40.8125
32
0
13
19
23
40.8125
33
0
39
0
210
0
220
0
230
1
0
SOLID
5
18F
100
AcDbEntity
8
0
62
256
6
ByLayer
370
-1
48
1
60
0
100
AcDbTrace
10
26.5
20
41.395833
30
0
11
26.5
21
40.229167
31
0
12
23
22
40.8125
32
0
13
23
23
40.8125
33
0
39
0
210
0
220
0
230
1
0
MTEXT
5
190
100
AcDbEntity
8
0
62
256
6
ByLayer
370
18
48
1
60
0
100
AcDbMText
10
21
20
47.8125
30
0
210
0
220
0
230
1
1
\A1;4
40
3.5
41
0
44
1
50
0
71
5
72
5
7
iso_b_vert
0
POINT
5
191
100
AcDbEntity
8
Defpoints
62
0
6
ByLayer
370
-1
48
1
60
0
100
AcDbPoint
10
19
20
32.5625
30
0
39
0
210
0
220
0
230
1
50
360
0
POINT
5
192
100
AcDbEntity
8
Defpoints
62
0
6
ByLayer
370
-1
48
1
60
0
100
AcDbPoint
10
23
20
32.5625
30
0
39
0
210
0
220
0
230
1
50
360
0
POINT
5
193
100
AcDbEntity
8
Defpoints
62
0
6
ByLayer
370
-1
48
1
60
0
100
AcDbPoint
10
23
20
40.8125
30
0
39
0
210
0
220
0
230
1
50
360
0
ENDBLK
5
189
100
AcDbEntity
8
0
100
AcDbBlockEnd
0
BLOCK
5
19B
100
AcDbEntity
8
0
100
AcDbBlockBegin
2
_U3
70
0
10
0
20
0
30
0
3
_U3
0
MTEXT
5
195
100
AcDbEntity
8
2
62
256
6
ByLayer
370
18
48
1
60
0
100
AcDbMText
10
20.2185
20
41.845134
30
0
210
0
220
0
230
1
1
\W0.6380;4
40
3.5
41
0
44
1.084337
50
0
71
7
72
5
7
iso_b_vert
0
LINE
5
196
100
AcDbEntity
8
2
62
256
6
ByLayer
370
13
48
1
60
0
100
AcDbLine
10
19
20
34.15
30
0
11
19
21
42.8125
31
0
39
0
210
0
220
0
230
1
0
LINE
5
197
100
AcDbEntity
8
2
62
256
6
ByLayer
370
13
48
1
60
0
100
AcDbLine
10
23
20
34.15
30
0
11
23
21
42.8125
31
0
39
0
210
0
220
0
230
1
0
LINE
5
198
100
AcDbEntity
8
2
62
256
6
ByLayer
370
13
48
1
60
0
100
AcDbLine
10
10.25
20
40.8125
30
0
11
31.75
21
40.8125
31
0
39
0
210
0
220
0
230
1
0
SOLID
5
199
100
AcDbEntity
8
2
62
256
6
ByLayer
370
18
48
1
60
0
100
AcDbTrace
10
19
20
40.8125
30
0
11
15.500002
21
40.351716
31
0
12
15.499998
22
41.273284
32
0
13
15.499998
23
41.273284
33
0
39
0
210
0
220
0
230
1
0
SOLID
5
19A
100
AcDbEntity
8
2
62
256
6
ByLayer
370
18
48
1
60
0
100
AcDbTrace
10
23
20
40.8125
30
0
11
26.499998
21
41.273284
31
0
12
26.500002
22
40.351716
32
0
13
26.500002
23
40.351716
33
0
39
0
210
0
220
0
230
1
0
ENDBLK
5
19C
100
AcDbEntity
8
0
100
AcDbBlockEnd
0
BLOCK
5
1A1
100
AcDbEntity
8
0
100
AcDbBlockBegin
2
*D9
70
1
10
0
20
0
30
0
3
*D9
0
LINE
5
1A3
100
AcDbEntity
8
0
62
256
6
ByLayer
370
-2
48
1
60
0
100
AcDbLine
10
-127
20
-14.025
30
0
11
-127
21
-32.1875
31
0
39
0
210
0
220
0
230
1
0
LINE
5
1A4
100
AcDbEntity
8
0
62
256
6
ByLayer
370
-2
48
1
60
0
100
AcDbLine
10
23
20
30.975
30
0
11
23
21
-32.1875
31
0
39
0
210
0
220
0
230
1
0
LINE
5
1A5
100
AcDbEntity
8
0
62
256
6
ByLayer
370
-2
48
1
60
0
100
AcDbLine
10
-123.5
20
-30.1875
30
0
11
19.5
21
-30.1875
31
0
39
0
210
0
220
0
230
1
0
SOLID
5
1A6
100
AcDbEntity
8
0
62
256
6
ByLayer
370
-1
48
1
60
0
100
AcDbTrace
10
-123.5
20
-29.604167
30
0
11
-123.5
21
-30.770833
31
0
12
-127
22
-30.1875
32
0
13
-127
23
-30.1875
33
0
39
0
210
0
220
0
230
1
0
SOLID
5
1A7
100
AcDbEntity
8
0
62
256
6
ByLayer
370
-1
48
1
60
0
100
AcDbTrace
10
19.5
20
-30.770833
30
0
11
19.5
21
-29.604167
31
0
12
23
22
-30.1875
32
0
13
23
23
-30.1875
33
0
39
0
210
0
220
0
230
1
0
MTEXT
5
1A8
100
AcDbEntity
8
0
62
256
6
ByLayer
370
18
48
1
60
0
100
AcDbMText
10
-52
20
-23.1875
30
0
210
0
220
0
230
1
1
\A1;150
40
3.5
41
0
44
1
50
0
71
5
72
5
7
iso_b_vert
0
POINT
5
1A9
100
AcDbEntity
8
Defpoints
62
0
6
ByLayer
370
-1
48
1
60
0
100
AcDbPoint
10
-127
20
-12.4375
30
0
39
0
210
0
220
0
230
1
50
360
0
POINT
5
1AA
100
AcDbEntity
8
Defpoints
62
0
6
ByLayer
370
-1
48
1
60
0
100
AcDbPoint
10
23
20
32.5625
30
0
39
0
210
0
220
0
230
1
50
360
0
POINT
5
1AB
100
AcDbEntity
8
Defpoints
62
0
6
ByLayer
370
-1
48
1
60
0
100
AcDbPoint
10
23
20
-30.1875
30
0
39
0
210
0
220
0
230
1
50
360
0
ENDBLK
5
1A2
100
AcDbEntity
8
0
100
AcDbBlockEnd
0
BLOCK
5
1B3
100
AcDbEntity
8
0
100
AcDbBlockBegin
2
_U4
70
0
10
0
20
0
30
0
3
_U4
0
MTEXT
5
1AD
100
AcDbEntity
8
SK2
62
256
6
ByLayer
370
18
48
1
60
0
100
AcDbMText
10
-54.775266
20
-29.154866
30
0
210
0
220
0
230
1
1
\W0.6217;150
40
3.5
41
0
44
1.084337
50
0
71
7
72
5
7
iso_b_vert
0
LINE
5
1AE
100
AcDbEntity
8
SK2
62
256
6
ByLayer
370
13
48
1
60
0
100
AcDbLine
10
-127
20
-14.025
30
0
11
-127
21
-32.1875
31
0
39
0
210
0
220
0
230
1
0
LINE
5
1AF
100
AcDbEntity
8
SK2
62
256
6
ByLayer
370
13
48
1
60
0
100
AcDbLine
10
23
20
30.975
30
0
11
23
21
-32.1875
31
0
39
0
210
0
220
0
230
1
0
LINE
5
1B0
100
AcDbEntity
8
SK2
62
256
6
ByLayer
370
13
48
1
60
0
100
AcDbLine
10
-127
20
-30.1875
30
0
11
23
21
-30.1875
31
0
39
0
210
0
220
0
230
1
0
SOLID
5
1B1
100
AcDbEntity
8
SK2
62
256
6
ByLayer
370
18
48
1
60
0
100
AcDbTrace
10
-127
20
-30.1875
30
0
11
-123.500002
21
-29.726716
31
0
12
-123.499998
22
-30.648284
32
0
13
-123.499998
23
-30.648284
33
0
39
0
210
0
220
0
230
1
0
SOLID
5
1B2
100
AcDbEntity
8
SK2
62
256
6
ByLayer
370
18
48
1
60
0
100
AcDbTrace
10
23
20
-30.1875
30
0
11
19.500002
21
-30.648284
31
0
12
19.499998
22
-29.726716
32
0
13
19.499998
23
-29.726716
33
0
39
0
210
0
220
0
230
1
0
ENDBLK
5
1B4
100
AcDbEntity
8
0
100
AcDbBlockEnd
0
ENDSEC
0
SECTION
2
ENTITIES
0
ARC
5
D7
100
AcDbEntity
8
SK1
62
256
6
ByLayer
370
18
48
1
60
0
100
AcDbCircle
39
0
10
-1.227723
20
14.0375
30
0
40
1.6000000000007
210
0
220
0
230
1
100
AcDbArc
50
270
51
290.197156
0
ARC
5
D8
100
AcDbEntity
8
SK1
62
256
6
ByLayer
370
18
48
1
60
0
100
AcDbCircle
39
0
10
-1.227723
20
14.0375
30
0
40
1.5999999999078
210
0
220
0
230
1
100
AcDbArc
50
300.977392
51
317.788056
0
ARC
5
D9
100
AcDbEntity
8
1
62
256
6
ByLayer
370
18
48
1
60
0
100
AcDbCircle
39
0
10
10.849704
20
6.2125
30
0
40
2.1768
210
0
220
0
230
1
100
AcDbArc
50
150
51
210
0
ARC
5
DA
100
AcDbEntity
8
1
62
256
6
ByLayer
370
18
48
1
60
0
100
AcDbCircle
39
0
10
10.849704
20
6.2125
30
0
40
2.1768
210
0
220
0
230
1
100
AcDbArc
50
210
51
270
0
ARC
5
DB
100
AcDbEntity
8
1
62
256
6
ByLayer
370
18
48
1
60
0
100
AcDbCircle
39
0
10
10.849704
20
6.2125
30
0
40
2.1768
210
0
220
0
230
1
100
AcDbArc
50
270
51
330
0
ARC
5
DC
100
AcDbEntity
8
1
62
256
6
ByLayer
370
18
48
1
60
0
100
AcDbCircle
39
0
10
10.849704
20
6.2125
30
0
40
2.1768
210
0
220
0
230
1
100
AcDbArc
50
330
51
30
0
ARC
5
DD
100
AcDbEntity
8
1
62
256
6
ByLayer
370
18
48
1
60
0
100
AcDbCircle
39
0
10
10.849704
20
6.2125
30
0
40
2.1768
210
0
220
0
230
1
100
AcDbArc
50
30
51
90
0
ARC
5
DE
100
AcDbEntity
8
1
62
256
6
ByLayer
370
18
48
1
60
0
100
AcDbCircle
39
0
10
10.849704
20
6.2125
30
0
40
2.1768
210
0
220
0
230
1
100
AcDbArc
50
90
51
150
0
ARC
5
E1
100
AcDbEntity
8
1
62
256
6
ByLayer
370
18
48
1
60
0
100
AcDbCircle
39
0
10
10.849704
20
6.2125
30
0
40
2.8067
210
0
220
0
230
1
100
AcDbArc
50
180
51
240
0
ARC
5
E2
100
AcDbEntity
8
1
62
256
6
ByLayer
370
18
48
1
60
0
100
AcDbCircle
39
0
10
10.849704
20
6.2125
30
0
40
2.8067
210
0
220
0
230
1
100
AcDbArc
50
240
51
300
0
ARC
5
E3
100
AcDbEntity
8
1
62
256
6
ByLayer
370
18
48
1
60
0
100
AcDbCircle
39
0
10
10.849704
20
6.2125
30
0
40
2.8067
210
0
220
0
230
1
100
AcDbArc
50
60
51
120
0
ARC
5
E4
100
AcDbEntity
8
1
62
256
6
ByLayer
370
18
48
1
60
0
100
AcDbCircle
39
0
10
10.849704
20
6.2125
30
0
40
2.8067
210
0
220
0
230
1
100
AcDbArc
50
300
51
0
0
ARC
5
E5
100
AcDbEntity
8
1
62
256
6
ByLayer
370
18
48
1
60
0
100
AcDbCircle
39
0
10
10.849704
20
6.2125
30
0
40
2.8067
210
0
220
0
230
1
100
AcDbArc
50
0
51
60
0
ARC
5
E6
100
AcDbEntity
8
1
62
256
6
ByLayer
370
18
48
1
60
0
100
AcDbCircle
39
0
10
10.849704
20
6.2125
30
0
40
2.8067
210
0
220
0
230
1
100
AcDbArc
50
120
51
180
0
CIRCLE
5
D6
100
AcDbEntity
8
1
62
256
6
ByLayer
370
18
48
1
60
0
100
AcDbCircle
10
10.849704
20
6.2125
30
0
40
5.75000000000005
39
0
210
0
220
0
230
1
0
CIRCLE
5
DF
100
AcDbEntity
8
1
62
256
6
ByLayer
370
13
48
1
60
0
100
AcDbCircle
10
10.849704
20
6.2125
30
0
40
4.55
39
0
210
0
220
0
230
1
0
CIRCLE
5
E0
100
AcDbEntity
8
1
62
256
6
ByLayer
370
18
48
1
60
0
100
AcDbCircle
10
10.849704
20
6.2125
30
0
40
5.35
39
0
210
0
220
0
230
1
0
ELLIPSE
5
E7
100
AcDbEntity
8
1
62
256
6
ByLayer
370
18
48
1
60
0
100
AcDbEllipse
10
-0.083092
20
-6.999588
30
0
11
1.04091540074901E-16
21
1.69999999999999
31
0
210
0
220
0
230
1
40
0.267949
41
-2.95815089276381
42
-0.183441760826012
0
ELLIPSE
5
E8
100
AcDbEntity
8
1
62
256
6
ByLayer
370
18
48
1
60
0
100
AcDbEllipse
10
-26.735464
20
-6.999588
30
0
11
64.9203806170706
21
-0.189625594231497
31
0
210
0
220
0
230
1
40
0.026023
41
1.14387518508789
42
1.14642274009044
0
ELLIPSE
5
E9
100
AcDbEntity
8
1
62
256
6
ByLayer
370
18
48
1
60
0
100
AcDbEllipse
10
55.20011
20
40.996037
30
0
11
32.5250000001016
21
3.81015857331656E-14
31
0
210
0
220
0
230
1
40
0.723618
41
-2.72918252082489
42
-2.27368690150365
0
ELLIPSE
5
EA
100
AcDbEntity
8
1
62
256
6
ByLayer
370
18
48
1
60
0
100
AcDbEllipse
10
56.281386
20
533.44593
30
0
11
5.7272945281925
21
1660.99605088016
31
0
210
0
220
0
230
1
40
0.019937
41
1.88173526803289
42
1.88329734783391
0
ELLIPSE
5
EB
100
AcDbEntity
8
1
62
256
6
ByLayer
370
18
48
1
60
0
100
AcDbEllipse
10
55.20011
20
25.782495
30
0
11
2.36222553560361E-15
21
38.5793447540161
31
0
210
0
220
0
230
1
40
0.843068
41
1.61575374764861
42
1.69344876082988
0
ELLIPSE
5
EC
100
AcDbEntity
8
1
62
256
6
ByLayer
370
18
48
1
60
0
100
AcDbEllipse
10
55.20011
20
-12.438045
30
0
11
32.5250000000039
21
3.81015857330512E-14
31
0
210
0
220
0
230
1
40
0.004363
41
2.27368690150261
42
-3.12399595185232
0
ELLIPSE
5
ED
100
AcDbEntity
8
1
62
256
6
ByLayer
370
18
48
1
60
0
100
AcDbEllipse
10
49.00011
20
25.782495
30
0
11
2.15523574562985E-15
21
35.19883330513
31
0
210
0
220
0
230
1
40
0.843068
41
1.61834832879778
42
1.70529671058062
0
ELLIPSE
5
EE
100
AcDbEntity
8
1
62
256
6
ByLayer
370
18
48
1
60
0
100
AcDbEllipse
10
49.009728
20
-243.72626
30
0
11
4.84979198221887
21
-2302.22802240385
31
0
210
0
220
0
230
1
40
0.012721
41
-1.68740726564307
42
-1.6832506009008
0
ELLIPSE
5
EF
100
AcDbEntity
8
1
62
256
6
ByLayer
370
18
48
1
60
0
100
AcDbEllipse
10
55.20011
20
26.745183
30
0
11
2.84402377677617E-15
21
46.4479670205709
31
0
210
0
220
0
230
1
40
0.700246
41
1.69344876099701
42
1.82182115259918
0
ELLIPSE
5
F0
100
AcDbEntity
8
1
62
256
6
ByLayer
370
18
48
1
60
0
100
AcDbEllipse
10
49.00011
20
26.745183
30
0
11
2.59481646647788E-15
21
42.3779683712835
31
0
210
0
220
0
230
1
40
0.700246
41
1.70529671049817
42
1.86238772481185
0
ELLIPSE
5
F1
100
AcDbEntity
8
1
62
256
6
ByLayer
370
18
48
1
60
0
100
AcDbEllipse
10
19.32511
20
15.14093
30
0
11
1.70796597770278E-16
21
2.78941224234495
31
0
210
0
220
0
230
1
40
0.573598
41
2.46700369199726
42
3.14159265358979
0
ELLIPSE
5
F2
100
AcDbEntity
8
1
62
256
6
ByLayer
370
18
48
1
60
0
100
AcDbEllipse
10
55.20011
20
-12.669125
30
0
11
32.5249999998274
21
3.81015857328444E-14
31
0
210
0
220
0
230
1
40
0.36397
41
2.89056782771986
42
3.12230277343925
0
ELLIPSE
5
F3
100
AcDbEntity
8
SK1
62
256
6
ByLayer
370
18
48
1
60
0
100
AcDbEllipse
10
-3.301981
20
-12.45059
30
0
11
3.00000000000033
21
3.51436609374796E-15
31
0
210
0
220
0
230
1
40
0.004363
41
0.846871315209633
42
1.5707963267949
0
ELLIPSE
5
F4
100
AcDbEntity
8
SK1
62
256
6
ByLayer
370
18
48
1
60
0
100
AcDbEllipse
10
-3.301981
20
-8.742774
30
0
11
0.0800284643739777
21
-26.7548845691503
31
0
210
0
220
0
230
1
40
0.112089
41
1.80591639492054
42
2.48395177557652
0
ELLIPSE
5
F5
100
AcDbEntity
8
SK1
62
256
6
ByLayer
370
18
48
1
60
0
100
AcDbEllipse
10
-3.301981
20
-11.62271
30
0
11
2.99999999999337
21
3.5143660937398E-15
31
0
210
0
220
0
230
1
40
0.36397
41
-0.846871315210488
42
-0.261799387799041
0
ELLIPSE
5
F6
100
AcDbEntity
8
SK1
62
256
6
ByLayer
370
18
48
1
60
0
100
AcDbEllipse
10
-26.738958
20
-6.99978
30
0
11
64.9253635017212
21
-0.189557147130226
31
0
210
0
220
0
230
1
40
0.026024
41
1.14639834306221
42
1.15169436744333
0
ELLIPSE
5
F7
100
AcDbEntity
8
SK1
62
256
6
ByLayer
370
18
48
1
60
0
100
AcDbEllipse
10
-0.083092
20
-6.999588
30
0
11
1.04091540071108E-16
21
1.69999999993803
31
0
210
0
220
0
230
1
40
0.267949
41
0.530854295297012
42
0.782342710531568
0
ELLIPSE
5
F8
100
AcDbEntity
8
SK1
62
256
6
ByLayer
370
18
48
1
60
0
100
AcDbEllipse
10
-0.083092
20
-6.999588
30
0
11
1.04091540075052E-16
21
1.70000000000245
31
0
210
0
220
0
230
1
40
0.267949
41
2.35924994306942
42
-2.95815089276394
0
ELLIPSE
5
F9
100
AcDbEntity
8
SK1
62
256
6
ByLayer
370
18
48
1
60
0
100
AcDbEllipse
10
-3.301981
20
0.231411
30
0
11
0.0800284642628465
21
-26.754884570957
31
0
210
0
220
0
230
1
40
0.112089
41
1.80591639494679
42
2.0483393151581
0
ELLIPSE
5
FA
100
AcDbEntity
8
SK1
62
256
6
ByLayer
370
18
48
1
60
0
100
AcDbEllipse
10
-0.083092
20
-6.999588
30
0
11
1.74281787109712E-10
21
-1.69999999533169
31
0
210
0
220
0
230
1
40
0.267949
41
2.95815089248407
42
3.07491922371213
0
ELLIPSE
5
FB
100
AcDbEntity
8
1
62
256
6
ByLayer
370
18
48
1
60
0
100
AcDbEllipse
10
22.700016
20
32.2625
30
0
11
1.83690953073357E-17
21
0.3
31
0
210
0
220
0
230
1
40
0.999945
41
-1.614429558062
42
0
0
ELLIPSE
5
FC
100
AcDbEntity
8
1
62
256
6
ByLayer
370
18
48
1
60
0
100
AcDbEllipse
10
19.300203
20
32.2625
30
0
11
-5.5107285922007E-17
21
-0.3
31
0
210
0
220
0
230
1
40
0.999945
41
3.14159265358979
42
-1.52716309552779
0
ELLIPSE
5
FD
100
AcDbEntity
8
1
62
256
6
ByLayer
370
18
48
1
60
0
100
AcDbEllipse
10
19.628916
20
24.997018
30
0
11
0.0710799816831238
21
0.0710799109725916
31
0
210
0
220
0
230
1
40
0.989582
41
-2.36142998148782
42
-2.1868970545093
0
ELLIPSE
5
FE
100
AcDbEntity
8
1
62
256
6
ByLayer
370
18
48
1
60
0
100
AcDbEllipse
10
20.321606
20
25.11894
30
0
11
0.0710799469654354
21
0.0710799478395043
31
0
210
0
220
0
230
1
40
0.989582
41
-2.1868975497396
42
-1.69734700413539
0
ELLIPSE
5
FF
100
AcDbEntity
8
1
62
256
6
ByLayer
370
18
48
1
60
0
100
AcDbEllipse
10
21.65613
20
25.11894
30
0
11
0.0710799476632459
21
0.0710799470780014
31
0
210
0
220
0
230
1
40
0.989582
41
-3.02551395387072
42
-2.53596340811073
0
ELLIPSE
5
100
100
AcDbEntity
8
1
62
256
6
ByLayer
370
18
48
1
60
0
100
AcDbEllipse
10
22.346265
20
24.997018
30
0
11
0.0710799441533396
21
0.0710799508095117
31
0
210
0
220
0
230
1
40
0.989582
41
-2.53596344965989
42
-2.3614305246866
0
POINT
5
70
100
AcDbEntity
8
81
62
256
6
ByLayer
370
18
48
1
60
0
100
AcDbPoint
10
23
20
32.5625
30
0
39
0
210
0
220
0
230
1
50
360
0
POINT
5
72
100
AcDbEntity
8
80
62
256
6
ByLayer
370
18
48
1
60
0
100
AcDbPoint
10
0
20
0
30
0
39
0
210
0
220
0
230
1
50
360
0
POINT
5
74
100
AcDbEntity
8
1
62
256
6
ByLayer
370
18
48
1
60
1
100
AcDbPoint
10
23
20
32.5625
30
0
39
0
210
0
220
0
230
1
50
360
0
POINT
5
76
100
AcDbEntity
8
1
62
256
6
ByLayer
370
18
48
1
60
1
100
AcDbPoint
10
-127
20
-12.4375
30
0
39
0
210
0
220
0
230
1
50
360
0
POINT
5
77
100
AcDbEntity
8
1
62
256
6
ByLayer
370
18
48
1
60
1
100
AcDbPoint
10
19.32511
20
14.5625
30
0
39
0
210
0
220
0
230
1
50
360
0
POINT
5
78
100
AcDbEntity
8
1
62
256
6
ByLayer
370
18
48
1
60
1
100
AcDbPoint
10
23
20
32.5625
30
0
39
0
210
0
220
0
230
1
50
360
0
POINT
5
79
100
AcDbEntity
8
1
62
256
6
ByLayer
370
18
48
1
60
1
100
AcDbPoint
10
-127
20
-12.4375
30
0
39
0
210
0
220
0
230
1
50
360
0
POINT
5
7A
100
AcDbEntity
8
1
62
256
6
ByLayer
370
18
48
1
60
1
100
AcDbPoint
10
-127
20
12.5625
30
0
39
0
210
0
220
0
230
1
50
360
0
POINT
5
7B
100
AcDbEntity
8
1
62
256
6
ByLayer
370
18
48
1
60
1
100
AcDbPoint
10
19
20
32.5625
30
0
39
0
210
0
220
0
230
1
50
360
0
POINT
5
7C
100
AcDbEntity
8
1
62
256
6
ByLayer
370
18
48
1
60
1
100
AcDbPoint
10
23
20
32.5625
30
0
39
0
210
0
220
0
230
1
50
360
0
POINT
5
7D
100
AcDbEntity
8
1
62
256
6
ByLayer
370
18
48
1
60
1
100
AcDbPoint
10
-127
20
-12.4375
30
0
39
0
210
0
220
0
230
1
50
360
0
POINT
5
7E
100
AcDbEntity
8
1
62
256
6
ByLayer
370
18
48
1
60
1
100
AcDbPoint
10
23
20
32.5625
30
0
39
0
210
0
220
0
230
1
50
360
0
SPLINE
5
101
100
AcDbEntity
8
1
62
256
6
ByLayer
370
18
48
1
60
0
100
AcDbSpline
70
4
71
3
72
12
73
8
40
0
40
0
40
0
40
0
40
0.499999999999963
40
0.499999999999963
40
0.749999999999981
40
0.749999999999981
40
1
40
1
40
1
40
1
41
1
10
21.4866554394893
20
24.2803491594707
30
0
41
1
10
21.675990684031
20
24.2487426632401
30
0
41
1
10
21.8650429681997
20
24.2162525301357
30
0
41
1
10
22.1476829263149
20
24.1645866549095
30
0
41
1
10
22.2417368964739
20
24.1468670761495
30
0
41
1
10
22.4293091517729
20
24.1097550658867
30
0
41
1
10
22.5228396489252
20
24.0904007704114
30
0
41
1
10
22.6158512330392
20
24.0694259982223
30
0
0
SPLINE
5
102
100
AcDbEntity
8
1
62
256
6
ByLayer
370
18
48
1
60
0
100
AcDbSpline
70
4
71
3
72
8
73
4
40
0
40
0
40
0
40
0
40
1
40
1
40
1
40
1
41
1
10
21.404322806626
20
24.4784727743304
30
0
41
1
10
21.4326107308306
20
24.4126366484403
30
0
41
1
10
21.4603652980162
20
24.346670880924
30
0
41
1
10
21.4866554394893
20
24.2803491594707
30
0
0
SPLINE
5
103
100
AcDbEntity
8
1
62
256
6
ByLayer
370
18
48
1
60
0
100
AcDbSpline
70
4
71
3
72
14
73
10
40
0
40
0
40
0
40
0
40
0.25
40
0.25
40
0.5
40
0.5
40
0.75
40
0.75
40
1
40
1
40
1
40
1
41
1
10
21.2640851327711
20
24.560470269734
30
0
41
1
10
21.2799030987006
20
24.5603533737741
30
0
41
1
10
21.2953403502894
20
24.5582416476785
30
0
41
1
10
21.3251841069063
20
24.5501255808871
30
0
41
1
10
21.3388751865821
20
24.5443248035904
30
0
41
1
10
21.3638569193294
20
24.5294033731081
30
0
41
1
10
21.374529607301
20
24.5206517120133
30
0
41
1
10
21.3924768549039
20
24.5007356454602
30
0
41
1
10
21.3993957571335
20
24.4899397822419
30
0
41
1
10
21.404322806626
20
24.4784727743304
30
0
0
SPLINE
5
104
100
AcDbEntity
8
1
62
256
6
ByLayer
370
18
48
1
60
0
100
AcDbSpline
70
4
71
2
72
6
73
3
40
0
40
0
40
0
40
1
40
1
40
1
41
0.500000640334039
10
20.7141530393927
20
24.5645251597567
30
0
41
0.499999359665961
10
20.9893578252351
20
24.5625005252326
30
0
41
0.500000640334039
10
21.2640851327704
20
24.560470269734
30
0
0
SPLINE
5
105
100
AcDbEntity
8
1
62
256
6
ByLayer
370
18
48
1
60
0
100
AcDbSpline
70
4
71
3
72
18
73
14
40
0
40
0
40
0
40
0
40
0.25
40
0.25
40
0.5
40
0.5
40
0.625
40
0.625
40
0.75
40
0.75
40
0.875
40
0.875
40
1
40
1
40
1
40
1
41
1
10
20.5724879395827
20
24.4848462526313
30
0
41
1
10
20.577610433102
20
24.4961846011219
30
0
41
1
10
20.5846869858791
20
24.5068123957322
30
0
41
1
10
20.6030494038904
20
24.5264714805091
30
0
41
1
10
20.6138770615744
20
24.5350188292437
30
0
41
1
10
20.6326849888997
20
24.5458412026767
30
0
41
1
10
20.6393916271686
20
24.5490966408169
30
0
41
1
10
20.6531941432621
20
24.5546605588453
30
0
41
1
10
20.6603488462829
20
24.5570062099299
30
0
41
1
10
20.6751776123154
20
24.5608034289417
30
0
41
1
10
20.6829083395068
20
24.5622562405
30
0
41
1
10
20.6984240253821
20
24.5641370520834
30
0
41
1
10
20.706252492817
20
24.5645832827261
30
0
41
1
10
20.7141530393932
20
24.5645251597566
30
0
0
SPLINE
5
106
100
AcDbEntity
8
1
62
256
6
ByLayer
370
18
48
1
60
0
100
AcDbSpline
70
4
71
3
72
8
73
4
40
0
40
0
40
0
40
0
40
1
40
1
40
1
40
1
41
1
10
20.4866785281966
20
24.2891749797735
30
0
41
1
10
20.5142221509816
20
24.3546701468454
30
0
41
1
10
20.5431104534077
20
24.4198208553759
30
0
41
1
10
20.5724879395827
20
24.4848462526313
30
0
0
SPLINE
5
107
100
AcDbEntity
8
1
62
256
6
ByLayer
370
18
48
1
60
0
100
AcDbSpline
70
4
71
3
72
12
73
8
40
0
40
0
40
0
40
0
40
0.25
40
0.25
40
0.5
40
0.5
40
1
40
1
40
1
40
1
41
1
10
19.358653789287
20
24.1093511564802
30
0
41
1
10
19.4521231862062
20
24.1262313893374
30
0
41
1
10
19.5458264297546
20
24.1422843940809
30
0
41
1
10
19.7334973505845
20
24.1734549741411
30
0
41
1
10
19.8274683858795
20
24.1885606705476
30
0
41
1
10
20.1096406875956
20
24.2329608593212
30
0
41
1
10
20.2980887930454
20
24.2613610558472
30
0
41
1
10
20.4866785281964
20
24.2891749797739
30
0
0
SPLINE
5
108
100
AcDbEntity
8
1
62
256
6
ByLayer
370
18
48
1
60
0
100
AcDbSpline
70
4
71
3
72
8
73
4
40
0
40
0
40
0
40
0
40
1
40
1
40
1
40
1
41
1
10
19.3585941669044
20
24.0694155013888
30
0
41
1
10
19.3585859059378
20
24.0828166136268
30
0
41
1
10
19.3586060507091
20
24.0961275615482
30
0
41
1
10
19.358653789287
20
24.1093511564802
30
0
0
SPLINE
5
109
100
AcDbEntity
8
1
62
256
6
ByLayer
370
18
48
1
60
0
100
AcDbSpline
70
4
71
3
72
37
73
33
40
0
40
0
40
0
40
0
40
0.124999999999978
40
0.124999999999978
40
0.187499999999966
40
0.187499999999966
40
0.218749999999966
40
0.218749999999966
40
0.249999999999965
40
0.249999999999965
40
0.374999999999984
40
0.374999999999984
40
0.406249999999991
40
0.406249999999991
40
0.437499999999998
40
0.437499999999998
40
0.500000000000008
40
0.500000000000008
40
0.625000000000027
40
0.625000000000027
40
0.656250000000045
40
0.656250000000045
40
0.687500000000064
40
0.687500000000064
40
0.750000000000071
40
0.812500000000077
40
0.812500000000077
40
0.843750000000065
40
0.843750000000065
40
0.875000000000052
40
0.875000000000052
40
1
40
1
40
1
40
1
41
1
10
19.3647093268889
20
14.5625000000007
30
0
41
1
10
19.3647803688954
20
14.4564693595906
30
0
41
1
10
19.3544895099151
20
14.3522444200931
30
0
41
1
10
19.3241700606267
20
14.1985006022259
30
0
41
1
10
19.3115644528026
20
14.1476881691057
30
0
41
1
10
19.2888240826006
20
14.0721372898382
30
0
41
1
10
19.2805845799168
20
14.0470111098042
30
0
41
1
10
19.2628890377715
20
13.9972409459804
30
0
41
1
10
19.2534657720725
20
13.9726797028348
30
0
41
1
10
19.2035316977099
20
13.8514590715835
30
0
41
1
10
19.1546480898334
20
13.7595111731153
30
0
41
1
10
19.0824904306507
20
13.6507960596632
30
0
41
1
10
19.0675012476943
20
13.6293668349519
30
0
41
1
10
19.0363901461673
20
13.5871457914879
30
0
41
1
10
19.0202207219096
20
13.5662977721688
30
0
41
1
10
18.970409045229
20
13.5052530946724
30
0
41
1
10
18.935468415263
20
13.4665230550738
30
0
41
1
10
18.8256109046246
20
13.356047297606
30
0
41
1
10
18.7457060197832
20
13.289961906357
30
0
41
1
10
18.6372952933409
20
13.2170344770397
30
0
41
1
10
18.615133211002
20
13.2029104870889
30
0
41
1
10
18.5703983448506
20
13.1759349282666
30
0
41
1
10
18.5477829535342
20
13.1630513647001
30
0
41
1
10
18.4792062957641
20
13.1261806910622
30
0
41
1
10
18.3858262311488
20
13.08175813248
30
0
41
1
10
18.2886128856239
20
13.0466763768349
30
0
41
1
10
18.2142448233033
20
13.0239179923596
30
0
41
1
10
18.189212031287
20
13.0169250650629
30
0
41
1
10
18.1386507082663
20
13.0041472096498
30
0
41
1
10
18.1130977441616
20
12.9983608351088
30
0
41
1
10
17.98531497416
20
12.9727436006928
30
0
41
1
10
17.8820968153176
20
12.9625000000007
30
0
41
1
10
17.7778873509966
20
12.9625000000006
30
0
0
SPLINE
5
10A
100
AcDbEntity
8
1
62
256
6
ByLayer
370
18
48
1
60
0
100
AcDbSpline
70
4
71
3
72
42
73
38
40
0
40
0
40
0
40
0
40
0.124999999999995
40
0.124999999999995
40
0.24999999999999
40
0.24999999999999
40
0.281249999999986
40
0.281249999999986
40
0.312499999999982
40
0.312499999999982
40
0.374999999999981
40
0.374999999999981
40
0.437499999999979
40
0.437499999999979
40
0.46874999999998
40
0.46874999999998
40
0.499999999999981
40
0.499999999999981
40
0.562500000000006
40
0.562500000000006
40
0.62500000000003
40
0.62500000000003
40
0.640625000000035
40
0.640625000000035
40
0.65625000000004
40
0.65625000000004
40
0.687500000000025
40
0.687500000000025
40
0.75000000000002
40
0.812500000000014
40
0.812500000000014
40
0.843750000000012
40
0.843750000000012
40
0.87500000000001
40
0.87500000000001
40
0.937500000000005
40
1
40
1
40
1
40
1
41
1
10
20.5777626762612
20
14.5625000000007
30
0
41
1
10
20.5964064392313
20
14.4737947405905
30
0
41
1
10
20.6076810360935
20
14.384838915967
30
0
41
1
10
20.6144732854221
20
14.2063915016044
30
0
41
1
10
20.6100197930629
20
14.1169008929942
30
0
41
1
10
20.5928908359772
20
14.0046444998318
30
0
41
1
10
20.5888687566383
20
13.9821213703302
30
0
41
1
10
20.5796720898027
20
13.9374218650978
30
0
41
1
10
20.5744964693911
20
13.9152197333358
30
0
41
1
10
20.5572012149235
20
13.8490655424522
30
0
41
1
10
20.5433179034226
20
13.8055644818358
30
0
41
1
10
20.5105475488393
20
13.7198418890505
30
0
41
1
10
20.4916623096802
20
13.6776198955918
30
0
41
1
10
20.4592314176483
20
13.6153361119279
30
0
41
1
10
20.447735781861
20
13.5947501019207
30
0
41
1
10
20.4232931982862
20
13.5539492039301
30
0
41
1
10
20.4103622563959
20
13.5337710603133
30
0
41
1
10
20.3697850012916
20
13.4745399978642
30
0
41
1
10
20.3402241851707
20
13.4365557445534
30
0
41
1
10
20.2758614182179
20
13.363726768141
30
0
41
1
10
20.2410610731072
20
13.3288810831846
30
0
41
1
10
20.1940357313078
20
13.2874354592024
30
0
41
1
10
20.1844539033671
20
13.2792522164476
30
0
41
1
10
20.1649282291006
20
13.263102586203
30
0
41
1
10
20.1549646495602
20
13.2551212058002
30
0
41
1
10
20.124691237355
20
13.2316445017992
30
0
41
1
10
20.1040055670801
20
13.2166163114539
30
0
41
1
10
20.0404554798247
20
13.173379403992
30
0
41
1
10
19.9517476612369
20
13.1206484263046
30
0
41
1
10
19.8550909996282
20
13.0777540433164
30
0
41
1
10
19.7795221028028
20
13.0493902637039
30
0
41
1
10
19.7537510564233
20
13.0405561029285
30
0
41
1
10
19.7019778173619
20
13.0244299504826
30
0
41
1
10
19.6758890056863
20
13.0171011953504
30
0
41
1
10
19.5970373303485
20
12.9972404047283
30
0
41
1
10
19.4903445603562
20
12.9764147973413
30
0
41
1
10
19.3806768587355
20
12.9663935416251
30
0
41
1
10
19.3251096612695
20
12.964046280914
30
0
0
SPLINE
5
10B
100
AcDbEntity
8
1
62
256
6
ByLayer
370
18
48
1
60
0
100
AcDbSpline
70
4
71
3
72
8
73
4
40
0
40
0
40
0
40
0
40
1
40
1
40
1
40
1
41
1
10
19.252177620374
20
12.9625000000006
30
0
41
1
10
19.2764581778974
20
12.9625000000006
30
0
41
1
10
19.3007687187446
20
12.9630180746938
30
0
41
1
10
19.3251096612695
20
12.9640462809137
30
0
0
SPLINE
5
10C
100
AcDbEntity
8
SK1
62
256
6
ByLayer
370
18
48
1
60
0
100
AcDbSpline
70
4
71
3
72
38
73
34
40
0
40
0
40
0
40
0
40
0.124999999999999
40
0.124999999999999
40
0.187499999999997
40
0.187499999999997
40
0.218749999999995
40
0.218749999999995
40
0.249999999999993
40
0.249999999999993
40
0.374999999999986
40
0.374999999999986
40
0.406249999999983
40
0.421874999999983
40
0.421874999999983
40
0.437499999999983
40
0.437499999999983
40
0.499999999999984
40
0.499999999999984
40
0.624999999999986
40
0.624999999999986
40
0.656249999999986
40
0.656249999999986
40
0.687499999999986
40
0.687499999999986
40
0.749999999999987
40
0.812499999999988
40
0.812499999999988
40
0.843749999999988
40
0.843749999999988
40
0.874999999999989
40
0.874999999999989
40
1
40
1
40
1
40
1
41
1
10
-0.404203485069729
20
-8.20533681787094
30
0
41
1
10
-0.425470667350623
20
-8.12645016095311
30
0
41
1
10
-0.447737342976069
20
-8.04126581975686
30
0
41
1
10
-0.479986162325872
20
-7.90405483282959
30
0
41
1
10
-0.49054628401143
20
-7.8567320524061
30
0
41
1
10
-0.505765502445655
20
-7.78324601115108
30
0
41
1
10
-0.510742485042016
20
-7.75829281835263
30
0
41
1
10
-0.520396438327822
20
-7.70769378190479
30
0
41
1
10
-0.525048627315357
20
-7.68218040209817
30
0
41
1
10
-0.547323582041514
20
-7.55354744373031
30
0
41
1
10
-0.561978629427983
20
-7.44725881696229
30
0
41
1
10
-0.574669057419158
20
-7.30992500878142
30
0
41
1
10
-0.578054872018072
20
-7.26838664085051
30
0
41
1
10
-0.580763763265992
20
-7.22632542423324
30
0
41
1
10
-0.582414328842589
20
-7.19816629914001
30
0
41
1
10
-0.58316289922459
20
-7.18400433113831
30
0
41
1
10
-0.586487915295209
20
-7.11328321689453
30
0
41
1
10
-0.587820050036072
20
-7.0568861068912
30
0
41
1
10
-0.587870298262317
20
-6.88821837738377
30
0
41
1
10
-0.582619077467541
20
-6.77646770117119
30
0
41
1
10
-0.569926129548037
20
-6.63765184882843
30
0
41
1
10
-0.567082407455075
20
-6.60995125345826
30
0
41
1
10
-0.560890134127959
20
-6.55529683856656
30
0
41
1
10
-0.557534380280231
20
-6.52825874367068
30
0
41
1
10
-0.546761688913193
20
-6.44798514530487
30
0
41
1
10
-0.530517368713163
20
-6.34319145556478
30
0
41
1
10
-0.511285985944909
20
-6.24269183576226
30
0
41
1
10
-0.496037288962782
20
-6.16890748027694
30
0
41
1
10
-0.490808930540709
20
-6.14454529811468
30
0
41
1
10
-0.480226716128044
20
-6.09678681731333
30
0
41
1
10
-0.474862747241161
20
-6.07333895193267
30
0
41
1
10
-0.447821178459321
20
-5.95820181331285
30
0
41
1
10
-0.425476331396681
20
-5.87274685535945
30
0
41
1
10
-0.404203485069729
20
-5.79383918871619
30
0
0
SPLINE
5
10D
100
AcDbEntity
8
SK1
62
256
6
ByLayer
370
18
48
1
60
0
100
AcDbSpline
70
4
71
3
72
10
73
6
40
0
40
0
40
0
40
0
40
0.5
40
0.5
40
1
40
1
40
1
40
1
41
1
10
-0.404203485069729
20
12.6657072639062
30
0
41
1
10
-0.436034278594093
20
12.6465984840539
30
0
41
1
10
-0.474673702272753
20
12.6248938284782
30
0
41
1
10
-0.565064547468694
20
12.5803029479177
30
0
41
1
10
-0.616817976561208
20
12.5574048214138
30
0
41
1
10
-0.675329575246053
20
12.5358804394653
30
0
0
SPLINE
5
10E
100
AcDbEntity
8
1
62
256
6
ByLayer
370
18
48
1
60
0
100
AcDbSpline
70
4
71
3
72
18
73
14
40
0
40
0
40
0
40
0
40
0.10650232087716
40
0.2098197208884
40
0.309970050664576
40
0.406972922400184
40
0.500849920825365
40
0.591624858696229
40
0.679324076625844
40
0.763976789997539
40
0.845615488386167
40
0.924276395492439
40
1
40
1
40
1
40
1
41
1
10
20.5061613841978
20
25.1526186384106
30
0
41
1
10
20.5054659393251
20
25.1510415273364
30
0
41
1
10
20.5040958466559
20
25.1479344682349
30
0
41
1
10
20.5017455462645
20
25.1434243323191
30
0
41
1
10
20.4992390356547
20
25.1391153234629
30
0
41
1
10
20.4965722965918
20
25.1350126225177
30
0
41
1
10
20.4937692675423
20
25.1311149102109
30
0
41
1
10
20.4908461913557
20
25.1274224452301
30
0
41
1
10
20.4878200910669
20
25.1239353720455
30
0
41
1
10
20.4847084960466
20
25.1206528367145
30
0
41
1
10
20.4815225390899
20
25.1175778698631
30
0
41
1
10
20.4782931250789
20
25.1146996835928
30
0
41
1
10
20.4760405855609
20
25.1129035869193
30
0
41
1
10
20.4749357440854
20
25.1120226247506
30
0
0
SPLINE
5
10F
100
AcDbEntity
8
1
62
256
6
ByLayer
370
18
48
1
60
0
100
AcDbSpline
70
4
71
3
72
16
73
12
40
0
40
0
40
0
40
0
40
0.117319552192495
40
0.233085853411064
40
0.347299362420168
40
0.459960556948089
40
0.571069934744738
40
0.680628014712994
40
0.788635338118852
40
0.895092469888346
40
1
40
1
40
1
40
1
41
1
10
20.5631743770092
20
25.3114454154506
30
0
41
1
10
20.5612860386335
20
25.3051777667132
30
0
41
1
10
20.557534362518
20
25.2927254497077
30
0
41
1
10
20.551626261531
20
25.2742192560255
30
0
41
1
10
20.545570274722
20
25.2559972967193
30
0
41
1
10
20.5393530096741
20
25.2380628433783
30
0
41
1
10
20.5329889498362
20
25.2204151153785
30
0
41
1
10
20.5264868504014
20
25.2030540288855
30
0
41
1
10
20.5198504019716
20
25.1859806581356
30
0
41
1
10
20.5131078445158
20
25.1691908752595
30
0
41
1
10
20.5084655260476
20
25.1581156516804
30
0
41
1
10
20.5061613841908
20
25.1526186384106
30
0
0
SPLINE
5
110
100
AcDbEntity
8
1
62
256
6
ByLayer
370
18
48
1
60
0
100
AcDbSpline
70
4
71
2
72
10
73
7
40
0
40
0
40
0
40
0.5
40
0.5
40
0.75
40
0.75
40
1
40
1
40
1
41
1
10
20.563174376973
20
25.3114454154441
30
0
41
1
10
20.5833758232758
20
25.3790392416665
30
0
41
1
10
20.6355959994757
20
25.4267354827697
30
0
41
1
10
20.664047826345
20
25.4527224727214
30
0
41
1
10
20.7000754793871
20
25.469359374731
30
0
41
1
10
20.738981029323
20
25.487325236153
30
0
41
1
10
20.7820443449854
20
25.4914461970836
30
0
0
SPLINE
5
111
100
AcDbEntity
8
1
62
256
6
ByLayer
370
18
48
1
60
0
100
AcDbSpline
70
4
71
2
72
6
73
3
40
0
40
0
40
0
40
1
40
1
40
1
41
1
10
20.7820443448998
20
25.4914461971211
30
0
41
1
10
20.8773512646901
20
25.5003374892937
30
0
41
1
10
20.9728628265744
20
25.5003609595321
30
0
0
SPLINE
5
112
100
AcDbEntity
8
1
62
256
6
ByLayer
370
18
48
1
60
0
100
AcDbSpline
70
4
71
3
72
17
73
13
40
0
40
0
40
0
40
0
40
0.100317411816985
40
0.200541310294276
40
0.300680278273681
40
0.400742920447788
40
0.500737861201891
40
0.600673742442653
40
0.700559221399202
40
0.800402968405062
40
0.900213664663634
40
1
40
1
40
1
40
1
41
1
10
21.2034924094839
20
25.4914461971206
30
0
41
1
10
21.1971544433924
20
25.4920231228824
30
0
41
1
10
21.1844844193002
20
25.4931764366103
30
0
41
1
10
21.1654467508664
20
25.4946818251219
30
0
41
1
10
21.1463993617325
20
25.4960216262519
30
0
41
1
10
21.1273407545875
20
25.4971798037519
30
0
41
1
10
21.1082734482311
20
25.498160726992
30
0
41
1
10
21.0891988821584
20
25.4989629358435
30
0
41
1
10
21.0701187983597
20
25.4995879043623
30
0
41
1
10
21.0510348031021
20
25.5000311975097
30
0
41
1
10
21.0319487383079
20
25.5003090731852
30
0
41
1
10
21.0192228181971
20
25.5003436654894
30
0
41
1
10
21.0128606347441
20
25.5003609595306
30
0
0
SPLINE
5
113
100
AcDbEntity
8
1
62
256
6
ByLayer
370
18
48
1
60
0
100
AcDbSpline
70
4
71
3
72
38
73
34
40
0
40
0
40
0
40
0
40
0.0320161803202658
40
0.0634137556517221
40
0.0941938978135217
40
0.124357850632061
40
0.153906935796099
40
0.18284255929884
40
0.211166218540627
40
0.23887951016945
40
0.265984138747582
40
0.292481926351527
40
0.318374823219168
40
0.343664919578793
40
0.368354458810668
40
0.392445852120136
40
0.41594169491606
40
0.438844785127697
40
0.461158143719778
40
0.482885037706233
40
0.504029006008886
40
0.55136681116347
40
0.597409666800805
40
0.642207857911425
40
0.685815975457819
40
0.728293199080108
40
0.76970355723213
40
0.810116149643891
40
0.849605314211534
40
0.888250718111435
40
0.92613735164997
40
0.963355403684886
40
1
40
1
40
1
40
1
41
1
10
21.4185925187578
20
25.3114454154406
30
0
41
1
10
21.4178390161507
20
25.3140736233654
30
0
41
1
10
21.41634656984
20
25.3192792579376
30
0
41
1
10
21.4137911790089
20
25.326950790403
30
0
41
1
10
21.4110456788017
20
25.3344249095628
30
0
41
1
10
21.4080992807209
20
25.3416975153465
30
0
41
1
10
21.4049710701052
20
25.348769676436
30
0
41
1
10
21.4016721494227
20
25.3556411178648
30
0
41
1
10
21.3982154480272
20
25.3623119140368
30
0
41
1
10
21.3946131446003
20
25.368782048864
30
0
41
1
10
21.3908773105281
20
25.375051530003
30
0
41
1
10
21.3870197197198
20
25.3811203592464
30
0
41
1
10
21.3830518773339
20
25.3869885401642
30
0
41
1
10
21.3789849943205
20
25.3926560763684
30
0
41
1
10
21.3748299781748
20
25.3981229711887
30
0
41
1
10
21.3705974226709
20
25.4033892306586
30
0
41
1
10
21.3662975968738
20
25.4084548524171
30
0
41
1
10
21.3619404478147
20
25.4133198658033
30
0
41
1
10
21.3575355606269
20
25.4179841879113
30
0
41
1
10
21.3530922785337
20
25.4224481402189
30
0
41
1
10
21.3467314263245
20
25.4285095568004
30
0
41
1
10
21.3382212115405
20
25.4359588192039
30
0
41
1
10
21.3272383328068
20
25.4445027422803
30
0
41
1
10
21.3158721676553
20
25.4523489226442
30
0
41
1
10
21.3041681119553
20
25.4594976055385
30
0
41
1
10
21.2921706097921
20
25.4659486190913
30
0
41
1
10
21.2799237061546
20
25.4717017357364
30
0
41
1
10
21.2674708281212
20
25.4767571546114
30
0
41
1
10
21.254854263132
20
25.4811132961077
30
0
41
1
10
21.242116600783
20
25.4847748801845
30
0
41
1
10
21.2292949266107
20
25.4877236999953
30
0
41
1
10
21.2164413865611
20
25.4900246334324
30
0
41
1
10
21.2077863363911
20
25.4909748015067
30
0
41
1
10
21.2034924093976
20
25.4914461970806
30
0
0
SPLINE
5
114
100
AcDbEntity
8
1
62
256
6
ByLayer
370
18
48
1
60
0
100
AcDbSpline
70
4
71
2
72
6
73
3
40
0
40
0
40
0
40
1
40
1
40
1
41
1
10
21.4185925187218
20
25.3114454154526
30
0
41
1
10
21.4409952758943
20
25.2304467190163
30
0
41
1
10
21.4722791120981
20
25.1526186384131
30
0
0
SPLINE
5
115
100
AcDbEntity
8
1
62
256
6
ByLayer
370
18
48
1
60
0
100
AcDbSpline
70
4
71
2
72
6
73
3
40
0
40
0
40
0
40
1
40
1
40
1
41
1
10
21.472279112091
20
25.1526186384121
30
0
41
1
10
21.482193420926
20
25.1283197594197
30
0
41
1
10
21.502654526821
20
25.1120226247511
30
0
0
SPLINE
5
116
100
AcDbEntity
8
1
62
256
6
ByLayer
370
18
48
1
60
0
100
AcDbSpline
70
4
71
3
72
37
73
33
40
0
40
0
40
0
40
0
40
0.124999999999987
40
0.124999999999987
40
0.249999999999974
40
0.249999999999974
40
0.374999999999962
40
0.374999999999962
40
0.437499999999942
40
0.437499999999942
40
0.499999999999923
40
0.499999999999923
40
0.562499999999903
40
0.562499999999903
40
0.624999999999883
40
0.624999999999883
40
0.687499999999864
40
0.687499999999864
40
0.718749999999849
40
0.718749999999849
40
0.749999999999835
40
0.749999999999835
40
0.812499999999873
40
0.812499999999873
40
0.843749999999896
40
0.843749999999896
40
0.874999999999919
40
0.906249999999942
40
0.906249999999942
40
0.937499999999966
40
0.937499999999966
40
1
40
1
40
1
40
1
41
1
10
8.04300389833881
20
6.21250000000069
30
0
41
1
10
8.04300389833881
20
6.17605915126029
30
0
41
1
10
8.04442911191481
20
6.13958155560024
30
0
41
1
10
8.05020362248726
20
6.06695289977571
30
0
41
1
10
8.05455822794474
20
6.0307212667224
30
0
41
1
10
8.06643866524971
20
5.95892044783702
30
0
41
1
10
8.07397824009905
20
5.92325035143878
30
0
41
1
10
8.08802448694962
20
5.87064856749416
30
0
41
1
10
8.09316509533414
20
5.85326004335539
30
0
41
1
10
8.10448011125646
20
5.81881360005124
30
0
41
1
10
8.11065542768699
20
5.80175878017877
30
0
41
1
10
8.12411058116805
20
5.76826979481217
30
0
41
1
10
8.13139753633604
20
5.75180767645489
30
0
41
1
10
8.14730032275409
20
5.71956174414353
30
0
41
1
10
8.15594142911991
20
5.70374386540388
30
0
41
1
10
8.1745692972228
20
5.67344133532598
30
0
41
1
10
8.18457592956079
20
5.65890060544507
30
0
41
1
10
8.20088007686613
20
5.63824676516066
30
0
41
1
10
8.20653174351571
20
5.63155619463291
30
0
41
1
10
8.21833427551539
20
5.61862462188253
30
0
41
1
10
8.22451627535315
20
5.61235655870229
30
0
41
1
10
8.24362142136175
20
5.59464017879864
30
0
41
1
10
8.25712395603938
20
5.58421497116396
30
0
41
1
10
8.27880528477451
20
5.57121143879934
30
0
41
1
10
8.28633036479906
20
5.56729663212499
30
0
41
1
10
8.30158092906717
20
5.56064060808117
30
0
41
1
10
8.31702722513273
20
5.55513818925456
30
0
41
1
10
8.33287268370134
20
5.55203721018071
30
0
41
1
10
8.3489258627732
20
5.55020639203508
30
0
41
1
10
8.3569843010265
20
5.54994496970244
30
0
41
1
10
8.38066913032512
20
5.55104049157802
30
0
41
1
10
8.39604456817085
20
5.55423321703455
30
0
41
1
10
8.41104725604004
20
5.55962924142429
30
0
0
SPLINE
5
117
100
AcDbEntity
8
1
62
256
6
ByLayer
370
18
48
1
60
0
100
AcDbSpline
70
4
71
3
72
35
73
31
40
0
40
0
40
0
40
0
40
0.125000000000092
40
0.125000000000092
40
0.250000000000184
40
0.250000000000184
40
0.375000000000277
40
0.375000000000277
40
0.437500000000288
40
0.437500000000288
40
0.500000000000299
40
0.500000000000299
40
0.625000000000326
40
0.625000000000326
40
0.687500000000311
40
0.687500000000311
40
0.718750000000284
40
0.718750000000284
40
0.750000000000257
40
0.750000000000257
40
0.812500000000183
40
0.812500000000183
40
0.843750000000151
40
0.843750000000151
40
0.875000000000119
40
0.906250000000087
40
0.906250000000087
40
0.937500000000055
40
0.937500000000055
40
1
40
1
40
1
40
1
41
1
10
9.44635389833877
20
3.7818264991989
30
0
41
1
10
9.41481354905167
20
3.80003632835016
30
0
41
1
10
9.38391947221865
20
3.81951871072099
30
0
41
1
10
9.32391551505788
20
3.86082860387941
30
0
41
1
10
9.29479550494173
20
3.88265197530438
30
0
41
1
10
9.23850454105281
20
3.92887564617015
30
0
41
1
10
9.2114208371782
20
3.95320592606893
30
0
41
1
10
9.17292630786781
20
3.99162365847946
30
0
41
1
10
9.1604405711027
20
4.00476157557469
30
0
41
1
10
9.13625412181173
20
4.03178783301803
30
0
41
1
10
9.12455494529456
20
4.04567735247602
30
0
41
1
10
9.09107564528097
20
4.08834656771936
30
0
41
1
10
9.07071990240917
20
4.11830866048044
30
0
41
1
10
9.04524371809975
20
4.1653993932284
30
0
41
1
10
9.03756101297046
20
4.18154610971661
30
0
41
1
10
9.02778707816648
20
4.2061767667636
30
0
41
1
10
9.02481935472662
20
4.21445690431861
30
0
41
1
10
9.01954359413523
20
4.23117343289499
30
0
41
1
10
9.0172300650421
20
4.23963930730645
30
0
41
1
10
9.01150429623172
20
4.26497652104624
30
0
41
1
10
9.00926503083309
20
4.28183826620401
30
0
41
1
10
9.00889222781811
20
4.30705009076411
30
0
41
1
10
9.00927918510757
20
4.3155016950592
30
0
41
1
10
9.01116366543565
20
4.33198389739593
30
0
41
1
10
9.01413984339661
20
4.34806068489306
30
0
41
1
10
9.01938465799773
20
4.36328635398314
30
0
41
1
10
9.02582772310043
20
4.37805892874337
30
0
41
1
10
9.02962670015913
20
4.38514335025695
30
0
41
1
10
9.04239982264104
20
4.40504336013072
30
0
41
1
10
9.05282990247994
20
4.41672865291105
30
0
41
1
10
9.06497291487426
20
4.42699677595047
30
0
0
SPLINE
5
118
100
AcDbEntity
8
1
62
256
6
ByLayer
370
18
48
1
60
0
100
AcDbSpline
70
4
71
3
72
50
73
46
40
0
40
0
40
0
40
0
40
0.0312499999999988
40
0.0312499999999988
40
0.0624999999999974
40
0.0624999999999974
40
0.0937499999999962
40
0.0937499999999962
40
0.124999999999995
40
0.124999999999995
40
0.156249999999994
40
0.156249999999994
40
0.187499999999993
40
0.187499999999993
40
0.218749999999991
40
0.218749999999991
40
0.24999999999999
40
0.24999999999999
40
0.312499999999989
40
0.312499999999989
40
0.374999999999987
40
0.374999999999987
40
0.437499999999986
40
0.437499999999986
40
0.499999999999984
40
0.499999999999984
40
0.624999999999982
40
0.624999999999982
40
0.687499999999982
40
0.687499999999982
40
0.749999999999983
40
0.749999999999983
40
0.812499999999984
40
0.812499999999984
40
0.843749999999987
40
0.843749999999987
40
0.874999999999989
40
0.874999999999989
40
0.906249999999992
40
0.906249999999992
40
0.937499999999995
40
0.937499999999995
40
0.968749999999997
40
0.968749999999997
40
1
40
1
40
1
40
1
41
1
10
8.43104725604002
20
5.56100103823516
30
0
41
1
10
8.44471520686196
20
5.56193852080258
30
0
41
1
10
8.45840990412262
20
5.56141488064145
30
0
41
1
10
8.48585122110239
20
5.55803341093892
30
0
41
1
10
8.49958417757978
20
5.55516243987984
30
0
41
1
10
8.52666752940925
20
5.5475898023432
30
0
41
1
10
8.5401146690503
20
5.54286268126233
30
0
41
1
10
8.56654918150102
20
5.53196420987544
30
0
41
1
10
8.57955908396002
20
5.52578931563795
30
0
41
1
10
8.60524061767194
20
5.51220863089981
30
0
41
1
10
8.61788713421461
20
5.50481214512331
30
0
41
1
10
8.642697486602
20
5.48906875264592
30
0
41
1
10
8.65488699692631
20
5.48070751156945
30
0
41
1
10
8.67889430487284
20
5.46311479441175
30
0
41
1
10
8.69071573431944
20
5.45387748804777
30
0
41
1
10
8.71387493038378
20
5.43473764324622
30
0
41
1
10
8.72523394256041
20
5.42481984284916
30
0
41
1
10
8.75871761059159
20
5.39411013641109
30
0
41
1
10
8.78030589897702
20
5.37230506863986
30
0
41
1
10
8.82172193586666
20
5.3268703075299
30
0
41
1
10
8.84158515797608
20
5.30321367197999
30
0
41
1
10
8.87978391895288
20
5.25416604536835
30
0
41
1
10
8.89807608343111
20
5.22881855884262
30
0
41
1
10
8.93284901728464
20
5.17697010111161
30
0
41
1
10
8.94937836168123
20
5.15040541389646
30
0
41
1
10
8.99638574632192
20
5.06884891163091
30
0
41
1
10
9.02379233142233
20
5.01298387292192
30
0
41
1
10
9.05865992426675
20
4.92678047522557
30
0
41
1
10
9.06924846682114
20
4.89754509042905
30
0
41
1
10
9.08773771619164
20
4.83917157068413
30
0
41
1
10
9.09569061186929
20
4.80993107975831
30
0
41
1
10
9.10867570973198
20
4.75127676933084
30
0
41
1
10
9.11371709099788
20
4.72186401705105
30
0
41
1
10
9.11855266863813
20
4.67753315779856
30
0
41
1
10
9.11970537724963
20
4.66267558728399
30
0
41
1
10
9.12092431855103
20
4.63329477237843
30
0
41
1
10
9.12099819594349
20
4.61873262293648
30
0
41
1
10
9.1199222082117
20
4.5898868007508
30
0
41
1
10
9.11877384515486
20
4.57560283459406
30
0
41
1
10
9.11501786306553
20
4.54735194649072
30
0
41
1
10
9.11240000689966
20
4.5333333789126
30
0
41
1
10
9.10537780647553
20
4.50590678431308
30
0
41
1
10
9.101019419447
20
4.49265569719012
30
0
41
1
10
9.09026179219867
20
4.46724932156974
30
0
41
1
10
9.08386831598165
20
4.45509092290459
30
0
41
1
10
9.07616092576171
20
4.44363138562133
30
0
0
SPLINE
5
119
100
AcDbEntity
8
1
62
256
6
ByLayer
370
18
48
1
60
0
100
AcDbSpline
70
4
71
3
72
8
73
4
40
0
40
0
40
0
40
0
40
1
40
1
40
1
40
1
41
1
10
8.41104725604004
20
5.55962924142429
30
0
41
1
10
8.41771367943568
20
5.560086490342
30
0
41
1
10
8.42438034420186
20
5.56054375581527
30
0
41
1
10
8.43104725604002
20
5.56100103823516
30
0
0
SPLINE
5
11A
100
AcDbEntity
8
1
62
256
6
ByLayer
370
18
48
1
60
0
100
AcDbSpline
70
4
71
3
72
8
73
4
40
0
40
0
40
0
40
0
40
1
40
1
40
1
40
1
41
1
10
9.06497291487426
20
4.42699677595047
30
0
41
1
10
9.06870211575068
20
4.43254144350462
30
0
41
1
10
9.07243145164989
20
4.43808631181403
30
0
41
1
10
9.07616092576131
20
4.44363138562071
30
0
0
SPLINE
5
11B
100
AcDbEntity
8
1
62
256
6
ByLayer
370
18
48
1
60
0
100
AcDbSpline
70
4
71
3
72
35
73
31
40
0
40
0
40
0
40
0
40
0.124999999999997
40
0.124999999999997
40
0.249999999999995
40
0.249999999999995
40
0.374999999999992
40
0.374999999999992
40
0.437499999999992
40
0.437499999999992
40
0.499999999999992
40
0.499999999999992
40
0.624999999999897
40
0.624999999999897
40
0.68749999999985
40
0.68749999999985
40
0.718749999999869
40
0.718749999999869
40
0.749999999999888
40
0.749999999999888
40
0.812499999999923
40
0.812499999999923
40
0.843749999999936
40
0.843749999999936
40
0.874999999999949
40
0.906249999999961
40
0.906249999999961
40
0.937499999999974
40
0.937499999999974
40
1
40
1
40
1
40
1
41
1
10
12.2530538983388
20
3.7818264991989
30
0
41
1
10
12.2215135490517
20
3.76361667004764
30
0
41
1
10
12.1891942725758
20
3.7466028058692
30
0
41
1
10
12.1234168770925
20
3.71529280121956
30
0
41
1
10
12.0899572779842
20
3.70098581841296
30
0
41
1
10
12.0217809228138
20
3.67534824911453
30
0
41
1
10
11.9871684304031
20
3.66405821347996
30
0
41
1
10
11.9346504335245
20
3.64992983939573
30
0
41
1
10
11.9170297951847
20
3.64568583271972
30
0
41
1
10
11.881531145024
20
3.63825288192814
30
0
41
1
10
11.8636528800685
20
3.63506585758992
30
0
41
1
10
11.8099606057014
20
3.62740654089885
30
0
41
1
10
11.7738348007838
20
3.62475899683952
30
0
41
1
10
11.7203149377866
20
3.62624134041002
30
0
41
1
10
11.7024901185555
20
3.6276612808424
30
0
41
1
10
11.6762723764389
20
3.63151213353069
30
0
41
1
10
11.6676177052495
20
3.63308207841794
30
0
41
1
10
11.6505028865435
20
3.63687140000963
30
0
41
1
10
11.6420144596915
20
3.63910076224838
30
0
41
1
10
11.6172089045264
20
3.64681070787222
30
0
41
1
10
11.6014865721684
20
3.65330231973013
30
0
41
1
10
11.5794660901161
20
3.66558537512859
30
0
41
1
10
11.5723402647385
20
3.67014629211903
30
0
41
1
10
11.5590084989687
20
3.68001940112441
30
0
41
1
10
11.5465736815654
20
3.69063524059334
30
0
41
1
10
11.5360102726444
20
3.70279021782113
30
0
41
1
10
11.526438380174
20
3.71575636325838
30
0
41
1
10
11.5222025797015
20
3.72258858465642
30
0
41
1
10
11.5113552268562
20
3.74360043814829
30
0
41
1
10
11.5064505063772
20
3.75847579864248
30
0
41
1
10
11.503629557173
20
3.77412601737407
30
0
0
SPLINE
5
11C
100
AcDbEntity
8
1
62
256
6
ByLayer
370
18
48
1
60
0
100
AcDbSpline
70
4
71
3
72
35
73
31
40
0
40
0
40
0
40
0
40
0.124999999999913
40
0.124999999999913
40
0.249999999999825
40
0.249999999999825
40
0.374999999999738
40
0.374999999999738
40
0.499999999999651
40
0.499999999999651
40
0.562499999999654
40
0.562499999999654
40
0.624999999999657
40
0.624999999999657
40
0.68749999999966
40
0.68749999999966
40
0.718749999999664
40
0.718749999999664
40
0.749999999999669
40
0.749999999999669
40
0.812499999999764
40
0.812499999999764
40
0.843749999999812
40
0.843749999999812
40
0.874999999999859
40
0.906249999999907
40
0.906249999999907
40
0.937499999999955
40
0.937499999999955
40
1
40
1
40
1
40
1
41
1
10
9.44635389833877
20
3.7818264991989
30
0
41
1
10
9.47789353902073
20
3.76361707916104
30
0
41
1
10
9.51017228884595
20
3.74662302261424
30
0
41
1
10
9.57599662876203
20
3.71528949518651
30
0
41
1
10
9.60945553324996
20
3.70098479943593
30
0
41
1
10
9.67757086841775
20
3.67536844375269
30
0
41
1
10
9.71224216087131
20
3.66405354883349
30
0
41
1
10
9.7824664016313
20
3.6451696840742
30
0
41
1
10
9.81803730459603
20
3.63758435892572
30
0
41
1
10
9.87174341678178
20
3.62993653411778
30
0
41
1
10
9.88967671466085
20
3.62801622771553
30
0
41
1
10
9.92561085568423
20
3.62567201283804
30
0
41
1
10
9.94356806678783
20
3.62525530797683
30
0
41
1
10
9.97905987215407
20
3.62624253367244
30
0
41
1
10
9.99664437554122
20
3.62763853295166
30
0
41
1
10
10.0227034434564
20
3.63144026930416
30
0
41
1
10
10.0313364906673
20
3.63299388109616
30
0
41
1
10
10.0484767246963
20
3.63676497855636
30
0
41
1
10
10.0569917524719
20
3.63898888202482
30
0
41
1
10
10.0818434275099
20
3.64667523202308
30
0
41
1
10
10.0976446402569
20
3.65316464641916
30
0
41
1
10
10.1198447908504
20
3.66552314383802
30
0
41
1
10
10.1269731111282
20
3.67008496040245
30
0
41
1
10
10.1402506924584
20
3.6799009109049
30
0
41
1
10
10.1526570569603
20
3.69046481510378
30
0
41
1
10
10.1632325759039
20
3.70258999850373
30
0
41
1
10
10.172829956138
20
3.71554495479438
30
0
41
1
10
10.1771054082104
20
3.72241463431717
30
0
41
1
10
10.188022262041
20
3.74350356888076
30
0
41
1
10
10.1929489167853
20
3.75842934358983
30
0
41
1
10
10.1957782395046
20
3.77412601737407
30
0
0
SPLINE
5
11D
100
AcDbEntity
8
1
62
256
6
ByLayer
370
18
48
1
60
0
100
AcDbSpline
70
4
71
3
72
52
73
48
40
0
40
0
40
0
40
0
40
0.0156249999999961
40
0.0156249999999961
40
0.0312499999999922
40
0.0312499999999922
40
0.0624999999999569
40
0.0624999999999569
40
0.0937499999999215
40
0.0937499999999215
40
0.124999999999886
40
0.124999999999886
40
0.187499999999815
40
0.187499999999815
40
0.218749999999805
40
0.218749999999805
40
0.249999999999795
40
0.249999999999795
40
0.312499999999824
40
0.312499999999824
40
0.374999999999853
40
0.374999999999853
40
0.437499999999882
40
0.437499999999882
40
0.499999999999912
40
0.499999999999912
40
0.562499999999941
40
0.562499999999941
40
0.62499999999997
40
0.62499999999997
40
0.687499999999999
40
0.687499999999999
40
0.750000000000028
40
0.750000000000028
40
0.812500000000057
40
0.812500000000057
40
0.843750000000048
40
0.843750000000048
40
0.875000000000038
40
0.875000000000038
40
0.906250000000029
40
0.906250000000029
40
0.937500000000019
40
0.937500000000019
40
0.96875000000001
40
0.96875000000001
40
1
40
1
40
1
40
1
41
1
10
11.4948175680597
20
3.79213242385586
30
0
41
1
10
11.491802924364
20
3.79829254265383
30
0
41
1
10
11.4884587468358
20
3.80428758126416
30
0
41
1
10
11.4811791384364
20
3.815982664578
30
0
41
1
10
11.4772340209719
20
3.82169274398871
30
0
41
1
10
11.4647399124308
20
3.8382345603824
30
0
41
1
10
11.4555033431458
20
3.84854866576856
30
0
41
1
10
11.4355864104615
20
3.86805579373566
30
0
41
1
10
11.4249027961397
20
3.87724624472915
30
0
41
1
10
11.4023027832994
20
3.89468696350625
30
0
41
1
10
11.390421768652
20
3.90290276608587
30
0
41
1
10
11.3536537470936
20
3.92604180731502
30
0
41
1
10
11.327422126252
20
3.93961893995976
30
0
41
1
10
11.2866877707806
20
3.95759474621093
30
0
41
1
10
11.2728565653711
20
3.96319594754766
30
0
41
1
10
11.2447302012179
20
3.97369906973057
30
0
41
1
10
11.2304207340379
20
3.97860404183737
30
0
41
1
10
11.1871018180937
20
3.99227545080129
30
0
41
1
10
11.1576262297813
20
4.00003908676842
30
0
41
1
10
11.0975985720682
20
4.01323284552572
30
0
41
1
10
11.0670965845693
20
4.01864145868896
30
0
41
1
10
11.0057094878124
20
4.02721702722204
30
0
41
1
10
10.9747255598003
20
4.03040149172224
30
0
41
1
10
10.9123203439338
20
4.0346474869788
30
0
41
1
10
10.8810453503968
20
4.03570011888508
30
0
41
1
10
10.8183518797458
20
4.03569988109624
30
0
41
1
10
10.7870931404759
20
4.03464699659807
30
0
41
1
10
10.7247525717125
20
4.0304071535414
30
0
41
1
10
10.6936830608055
20
4.02721634112601
30
0
41
1
10
10.6322107574655
20
4.01862597879074
30
0
41
1
10
10.6016854892927
20
4.01320876677627
30
0
41
1
10
10.5416883967515
20
4.00001547956424
30
0
41
1
10
10.5121499311149
20
3.99223298164912
30
0
41
1
10
10.4543245428689
20
3.97396974059703
30
0
41
1
10
10.4262146103711
20
3.96355457078604
30
0
41
1
10
10.3854614185809
20
3.94556331129823
30
0
41
1
10
10.3720930111268
20
3.93915615573843
30
0
41
1
10
10.3460715229842
20
3.9255133856328
30
0
41
1
10
10.333402784926
20
3.91827348373479
30
0
41
1
10
10.3088497357248
20
3.90281231188541
30
0
41
1
10
10.2969908467286
20
3.89460443447871
30
0
41
1
10
10.2744197658691
20
3.87717484375318
30
0
41
1
10
10.2636516041963
20
3.86791010603687
30
0
41
1
10
10.2435929795225
20
3.84822249978083
30
0
41
1
10
10.2343781359743
20
3.83788168150304
30
0
41
1
10
10.2178941264828
20
3.81599511770438
30
0
41
1
10
10.2106195410363
20
3.80445271259166
30
0
41
1
10
10.2045902286175
20
3.79213242385521
30
0
0
SPLINE
5
11E
100
AcDbEntity
8
1
62
256
6
ByLayer
370
18
48
1
60
0
100
AcDbSpline
70
4
71
3
72
8
73
4
40
0
40
0
40
0
40
0
40
1
40
1
40
1
40
1
41
1
10
10.2045902286175
20
3.79213242385521
30
0
41
1
10
10.2016527908908
20
3.78613006762862
30
0
41
1
10
10.1987154620238
20
3.78012793384593
30
0
41
1
10
10.1957782395046
20
3.77412601737407
30
0
0
SPLINE
5
11F
100
AcDbEntity
8
1
62
256
6
ByLayer
370
18
48
1
60
0
100
AcDbSpline
70
4
71
3
72
8
73
4
40
0
40
0
40
0
40
0
40
1
40
1
40
1
40
1
41
1
10
11.503629557173
20
3.77412601737407
30
0
41
1
10
11.5006923346538
20
3.78012793384593
30
0
41
1
10
11.4977550057868
20
3.78613006762862
30
0
41
1
10
11.4948175680601
20
3.79213242385521
30
0
0
SPLINE
5
120
100
AcDbEntity
8
1
62
256
6
ByLayer
370
18
48
1
60
0
100
AcDbSpline
70
4
71
3
72
35
73
31
40
0
40
0
40
0
40
0
40
0.124999999999961
40
0.124999999999961
40
0.249999999999921
40
0.249999999999921
40
0.374999999999882
40
0.374999999999882
40
0.437499999999863
40
0.437499999999863
40
0.499999999999845
40
0.499999999999845
40
0.624999999999806
40
0.624999999999806
40
0.687499999999786
40
0.687499999999786
40
0.718749999999777
40
0.718749999999777
40
0.749999999999768
40
0.749999999999768
40
0.812499999999833
40
0.812499999999833
40
0.843749999999861
40
0.843749999999861
40
0.874999999999889
40
0.906249999999917
40
0.906249999999917
40
0.937499999999944
40
0.937499999999944
40
1
40
1
40
1
40
1
41
1
10
9.4463538983388
20
8.64317350080245
30
0
41
1
10
9.47789424762604
20
8.66138332995374
30
0
41
1
10
9.51021352410189
20
8.67839719413215
30
0
41
1
10
9.57599091958508
20
8.70970719878181
30
0
41
1
10
9.60945051869339
20
8.72401418158839
30
0
41
1
10
9.67762687386386
20
8.74965175088681
30
0
41
1
10
9.71223936627467
20
8.76094178652139
30
0
41
1
10
9.76475736315317
20
8.77507016060562
30
0
41
1
10
9.78237800149302
20
8.77931416728163
30
0
41
1
10
9.81787665165356
20
8.78674711807318
30
0
41
1
10
9.83575491660918
20
8.78993414241145
30
0
41
1
10
9.8894471909762
20
8.7975934591025
30
0
41
1
10
9.92557299589376
20
8.80024100316183
30
0
41
1
10
9.97909285889102
20
8.79875865959133
30
0
41
1
10
9.99691767812217
20
8.79733871915894
30
0
41
1
10
10.0231354202388
20
8.79348786647066
30
0
41
1
10
10.0317900914281
20
8.79191792158338
30
0
41
1
10
10.0489049101341
20
8.78812859999172
30
0
41
1
10
10.0573933369862
20
8.78589923775297
30
0
41
1
10
10.0821988921513
20
8.77818929212913
30
0
41
1
10
10.0979212245093
20
8.77169768027122
30
0
41
1
10
10.1199417065615
20
8.75941462487273
30
0
41
1
10
10.1270675319391
20
8.75485370788232
30
0
41
1
10
10.140399297709
20
8.74498059887694
30
0
41
1
10
10.1528341151123
20
8.73436475940798
30
0
41
1
10
10.1633975240333
20
8.72220978218022
30
0
41
1
10
10.1729694165037
20
8.70924363674297
30
0
41
1
10
10.1772052169761
20
8.70241141534493
30
0
41
1
10
10.1880525698214
20
8.68139956185306
30
0
41
1
10
10.1929572903004
20
8.66652420135887
30
0
41
1
10
10.1957782395046
20
8.65087398262725
30
0
0
SPLINE
5
121
100
AcDbEntity
8
1
62
256
6
ByLayer
370
18
48
1
60
0
100
AcDbSpline
70
4
71
3
72
52
73
48
40
0
40
0
40
0
40
0
40
0.0156249999999555
40
0.0156249999999555
40
0.0312499999999108
40
0.0312499999999108
40
0.062499999999856
40
0.062499999999856
40
0.0937499999998013
40
0.0937499999998013
40
0.124999999999746
40
0.124999999999746
40
0.187499999999686
40
0.187499999999686
40
0.21874999999968
40
0.21874999999968
40
0.249999999999675
40
0.249999999999675
40
0.312499999999715
40
0.312499999999715
40
0.374999999999753
40
0.374999999999753
40
0.437499999999793
40
0.437499999999793
40
0.499999999999832
40
0.499999999999832
40
0.562499999999871
40
0.562499999999871
40
0.62499999999991
40
0.62499999999991
40
0.687499999999949
40
0.687499999999949
40
0.749999999999988
40
0.749999999999988
40
0.812500000000027
40
0.812500000000027
40
0.843750000000023
40
0.843750000000023
40
0.875000000000018
40
0.875000000000018
40
0.906250000000014
40
0.906250000000014
40
0.937500000000009
40
0.937500000000009
40
0.968750000000005
40
0.968750000000005
40
1
40
1
40
1
40
1
41
1
10
10.2045902286179
20
8.63286757614549
30
0
41
1
10
10.2076048723137
20
8.62670745734752
30
0
41
1
10
10.2109490498418
20
8.62071241873718
30
0
41
1
10
10.2182286582412
20
8.60901733542335
30
0
41
1
10
10.2221737757058
20
8.60330725601264
30
0
41
1
10
10.2346678842469
20
8.58676543961894
30
0
41
1
10
10.2439044535318
20
8.57645133423276
30
0
41
1
10
10.2638213862161
20
8.55694420626568
30
0
41
1
10
10.2745050005381
20
8.5477537552722
30
0
41
1
10
10.2971050133783
20
8.5303130364951
30
0
41
1
10
10.3089860280257
20
8.52209723391545
30
0
41
1
10
10.3457540495841
20
8.49895819268633
30
0
41
1
10
10.3719856704256
20
8.48538106004159
30
0
41
1
10
10.412720025897
20
8.46740525379042
30
0
41
1
10
10.4265512313066
20
8.46180405245372
30
0
41
1
10
10.4546775954598
20
8.45130093027078
30
0
41
1
10
10.4689870626398
20
8.44639595816395
30
0
41
1
10
10.5123059785839
20
8.43272454920006
30
0
41
1
10
10.5417815668963
20
8.42496091323292
30
0
41
1
10
10.6018092246095
20
8.41176715447563
30
0
41
1
10
10.6323112121084
20
8.40635854131239
30
0
41
1
10
10.6936983088652
20
8.39778297277931
30
0
41
1
10
10.7246822368772
20
8.39459850827907
30
0
41
1
10
10.7870874527438
20
8.39035251302255
30
0
41
1
10
10.8183624462809
20
8.38929988111627
30
0
41
1
10
10.8810559169318
20
8.38930011890511
30
0
41
1
10
10.9123146562018
20
8.39035300340328
30
0
41
1
10
10.9746552249652
20
8.39459284645991
30
0
41
1
10
11.0057247358721
20
8.39778365887534
30
0
41
1
10
11.0671970392122
20
8.40637402121061
30
0
41
1
10
11.0977223073849
20
8.41179123322507
30
0
41
1
10
11.1577193999261
20
8.42498452043711
30
0
41
1
10
11.1872578655627
20
8.43276701835222
30
0
41
1
10
11.2450832538088
20
8.45103025940432
30
0
41
1
10
11.2731931863066
20
8.4614454292153
30
0
41
1
10
11.3139463780968
20
8.47943668870312
30
0
41
1
10
11.3273147855508
20
8.48584384426292
30
0
41
1
10
11.3533362736935
20
8.49948661436855
30
0
41
1
10
11.3660050117517
20
8.50672651626655
30
0
41
1
10
11.3905580609529
20
8.52218768811593
30
0
41
1
10
11.4024169499492
20
8.53039556552267
30
0
41
1
10
11.4249880308086
20
8.54782515624817
30
0
41
1
10
11.4357561924814
20
8.55708989396447
30
0
41
1
10
11.4558148171552
20
8.57677750022052
30
0
41
1
10
11.4650296607034
20
8.58711831849831
30
0
41
1
10
11.4815136701949
20
8.609004882297
30
0
41
1
10
11.4887882556414
20
8.62054728740969
30
0
41
1
10
11.4948175680601
20
8.63286757614614
30
0
0
SPLINE
5
122
100
AcDbEntity
8
1
62
256
6
ByLayer
370
18
48
1
60
0
100
AcDbSpline
70
4
71
3
72
8
73
4
40
0
40
0
40
0
40
0
40
1
40
1
40
1
40
1
41
1
10
11.4948175680601
20
8.63286757614614
30
0
41
1
10
11.4977550057868
20
8.63886993237273
30
0
41
1
10
11.5006923346538
20
8.64487206615541
30
0
41
1
10
11.503629557173
20
8.65087398262725
30
0
0
SPLINE
5
123
100
AcDbEntity
8
1
62
256
6
ByLayer
370
18
48
1
60
0
100
AcDbSpline
70
4
71
3
72
35
73
31
40
0
40
0
40
0
40
0
40
0.124999999999956
40
0.124999999999956
40
0.249999999999912
40
0.249999999999912
40
0.374999999999867
40
0.374999999999867
40
0.499999999999823
40
0.499999999999823
40
0.562499999999848
40
0.562499999999848
40
0.624999999999873
40
0.624999999999873
40
0.687499999999897
40
0.687499999999897
40
0.718749999999912
40
0.718749999999912
40
0.749999999999928
40
0.749999999999928
40
0.812499999999962
40
0.812499999999962
40
0.843749999999977
40
0.843749999999977
40
0.874999999999991
40
0.906250000000006
40
0.906250000000006
40
0.937500000000021
40
0.937500000000021
40
1
40
1
40
1
40
1
41
1
10
12.2530538983388
20
8.64317350080248
30
0
41
1
10
12.2215142576568
20
8.66138292084034
30
0
41
1
10
12.1892355078317
20
8.67837697738713
30
0
41
1
10
12.1234111679156
20
8.70971050481484
30
0
41
1
10
12.0899522634277
20
8.72401520056545
30
0
41
1
10
12.0218369282599
20
8.74963155624866
30
0
41
1
10
11.9871656358064
20
8.76094645116785
30
0
41
1
10
11.9169413950462
20
8.77983031592714
30
0
41
1
10
11.8813704920815
20
8.78741564107563
30
0
41
1
10
11.8276643798957
20
8.79506346588357
30
0
41
1
10
11.8097310820168
20
8.79698377228581
30
0
41
1
10
11.7737969409934
20
8.79932798716331
30
0
41
1
10
11.7558397298898
20
8.79974469202452
30
0
41
1
10
11.7203479245235
20
8.79875746632891
30
0
41
1
10
11.7027634211365
20
8.79736146704968
30
0
41
1
10
11.6767043532213
20
8.79355973069721
30
0
41
1
10
11.6680713060104
20
8.79200611890519
30
0
41
1
10
11.6509310719813
20
8.78823502144499
30
0
41
1
10
11.6424160442057
20
8.78601111797653
30
0
41
1
10
11.6175643691676
20
8.77832476797826
30
0
41
1
10
11.6017631564207
20
8.77183535358219
30
0
41
1
10
11.5795630058273
20
8.75947685616333
30
0
41
1
10
11.5724346855494
20
8.7549150395989
30
0
41
1
10
11.5591571042192
20
8.74509908909644
30
0
41
1
10
11.5467505762219
20
8.7345353263903
30
0
41
1
10
11.5361752207737
20
8.72241000149762
30
0
41
1
10
11.5265778405397
20
8.70945504520697
30
0
41
1
10
11.5223023884673
20
8.70258536568417
30
0
41
1
10
11.5113855346366
20
8.68149643112059
30
0
41
1
10
11.5064588798924
20
8.66657065641152
30
0
41
1
10
11.503629557173
20
8.65087398262725
30
0
0
SPLINE
5
124
100
AcDbEntity
8
1
62
256
6
ByLayer
370
18
48
1
60
0
100
AcDbSpline
70
4
71
3
72
8
73
4
40
0
40
0
40
0
40
0
40
1
40
1
40
1
40
1
41
1
10
10.1957782395046
20
8.65087398262725
30
0
41
1
10
10.1987154620238
20
8.64487206615541
30
0
41
1
10
10.2016527908908
20
8.63886993237273
30
0
41
1
10
10.2045902286175
20
8.63286757614614
30
0
0
SPLINE
5
125
100
AcDbEntity
8
1
62
256
6
ByLayer
370
18
48
1
60
0
100
AcDbSpline
70
4
71
3
72
52
73
48
40
0
40
0
40
0
40
0
40
0.0156249999999901
40
0.0156249999999901
40
0.0312499999999803
40
0.0312499999999803
40
0.0624999999999616
40
0.0624999999999616
40
0.0937499999999428
40
0.0937499999999428
40
0.124999999999924
40
0.124999999999924
40
0.187499999999932
40
0.187499999999932
40
0.218749999999934
40
0.218749999999934
40
0.249999999999936
40
0.249999999999936
40
0.312499999999944
40
0.312499999999944
40
0.374999999999952
40
0.374999999999952
40
0.437499999999961
40
0.437499999999961
40
0.499999999999969
40
0.499999999999969
40
0.562499999999978
40
0.562499999999978
40
0.624999999999986
40
0.624999999999986
40
0.687499999999994
40
0.687499999999994
40
0.750000000000003
40
0.750000000000003
40
0.812500000000011
40
0.812500000000011
40
0.843750000000009
40
0.843750000000009
40
0.875000000000008
40
0.875000000000008
40
0.906250000000006
40
0.906250000000006
40
0.937500000000004
40
0.937500000000004
40
0.968750000000002
40
0.968750000000002
40
1
40
1
40
1
40
1
41
1
10
13.2683605406369
20
5.56100103823522
30
0
41
1
10
13.2615183994196
20
5.56147033961025
30
0
41
1
10
13.2546544549223
20
5.56157171622127
30
0
41
1
10
13.2408864114734
20
5.56111493207476
30
0
41
1
10
13.2339687789138
20
5.56055339983484
30
0
41
1
10
13.2133960914216
20
5.5580040926375
30
0
41
1
10
13.1998455294975
20
5.55516204168597
30
0
41
1
10
13.1729933947809
20
5.54766703599947
30
0
41
1
10
13.1596924235874
20
5.54300998008921
30
0
41
1
10
13.133288311646
20
5.53215815423223
30
0
41
1
10
13.1202327105759
20
5.52597679501469
30
0
41
1
10
13.081809702273
20
5.5057042749128
30
0
41
1
10
13.0569357500713
20
5.48977559120394
30
0
41
1
10
13.0210010674686
20
5.46348650768448
30
0
41
1
10
13.0092346821146
20
5.45430893310322
30
0
41
1
10
12.9860755294085
20
5.43520234832192
30
0
41
1
10
12.9746729653691
20
5.42526247228278
30
0
41
1
10
12.9411737199288
20
5.3945828950927
30
0
41
1
10
12.9197124197993
20
5.37293810480631
30
0
41
1
10
12.8782724606875
20
5.32754950767563
30
0
41
1
10
12.8583374705395
20
5.30383831821734
30
0
41
1
10
12.8202172619595
20
5.25496331722789
30
0
41
1
10
12.8019674707988
20
5.22972268071052
30
0
41
1
10
12.7670877231091
20
5.17780117606969
30
0
41
1
10
12.7505386203688
20
5.1512425531165
30
0
41
1
10
12.7191920909745
20
5.09694829598692
30
0
41
1
10
12.7044745460622
20
5.0693509914399
30
0
41
1
10
12.6769760734757
20
5.01324255367607
30
0
41
1
10
12.6642046426326
20
4.98474016173981
30
0
41
1
10
12.6409079629727
20
4.92720840425051
30
0
41
1
10
12.6303367721084
20
4.89806414054831
30
0
41
1
10
12.611763947723
20
4.83950849064846
30
0
41
1
10
12.603734555804
20
4.81003618006074
30
0
41
1
10
12.5906382923876
20
4.75082630432999
30
0
41
1
10
12.5856031277797
20
4.7212748037827
30
0
41
1
10
12.5808074196472
20
4.67698587466313
30
0
41
1
10
12.5796719754009
20
4.66220491641994
30
0
41
1
10
12.578476216819
20
4.63284826159131
30
0
41
1
10
12.5784117867545
20
4.61825686165
30
0
41
1
10
12.5795250297477
20
4.5892627113767
30
0
41
1
10
12.5807038155949
20
4.57488867354192
30
0
41
1
10
12.5845127435111
20
4.54662674876403
30
0
41
1
10
12.5871521608965
20
4.53266887834516
30
0
41
1
10
12.5941728157171
20
4.50545379668466
30
0
41
1
10
12.5985208052674
20
4.49230309894108
30
0
41
1
10
12.6092331207728
20
4.46708424606589
30
0
41
1
10
12.615591844098
20
4.45501306771095
30
0
41
1
10
12.6232468709163
20
4.44363138562071
30
0
0
SPLINE
5
126
100
AcDbEntity
8
1
62
256
6
ByLayer
370
18
48
1
60
0
100
AcDbSpline
70
4
71
3
72
8
73
4
40
0
40
0
40
0
40
0
40
1
40
1
40
1
40
1
41
1
10
12.6232468709163
20
4.44363138562071
30
0
41
1
10
12.6269763450277
20
4.43808631181403
30
0
41
1
10
12.6307056809269
20
4.43254144350462
30
0
41
1
10
12.6344348818033
20
4.42699677595047
30
0
0
SPLINE
5
127
100
AcDbEntity
8
1
62
256
6
ByLayer
370
18
48
1
60
0
100
AcDbSpline
70
4
71
3
72
35
73
31
40
0
40
0
40
0
40
0
40
0.124999999999974
40
0.124999999999974
40
0.249999999999949
40
0.249999999999949
40
0.374999999999923
40
0.374999999999923
40
0.499999999999897
40
0.499999999999897
40
0.562499999999911
40
0.562499999999911
40
0.624999999999924
40
0.624999999999924
40
0.687499999999937
40
0.687499999999937
40
0.718749999999946
40
0.718749999999946
40
0.749999999999956
40
0.749999999999956
40
0.812499999999964
40
0.812499999999964
40
0.843749999999968
40
0.843749999999968
40
0.874999999999972
40
0.906249999999976
40
0.906249999999976
40
0.93749999999998
40
0.93749999999998
40
1
40
1
40
1
40
1
41
1
10
12.2530538983388
20
3.7818264991989
30
0
41
1
10
12.2845935390208
20
3.80003591923676
30
0
41
1
10
12.3154501986162
20
3.81949310831442
30
0
41
1
10
12.3754979993169
20
3.8608318951552
30
0
41
1
10
12.4046156814742
20
3.88265580854923
30
0
41
1
10
12.4608577638322
20
3.92883724135018
30
0
41
1
10
12.4879923965001
20
3.9532060139374
30
0
41
1
10
12.5394584234833
20
4.00458005801747
30
0
41
1
10
12.5638129592403
20
4.03159270104621
30
0
41
1
10
12.5972892259005
20
4.07427964613362
30
0
41
1
10
12.6079189089674
20
4.08885018446938
30
0
41
1
10
12.6279161291149
20
4.11879795602005
30
0
41
1
10
12.6372556116624
20
4.13414100458627
30
0
41
1
10
12.6541465518139
20
4.16537142250741
30
0
41
1
10
12.661729832668
20
4.1812980487932
30
0
41
1
10
12.6714669663658
20
4.20576673178292
30
0
41
1
10
12.6744380226918
20
4.21401997587563
30
0
41
1
10
12.6797422735056
20
4.23074940270175
30
0
41
1
10
12.6820738304942
20
4.23923558480357
30
0
41
1
10
12.6878430936523
20
4.26460094171219
30
0
41
1
10
12.690123702303
20
4.28152990055966
30
0
41
1
10
12.6905210048825
20
4.30693504365092
30
0
41
1
10
12.6901345159892
20
4.31538925838009
30
0
41
1
10
12.6882724441569
20
4.33179595636409
30
0
41
1
10
12.6853272212925
20
4.34782220613562
30
0
41
1
10
12.6801140596304
20
4.36304339505415
30
0
41
1
10
12.6736934284948
20
4.37783244829183
30
0
41
1
10
12.6698818375484
20
4.38496993816068
30
0
41
1
10
12.6570767113929
20
4.40496867818916
30
0
41
1
10
12.6466139386958
20
4.41669817370789
30
0
41
1
10
12.6344348818033
20
4.42699677595047
30
0
0
SPLINE
5
128
100
AcDbEntity
8
1
62
256
6
ByLayer
370
18
48
1
60
0
100
AcDbSpline
70
4
71
3
72
35
73
31
40
0
40
0
40
0
40
0
40
0.125000000000013
40
0.125000000000013
40
0.250000000000027
40
0.250000000000027
40
0.37500000000004
40
0.37500000000004
40
0.437500000000033
40
0.437500000000033
40
0.500000000000027
40
0.500000000000027
40
0.624999999999971
40
0.624999999999971
40
0.687499999999938
40
0.687499999999938
40
0.718749999999894
40
0.718749999999894
40
0.749999999999851
40
0.749999999999851
40
0.812499999999845
40
0.812499999999845
40
0.843749999999885
40
0.843749999999885
40
0.874999999999925
40
0.906249999999964
40
0.906249999999964
40
0.937500000000004
40
0.937500000000004
40
1
40
1
40
1
40
1
41
1
10
13.6564038983388
20
6.21250000000066
30
0
41
1
10
13.6564038983388
20
6.17608034169811
30
0
41
1
10
13.6549786986959
20
6.13958409514888
30
0
41
1
10
13.6492052603735
20
6.06696419734078
30
0
41
1
10
13.6448656713813
20
6.03083384310926
30
0
41
1
10
13.6329802800998
20
5.95897260294504
30
0
41
1
10
13.6254514915637
20
5.92335228741172
30
0
41
1
10
13.6114280239956
20
5.87080618091693
30
0
41
1
10
13.6062931224208
20
5.85342425714572
30
0
41
1
10
13.5949809215512
20
5.81896504891077
30
0
41
1
10
13.5888018331128
20
5.80188850511456
30
0
41
1
10
13.5685888587592
20
5.75155997318018
30
0
41
1
10
13.5528187967136
20
5.71895033635974
30
0
41
1
10
13.5247751180257
20
5.67334194718231
30
0
41
1
10
13.5146330039238
20
5.65861517112648
30
0
41
1
10
13.4981891966113
20
5.63783536676775
30
0
41
1
10
13.4925022488617
20
5.63112517410002
30
0
41
1
10
13.4806631907472
20
5.61819796711532
30
0
41
1
10
13.4744882929881
20
5.61196145494262
30
0
41
1
10
13.4554085066336
20
5.59433418682664
30
0
41
1
10
13.4419254396741
20
5.58396405352681
30
0
41
1
10
13.4202777606368
20
5.57103528436517
30
0
41
1
10
13.4127649779697
20
5.56714459706049
30
0
41
1
10
13.3975487318718
20
5.56053550372917
30
0
41
1
10
13.3821377365076
20
5.55507455570097
30
0
41
1
10
13.3663295129854
20
5.55200386383868
30
0
41
1
10
13.3503145554124
20
5.5501974345157
30
0
41
1
10
13.3422797778812
20
5.54994523440013
30
0
41
1
10
13.318659302554
20
5.5510570780182
30
0
41
1
10
13.303324502236
20
5.55424714573209
30
0
41
1
10
13.2883605406376
20
5.55962924142429
30
0
0
SPLINE
5
129
100
AcDbEntity
8
1
62
256
6
ByLayer
370
18
48
1
60
0
100
AcDbSpline
70
4
71
3
72
8
73
4
40
0
40
0
40
0
40
0
40
1
40
1
40
1
40
1
41
1
10
13.2883605406376
20
5.55962924142429
30
0
41
1
10
13.2816941172419
20
5.560086490342
30
0
41
1
10
13.2750274524757
20
5.56054375581527
30
0
41
1
10
13.2683605406376
20
5.56100103823516
30
0
0
SPLINE
5
12A
100
AcDbEntity
8
1
62
256
6
ByLayer
370
18
48
1
60
0
100
AcDbSpline
70
4
71
3
72
52
73
48
40
0
40
0
40
0
40
0
40
0.0156250000000019
40
0.0156250000000019
40
0.0312500000000038
40
0.0312500000000038
40
0.0625000000000074
40
0.0625000000000074
40
0.0937500000000112
40
0.0937500000000112
40
0.125000000000015
40
0.125000000000015
40
0.187500000000022
40
0.187500000000022
40
0.218750000000029
40
0.218750000000029
40
0.250000000000036
40
0.250000000000036
40
0.312500000000033
40
0.312500000000033
40
0.375000000000031
40
0.375000000000031
40
0.437500000000029
40
0.437500000000029
40
0.500000000000028
40
0.500000000000028
40
0.562500000000026
40
0.562500000000026
40
0.625000000000024
40
0.625000000000024
40
0.687500000000022
40
0.687500000000022
40
0.75000000000002
40
0.75000000000002
40
0.812500000000018
40
0.812500000000018
40
0.843750000000015
40
0.843750000000015
40
0.875000000000012
40
0.875000000000012
40
0.906250000000009
40
0.906250000000009
40
0.937500000000006
40
0.937500000000006
40
0.968750000000003
40
0.968750000000003
40
1
40
1
40
1
40
1
41
1
10
12.6232468709159
20
7.98136861438002
30
0
41
1
10
12.6194193733944
20
7.97567779695711
30
0
41
1
10
12.6158996064253
20
7.96978413495779
30
0
41
1
10
12.6094111713758
20
7.95763226749744
30
0
41
1
10
12.6064386562808
20
7.9513606558468
30
0
41
1
10
12.5983600773297
20
7.93226953225576
30
0
41
1
10
12.5940460846905
20
7.91911337591807
30
0
41
1
10
12.5871108826582
20
7.89211124226449
30
0
41
1
10
12.5844935257865
20
7.87826373536075
30
0
41
1
10
12.5806894266855
20
7.84997119072668
30
0
41
1
10
12.5795148402627
20
7.83557402892947
30
0
41
1
10
12.5778598535182
20
7.79216246759844
30
0
41
1
10
12.5792175221582
20
7.76265665124484
30
0
41
1
10
12.5840171950268
20
7.71839176147421
30
0
41
1
10
12.5860820150823
20
7.70361298555625
30
0
41
1
10
12.5910492265295
20
7.67400327859204
30
0
41
1
10
12.5939561296701
20
7.6591584304461
30
0
41
1
10
12.6037758001738
20
7.6148074442921
30
0
41
1
10
12.6117900883567
20
7.58539901803854
30
0
41
1
10
12.6303777869582
20
7.52681666215059
30
0
41
1
10
12.640944784309
20
7.49769685952904
30
0
41
1
10
12.6642116724859
20
7.44024629000651
30
0
41
1
10
12.6769458093372
20
7.41182118898894
30
0
41
1
10
12.7044712775141
20
7.35565368909155
30
0
41
1
10
12.7191971683109
20
7.32804243423212
30
0
41
1
10
12.7505441095676
20
7.27374841489134
30
0
41
1
10
12.7670853039251
20
7.24720399484249
30
0
41
1
10
12.801927400102
20
7.19533540013529
30
0
41
1
10
12.8202254801659
20
7.17002382061446
30
0
41
1
10
12.858401103846
20
7.12108242546046
30
0
41
1
10
12.8783551811546
20
7.09735537377273
30
0
41
1
10
12.9197794493103
20
7.05199301108487
30
0
41
1
10
12.941288523028
20
7.03030319841227
30
0
41
1
10
12.9860176478575
20
6.98935656373362
30
0
41
1
10
13.0090924157474
20
6.97022023299732
30
0
41
1
10
13.0450498994051
20
6.94392256336559
30
0
41
1
10
13.0572828626129
20
6.93554876068217
30
0
41
1
10
13.0821085921737
20
6.91983487595917
30
0
41
1
10
13.0947129001674
20
6.91248337791589
30
0
41
1
10
13.1203791923618
20
6.89895039949195
30
0
41
1
10
13.1334168672053
20
6.8927842390639
30
0
41
1
10
13.1597968759809
20
6.8819519050115
30
0
41
1
10
13.173204455039
20
6.87725877230895
30
0
41
1
10
13.2002837345333
20
6.86973129690449
30
0
41
1
10
13.213846567632
20
6.86692141743873
30
0
41
1
10
13.2410428926289
20
6.86358912836221
30
0
41
1
10
13.2546762014005
20
6.86306035511998
30
0
41
1
10
13.2683605406376
20
6.86399896176619
30
0
0
SPLINE
5
12B
100
AcDbEntity
8
1
62
256
6
ByLayer
370
18
48
1
60
0
100
AcDbSpline
70
4
71
3
72
8
73
4
40
0
40
0
40
0
40
0
40
1
40
1
40
1
40
1
41
1
10
13.2683605406376
20
6.86399896176619
30
0
41
1
10
13.2750274524757
20
6.86445624418607
30
0
41
1
10
13.2816941172419
20
6.86491350965935
30
0
41
1
10
13.2883605406376
20
6.86537075857706
30
0
0
SPLINE
5
12C
100
AcDbEntity
8
1
62
256
6
ByLayer
370
18
48
1
60
0
100
AcDbSpline
70
4
71
3
72
35
73
31
40
0
40
0
40
0
40
0
40
0.125000000000056
40
0.125000000000056
40
0.250000000000112
40
0.250000000000112
40
0.375000000000168
40
0.375000000000168
40
0.500000000000224
40
0.500000000000224
40
0.562500000000253
40
0.562500000000253
40
0.625000000000283
40
0.625000000000283
40
0.687500000000313
40
0.687500000000313
40
0.718750000000306
40
0.718750000000306
40
0.7500000000003
40
0.7500000000003
40
0.812500000000228
40
0.812500000000228
40
0.843750000000192
40
0.843750000000192
40
0.875000000000156
40
0.90625000000012
40
0.90625000000012
40
0.937500000000084
40
0.937500000000084
40
1
40
1
40
1
40
1
41
1
10
13.6564038983388
20
6.21250000000066
30
0
41
1
10
13.6564038983388
20
6.24891884007639
30
0
41
1
10
13.6549818081091
20
6.28537008570083
30
0
41
1
10
13.6492052688936
20
6.35804239996935
30
0
41
1
10
13.6448640465631
20
6.39417100911399
30
0
41
1
10
13.6329907937532
20
6.46596879759818
30
0
41
1
10
13.6254541339677
20
6.50165246510457
30
0
41
1
10
13.6066959201908
20
6.57191037394392
30
0
41
1
10
13.595479552983
20
6.60650834212117
30
0
41
1
10
13.5752497074575
20
6.6568431120165
30
0
41
1
10
13.5679460926454
20
6.6733339567545
30
0
41
1
10
13.5520091717695
20
6.70562594318267
30
0
41
1
10
13.5433914432134
20
6.72138569661007
30
0
41
1
10
13.5247905779986
20
6.75162888883563
30
0
41
1
10
13.5147893554656
20
6.76615951584216
30
0
41
1
10
13.4984674212483
20
6.78682646247944
30
0
41
1
10
13.4928054303633
20
6.79352609478016
30
0
41
1
10
13.4809694471481
20
6.80648442414605
30
0
41
1
10
13.4747859763611
20
6.81274670277941
30
0
41
1
10
13.4557035644812
20
6.83042570968976
30
0
41
1
10
13.442182960385
20
6.84086525414119
30
0
41
1
10
13.4203801123709
20
6.85391189981357
30
0
41
1
10
13.4128653031997
20
6.85780429797833
30
0
41
1
10
13.3977256500372
20
6.86439504545981
30
0
41
1
10
13.3823738583869
20
6.86985732018761
30
0
41
1
10
13.3665853820652
20
6.87295339655108
30
0
41
1
10
13.3505673706956
20
6.87478749349813
30
0
41
1
10
13.3424803276768
20
6.87505530384416
30
0
41
1
10
13.3187583476907
20
6.8739651093091
30
0
41
1
10
13.3033689202494
20
6.87076883011875
30
0
41
1
10
13.2883605406376
20
6.86537075857706
30
0
0
SPLINE
5
12D
100
AcDbEntity
8
1
62
256
6
ByLayer
370
18
48
1
60
0
100
AcDbSpline
70
4
71
3
72
35
73
31
40
0
40
0
40
0
40
0
40
0.125000000000094
40
0.125000000000094
40
0.250000000000187
40
0.250000000000187
40
0.37500000000028
40
0.37500000000028
40
0.437500000000292
40
0.437500000000292
40
0.500000000000305
40
0.500000000000305
40
0.625000000000329
40
0.625000000000329
40
0.687500000000319
40
0.687500000000319
40
0.718750000000294
40
0.718750000000294
40
0.750000000000269
40
0.750000000000269
40
0.812500000000188
40
0.812500000000188
40
0.843750000000158
40
0.843750000000158
40
0.875000000000128
40
0.906250000000098
40
0.906250000000098
40
0.937500000000068
40
0.937500000000068
40
1
40
1
40
1
40
1
41
1
10
12.2530538983388
20
8.64317350080248
30
0
41
1
10
12.284594247626
20
8.62496367165122
30
0
41
1
10
12.315488324459
20
8.60548128928036
30
0
41
1
10
12.3754922816198
20
8.56417139612194
30
0
41
1
10
12.4046122917359
20
8.54234802469699
30
0
41
1
10
12.4609032556248
20
8.49612435383122
30
0
41
1
10
12.4879869594994
20
8.47179407393241
30
0
41
1
10
12.5264814888097
20
8.43337634152189
30
0
41
1
10
12.538967225575
20
8.42023842442669
30
0
41
1
10
12.5631536748659
20
8.39321216698332
30
0
41
1
10
12.5748528513831
20
8.37932264752536
30
0
41
1
10
12.6083321513967
20
8.33665343228202
30
0
41
1
10
12.6286878942685
20
8.30669133952091
30
0
41
1
10
12.6541640785779
20
8.25960060677295
30
0
41
1
10
12.6618467837072
20
8.24345389028474
30
0
41
1
10
12.6716207185112
20
8.21882323323774
30
0
41
1
10
12.6745884419509
20
8.21054309568274
30
0
41
1
10
12.6798642025424
20
8.19382656710636
30
0
41
1
10
12.6821777316355
20
8.1853606926949
30
0
41
1
10
12.687903500446
20
8.16002347895511
30
0
41
1
10
12.6901427658445
20
8.14316173379737
30
0
41
1
10
12.6905155688595
20
8.11794990923727
30
0
41
1
10
12.69012861157
20
8.10949830494218
30
0
41
1
10
12.688244131242
20
8.09301610260542
30
0
41
1
10
12.685267953281
20
8.07693931510829
30
0
41
1
10
12.6800231386798
20
8.06171364601821
30
0
41
1
10
12.6735800735772
20
8.04694107125798
30
0
41
1
10
12.6697810965185
20
8.03985664974439
30
0
41
1
10
12.6570079740366
20
8.0199566398706
30
0
41
1
10
12.6465778941976
20
8.0082713470903
30
0
41
1
10
12.6344348818033
20
7.99800322405088
30
0
0
SPLINE
5
12E
100
AcDbEntity
8
1
62
256
6
ByLayer
370
18
48
1
60
0
100
AcDbSpline
70
4
71
3
72
8
73
4
40
0
40
0
40
0
40
0
40
1
40
1
40
1
40
1
41
1
10
12.6344348818033
20
7.99800322405088
30
0
41
1
10
12.6307056809269
20
7.99245855649673
30
0
41
1
10
12.6269763450277
20
7.98691368818731
30
0
41
1
10
12.6232468709163
20
7.98136861438064
30
0
0
SPLINE
5
12F
100
AcDbEntity
8
1
62
256
6
ByLayer
370
18
48
1
60
0
100
AcDbSpline
70
4
71
3
72
39
73
35
40
0
40
0
40
0
40
0
40
0.124999999999932
40
0.124999999999932
40
0.249999999999864
40
0.249999999999864
40
0.374999999999795
40
0.374999999999795
40
0.437499999999762
40
0.437499999999762
40
0.499999999999729
40
0.499999999999729
40
0.562499999999696
40
0.562499999999696
40
0.624999999999663
40
0.624999999999663
40
0.68749999999963
40
0.68749999999963
40
0.718749999999639
40
0.718749999999639
40
0.749999999999648
40
0.749999999999648
40
0.81249999999974
40
0.81249999999974
40
0.843749999999784
40
0.843749999999784
40
0.874999999999827
40
0.874999999999827
40
0.90624999999987
40
0.90624999999987
40
0.937499999999913
40
0.968749999999957
40
0.968749999999957
40
1
40
1
40
1
40
1
41
1
10
8.04300389833881
20
6.21250000000069
30
0
41
1
10
8.04300389833881
20
6.24892487228658
30
0
41
1
10
8.04442775337876
20
6.28538509469928
30
0
41
1
10
8.05019741743743
20
6.3579852979552
30
0
41
1
10
8.05454747431727
20
6.39419641599488
30
0
41
1
10
8.06641844317605
20
6.46597461901612
30
0
41
1
10
8.07394846786977
20
6.50161874246442
30
0
41
1
10
8.08798480629196
20
6.55421248199642
30
0
41
1
10
8.0931200049381
20
6.57159147396266
30
0
41
1
10
8.10441661336017
20
6.60600419869868
30
0
41
1
10
8.11058733821281
20
6.62306075244638
30
0
41
1
10
8.12404780506247
20
6.65658485042988
30
0
41
1
10
8.13133927491219
20
6.673066933331
30
0
41
1
10
8.14725709521613
20
6.70535781174951
30
0
41
1
10
8.15584570878082
20
6.72108402379504
30
0
41
1
10
8.17440504178981
20
6.75130763675642
30
0
41
1
10
8.18438732995787
20
6.76583823488903
30
0
41
1
10
8.20068805443279
20
6.78652081568703
30
0
41
1
10
8.20634419924446
20
6.79322827372292
30
0
41
1
10
8.21817224078586
20
6.80620759716325
30
0
41
1
10
8.22433898228672
20
6.81246783306827
30
0
41
1
10
8.24337813208197
20
6.83015610277019
30
0
41
1
10
8.25687743440017
20
6.8406183517223
30
0
41
1
10
8.27867129475342
20
6.85371744606815
30
0
41
1
10
8.28616321822633
20
6.85761868685813
30
0
41
1
10
8.30131899588062
20
6.86425647600549
30
0
41
1
10
8.30902426399314
20
6.86701927561205
30
0
41
1
10
8.32470252506144
20
6.87135809607909
30
0
41
1
10
8.33274077868614
20
6.87293951792702
30
0
41
1
10
8.34875419291458
20
6.87478210350739
30
0
41
1
10
8.36464762490442
20
6.87532304564189
30
0
41
1
10
8.38030776014278
20
6.87338363920642
30
0
41
1
10
8.39585370867385
20
6.8702418928444
30
0
41
1
10
8.40354544584932
20
6.86806893847049
30
0
41
1
10
8.41104725604004
20
6.86537075857706
30
0
0
SPLINE
5
130
100
AcDbEntity
8
1
62
256
6
ByLayer
370
18
48
1
60
0
100
AcDbSpline
70
4
71
3
72
8
73
4
40
0
40
0
40
0
40
0
40
1
40
1
40
1
40
1
41
1
10
9.07616092576131
20
7.98136861438064
30
0
41
1
10
9.07243145164989
20
7.98691368818731
30
0
41
1
10
9.06870211575068
20
7.99245855649673
30
0
41
1
10
9.06497291487426
20
7.99800322405088
30
0
0
SPLINE
5
131
100
AcDbEntity
8
1
62
256
6
ByLayer
370
18
48
1
60
0
100
AcDbSpline
70
4
71
3
72
35
73
31
40
0
40
0
40
0
40
0
40
0.125000000000008
40
0.125000000000008
40
0.250000000000015
40
0.250000000000015
40
0.375000000000023
40
0.375000000000023
40
0.500000000000031
40
0.500000000000031
40
0.56250000000001
40
0.56250000000001
40
0.62499999999999
40
0.62499999999999
40
0.687499999999969
40
0.687499999999969
40
0.718749999999961
40
0.718749999999961
40
0.749999999999954
40
0.749999999999954
40
0.812499999999956
40
0.812499999999956
40
0.843749999999963
40
0.843749999999963
40
0.87499999999997
40
0.906249999999977
40
0.906249999999977
40
0.937499999999984
40
0.937499999999984
40
1
40
1
40
1
40
1
41
1
10
9.4463538983388
20
8.64317350080245
30
0
41
1
10
9.41481425765693
20
8.62496408076461
30
0
41
1
10
9.38395759806144
20
8.60550689168693
30
0
41
1
10
9.32390979736078
20
8.56416810484615
30
0
41
1
10
9.29479211520336
20
8.54234419145212
30
0
41
1
10
9.23855003284544
20
8.49616275865114
30
0
41
1
10
9.21141540017749
20
8.47179398606394
30
0
41
1
10
9.15994937319428
20
8.42041994198388
30
0
41
1
10
9.13559483743737
20
8.39340729895514
30
0
41
1
10
9.10211857077715
20
8.35072035386773
30
0
41
1
10
9.0914888877102
20
8.336149815532
30
0
41
1
10
9.0714916675627
20
8.30620204398133
30
0
41
1
10
9.06215218501524
20
8.29085899541511
30
0
41
1
10
9.04526124486381
20
8.25962857749397
30
0
41
1
10
9.03767796400973
20
8.24370195120818
30
0
41
1
10
9.02794083031176
20
8.21923326821843
30
0
41
1
10
9.02496977398587
20
8.21098002412572
30
0
41
1
10
9.01966552317197
20
8.1942505972996
30
0
41
1
10
9.01733396618346
20
8.18576441519778
30
0
41
1
10
9.0115647030253
20
8.16039905828916
30
0
41
1
10
9.00928409437458
20
8.14347009944169
30
0
41
1
10
9.00888679179519
20
8.11806495635042
30
0
41
1
10
9.0092732806884
20
8.10961074162125
30
0
41
1
10
9.01113535252074
20
8.09320404363729
30
0
41
1
10
9.01408077966917
20
8.07717786471059
30
0
41
1
10
9.01929373704721
20
8.0619566049472
30
0
41
1
10
9.02571436818283
20
8.04716755170952
30
0
41
1
10
9.02952595912924
20
8.04003006184067
30
0
41
1
10
9.0423310852847
20
8.02003132181218
30
0
41
1
10
9.0527938579819
20
8.00830182629346
30
0
41
1
10
9.06497291487426
20
7.99800322405088
30
0
0
SPLINE
5
132
100
AcDbEntity
8
1
62
256
6
ByLayer
370
18
48
1
60
0
100
AcDbSpline
70
4
71
3
72
8
73
4
40
0
40
0
40
0
40
0
40
1
40
1
40
1
40
1
41
1
10
8.43104725604002
20
6.86399896176619
30
0
41
1
10
8.42438034420186
20
6.86445624418607
30
0
41
1
10
8.41771367943568
20
6.86491350965935
30
0
41
1
10
8.41104725604004
20
6.86537075857706
30
0
0
SPLINE
5
133
100
AcDbEntity
8
1
62
256
6
ByLayer
370
18
48
1
60
0
100
AcDbSpline
70
4
71
3
72
50
73
46
40
0
40
0
40
0
40
0
40
0.031249999999974
40
0.031249999999974
40
0.0468749999999679
40
0.0468749999999679
40
0.0624999999999617
40
0.0624999999999617
40
0.124999999999979
40
0.124999999999979
40
0.156249999999982
40
0.156249999999982
40
0.187499999999986
40
0.187499999999986
40
0.249999999999986
40
0.249999999999986
40
0.28124999999999
40
0.28124999999999
40
0.312499999999994
40
0.312499999999994
40
0.374999999999993
40
0.374999999999993
40
0.499999999999989
40
0.499999999999989
40
0.562499999999973
40
0.562499999999973
40
0.624999999999957
40
0.624999999999957
40
0.687499999999941
40
0.687499999999941
40
0.749999999999925
40
0.749999999999925
40
0.812499999999909
40
0.812499999999909
40
0.843749999999924
40
0.843749999999924
40
0.874999999999939
40
0.874999999999939
40
0.906249999999955
40
0.906249999999955
40
0.93749999999997
40
0.93749999999997
40
0.968749999999985
40
0.968749999999985
40
1
40
1
40
1
40
1
41
1
10
9.07616092576131
20
7.98136861438061
30
0
41
1
10
9.0838590704127
20
7.96992282363607
30
0
41
1
10
9.09026250815049
20
7.95775405452272
30
0
41
1
10
9.09835019648671
20
7.93864568520632
30
0
41
1
10
9.1007905382798
20
7.93213218716167
30
0
41
1
10
9.1052067391368
20
7.91884154822188
30
0
41
1
10
9.10718667730606
20
7.91204493715713
30
0
41
1
10
9.11593140940778
20
7.87780640596719
30
0
41
1
10
9.11940092594836
20
7.84947052693116
30
0
41
1
10
9.12100365485423
20
7.80592734754944
30
0
41
1
10
9.120915617636
20
7.79118949864215
30
0
41
1
10
9.11966925187485
20
7.76177099963715
30
0
41
1
10
9.11851517516567
20
7.74705451242568
30
0
41
1
10
9.11367307512677
20
7.70287223400916
30
0
41
1
10
9.10861824771374
20
7.67337341384231
30
0
41
1
10
9.09876922821991
20
7.62902167291534
30
0
41
1
10
9.09509537706452
20
7.6141879612899
30
0
41
1
10
9.0870686527775
20
7.58463480876671
30
0
41
1
10
9.08273033670383
20
7.56996210736079
30
0
41
1
10
9.0688204760288
20
7.52622586506536
30
0
41
1
10
9.05835951186904
20
7.49744221932272
30
0
41
1
10
9.02378577288263
20
7.41207002010455
30
0
41
1
10
8.99653717214036
20
7.35644031339177
30
0
41
1
10
8.94952204281208
20
7.27483070867135
30
0
41
1
10
8.93297004085946
20
7.24821612064989
30
0
41
1
10
8.89811039910668
20
7.19622686486204
30
0
41
1
10
8.87979831408063
20
7.17085308614514
30
0
41
1
10
8.84159070751753
20
7.12179280602064
30
0
41
1
10
8.82161781092242
20
7.09800756761408
30
0
41
1
10
8.78014839698309
20
7.05253009279895
30
0
41
1
10
8.75861704411423
20
7.03078734689404
30
0
41
1
10
8.71382993629965
20
6.98973127901039
30
0
41
1
10
8.69072458361487
20
6.97054371366664
30
0
41
1
10
8.65471858390958
20
6.94417453181035
30
0
41
1
10
8.64246851044771
20
6.93577740056821
30
0
41
1
10
8.61760614512477
20
6.920018280747
30
0
41
1
10
8.60498311720153
20
6.91264537857231
30
0
41
1
10
8.57927842316755
20
6.8990722969283
30
0
41
1
10
8.56621949459253
20
6.89288670539656
30
0
41
1
10
8.53979712906795
20
6.88201988985824
30
0
41
1
10
8.52636876536675
20
6.87731156772017
30
0
41
1
10
8.4992425021816
20
6.86975748061428
30
0
41
1
10
8.48565613511411
20
6.86693710516766
30
0
41
1
10
8.45841254354789
20
6.86359092752443
30
0
41
1
10
8.44475550354193
20
6.86305871525593
30
0
41
1
10
8.43104725604002
20
6.86399896176619
30
0
0
LINE
5
7F
100
AcDbEntity
8
80
62
256
6
ByLayer
370
18
48
1
60
0
100
AcDbLine
10
0
20
0
30
0
11
-5
21
0
31
0
39
0
210
0
220
0
230
1
0
LINE
5
80
100
AcDbEntity
8
81
62
256
6
ByLayer
370
18
48
1
60
0
100
AcDbLine
10
23
20
32.5625
30
0
11
23
21
37.5625
31
0
39
0
210
0
220
0
230
1
0
LINE
5
81
100
AcDbEntity
8
1
62
256
6
ByLayer
370
18
48
1
60
0
100
AcDbLine
10
0
20
-5.327974
30
0
11
0
21
-5.53813
31
0
39
0
210
0
220
0
230
1
0
LINE
5
82
100
AcDbEntity
8
1
62
256
6
ByLayer
370
18
48
1
60
0
100
AcDbLine
10
0
20
-8.671056
30
0
11
0
21
-5.53813
31
0
39
0
210
0
220
0
230
1
0
LINE
5
83
100
AcDbEntity
8
1
62
256
6
ByLayer
370
18
48
1
60
0
100
AcDbLine
10
0
20
-11.356266
30
0
11
0
21
-8.671065
31
0
39
0
210
0
220
0
230
1
0
LINE
5
84
100
AcDbEntity
8
1
62
256
6
ByLayer
370
18
48
1
60
0
100
AcDbLine
10
0
20
-5.328111
30
0
11
0
21
12.9625
31
0
39
0
210
0
220
0
230
1
0
LINE
5
85
100
AcDbEntity
8
1
62
256
6
ByLayer
370
18
48
1
60
0
100
AcDbLine
10
0
20
-11.356266
30
0
11
0
21
-12.440783
31
0
39
0
210
0
220
0
230
1
0
LINE
5
86
100
AcDbEntity
8
1
62
256
6
ByLayer
370
18
48
1
60
0
100
AcDbLine
10
0
20
-12.440783
30
0
11
22.681161
21
-12.440783
31
0
39
0
210
0
220
0
230
1
0
LINE
5
87
100
AcDbEntity
8
1
62
256
6
ByLayer
370
18
48
1
60
0
100
AcDbLine
10
23.00971
20
22.89881
30
0
11
22.766112
21
22.898376
31
0
39
0
210
0
220
0
230
1
0
LINE
5
88
100
AcDbEntity
8
1
62
256
6
ByLayer
370
18
48
1
60
0
100
AcDbLine
10
23.00236
20
31.5625
30
0
11
22.969719
21
31.5625
31
0
39
0
210
0
220
0
230
1
0
LINE
5
89
100
AcDbEntity
8
1
62
256
6
ByLayer
370
18
48
1
60
0
100
AcDbLine
10
23.00236
20
25.368433
30
0
11
22.64709
21
25.3678
31
0
39
0
210
0
220
0
230
1
0
LINE
5
8A
100
AcDbEntity
8
1
62
256
6
ByLayer
370
18
48
1
60
0
100
AcDbLine
10
22.615851
20
24.069426
30
0
11
22.707973
21
24.048652
31
0
39
0
210
0
220
0
230
1
0
LINE
5
8B
100
AcDbEntity
8
1
62
256
6
ByLayer
370
18
48
1
60
0
100
AcDbLine
10
34.17511
20
23.038859
30
0
11
34.17511
21
-12.329765
31
0
39
0
210
0
220
0
230
1
0
LINE
5
8C
100
AcDbEntity
8
1
62
256
6
ByLayer
370
18
48
1
60
0
100
AcDbLine
10
23.00236
20
31.5625
30
0
11
25.402088
21
31.5625
31
0
39
0
210
0
220
0
230
1
0
LINE
5
8D
100
AcDbEntity
8
1
62
256
6
ByLayer
370
18
48
1
60
0
100
AcDbLine
10
23.00236
20
31.5625
30
0
11
23.00236
21
25.368433
31
0
39
0
210
0
220
0
230
1
0
LINE
5
8E
100
AcDbEntity
8
1
62
256
6
ByLayer
370
18
48
1
60
0
100
AcDbLine
10
23.00971
20
22.89881
30
0
11
23.00971
21
20.09986
31
0
39
0
210
0
220
0
230
1
0
LINE
5
8F
100
AcDbEntity
8
1
62
256
6
ByLayer
370
13
48
1
60
0
100
AcDbLine
10
19.364709
20
14.5625
30
0
11
20.577763
21
14.5625
31
0
39
0
210
0
220
0
230
1
0
LINE
5
90
100
AcDbEntity
8
1
62
256
6
ByLayer
370
18
48
1
60
0
100
AcDbLine
10
18.325787
20
12.9625
30
0
11
1.734182
21
12.9625
31
0
39
0
210
0
220
0
230
1
0
LINE
5
91
100
AcDbEntity
8
1
62
256
6
ByLayer
370
18
48
1
60
0
100
AcDbLine
10
23.694496
20
-9.00063
30
0
11
23.694496
21
12.351518
31
0
39
0
210
0
220
0
230
1
0
LINE
5
92
100
AcDbEntity
8
1
62
256
6
ByLayer
370
18
48
1
60
0
100
AcDbLine
10
19.593121
20
21.0625
30
0
11
22.91945
21
21.0625
31
0
39
0
210
0
220
0
230
1
0
LINE
5
93
100
AcDbEntity
8
1
62
256
6
ByLayer
370
18
48
1
60
0
100
AcDbLine
10
23.694496
20
12.351518
30
0
11
19.32511
21
12.351518
31
0
39
0
210
0
220
0
230
1
0
LINE
5
94
100
AcDbEntity
8
1
62
256
6
ByLayer
370
18
48
1
60
0
100
AcDbLine
10
23.694496
20
15.207657
30
0
11
23.694496
21
12.351518
31
0
39
0
210
0
220
0
230
1
0
LINE
5
95
100
AcDbEntity
8
1
62
256
6
ByLayer
370
18
48
1
60
0
100
AcDbLine
10
18.325787
20
12.9625
30
0
11
19.252178
21
12.9625
31
0
39
0
210
0
220
0
230
1
0
LINE
5
96
100
AcDbEntity
8
1
62
256
6
ByLayer
370
13
48
1
60
0
100
AcDbLine
10
19.32511
20
12.964046
30
0
11
19.32511
21
12.351518
31
0
39
0
210
0
220
0
230
1
0
LINE
5
97
100
AcDbEntity
8
1
62
256
6
ByLayer
370
18
48
1
60
0
100
AcDbLine
10
1.734182
20
12.9625
30
0
11
0
21
12.9625
31
0
39
0
210
0
220
0
230
1
0
LINE
5
98
100
AcDbEntity
8
1
62
256
6
ByLayer
370
18
48
1
60
0
100
AcDbLine
10
1.734182
20
12.9625
30
0
11
1.734182
21
-9.00063
31
0
39
0
210
0
220
0
230
1
0
LINE
5
99
100
AcDbEntity
8
1
62
256
6
ByLayer
370
18
48
1
60
0
100
AcDbLine
10
1.734182
20
-9.00063
30
0
11
23.694496
21
-9.00063
31
0
39
0
210
0
220
0
230
1
0
LINE
5
9A
100
AcDbEntity
8
1
62
256
6
ByLayer
370
18
48
1
60
0
100
AcDbLine
10
1.734182
20
-9.00063
30
0
11
0
21
-11.356266
31
0
39
0
210
0
220
0
230
1
0
LINE
5
9B
100
AcDbEntity
8
1
62
256
6
ByLayer
370
18
48
1
60
0
100
AcDbLine
10
23.694496
20
-9.00063
30
0
11
23.694496
21
-9.728571
31
0
39
0
210
0
220
0
230
1
0
LINE
5
9C
100
AcDbEntity
8
SK1
62
256
6
ByLayer
370
18
48
1
60
0
100
AcDbLine
10
-127
20
-12.4375
30
0
11
-3.301981
21
-12.4375
31
0
39
0
210
0
220
0
230
1
0
LINE
5
9E
100
AcDbEntity
8
SK1
62
256
6
ByLayer
370
18
48
1
60
0
100
AcDbLine
10
-127
20
12.4375
30
0
11
-3.301981
21
12.4375
31
0
39
0
210
0
220
0
230
1
0
LINE
5
9F
100
AcDbEntity
8
SK1
62
256
6
ByLayer
370
18
48
1
60
0
100
AcDbLine
10
-127
20
-12.4375
30
0
11
-127
21
12.4375
31
0
39
0
210
0
220
0
230
1
0
LINE
5
A0
100
AcDbEntity
8
SK1
62
256
6
ByLayer
370
18
48
1
60
0
100
AcDbLine
10
-3.301981
20
12.4375
30
0
11
-1.532217
21
12.4375
31
0
39
0
210
0
220
0
230
1
0
LINE
5
A1
100
AcDbEntity
8
SK1
62
256
6
ByLayer
370
13
48
1
60
0
100
AcDbLine
10
-3.301981
20
-12.4375
30
0
11
-3.301981
21
12.4375
31
0
39
0
210
0
220
0
230
1
0
LINE
5
A2
100
AcDbEntity
8
SK1
62
256
6
ByLayer
370
18
48
1
60
0
100
AcDbLine
10
0
20
-5.327974
30
0
11
0
21
-5.53813
31
0
39
0
210
0
220
0
230
1
0
LINE
5
A3
100
AcDbEntity
8
SK1
62
256
6
ByLayer
370
18
48
1
60
0
100
AcDbLine
10
-1.532217
20
12.4375
30
0
11
-1.227723
21
12.4375
31
0
39
0
210
0
220
0
230
1
0
LINE
5
A4
100
AcDbEntity
8
SK1
62
256
6
ByLayer
370
13
48
1
60
0
100
AcDbLine
10
-0.404203
20
-2.501239
30
0
11
-0.404203
21
-5.793839
31
0
39
0
210
0
220
0
230
1
0
LINE
5
A5
100
AcDbEntity
8
SK1
62
256
6
ByLayer
370
18
48
1
60
0
100
AcDbLine
10
-0.404203
20
-2.501239
30
0
11
-0.313705
21
-5.533551
31
0
39
0
210
0
220
0
230
1
0
LINE
5
A6
100
AcDbEntity
8
SK1
62
256
6
ByLayer
370
18
48
1
60
0
100
AcDbLine
10
0
20
-11.356266
30
0
11
0
21
-12.440783
31
0
39
0
210
0
220
0
230
1
0
LINE
5
A7
100
AcDbEntity
8
SK1
62
256
6
ByLayer
370
18
48
1
60
0
100
AcDbLine
10
-1.31499
20
-12.440783
30
0
11
0
21
-12.440783
31
0
39
0
210
0
220
0
230
1
0
LINE
5
A8
100
AcDbEntity
8
SK1
62
256
6
ByLayer
370
18
48
1
60
0
100
AcDbLine
10
0
20
-8.671056
30
0
11
0
21
-5.53813
31
0
39
0
210
0
220
0
230
1
0
LINE
5
A9
100
AcDbEntity
8
SK1
62
256
6
ByLayer
370
18
48
1
60
0
100
AcDbLine
10
0
20
-11.356266
30
0
11
-0.404203
21
-11.905318
31
0
39
0
210
0
220
0
230
1
0
LINE
5
AA
100
AcDbEntity
8
SK1
62
256
6
ByLayer
370
18
48
1
60
0
100
AcDbLine
10
0
20
-11.356266
30
0
11
0
21
-8.671065
31
0
39
0
210
0
220
0
230
1
0
LINE
5
AB
100
AcDbEntity
8
SK1
62
256
6
ByLayer
370
13
48
1
60
0
100
AcDbLine
10
-0.404203
20
-8.205337
30
0
11
-0.404203
21
-11.905318
31
0
39
0
210
0
220
0
230
1
0
LINE
5
AC
100
AcDbEntity
8
SK1
62
256
6
ByLayer
370
18
48
1
60
0
100
AcDbLine
10
0
20
-5.328111
30
0
11
0
21
12.9625
31
0
39
0
210
0
220
0
230
1
0
LINE
5
AD
100
AcDbEntity
8
SK1
62
256
6
ByLayer
370
18
48
1
60
0
100
AcDbLine
10
0
20
12.9625
30
0
11
-0.04266
21
12.9625
31
0
39
0
210
0
220
0
230
1
0
LINE
5
AE
100
AcDbEntity
8
SK1
62
256
6
ByLayer
370
13
48
1
60
0
100
AcDbLine
10
-0.404203
20
12.665707
30
0
11
-0.404203
21
6.472946
31
0
39
0
210
0
220
0
230
1
0
LINE
5
AF
100
AcDbEntity
8
SK1
62
256
6
ByLayer
370
18
48
1
60
0
100
AcDbLine
10
-0.052744
20
-5.303365
30
0
11
-0.404203
21
6.472946
31
0
39
0
210
0
220
0
230
1
0
LINE
5
B0
100
AcDbEntity
8
1
62
256
6
ByLayer
370
18
48
1
60
0
100
AcDbLine
10
19.400197
20
26.1925
30
0
11
19.400197
21
28.14899
31
0
39
0
210
0
220
0
230
1
0
LINE
5
B1
100
AcDbEntity
8
1
62
256
6
ByLayer
370
18
48
1
60
0
100
AcDbLine
10
22.838749
20
28.5625
30
0
11
22.600022
21
28.14899
31
0
39
0
210
0
220
0
230
1
0
LINE
5
B2
100
AcDbEntity
8
1
62
256
6
ByLayer
370
18
48
1
60
0
100
AcDbLine
10
22.999714
20
32.249414
30
0
11
22.838749
21
28.5625
31
0
39
0
210
0
220
0
230
1
0
LINE
5
B3
100
AcDbEntity
8
1
62
256
6
ByLayer
370
18
48
1
60
0
100
AcDbLine
10
22.700016
20
32.5625
30
0
11
19.300203
21
32.5625
31
0
39
0
210
0
220
0
230
1
0
LINE
5
B4
100
AcDbEntity
8
1
62
256
6
ByLayer
370
18
48
1
60
0
100
AcDbLine
10
19.000505
20
32.249414
30
0
11
19.16147
21
28.5625
31
0
39
0
210
0
220
0
230
1
0
LINE
5
B5
100
AcDbEntity
8
1
62
256
6
ByLayer
370
18
48
1
60
0
100
AcDbLine
10
19.16147
20
28.5625
30
0
11
19.400197
21
28.14899
31
0
39
0
210
0
220
0
230
1
0
LINE
5
B6
100
AcDbEntity
8
1
62
256
6
ByLayer
370
13
48
1
60
0
100
AcDbLine
10
20.972863
20
24.562585
30
0
11
20.972863
21
25.500361
31
0
39
0
210
0
220
0
230
1
0
LINE
5
B7
100
AcDbEntity
8
1
62
256
6
ByLayer
370
13
48
1
60
0
100
AcDbLine
10
21.012861
20
24.562245
30
0
11
21.012861
21
25.500361
31
0
39
0
210
0
220
0
230
1
0
LINE
5
B8
100
AcDbEntity
8
1
62
256
6
ByLayer
370
13
48
1
60
0
100
AcDbLine
10
20.782044
20
24.563945
30
0
11
20.782044
21
25.491446
31
0
39
0
210
0
220
0
230
1
0
LINE
5
B9
100
AcDbEntity
8
1
62
256
6
ByLayer
370
13
48
1
60
0
100
AcDbLine
10
21.203492
20
24.560891
30
0
11
21.203492
21
25.491446
31
0
39
0
210
0
220
0
230
1
0
LINE
5
BA
100
AcDbEntity
8
1
62
256
6
ByLayer
370
13
48
1
60
0
100
AcDbLine
10
20.563174
20
24.463577
30
0
11
20.563174
21
25.311445
31
0
39
0
210
0
220
0
230
1
0
LINE
5
BB
100
AcDbEntity
8
1
62
256
6
ByLayer
370
13
48
1
60
0
100
AcDbLine
10
21.418593
20
24.444057
30
0
11
21.418593
21
25.311445
31
0
39
0
210
0
220
0
230
1
0
LINE
5
BC
100
AcDbEntity
8
1
62
256
6
ByLayer
370
13
48
1
60
0
100
AcDbLine
10
20.506161
20
25.152619
30
0
11
20.506161
21
24.333587
31
0
39
0
210
0
220
0
230
1
0
LINE
5
BD
100
AcDbEntity
8
1
62
256
6
ByLayer
370
13
48
1
60
0
100
AcDbLine
10
21.472279
20
25.152619
30
0
11
21.472279
21
24.314896
31
0
39
0
210
0
220
0
230
1
0
LINE
5
BE
100
AcDbEntity
8
1
62
256
6
ByLayer
370
13
48
1
60
0
100
AcDbLine
10
20.474936
20
24.287372
30
0
11
20.474936
21
25.112023
31
0
39
0
210
0
220
0
230
1
0
LINE
5
BF
100
AcDbEntity
8
1
62
256
6
ByLayer
370
13
48
1
60
0
100
AcDbLine
10
21.502655
20
24.277352
30
0
11
21.502655
21
25.112023
31
0
39
0
210
0
220
0
230
1
0
LINE
5
C0
100
AcDbEntity
8
1
62
256
6
ByLayer
370
13
48
1
60
0
100
AcDbLine
10
20.382411
20
24.273471
30
0
11
20.382411
21
25.040191
31
0
39
0
210
0
220
0
230
1
0
LINE
5
C1
100
AcDbEntity
8
1
62
256
6
ByLayer
370
13
48
1
60
0
100
AcDbLine
10
21.593675
20
24.260249
30
0
11
21.593675
21
25.040191
31
0
39
0
210
0
220
0
230
1
0
LINE
5
C2
100
AcDbEntity
8
1
62
256
6
ByLayer
370
13
48
1
60
0
100
AcDbLine
10
20.337938
20
24.266694
30
0
11
20.337938
21
25.020459
31
0
39
0
210
0
220
0
230
1
0
LINE
5
C3
100
AcDbEntity
8
1
62
256
6
ByLayer
370
18
48
1
60
0
100
AcDbLine
10
19.386631
20
24.113826
30
0
11
19.386631
21
24.897018
31
0
39
0
210
0
220
0
230
1
0
LINE
5
C4
100
AcDbEntity
8
1
62
256
6
ByLayer
370
13
48
1
60
0
100
AcDbLine
10
19.627869
20
24.15356
30
0
11
19.627869
21
24.897018
31
0
39
0
210
0
220
0
230
1
0
LINE
5
C5
100
AcDbEntity
8
1
62
256
6
ByLayer
370
13
48
1
60
0
100
AcDbLine
10
19.645249
20
24.156508
30
0
11
19.645249
21
24.898537
31
0
39
0
210
0
220
0
230
1
0
LINE
5
C6
100
AcDbEntity
8
1
62
256
6
ByLayer
370
13
48
1
60
0
100
AcDbLine
10
21.637734
20
24.251975
30
0
11
21.637734
21
25.020459
31
0
39
0
210
0
220
0
230
1
0
LINE
5
C7
100
AcDbEntity
8
1
62
256
6
ByLayer
370
13
48
1
60
0
100
AcDbLine
10
22.32787
20
24.123109
30
0
11
22.32787
21
24.898537
31
0
39
0
210
0
220
0
230
1
0
LINE
5
C8
100
AcDbEntity
8
1
62
256
6
ByLayer
370
13
48
1
60
0
100
AcDbLine
10
22.345218
20
24.119869
30
0
11
22.345218
21
24.897018
31
0
39
0
210
0
220
0
230
1
0
LINE
5
C9
100
AcDbEntity
8
1
62
256
6
ByLayer
370
18
48
1
60
0
100
AcDbLine
10
22.586456
20
24.074848
30
0
11
22.586456
21
24.897018
31
0
39
0
210
0
220
0
230
1
0
LINE
5
CA
100
AcDbEntity
8
1
62
256
6
ByLayer
370
18
48
1
60
0
100
AcDbLine
10
22.647098
20
28.230472
30
0
11
22.647098
21
24.062038
31
0
39
0
210
0
220
0
230
1
0
LINE
5
CB
100
AcDbEntity
8
1
62
256
6
ByLayer
370
18
48
1
60
0
100
AcDbLine
10
22.600022
20
26.1925
30
0
11
22.600022
21
28.14899
31
0
39
0
210
0
220
0
230
1
0
LINE
5
CC
100
AcDbEntity
8
1
62
256
6
ByLayer
370
18
48
1
60
0
100
AcDbLine
10
19.400197
20
26.1925
30
0
11
19.386631
21
24.897018
31
0
39
0
210
0
220
0
230
1
0
LINE
5
CD
100
AcDbEntity
8
1
62
256
6
ByLayer
370
18
48
1
60
0
100
AcDbLine
10
19.386631
20
24.897018
30
0
11
19.627869
21
24.897018
31
0
39
0
210
0
220
0
230
1
0
LINE
5
CE
100
AcDbEntity
8
1
62
256
6
ByLayer
370
18
48
1
60
0
100
AcDbLine
10
19.645249
20
24.898537
30
0
11
20.337938
21
25.020459
31
0
39
0
210
0
220
0
230
1
0
LINE
5
CF
100
AcDbEntity
8
1
62
256
6
ByLayer
370
18
48
1
60
0
100
AcDbLine
10
20.382411
20
25.040191
30
0
11
20.474936
21
25.112023
31
0
39
0
210
0
220
0
230
1
0
LINE
5
D0
100
AcDbEntity
8
1
62
256
6
ByLayer
370
18
48
1
60
0
100
AcDbLine
10
21.012861
20
25.500361
30
0
11
20.972863
21
25.500361
31
0
39
0
210
0
220
0
230
1
0
LINE
5
D1
100
AcDbEntity
8
1
62
256
6
ByLayer
370
18
48
1
60
0
100
AcDbLine
10
21.593675
20
25.040191
30
0
11
21.502655
21
25.112023
31
0
39
0
210
0
220
0
230
1
0
LINE
5
D2
100
AcDbEntity
8
1
62
256
6
ByLayer
370
18
48
1
60
0
100
AcDbLine
10
22.32787
20
24.898537
30
0
11
21.637734
21
25.020459
31
0
39
0
210
0
220
0
230
1
0
LINE
5
D3
100
AcDbEntity
8
1
62
256
6
ByLayer
370
18
48
1
60
0
100
AcDbLine
10
22.586456
20
24.897018
30
0
11
22.345218
21
24.897018
31
0
39
0
210
0
220
0
230
1
0
LINE
5
D4
100
AcDbEntity
8
1
62
256
6
ByLayer
370
18
48
1
60
0
100
AcDbLine
10
22.600022
20
26.1925
30
0
11
22.586456
21
24.897018
31
0
39
0
210
0
220
0
230
1
0
LINE
5
D5
100
AcDbEntity
8
1
62
256
6
ByLayer
370
18
48
1
60
0
100
AcDbLine
10
22.600022
20
26.1925
30
0
11
19.400197
21
26.1925
31
0
39
0
210
0
220
0
230
1
0
MTEXT
5
134
100
AcDbEntity
8
SK6
62
256
6
ByLayer
370
18
48
1
60
0
100
AcDbMText
10
-81.226945
20
-41.656508
30
0
210
0
220
0
230
1
1
\W0.7698;C2A-RS25-RGH18B-052DB
40
3.5
41
0
44
1.084337
50
0
71
7
72
5
7
iso_b_vert
0
DIMENSION
5
139
100
AcDbEntity
8
2
62
256
6
ByLayer
370
18
48
1
60
0
100
AcDbDimension
2
_U0
10
57.27511
20
-12.4375
30
0
11
57.27511
21
10.0625
31
0
70
32
71
1
72
1
41
1
210
0
220
0
230
1
3
Standard
100
AcDbAlignedDimension
13
23
23
32.5625
33
0
14
-127
24
-12.4375
34
0
50
90
100
AcDbRotatedDimension
1001
ACAD
1000
DSTYLE
1002
{
1070
   371
1070
    13
1070
   372
1070
    13
1070
   170
1070
     0
1070
   144
1040
1.0
1070
   277
1070
     2
1070
   284
1070
     8
1070
   278
1070
    46
1070
   146
1040
1.0
1070
   345
1005
16
1070
   347
1005
16
1070
   346
1005
16
1070
   344
1005
0
1070
   343
1005
0
1070
   172
1070
     1
1070
    76
1070
     0
1070
    75
1070
     0
1070
   282
1070
     0
1070
   281
1070
     0
1070
    71
1070
     0
1070
    74
1070
     0
1070
   279
1070
     0
1070
   173
1070
     1
1070
   340
1005
135
1070
   271
1070
     2
1070
   272
1070
     2
1070
    77
1070
     1
1070
    73
1070
     0
1070
   171
1070
     3
1070
   274
1070
     4
1070
   177
1070
     2
1070
   176
1070
     2
1070
   178
1070
     2
1070
    78
1070
     8
1070
    48
1040
-0.1
1070
    41
1040
3.5
1070
   147
1040
1.75
1070
    42
1040
1.5875
1070
    44
1040
2.0
1070
   140
1040
3.5
1002
}
1001
ACAD_DSTYLE_DIM_LINETYPE
1070
   380
1005
16
1001
ACAD_DSTYLE_DIM_EXT1_LINETYPE
1070
   381
1005
16
1001
ACAD_DSTYLE_DIM_EXT2_LINETYPE
1070
   382
1005
16
0
DIMENSION
5
153
100
AcDbEntity
8
2
62
256
6
ByLayer
370
18
48
1
60
0
100
AcDbDimension
2
_U1
10
47.27511
20
32.5625
30
0
11
47.27511
21
23.5625
31
0
70
32
71
1
72
1
41
1
210
0
220
0
230
1
3
Standard
100
AcDbAlignedDimension
13
19.32511
23
14.5625
33
0
14
23
24
32.5625
34
0
50
90
100
AcDbRotatedDimension
1001
ACAD
1000
DSTYLE
1002
{
1070
   371
1070
    13
1070
   372
1070
    13
1070
   170
1070
     0
1070
   144
1040
1.0
1070
   277
1070
     2
1070
   284
1070
     8
1070
   278
1070
    46
1070
   146
1040
1.0
1070
   345
1005
16
1070
   347
1005
16
1070
   346
1005
16
1070
   344
1005
0
1070
   343
1005
0
1070
   172
1070
     1
1070
    76
1070
     0
1070
    75
1070
     0
1070
   282
1070
     0
1070
   281
1070
     0
1070
    71
1070
     0
1070
    74
1070
     0
1070
   279
1070
     0
1070
   173
1070
     1
1070
   340
1005
135
1070
   271
1070
     2
1070
   272
1070
     2
1070
    77
1070
     1
1070
    73
1070
     0
1070
   171
1070
     3
1070
   274
1070
     4
1070
   177
1070
     2
1070
   176
1070
     2
1070
   178
1070
     2
1070
    78
1070
     8
1070
    48
1040
-0.1
1070
    41
1040
3.5
1070
   147
1040
1.75
1070
    42
1040
1.5875
1070
    44
1040
2.0
1070
   140
1040
3.5
1002
}
1001
ACAD_DSTYLE_DIM_LINETYPE
1070
   380
1005
16
1001
ACAD_DSTYLE_DIM_EXT1_LINETYPE
1070
   381
1005
16
1001
ACAD_DSTYLE_DIM_EXT2_LINETYPE
1070
   382
1005
16
0
DIMENSION
5
16B
100
AcDbEntity
8
SK2
62
256
6
ByLayer
370
18
48
1
60
0
100
AcDbDimension
2
_U2
10
-138.6
20
12.5625
30
0
11
-138.6
21
0.0625
31
0
70
32
71
1
72
1
41
1
210
0
220
0
230
1
3
Standard
100
AcDbAlignedDimension
13
-127
23
-12.4375
33
0
14
-127
24
12.5625
34
0
50
90
100
AcDbRotatedDimension
1001
ACAD
1000
DSTYLE
1002
{
1070
   371
1070
    13
1070
   372
1070
    13
1070
   170
1070
     0
1070
   144
1040
1.0
1070
   277
1070
     2
1070
   284
1070
     8
1070
   278
1070
    46
1070
   146
1040
1.0
1070
   345
1005
16
1070
   347
1005
16
1070
   346
1005
16
1070
   344
1005
0
1070
   343
1005
0
1070
   172
1070
     1
1070
    76
1070
     0
1070
    75
1070
     0
1070
   282
1070
     0
1070
   281
1070
     0
1070
    71
1070
     0
1070
    74
1070
     0
1070
   279
1070
     0
1070
   173
1070
     1
1070
   340
1005
135
1070
   271
1070
     2
1070
   272
1070
     2
1070
    77
1070
     1
1070
    73
1070
     0
1070
   171
1070
     3
1070
   274
1070
     4
1070
   177
1070
     2
1070
   176
1070
     2
1070
   178
1070
     2
1070
    78
1070
     8
1070
    48
1040
-0.1
1070
    41
1040
3.5
1070
   147
1040
1.75
1070
    42
1040
1.5875
1070
    44
1040
2.0
1070
   140
1040
3.5
1002
}
1001
ACAD_DSTYLE_DIM_LINETYPE
1070
   380
1005
16
1001
ACAD_DSTYLE_DIM_EXT1_LINETYPE
1070
   381
1005
16
1001
ACAD_DSTYLE_DIM_EXT2_LINETYPE
1070
   382
1005
16
0
DIMENSION
5
184
100
AcDbEntity
8
2
62
256
6
ByLayer
370
18
48
1
60
0
100
AcDbDimension
2
_U3
10
23
20
40.8125
30
0
11
21
21
40.8125
31
0
70
32
71
1
72
1
41
1
210
0
220
0
230
1
3
Standard
100
AcDbAlignedDimension
13
19
23
32.5625
33
0
14
23
24
32.5625
34
0
50
0
100
AcDbRotatedDimension
1001
ACAD
1000
DSTYLE
1002
{
1070
   371
1070
    13
1070
   372
1070
    13
1070
   170
1070
     0
1070
   144
1040
1.0
1070
   277
1070
     2
1070
   284
1070
     8
1070
   278
1070
    46
1070
   146
1040
1.0
1070
   345
1005
16
1070
   347
1005
16
1070
   346
1005
16
1070
   344
1005
0
1070
   343
1005
0
1070
   172
1070
     1
1070
    76
1070
     0
1070
    75
1070
     0
1070
   282
1070
     0
1070
   281
1070
     0
1070
    71
1070
     0
1070
    74
1070
     0
1070
   279
1070
     0
1070
   173
1070
     1
1070
   340
1005
135
1070
   271
1070
     2
1070
   272
1070
     2
1070
    77
1070
     1
1070
    73
1070
     1
1070
   171
1070
     3
1070
   274
1070
     4
1070
   177
1070
     2
1070
   176
1070
     2
1070
   178
1070
     2
1070
    78
1070
     8
1070
    48
1040
-0.1
1070
    41
1040
3.5
1070
   147
1040
1.75
1070
    42
1040
1.5875
1070
    44
1040
2.0
1070
   140
1040
3.5
1002
}
1001
ACAD_DSTYLE_DIM_LINETYPE
1070
   380
1005
16
1001
ACAD_DSTYLE_DIM_EXT1_LINETYPE
1070
   381
1005
16
1001
ACAD_DSTYLE_DIM_EXT2_LINETYPE
1070
   382
1005
16
0
DIMENSION
5
19D
100
AcDbEntity
8
SK2
62
256
6
ByLayer
370
18
48
1
60
0
100
AcDbDimension
2
_U4
10
23
20
-30.1875
30
0
11
-52
21
-30.1875
31
0
70
32
71
1
72
1
41
1
210
0
220
0
230
1
3
Standard
100
AcDbAlignedDimension
13
-127
23
-12.4375
33
0
14
23
24
32.5625
34
0
50
0
100
AcDbRotatedDimension
1001
ACAD
1000
DSTYLE
1002
{
1070
   371
1070
    13
1070
   372
1070
    13
1070
   170
1070
     0
1070
   144
1040
1.0
1070
   277
1070
     2
1070
   284
1070
     8
1070
   278
1070
    46
1070
   146
1040
1.0
1070
   345
1005
16
1070
   347
1005
16
1070
   346
1005
16
1070
   344
1005
0
1070
   343
1005
0
1070
   172
1070
     1
1070
    76
1070
     0
1070
    75
1070
     0
1070
   282
1070
     0
1070
   281
1070
     0
1070
    71
1070
     0
1070
    74
1070
     0
1070
   279
1070
     0
1070
   173
1070
     1
1070
   340
1005
135
1070
   271
1070
     1
1070
   272
1070
     2
1070
    77
1070
     1
1070
    73
1070
     1
1070
   171
1070
     3
1070
   274
1070
     4
1070
   177
1070
     2
1070
   176
1070
     2
1070
   178
1070
     2
1070
    78
1070
     8
1070
    48
1040
-0.1
1070
    41
1040
3.5
1070
   147
1040
1.75
1070
    42
1040
1.5875
1070
    44
1040
2.0
1070
   140
1040
3.5
1002
}
1001
ACAD_DSTYLE_DIM_LINETYPE
1070
   380
1005
16
1001
ACAD_DSTYLE_DIM_EXT1_LINETYPE
1070
   381
1005
16
1001
ACAD_DSTYLE_DIM_EXT2_LINETYPE
1070
   382
1005
16
0
ENDSEC
0
SECTION
2
OBJECTS
0
DICTIONARY
5
224
330
0
100
AcDbDictionary
280
0
281
1
3
ACAD_GROUP
350
225
3
ACAD_MLINESTYLE
350
226
0
DICTIONARY
5
225
330
0
100
AcDbDictionary
280
0
281
1
0
DICTIONARY
5
226
330
0
100
AcDbDictionary
280
0
281
1
3
Standard
350
18
0
MLINESTYLE
5
18
330
226
100
AcDbMlineStyle
2
Standard
70
0
3

62
256
51
90
52
90
71
2
49
-0.5
62
256
6
ByLayer
49
0.5
62
256
6
ByLayer
0
RASTERVARIABLES
5
213
330

100
AcDbRasterVariables
90
0
70
1
71
1
72
1
0
ENDSEC
0
EOF
