0
SECTION
2
HEADER
9
$ACADVER
1
AC1015
9
$DWGCODEPAGE
3
ANSI_1252
9
$HANDSEED
5
230
9
$ANGBASE
50
0
9
$ANGDIR
70
0
9
$ATTMODE
70
1
9
$AUNITS
70
0
9
$AUPREC
70
0
9
$CECOLOR
62
256
9
$CELTSCALE
40
1
9
$CELTYPE
6
ByLayer
9
$CELWEIGHT
370
18
9
$CLAYER
8
0
9
$CMLJUST
70
0
9
$CMLSCALE
40
1
9
$CMLSTYLE
2
Standard
9
$DIMSTYLE
2
Standard
9
$TEXTSIZE
40
0.2
9
$TEXTSTYLE
7
Standard
9
$LUNITS
70
2
9
$LUPREC
70
4
9
$EXTNAMES
290
1
9
$INSUNITS
70
4
9
$LTSCALE
40
1
9
$LWDISPLAY
290
1
9
$PDMODE
70
0
9
$PDSIZE
40
0
9
$PLINEGEN
70
0
0
ENDSEC
0
SECTION
2
CLASSES
0
CLASS
1
RASTERVARIABLES
2
AcDbRasterVariables
3
ISM
90
0
280
0
281
0
0
ENDSEC
0
SECTION
2
TABLES
0
TABLE
2
VPORT
5
226
100
AcDbSymbolTable
0
VPORT
5
1
100
AcDbSymbolTableRecord
100
AcDbViewportTableRecord
2
*Active
70
0
10
0
20
0
11
1
21
1
12
-1
22
1
13
0
23
0
14
0.5
24
0.5
15
10
25
10
16
0
26
0
36
1
17
0
27
0
37
0
0
ENDTAB
0
TABLE
2
LTYPE
5
227
100
AcDbSymbolTable
0
LTYPE
5
14
100
AcDbSymbolTableRecord
100
AcDbLinetypeTableRecord
70
0
2
ByBlock
3

72
65
73
0
40
0
0
LTYPE
5
15
100
AcDbSymbolTableRecord
100
AcDbLinetypeTableRecord
70
0
2
ByLayer
3

72
65
73
0
40
0
0
LTYPE
5
16
100
AcDbSymbolTableRecord
100
AcDbLinetypeTableRecord
70
0
2
Continuous
3
Solid line
72
65
73
0
40
0
0
LTYPE
5
6E
100
AcDbSymbolTableRecord
100
AcDbLinetypeTableRecord
70
0
2
CENTER
3
____ _ ____ _ ____ _ ____
72
65
73
4
40
47.5
49
22
74
0
49
-8.5
74
0
49
8.5
74
0
49
-8.5
74
0
0
LTYPE
5
6F
100
AcDbSymbolTableRecord
100
AcDbLinetypeTableRecord
70
0
2
DASHED
3
__ __ __ __ __ __ __ __ __
72
65
73
2
40
25.72
49
12.86
74
0
49
-12.86
74
0
0
ENDTAB
0
TABLE
2
LAYER
5
228
100
AcDbSymbolTable
0
LAYER
5
10
100
AcDbSymbolTableRecord
100
AcDbLayerTableRecord
2
0
70
0
62
7
6
Continuous
290
1
370
-3
390
0
0
LAYER
5
71
100
AcDbSymbolTableRecord
100
AcDbLayerTableRecord
2
81
70
0
62
-3
6
Continuous
290
1
370
-3
390
0
0
LAYER
5
73
100
AcDbSymbolTableRecord
100
AcDbLayerTableRecord
2
80
70
0
62
-6
6
Continuous
290
1
370
-3
390
0
0
LAYER
5
75
100
AcDbSymbolTableRecord
100
AcDbLayerTableRecord
2
1
70
0
62
4
6
Continuous
290
1
370
-3
390
0
0
LAYER
5
13B
100
AcDbSymbolTableRecord
100
AcDbLayerTableRecord
2
Defpoints
70
0
62
7
6
Continuous
290
0
370
-3
390
0
0
LAYER
5
148
100
AcDbSymbolTableRecord
100
AcDbLayerTableRecord
2
2
70
0
62
7
6
Continuous
290
1
370
-3
390
0
0
LAYER
5
213
100
AcDbSymbolTableRecord
100
AcDbLayerTableRecord
2
SK1
70
0
62
4
6
Continuous
290
1
370
-3
390
0
0
LAYER
5
214
100
AcDbSymbolTableRecord
100
AcDbLayerTableRecord
2
SK6
70
0
62
5
6
Continuous
290
1
370
-3
390
0
0
LAYER
5
215
100
AcDbSymbolTableRecord
100
AcDbLayerTableRecord
2
SK2
70
0
62
7
6
Continuous
290
1
370
-3
390
0
0
ENDTAB
0
TABLE
2
STYLE
5
229
100
AcDbSymbolTable
0
STYLE
5
11
100
AcDbSymbolTableRecord
100
AcDbTextStyleTableRecord
2
Standard
3
txt
70
0
71
0
40
0
41
1
42
0
50
0
0
STYLE
5
134
100
AcDbSymbolTableRecord
100
AcDbTextStyleTableRecord
2
iso_b_vert
3
simplex.shx
70
0
71
0
40
0
41
1
42
0
50
0
0
STYLE
5
135
100
AcDbSymbolTableRecord
100
AcDbTextStyleTableRecord
2
DWGDirectTextStyle
3
simplex
70
0
71
0
40
0
41
1
42
0
50
0
0
ENDTAB
0
TABLE
2
DIMSTYLE
5
22a
100
AcDbSymbolTable
100
AcDbDimStyleTable
0
DIMSTYLE
105
27
100
AcDbSymbolTableRecord
100
AcDbDimStyleTableRecord
2
Standard
70
0
3
<>
41
0.18
42
0.0625
44
0.18
140
0.18
147
0.09
73
0
74
0
77
1
271
2
275
0
278
52
280
0
340
11
0
ENDTAB
0
TABLE
2
VIEW
5
22b
100
AcDbSymbolTable
0
ENDTAB
0
TABLE
2
UCS
5
22c
100
AcDbSymbolTable
0
ENDTAB
0
TABLE
2
APPID
5
22d
100
AcDbSymbolTable
0
APPID
5
12
100
AcDbSymbolTableRecord
100
AcDbRegAppTableRecord
2
ACAD
70
0
0
APPID
5
137
100
AcDbSymbolTableRecord
100
AcDbRegAppTableRecord
2
ACAD_DSTYLE_DIMBREAK
70
0
0
APPID
5
1D2
100
AcDbSymbolTableRecord
100
AcDbRegAppTableRecord
2
ACAD_DSTYLE_DIM_LINETYPE
70
0
0
APPID
5
1D3
100
AcDbSymbolTableRecord
100
AcDbRegAppTableRecord
2
ACAD_DSTYLE_DIM_EXT1_LINETYPE
70
0
0
APPID
5
1D4
100
AcDbSymbolTableRecord
100
AcDbRegAppTableRecord
2
ACAD_DSTYLE_DIM_EXT2_LINETYPE
70
0
0
APPID
5
20F
100
AcDbSymbolTableRecord
100
AcDbRegAppTableRecord
2
ACAD_MLEADERVER
70
0
0
ENDTAB
0
TABLE
2
BLOCK_RECORD
5
22e
100
AcDbSymbolTable
0
BLOCK_RECORD
5
1F
100
AcDbSymbolTableRecord
100
AcDbBlockTableRecord
2
*Model_Space
340
0
70
0
0
BLOCK_RECORD
5
1B
100
AcDbSymbolTableRecord
100
AcDbBlockTableRecord
2
*Paper_Space
340
0
70
0
0
BLOCK_RECORD
5
23
100
AcDbSymbolTableRecord
100
AcDbBlockTableRecord
2
*Paper_Space0
340
0
70
0
0
BLOCK_RECORD
5
13C
100
AcDbSymbolTableRecord
100
AcDbBlockTableRecord
2
*D1
340
0
70
0
0
BLOCK_RECORD
5
149
100
AcDbSymbolTableRecord
100
AcDbBlockTableRecord
2
_U0
340
0
70
0
0
BLOCK_RECORD
5
155
100
AcDbSymbolTableRecord
100
AcDbBlockTableRecord
2
*D3
340
0
70
0
0
BLOCK_RECORD
5
161
100
AcDbSymbolTableRecord
100
AcDbBlockTableRecord
2
_U1
340
0
70
0
0
BLOCK_RECORD
5
16D
100
AcDbSymbolTableRecord
100
AcDbBlockTableRecord
2
*D5
340
0
70
0
0
BLOCK_RECORD
5
17A
100
AcDbSymbolTableRecord
100
AcDbBlockTableRecord
2
_U2
340
0
70
0
0
BLOCK_RECORD
5
186
100
AcDbSymbolTableRecord
100
AcDbBlockTableRecord
2
*D7
340
0
70
0
0
BLOCK_RECORD
5
193
100
AcDbSymbolTableRecord
100
AcDbBlockTableRecord
2
_U3
340
0
70
0
0
BLOCK_RECORD
5
19F
100
AcDbSymbolTableRecord
100
AcDbBlockTableRecord
2
*D9
340
0
70
0
0
BLOCK_RECORD
5
1AB
100
AcDbSymbolTableRecord
100
AcDbBlockTableRecord
2
_U4
340
0
70
0
0
ENDTAB
0
ENDSEC
0
SECTION
2
BLOCKS
0
BLOCK
5
20
100
AcDbEntity
8
0
100
AcDbBlockBegin
2
*Model_Space
70
0
10
0
20
0
30
0
3
*Model_Space
0
ENDBLK
5
21
100
AcDbEntity
8
0
100
AcDbBlockEnd
0
BLOCK
5
1C
100
AcDbEntity
8
0
100
AcDbBlockBegin
2
*Paper_Space
70
0
10
0
20
0
30
0
3
*Paper_Space
0
ENDBLK
5
1D
100
AcDbEntity
8
0
100
AcDbBlockEnd
0
BLOCK
5
24
100
AcDbEntity
8
0
100
AcDbBlockBegin
2
*Paper_Space0
70
0
10
0
20
0
30
0
3
*Paper_Space0
0
ENDBLK
5
25
100
AcDbEntity
8
0
100
AcDbBlockEnd
0
BLOCK
5
13D
100
AcDbEntity
8
0
100
AcDbBlockBegin
2
*D1
70
1
10
0
20
0
30
0
3
*D1
0
LINE
5
13F
100
AcDbEntity
8
0
62
256
6
ByLayer
370
-2
48
1
60
0
100
AcDbLine
10
24.5875
20
-32.5625
30
0
11
50.613176
21
-32.5625
31
0
39
0
210
0
220
0
230
1
0
LINE
5
140
100
AcDbEntity
8
0
62
256
6
ByLayer
370
-2
48
1
60
0
100
AcDbLine
10
-125.4125
20
12.4375
30
0
11
50.613176
21
12.4375
31
0
39
0
210
0
220
0
230
1
0
LINE
5
141
100
AcDbEntity
8
0
62
256
6
ByLayer
370
-2
48
1
60
0
100
AcDbLine
10
48.613176
20
-29.0625
30
0
11
48.613176
21
8.9375
31
0
39
0
210
0
220
0
230
1
0
SOLID
5
142
100
AcDbEntity
8
0
62
256
6
ByLayer
370
-1
48
1
60
0
100
AcDbTrace
10
48.029843
20
-29.0625
30
0
11
49.19651
21
-29.0625
31
0
12
48.613176
22
-32.5625
32
0
13
48.613176
23
-32.5625
33
0
39
0
210
0
220
0
230
1
0
SOLID
5
143
100
AcDbEntity
8
0
62
256
6
ByLayer
370
-1
48
1
60
0
100
AcDbTrace
10
49.19651
20
8.9375
30
0
11
48.029843
21
8.9375
31
0
12
48.613176
22
12.4375
32
0
13
48.613176
23
12.4375
33
0
39
0
210
0
220
0
230
1
0
MTEXT
5
144
100
AcDbEntity
8
0
62
256
6
ByLayer
370
18
48
1
60
0
100
AcDbMText
10
41.613176
20
-10.0625
30
0
210
0
220
0
230
1
1
\A1;45
40
3.5
41
0
44
1
50
90
71
5
72
5
7
iso_b_vert
0
POINT
5
145
100
AcDbEntity
8
Defpoints
62
0
6
ByLayer
370
-1
48
1
60
0
100
AcDbPoint
10
23
20
-32.5625
30
0
39
0
210
0
220
0
230
1
50
360
0
POINT
5
146
100
AcDbEntity
8
Defpoints
62
0
6
ByLayer
370
-1
48
1
60
0
100
AcDbPoint
10
-127
20
12.4375
30
0
39
0
210
0
220
0
230
1
50
360
0
POINT
5
147
100
AcDbEntity
8
Defpoints
62
0
6
ByLayer
370
-1
48
1
60
0
100
AcDbPoint
10
48.613176
20
12.4375
30
0
39
0
210
0
220
0
230
1
50
360
0
ENDBLK
5
13E
100
AcDbEntity
8
0
100
AcDbBlockEnd
0
BLOCK
5
150
100
AcDbEntity
8
0
100
AcDbBlockBegin
2
_U0
70
0
10
0
20
0
30
0
3
_U0
0
MTEXT
5
14A
100
AcDbEntity
8
2
62
256
6
ByLayer
370
18
48
1
60
0
100
AcDbMText
10
47.923543
20
-12.179733
30
0
210
0
220
0
230
1
1
\W0.7361;45
40
3.5
41
0
44
1.084337
50
90
71
7
72
5
7
iso_b_vert
0
LINE
5
14B
100
AcDbEntity
8
2
62
256
6
ByLayer
370
13
48
1
60
0
100
AcDbLine
10
24.5875
20
-32.5625
30
0
11
50.613176
21
-32.5625
31
0
39
0
210
0
220
0
230
1
0
LINE
5
14C
100
AcDbEntity
8
2
62
256
6
ByLayer
370
13
48
1
60
0
100
AcDbLine
10
-125.4125
20
12.4375
30
0
11
50.613176
21
12.4375
31
0
39
0
210
0
220
0
230
1
0
LINE
5
14D
100
AcDbEntity
8
2
62
256
6
ByLayer
370
13
48
1
60
0
100
AcDbLine
10
48.613176
20
-32.5625
30
0
11
48.613176
21
12.4375
31
0
39
0
210
0
220
0
230
1
0
SOLID
5
14E
100
AcDbEntity
8
2
62
256
6
ByLayer
370
18
48
1
60
0
100
AcDbTrace
10
48.613176
20
-32.5625
30
0
11
48.152393
21
-29.062502
31
0
12
49.07396
22
-29.062498
32
0
13
49.07396
23
-29.062498
33
0
39
0
210
0
220
0
230
1
0
SOLID
5
14F
100
AcDbEntity
8
2
62
256
6
ByLayer
370
18
48
1
60
0
100
AcDbTrace
10
48.613176
20
12.4375
30
0
11
49.07396
21
8.937502
31
0
12
48.152393
22
8.937498
32
0
13
48.152393
23
8.937498
33
0
39
0
210
0
220
0
230
1
0
ENDBLK
5
151
100
AcDbEntity
8
0
100
AcDbBlockEnd
0
BLOCK
5
156
100
AcDbEntity
8
0
100
AcDbBlockBegin
2
*D3
70
1
10
0
20
0
30
0
3
*D3
0
LINE
5
158
100
AcDbEntity
8
0
62
256
6
ByLayer
370
-2
48
1
60
0
100
AcDbLine
10
20.9125
20
-14.5625
30
0
11
40.613176
21
-14.5625
31
0
39
0
210
0
220
0
230
1
0
LINE
5
159
100
AcDbEntity
8
0
62
256
6
ByLayer
370
-2
48
1
60
0
100
AcDbLine
10
24.5875
20
-32.5625
30
0
11
40.613176
21
-32.5625
31
0
39
0
210
0
220
0
230
1
0
LINE
5
15A
100
AcDbEntity
8
0
62
256
6
ByLayer
370
-2
48
1
60
0
100
AcDbLine
10
38.613176
20
-18.0625
30
0
11
38.613176
21
-29.0625
31
0
39
0
210
0
220
0
230
1
0
SOLID
5
15B
100
AcDbEntity
8
0
62
256
6
ByLayer
370
-1
48
1
60
0
100
AcDbTrace
10
39.19651
20
-18.0625
30
0
11
38.029843
21
-18.0625
31
0
12
38.613176
22
-14.5625
32
0
13
38.613176
23
-14.5625
33
0
39
0
210
0
220
0
230
1
0
SOLID
5
15C
100
AcDbEntity
8
0
62
256
6
ByLayer
370
-1
48
1
60
0
100
AcDbTrace
10
38.029843
20
-29.0625
30
0
11
39.19651
21
-29.0625
31
0
12
38.613176
22
-32.5625
32
0
13
38.613176
23
-32.5625
33
0
39
0
210
0
220
0
230
1
0
MTEXT
5
15D
100
AcDbEntity
8
0
62
256
6
ByLayer
370
18
48
1
60
0
100
AcDbMText
10
31.613176
20
-23.5625
30
0
210
0
220
0
230
1
1
\A1;18
40
3.5
41
0
44
1
50
90
71
5
72
5
7
iso_b_vert
0
POINT
5
15E
100
AcDbEntity
8
Defpoints
62
0
6
ByLayer
370
-1
48
1
60
0
100
AcDbPoint
10
19.325
20
-14.5625
30
0
39
0
210
0
220
0
230
1
50
360
0
POINT
5
15F
100
AcDbEntity
8
Defpoints
62
0
6
ByLayer
370
-1
48
1
60
0
100
AcDbPoint
10
23
20
-32.5625
30
0
39
0
210
0
220
0
230
1
50
360
0
POINT
5
160
100
AcDbEntity
8
Defpoints
62
0
6
ByLayer
370
-1
48
1
60
0
100
AcDbPoint
10
38.613176
20
-32.5625
30
0
39
0
210
0
220
0
230
1
50
360
0
ENDBLK
5
157
100
AcDbEntity
8
0
100
AcDbBlockEnd
0
BLOCK
5
168
100
AcDbEntity
8
0
100
AcDbBlockBegin
2
_U1
70
0
10
0
20
0
30
0
3
_U1
0
MTEXT
5
162
100
AcDbEntity
8
2
62
256
6
ByLayer
370
18
48
1
60
0
100
AcDbMText
10
37.923543
20
-25.058033
30
0
210
0
220
0
230
1
1
\W0.5321;18
40
3.5
41
0
44
1.084337
50
90
71
7
72
5
7
iso_b_vert
0
LINE
5
163
100
AcDbEntity
8
2
62
256
6
ByLayer
370
13
48
1
60
0
100
AcDbLine
10
20.9125
20
-14.5625
30
0
11
40.613176
21
-14.5625
31
0
39
0
210
0
220
0
230
1
0
LINE
5
164
100
AcDbEntity
8
2
62
256
6
ByLayer
370
13
48
1
60
0
100
AcDbLine
10
24.5875
20
-32.5625
30
0
11
40.613176
21
-32.5625
31
0
39
0
210
0
220
0
230
1
0
LINE
5
165
100
AcDbEntity
8
2
62
256
6
ByLayer
370
13
48
1
60
0
100
AcDbLine
10
38.613176
20
-14.5625
30
0
11
38.613176
21
-32.5625
31
0
39
0
210
0
220
0
230
1
0
SOLID
5
166
100
AcDbEntity
8
2
62
256
6
ByLayer
370
18
48
1
60
0
100
AcDbTrace
10
38.613176
20
-14.5625
30
0
11
39.07396
21
-18.062498
31
0
12
38.152393
22
-18.062502
32
0
13
38.152393
23
-18.062502
33
0
39
0
210
0
220
0
230
1
0
SOLID
5
167
100
AcDbEntity
8
2
62
256
6
ByLayer
370
18
48
1
60
0
100
AcDbTrace
10
38.613176
20
-32.5625
30
0
11
38.152393
21
-29.062502
31
0
12
39.07396
22
-29.062498
32
0
13
39.07396
23
-29.062498
33
0
39
0
210
0
220
0
230
1
0
ENDBLK
5
169
100
AcDbEntity
8
0
100
AcDbBlockEnd
0
BLOCK
5
16E
100
AcDbEntity
8
0
100
AcDbBlockBegin
2
*D5
70
1
10
0
20
0
30
0
3
*D5
0
LINE
5
170
100
AcDbEntity
8
0
62
256
6
ByLayer
370
-2
48
1
60
0
100
AcDbLine
10
-128.5875
20
12.4375
30
0
11
-140.6
21
12.4375
31
0
39
0
210
0
220
0
230
1
0
LINE
5
171
100
AcDbEntity
8
0
62
256
6
ByLayer
370
-2
48
1
60
0
100
AcDbLine
10
-128.5875
20
-12.5625
30
0
11
-140.6
21
-12.5625
31
0
39
0
210
0
220
0
230
1
0
LINE
5
172
100
AcDbEntity
8
0
62
256
6
ByLayer
370
-2
48
1
60
0
100
AcDbLine
10
-138.6
20
8.9375
30
0
11
-138.6
21
-9.0625
31
0
39
0
210
0
220
0
230
1
0
SOLID
5
173
100
AcDbEntity
8
0
62
256
6
ByLayer
370
-1
48
1
60
0
100
AcDbTrace
10
-138.016667
20
8.9375
30
0
11
-139.183333
21
8.9375
31
0
12
-138.6
22
12.4375
32
0
13
-138.6
23
12.4375
33
0
39
0
210
0
220
0
230
1
0
SOLID
5
174
100
AcDbEntity
8
0
62
256
6
ByLayer
370
-1
48
1
60
0
100
AcDbTrace
10
-139.183333
20
-9.0625
30
0
11
-138.016667
21
-9.0625
31
0
12
-138.6
22
-12.5625
32
0
13
-138.6
23
-12.5625
33
0
39
0
210
0
220
0
230
1
0
MTEXT
5
175
100
AcDbEntity
8
0
62
256
6
ByLayer
370
18
48
1
60
0
100
AcDbMText
10
-145.6
20
-0.0625
30
0
210
0
220
0
230
1
1
\A1;25
40
3.5
41
0
44
1
50
90
71
5
72
5
7
iso_b_vert
0
POINT
5
176
100
AcDbEntity
8
Defpoints
62
0
6
ByLayer
370
-1
48
1
60
0
100
AcDbPoint
10
-127
20
12.4375
30
0
39
0
210
0
220
0
230
1
50
360
0
POINT
5
177
100
AcDbEntity
8
Defpoints
62
0
6
ByLayer
370
-1
48
1
60
0
100
AcDbPoint
10
-127
20
-12.5625
30
0
39
0
210
0
220
0
230
1
50
360
0
POINT
5
178
100
AcDbEntity
8
Defpoints
62
0
6
ByLayer
370
-1
48
1
60
0
100
AcDbPoint
10
-138.6
20
-12.5625
30
0
39
0
210
0
220
0
230
1
50
360
0
ENDBLK
5
16F
100
AcDbEntity
8
0
100
AcDbBlockEnd
0
BLOCK
5
181
100
AcDbEntity
8
0
100
AcDbBlockBegin
2
_U2
70
0
10
0
20
0
30
0
3
_U2
0
MTEXT
5
17B
100
AcDbEntity
8
SK2
62
256
6
ByLayer
370
18
48
1
60
0
100
AcDbMText
10
-139.289634
20
-1.995466
30
0
210
0
220
0
230
1
1
\W0.6740;25
40
3.5
41
0
44
1.084337
50
90
71
7
72
5
7
iso_b_vert
0
LINE
5
17C
100
AcDbEntity
8
SK2
62
256
6
ByLayer
370
13
48
1
60
0
100
AcDbLine
10
-128.5875
20
12.4375
30
0
11
-140.6
21
12.4375
31
0
39
0
210
0
220
0
230
1
0
LINE
5
17D
100
AcDbEntity
8
SK2
62
256
6
ByLayer
370
13
48
1
60
0
100
AcDbLine
10
-128.5875
20
-12.5625
30
0
11
-140.6
21
-12.5625
31
0
39
0
210
0
220
0
230
1
0
LINE
5
17E
100
AcDbEntity
8
SK2
62
256
6
ByLayer
370
13
48
1
60
0
100
AcDbLine
10
-138.6
20
12.4375
30
0
11
-138.6
21
-12.5625
31
0
39
0
210
0
220
0
230
1
0
SOLID
5
17F
100
AcDbEntity
8
SK2
62
256
6
ByLayer
370
18
48
1
60
0
100
AcDbTrace
10
-138.6
20
12.4375
30
0
11
-138.139216
21
8.937502
31
0
12
-139.060784
22
8.937498
32
0
13
-139.060784
23
8.937498
33
0
39
0
210
0
220
0
230
1
0
SOLID
5
180
100
AcDbEntity
8
SK2
62
256
6
ByLayer
370
18
48
1
60
0
100
AcDbTrace
10
-138.6
20
-12.5625
30
0
11
-139.060784
21
-9.062502
31
0
12
-138.139216
22
-9.062498
32
0
13
-138.139216
23
-9.062498
33
0
39
0
210
0
220
0
230
1
0
ENDBLK
5
182
100
AcDbEntity
8
0
100
AcDbBlockEnd
0
BLOCK
5
187
100
AcDbEntity
8
0
100
AcDbBlockBegin
2
*D7
70
1
10
0
20
0
30
0
3
*D7
0
LINE
5
189
100
AcDbEntity
8
0
62
256
6
ByLayer
370
-2
48
1
60
0
100
AcDbLine
10
19
20
-34.15
30
0
11
19
21
-44.3125
31
0
39
0
210
0
220
0
230
1
0
LINE
5
18A
100
AcDbEntity
8
0
62
256
6
ByLayer
370
-2
48
1
60
0
100
AcDbLine
10
23
20
-34.15
30
0
11
23
21
-44.3125
31
0
39
0
210
0
220
0
230
1
0
LINE
5
18B
100
AcDbEntity
8
0
62
256
6
ByLayer
370
-2
48
1
60
0
100
AcDbLine
10
15.5
20
-42.3125
30
0
11
12
21
-42.3125
31
0
39
0
210
0
220
0
230
1
0
LINE
5
18C
100
AcDbEntity
8
0
62
256
6
ByLayer
370
-2
48
1
60
0
100
AcDbLine
10
26.5
20
-42.3125
30
0
11
30
21
-42.3125
31
0
39
0
210
0
220
0
230
1
0
SOLID
5
18D
100
AcDbEntity
8
0
62
256
6
ByLayer
370
-1
48
1
60
0
100
AcDbTrace
10
15.5
20
-42.895833
30
0
11
15.5
21
-41.729167
31
0
12
19
22
-42.3125
32
0
13
19
23
-42.3125
33
0
39
0
210
0
220
0
230
1
0
SOLID
5
18E
100
AcDbEntity
8
0
62
256
6
ByLayer
370
-1
48
1
60
0
100
AcDbTrace
10
26.5
20
-41.729167
30
0
11
26.5
21
-42.895833
31
0
12
23
22
-42.3125
32
0
13
23
23
-42.3125
33
0
39
0
210
0
220
0
230
1
0
MTEXT
5
18F
100
AcDbEntity
8
0
62
256
6
ByLayer
370
18
48
1
60
0
100
AcDbMText
10
21
20
-35.3125
30
0
210
0
220
0
230
1
1
\A1;4
40
3.5
41
0
44
1
50
0
71
5
72
5
7
iso_b_vert
0
POINT
5
190
100
AcDbEntity
8
Defpoints
62
0
6
ByLayer
370
-1
48
1
60
0
100
AcDbPoint
10
19
20
-32.5625
30
0
39
0
210
0
220
0
230
1
50
360
0
POINT
5
191
100
AcDbEntity
8
Defpoints
62
0
6
ByLayer
370
-1
48
1
60
0
100
AcDbPoint
10
23
20
-32.5625
30
0
39
0
210
0
220
0
230
1
50
360
0
POINT
5
192
100
AcDbEntity
8
Defpoints
62
0
6
ByLayer
370
-1
48
1
60
0
100
AcDbPoint
10
23
20
-42.3125
30
0
39
0
210
0
220
0
230
1
50
360
0
ENDBLK
5
188
100
AcDbEntity
8
0
100
AcDbBlockEnd
0
BLOCK
5
19A
100
AcDbEntity
8
0
100
AcDbBlockBegin
2
_U3
70
0
10
0
20
0
30
0
3
_U3
0
MTEXT
5
194
100
AcDbEntity
8
2
62
256
6
ByLayer
370
18
48
1
60
0
100
AcDbMText
10
20.2185
20
-41.279866
30
0
210
0
220
0
230
1
1
\W0.6380;4
40
3.5
41
0
44
1.084337
50
0
71
7
72
5
7
iso_b_vert
0
LINE
5
195
100
AcDbEntity
8
2
62
256
6
ByLayer
370
13
48
1
60
0
100
AcDbLine
10
19
20
-34.15
30
0
11
19
21
-44.3125
31
0
39
0
210
0
220
0
230
1
0
LINE
5
196
100
AcDbEntity
8
2
62
256
6
ByLayer
370
13
48
1
60
0
100
AcDbLine
10
23
20
-34.15
30
0
11
23
21
-44.3125
31
0
39
0
210
0
220
0
230
1
0
LINE
5
197
100
AcDbEntity
8
2
62
256
6
ByLayer
370
13
48
1
60
0
100
AcDbLine
10
10.25
20
-42.3125
30
0
11
31.75
21
-42.3125
31
0
39
0
210
0
220
0
230
1
0
SOLID
5
198
100
AcDbEntity
8
2
62
256
6
ByLayer
370
18
48
1
60
0
100
AcDbTrace
10
19
20
-42.3125
30
0
11
15.500002
21
-42.773284
31
0
12
15.499998
22
-41.851716
32
0
13
15.499998
23
-41.851716
33
0
39
0
210
0
220
0
230
1
0
SOLID
5
199
100
AcDbEntity
8
2
62
256
6
ByLayer
370
18
48
1
60
0
100
AcDbTrace
10
23
20
-42.3125
30
0
11
26.499998
21
-41.851716
31
0
12
26.500002
22
-42.773284
32
0
13
26.500002
23
-42.773284
33
0
39
0
210
0
220
0
230
1
0
ENDBLK
5
19B
100
AcDbEntity
8
0
100
AcDbBlockEnd
0
BLOCK
5
1A0
100
AcDbEntity
8
0
100
AcDbBlockBegin
2
*D9
70
1
10
0
20
0
30
0
3
*D9
0
LINE
5
1A2
100
AcDbEntity
8
0
62
256
6
ByLayer
370
-2
48
1
60
0
100
AcDbLine
10
-127
20
10.85
30
0
11
-127
21
-60.3125
31
0
39
0
210
0
220
0
230
1
0
LINE
5
1A3
100
AcDbEntity
8
0
62
256
6
ByLayer
370
-2
48
1
60
0
100
AcDbLine
10
23
20
-34.15
30
0
11
23
21
-60.3125
31
0
39
0
210
0
220
0
230
1
0
LINE
5
1A4
100
AcDbEntity
8
0
62
256
6
ByLayer
370
-2
48
1
60
0
100
AcDbLine
10
-123.5
20
-58.3125
30
0
11
19.5
21
-58.3125
31
0
39
0
210
0
220
0
230
1
0
SOLID
5
1A5
100
AcDbEntity
8
0
62
256
6
ByLayer
370
-1
48
1
60
0
100
AcDbTrace
10
-123.5
20
-57.729167
30
0
11
-123.5
21
-58.895833
31
0
12
-127
22
-58.3125
32
0
13
-127
23
-58.3125
33
0
39
0
210
0
220
0
230
1
0
SOLID
5
1A6
100
AcDbEntity
8
0
62
256
6
ByLayer
370
-1
48
1
60
0
100
AcDbTrace
10
19.5
20
-58.895833
30
0
11
19.5
21
-57.729167
31
0
12
23
22
-58.3125
32
0
13
23
23
-58.3125
33
0
39
0
210
0
220
0
230
1
0
MTEXT
5
1A7
100
AcDbEntity
8
0
62
256
6
ByLayer
370
18
48
1
60
0
100
AcDbMText
10
-52
20
-51.3125
30
0
210
0
220
0
230
1
1
\A1;150
40
3.5
41
0
44
1
50
0
71
5
72
5
7
iso_b_vert
0
POINT
5
1A8
100
AcDbEntity
8
Defpoints
62
0
6
ByLayer
370
-1
48
1
60
0
100
AcDbPoint
10
-127
20
12.4375
30
0
39
0
210
0
220
0
230
1
50
360
0
POINT
5
1A9
100
AcDbEntity
8
Defpoints
62
0
6
ByLayer
370
-1
48
1
60
0
100
AcDbPoint
10
23
20
-32.5625
30
0
39
0
210
0
220
0
230
1
50
360
0
POINT
5
1AA
100
AcDbEntity
8
Defpoints
62
0
6
ByLayer
370
-1
48
1
60
0
100
AcDbPoint
10
23
20
-58.3125
30
0
39
0
210
0
220
0
230
1
50
360
0
ENDBLK
5
1A1
100
AcDbEntity
8
0
100
AcDbBlockEnd
0
BLOCK
5
1B2
100
AcDbEntity
8
0
100
AcDbBlockBegin
2
_U4
70
0
10
0
20
0
30
0
3
_U4
0
MTEXT
5
1AC
100
AcDbEntity
8
SK2
62
256
6
ByLayer
370
18
48
1
60
0
100
AcDbMText
10
-54.775266
20
-57.279866
30
0
210
0
220
0
230
1
1
\W0.6217;150
40
3.5
41
0
44
1.084337
50
0
71
7
72
5
7
iso_b_vert
0
LINE
5
1AD
100
AcDbEntity
8
SK2
62
256
6
ByLayer
370
13
48
1
60
0
100
AcDbLine
10
-127
20
10.85
30
0
11
-127
21
-60.3125
31
0
39
0
210
0
220
0
230
1
0
LINE
5
1AE
100
AcDbEntity
8
SK2
62
256
6
ByLayer
370
13
48
1
60
0
100
AcDbLine
10
23
20
-34.15
30
0
11
23
21
-60.3125
31
0
39
0
210
0
220
0
230
1
0
LINE
5
1AF
100
AcDbEntity
8
SK2
62
256
6
ByLayer
370
13
48
1
60
0
100
AcDbLine
10
-127
20
-58.3125
30
0
11
23
21
-58.3125
31
0
39
0
210
0
220
0
230
1
0
SOLID
5
1B0
100
AcDbEntity
8
SK2
62
256
6
ByLayer
370
18
48
1
60
0
100
AcDbTrace
10
-127
20
-58.3125
30
0
11
-123.500002
21
-57.851716
31
0
12
-123.499998
22
-58.773284
32
0
13
-123.499998
23
-58.773284
33
0
39
0
210
0
220
0
230
1
0
SOLID
5
1B1
100
AcDbEntity
8
SK2
62
256
6
ByLayer
370
18
48
1
60
0
100
AcDbTrace
10
23
20
-58.3125
30
0
11
19.500002
21
-58.773284
31
0
12
19.499998
22
-57.851716
32
0
13
19.499998
23
-57.851716
33
0
39
0
210
0
220
0
230
1
0
ENDBLK
5
1B3
100
AcDbEntity
8
0
100
AcDbBlockEnd
0
ENDSEC
0
SECTION
2
ENTITIES
0
ARC
5
D6
100
AcDbEntity
8
SK1
62
256
6
ByLayer
370
18
48
1
60
0
100
AcDbCircle
39
0
10
-1.227723
20
-14.0375
30
0
40
1.60000000001183
210
0
220
0
230
1
100
AcDbArc
50
69.802844
51
90
0
ARC
5
D7
100
AcDbEntity
8
1
62
256
6
ByLayer
370
18
48
1
60
0
100
AcDbCircle
39
0
10
10.85
20
-6.2125
30
0
40
2.1768
210
0
220
0
230
1
100
AcDbArc
50
210
51
270
0
ARC
5
D8
100
AcDbEntity
8
1
62
256
6
ByLayer
370
18
48
1
60
0
100
AcDbCircle
39
0
10
10.85
20
-6.2125
30
0
40
2.1768
210
0
220
0
230
1
100
AcDbArc
50
90
51
150
0
ARC
5
D9
100
AcDbEntity
8
1
62
256
6
ByLayer
370
18
48
1
60
0
100
AcDbCircle
39
0
10
10.85
20
-6.2125
30
0
40
2.1768
210
0
220
0
230
1
100
AcDbArc
50
30
51
90
0
ARC
5
DA
100
AcDbEntity
8
1
62
256
6
ByLayer
370
18
48
1
60
0
100
AcDbCircle
39
0
10
10.85
20
-6.2125
30
0
40
2.1768
210
0
220
0
230
1
100
AcDbArc
50
270
51
330
0
ARC
5
DB
100
AcDbEntity
8
1
62
256
6
ByLayer
370
18
48
1
60
0
100
AcDbCircle
39
0
10
10.85
20
-6.2125
30
0
40
2.1768
210
0
220
0
230
1
100
AcDbArc
50
150
51
210
0
ARC
5
DC
100
AcDbEntity
8
1
62
256
6
ByLayer
370
18
48
1
60
0
100
AcDbCircle
39
0
10
10.85
20
-6.2125
30
0
40
2.1768
210
0
220
0
230
1
100
AcDbArc
50
330
51
30
0
ARC
5
DF
100
AcDbEntity
8
1
62
256
6
ByLayer
370
18
48
1
60
0
100
AcDbCircle
39
0
10
10.85
20
-6.2125
30
0
40
2.8067
210
0
220
0
230
1
100
AcDbArc
50
180
51
240
0
ARC
5
E0
100
AcDbEntity
8
1
62
256
6
ByLayer
370
18
48
1
60
0
100
AcDbCircle
39
0
10
10.85
20
-6.2125
30
0
40
2.8067
210
0
220
0
230
1
100
AcDbArc
50
240
51
300
0
ARC
5
E1
100
AcDbEntity
8
1
62
256
6
ByLayer
370
18
48
1
60
0
100
AcDbCircle
39
0
10
10.85
20
-6.2125
30
0
40
2.8067
210
0
220
0
230
1
100
AcDbArc
50
60
51
120
0
ARC
5
E2
100
AcDbEntity
8
1
62
256
6
ByLayer
370
18
48
1
60
0
100
AcDbCircle
39
0
10
10.85
20
-6.2125
30
0
40
2.8067
210
0
220
0
230
1
100
AcDbArc
50
300
51
0
0
ARC
5
E3
100
AcDbEntity
8
1
62
256
6
ByLayer
370
18
48
1
60
0
100
AcDbCircle
39
0
10
10.85
20
-6.2125
30
0
40
2.8067
210
0
220
0
230
1
100
AcDbArc
50
0
51
60
0
ARC
5
E4
100
AcDbEntity
8
1
62
256
6
ByLayer
370
18
48
1
60
0
100
AcDbCircle
39
0
10
10.85
20
-6.2125
30
0
40
2.8067
210
0
220
0
230
1
100
AcDbArc
50
120
51
180
0
ARC
5
E5
100
AcDbEntity
8
1
62
256
6
ByLayer
370
18
48
1
60
0
100
AcDbCircle
39
0
10
19.3
20
-32.2625
30
0
40
0.3
210
0
220
0
230
1
100
AcDbArc
50
177.5
51
270
0
ARC
5
E6
100
AcDbEntity
8
1
62
256
6
ByLayer
370
18
48
1
60
0
100
AcDbCircle
39
0
10
22.7
20
-32.2625
30
0
40
0.3
210
0
220
0
230
1
100
AcDbArc
50
270
51
2.5
0
ARC
5
E7
100
AcDbEntity
8
1
62
256
6
ByLayer
370
18
48
1
60
0
100
AcDbCircle
39
0
10
22.7
20
-7.8625
30
0
40
0.3
210
0
220
0
230
1
100
AcDbArc
50
357.5
51
26.044948
0
ARC
5
E8
100
AcDbEntity
8
SK1
62
256
6
ByLayer
370
18
48
1
60
0
100
AcDbCircle
39
0
10
-1.227723
20
-14.0375
30
0
40
1.60000000010835
210
0
220
0
230
1
100
AcDbArc
50
42.211944
51
59.022608
0
CIRCLE
5
D5
100
AcDbEntity
8
1
62
256
6
ByLayer
370
18
48
1
60
0
100
AcDbCircle
10
10.85
20
-6.2125
30
0
40
5.75000000000001
39
0
210
0
220
0
230
1
0
CIRCLE
5
DD
100
AcDbEntity
8
1
62
256
6
ByLayer
370
18
48
1
60
0
100
AcDbCircle
10
10.85
20
-6.2125
30
0
40
5.35
39
0
210
0
220
0
230
1
0
CIRCLE
5
DE
100
AcDbEntity
8
1
62
256
6
ByLayer
370
13
48
1
60
0
100
AcDbCircle
10
10.85
20
-6.2125
30
0
40
4.55
39
0
210
0
220
0
230
1
0
ELLIPSE
5
E9
100
AcDbEntity
8
1
62
256
6
ByLayer
370
18
48
1
60
0
100
AcDbEllipse
10
-26.735574
20
6.999588
30
0
11
64.9203806175617
21
0.189625594223737
31
0
210
0
220
0
230
1
40
0.026023
41
-1.14642088643779
42
-1.14387177255249
0
ELLIPSE
5
EA
100
AcDbEntity
8
1
62
256
6
ByLayer
370
18
48
1
60
0
100
AcDbEllipse
10
-0.083092
20
6.999588
30
0
11
1.04091540074901E-16
21
1.69999999999998
31
0
210
0
220
0
230
1
40
0.267949
41
-2.95815089276379
42
-0.18344176082594
0
ELLIPSE
5
EB
100
AcDbEntity
8
1
62
256
6
ByLayer
370
18
48
1
60
0
100
AcDbEllipse
10
134.2
20
12.438045
30
0
11
111.524999997547
21
1.30646559532193E-13
31
0
210
0
220
0
230
1
40
0.004363
41
-3.13582777090031
42
-2.91550652155676
0
ELLIPSE
5
EC
100
AcDbEntity
8
1
62
256
6
ByLayer
370
18
48
1
60
0
100
AcDbEllipse
10
134.19995
20
-25.807523
30
0
11
8.10059542909524E-15
21
132.297132116141
31
0
210
0
220
0
230
1
40
0.842988
41
1.53492222690683
42
1.55772633277378
0
ELLIPSE
5
ED
100
AcDbEntity
8
1
62
256
6
ByLayer
370
18
48
1
60
0
100
AcDbEllipse
10
134.2
20
-40.981041
30
0
11
111.525000048851
21
1.30646559592292E-13
31
0
210
0
220
0
230
1
40
0.723618
41
2.91550652160789
42
3.02461771067503
0
ELLIPSE
5
EE
100
AcDbEntity
8
1
62
256
6
ByLayer
370
18
48
1
60
0
100
AcDbEllipse
10
88.50143
20
797.396895
30
0
11
11.9838224183806
21
5384.77267538502
31
0
210
0
220
0
230
1
40
0.012652
41
1.72218987830413
42
1.72397607572647
0
ELLIPSE
5
EF
100
AcDbEntity
8
1
62
256
6
ByLayer
370
18
48
1
60
0
100
AcDbEllipse
10
89.000004
20
-25.807523
30
0
11
5.06083057046893E-15
21
82.6523650587392
31
0
210
0
220
0
230
1
40
0.842989
41
1.51335534547572
42
1.54993650245637
0
ELLIPSE
5
F0
100
AcDbEntity
8
1
62
256
6
ByLayer
370
18
48
1
60
0
100
AcDbEllipse
10
134.2
20
12.669125
30
0
11
111.525000141369
21
1.30646559700673E-13
31
0
210
0
220
0
230
1
40
0.36397
41
-3.13596729827387
42
-3.06889919245165
0
ELLIPSE
5
F1
100
AcDbEntity
8
1
62
256
6
ByLayer
370
18
48
1
60
0
100
AcDbEllipse
10
134.199998
20
-26.775092
30
0
11
9.75241017416058E-15
21
159.27420503283
31
0
210
0
220
0
230
1
40
0.700208
41
1.49810286496425
42
1.53492223460743
0
ELLIPSE
5
F2
100
AcDbEntity
8
1
62
256
6
ByLayer
370
18
48
1
60
0
100
AcDbEllipse
10
89
20
-26.775092
30
0
11
6.09279698978877E-15
21
99.5062122741933
31
0
210
0
220
0
230
1
40
0.700208
41
1.44775414240801
42
1.51335534372924
0
ELLIPSE
5
F3
100
AcDbEntity
8
1
62
256
6
ByLayer
370
18
48
1
60
0
100
AcDbEllipse
10
19.325
20
-15.140312
30
0
11
-5.12408645632527E-16
21
-2.78951487299376
31
0
210
0
220
0
230
1
40
0.573576
41
3.14159265358979
42
-2.46660319786034
0
ELLIPSE
5
F4
100
AcDbEntity
8
SK1
62
256
6
ByLayer
370
18
48
1
60
0
100
AcDbEllipse
10
-3.301981
20
12.45059
30
0
11
2.99999999999827
21
3.51436609374555E-15
31
0
210
0
220
0
230
1
40
0.004363
41
-1.5707963267949
42
-0.846871315213498
0
ELLIPSE
5
F5
100
AcDbEntity
8
SK1
62
256
6
ByLayer
370
18
48
1
60
0
100
AcDbEllipse
10
-3.301981
20
8.7428
30
0
11
0.0800284643759035
21
26.7548845691246
31
0
210
0
220
0
230
1
40
0.112089
41
-2.48395335149323
42
-1.80591639491982
0
ELLIPSE
5
F6
100
AcDbEntity
8
SK1
62
256
6
ByLayer
370
18
48
1
60
0
100
AcDbEllipse
10
-3.301981
20
11.62271
30
0
11
3.00000000000373
21
3.51436609375195E-15
31
0
210
0
220
0
230
1
40
0.36397
41
0.261799387799136
42
0.846871315213276
0
ELLIPSE
5
F7
100
AcDbEntity
8
SK1
62
256
6
ByLayer
370
18
48
1
60
0
100
AcDbEllipse
10
-26.734569
20
6.999533
30
0
11
64.9189501378406
21
0.189645285369633
31
0
210
0
220
0
230
1
40
0.026022
41
-1.15172442286163
42
-1.14642793389117
0
ELLIPSE
5
F8
100
AcDbEntity
8
SK1
62
256
6
ByLayer
370
18
48
1
60
0
100
AcDbEllipse
10
-0.083092
20
6.999588
30
0
11
1.44977584010026E-10
21
-1.69999999917852
31
0
210
0
220
0
230
1
40
0.267949
41
-0.782342710722865
42
-0.530856132498348
0
ELLIPSE
5
F9
100
AcDbEntity
8
SK1
62
256
6
ByLayer
370
18
48
1
60
0
100
AcDbEllipse
10
-0.083092
20
6.999588
30
0
11
1.04091540074987E-16
21
1.70000000000138
31
0
210
0
220
0
230
1
40
0.267949
41
-0.183441760825932
42
0.78234271052065
0
ELLIPSE
5
FA
100
AcDbEntity
8
1
62
256
6
ByLayer
370
18
48
1
60
0
100
AcDbEllipse
10
21.667299
20
-25.11894
30
0
11
0.0421420360267404
21
-0.0906865414911732
31
0
210
0
220
0
230
1
40
1
41
2.88111460649385
42
-2.9125201550872
0
ELLIPSE
5
FB
100
AcDbEntity
8
1
62
256
6
ByLayer
370
18
48
1
60
0
100
AcDbEllipse
10
20.332701
20
-25.11894
30
0
11
0.0421420360267404
21
0.0906865414911732
31
0
210
0
220
0
230
1
40
1
41
-0.229072498502594
42
0.260478047095942
0
ELLIPSE
5
FC
100
AcDbEntity
8
1
62
256
6
ByLayer
370
18
48
1
60
0
100
AcDbEllipse
10
19.641251
20
-24.997018
30
0
11
0.0168636794098814
21
0.0985678262794003
31
0
210
0
220
0
230
1
40
1
41
-0.00508643367644886
42
0.169446491196327
0
ELLIPSE
5
FD
100
AcDbEntity
8
1
62
256
6
ByLayer
370
18
48
1
60
0
100
AcDbEllipse
10
22.358749
20
-24.997018
30
0
11
0.0168636794098815
21
-0.0985678262794003
31
0
210
0
220
0
230
1
40
1
41
2.97214616239347
42
-3.13650621991334
0
ELLIPSE
5
FE
100
AcDbEntity
8
SK1
62
256
6
ByLayer
370
18
48
1
60
0
100
AcDbEllipse
10
-3.301981
20
-0.231385
30
0
11
0.080028464189987
21
26.7548845718323
31
0
210
0
220
0
230
1
40
0.112089
41
-2.04834037570946
42
-1.80591639496746
0
ELLIPSE
5
FF
100
AcDbEntity
8
SK1
62
256
6
ByLayer
370
18
48
1
60
0
100
AcDbEllipse
10
-0.083092
20
6.999588
30
0
11
1.20856878910964E-10
21
-1.70000000371189
31
0
210
0
220
0
230
1
40
0.267949
41
0.0666717253934399
42
0.183441760606338
0
POINT
5
70
100
AcDbEntity
8
81
62
256
6
ByLayer
370
18
48
1
60
0
100
AcDbPoint
10
23
20
-32.5625
30
0
39
0
210
0
220
0
230
1
50
360
0
POINT
5
72
100
AcDbEntity
8
80
62
256
6
ByLayer
370
18
48
1
60
0
100
AcDbPoint
10
0
20
0
30
0
39
0
210
0
220
0
230
1
50
360
0
POINT
5
74
100
AcDbEntity
8
1
62
256
6
ByLayer
370
18
48
1
60
1
100
AcDbPoint
10
23
20
-32.5625
30
0
39
0
210
0
220
0
230
1
50
360
0
POINT
5
76
100
AcDbEntity
8
1
62
256
6
ByLayer
370
18
48
1
60
1
100
AcDbPoint
10
-127
20
12.4375
30
0
39
0
210
0
220
0
230
1
50
360
0
POINT
5
77
100
AcDbEntity
8
1
62
256
6
ByLayer
370
18
48
1
60
1
100
AcDbPoint
10
19.325
20
-14.5625
30
0
39
0
210
0
220
0
230
1
50
360
0
POINT
5
78
100
AcDbEntity
8
1
62
256
6
ByLayer
370
18
48
1
60
1
100
AcDbPoint
10
23
20
-32.5625
30
0
39
0
210
0
220
0
230
1
50
360
0
POINT
5
79
100
AcDbEntity
8
1
62
256
6
ByLayer
370
18
48
1
60
1
100
AcDbPoint
10
-127
20
12.4375
30
0
39
0
210
0
220
0
230
1
50
360
0
POINT
5
7A
100
AcDbEntity
8
1
62
256
6
ByLayer
370
18
48
1
60
1
100
AcDbPoint
10
-127
20
-12.5625
30
0
39
0
210
0
220
0
230
1
50
360
0
POINT
5
7B
100
AcDbEntity
8
1
62
256
6
ByLayer
370
18
48
1
60
1
100
AcDbPoint
10
19
20
-32.5625
30
0
39
0
210
0
220
0
230
1
50
360
0
POINT
5
7C
100
AcDbEntity
8
1
62
256
6
ByLayer
370
18
48
1
60
1
100
AcDbPoint
10
23
20
-32.5625
30
0
39
0
210
0
220
0
230
1
50
360
0
POINT
5
7D
100
AcDbEntity
8
1
62
256
6
ByLayer
370
18
48
1
60
1
100
AcDbPoint
10
-127
20
12.4375
30
0
39
0
210
0
220
0
230
1
50
360
0
POINT
5
7E
100
AcDbEntity
8
1
62
256
6
ByLayer
370
18
48
1
60
1
100
AcDbPoint
10
23
20
-32.5625
30
0
39
0
210
0
220
0
230
1
50
360
0
SPLINE
5
100
100
AcDbEntity
8
1
62
256
6
ByLayer
370
18
48
1
60
0
100
AcDbSpline
70
4
71
3
72
12
73
8
40
0
40
0
40
0
40
0
40
0.250000000000001
40
0.250000000000001
40
0.500000000000001
40
0.500000000000001
40
1
40
1
40
1
40
1
41
1
10
19.3401583717253
20
-24.0835338293973
30
0
41
1
10
19.4358554908001
20
-24.103117691382
30
0
41
1
10
19.5320222722484
20
-24.1213931028913
30
0
41
1
10
19.7248371924875
20
-24.1566028939705
30
0
41
1
10
19.8215045869203
20
-24.1735119030581
30
0
41
1
10
20.1118105479015
20
-24.2229489352585
30
0
41
1
10
20.3058017121147
20
-24.2542308165939
30
0
41
1
10
20.5
20
-24.2847477689298
30
0
0
SPLINE
5
101
100
AcDbEntity
8
1
62
256
6
ByLayer
370
18
48
1
60
0
100
AcDbSpline
70
4
71
3
72
8
73
4
40
0
40
0
40
0
40
0
40
1
40
1
40
1
40
1
41
1
10
20.5840772376138
20
-24.4816582004223
30
0
41
1
10
20.5552288522212
20
-24.4161921845408
30
0
41
1
10
20.5269015868037
20
-24.3506179748712
30
0
41
1
10
20.5
20
-24.2847477689299
30
0
0
SPLINE
5
102
100
AcDbEntity
8
1
62
256
6
ByLayer
370
18
48
1
60
0
100
AcDbSpline
70
4
71
3
72
20
73
16
40
0
40
0
40
0
40
0
40
0.125
40
0.125
40
0.25
40
0.25
40
0.375
40
0.375
40
0.5
40
0.5
40
0.625
40
0.625
40
0.75
40
0.75
40
1
40
1
40
1
40
1
41
1
10
20.72503113073
20
-24.5625000000116
30
0
41
1
10
20.7171106843548
20
-24.5625000000116
30
0
41
1
10
20.7092574119345
20
-24.5619932082463
30
0
41
1
10
20.6936835094861
20
-24.5599789084083
30
0
41
1
10
20.6860179903446
20
-24.5584706552426
30
0
41
1
10
20.6712691881194
20
-24.5545674111278
30
0
41
1
10
20.6641316260003
20
-24.5521659980847
30
0
41
1
10
20.650328512167
20
-24.546466757003
30
0
41
1
10
20.6436471008299
20
-24.5431473484365
30
0
41
1
10
20.6312453857013
20
-24.5358665566376
30
0
41
1
10
20.625456835505
20
-24.5318814288507
30
0
41
1
10
20.6146777273761
20
-24.5232439686607
30
0
41
1
10
20.6096505220715
20
-24.518548330779
30
0
41
1
10
20.5961122801273
20
-24.5037777665781
30
0
41
1
10
20.5891234333046
20
-24.4931095978831
30
0
41
1
10
20.5840772376138
20
-24.4816582004223
30
0
0
SPLINE
5
103
100
AcDbEntity
8
1
62
256
6
ByLayer
370
18
48
1
60
0
100
AcDbSpline
70
4
71
3
72
22
73
18
40
0
40
0
40
0
40
0
40
0.125
40
0.125
40
0.25
40
0.25
40
0.375
40
0.375
40
0.5
40
0.5
40
0.625
40
0.625
40
0.75
40
0.75
40
0.875
40
0.875
40
1
40
1
40
1
40
1
41
1
10
21.4159227623864
20
-24.481658200422
30
0
41
1
10
21.4134208386343
20
-24.4873358485074
30
0
41
1
10
21.4104200030864
20
-24.4928489919054
30
0
41
1
10
21.4033949267367
20
-24.5035378343621
30
0
41
1
10
21.3993332982561
20
-24.5087516954357
30
0
41
1
10
21.390304622029
20
-24.5185922823736
30
0
41
1
10
21.3853530646577
20
-24.523217242247
30
0
41
1
10
21.3745626841369
20
-24.5318678302221
30
0
41
1
10
21.3686773288373
20
-24.5359200581306
30
0
41
1
10
21.3561731310521
20
-24.5432445889037
30
0
41
1
10
21.3496089301607
20
-24.546494566482
30
0
41
1
10
21.3358557688316
20
-24.5521692121409
30
0
41
1
10
21.3286134228092
20
-24.5546075456953
30
0
41
1
10
21.3137089823275
20
-24.5585336029423
30
0
41
1
10
21.3061317854053
20
-24.5600070158931
30
0
41
1
10
21.2907314622223
20
-24.5619903751928
30
0
41
1
10
21.2828573405496
20
-24.5624999999999
30
0
41
1
10
21.2749688692685
20
-24.5625
30
0
0
SPLINE
5
104
100
AcDbEntity
8
1
62
256
6
ByLayer
370
18
48
1
60
0
100
AcDbSpline
70
4
71
3
72
8
73
4
40
0
40
0
40
0
40
0
40
1
40
1
40
1
40
1
41
1
10
21.4999999999999
20
-24.2847477689301
30
0
41
1
10
21.4730914598634
20
-24.3506350005388
30
0
41
1
10
21.4447656936665
20
-24.4162045616289
30
0
41
1
10
21.4159227623864
20
-24.481658200422
30
0
0
SPLINE
5
105
100
AcDbEntity
8
1
62
256
6
ByLayer
370
18
48
1
60
0
100
AcDbSpline
70
4
71
3
72
12
73
8
40
0
40
0
40
0
40
0
40
0.500000000000034
40
0.500000000000034
40
0.750000000000017
40
0.750000000000017
40
1
40
1
40
1
40
1
41
1
10
21.5000000000027
20
-24.284747768931
30
0
41
1
10
21.6983545704296
20
-24.2535776848007
30
0
41
1
10
21.8965117114163
20
-24.2216109650774
30
0
41
1
10
22.1929859361318
20
-24.1710007969816
30
0
41
1
10
22.2916747852435
20
-24.153679964461
30
0
41
1
10
22.4885938703207
20
-24.1175170080735
30
0
41
1
10
22.5868264114022
20
-24.0987094272681
30
0
41
1
10
22.6845254749209
20
-24.0784491142759
30
0
0
SPLINE
5
106
100
AcDbEntity
8
1
62
256
6
ByLayer
370
18
48
1
60
0
100
AcDbSpline
70
4
71
2
72
6
73
3
40
0
40
0
40
0
40
1
40
1
40
1
41
0.500001717952399
10
22.7707203178527
20
-22.8984708677972
30
0
41
0.499998282047601
10
22.7696762815765
20
-24.1332249654499
30
0
41
0.500001717952399
10
22.7686436279791
20
-25.3681014032786
30
0
0
SPLINE
5
107
100
AcDbEntity
8
1
62
256
6
ByLayer
370
18
48
1
60
0
100
AcDbSpline
70
4
71
3
72
8
73
4
40
0
40
0
40
0
40
0
40
1
40
1
40
1
40
1
41
1
10
19.3401583717253
20
-24.0835338293973
30
0
41
1
10
19.3401565479716
20
-24.078864553217
30
0
41
1
10
19.3401562635684
20
-24.0741841881233
30
0
41
1
10
19.3401575401612
20
-24.0694925772654
30
0
0
SPLINE
5
108
100
AcDbEntity
8
1
62
256
6
ByLayer
370
18
48
1
60
0
100
AcDbSpline
70
4
71
3
72
27
73
23
40
0
40
0
40
0
40
0
40
0.125000000000002
40
0.125000000000002
40
0.187499999999993
40
0.187499999999993
40
0.249999999999985
40
0.249999999999985
40
0.374999999999985
40
0.374999999999985
40
0.499999999999986
40
0.499999999999986
40
0.562499999999985
40
0.562499999999985
40
0.593749999999987
40
0.593749999999987
40
0.624999999999989
40
0.624999999999989
40
0.749999999999993
40
0.749999999999993
40
0.874999999999996
40
1
40
1
40
1
40
1
41
1
10
19.3250000000038
20
-13.2844333733507
30
0
41
1
10
19.3760857821376
20
-13.3254668791717
30
0
41
1
10
19.4231812200315
20
-13.3691334000364
30
0
41
1
10
19.4883887259581
20
-13.4382198770593
30
0
41
1
10
19.5092148552807
20
-13.4618489691275
30
0
41
1
10
19.5491004376346
20
-13.5102728885922
30
0
41
1
10
19.5681821799742
20
-13.5351087591071
30
0
41
1
10
19.6222378703885
20
-13.6104577233181
30
0
41
1
10
19.6542659464992
20
-13.6620645598333
30
0
41
1
10
19.7110883067733
20
-13.7677577802162
30
0
41
1
10
19.7358781855099
20
-13.8218456741446
30
0
41
1
10
19.7679363050058
20
-13.9047348080388
30
0
41
1
10
19.7777653734126
20
-13.9326582658592
30
0
41
1
10
19.7912409049833
20
-13.9749781128915
30
0
41
1
10
19.7955269228995
20
-13.9891777971714
30
0
41
1
10
19.8036429268386
20
-14.0175981352752
30
0
41
1
10
19.8074738318447
20
-14.0318188259612
30
0
41
1
10
19.8255224055774
20
-14.1029735192436
30
0
41
1
10
19.8364350789776
20
-14.160060645647
30
0
41
1
10
19.8517409293124
20
-14.2745369533793
30
0
41
1
10
19.8605222924075
20
-14.3893155472651
30
0
41
1
10
19.8567602425921
20
-14.504675290274
30
0
41
1
10
19.8517530568692
20
-14.5625
30
0
0
SPLINE
5
109
100
AcDbEntity
8
1
62
256
6
ByLayer
370
18
48
1
60
0
100
AcDbSpline
70
4
71
3
72
37
73
33
40
0
40
0
40
0
40
0
40
0.124999999999964
40
0.124999999999964
40
0.156249999999948
40
0.156249999999948
40
0.187499999999931
40
0.187499999999931
40
0.249999999999931
40
0.31249999999993
40
0.31249999999993
40
0.343749999999931
40
0.343749999999931
40
0.374999999999932
40
0.374999999999932
40
0.499999999999933
40
0.499999999999933
40
0.562499999999933
40
0.562499999999933
40
0.593749999999944
40
0.593749999999944
40
0.624999999999956
40
0.624999999999956
40
0.749999999999988
40
0.749999999999988
40
0.781249999999994
40
0.781249999999994
40
0.812499999999999
40
0.812499999999999
40
0.874999999999999
40
0.874999999999999
40
1
40
1
40
1
40
1
41
1
10
17.7497750203297
20
-12.9625
30
0
41
1
10
17.8542749654759
20
-12.9625
30
0
41
1
10
17.9576781550164
20
-12.9727271258171
30
0
41
1
10
18.0855688288547
20
-12.9982237782084
30
0
41
1
10
18.1111372976627
20
-13.0039801745412
30
0
41
1
10
18.1618016800268
20
-13.0167104537488
30
0
41
1
10
18.1868855073856
20
-13.0236773403886
30
0
41
1
10
18.2614053639923
20
-13.046350615386
30
0
41
1
10
18.3588176016569
20
-13.081300311637
30
0
41
1
10
18.4523914236486
20
-13.1255498939345
30
0
41
1
10
18.521112289307
20
-13.1622732248927
30
0
41
1
10
18.5437755666716
20
-13.1751047288734
30
0
41
1
10
18.5886060030034
20
-13.2019697547906
30
0
41
1
10
18.6108304797073
20
-13.2160435625788
30
0
41
1
10
18.7196865124216
20
-13.2888100102771
30
0
41
1
10
18.7999445536537
20
-13.3547697334861
30
0
41
1
10
18.9103250122722
20
-13.4650641219943
30
0
41
1
10
18.9454388358687
20
-13.5037348835314
30
0
41
1
10
18.9955083850539
20
-13.5646926726754
30
0
41
1
10
19.0117833524832
20
-13.5855369312735
30
0
41
1
10
19.043107706389
20
-13.6277659625499
30
0
41
1
10
19.0582012776622
20
-13.6492013590961
30
0
41
1
10
19.1308693306384
20
-13.757958353224
30
0
41
1
10
19.180124867999
20
-13.849974575763
30
0
41
1
10
19.2304676016231
20
-13.9713304042015
30
0
41
1
10
19.2399697477687
20
-13.9959212063943
30
0
41
1
10
19.2578168944235
20
-14.0457558220947
30
0
41
1
10
19.2661373311919
20
-14.0709422716529
30
0
41
1
10
19.2890960169509
20
-14.1466550568831
30
0
41
1
10
19.3018272093061
20
-14.1975816648661
30
0
41
1
10
19.3324631486801
20
-14.3516866091655
30
0
41
1
10
19.342885766907
20
-14.4561768264598
30
0
41
1
10
19.3428543767807
20
-14.5625
30
0
0
SPLINE
5
10A
100
AcDbEntity
8
1
62
256
6
ByLayer
370
18
48
1
60
0
100
AcDbSpline
70
4
71
3
72
22
73
18
40
0
40
0
40
0
40
0
40
0.0625000000000439
40
0.0625000000000439
40
0.125000000000088
40
0.125000000000088
40
0.25000000000012
40
0.25000000000012
40
0.500000000000196
40
0.500000000000196
40
0.562500000000192
40
0.562500000000192
40
0.625000000000188
40
0.625000000000188
40
0.750000000000108
40
0.750000000000108
40
1
40
1
40
1
40
1
41
1
10
19.325
20
-13.2844333733532
30
0
41
1
10
19.308159557612
20
-13.2709066666671
30
0
41
1
10
19.2910548693007
20
-13.2577699529622
30
0
41
1
10
19.2563418288066
20
-13.2322845437788
30
0
41
1
10
19.2387149096863
20
-13.2199244822172
30
0
41
1
10
19.1853783964377
20
-13.1842112086408
30
0
41
1
10
19.1491494547697
20
-13.1621721021543
30
0
41
1
10
19.0388206868624
20
-13.1012702676645
30
0
41
1
10
18.9630833759041
20
-13.0676113661518
30
0
41
1
10
18.8667767869865
20
-13.0340823255817
30
0
41
1
10
18.8474333432392
20
-13.0278046571107
30
0
41
1
10
18.8086088632614
20
-13.0161058329038
30
0
41
1
10
18.7890872725306
20
-13.0106746206807
30
0
41
1
10
18.7306597362384
20
-12.995743739704
30
0
41
1
10
18.6920380037789
20
-12.9876343934754
30
0
41
1
10
18.577473628876
20
-12.9684460905156
30
0
41
1
10
18.5028259654894
20
-12.9625000000004
30
0
41
1
10
18.4307381320291
20
-12.9625
30
0
0
SPLINE
5
10B
100
AcDbEntity
8
SK1
62
256
6
ByLayer
370
18
48
1
60
0
100
AcDbSpline
70
4
71
3
72
38
73
34
40
0
40
0
40
0
40
0
40
0.125000000000015
40
0.125000000000015
40
0.156250000000017
40
0.156250000000017
40
0.187500000000019
40
0.187500000000019
40
0.250000000000021
40
0.312500000000024
40
0.312500000000024
40
0.343750000000026
40
0.343750000000026
40
0.375000000000027
40
0.375000000000027
40
0.500000000000032
40
0.500000000000032
40
0.562500000000035
40
0.562500000000035
40
0.578125000000035
40
0.578125000000035
40
0.593750000000035
40
0.625000000000031
40
0.625000000000031
40
0.75000000000002
40
0.75000000000002
40
0.781250000000017
40
0.781250000000017
40
0.812500000000014
40
0.812500000000014
40
0.875000000000007
40
0.875000000000007
40
1
40
1
40
1
40
1
41
1
10
-0.404203485069729
20
5.79383918871685
30
0
41
1
10
-0.425476331396624
20
5.87274685536011
30
0
41
1
10
-0.447821178459321
20
5.95820181331351
30
0
41
1
10
-0.474862747241161
20
6.07333895193332
30
0
41
1
10
-0.480226716127959
20
6.09678681731396
30
0
41
1
10
-0.490808930540709
20
6.14454529811533
30
0
41
1
10
-0.496037288962782
20
6.1689074802776
30
0
41
1
10
-0.51128598594488
20
6.24269183576288
30
0
41
1
10
-0.53051736871322
20
6.3431914555654
30
0
41
1
10
-0.546761688913193
20
6.44798514530552
30
0
41
1
10
-0.557534380280288
20
6.5282587436713
30
0
41
1
10
-0.560890134127959
20
6.55529683856722
30
0
41
1
10
-0.567082407455075
20
6.60995125345892
30
0
41
1
10
-0.569926129548065
20
6.63765184882908
30
0
41
1
10
-0.582619077467513
20
6.77646770117181
30
0
41
1
10
-0.587870298262288
20
6.88821837738442
30
0
41
1
10
-0.587820050036072
20
7.05688610689185
30
0
41
1
10
-0.586487915295209
20
7.11328321689516
30
0
41
1
10
-0.58316289922459
20
7.18400433113894
30
0
41
1
10
-0.58241432884256
20
7.19816629914064
30
0
41
1
10
-0.580763763265907
20
7.22632542423386
30
0
41
1
10
-0.578054872018072
20
7.26838664085113
30
0
41
1
10
-0.574669057419158
20
7.30992500878207
30
0
41
1
10
-0.561978629427983
20
7.44725881696291
30
0
41
1
10
-0.547323582041486
20
7.55354744373093
30
0
41
1
10
-0.525048627315357
20
7.68218040209879
30
0
41
1
10
-0.52039643832785
20
7.70769378190542
30
0
41
1
10
-0.510742485041987
20
7.75829281835328
30
0
41
1
10
-0.505765502445684
20
7.78324601115173
30
0
41
1
10
-0.490546284011458
20
7.85673205240673
30
0
41
1
10
-0.479986162325872
20
7.90405483283021
30
0
41
1
10
-0.447737342976069
20
8.04126581975748
30
0
41
1
10
-0.425470667350567
20
8.12645016095377
30
0
41
1
10
-0.404203485069729
20
8.2053368178716
30
0
0
SPLINE
5
10C
100
AcDbEntity
8
1
62
256
6
ByLayer
370
18
48
1
60
0
100
AcDbSpline
70
4
71
3
72
37
73
33
40
0
40
0
40
0
40
0
40
0.124999999999991
40
0.124999999999991
40
0.249999999999982
40
0.249999999999982
40
0.374999999999973
40
0.374999999999973
40
0.437499999999955
40
0.437499999999955
40
0.499999999999937
40
0.499999999999937
40
0.56249999999992
40
0.56249999999992
40
0.624999999999902
40
0.624999999999902
40
0.687499999999884
40
0.687499999999884
40
0.718749999999871
40
0.718749999999871
40
0.749999999999857
40
0.749999999999857
40
0.812499999999889
40
0.812499999999889
40
0.843749999999909
40
0.843749999999909
40
0.87499999999993
40
0.90624999999995
40
0.90624999999995
40
0.93749999999997
40
0.93749999999997
40
1
40
1
40
1
40
1
41
1
10
8.04330000000002
20
-6.21250000000001
30
0
41
1
10
8.04330000000004
20
-6.2489408487404
30
0
41
1
10
8.04472521357596
20
-6.28541844440042
30
0
41
1
10
8.05049972414844
20
-6.35804710022495
30
0
41
1
10
8.05485432960592
20
-6.39427873327827
30
0
41
1
10
8.06673476691088
20
-6.46607955216365
30
0
41
1
10
8.07427434176023
20
-6.50174964856191
30
0
41
1
10
8.08832058861077
20
-6.55435143250654
30
0
41
1
10
8.09346119699532
20
-6.57173995664527
30
0
41
1
10
8.10477621291764
20
-6.60618639994942
30
0
41
1
10
8.11095152934814
20
-6.62324121982189
30
0
41
1
10
8.12440668282926
20
-6.6567302051885
30
0
41
1
10
8.13169363799719
20
-6.67319232354578
30
0
41
1
10
8.1475964244153
20
-6.70543825585713
30
0
41
1
10
8.15623753078111
20
-6.72125613459679
30
0
41
1
10
8.17486539888395
20
-6.75155866467469
30
0
41
1
10
8.18487203122194
20
-6.7660993945556
30
0
41
1
10
8.20117617852731
20
-6.78675323484003
30
0
41
1
10
8.20682784517686
20
-6.79344380536776
30
0
41
1
10
8.21863037717659
20
-6.80637537811813
30
0
41
1
10
8.22481237701433
20
-6.81264344129838
30
0
41
1
10
8.24391752302296
20
-6.83035982120202
30
0
41
1
10
8.25742005770056
20
-6.84078502883671
30
0
41
1
10
8.27910138643571
20
-6.85378856120136
30
0
41
1
10
8.28662646646023
20
-6.85770336787567
30
0
41
1
10
8.30187703072841
20
-6.86435939191949
30
0
41
1
10
8.31732332679388
20
-6.8698618107461
30
0
41
1
10
8.33316878536252
20
-6.87296278981998
30
0
41
1
10
8.34922196443441
20
-6.87479360796559
30
0
41
1
10
8.35728040268765
20
-6.87505503029823
30
0
41
1
10
8.38096523198635
20
-6.87395950842264
30
0
41
1
10
8.396340669832
20
-6.87076678296611
30
0
41
1
10
8.41134335770121
20
-6.86537075857637
30
0
0
SPLINE
5
10D
100
AcDbEntity
8
1
62
256
6
ByLayer
370
18
48
1
60
0
100
AcDbSpline
70
4
71
3
72
35
73
31
40
0
40
0
40
0
40
0
40
0.125000000000103
40
0.125000000000103
40
0.250000000000206
40
0.250000000000206
40
0.375000000000308
40
0.375000000000308
40
0.437500000000325
40
0.437500000000325
40
0.500000000000342
40
0.500000000000342
40
0.625000000000378
40
0.625000000000378
40
0.687500000000374
40
0.687500000000374
40
0.718750000000347
40
0.718750000000347
40
0.75000000000032
40
0.75000000000032
40
0.812500000000234
40
0.812500000000234
40
0.843750000000197
40
0.843750000000197
40
0.875000000000159
40
0.906250000000122
40
0.906250000000122
40
0.937500000000084
40
0.937500000000084
40
1
40
1
40
1
40
1
41
1
10
9.44665000000001
20
-8.64317350080177
30
0
41
1
10
9.41510965071285
20
-8.62496367165051
30
0
41
1
10
9.38421557387986
20
-8.60548128927968
30
0
41
1
10
9.32421161671908
20
-8.56417139612125
30
0
41
1
10
9.29509160660288
20
-8.54234802469628
30
0
41
1
10
9.23880064271395
20
-8.49612435383051
30
0
41
1
10
9.21171693883926
20
-8.47179407393173
30
0
41
1
10
9.17322240952902
20
-8.43337634152121
30
0
41
1
10
9.16073667276387
20
-8.42023842442597
30
0
41
1
10
9.13655022347294
20
-8.39321216698264
30
0
41
1
10
9.12485104695577
20
-8.37932264752465
30
0
41
1
10
9.09137174694214
20
-8.33665343228131
30
0
41
1
10
9.07101600407037
20
-8.30669133952023
30
0
41
1
10
9.04553981976093
20
-8.2596006067723
30
0
41
1
10
9.03785711463163
20
-8.24345389028406
30
0
41
1
10
9.02808317982766
20
-8.21882323323706
30
0
41
1
10
9.02511545638788
20
-8.21054309568206
30
0
41
1
10
9.01983969579643
20
-8.1938265671057
30
0
41
1
10
9.01752616670331
20
-8.18536069269425
30
0
41
1
10
9.01180039789281
20
-8.16002347895443
30
0
41
1
10
9.0095611324943
20
-8.14316173379669
30
0
41
1
10
9.00918832947929
20
-8.11794990923659
30
0
41
1
10
9.00957528676881
20
-8.1094983049415
30
0
41
1
10
9.01145976709688
20
-8.09301610260476
30
0
41
1
10
9.01443594505781
20
-8.07693931510761
30
0
41
1
10
9.01968075965897
20
-8.06171364601755
30
0
41
1
10
9.02612382476161
20
-8.04694107125729
30
0
41
1
10
9.02992280182031
20
-8.03985664974371
30
0
41
1
10
9.04269592430225
20
-8.01995663986995
30
0
41
1
10
9.05312600414115
20
-8.00827134708962
30
0
41
1
10
9.06526901653547
20
-7.99800322405019
30
0
0
SPLINE
5
10E
100
AcDbEntity
8
1
62
256
6
ByLayer
370
18
48
1
60
0
100
AcDbSpline
70
4
71
3
72
50
73
46
40
0
40
0
40
0
40
0
40
0.0312499999999988
40
0.0312499999999988
40
0.0624999999999974
40
0.0624999999999974
40
0.0937499999999962
40
0.0937499999999962
40
0.124999999999995
40
0.124999999999995
40
0.156249999999994
40
0.156249999999994
40
0.187499999999993
40
0.187499999999993
40
0.218749999999991
40
0.218749999999991
40
0.24999999999999
40
0.24999999999999
40
0.312499999999989
40
0.312499999999989
40
0.374999999999987
40
0.374999999999987
40
0.437499999999986
40
0.437499999999986
40
0.499999999999984
40
0.499999999999984
40
0.624999999999982
40
0.624999999999982
40
0.687499999999982
40
0.687499999999982
40
0.749999999999983
40
0.749999999999983
40
0.812499999999984
40
0.812499999999984
40
0.843749999999987
40
0.843749999999987
40
0.874999999999989
40
0.874999999999989
40
0.906249999999992
40
0.906249999999992
40
0.937499999999995
40
0.937499999999995
40
0.968749999999997
40
0.968749999999997
40
1
40
1
40
1
40
1
41
1
10
8.43134335770122
20
-6.8639989617655
30
0
41
1
10
8.44501130852316
20
-6.86306147919808
30
0
41
1
10
8.4587060057838
20
-6.86358511935921
30
0
41
1
10
8.4861473227636
20
-6.86696658906175
30
0
41
1
10
8.49988027924101
20
-6.86983756012083
30
0
41
1
10
8.52696363107046
20
-6.87741019765747
30
0
41
1
10
8.54041077071147
20
-6.88213731873833
30
0
41
1
10
8.56684528316219
20
-6.8930357901252
30
0
41
1
10
8.5798551856212
20
-6.89921068436271
30
0
41
1
10
8.60553671933312
20
-6.91279136910089
30
0
41
1
10
8.61818323587579
20
-6.92018785487738
30
0
41
1
10
8.64299358826321
20
-6.93593124735474
30
0
41
1
10
8.65518309858751
20
-6.94429248843122
30
0
41
1
10
8.67919040653405
20
-6.96188520558891
30
0
41
1
10
8.69101183598062
20
-6.9711225119529
30
0
41
1
10
8.71417103204496
20
-6.99026235675444
30
0
41
1
10
8.72553004422161
20
-7.00018015715153
30
0
41
1
10
8.75901371225277
20
-7.03088986358961
30
0
41
1
10
8.78060200063823
20
-7.0526949313608
30
0
41
1
10
8.82201803752787
20
-7.09812969247076
30
0
41
1
10
8.84188125963729
20
-7.12178632802068
30
0
41
1
10
8.88008002061409
20
-7.17083395463232
30
0
41
1
10
8.89837218509228
20
-7.19618144115805
30
0
41
1
10
8.93314511894584
20
-7.24802989888909
30
0
41
1
10
8.9496744633424
20
-7.2745945861042
30
0
41
1
10
8.99668184798307
20
-7.35615108836976
30
0
41
1
10
9.02408843308351
20
-7.41201612707877
30
0
41
1
10
9.05895602592793
20
-7.4982195247751
30
0
41
1
10
9.06954456848231
20
-7.52745490957165
30
0
41
1
10
9.08803381785285
20
-7.58582842931656
30
0
41
1
10
9.09598671353049
20
-7.61506892024235
30
0
41
1
10
9.10897181139316
20
-7.67372323066982
30
0
41
1
10
9.11401319265903
20
-7.70313598294962
30
0
41
1
10
9.11884877029931
20
-7.7474668422021
30
0
41
1
10
9.12000147891081
20
-7.76232441271668
30
0
41
1
10
9.12122042021221
20
-7.79170522762223
30
0
41
1
10
9.12129429760466
20
-7.80626737706422
30
0
41
1
10
9.12021830987288
20
-7.83511319924989
30
0
41
1
10
9.11906994681604
20
-7.8493971654066
30
0
41
1
10
9.11531396472674
20
-7.87764805350994
30
0
41
1
10
9.11269610856087
20
-7.89166662108806
30
0
41
1
10
9.10567390813671
20
-7.91909321568761
30
0
41
1
10
9.10131552110818
20
-7.93234430281055
30
0
41
1
10
9.09055789385988
20
-7.95775067843093
30
0
41
1
10
9.08416441764288
20
-7.96990907709611
30
0
41
1
10
9.07645702742292
20
-7.98136861437933
30
0
0
SPLINE
5
10F
100
AcDbEntity
8
1
62
256
6
ByLayer
370
18
48
1
60
0
100
AcDbSpline
70
4
71
3
72
8
73
4
40
0
40
0
40
0
40
0
40
1
40
1
40
1
40
1
41
1
10
8.41134335770121
20
-6.86537075857637
30
0
41
1
10
8.41800978109686
20
-6.86491350965866
30
0
41
1
10
8.42467644586307
20
-6.86445624418542
30
0
41
1
10
8.43134335770122
20
-6.8639989617655
30
0
0
SPLINE
5
110
100
AcDbEntity
8
1
62
256
6
ByLayer
370
18
48
1
60
0
100
AcDbSpline
70
4
71
3
72
8
73
4
40
0
40
0
40
0
40
0
40
1
40
1
40
1
40
1
41
1
10
9.06526901653547
20
-7.99800322405019
30
0
41
1
10
9.06899821741186
20
-7.99245855649605
30
0
41
1
10
9.07272755331107
20
-7.98691368818663
30
0
41
1
10
9.07645702742249
20
-7.98136861437996
30
0
0
SPLINE
5
111
100
AcDbEntity
8
1
62
256
6
ByLayer
370
18
48
1
60
0
100
AcDbSpline
70
4
71
3
72
35
73
31
40
0
40
0
40
0
40
0
40
0.124999999999995
40
0.124999999999995
40
0.249999999999991
40
0.249999999999991
40
0.374999999999986
40
0.374999999999986
40
0.437499999999985
40
0.437499999999985
40
0.499999999999984
40
0.499999999999984
40
0.624999999999888
40
0.624999999999888
40
0.68749999999984
40
0.68749999999984
40
0.718749999999859
40
0.718749999999859
40
0.749999999999877
40
0.749999999999877
40
0.812499999999915
40
0.812499999999915
40
0.843749999999929
40
0.843749999999929
40
0.874999999999943
40
0.906249999999957
40
0.906249999999957
40
0.937499999999972
40
0.937499999999972
40
1
40
1
40
1
40
1
41
1
10
12.25335
20
-8.64317350080177
30
0
41
1
10
12.2218096507128
20
-8.66138332995305
30
0
41
1
10
12.189490374237
20
-8.67839719413146
30
0
41
1
10
12.1237129787537
20
-8.70970719878113
30
0
41
1
10
12.0902533796454
20
-8.72401418158768
30
0
41
1
10
12.022077024475
20
-8.74965175088613
30
0
41
1
10
11.9874645320643
20
-8.7609417865207
30
0
41
1
10
11.9349465351857
20
-8.77507016060494
30
0
41
1
10
11.9173258968459
20
-8.77931416728094
30
0
41
1
10
11.8818272466852
20
-8.78674711807253
30
0
41
1
10
11.8639489817297
20
-8.78993414241074
30
0
41
1
10
11.8102567073626
20
-8.79759345910182
30
0
41
1
10
11.774130902445
20
-8.80024100316115
30
0
41
1
10
11.7206110394478
20
-8.79875865959065
30
0
41
1
10
11.7027862202167
20
-8.79733871915826
30
0
41
1
10
11.6765684781
20
-8.79348786646997
30
0
41
1
10
11.6679138069107
20
-8.79191792158272
30
0
41
1
10
11.6507989882047
20
-8.78812859999104
30
0
41
1
10
11.6423105613526
20
-8.78589923775229
30
0
41
1
10
11.6175050061876
20
-8.77818929212845
30
0
41
1
10
11.6017826738296
20
-8.77169768027053
30
0
41
1
10
11.5797621917773
20
-8.75941462487208
30
0
41
1
10
11.5726363663997
20
-8.75485370788164
30
0
41
1
10
11.5593046006298
20
-8.74498059887625
30
0
41
1
10
11.5468697832266
20
-8.7343647594073
30
0
41
1
10
11.5363063743055
20
-8.72220978217953
30
0
41
1
10
11.5267344818352
20
-8.70924363674229
30
0
41
1
10
11.5224986813626
20
-8.70241141534427
30
0
41
1
10
11.5116513285174
20
-8.6813995618524
30
0
41
1
10
11.5067466080384
20
-8.66652420135819
30
0
41
1
10
11.5039256588343
20
-8.65087398262659
30
0
0
SPLINE
5
112
100
AcDbEntity
8
1
62
256
6
ByLayer
370
18
48
1
60
0
100
AcDbSpline
70
4
71
3
72
35
73
31
40
0
40
0
40
0
40
0
40
0.124999999999913
40
0.124999999999913
40
0.249999999999825
40
0.249999999999825
40
0.374999999999738
40
0.374999999999738
40
0.499999999999651
40
0.499999999999651
40
0.562499999999654
40
0.562499999999654
40
0.624999999999657
40
0.624999999999657
40
0.68749999999966
40
0.68749999999966
40
0.718749999999664
40
0.718749999999664
40
0.749999999999669
40
0.749999999999669
40
0.812499999999764
40
0.812499999999764
40
0.843749999999812
40
0.843749999999812
40
0.874999999999859
40
0.906249999999907
40
0.906249999999907
40
0.937499999999955
40
0.937499999999955
40
1
40
1
40
1
40
1
41
1
10
9.44665000000001
20
-8.64317350080177
30
0
41
1
10
9.47818964068196
20
-8.66138292083963
30
0
41
1
10
9.51046839050719
20
-8.67837697738642
30
0
41
1
10
9.57629273042323
20
-8.70971050481415
30
0
41
1
10
9.60975163491116
20
-8.72401520056476
30
0
41
1
10
9.67786697007892
20
-8.74963155624798
30
0
41
1
10
9.71253826253246
20
-8.7609464511672
30
0
41
1
10
9.7827625032925
20
-8.77983031592646
30
0
41
1
10
9.81833340625724
20
-8.78741564107494
30
0
41
1
10
9.87203951844299
20
-8.79506346588289
30
0
41
1
10
9.88997281632203
20
-8.79698377228516
30
0
41
1
10
9.9259069573454
20
-8.79932798716266
30
0
41
1
10
9.94386416844904
20
-8.79974469202384
30
0
41
1
10
9.97935597381525
20
-8.79875746632823
30
0
41
1
10
9.9969404772024
20
-8.797361467049
30
0
41
1
10
10.0229995451175
20
-8.79355973069653
30
0
41
1
10
10.0316325923285
20
-8.79200611890451
30
0
41
1
10
10.0487728263575
20
-8.78823502144431
30
0
41
1
10
10.0572878541331
20
-8.78601111797585
30
0
41
1
10
10.0821395291711
20
-8.77832476797758
30
0
41
1
10
10.0979407419181
20
-8.77183535358151
30
0
41
1
10
10.1201408925116
20
-8.75947685616262
30
0
41
1
10
10.1272692127894
20
-8.75491503959822
30
0
41
1
10
10.1405467941196
20
-8.74509908909576
30
0
41
1
10
10.1529531586215
20
-8.73453518489688
30
0
41
1
10
10.1635286775652
20
-8.72241000149694
30
0
41
1
10
10.1731260577992
20
-8.70945504520631
30
0
41
1
10
10.1774015098716
20
-8.70258536568349
30
0
41
1
10
10.1883183637022
20
-8.68149643111991
30
0
41
1
10
10.1932450184465
20
-8.66657065641084
30
0
41
1
10
10.1960743411658
20
-8.65087398262659
30
0
0
SPLINE
5
113
100
AcDbEntity
8
1
62
256
6
ByLayer
370
18
48
1
60
0
100
AcDbSpline
70
4
71
3
72
52
73
48
40
0
40
0
40
0
40
0
40
0.0156249999999966
40
0.0156249999999966
40
0.031249999999993
40
0.031249999999993
40
0.0624999999999583
40
0.0624999999999583
40
0.0937499999999234
40
0.0937499999999234
40
0.124999999999889
40
0.124999999999889
40
0.187499999999819
40
0.187499999999819
40
0.218749999999807
40
0.218749999999807
40
0.249999999999795
40
0.249999999999795
40
0.312499999999824
40
0.312499999999824
40
0.374999999999853
40
0.374999999999853
40
0.437499999999882
40
0.437499999999882
40
0.499999999999912
40
0.499999999999912
40
0.562499999999941
40
0.562499999999941
40
0.62499999999997
40
0.62499999999997
40
0.687499999999999
40
0.687499999999999
40
0.750000000000028
40
0.750000000000028
40
0.812500000000057
40
0.812500000000057
40
0.843750000000048
40
0.843750000000048
40
0.875000000000038
40
0.875000000000038
40
0.906250000000029
40
0.906250000000029
40
0.937500000000019
40
0.937500000000019
40
0.96875000000001
40
0.96875000000001
40
1
40
1
40
1
40
1
41
1
10
11.495113669721
20
-8.6328675761448
30
0
41
1
10
11.4920990260251
20
-8.62670745734684
30
0
41
1
10
11.488754848497
20
-8.6207124187365
30
0
41
1
10
11.4814752400977
20
-8.60901733542266
30
0
41
1
10
11.477530122633
20
-8.60330725601196
30
0
41
1
10
11.465036014092
20
-8.58676543961826
30
0
41
1
10
11.455799444807
20
-8.5764513342321
30
0
41
1
10
11.4358825121227
20
-8.556944206265
30
0
41
1
10
11.4251988978008
20
-8.54775375527151
30
0
41
1
10
11.4025988849606
20
-8.53031303649445
30
0
41
1
10
11.3907178703132
20
-8.52209723391479
30
0
41
1
10
11.3539498487548
20
-8.49895819268565
30
0
41
1
10
11.3277182279132
20
-8.48538106004091
30
0
41
1
10
11.2869838724418
20
-8.46740525378974
30
0
41
1
10
11.2731526670322
20
-8.46180405245303
30
0
41
1
10
11.245026302879
20
-8.45130093027012
30
0
41
1
10
11.230716835699
20
-8.44639595816329
30
0
41
1
10
11.1873979197549
20
-8.43272454919941
30
0
41
1
10
11.1579223314426
20
-8.42496091323224
30
0
41
1
10
11.0978946737293
20
-8.41176715447494
30
0
41
1
10
11.0673926862304
20
-8.4063585413117
30
0
41
1
10
11.0060055894737
20
-8.39778297277863
30
0
41
1
10
10.9750216614616
20
-8.39459850827842
30
0
41
1
10
10.912616445595
20
-8.39035251302187
30
0
41
1
10
10.8813414520579
20
-8.38929988111559
30
0
41
1
10
10.818647981407
20
-8.38930011890443
30
0
41
1
10
10.7873892421371
20
-8.39035300340259
30
0
41
1
10
10.7250486733737
20
-8.39459284645926
30
0
41
1
10
10.6939791624667
20
-8.39778365887466
30
0
41
1
10
10.6325068591266
20
-8.40637402120996
30
0
41
1
10
10.6019815909538
20
-8.41179123322439
30
0
41
1
10
10.5419844984127
20
-8.42498452043642
30
0
41
1
10
10.5124460327761
20
-8.43276701835157
30
0
41
1
10
10.45462064453
20
-8.45103025940364
30
0
41
1
10
10.4265107120323
20
-8.46144542921462
30
0
41
1
10
10.385757520242
20
-8.47943668870244
30
0
41
1
10
10.372389112788
20
-8.48584384426223
30
0
41
1
10
10.3463676246454
20
-8.49948661436787
30
0
41
1
10
10.3336988865872
20
-8.5067265162659
30
0
41
1
10
10.309145837386
20
-8.52218768811525
30
0
41
1
10
10.2972869483897
20
-8.53039556552199
30
0
41
1
10
10.2747158675302
20
-8.54782515624748
30
0
41
1
10
10.2639477058575
20
-8.55708989396379
30
0
41
1
10
10.2438890811836
20
-8.57677750021983
30
0
41
1
10
10.2346742376354
20
-8.58711831849766
30
0
41
1
10
10.2181902281439
20
-8.60900488229632
30
0
41
1
10
10.2109156426975
20
-8.62054728740904
30
0
41
1
10
10.2048863302787
20
-8.63286757614546
30
0
0
SPLINE
5
114
100
AcDbEntity
8
1
62
256
6
ByLayer
370
18
48
1
60
0
100
AcDbSpline
70
4
71
3
72
8
73
4
40
0
40
0
40
0
40
0
40
1
40
1
40
1
40
1
41
1
10
10.2048863302787
20
-8.63286757614546
30
0
41
1
10
10.201948892552
20
-8.63886993237205
30
0
41
1
10
10.199011563685
20
-8.64487206615473
30
0
41
1
10
10.1960743411658
20
-8.65087398262659
30
0
0
SPLINE
5
115
100
AcDbEntity
8
1
62
256
6
ByLayer
370
18
48
1
60
0
100
AcDbSpline
70
4
71
3
72
8
73
4
40
0
40
0
40
0
40
0
40
1
40
1
40
1
40
1
41
1
10
11.5039256588343
20
-8.65087398262659
30
0
41
1
10
11.500988436315
20
-8.64487206615473
30
0
41
1
10
11.498051107448
20
-8.63886993237205
30
0
41
1
10
11.4951136697213
20
-8.63286757614546
30
0
0
SPLINE
5
116
100
AcDbEntity
8
1
62
256
6
ByLayer
370
18
48
1
60
0
100
AcDbSpline
70
4
71
3
72
35
73
31
40
0
40
0
40
0
40
0
40
0.124999999999961
40
0.124999999999961
40
0.249999999999921
40
0.249999999999921
40
0.374999999999882
40
0.374999999999882
40
0.437499999999863
40
0.437499999999863
40
0.499999999999845
40
0.499999999999845
40
0.624999999999806
40
0.624999999999806
40
0.687499999999786
40
0.687499999999786
40
0.718749999999777
40
0.718749999999777
40
0.749999999999768
40
0.749999999999768
40
0.812499999999833
40
0.812499999999833
40
0.843749999999861
40
0.843749999999861
40
0.874999999999889
40
0.906249999999917
40
0.906249999999917
40
0.937499999999944
40
0.937499999999944
40
1
40
1
40
1
40
1
41
1
10
9.44665000000001
20
-3.78182649919822
30
0
41
1
10
9.47819034928725
20
-3.76361667004696
30
0
41
1
10
9.51050962576309
20
-3.74660280586852
30
0
41
1
10
9.57628702124629
20
-3.71529280121888
30
0
41
1
10
9.60974662035457
20
-3.70098581841228
30
0
41
1
10
9.67792297552504
20
-3.67534824911385
30
0
41
1
10
9.71253546793585
20
-3.66405821347931
30
0
41
1
10
9.76505346481434
20
-3.64992983939504
30
0
41
1
10
9.78267410315419
20
-3.64568583271907
30
0
41
1
10
9.81817275331477
20
-3.63825288192748
30
0
41
1
10
9.83605101827038
20
-3.63506585758921
30
0
41
1
10
9.88974329263741
20
-3.62740654089816
30
0
41
1
10
9.92586909755494
20
-3.62475899683884
30
0
41
1
10
9.9793889605522
20
-3.62624134040937
30
0
41
1
10
9.99721377978335
20
-3.62766128084175
30
0
41
1
10
10.0234315219
20
-3.63151213353001
30
0
41
1
10
10.0320861930893
20
-3.63308207841729
30
0
41
1
10
10.0492010117953
20
-3.63687140000897
30
0
41
1
10
10.0576894386474
20
-3.63910076224772
30
0
41
1
10
10.0824949938124
20
-3.64681070787157
30
0
41
1
10
10.0982173261704
20
-3.65330231972945
30
0
41
1
10
10.1202378082228
20
-3.66558537512793
30
0
41
1
10
10.1273636336003
20
-3.67014629211835
30
0
41
1
10
10.1406953993702
20
-3.68001940112373
30
0
41
1
10
10.1531302167734
20
-3.69063524059268
30
0
41
1
10
10.1636936256945
20
-3.70279021782045
30
0
41
1
10
10.1732655181649
20
-3.7157563632577
30
0
41
1
10
10.1775013186374
20
-3.72258858465574
30
0
41
1
10
10.1883486714826
20
-3.74360043814761
30
0
41
1
10
10.1932533919616
20
-3.7584757986418
30
0
41
1
10
10.1960743411658
20
-3.77412601737342
30
0
0
SPLINE
5
117
100
AcDbEntity
8
1
62
256
6
ByLayer
370
18
48
1
60
0
100
AcDbSpline
70
4
71
3
72
52
73
48
40
0
40
0
40
0
40
0
40
0.0156249999999605
40
0.0156249999999605
40
0.031249999999921
40
0.031249999999921
40
0.0624999999998666
40
0.0624999999998666
40
0.093749999999812
40
0.093749999999812
40
0.124999999999758
40
0.124999999999758
40
0.187499999999697
40
0.187499999999697
40
0.21874999999969
40
0.21874999999969
40
0.249999999999683
40
0.249999999999683
40
0.312499999999721
40
0.312499999999721
40
0.37499999999976
40
0.37499999999976
40
0.437499999999798
40
0.437499999999798
40
0.499999999999837
40
0.499999999999837
40
0.562499999999875
40
0.562499999999875
40
0.624999999999914
40
0.624999999999914
40
0.687499999999952
40
0.687499999999952
40
0.749999999999991
40
0.749999999999991
40
0.812500000000029
40
0.812500000000029
40
0.843750000000024
40
0.843750000000024
40
0.875000000000019
40
0.875000000000019
40
0.906250000000015
40
0.906250000000015
40
0.93750000000001
40
0.93750000000001
40
0.968750000000005
40
0.968750000000005
40
1
40
1
40
1
40
1
41
1
10
10.2048863302791
20
-3.79213242385521
30
0
41
1
10
10.2079009739749
20
-3.79829254265314
30
0
41
1
10
10.2112451515031
20
-3.80428758126348
30
0
41
1
10
10.2185247599024
20
-3.81598266457732
30
0
41
1
10
10.222469877367
20
-3.82169274398805
30
0
41
1
10
10.2349639859081
20
-3.83823456038175
30
0
41
1
10
10.2442005551931
20
-3.84854866576791
30
0
41
1
10
10.2641174878773
20
-3.86805579373498
30
0
41
1
10
10.2748011021992
20
-3.8772462447285
30
0
41
1
10
10.2974011150395
20
-3.89468696350556
30
0
41
1
10
10.3092821296869
20
-3.90290276608522
30
0
41
1
10
10.3460501512452
20
-3.92604180731433
30
0
41
1
10
10.3722817720868
20
-3.93961893995907
30
0
41
1
10
10.4130161275582
20
-3.95759474621025
30
0
41
1
10
10.4268473329677
20
-3.96319594754698
30
0
41
1
10
10.454973697121
20
-3.97369906972989
30
0
41
1
10
10.469283164301
20
-3.97860404183669
30
0
41
1
10
10.5126020802452
20
-3.99227545080061
30
0
41
1
10
10.5420776685575
20
-4.00003908676774
30
0
41
1
10
10.6021053262707
20
-4.01323284552504
30
0
41
1
10
10.6326073137696
20
-4.01864145868828
30
0
41
1
10
10.6939944105264
20
-4.02721702722135
30
0
41
1
10
10.7249783385384
20
-4.03040149172156
30
0
41
1
10
10.787383554405
20
-4.03464748697812
30
0
41
1
10
10.8186585479421
20
-4.03570011888439
30
0
41
1
10
10.881352018593
20
-4.03569988109558
30
0
41
1
10
10.9126107578629
20
-4.03464699659739
30
0
41
1
10
10.9749513266263
20
-4.03040715354075
30
0
41
1
10
11.0060208375333
20
-4.02721634112532
30
0
41
1
10
11.0674931408734
20
-4.01862597879006
30
0
41
1
10
11.0980184090461
20
-4.01320876677559
30
0
41
1
10
11.1580155015873
20
-4.00001547956356
30
0
41
1
10
11.1875539672239
20
-3.99223298164844
30
0
41
1
10
11.2453793554699
20
-3.97396974059635
30
0
41
1
10
11.2734892879678
20
-3.96355457078539
30
0
41
1
10
11.314242479758
20
-3.94556331129755
30
0
41
1
10
11.327610887212
20
-3.93915615573775
30
0
41
1
10
11.3536323753546
20
-3.92551338563212
30
0
41
1
10
11.3663011134129
20
-3.91827348373411
30
0
41
1
10
11.3908541626141
20
-3.90281231188473
30
0
41
1
10
11.4027130516103
20
-3.894604434478
30
0
41
1
10
11.4252841324698
20
-3.8771748437525
30
0
41
1
10
11.4360522941425
20
-3.86791010603619
30
0
41
1
10
11.4561109188164
20
-3.84822249978015
30
0
41
1
10
11.4653257623646
20
-3.83788168150235
30
0
41
1
10
11.4818097718561
20
-3.81599511770369
30
0
41
1
10
11.4890843573025
20
-3.80445271259097
30
0
41
1
10
11.4951136697213
20
-3.79213242385452
30
0
0
SPLINE
5
118
100
AcDbEntity
8
1
62
256
6
ByLayer
370
18
48
1
60
0
100
AcDbSpline
70
4
71
3
72
8
73
4
40
0
40
0
40
0
40
0
40
1
40
1
40
1
40
1
41
1
10
11.4951136697213
20
-3.79213242385452
30
0
41
1
10
11.498051107448
20
-3.78613006762794
30
0
41
1
10
11.500988436315
20
-3.78012793384525
30
0
41
1
10
11.5039256588343
20
-3.77412601737342
30
0
0
SPLINE
5
119
100
AcDbEntity
8
1
62
256
6
ByLayer
370
18
48
1
60
0
100
AcDbSpline
70
4
71
3
72
35
73
31
40
0
40
0
40
0
40
0
40
0.124999999999951
40
0.124999999999951
40
0.249999999999902
40
0.249999999999902
40
0.374999999999853
40
0.374999999999853
40
0.499999999999804
40
0.499999999999804
40
0.562499999999825
40
0.562499999999825
40
0.624999999999847
40
0.624999999999847
40
0.687499999999868
40
0.687499999999868
40
0.718749999999882
40
0.718749999999882
40
0.749999999999896
40
0.749999999999896
40
0.81249999999993
40
0.81249999999993
40
0.84374999999995
40
0.84374999999995
40
0.87499999999997
40
0.90624999999999
40
0.90624999999999
40
0.93750000000001
40
0.93750000000001
40
1
40
1
40
1
40
1
41
1
10
12.25335
20
-3.78182649919819
30
0
41
1
10
12.2218103593181
20
-3.76361707916033
30
0
41
1
10
12.1895316094928
20
-3.74662302261353
30
0
41
1
10
12.1237072695767
20
-3.71528949518583
30
0
41
1
10
12.0902483650889
20
-3.70098479943525
30
0
41
1
10
12.0221330299211
20
-3.67536844375201
30
0
41
1
10
11.9874617374676
20
-3.66405354883281
30
0
41
1
10
11.9172374967075
20
-3.64516968407352
30
0
41
1
10
11.8816665937427
20
-3.63758435892504
30
0
41
1
10
11.8279604815569
20
-3.62993653411709
30
0
41
1
10
11.810027183678
20
-3.62801622771485
30
0
41
1
10
11.7740930426546
20
-3.62567201283736
30
0
41
1
10
11.756135831551
20
-3.62525530797617
30
0
41
1
10
11.7206440261847
20
-3.62624253367176
30
0
41
1
10
11.7030595227976
20
-3.62763853295098
30
0
41
1
10
11.6770004548825
20
-3.63144026930348
30
0
41
1
10
11.6683674076715
20
-3.63299388109547
30
0
41
1
10
11.6512271736425
20
-3.63676497855568
30
0
41
1
10
11.6427121458669
20
-3.63898888202414
30
0
41
1
10
11.6178604708288
20
-3.6466752320224
30
0
41
1
10
11.6020592580819
20
-3.65316464641848
30
0
41
1
10
11.5798591074885
20
-3.66552314383733
30
0
41
1
10
11.5727307872106
20
-3.67008496040177
30
0
41
1
10
11.5594532058804
20
-3.67990091090425
30
0
41
1
10
11.5470468413785
20
-3.69046481510313
30
0
41
1
10
11.5364713224349
20
-3.70258999850304
30
0
41
1
10
11.5268739422009
20
-3.7155449547937
30
0
41
1
10
11.5225984901285
20
-3.72241463431649
30
0
41
1
10
11.5116816362978
20
-3.74350356888007
30
0
41
1
10
11.5067549815536
20
-3.75842934358917
30
0
41
1
10
11.5039256588343
20
-3.77412601737342
30
0
0
SPLINE
5
11A
100
AcDbEntity
8
1
62
256
6
ByLayer
370
18
48
1
60
0
100
AcDbSpline
70
4
71
3
72
8
73
4
40
0
40
0
40
0
40
0
40
1
40
1
40
1
40
1
41
1
10
10.1960743411658
20
-3.77412601737342
30
0
41
1
10
10.199011563685
20
-3.78012793384525
30
0
41
1
10
10.201948892552
20
-3.78613006762794
30
0
41
1
10
10.2048863302787
20
-3.79213242385452
30
0
0
SPLINE
5
11B
100
AcDbEntity
8
1
62
256
6
ByLayer
370
18
48
1
60
0
100
AcDbSpline
70
4
71
3
72
35
73
31
40
0
40
0
40
0
40
0
40
0.124999999999965
40
0.124999999999965
40
0.24999999999993
40
0.24999999999993
40
0.374999999999895
40
0.374999999999895
40
0.49999999999986
40
0.49999999999986
40
0.562499999999878
40
0.562499999999878
40
0.624999999999896
40
0.624999999999896
40
0.687499999999914
40
0.687499999999914
40
0.718749999999926
40
0.718749999999926
40
0.749999999999937
40
0.749999999999937
40
0.81249999999995
40
0.81249999999995
40
0.843749999999956
40
0.843749999999956
40
0.874999999999963
40
0.906249999999969
40
0.906249999999969
40
0.937499999999975
40
0.937499999999975
40
1
40
1
40
1
40
1
41
1
10
12.25335
20
-8.64317350080177
30
0
41
1
10
12.2848896406819
20
-8.6249640807639
30
0
41
1
10
12.3157463002774
20
-8.60550689168625
30
0
41
1
10
12.3757941009781
20
-8.56416810484546
30
0
41
1
10
12.4049117831354
20
-8.54234419145143
30
0
41
1
10
12.4611538654934
20
-8.49616275865048
30
0
41
1
10
12.4882884981613
20
-8.47179398606326
30
0
41
1
10
12.5397545251445
20
-8.4204199419832
30
0
41
1
10
12.5641090609014
20
-8.39340729895446
30
0
41
1
10
12.5975853275617
20
-8.35072035386705
30
0
41
1
10
12.6082150106286
20
-8.33614981553129
30
0
41
1
10
12.6282122307761
20
-8.30620204398062
30
0
41
1
10
12.6375517133236
20
-8.2908589954144
30
0
41
1
10
12.6544426534751
20
-8.25962857749326
30
0
41
1
10
12.6620259343292
20
-8.24370195120747
30
0
41
1
10
12.671763068027
20
-8.21923326821775
30
0
41
1
10
12.6747341243529
20
-8.21098002412504
30
0
41
1
10
12.6800383751668
20
-8.19425059729892
30
0
41
1
10
12.6823699321554
20
-8.18576441519713
30
0
41
1
10
12.6881391953135
20
-8.16039905828848
30
0
41
1
10
12.6904198039643
20
-8.143470099441
30
0
41
1
10
12.6908171065436
20
-8.11806495634974
30
0
41
1
10
12.6904306176504
20
-8.10961074162057
30
0
41
1
10
12.6885685458181
20
-8.0932040436366
30
0
41
1
10
12.6856233229537
20
-8.07717779386508
30
0
41
1
10
12.6804101612916
20
-8.06195660494652
30
0
41
1
10
12.673989530156
20
-8.04716755170884
30
0
41
1
10
12.6701779392096
20
-8.04003006183999
30
0
41
1
10
12.6573728130541
20
-8.02003132181147
30
0
41
1
10
12.6469100403569
20
-8.00830182629278
30
0
41
1
10
12.6347309834646
20
-7.99800322405019
30
0
0
SPLINE
5
11C
100
AcDbEntity
8
1
62
256
6
ByLayer
370
18
48
1
60
0
100
AcDbSpline
70
4
71
3
72
35
73
31
40
0
40
0
40
0
40
0
40
0.125000000000014
40
0.125000000000014
40
0.250000000000028
40
0.250000000000028
40
0.375000000000042
40
0.375000000000042
40
0.437500000000036
40
0.437500000000036
40
0.500000000000029
40
0.500000000000029
40
0.624999999999996
40
0.624999999999996
40
0.687499999999984
40
0.687499999999984
40
0.718749999999942
40
0.718749999999942
40
0.7499999999999
40
0.7499999999999
40
0.812499999999882
40
0.812499999999882
40
0.843749999999916
40
0.843749999999916
40
0.874999999999949
40
0.906249999999983
40
0.906249999999983
40
0.937500000000016
40
0.937500000000016
40
1
40
1
40
1
40
1
41
1
10
13.6567
20
-6.21250000000001
30
0
41
1
10
13.6567
20
-6.24891965830255
30
0
41
1
10
13.6552748003571
20
-6.28541590485179
30
0
41
1
10
13.6495013620347
20
-6.35803580265988
30
0
41
1
10
13.6451617730426
20
-6.39416615689143
30
0
41
1
10
13.6332763817611
20
-6.46602739705563
30
0
41
1
10
13.6257475932248
20
-6.50164771258898
30
0
41
1
10
13.6117241256567
20
-6.55419381908374
30
0
41
1
10
13.6065892240819
20
-6.57157574285495
30
0
41
1
10
13.5952770232123
20
-6.6060349510899
30
0
41
1
10
13.5890979347739
20
-6.62311149488613
30
0
41
1
10
13.5688849604204
20
-6.67344002682052
30
0
41
1
10
13.5531148983747
20
-6.70604966364092
30
0
41
1
10
13.5250712196869
20
-6.75165805281836
30
0
41
1
10
13.514929105585
20
-6.76638482887418
30
0
41
1
10
13.4984852982724
20
-6.78716463323292
30
0
41
1
10
13.4927983505228
20
-6.79387482590065
30
0
41
1
10
13.4809592924083
20
-6.80680203288534
30
0
41
1
10
13.4747843946493
20
-6.81303854505808
30
0
41
1
10
13.4557046082948
20
-6.83066581317402
30
0
41
1
10
13.4422215413353
20
-6.84103594647388
30
0
41
1
10
13.4205738622979
20
-6.8539647156355
30
0
41
1
10
13.4130610796309
20
-6.85785540294017
30
0
41
1
10
13.397844833533
20
-6.86446449627152
30
0
41
1
10
13.3824338381688
20
-6.8699254442997
30
0
41
1
10
13.3666256146466
20
-6.87299613616199
30
0
41
1
10
13.3506106570736
20
-6.87480256548497
30
0
41
1
10
13.3425758795424
20
-6.87505476560054
30
0
41
1
10
13.3189554042151
20
-6.87394292198246
30
0
41
1
10
13.3036206038973
20
-6.87075285426857
30
0
41
1
10
13.2886566422988
20
-6.86537075857637
30
0
0
SPLINE
5
11D
100
AcDbEntity
8
1
62
256
6
ByLayer
370
18
48
1
60
0
100
AcDbSpline
70
4
71
3
72
52
73
48
40
0
40
0
40
0
40
0
40
0.0156249999999926
40
0.0156249999999926
40
0.0312499999999853
40
0.0312499999999853
40
0.0624999999999699
40
0.0624999999999699
40
0.0937499999999546
40
0.0937499999999546
40
0.124999999999939
40
0.124999999999939
40
0.187499999999951
40
0.187499999999951
40
0.218749999999955
40
0.218749999999955
40
0.249999999999959
40
0.249999999999959
40
0.312499999999962
40
0.312499999999962
40
0.374999999999965
40
0.374999999999965
40
0.437499999999968
40
0.437499999999968
40
0.499999999999972
40
0.499999999999972
40
0.562499999999975
40
0.562499999999975
40
0.624999999999978
40
0.624999999999978
40
0.687499999999981
40
0.687499999999981
40
0.749999999999984
40
0.749999999999984
40
0.812499999999988
40
0.812499999999988
40
0.84374999999999
40
0.84374999999999
40
0.874999999999992
40
0.874999999999992
40
0.906249999999994
40
0.906249999999994
40
0.937499999999996
40
0.937499999999996
40
0.968749999999998
40
0.968749999999998
40
1
40
1
40
1
40
1
41
1
10
13.268656642298
20
-6.86399896176545
30
0
41
1
10
13.2618145010808
20
-6.86352966039041
30
0
41
1
10
13.2549505565835
20
-6.8634282837794
30
0
41
1
10
13.2411825131347
20
-6.86388506792591
30
0
41
1
10
13.2342648805751
20
-6.86444660016582
30
0
41
1
10
13.2136921930828
20
-6.86699590736319
30
0
41
1
10
13.2001416311586
20
-6.86983795831469
30
0
41
1
10
13.1732894964421
20
-6.8773329640012
30
0
41
1
10
13.1599885252485
20
-6.88199001991146
30
0
41
1
10
13.1335844133072
20
-6.89284184576846
30
0
41
1
10
13.120528812237
20
-6.89902320498601
30
0
41
1
10
13.0821058039342
20
-6.91929572508789
30
0
41
1
10
13.0572318517325
20
-6.93522440879676
30
0
41
1
10
13.0212971691298
20
-6.96151349231619
30
0
41
1
10
13.0095307837758
20
-6.97069106689747
30
0
41
1
10
12.9863716310697
20
-6.98979765167877
30
0
41
1
10
12.9749690670303
20
-6.99973752771788
30
0
41
1
10
12.9414698215899
20
-7.03041710490797
30
0
41
1
10
12.9200085214605
20
-7.05206189519436
30
0
41
1
10
12.8785685623486
20
-7.09745049232504
30
0
41
1
10
12.8586335722006
20
-7.12116168178332
30
0
41
1
10
12.8205133636207
20
-7.1700366827728
30
0
41
1
10
12.80226357246
20
-7.19527731929014
30
0
41
1
10
12.7673838247702
20
-7.247198823931
30
0
41
1
10
12.75083472203
20
-7.27375744688416
30
0
41
1
10
12.7194881926356
20
-7.32805170401372
30
0
41
1
10
12.7047706477234
20
-7.35564900856076
30
0
41
1
10
12.6772721751369
20
-7.4117574463246
30
0
41
1
10
12.6645007442938
20
-7.44025983826086
30
0
41
1
10
12.6412040646339
20
-7.49779159575013
30
0
41
1
10
12.6306328737697
20
-7.52693585945235
30
0
41
1
10
12.6120600493841
20
-7.58549150935221
30
0
41
1
10
12.6040306574652
20
-7.61496381993993
30
0
41
1
10
12.5909343940488
20
-7.67417369567065
30
0
41
1
10
12.5858992294409
20
-7.70372519621796
30
0
41
1
10
12.5811035213083
20
-7.74801412533753
30
0
41
1
10
12.5799680770621
20
-7.76279508358073
30
0
41
1
10
12.5787723184802
20
-7.79215173840939
30
0
41
1
10
12.5787078884157
20
-7.80674313835067
30
0
41
1
10
12.5798211314089
20
-7.83573728862396
30
0
41
1
10
12.5809999172562
20
-7.85011132645875
30
0
41
1
10
12.5848088451723
20
-7.87837325123664
30
0
41
1
10
12.5874482625576
20
-7.8923311216555
30
0
41
1
10
12.5944689173782
20
-7.919546203316
30
0
41
1
10
12.5988169069286
20
-7.93269690105959
30
0
41
1
10
12.6095292224339
20
-7.95791575393477
30
0
41
1
10
12.6158879457592
20
-7.96998693228971
30
0
41
1
10
12.6235429725775
20
-7.98136861437996
30
0
0
SPLINE
5
11E
100
AcDbEntity
8
1
62
256
6
ByLayer
370
18
48
1
60
0
100
AcDbSpline
70
4
71
3
72
8
73
4
40
0
40
0
40
0
40
0
40
1
40
1
40
1
40
1
41
1
10
12.6235429725775
20
-7.98136861437996
30
0
41
1
10
12.6272724466889
20
-7.98691368818663
30
0
41
1
10
12.6310017825881
20
-7.99245855649605
30
0
41
1
10
12.6347309834646
20
-7.99800322405019
30
0
0
SPLINE
5
11F
100
AcDbEntity
8
1
62
256
6
ByLayer
370
18
48
1
60
0
100
AcDbSpline
70
4
71
3
72
8
73
4
40
0
40
0
40
0
40
0
40
1
40
1
40
1
40
1
41
1
10
13.2886566422988
20
-6.86537075857637
30
0
41
1
10
13.2819902189031
20
-6.86491350965866
30
0
41
1
10
13.2753235541369
20
-6.86445624418542
30
0
41
1
10
13.2686566422988
20
-6.8639989617655
30
0
0
SPLINE
5
120
100
AcDbEntity
8
1
62
256
6
ByLayer
370
18
48
1
60
0
100
AcDbSpline
70
4
71
3
72
52
73
48
40
0
40
0
40
0
40
0
40
0.0156250000000034
40
0.0156250000000034
40
0.0312500000000067
40
0.0312500000000067
40
0.0625000000000133
40
0.0625000000000133
40
0.0937500000000201
40
0.0937500000000201
40
0.125000000000027
40
0.125000000000027
40
0.187500000000032
40
0.187500000000032
40
0.218750000000037
40
0.218750000000037
40
0.250000000000042
40
0.250000000000042
40
0.312500000000038
40
0.312500000000038
40
0.375000000000033
40
0.375000000000033
40
0.437500000000029
40
0.437500000000029
40
0.500000000000024
40
0.500000000000024
40
0.56250000000002
40
0.56250000000002
40
0.625000000000015
40
0.625000000000015
40
0.687500000000011
40
0.687500000000011
40
0.750000000000006
40
0.750000000000006
40
0.812500000000002
40
0.812500000000002
40
0.843750000000002
40
0.843750000000002
40
0.875000000000001
40
0.875000000000001
40
0.906250000000001
40
0.906250000000001
40
0.937500000000001
40
0.937500000000001
40
0.96875
40
0.96875
40
1
40
1
40
1
40
1
41
1
10
12.6235429725771
20
-4.44363138562065
30
0
41
1
10
12.6197154750556
20
-4.44932220304355
30
0
41
1
10
12.6161957080865
20
-4.45521586504287
30
0
41
1
10
12.609707273037
20
-4.46736773250322
30
0
41
1
10
12.6067347579419
20
-4.47363934415384
30
0
41
1
10
12.5986561789909
20
-4.49273046774491
30
0
41
1
10
12.5943421863517
20
-4.50588662408259
30
0
41
1
10
12.5874069843194
20
-4.5328887577362
30
0
41
1
10
12.5847896274477
20
-4.54673626463992
30
0
41
1
10
12.5809855283467
20
-4.57502880927402
30
0
41
1
10
12.5798109419239
20
-4.58942597107122
30
0
41
1
10
12.5781559551794
20
-4.63283753240222
30
0
41
1
10
12.5795136238193
20
-4.66234334875585
30
0
41
1
10
12.584313296688
20
-4.70660823852648
30
0
41
1
10
12.5863781167435
20
-4.72138701444442
30
0
41
1
10
12.5913453281906
20
-4.75099672140865
30
0
41
1
10
12.5942522313313
20
-4.76584156955457
30
0
41
1
10
12.6040719018351
20
-4.81019255570857
30
0
41
1
10
12.612086190018
20
-4.83960098196212
30
0
41
1
10
12.6306738886194
20
-4.89818333785007
30
0
41
1
10
12.6412408859702
20
-4.92730314047162
30
0
41
1
10
12.6645077741471
20
-4.98475370999415
30
0
41
1
10
12.6772419109985
20
-5.01317881101173
30
0
41
1
10
12.7047673791752
20
-5.06934631090911
30
0
41
1
10
12.7194932699721
20
-5.09695756576855
30
0
41
1
10
12.7508402112288
20
-5.15125158510932
30
0
41
1
10
12.7673814055863
20
-5.17779600515817
30
0
41
1
10
12.8022235017632
20
-5.22966459986537
30
0
41
1
10
12.820521581827
20
-5.2549761793862
30
0
41
1
10
12.8586972055072
20
-5.30391757454021
30
0
41
1
10
12.8786512828157
20
-5.32764462622794
30
0
41
1
10
12.9200755509714
20
-5.37300698891582
30
0
41
1
10
12.9415846246892
20
-5.3946968015884
30
0
41
1
10
12.9863137495187
20
-5.43564343626704
30
0
41
1
10
13.0093885174086
20
-5.45477976700334
30
0
41
1
10
13.0453460010663
20
-5.48107743663508
30
0
41
1
10
13.0575789642741
20
-5.4894512393185
30
0
41
1
10
13.0824046938349
20
-5.5051651240415
30
0
41
1
10
13.0950090018286
20
-5.5125166220848
30
0
41
1
10
13.120675294023
20
-5.52604960050871
30
0
41
1
10
13.1337129688665
20
-5.53221576093677
30
0
41
1
10
13.1600929776421
20
-5.54304809498916
30
0
41
1
10
13.1735005567002
20
-5.54774122769172
30
0
41
1
10
13.2005798361945
20
-5.55526870309617
30
0
41
1
10
13.2141426692932
20
-5.55807858256193
30
0
41
1
10
13.2413389942901
20
-5.56141087163846
30
0
41
1
10
13.2549723030617
20
-5.56193964488071
30
0
41
1
10
13.2686566422988
20
-5.56100103823448
30
0
0
SPLINE
5
121
100
AcDbEntity
8
1
62
256
6
ByLayer
370
18
48
1
60
0
100
AcDbSpline
70
4
71
3
72
8
73
4
40
0
40
0
40
0
40
0
40
1
40
1
40
1
40
1
41
1
10
13.2686566422988
20
-5.56100103823448
30
0
41
1
10
13.2753235541369
20
-5.56054375581459
30
0
41
1
10
13.2819902189031
20
-5.56008649034132
30
0
41
1
10
13.2886566422988
20
-5.55962924142364
30
0
0
SPLINE
5
122
100
AcDbEntity
8
1
62
256
6
ByLayer
370
18
48
1
60
0
100
AcDbSpline
70
4
71
3
72
35
73
31
40
0
40
0
40
0
40
0
40
0.125000000000062
40
0.125000000000062
40
0.250000000000124
40
0.250000000000124
40
0.375000000000186
40
0.375000000000186
40
0.500000000000248
40
0.500000000000248
40
0.562500000000286
40
0.562500000000286
40
0.625000000000324
40
0.625000000000324
40
0.687500000000362
40
0.687500000000362
40
0.71875000000035
40
0.71875000000035
40
0.750000000000339
40
0.750000000000339
40
0.812500000000257
40
0.812500000000257
40
0.843750000000216
40
0.843750000000216
40
0.875000000000175
40
0.906250000000134
40
0.906250000000134
40
0.937500000000094
40
0.937500000000094
40
1
40
1
40
1
40
1
41
1
10
13.6567
20
-6.21250000000001
30
0
41
1
10
13.6567
20
-6.17608115992428
30
0
41
1
10
13.6552779097703
20
-6.13962991429986
30
0
41
1
10
13.6495013705548
20
-6.06695760003134
30
0
41
1
10
13.6451601482242
20
-6.0308289908867
30
0
41
1
10
13.6332868954144
20
-5.95903120240251
30
0
41
1
10
13.6257502356289
20
-5.9233475348961
30
0
41
1
10
13.606992021852
20
-5.85308962605677
30
0
41
1
10
13.5957756546441
20
-5.81849165787949
30
0
41
1
10
13.5755458091187
20
-5.76815688798416
30
0
41
1
10
13.5682421943066
20
-5.75166604324616
30
0
41
1
10
13.5523052734307
20
-5.719374056818
30
0
41
1
10
13.5436875448746
20
-5.70361430339059
30
0
41
1
10
13.5250866796598
20
-5.67337111116504
30
0
41
1
10
13.5150854571268
20
-5.6588404841585
30
0
41
1
10
13.4987635229095
20
-5.63817353752125
30
0
41
1
10
13.4931015320245
20
-5.63147390522053
30
0
41
1
10
13.4812655488093
20
-5.61851557585462
30
0
41
1
10
13.4750820780223
20
-5.61225329722126
30
0
41
1
10
13.4559996661423
20
-5.5945742903109
30
0
41
1
10
13.4424790620462
20
-5.5841347458595
30
0
41
1
10
13.4206762140321
20
-5.5710881001871
30
0
41
1
10
13.4131614048609
20
-5.56719570202236
30
0
41
1
10
13.3980217516984
20
-5.56060495454085
30
0
41
1
10
13.3826700008367
20
-5.55514246747541
30
0
41
1
10
13.3668814837264
20
-5.55204660344958
30
0
41
1
10
13.3508634723568
20
-5.55021250650253
30
0
41
1
10
13.342776429338
20
-5.5499446961565
30
0
41
1
10
13.3190544493519
20
-5.55103489069157
30
0
41
1
10
13.3036650219105
20
-5.55423116988194
30
0
41
1
10
13.2886566422988
20
-5.55962924142364
30
0
0
SPLINE
5
123
100
AcDbEntity
8
1
62
256
6
ByLayer
370
18
48
1
60
0
100
AcDbSpline
70
4
71
3
72
35
73
31
40
0
40
0
40
0
40
0
40
0.125000000000091
40
0.125000000000091
40
0.250000000000181
40
0.250000000000181
40
0.375000000000272
40
0.375000000000272
40
0.437500000000283
40
0.437500000000283
40
0.500000000000294
40
0.500000000000294
40
0.625000000000315
40
0.625000000000315
40
0.687500000000304
40
0.687500000000304
40
0.718750000000278
40
0.718750000000278
40
0.750000000000252
40
0.750000000000252
40
0.812500000000192
40
0.812500000000192
40
0.843750000000161
40
0.843750000000161
40
0.875000000000131
40
0.9062500000001
40
0.9062500000001
40
0.93750000000007
40
0.93750000000007
40
1
40
1
40
1
40
1
41
1
10
12.25335
20
-3.78182649919819
30
0
41
1
10
12.2848903492871
20
-3.80003632834948
30
0
41
1
10
12.3157844261201
20
-3.8195187107203
30
0
41
1
10
12.375788383281
20
-3.86082860387876
30
0
41
1
10
12.4049083933971
20
-3.8826519753037
30
0
41
1
10
12.461199357286
20
-3.92887564616947
30
0
41
1
10
12.4882830611606
20
-3.95320592606825
30
0
41
1
10
12.5267775904709
20
-3.99162365847877
30
0
41
1
10
12.5392633272362
20
-4.00476157557398
30
0
41
1
10
12.5634497765271
20
-4.03178783301735
30
0
41
1
10
12.5751489530443
20
-4.04567735247534
30
0
41
1
10
12.6086282530579
20
-4.08834656771867
30
0
41
1
10
12.6289839959296
20
-4.11830866047976
30
0
41
1
10
12.6544601802391
20
-4.16539939322772
30
0
41
1
10
12.6621428853684
20
-4.18154610971592
30
0
41
1
10
12.6719168201724
20
-4.20617676676292
30
0
41
1
10
12.6748845436122
20
-4.21445690431793
30
0
41
1
10
12.6801603042036
20
-4.23117343289431
30
0
41
1
10
12.6824738332967
20
-4.23963930730577
30
0
41
1
10
12.6881996021072
20
-4.26497652104558
30
0
41
1
10
12.6904388675057
20
-4.2818382662033
30
0
41
1
10
12.6908116705208
20
-4.30705009076342
30
0
41
1
10
12.6904247132312
20
-4.31550169505852
30
0
41
1
10
12.6885402329032
20
-4.33198389739525
30
0
41
1
10
12.6855640549422
20
-4.34806068489237
30
0
41
1
10
12.680319240341
20
-4.36328635398246
30
0
41
1
10
12.6738761752384
20
-4.37805892874269
30
0
41
1
10
12.6700771981797
20
-4.38514335025627
30
0
41
1
10
12.6573040756978
20
-4.40504336013007
30
0
41
1
10
12.6468739958589
20
-4.41672865291039
30
0
41
1
10
12.6347309834646
20
-4.42699677594979
30
0
0
SPLINE
5
124
100
AcDbEntity
8
1
62
256
6
ByLayer
370
18
48
1
60
0
100
AcDbSpline
70
4
71
3
72
8
73
4
40
0
40
0
40
0
40
0
40
1
40
1
40
1
40
1
41
1
10
12.6347309834646
20
-4.42699677594979
30
0
41
1
10
12.6310017825881
20
-4.43254144350394
30
0
41
1
10
12.6272724466889
20
-4.43808631181335
30
0
41
1
10
12.6235429725775
20
-4.44363138562005
30
0
0
SPLINE
5
125
100
AcDbEntity
8
1
62
256
6
ByLayer
370
18
48
1
60
0
100
AcDbSpline
70
4
71
3
72
39
73
35
40
0
40
0
40
0
40
0
40
0.124999999999928
40
0.124999999999928
40
0.249999999999855
40
0.249999999999855
40
0.374999999999783
40
0.374999999999783
40
0.437499999999747
40
0.437499999999747
40
0.499999999999712
40
0.499999999999712
40
0.562499999999677
40
0.562499999999677
40
0.624999999999642
40
0.624999999999642
40
0.687499999999607
40
0.687499999999607
40
0.718749999999615
40
0.718749999999615
40
0.749999999999623
40
0.749999999999623
40
0.812499999999713
40
0.812499999999713
40
0.843749999999761
40
0.843749999999761
40
0.874999999999808
40
0.874999999999808
40
0.906249999999856
40
0.906249999999856
40
0.937499999999904
40
0.968749999999952
40
0.968749999999952
40
1
40
1
40
1
40
1
41
1
10
8.04330000000002
20
-6.21250000000001
30
0
41
1
10
8.04330000000004
20
-6.17607512771409
30
0
41
1
10
8.0447238550399
20
-6.13961490530141
30
0
41
1
10
8.05049351909858
20
-6.06701470204547
30
0
41
1
10
8.05484357597848
20
-6.03080358400578
30
0
41
1
10
8.0667145448372
20
-5.95902538098457
30
0
41
1
10
8.07424456953092
20
-5.92338125753628
30
0
41
1
10
8.08828090795316
20
-5.87078751800425
30
0
41
1
10
8.09341610659922
20
-5.85340852603801
30
0
41
1
10
8.10471271502138
20
-5.81899580130201
30
0
41
1
10
8.11088343987402
20
-5.80193924755429
30
0
41
1
10
8.12434390672371
20
-5.76841514957079
30
0
41
1
10
8.13163537657337
20
-5.75193306666966
30
0
41
1
10
8.14755319687731
20
-5.71964218825116
30
0
41
1
10
8.15614181044199
20
-5.70391597620562
30
0
41
1
10
8.17470114345105
20
-5.67369236324427
30
0
41
1
10
8.18468343161911
20
-5.65916176511163
30
0
41
1
10
8.20098415609399
20
-5.63847918431364
30
0
41
1
10
8.20664030090569
20
-5.63177172627775
30
0
41
1
10
8.21846834244701
20
-5.61879240283741
30
0
41
1
10
8.2246350839479
20
-5.6125321669324
30
0
41
1
10
8.24367423374323
20
-5.5948438972305
30
0
41
1
10
8.25717353606143
20
-5.58438164827837
30
0
41
1
10
8.27896739641469
20
-5.57128255393252
30
0
41
1
10
8.28645931988757
20
-5.56738131314253
30
0
41
1
10
8.3016150975418
20
-5.56074352399517
30
0
41
1
10
8.30932036565429
20
-5.55798072438861
30
0
41
1
10
8.32499862672259
20
-5.55364190392157
30
0
41
1
10
8.33303688034732
20
-5.55206048207364
30
0
41
1
10
8.34905029457576
20
-5.55021789649328
30
0
41
1
10
8.36494373139351
20
-5.54967684233847
30
0
41
1
10
8.38060386180402
20
-5.55161636079424
30
0
41
1
10
8.39614981033506
20
-5.55475810715626
30
0
41
1
10
8.40384154751052
20
-5.55693106153018
30
0
41
1
10
8.41134335770121
20
-5.55962924142364
30
0
0
SPLINE
5
126
100
AcDbEntity
8
1
62
256
6
ByLayer
370
18
48
1
60
0
100
AcDbSpline
70
4
71
3
72
8
73
4
40
0
40
0
40
0
40
0
40
1
40
1
40
1
40
1
41
1
10
9.07645702742249
20
-4.44363138562005
30
0
41
1
10
9.07272755331107
20
-4.43808631181335
30
0
41
1
10
9.06899821741186
20
-4.43254144350394
30
0
41
1
10
9.06526901653547
20
-4.42699677594979
30
0
0
SPLINE
5
127
100
AcDbEntity
8
1
62
256
6
ByLayer
370
18
48
1
60
0
100
AcDbSpline
70
4
71
3
72
35
73
31
40
0
40
0
40
0
40
0
40
0.125000000000035
40
0.125000000000035
40
0.25000000000007
40
0.25000000000007
40
0.375000000000104
40
0.375000000000104
40
0.500000000000139
40
0.500000000000139
40
0.562500000000127
40
0.562500000000127
40
0.625000000000116
40
0.625000000000116
40
0.687500000000104
40
0.687500000000104
40
0.71875000000009
40
0.71875000000009
40
0.750000000000076
40
0.750000000000076
40
0.812500000000043
40
0.812500000000043
40
0.843750000000033
40
0.843750000000033
40
0.875000000000022
40
0.906250000000011
40
0.906250000000011
40
0.937500000000001
40
0.937500000000001
40
1
40
1
40
1
40
1
41
1
10
9.44665000000001
20
-3.78182649919822
30
0
41
1
10
9.41511035931808
20
-3.80003591923605
30
0
41
1
10
9.38425369972259
20
-3.81949310831374
30
0
41
1
10
9.32420589902199
20
-3.86083189515452
30
0
41
1
10
9.2950882168646
20
-3.88265580854855
30
0
41
1
10
9.23884613450659
20
-3.92883724134953
30
0
41
1
10
9.21171150183866
20
-3.95320601393672
30
0
41
1
10
9.16024547485549
20
-4.00458005801679
30
0
41
1
10
9.13589093909857
20
-4.03159270104552
30
0
41
1
10
9.1024146724383
20
-4.07427964613294
30
0
41
1
10
9.09178498937135
20
-4.08885018446867
30
0
41
1
10
9.07178776922387
20
-4.11879795601936
30
0
41
1
10
9.06244828667639
20
-4.13414100458556
30
0
41
1
10
9.04555734652496
20
-4.16537142250672
30
0
41
1
10
9.03797406567085
20
-4.18129804879248
30
0
41
1
10
9.02823693197303
20
-4.20576673178223
30
0
41
1
10
9.02526587564705
20
-4.21401997587495
30
0
41
1
10
9.0199616248332
20
-4.23074940270106
30
0
41
1
10
9.01763006784464
20
-4.23923558480288
30
0
41
1
10
9.01186080468656
20
-4.26460094171151
30
0
41
1
10
9.00958019603576
20
-4.28152990055898
30
0
41
1
10
9.00918289345628
20
-4.30693504365024
30
0
41
1
10
9.00956938234953
20
-4.31538925837941
30
0
41
1
10
9.01143145418192
20
-4.33179595636338
30
0
41
1
10
9.01437688133035
20
-4.34782213529007
30
0
41
1
10
9.01958983870844
20
-4.36304339505347
30
0
41
1
10
9.02601046984401
20
-4.37783244829114
30
0
41
1
10
9.02982206079045
20
-4.38496993816
30
0
41
1
10
9.04262718694591
20
-4.40496867818851
30
0
41
1
10
9.05308995964299
20
-4.4166981737072
30
0
41
1
10
9.06526901653547
20
-4.42699677594979
30
0
0
SPLINE
5
128
100
AcDbEntity
8
1
62
256
6
ByLayer
370
18
48
1
60
0
100
AcDbSpline
70
4
71
3
72
8
73
4
40
0
40
0
40
0
40
0
40
1
40
1
40
1
40
1
41
1
10
8.43134335770122
20
-5.56100103823448
30
0
41
1
10
8.42467644586307
20
-5.56054375581459
30
0
41
1
10
8.41800978109686
20
-5.56008649034132
30
0
41
1
10
8.41134335770121
20
-5.55962924142364
30
0
0
SPLINE
5
129
100
AcDbEntity
8
1
62
256
6
ByLayer
370
18
48
1
60
0
100
AcDbSpline
70
4
71
3
72
50
73
46
40
0
40
0
40
0
40
0
40
0.0312499999999768
40
0.0312499999999768
40
0.0468749999999776
40
0.0468749999999776
40
0.0624999999999784
40
0.0624999999999784
40
0.125
40
0.125
40
0.156250000000008
40
0.156250000000008
40
0.187500000000016
40
0.187500000000016
40
0.250000000000027
40
0.250000000000027
40
0.281250000000037
40
0.281250000000037
40
0.312500000000046
40
0.312500000000046
40
0.375000000000042
40
0.375000000000042
40
0.500000000000033
40
0.500000000000033
40
0.562500000000014
40
0.562500000000014
40
0.624999999999996
40
0.624999999999996
40
0.687499999999977
40
0.687499999999977
40
0.749999999999959
40
0.749999999999959
40
0.81249999999994
40
0.81249999999994
40
0.84374999999995
40
0.84374999999995
40
0.87499999999996
40
0.87499999999996
40
0.90624999999997
40
0.90624999999997
40
0.93749999999998
40
0.93749999999998
40
0.96874999999999
40
0.96874999999999
40
1
40
1
40
1
40
1
41
1
10
9.07645702742249
20
-4.44363138562005
30
0
41
1
10
9.08415517207391
20
-4.4550771763646
30
0
41
1
10
9.09055860981161
20
-4.46724594547794
30
0
41
1
10
9.09864629814791
20
-4.48635431479434
30
0
41
1
10
9.10108663994106
20
-4.49286781283899
30
0
41
1
10
9.10550284079798
20
-4.50615845177879
30
0
41
1
10
9.10748277896727
20
-4.51295506284353
30
0
41
1
10
9.11622751106898
20
-4.54719359403347
30
0
41
1
10
9.1196970276095
20
-4.57552947306951
30
0
41
1
10
9.12129975651541
20
-4.61907265245122
30
0
41
1
10
9.12121171929721
20
-4.63381050135851
30
0
41
1
10
9.11996535353609
20
-4.66322900036351
30
0
41
1
10
9.1188112768269
20
-4.67794548757499
30
0
41
1
10
9.11396917678795
20
-4.7221277659915
30
0
41
1
10
9.10891434937494
20
-4.75162658615835
30
0
41
1
10
9.09906532988114
20
-4.79597832708532
30
0
41
1
10
9.0953914787257
20
-4.81081203871076
30
0
41
1
10
9.08736475443868
20
-4.84036519123396
30
0
41
1
10
9.08302643836507
20
-4.8550378926399
30
0
41
1
10
9.06911657769001
20
-4.89877413493534
30
0
41
1
10
9.05865561353016
20
-4.92755778067797
30
0
41
1
10
9.02408187454381
20
-5.01292997989611
30
0
41
1
10
8.99683327380154
20
-5.06855968660889
30
0
41
1
10
8.94981814447326
20
-5.15016929132932
30
0
41
1
10
8.93326614252067
20
-5.17678387935081
30
0
41
1
10
8.89840650076786
20
-5.22877313513862
30
0
41
1
10
8.88009441574181
20
-5.25414691385555
30
0
41
1
10
8.84188680917876
20
-5.30320719398003
30
0
41
1
10
8.82191391258354
20
-5.32699243238659
30
0
41
1
10
8.78044449864436
20
-5.37246990720172
30
0
41
1
10
8.75891314577544
20
-5.39421265310662
30
0
41
1
10
8.71412603796082
20
-5.43526872099028
30
0
41
1
10
8.69102068527602
20
-5.45445628633402
30
0
41
1
10
8.65501468557073
20
-5.48082546819029
30
0
41
1
10
8.64276461210889
20
-5.48922259943248
30
0
41
1
10
8.61790224678606
20
-5.50498171925366
30
0
41
1
10
8.60527921886271
20
-5.51235462142839
30
0
41
1
10
8.5795745248287
20
-5.52592770307237
30
0
41
1
10
8.56651559625374
20
-5.5321132946041
30
0
41
1
10
8.54009323072913
20
-5.54298011014242
30
0
41
1
10
8.52666486702793
20
-5.54768843228049
30
0
41
1
10
8.49953860384278
20
-5.55524251938641
30
0
41
1
10
8.48595223677535
20
-5.55806289483303
30
0
41
1
10
8.45870864520913
20
-5.56140907247624
30
0
41
1
10
8.44505160520308
20
-5.56194128474476
30
0
41
1
10
8.43134335770122
20
-5.56100103823448
30
0
0
SPLINE
5
12A
100
AcDbEntity
8
1
62
256
6
ByLayer
370
18
48
1
60
0
100
AcDbSpline
70
4
71
3
72
18
73
14
40
0
40
0
40
0
40
0
40
0.106502320877603
40
0.209819720888241
40
0.30997005066461
40
0.406972922400093
40
0.500849920826222
40
0.591624858696355
40
0.679324076625465
40
0.763976789997316
40
0.845615488385982
40
0.924276395492219
40
1
40
1
40
1
40
1
41
1
10
21.483085351823
20
-25.15261863841
30
0
41
1
10
21.4837643036506
20
-25.1510415273357
30
0
41
1
10
21.4851019034493
20
-25.1479344682343
30
0
41
1
10
21.4874049623886
20
-25.1434243323184
30
0
41
1
10
21.4898663474788
20
-25.1391153234622
30
0
41
1
10
21.4924901579403
20
-25.135012622517
30
0
41
1
10
21.4952524658373
20
-25.1311149102103
30
0
41
1
10
21.4981370391756
20
-25.1274224452295
30
0
41
1
10
21.5011268528404
20
-25.1239353720449
30
0
41
1
10
21.50420435447
20
-25.1206528367139
30
0
41
1
10
21.5073584152507
20
-25.1175778698625
30
0
41
1
10
21.5105579925821
20
-25.1146996835921
30
0
41
1
10
21.5127918768383
20
-25.1129035869186
30
0
41
1
10
21.5138875681494
20
-25.11202262475
30
0
0
SPLINE
5
12B
100
AcDbEntity
8
1
62
256
6
ByLayer
370
18
48
1
60
0
100
AcDbSpline
70
4
71
3
72
16
73
12
40
0
40
0
40
0
40
0
40
0.117319552192556
40
0.23308585341115
40
0.3472993624203
40
0.459960556948106
40
0.571069934744719
40
0.68062801471298
40
0.788635338118834
40
0.895092469888303
40
1
40
1
40
1
40
1
41
1
10
21.427732523702
20
-25.31144541545
30
0
41
1
10
21.4295553268701
20
-25.3051777667126
30
0
41
1
10
21.433176800223
20
-25.292725449707
30
0
41
1
10
21.4388914087642
20
-25.2742192560249
30
0
41
1
10
21.4447568898136
20
-25.2559972967187
30
0
41
1
10
21.4507866733875
20
-25.2380628433777
30
0
41
1
10
21.4569662690683
20
-25.2204151153779
30
0
41
1
10
21.4632869201774
20
-25.2030540288848
30
0
41
1
10
21.4697449449493
20
-25.185980658135
30
0
41
1
10
21.4763120560554
20
-25.1691908752588
30
0
41
1
10
21.4808386486787
20
-25.1581156516797
30
0
41
1
10
21.48308535183
20
-25.15261863841
30
0
0
SPLINE
5
12C
100
AcDbEntity
8
1
62
256
6
ByLayer
370
18
48
1
60
0
100
AcDbSpline
70
4
71
2
72
10
73
7
40
0
40
0
40
0
40
0.5
40
0.5
40
0.75
40
0.75
40
1
40
1
40
1
41
1
10
21.427732523738
20
-25.3114454154435
30
0
41
1
10
21.4082378364849
20
-25.3790392416659
30
0
41
1
10
21.3565142889902
20
-25.426735482769
30
0
41
1
10
21.328333047074
20
-25.4527224727208
30
0
41
1
10
21.2924776461037
20
-25.4693593747304
30
0
41
1
10
21.2537581077733
20
-25.4873252361523
30
0
41
1
10
21.210735586972
20
-25.491446197083
30
0
0
SPLINE
5
12D
100
AcDbEntity
8
1
62
256
6
ByLayer
370
18
48
1
60
0
100
AcDbSpline
70
4
71
2
72
6
73
3
40
0
40
0
40
0
40
1
40
1
40
1
41
1
10
21.210735587058
20
-25.4914461971205
30
0
41
1
10
21.1155165540399
20
-25.5003374892931
30
0
41
1
10
21.0200000006976
20
-25.5003609595315
30
0
0
SPLINE
5
12E
100
AcDbEntity
8
1
62
256
6
ByLayer
370
18
48
1
60
0
100
AcDbSpline
70
4
71
3
72
17
73
13
40
0
40
0
40
0
40
0
40
0.100317411817204
40
0.200541310293277
40
0.300680278273623
40
0.400742920447608
40
0.500737861201926
40
0.600673742442701
40
0.700559221399327
40
0.80040296840492
40
0.90021366466382
40
1
40
1
40
1
40
1
41
1
10
20.789264412942
20
-25.49144619712
30
0
41
1
10
20.7956087701754
20
-25.4920231228817
30
0
41
1
10
20.8082915705938
20
-25.4931764366097
30
0
41
1
10
20.8273460527878
20
-25.4946818251214
30
0
41
1
10
20.8464085209795
20
-25.4960216262512
30
0
41
1
10
20.8654803042831
20
-25.4971798037512
30
0
41
1
10
20.8845589293337
20
-25.4981607269913
30
0
41
1
10
20.9036429412488
20
-25.4989629358429
30
0
41
1
10
20.9227306135196
20
-25.4995879043617
30
0
41
1
10
20.9418202936691
20
-25.500031197509
30
0
41
1
10
20.9609103103435
20
-25.5003090731845
30
0
41
1
10
20.9736372874275
20
-25.5003436654888
30
0
41
1
10
20.9799999993024
20
-25.50036095953
30
0
0
SPLINE
5
12F
100
AcDbEntity
8
1
62
256
6
ByLayer
370
18
48
1
60
0
100
AcDbSpline
70
4
71
3
72
38
73
34
40
0
40
0
40
0
40
0
40
0.0320161803202643
40
0.0634137556517446
40
0.0941938978135477
40
0.124357850632133
40
0.153906935795923
40
0.182842559298629
40
0.211166218540774
40
0.238879510169582
40
0.2659841387476
40
0.292481926351482
40
0.318374823219152
40
0.343664919578512
40
0.368354458810685
40
0.392445852120367
40
0.415941694916344
40
0.438844785127729
40
0.461158143719456
40
0.482885037706585
40
0.504029006008587
40
0.551366811163454
40
0.597409666800763
40
0.642207857911378
40
0.685815975457782
40
0.728293199080077
40
0.769703557232112
40
0.810116149643871
40
0.849605314211463
40
0.888250718111258
40
0.926137351649951
40
0.963355403685054
40
1
40
1
40
1
40
1
41
1
10
20.572267476262
20
-25.31144541544
30
0
41
1
10
20.5730485607148
20
-25.3140736233648
30
0
41
1
10
20.5745956377907
20
-25.319279257937
30
0
41
1
10
20.577231715862
20
-25.3269507904023
30
0
41
1
10
20.5800558999429
20
-25.3344249095622
30
0
41
1
10
20.5830789101451
20
-25.3416975153458
30
0
41
1
10
20.5862816340917
20
-25.3487696764354
30
0
41
1
10
20.5896529401731
20
-25.3556411178642
30
0
41
1
10
20.5931798787036
20
-25.3623119140361
30
0
41
1
10
20.5968502562548
20
-25.3687820488634
30
0
41
1
10
20.600651992735
20
-25.3750515300024
30
0
41
1
10
20.6045733110595
20
-25.3811203592458
30
0
41
1
10
20.6086027081728
20
-25.3869885401635
30
0
41
1
10
20.6127289801843
20
-25.3926560763678
30
0
41
1
10
20.6169412313228
20
-25.3981229711881
30
0
41
1
10
20.6212288838923
20
-25.403389230658
30
0
41
1
10
20.6255816889977
20
-25.4084548524164
30
0
41
1
10
20.6299897234821
20
-25.4133198658027
30
0
41
1
10
20.6344434298672
20
-25.4179841879109
30
0
41
1
10
20.6389334948113
20
-25.422448140218
30
0
41
1
10
20.6453580304929
20
-25.4285095568
30
0
41
1
10
20.6539468168096
20
-25.4359588192032
30
0
41
1
10
20.6650200836321
20
-25.4445027422796
30
0
41
1
10
20.6764694413074
20
-25.4523489226435
30
0
41
1
10
20.6882493808284
20
-25.4594976055379
30
0
41
1
10
20.7003153813827
20
-25.4659486190906
30
0
41
1
10
20.7126233474438
20
-25.4717017357358
30
0
41
1
10
20.725129834629
20
-25.4767571546107
30
0
41
1
10
20.7377925471704
20
-25.4811132961071
30
0
41
1
10
20.7505689765116
20
-25.4847748801839
30
0
41
1
10
20.7634219116357
20
-25.4877236999947
30
0
41
1
10
20.7762999416635
20
-25.4900246334317
30
0
41
1
10
20.7849653481022
20
-25.490974801506
30
0
41
1
10
20.789264413028
20
-25.49144619708
30
0
0
SPLINE
5
130
100
AcDbEntity
8
1
62
256
6
ByLayer
370
18
48
1
60
0
100
AcDbSpline
70
4
71
2
72
6
73
3
40
0
40
0
40
0
40
1
40
1
40
1
41
1
10
20.572267476298
20
-25.311445415452
30
0
41
1
10
20.549015243328
20
-25.2304467190156
30
0
41
1
10
20.51691464817
20
-25.1526186384125
30
0
0
SPLINE
5
131
100
AcDbEntity
8
1
62
256
6
ByLayer
370
18
48
1
60
0
100
AcDbSpline
70
4
71
2
72
6
73
3
40
0
40
0
40
0
40
1
40
1
40
1
41
1
10
20.516914648177
20
-25.1526186384115
30
0
41
1
10
20.5067453291368
20
-25.128319759419
30
0
41
1
10
20.486112431851
20
-25.1120226247505
30
0
0
SPLINE
5
132
100
AcDbEntity
8
SK1
62
256
6
ByLayer
370
18
48
1
60
0
100
AcDbSpline
70
4
71
3
72
10
73
6
40
0
40
0
40
0
40
0
40
0.5
40
0.5
40
1
40
1
40
1
40
1
41
1
10
-0.675331112368838
20
-12.5358798740122
30
0
41
1
10
-0.616819138474796
20
-12.5574043259864
30
0
41
1
10
-0.565065396755017
20
-12.5803025522036
30
0
41
1
10
-0.474674040287539
20
-12.6248936384827
30
0
41
1
10
-0.436034417961878
20
-12.6465984003881
30
0
41
1
10
-0.404203485069729
20
-12.6657072639062
30
0
0
LINE
5
7F
100
AcDbEntity
8
81
62
256
6
ByLayer
370
18
48
1
60
0
100
AcDbLine
10
23
20
-32.5625
30
0
11
23
21
-37.5625
31
0
39
0
210
0
220
0
230
1
0
LINE
5
80
100
AcDbEntity
8
80
62
256
6
ByLayer
370
18
48
1
60
0
100
AcDbLine
10
0
20
0
30
0
11
-5
21
0
31
0
39
0
210
0
220
0
230
1
0
LINE
5
81
100
AcDbEntity
8
1
62
256
6
ByLayer
370
18
48
1
60
0
100
AcDbLine
10
0
20
5.538131
30
0
11
0
21
5.327976
31
0
39
0
210
0
220
0
230
1
0
LINE
5
82
100
AcDbEntity
8
1
62
256
6
ByLayer
370
18
48
1
60
0
100
AcDbLine
10
0
20
5.538131
30
0
11
0
21
8.671056
31
0
39
0
210
0
220
0
230
1
0
LINE
5
83
100
AcDbEntity
8
1
62
256
6
ByLayer
370
18
48
1
60
0
100
AcDbLine
10
0
20
12.440783
30
0
11
0
21
11.356266
31
0
39
0
210
0
220
0
230
1
0
LINE
5
84
100
AcDbEntity
8
1
62
256
6
ByLayer
370
18
48
1
60
0
100
AcDbLine
10
0
20
-12.9625
30
0
11
0
21
5.328111
31
0
39
0
210
0
220
0
230
1
0
LINE
5
85
100
AcDbEntity
8
1
62
256
6
ByLayer
370
18
48
1
60
0
100
AcDbLine
10
0
20
-12.9625
30
0
11
1.73978
21
-12.9625
31
0
39
0
210
0
220
0
230
1
0
LINE
5
86
100
AcDbEntity
8
1
62
256
6
ByLayer
370
18
48
1
60
0
100
AcDbLine
10
0
20
11.356266
30
0
11
1.73978
21
8.993025
31
0
39
0
210
0
220
0
230
1
0
LINE
5
87
100
AcDbEntity
8
1
62
256
6
ByLayer
370
18
48
1
60
0
100
AcDbLine
10
0
20
8.671065
30
0
11
0
21
11.356266
31
0
39
0
210
0
220
0
230
1
0
LINE
5
88
100
AcDbEntity
8
1
62
256
6
ByLayer
370
18
48
1
60
0
100
AcDbLine
10
22.701962
20
-22.898348
30
0
11
22.77072
21
-22.898471
31
0
39
0
210
0
220
0
230
1
0
LINE
5
89
100
AcDbEntity
8
1
62
256
6
ByLayer
370
18
48
1
60
0
100
AcDbLine
10
22.599993
20
-25.3678
30
0
11
22.768644
21
-25.368101
31
0
39
0
210
0
220
0
230
1
0
LINE
5
8A
100
AcDbEntity
8
1
62
256
6
ByLayer
370
18
48
1
60
0
100
AcDbLine
10
21.274969
20
-24.5625
30
0
11
20.725031
21
-24.5625
31
0
39
0
210
0
220
0
230
1
0
LINE
5
8B
100
AcDbEntity
8
1
62
256
6
ByLayer
370
18
48
1
60
0
100
AcDbLine
10
25.513176
20
12.328962
30
0
11
25.513176
21
-22.890588
31
0
39
0
210
0
220
0
230
1
0
LINE
5
8C
100
AcDbEntity
8
1
62
256
6
ByLayer
370
18
48
1
60
0
100
AcDbLine
10
22.77072
20
-20.177557
30
0
11
22.77072
21
-22.898471
31
0
39
0
210
0
220
0
230
1
0
LINE
5
8D
100
AcDbEntity
8
1
62
256
6
ByLayer
370
18
48
1
60
0
100
AcDbLine
10
22.768644
20
-25.368101
30
0
11
22.768644
21
-28.441104
31
0
39
0
210
0
220
0
230
1
0
LINE
5
8E
100
AcDbEntity
8
1
62
256
6
ByLayer
370
18
48
1
60
0
100
AcDbLine
10
23.437136
20
-31.5625
30
0
11
22.969725
21
-31.5625
31
0
39
0
210
0
220
0
230
1
0
LINE
5
8F
100
AcDbEntity
8
1
62
256
6
ByLayer
370
18
48
1
60
0
100
AcDbLine
10
22.969538
20
9.720966
30
0
11
22.969538
21
8.993025
31
0
39
0
210
0
220
0
230
1
0
LINE
5
90
100
AcDbEntity
8
1
62
256
6
ByLayer
370
18
48
1
60
0
100
AcDbLine
10
22.676765
20
12.440783
30
0
11
0
21
12.440783
31
0
39
0
210
0
220
0
230
1
0
LINE
5
91
100
AcDbEntity
8
1
62
256
6
ByLayer
370
18
48
1
60
0
100
AcDbLine
10
22.969538
20
-12.350797
30
0
11
22.969538
21
8.993025
31
0
39
0
210
0
220
0
230
1
0
LINE
5
92
100
AcDbEntity
8
1
62
256
6
ByLayer
370
18
48
1
60
0
100
AcDbLine
10
1.73978
20
-12.9625
30
0
11
18.325177
21
-12.9625
31
0
39
0
210
0
220
0
230
1
0
LINE
5
93
100
AcDbEntity
8
1
62
256
6
ByLayer
370
18
48
1
60
0
100
AcDbLine
10
22.969538
20
8.993025
30
0
11
1.73978
21
8.993025
31
0
39
0
210
0
220
0
230
1
0
LINE
5
94
100
AcDbEntity
8
1
62
256
6
ByLayer
370
18
48
1
60
0
100
AcDbLine
10
1.73978
20
8.993025
30
0
11
1.73978
21
-12.9625
31
0
39
0
210
0
220
0
230
1
0
LINE
5
95
100
AcDbEntity
8
1
62
256
6
ByLayer
370
18
48
1
60
0
100
AcDbLine
10
22.969538
20
-12.350797
30
0
11
22.969538
21
-15.207093
31
0
39
0
210
0
220
0
230
1
0
LINE
5
96
100
AcDbEntity
8
1
62
256
6
ByLayer
370
18
48
1
60
0
100
AcDbLine
10
19.325
20
-12.350797
30
0
11
22.969538
21
-12.350797
31
0
39
0
210
0
220
0
230
1
0
LINE
5
97
100
AcDbEntity
8
1
62
256
6
ByLayer
370
18
48
1
60
0
100
AcDbLine
10
22.746756
20
-21.0625
30
0
11
19.439914
21
-21.0625
31
0
39
0
210
0
220
0
230
1
0
LINE
5
98
100
AcDbEntity
8
1
62
256
6
ByLayer
370
13
48
1
60
0
100
AcDbLine
10
19.851753
20
-14.5625
30
0
11
19.342854
21
-14.5625
31
0
39
0
210
0
220
0
230
1
0
LINE
5
99
100
AcDbEntity
8
1
62
256
6
ByLayer
370
18
48
1
60
0
100
AcDbLine
10
18.430738
20
-12.9625
30
0
11
18.325177
21
-12.9625
31
0
39
0
210
0
220
0
230
1
0
LINE
5
9A
100
AcDbEntity
8
1
62
256
6
ByLayer
370
13
48
1
60
0
100
AcDbLine
10
19.325
20
-12.350797
30
0
11
19.325
21
-13.284433
31
0
39
0
210
0
220
0
230
1
0
LINE
5
9B
100
AcDbEntity
8
SK1
62
256
6
ByLayer
370
18
48
1
60
0
100
AcDbLine
10
-3.301981
20
12.4375
30
0
11
-127
21
12.4375
31
0
39
0
210
0
220
0
230
1
0
LINE
5
9D
100
AcDbEntity
8
SK1
62
256
6
ByLayer
370
18
48
1
60
0
100
AcDbLine
10
-3.301981
20
-12.4375
30
0
11
-127
21
-12.4375
31
0
39
0
210
0
220
0
230
1
0
LINE
5
9E
100
AcDbEntity
8
SK1
62
256
6
ByLayer
370
18
48
1
60
0
100
AcDbLine
10
-127
20
-12.4375
30
0
11
-127
21
12.4375
31
0
39
0
210
0
220
0
230
1
0
LINE
5
9F
100
AcDbEntity
8
SK1
62
256
6
ByLayer
370
13
48
1
60
0
100
AcDbLine
10
-3.301981
20
-12.4375
30
0
11
-3.301981
21
12.4375
31
0
39
0
210
0
220
0
230
1
0
LINE
5
A0
100
AcDbEntity
8
SK1
62
256
6
ByLayer
370
18
48
1
60
0
100
AcDbLine
10
-1.53222
20
-12.4375
30
0
11
-3.301981
21
-12.4375
31
0
39
0
210
0
220
0
230
1
0
LINE
5
A1
100
AcDbEntity
8
SK1
62
256
6
ByLayer
370
18
48
1
60
0
100
AcDbLine
10
0
20
5.538131
30
0
11
0
21
5.327976
31
0
39
0
210
0
220
0
230
1
0
LINE
5
A2
100
AcDbEntity
8
SK1
62
256
6
ByLayer
370
18
48
1
60
0
100
AcDbLine
10
-1.227723
20
-12.4375
30
0
11
-1.53222
21
-12.4375
31
0
39
0
210
0
220
0
230
1
0
LINE
5
A3
100
AcDbEntity
8
SK1
62
256
6
ByLayer
370
13
48
1
60
0
100
AcDbLine
10
-0.404203
20
5.793839
30
0
11
-0.404203
21
2.501265
31
0
39
0
210
0
220
0
230
1
0
LINE
5
A4
100
AcDbEntity
8
SK1
62
256
6
ByLayer
370
18
48
1
60
0
100
AcDbLine
10
-0.313706
20
5.533552
30
0
11
-0.404203
21
2.501265
31
0
39
0
210
0
220
0
230
1
0
LINE
5
A5
100
AcDbEntity
8
SK1
62
256
6
ByLayer
370
18
48
1
60
0
100
AcDbLine
10
0
20
12.440783
30
0
11
0
21
11.356266
31
0
39
0
210
0
220
0
230
1
0
LINE
5
A6
100
AcDbEntity
8
SK1
62
256
6
ByLayer
370
18
48
1
60
0
100
AcDbLine
10
0
20
12.440783
30
0
11
-1.31499
21
12.440783
31
0
39
0
210
0
220
0
230
1
0
LINE
5
A7
100
AcDbEntity
8
SK1
62
256
6
ByLayer
370
18
48
1
60
0
100
AcDbLine
10
0
20
5.538131
30
0
11
0
21
8.671056
31
0
39
0
210
0
220
0
230
1
0
LINE
5
A8
100
AcDbEntity
8
SK1
62
256
6
ByLayer
370
18
48
1
60
0
100
AcDbLine
10
0
20
8.671065
30
0
11
0
21
11.356266
31
0
39
0
210
0
220
0
230
1
0
LINE
5
A9
100
AcDbEntity
8
SK1
62
256
6
ByLayer
370
18
48
1
60
0
100
AcDbLine
10
-0.404203
20
11.905318
30
0
11
0
21
11.356266
31
0
39
0
210
0
220
0
230
1
0
LINE
5
AA
100
AcDbEntity
8
SK1
62
256
6
ByLayer
370
13
48
1
60
0
100
AcDbLine
10
-0.404203
20
11.905318
30
0
11
-0.404203
21
8.205337
31
0
39
0
210
0
220
0
230
1
0
LINE
5
AB
100
AcDbEntity
8
1
62
256
6
ByLayer
370
18
48
1
60
0
100
AcDbLine
10
22.6
20
-26.1925
30
0
11
22.6
21
-28.14899
31
0
39
0
210
0
220
0
230
1
0
LINE
5
AC
100
AcDbEntity
8
1
62
256
6
ByLayer
370
18
48
1
60
0
100
AcDbLine
10
19.4
20
-26.1925
30
0
11
19.4
21
-28.14899
31
0
39
0
210
0
220
0
230
1
0
LINE
5
AD
100
AcDbEntity
8
1
62
256
6
ByLayer
370
18
48
1
60
0
100
AcDbLine
10
22.999714
20
-32.249414
30
0
11
22.83874
21
-28.5625
31
0
39
0
210
0
220
0
230
1
0
LINE
5
AE
100
AcDbEntity
8
1
62
256
6
ByLayer
370
18
48
1
60
0
100
AcDbLine
10
22.83874
20
-28.5625
30
0
11
22.6
21
-28.14899
31
0
39
0
210
0
220
0
230
1
0
LINE
5
AF
100
AcDbEntity
8
1
62
256
6
ByLayer
370
18
48
1
60
0
100
AcDbLine
10
19.000286
20
-32.249414
30
0
11
19.16126
21
-28.5625
31
0
39
0
210
0
220
0
230
1
0
LINE
5
B0
100
AcDbEntity
8
1
62
256
6
ByLayer
370
18
48
1
60
0
100
AcDbLine
10
19.16126
20
-28.5625
30
0
11
19.4
21
-28.14899
31
0
39
0
210
0
220
0
230
1
0
LINE
5
B1
100
AcDbEntity
8
1
62
256
6
ByLayer
370
18
48
1
60
0
100
AcDbLine
10
19.3
20
-32.5625
30
0
11
22.7
21
-32.5625
31
0
39
0
210
0
220
0
230
1
0
LINE
5
B2
100
AcDbEntity
8
1
62
256
6
ByLayer
370
18
48
1
60
0
100
AcDbLine
10
22.999714
20
-7.875586
30
0
11
22.969537
21
-8.566767
31
0
39
0
210
0
220
0
230
1
0
LINE
5
B3
100
AcDbEntity
8
1
62
256
6
ByLayer
370
13
48
1
60
0
100
AcDbLine
10
21.02
20
-24.5625
30
0
11
21.02
21
-25.500361
31
0
39
0
210
0
220
0
230
1
0
LINE
5
B4
100
AcDbEntity
8
1
62
256
6
ByLayer
370
13
48
1
60
0
100
AcDbLine
10
20.98
20
-24.5625
30
0
11
20.98
21
-25.500361
31
0
39
0
210
0
220
0
230
1
0
LINE
5
B5
100
AcDbEntity
8
1
62
256
6
ByLayer
370
13
48
1
60
0
100
AcDbLine
10
20.789264
20
-24.562418
30
0
11
20.789264
21
-25.491446
31
0
39
0
210
0
220
0
230
1
0
LINE
5
B6
100
AcDbEntity
8
1
62
256
6
ByLayer
370
13
48
1
60
0
100
AcDbLine
10
21.210736
20
-24.562418
30
0
11
21.210736
21
-25.491446
31
0
39
0
210
0
220
0
230
1
0
LINE
5
B7
100
AcDbEntity
8
1
62
256
6
ByLayer
370
13
48
1
60
0
100
AcDbLine
10
21.427733
20
-24.453981
30
0
11
21.427733
21
-25.311445
31
0
39
0
210
0
220
0
230
1
0
LINE
5
B8
100
AcDbEntity
8
1
62
256
6
ByLayer
370
13
48
1
60
0
100
AcDbLine
10
20.572267
20
-24.453981
30
0
11
20.572267
21
-25.311445
31
0
39
0
210
0
220
0
230
1
0
LINE
5
B9
100
AcDbEntity
8
1
62
256
6
ByLayer
370
13
48
1
60
0
100
AcDbLine
10
20.516915
20
-25.152619
30
0
11
20.516915
21
-24.324361
31
0
39
0
210
0
220
0
230
1
0
LINE
5
BA
100
AcDbEntity
8
1
62
256
6
ByLayer
370
13
48
1
60
0
100
AcDbLine
10
21.483085
20
-25.152619
30
0
11
21.483085
21
-24.324361
31
0
39
0
210
0
220
0
230
1
0
LINE
5
BB
100
AcDbEntity
8
1
62
256
6
ByLayer
370
13
48
1
60
0
100
AcDbLine
10
21.513888
20
-24.282481
30
0
11
21.513888
21
-25.112023
31
0
39
0
210
0
220
0
230
1
0
LINE
5
BC
100
AcDbEntity
8
1
62
256
6
ByLayer
370
13
48
1
60
0
100
AcDbLine
10
20.486112
20
-24.282402
30
0
11
20.486112
21
-25.112023
31
0
39
0
210
0
220
0
230
1
0
LINE
5
BD
100
AcDbEntity
8
1
62
256
6
ByLayer
370
13
48
1
60
0
100
AcDbLine
10
20.394335
20
-24.267249
30
0
11
20.394335
21
-25.040191
31
0
39
0
210
0
220
0
230
1
0
LINE
5
BE
100
AcDbEntity
8
1
62
256
6
ByLayer
370
13
48
1
60
0
100
AcDbLine
10
21.605665
20
-24.26756
30
0
11
21.605665
21
-25.040191
31
0
39
0
210
0
220
0
230
1
0
LINE
5
BF
100
AcDbEntity
8
1
62
256
6
ByLayer
370
13
48
1
60
0
100
AcDbLine
10
21.649934
20
-24.260342
30
0
11
21.649934
21
-25.020459
31
0
39
0
210
0
220
0
230
1
0
LINE
5
C0
100
AcDbEntity
8
1
62
256
6
ByLayer
370
13
48
1
60
0
100
AcDbLine
10
20.350066
20
-24.260032
30
0
11
20.350066
21
-25.020459
31
0
39
0
210
0
220
0
230
1
0
LINE
5
C1
100
AcDbEntity
8
1
62
256
6
ByLayer
370
18
48
1
60
0
100
AcDbLine
10
22.6
20
-24.094941
30
0
11
22.6
21
-24.897018
31
0
39
0
210
0
220
0
230
1
0
LINE
5
C2
100
AcDbEntity
8
1
62
256
6
ByLayer
370
13
48
1
60
0
100
AcDbLine
10
19.658616
20
-24.143209
30
0
11
19.658616
21
-24.898537
31
0
39
0
210
0
220
0
230
1
0
LINE
5
C3
100
AcDbEntity
8
1
62
256
6
ByLayer
370
18
48
1
60
0
100
AcDbLine
10
22.6
20
-26.1925
30
0
11
22.6
21
-24.897018
31
0
39
0
210
0
220
0
230
1
0
LINE
5
C4
100
AcDbEntity
8
1
62
256
6
ByLayer
370
18
48
1
60
0
100
AcDbLine
10
22.6
20
-24.897018
30
0
11
22.358749
21
-24.897018
31
0
39
0
210
0
220
0
230
1
0
LINE
5
C5
100
AcDbEntity
8
1
62
256
6
ByLayer
370
18
48
1
60
0
100
AcDbLine
10
22.341384
20
-24.898537
30
0
11
21.649934
21
-25.020459
31
0
39
0
210
0
220
0
230
1
0
LINE
5
C6
100
AcDbEntity
8
1
62
256
6
ByLayer
370
18
48
1
60
0
100
AcDbLine
10
21.605665
20
-25.040191
30
0
11
21.513888
21
-25.112023
31
0
39
0
210
0
220
0
230
1
0
LINE
5
C7
100
AcDbEntity
8
1
62
256
6
ByLayer
370
18
48
1
60
0
100
AcDbLine
10
20.98
20
-25.500361
30
0
11
21.02
21
-25.500361
31
0
39
0
210
0
220
0
230
1
0
LINE
5
C8
100
AcDbEntity
8
1
62
256
6
ByLayer
370
18
48
1
60
0
100
AcDbLine
10
20.394335
20
-25.040191
30
0
11
20.486112
21
-25.112023
31
0
39
0
210
0
220
0
230
1
0
LINE
5
C9
100
AcDbEntity
8
1
62
256
6
ByLayer
370
18
48
1
60
0
100
AcDbLine
10
19.658616
20
-24.898537
30
0
11
20.350066
21
-25.020459
31
0
39
0
210
0
220
0
230
1
0
LINE
5
CA
100
AcDbEntity
8
1
62
256
6
ByLayer
370
18
48
1
60
0
100
AcDbLine
10
19.4
20
-26.1925
30
0
11
19.4
21
-24.897018
31
0
39
0
210
0
220
0
230
1
0
LINE
5
CB
100
AcDbEntity
8
1
62
256
6
ByLayer
370
18
48
1
60
0
100
AcDbLine
10
19.4
20
-26.1925
30
0
11
22.6
21
-26.1925
31
0
39
0
210
0
220
0
230
1
0
LINE
5
CC
100
AcDbEntity
8
1
62
256
6
ByLayer
370
13
48
1
60
0
100
AcDbLine
10
19.641251
20
-24.139963
30
0
11
19.641251
21
-24.897018
31
0
39
0
210
0
220
0
230
1
0
LINE
5
CD
100
AcDbEntity
8
1
62
256
6
ByLayer
370
18
48
1
60
0
100
AcDbLine
10
19.4
20
-24.094639
30
0
11
19.4
21
-24.897018
31
0
39
0
210
0
220
0
230
1
0
LINE
5
CE
100
AcDbEntity
8
1
62
256
6
ByLayer
370
18
48
1
60
0
100
AcDbLine
10
19.4
20
-24.897018
30
0
11
19.641251
21
-24.897018
31
0
39
0
210
0
220
0
230
1
0
LINE
5
CF
100
AcDbEntity
8
1
62
256
6
ByLayer
370
13
48
1
60
0
100
AcDbLine
10
22.358749
20
-24.140416
30
0
11
22.358749
21
-24.897018
31
0
39
0
210
0
220
0
230
1
0
LINE
5
D0
100
AcDbEntity
8
1
62
256
6
ByLayer
370
13
48
1
60
0
100
AcDbLine
10
22.341384
20
-24.143511
30
0
11
22.341384
21
-24.898537
31
0
39
0
210
0
220
0
230
1
0
LINE
5
D1
100
AcDbEntity
8
SK1
62
256
6
ByLayer
370
18
48
1
60
0
100
AcDbLine
10
-0.04266
20
-12.9625
30
0
11
0
21
-12.9625
31
0
39
0
210
0
220
0
230
1
0
LINE
5
D2
100
AcDbEntity
8
SK1
62
256
6
ByLayer
370
18
48
1
60
0
100
AcDbLine
10
0
20
-12.9625
30
0
11
0
21
5.328111
31
0
39
0
210
0
220
0
230
1
0
LINE
5
D3
100
AcDbEntity
8
SK1
62
256
6
ByLayer
370
18
48
1
60
0
100
AcDbLine
10
-0.404203
20
-6.47292
30
0
11
-0.052745
21
5.303365
31
0
39
0
210
0
220
0
230
1
0
LINE
5
D4
100
AcDbEntity
8
SK1
62
256
6
ByLayer
370
13
48
1
60
0
100
AcDbLine
10
-0.404203
20
-6.47292
30
0
11
-0.404203
21
-12.665707
31
0
39
0
210
0
220
0
230
1
0
MTEXT
5
133
100
AcDbEntity
8
SK6
62
256
6
ByLayer
370
18
48
1
60
0
100
AcDbMText
10
-85.557912
20
-66.778225
30
0
210
0
220
0
230
1
1
\W0.7596;C2A-RS25-LGH18B-132DB
40
3.5
41
0
44
1.084337
50
0
71
7
72
5
7
iso_b_vert
0
DIMENSION
5
138
100
AcDbEntity
8
2
62
256
6
ByLayer
370
18
48
1
60
0
100
AcDbDimension
2
_U0
10
48.613176
20
12.4375
30
0
11
48.613176
21
-10.0625
31
0
70
32
71
1
72
1
41
1
210
0
220
0
230
1
3
Standard
100
AcDbAlignedDimension
13
23
23
-32.5625
33
0
14
-127
24
12.4375
34
0
50
90
100
AcDbRotatedDimension
1001
ACAD
1000
DSTYLE
1002
{
1070
   371
1070
    13
1070
   372
1070
    13
1070
   170
1070
     0
1070
   144
1040
1.0
1070
   277
1070
     2
1070
   284
1070
     8
1070
   278
1070
    46
1070
   146
1040
1.0
1070
   345
1005
16
1070
   347
1005
16
1070
   346
1005
16
1070
   344
1005
0
1070
   343
1005
0
1070
   172
1070
     1
1070
    76
1070
     0
1070
    75
1070
     0
1070
   282
1070
     0
1070
   281
1070
     0
1070
    71
1070
     0
1070
    74
1070
     0
1070
   279
1070
     0
1070
   173
1070
     1
1070
   340
1005
134
1070
   271
1070
     2
1070
   272
1070
     2
1070
    77
1070
     1
1070
    73
1070
     0
1070
   171
1070
     3
1070
   274
1070
     4
1070
   177
1070
     2
1070
   176
1070
     2
1070
   178
1070
     2
1070
    78
1070
     8
1070
    48
1040
-0.1
1070
    41
1040
3.5
1070
   147
1040
1.75
1070
    42
1040
1.5875
1070
    44
1040
2.0
1070
   140
1040
3.5
1002
}
1001
ACAD_DSTYLE_DIM_LINETYPE
1070
   380
1005
16
1001
ACAD_DSTYLE_DIM_EXT1_LINETYPE
1070
   381
1005
16
1001
ACAD_DSTYLE_DIM_EXT2_LINETYPE
1070
   382
1005
16
0
DIMENSION
5
152
100
AcDbEntity
8
2
62
256
6
ByLayer
370
18
48
1
60
0
100
AcDbDimension
2
_U1
10
38.613176
20
-32.5625
30
0
11
38.613176
21
-23.5625
31
0
70
32
71
1
72
1
41
1
210
0
220
0
230
1
3
Standard
100
AcDbAlignedDimension
13
19.325
23
-14.5625
33
0
14
23
24
-32.5625
34
0
50
90
100
AcDbRotatedDimension
1001
ACAD
1000
DSTYLE
1002
{
1070
   371
1070
    13
1070
   372
1070
    13
1070
   170
1070
     0
1070
   144
1040
1.0
1070
   277
1070
     2
1070
   284
1070
     8
1070
   278
1070
    46
1070
   146
1040
1.0
1070
   345
1005
16
1070
   347
1005
16
1070
   346
1005
16
1070
   344
1005
0
1070
   343
1005
0
1070
   172
1070
     1
1070
    76
1070
     0
1070
    75
1070
     0
1070
   282
1070
     0
1070
   281
1070
     0
1070
    71
1070
     0
1070
    74
1070
     0
1070
   279
1070
     0
1070
   173
1070
     1
1070
   340
1005
134
1070
   271
1070
     2
1070
   272
1070
     2
1070
    77
1070
     1
1070
    73
1070
     0
1070
   171
1070
     3
1070
   274
1070
     4
1070
   177
1070
     2
1070
   176
1070
     2
1070
   178
1070
     2
1070
    78
1070
     8
1070
    48
1040
-0.1
1070
    41
1040
3.5
1070
   147
1040
1.75
1070
    42
1040
1.5875
1070
    44
1040
2.0
1070
   140
1040
3.5
1002
}
1001
ACAD_DSTYLE_DIM_LINETYPE
1070
   380
1005
16
1001
ACAD_DSTYLE_DIM_EXT1_LINETYPE
1070
   381
1005
16
1001
ACAD_DSTYLE_DIM_EXT2_LINETYPE
1070
   382
1005
16
0
DIMENSION
5
16A
100
AcDbEntity
8
SK2
62
256
6
ByLayer
370
18
48
1
60
0
100
AcDbDimension
2
_U2
10
-138.6
20
-12.5625
30
0
11
-138.6
21
-0.0625
31
0
70
32
71
1
72
1
41
1
210
0
220
0
230
1
3
Standard
100
AcDbAlignedDimension
13
-127
23
12.4375
33
0
14
-127
24
-12.5625
34
0
50
90
100
AcDbRotatedDimension
1001
ACAD
1000
DSTYLE
1002
{
1070
   371
1070
    13
1070
   372
1070
    13
1070
   170
1070
     0
1070
   144
1040
1.0
1070
   277
1070
     2
1070
   284
1070
     8
1070
   278
1070
    46
1070
   146
1040
1.0
1070
   345
1005
16
1070
   347
1005
16
1070
   346
1005
16
1070
   344
1005
0
1070
   343
1005
0
1070
   172
1070
     1
1070
    76
1070
     0
1070
    75
1070
     0
1070
   282
1070
     0
1070
   281
1070
     0
1070
    71
1070
     0
1070
    74
1070
     0
1070
   279
1070
     0
1070
   173
1070
     1
1070
   340
1005
134
1070
   271
1070
     2
1070
   272
1070
     2
1070
    77
1070
     1
1070
    73
1070
     0
1070
   171
1070
     3
1070
   274
1070
     4
1070
   177
1070
     2
1070
   176
1070
     2
1070
   178
1070
     2
1070
    78
1070
     8
1070
    48
1040
-0.1
1070
    41
1040
3.5
1070
   147
1040
1.75
1070
    42
1040
1.5875
1070
    44
1040
2.0
1070
   140
1040
3.5
1002
}
1001
ACAD_DSTYLE_DIM_LINETYPE
1070
   380
1005
16
1001
ACAD_DSTYLE_DIM_EXT1_LINETYPE
1070
   381
1005
16
1001
ACAD_DSTYLE_DIM_EXT2_LINETYPE
1070
   382
1005
16
0
DIMENSION
5
183
100
AcDbEntity
8
2
62
256
6
ByLayer
370
18
48
1
60
0
100
AcDbDimension
2
_U3
10
23
20
-42.3125
30
0
11
21
21
-42.3125
31
0
70
32
71
1
72
1
41
1
210
0
220
0
230
1
3
Standard
100
AcDbAlignedDimension
13
19
23
-32.5625
33
0
14
23
24
-32.5625
34
0
50
0
100
AcDbRotatedDimension
1001
ACAD
1000
DSTYLE
1002
{
1070
   371
1070
    13
1070
   372
1070
    13
1070
   170
1070
     0
1070
   144
1040
1.0
1070
   277
1070
     2
1070
   284
1070
     8
1070
   278
1070
    46
1070
   146
1040
1.0
1070
   345
1005
16
1070
   347
1005
16
1070
   346
1005
16
1070
   344
1005
0
1070
   343
1005
0
1070
   172
1070
     1
1070
    76
1070
     0
1070
    75
1070
     0
1070
   282
1070
     0
1070
   281
1070
     0
1070
    71
1070
     0
1070
    74
1070
     0
1070
   279
1070
     0
1070
   173
1070
     1
1070
   340
1005
134
1070
   271
1070
     2
1070
   272
1070
     2
1070
    77
1070
     1
1070
    73
1070
     1
1070
   171
1070
     3
1070
   274
1070
     4
1070
   177
1070
     2
1070
   176
1070
     2
1070
   178
1070
     2
1070
    78
1070
     8
1070
    48
1040
-0.1
1070
    41
1040
3.5
1070
   147
1040
1.75
1070
    42
1040
1.5875
1070
    44
1040
2.0
1070
   140
1040
3.5
1002
}
1001
ACAD_DSTYLE_DIM_LINETYPE
1070
   380
1005
16
1001
ACAD_DSTYLE_DIM_EXT1_LINETYPE
1070
   381
1005
16
1001
ACAD_DSTYLE_DIM_EXT2_LINETYPE
1070
   382
1005
16
0
DIMENSION
5
19C
100
AcDbEntity
8
SK2
62
256
6
ByLayer
370
18
48
1
60
0
100
AcDbDimension
2
_U4
10
23
20
-58.3125
30
0
11
-52
21
-58.3125
31
0
70
32
71
1
72
1
41
1
210
0
220
0
230
1
3
Standard
100
AcDbAlignedDimension
13
-127
23
12.4375
33
0
14
23
24
-32.5625
34
0
50
0
100
AcDbRotatedDimension
1001
ACAD
1000
DSTYLE
1002
{
1070
   371
1070
    13
1070
   372
1070
    13
1070
   170
1070
     0
1070
   144
1040
1.0
1070
   277
1070
     2
1070
   284
1070
     8
1070
   278
1070
    46
1070
   146
1040
1.0
1070
   345
1005
16
1070
   347
1005
16
1070
   346
1005
16
1070
   344
1005
0
1070
   343
1005
0
1070
   172
1070
     1
1070
    76
1070
     0
1070
    75
1070
     0
1070
   282
1070
     0
1070
   281
1070
     0
1070
    71
1070
     0
1070
    74
1070
     0
1070
   279
1070
     0
1070
   173
1070
     1
1070
   340
1005
134
1070
   271
1070
     1
1070
   272
1070
     2
1070
    77
1070
     1
1070
    73
1070
     1
1070
   171
1070
     3
1070
   274
1070
     4
1070
   177
1070
     2
1070
   176
1070
     2
1070
   178
1070
     2
1070
    78
1070
     8
1070
    48
1040
-0.1
1070
    41
1040
3.5
1070
   147
1040
1.75
1070
    42
1040
1.5875
1070
    44
1040
2.0
1070
   140
1040
3.5
1002
}
1001
ACAD_DSTYLE_DIM_LINETYPE
1070
   380
1005
16
1001
ACAD_DSTYLE_DIM_EXT1_LINETYPE
1070
   381
1005
16
1001
ACAD_DSTYLE_DIM_EXT2_LINETYPE
1070
   382
1005
16
0
ENDSEC
0
SECTION
2
OBJECTS
0
DICTIONARY
5
223
330
0
100
AcDbDictionary
280
0
281
1
3
ACAD_GROUP
350
224
3
ACAD_MLINESTYLE
350
225
0
DICTIONARY
5
224
330
0
100
AcDbDictionary
280
0
281
1
0
DICTIONARY
5
225
330
0
100
AcDbDictionary
280
0
281
1
3
Standard
350
18
0
MLINESTYLE
5
18
330
225
100
AcDbMlineStyle
2
Standard
70
0
3

62
256
51
90
52
90
71
2
49
-0.5
62
256
6
ByLayer
49
0.5
62
256
6
ByLayer
0
RASTERVARIABLES
5
212
330

100
AcDbRasterVariables
90
0
70
1
71
1
72
1
0
ENDSEC
0
EOF
