0
SECTION
2
HEADER
9
$ACADVER
1
AC1015
9
$DWGCODEPAGE
3
ANSI_1252
9
$HANDSEED
5
26c
9
$ANGBASE
50
0
9
$ANGDIR
70
0
9
$ATTMODE
70
1
9
$AUNITS
70
0
9
$AUPREC
70
0
9
$CECOLOR
62
256
9
$CELTSCALE
40
1
9
$CELTYPE
6
ByLayer
9
$CELWEIGHT
370
18
9
$CLAYER
8
0
9
$CMLJUST
70
0
9
$CMLSCALE
40
1
9
$CMLSTYLE
2
Standard
9
$DIMSTYLE
2
Standard
9
$TEXTSIZE
40
0.2
9
$TEXTSTYLE
7
Standard
9
$LUNITS
70
2
9
$LUPREC
70
4
9
$EXTNAMES
290
1
9
$INSUNITS
70
4
9
$LTSCALE
40
1
9
$LWDISPLAY
290
1
9
$PDMODE
70
0
9
$PDSIZE
40
0
9
$PLINEGEN
70
0
0
ENDSEC
0
SECTION
2
CLASSES
0
CLASS
1
RASTERVARIABLES
2
AcDbRasterVariables
3
ISM
90
0
280
0
281
0
0
ENDSEC
0
SECTION
2
TABLES
0
TABLE
2
VPORT
5
262
100
AcDbSymbolTable
0
VPORT
5
1
100
AcDbSymbolTableRecord
100
AcDbViewportTableRecord
2
*Active
70
0
10
0
20
0
11
1
21
1
12
-1
22
1
13
0
23
0
14
0.5
24
0.5
15
10
25
10
16
0
26
0
36
1
17
0
27
0
37
0
0
ENDTAB
0
TABLE
2
LTYPE
5
263
100
AcDbSymbolTable
0
LTYPE
5
14
100
AcDbSymbolTableRecord
100
AcDbLinetypeTableRecord
70
0
2
ByBlock
3

72
65
73
0
40
0
0
LTYPE
5
15
100
AcDbSymbolTableRecord
100
AcDbLinetypeTableRecord
70
0
2
ByLayer
3

72
65
73
0
40
0
0
LTYPE
5
16
100
AcDbSymbolTableRecord
100
AcDbLinetypeTableRecord
70
0
2
Continuous
3
Solid line
72
65
73
0
40
0
0
LTYPE
5
6E
100
AcDbSymbolTableRecord
100
AcDbLinetypeTableRecord
70
0
2
CENTER
3
____ _ ____ _ ____ _ ____
72
65
73
4
40
47.5
49
22
74
0
49
-8.5
74
0
49
8.5
74
0
49
-8.5
74
0
0
LTYPE
5
6F
100
AcDbSymbolTableRecord
100
AcDbLinetypeTableRecord
70
0
2
DASHED
3
__ __ __ __ __ __ __ __ __
72
65
73
2
40
25.72
49
12.86
74
0
49
-12.86
74
0
0
ENDTAB
0
TABLE
2
LAYER
5
264
100
AcDbSymbolTable
0
LAYER
5
10
100
AcDbSymbolTableRecord
100
AcDbLayerTableRecord
2
0
70
0
62
7
6
Continuous
290
1
370
-3
390
0
0
LAYER
5
71
100
AcDbSymbolTableRecord
100
AcDbLayerTableRecord
2
1
70
0
62
4
6
Continuous
290
1
370
-3
390
0
0
LAYER
5
73
100
AcDbSymbolTableRecord
100
AcDbLayerTableRecord
2
81
70
0
62
-3
6
Continuous
290
1
370
-3
390
0
0
LAYER
5
75
100
AcDbSymbolTableRecord
100
AcDbLayerTableRecord
2
80
70
0
62
-6
6
Continuous
290
1
370
-3
390
0
0
LAYER
5
18F
100
AcDbSymbolTableRecord
100
AcDbLayerTableRecord
2
Defpoints
70
0
62
7
6
Continuous
290
0
370
-3
390
0
0
LAYER
5
19C
100
AcDbSymbolTableRecord
100
AcDbLayerTableRecord
2
2
70
0
62
7
6
Continuous
290
1
370
-3
390
0
0
LAYER
5
24f
100
AcDbSymbolTableRecord
100
AcDbLayerTableRecord
2
SK1
70
0
62
4
6
Continuous
290
1
370
-3
390
0
0
LAYER
5
250
100
AcDbSymbolTableRecord
100
AcDbLayerTableRecord
2
SK6
70
0
62
5
6
Continuous
290
1
370
-3
390
0
0
LAYER
5
251
100
AcDbSymbolTableRecord
100
AcDbLayerTableRecord
2
SK2
70
0
62
7
6
Continuous
290
1
370
-3
390
0
0
ENDTAB
0
TABLE
2
STYLE
5
265
100
AcDbSymbolTable
0
STYLE
5
11
100
AcDbSymbolTableRecord
100
AcDbTextStyleTableRecord
2
Standard
3
txt
70
0
71
0
40
0
41
1
42
0
50
0
0
STYLE
5
188
100
AcDbSymbolTableRecord
100
AcDbTextStyleTableRecord
2
iso_b_vert
3
simplex.shx
70
0
71
0
40
0
41
1
42
0
50
0
0
STYLE
5
189
100
AcDbSymbolTableRecord
100
AcDbTextStyleTableRecord
2
DWGDirectTextStyle
3
simplex
70
0
71
0
40
0
41
1
42
0
50
0
0
ENDTAB
0
TABLE
2
DIMSTYLE
5
266
100
AcDbSymbolTable
100
AcDbDimStyleTable
0
DIMSTYLE
105
27
100
AcDbSymbolTableRecord
100
AcDbDimStyleTableRecord
2
Standard
70
0
3
<>
41
0.18
42
0.0625
44
0.18
140
0.18
147
0.09
73
0
74
0
77
1
271
2
275
0
278
52
280
0
340
11
0
ENDTAB
0
TABLE
2
VIEW
5
267
100
AcDbSymbolTable
0
ENDTAB
0
TABLE
2
UCS
5
268
100
AcDbSymbolTable
0
ENDTAB
0
TABLE
2
APPID
5
269
100
AcDbSymbolTable
0
APPID
5
12
100
AcDbSymbolTableRecord
100
AcDbRegAppTableRecord
2
ACAD
70
0
0
APPID
5
18B
100
AcDbSymbolTableRecord
100
AcDbRegAppTableRecord
2
ACAD_DSTYLE_DIMBREAK
70
0
0
APPID
5
20E
100
AcDbSymbolTableRecord
100
AcDbRegAppTableRecord
2
ACAD_DSTYLE_DIM_LINETYPE
70
0
0
APPID
5
20F
100
AcDbSymbolTableRecord
100
AcDbRegAppTableRecord
2
ACAD_DSTYLE_DIM_EXT1_LINETYPE
70
0
0
APPID
5
210
100
AcDbSymbolTableRecord
100
AcDbRegAppTableRecord
2
ACAD_DSTYLE_DIM_EXT2_LINETYPE
70
0
0
APPID
5
24B
100
AcDbSymbolTableRecord
100
AcDbRegAppTableRecord
2
ACAD_MLEADERVER
70
0
0
ENDTAB
0
TABLE
2
BLOCK_RECORD
5
26a
100
AcDbSymbolTable
0
BLOCK_RECORD
5
1F
100
AcDbSymbolTableRecord
100
AcDbBlockTableRecord
2
*Model_Space
340
0
70
0
0
BLOCK_RECORD
5
1B
100
AcDbSymbolTableRecord
100
AcDbBlockTableRecord
2
*Paper_Space
340
0
70
0
0
BLOCK_RECORD
5
23
100
AcDbSymbolTableRecord
100
AcDbBlockTableRecord
2
*Paper_Space0
340
0
70
0
0
BLOCK_RECORD
5
190
100
AcDbSymbolTableRecord
100
AcDbBlockTableRecord
2
*D1
340
0
70
0
0
BLOCK_RECORD
5
19D
100
AcDbSymbolTableRecord
100
AcDbBlockTableRecord
2
_U0
340
0
70
0
0
BLOCK_RECORD
5
1A9
100
AcDbSymbolTableRecord
100
AcDbBlockTableRecord
2
*D3
340
0
70
0
0
BLOCK_RECORD
5
1B6
100
AcDbSymbolTableRecord
100
AcDbBlockTableRecord
2
_U1
340
0
70
0
0
BLOCK_RECORD
5
1C2
100
AcDbSymbolTableRecord
100
AcDbBlockTableRecord
2
*D5
340
0
70
0
0
BLOCK_RECORD
5
1CF
100
AcDbSymbolTableRecord
100
AcDbBlockTableRecord
2
_U2
340
0
70
0
0
BLOCK_RECORD
5
1DB
100
AcDbSymbolTableRecord
100
AcDbBlockTableRecord
2
*D7
340
0
70
0
0
BLOCK_RECORD
5
1E7
100
AcDbSymbolTableRecord
100
AcDbBlockTableRecord
2
_U3
340
0
70
0
0
ENDTAB
0
ENDSEC
0
SECTION
2
BLOCKS
0
BLOCK
5
20
100
AcDbEntity
8
0
100
AcDbBlockBegin
2
*Model_Space
70
0
10
0
20
0
30
0
3
*Model_Space
0
ENDBLK
5
21
100
AcDbEntity
8
0
100
AcDbBlockEnd
0
BLOCK
5
1C
100
AcDbEntity
8
0
100
AcDbBlockBegin
2
*Paper_Space
70
0
10
0
20
0
30
0
3
*Paper_Space
0
ENDBLK
5
1D
100
AcDbEntity
8
0
100
AcDbBlockEnd
0
BLOCK
5
24
100
AcDbEntity
8
0
100
AcDbBlockBegin
2
*Paper_Space0
70
0
10
0
20
0
30
0
3
*Paper_Space0
0
ENDBLK
5
25
100
AcDbEntity
8
0
100
AcDbBlockEnd
0
BLOCK
5
191
100
AcDbEntity
8
0
100
AcDbBlockBegin
2
*D1
70
1
10
0
20
0
30
0
3
*D1
0
LINE
5
193
100
AcDbEntity
8
0
62
256
6
ByLayer
370
-2
48
1
60
0
100
AcDbLine
10
45.320339
20
17.575
30
0
11
78.832839
21
17.575
31
0
39
0
210
0
220
0
230
1
0
LINE
5
194
100
AcDbEntity
8
0
62
256
6
ByLayer
370
-2
48
1
60
0
100
AcDbLine
10
-124.679661
20
-15.925
30
0
11
78.832839
21
-15.925
31
0
39
0
210
0
220
0
230
1
0
LINE
5
195
100
AcDbEntity
8
0
62
256
6
ByLayer
370
-2
48
1
60
0
100
AcDbLine
10
76.832839
20
14.075
30
0
11
76.832839
21
-12.425
31
0
39
0
210
0
220
0
230
1
0
SOLID
5
196
100
AcDbEntity
8
0
62
256
6
ByLayer
370
-1
48
1
60
0
100
AcDbTrace
10
77.416172
20
14.075
30
0
11
76.249505
21
14.075
31
0
12
76.832839
22
17.575
32
0
13
76.832839
23
17.575
33
0
39
0
210
0
220
0
230
1
0
SOLID
5
197
100
AcDbEntity
8
0
62
256
6
ByLayer
370
-1
48
1
60
0
100
AcDbTrace
10
76.249505
20
-12.425
30
0
11
77.416172
21
-12.425
31
0
12
76.832839
22
-15.925
32
0
13
76.832839
23
-15.925
33
0
39
0
210
0
220
0
230
1
0
MTEXT
5
198
100
AcDbEntity
8
0
62
256
6
ByLayer
370
18
48
1
60
0
100
AcDbMText
10
69.832839
20
0.825
30
0
210
0
220
0
230
1
1
\A1;33.5
40
3.5
41
0
44
1
50
90
71
5
72
5
7
iso_b_vert
0
POINT
5
199
100
AcDbEntity
8
Defpoints
62
0
6
ByLayer
370
-1
48
1
60
0
100
AcDbPoint
10
43.732839
20
17.575
30
0
39
0
210
0
220
0
230
1
50
360
0
POINT
5
19A
100
AcDbEntity
8
Defpoints
62
0
6
ByLayer
370
-1
48
1
60
0
100
AcDbPoint
10
-126.267161
20
-15.925
30
0
39
0
210
0
220
0
230
1
50
360
0
POINT
5
19B
100
AcDbEntity
8
Defpoints
62
0
6
ByLayer
370
-1
48
1
60
0
100
AcDbPoint
10
76.832839
20
-15.925
30
0
39
0
210
0
220
0
230
1
50
360
0
ENDBLK
5
192
100
AcDbEntity
8
0
100
AcDbBlockEnd
0
BLOCK
5
1A4
100
AcDbEntity
8
0
100
AcDbBlockBegin
2
_U0
70
0
10
0
20
0
30
0
3
_U0
0
MTEXT
5
19E
100
AcDbEntity
8
2
62
256
6
ByLayer
370
18
48
1
60
0
100
AcDbMText
10
76.143205
20
-3.124699
30
0
210
0
220
0
230
1
1
\W0.7346;33.5
40
3.5
41
0
44
1.084337
50
90
71
7
72
5
7
iso_b_vert
0
LINE
5
19F
100
AcDbEntity
8
2
62
256
6
ByLayer
370
13
48
1
60
0
100
AcDbLine
10
45.320339
20
17.575
30
0
11
78.832839
21
17.575
31
0
39
0
210
0
220
0
230
1
0
LINE
5
1A0
100
AcDbEntity
8
2
62
256
6
ByLayer
370
13
48
1
60
0
100
AcDbLine
10
-124.679661
20
-15.925
30
0
11
78.832839
21
-15.925
31
0
39
0
210
0
220
0
230
1
0
LINE
5
1A1
100
AcDbEntity
8
2
62
256
6
ByLayer
370
13
48
1
60
0
100
AcDbLine
10
76.832839
20
17.575
30
0
11
76.832839
21
-15.925
31
0
39
0
210
0
220
0
230
1
0
SOLID
5
1A2
100
AcDbEntity
8
2
62
256
6
ByLayer
370
18
48
1
60
0
100
AcDbTrace
10
76.832839
20
17.575
30
0
11
77.293622
21
14.075002
31
0
12
76.372055
22
14.074998
32
0
13
76.372055
23
14.074998
33
0
39
0
210
0
220
0
230
1
0
SOLID
5
1A3
100
AcDbEntity
8
2
62
256
6
ByLayer
370
18
48
1
60
0
100
AcDbTrace
10
76.832839
20
-15.925
30
0
11
76.372055
21
-12.425002
31
0
12
77.293622
22
-12.424998
32
0
13
77.293622
23
-12.424998
33
0
39
0
210
0
220
0
230
1
0
ENDBLK
5
1A5
100
AcDbEntity
8
0
100
AcDbBlockEnd
0
BLOCK
5
1AA
100
AcDbEntity
8
0
100
AcDbBlockBegin
2
*D3
70
1
10
0
20
0
30
0
3
*D3
0
LINE
5
1AC
100
AcDbEntity
8
0
62
256
6
ByLayer
370
-2
48
1
60
0
100
AcDbLine
10
45.320339
20
9.575
30
0
11
66.832839
21
9.575
31
0
39
0
210
0
220
0
230
1
0
LINE
5
1AD
100
AcDbEntity
8
0
62
256
6
ByLayer
370
-2
48
1
60
0
100
AcDbLine
10
45.320339
20
17.575
30
0
11
66.832839
21
17.575
31
0
39
0
210
0
220
0
230
1
0
LINE
5
1AE
100
AcDbEntity
8
0
62
256
6
ByLayer
370
-2
48
1
60
0
100
AcDbLine
10
64.832839
20
6.075
30
0
11
64.832839
21
2.575
31
0
39
0
210
0
220
0
230
1
0
LINE
5
1AF
100
AcDbEntity
8
0
62
256
6
ByLayer
370
-2
48
1
60
0
100
AcDbLine
10
64.832839
20
21.075
30
0
11
64.832839
21
24.575
31
0
39
0
210
0
220
0
230
1
0
SOLID
5
1B0
100
AcDbEntity
8
0
62
256
6
ByLayer
370
-1
48
1
60
0
100
AcDbTrace
10
65.416172
20
6.075
30
0
11
64.249505
21
6.075
31
0
12
64.832839
22
9.575
32
0
13
64.832839
23
9.575
33
0
39
0
210
0
220
0
230
1
0
SOLID
5
1B1
100
AcDbEntity
8
0
62
256
6
ByLayer
370
-1
48
1
60
0
100
AcDbTrace
10
64.249505
20
21.075
30
0
11
65.416172
21
21.075
31
0
12
64.832839
22
17.575
32
0
13
64.832839
23
17.575
33
0
39
0
210
0
220
0
230
1
0
MTEXT
5
1B2
100
AcDbEntity
8
0
62
256
6
ByLayer
370
18
48
1
60
0
100
AcDbMText
10
57.832839
20
13.575
30
0
210
0
220
0
230
1
1
\A1;8
40
3.5
41
0
44
1
50
90
71
5
72
5
7
iso_b_vert
0
POINT
5
1B3
100
AcDbEntity
8
Defpoints
62
0
6
ByLayer
370
-1
48
1
60
0
100
AcDbPoint
10
43.732839
20
9.575
30
0
39
0
210
0
220
0
230
1
50
360
0
POINT
5
1B4
100
AcDbEntity
8
Defpoints
62
0
6
ByLayer
370
-1
48
1
60
0
100
AcDbPoint
10
43.732839
20
17.575
30
0
39
0
210
0
220
0
230
1
50
360
0
POINT
5
1B5
100
AcDbEntity
8
Defpoints
62
0
6
ByLayer
370
-1
48
1
60
0
100
AcDbPoint
10
64.832839
20
17.575
30
0
39
0
210
0
220
0
230
1
50
360
0
ENDBLK
5
1AB
100
AcDbEntity
8
0
100
AcDbBlockEnd
0
BLOCK
5
1BD
100
AcDbEntity
8
0
100
AcDbBlockBegin
2
_U1
70
0
10
0
20
0
30
0
3
_U1
0
MTEXT
5
1B7
100
AcDbEntity
8
2
62
256
6
ByLayer
370
18
48
1
60
0
100
AcDbMText
10
64.143205
20
12.949767
30
0
210
0
220
0
230
1
1
\W0.5404;8
40
3.5
41
0
44
1.084337
50
90
71
7
72
5
7
iso_b_vert
0
LINE
5
1B8
100
AcDbEntity
8
2
62
256
6
ByLayer
370
13
48
1
60
0
100
AcDbLine
10
45.320339
20
9.575
30
0
11
66.832839
21
9.575
31
0
39
0
210
0
220
0
230
1
0
LINE
5
1B9
100
AcDbEntity
8
2
62
256
6
ByLayer
370
13
48
1
60
0
100
AcDbLine
10
45.320339
20
17.575
30
0
11
66.832839
21
17.575
31
0
39
0
210
0
220
0
230
1
0
LINE
5
1BA
100
AcDbEntity
8
2
62
256
6
ByLayer
370
13
48
1
60
0
100
AcDbLine
10
64.832839
20
9.575
30
0
11
64.832839
21
17.575
31
0
39
0
210
0
220
0
230
1
0
SOLID
5
1BB
100
AcDbEntity
8
2
62
256
6
ByLayer
370
18
48
1
60
0
100
AcDbTrace
10
64.832839
20
9.575
30
0
11
64.372055
21
13.074998
31
0
12
65.293622
22
13.075002
32
0
13
65.293622
23
13.075002
33
0
39
0
210
0
220
0
230
1
0
SOLID
5
1BC
100
AcDbEntity
8
2
62
256
6
ByLayer
370
18
48
1
60
0
100
AcDbTrace
10
64.832839
20
17.575
30
0
11
65.293622
21
14.075002
31
0
12
64.372055
22
14.074998
32
0
13
64.372055
23
14.074998
33
0
39
0
210
0
220
0
230
1
0
ENDBLK
5
1BE
100
AcDbEntity
8
0
100
AcDbBlockEnd
0
BLOCK
5
1C3
100
AcDbEntity
8
0
100
AcDbBlockBegin
2
*D5
70
1
10
0
20
0
30
0
3
*D5
0
LINE
5
1C5
100
AcDbEntity
8
0
62
256
6
ByLayer
370
-2
48
1
60
0
100
AcDbLine
10
-127.854661
20
-15.925
30
0
11
-139.867161
21
-15.925
31
0
39
0
210
0
220
0
230
1
0
LINE
5
1C6
100
AcDbEntity
8
0
62
256
6
ByLayer
370
-2
48
1
60
0
100
AcDbLine
10
-127.854661
20
16.075
30
0
11
-139.867161
21
16.075
31
0
39
0
210
0
220
0
230
1
0
LINE
5
1C7
100
AcDbEntity
8
0
62
256
6
ByLayer
370
-2
48
1
60
0
100
AcDbLine
10
-137.867161
20
-12.425
30
0
11
-137.867161
21
12.575
31
0
39
0
210
0
220
0
230
1
0
SOLID
5
1C8
100
AcDbEntity
8
0
62
256
6
ByLayer
370
-1
48
1
60
0
100
AcDbTrace
10
-138.450495
20
-12.425
30
0
11
-137.283828
21
-12.425
31
0
12
-137.867161
22
-15.925
32
0
13
-137.867161
23
-15.925
33
0
39
0
210
0
220
0
230
1
0
SOLID
5
1C9
100
AcDbEntity
8
0
62
256
6
ByLayer
370
-1
48
1
60
0
100
AcDbTrace
10
-137.283828
20
12.575
30
0
11
-138.450495
21
12.575
31
0
12
-137.867161
22
16.075
32
0
13
-137.867161
23
16.075
33
0
39
0
210
0
220
0
230
1
0
MTEXT
5
1CA
100
AcDbEntity
8
0
62
256
6
ByLayer
370
18
48
1
60
0
100
AcDbMText
10
-144.867161
20
0.075
30
0
210
0
220
0
230
1
1
\A1;32
40
3.5
41
0
44
1
50
90
71
5
72
5
7
iso_b_vert
0
POINT
5
1CB
100
AcDbEntity
8
Defpoints
62
0
6
ByLayer
370
-1
48
1
60
0
100
AcDbPoint
10
-126.267161
20
-15.925
30
0
39
0
210
0
220
0
230
1
50
360
0
POINT
5
1CC
100
AcDbEntity
8
Defpoints
62
0
6
ByLayer
370
-1
48
1
60
0
100
AcDbPoint
10
-126.267161
20
16.075
30
0
39
0
210
0
220
0
230
1
50
360
0
POINT
5
1CD
100
AcDbEntity
8
Defpoints
62
0
6
ByLayer
370
-1
48
1
60
0
100
AcDbPoint
10
-137.867161
20
16.075
30
0
39
0
210
0
220
0
230
1
50
360
0
ENDBLK
5
1C4
100
AcDbEntity
8
0
100
AcDbBlockEnd
0
BLOCK
5
1D6
100
AcDbEntity
8
0
100
AcDbBlockBegin
2
_U2
70
0
10
0
20
0
30
0
3
_U2
0
MTEXT
5
1D0
100
AcDbEntity
8
SK2
62
256
6
ByLayer
370
18
48
1
60
0
100
AcDbMText
10
-138.556795
20
-1.857966
30
0
210
0
220
0
230
1
1
\W0.6740;32
40
3.5
41
0
44
1.084337
50
90
71
7
72
5
7
iso_b_vert
0
LINE
5
1D1
100
AcDbEntity
8
SK2
62
256
6
ByLayer
370
13
48
1
60
0
100
AcDbLine
10
-127.854661
20
-15.925
30
0
11
-139.867161
21
-15.925
31
0
39
0
210
0
220
0
230
1
0
LINE
5
1D2
100
AcDbEntity
8
SK2
62
256
6
ByLayer
370
13
48
1
60
0
100
AcDbLine
10
-127.854661
20
16.075
30
0
11
-139.867161
21
16.075
31
0
39
0
210
0
220
0
230
1
0
LINE
5
1D3
100
AcDbEntity
8
SK2
62
256
6
ByLayer
370
13
48
1
60
0
100
AcDbLine
10
-137.867161
20
-15.925
30
0
11
-137.867161
21
16.075
31
0
39
0
210
0
220
0
230
1
0
SOLID
5
1D4
100
AcDbEntity
8
SK2
62
256
6
ByLayer
370
18
48
1
60
0
100
AcDbTrace
10
-137.867161
20
-15.925
30
0
11
-138.327945
21
-12.425002
31
0
12
-137.406378
22
-12.424998
32
0
13
-137.406378
23
-12.424998
33
0
39
0
210
0
220
0
230
1
0
SOLID
5
1D5
100
AcDbEntity
8
SK2
62
256
6
ByLayer
370
18
48
1
60
0
100
AcDbTrace
10
-137.867161
20
16.075
30
0
11
-137.406378
21
12.575002
31
0
12
-138.327945
22
12.574998
32
0
13
-138.327945
23
12.574998
33
0
39
0
210
0
220
0
230
1
0
ENDBLK
5
1D7
100
AcDbEntity
8
0
100
AcDbBlockEnd
0
BLOCK
5
1DC
100
AcDbEntity
8
0
100
AcDbBlockBegin
2
*D7
70
1
10
0
20
0
30
0
3
*D7
0
LINE
5
1DE
100
AcDbEntity
8
0
62
256
6
ByLayer
370
-2
48
1
60
0
100
AcDbLine
10
-126.267161
20
-17.5125
30
0
11
-126.267161
21
-38.675
31
0
39
0
210
0
220
0
230
1
0
LINE
5
1DF
100
AcDbEntity
8
0
62
256
6
ByLayer
370
-2
48
1
60
0
100
AcDbLine
10
43.732839
20
15.9875
30
0
11
43.732839
21
-38.675
31
0
39
0
210
0
220
0
230
1
0
LINE
5
1E0
100
AcDbEntity
8
0
62
256
6
ByLayer
370
-2
48
1
60
0
100
AcDbLine
10
-122.767161
20
-36.675
30
0
11
40.232839
21
-36.675
31
0
39
0
210
0
220
0
230
1
0
SOLID
5
1E1
100
AcDbEntity
8
0
62
256
6
ByLayer
370
-1
48
1
60
0
100
AcDbTrace
10
-122.767161
20
-36.091667
30
0
11
-122.767161
21
-37.258333
31
0
12
-126.267161
22
-36.675
32
0
13
-126.267161
23
-36.675
33
0
39
0
210
0
220
0
230
1
0
SOLID
5
1E2
100
AcDbEntity
8
0
62
256
6
ByLayer
370
-1
48
1
60
0
100
AcDbTrace
10
40.232839
20
-37.258333
30
0
11
40.232839
21
-36.091667
31
0
12
43.732839
22
-36.675
32
0
13
43.732839
23
-36.675
33
0
39
0
210
0
220
0
230
1
0
MTEXT
5
1E3
100
AcDbEntity
8
0
62
256
6
ByLayer
370
18
48
1
60
0
100
AcDbMText
10
-41.267161
20
-29.675
30
0
210
0
220
0
230
1
1
\A1;170
40
3.5
41
0
44
1
50
0
71
5
72
5
7
iso_b_vert
0
POINT
5
1E4
100
AcDbEntity
8
Defpoints
62
0
6
ByLayer
370
-1
48
1
60
0
100
AcDbPoint
10
-126.267161
20
-15.925
30
0
39
0
210
0
220
0
230
1
50
360
0
POINT
5
1E5
100
AcDbEntity
8
Defpoints
62
0
6
ByLayer
370
-1
48
1
60
0
100
AcDbPoint
10
43.732839
20
17.575
30
0
39
0
210
0
220
0
230
1
50
360
0
POINT
5
1E6
100
AcDbEntity
8
Defpoints
62
0
6
ByLayer
370
-1
48
1
60
0
100
AcDbPoint
10
43.732839
20
-36.675
30
0
39
0
210
0
220
0
230
1
50
360
0
ENDBLK
5
1DD
100
AcDbEntity
8
0
100
AcDbBlockEnd
0
BLOCK
5
1EE
100
AcDbEntity
8
0
100
AcDbBlockBegin
2
_U3
70
0
10
0
20
0
30
0
3
_U3
0
MTEXT
5
1E8
100
AcDbEntity
8
SK2
62
256
6
ByLayer
370
18
48
1
60
0
100
AcDbMText
10
-44.042427
20
-35.642366
30
0
210
0
220
0
230
1
1
\W0.6217;170
40
3.5
41
0
44
1.084337
50
0
71
7
72
5
7
iso_b_vert
0
LINE
5
1E9
100
AcDbEntity
8
SK2
62
256
6
ByLayer
370
13
48
1
60
0
100
AcDbLine
10
-126.267161
20
-17.5125
30
0
11
-126.267161
21
-38.675
31
0
39
0
210
0
220
0
230
1
0
LINE
5
1EA
100
AcDbEntity
8
SK2
62
256
6
ByLayer
370
13
48
1
60
0
100
AcDbLine
10
43.732839
20
15.9875
30
0
11
43.732839
21
-38.675
31
0
39
0
210
0
220
0
230
1
0
LINE
5
1EB
100
AcDbEntity
8
SK2
62
256
6
ByLayer
370
13
48
1
60
0
100
AcDbLine
10
-126.267161
20
-36.675
30
0
11
43.732839
21
-36.675
31
0
39
0
210
0
220
0
230
1
0
SOLID
5
1EC
100
AcDbEntity
8
SK2
62
256
6
ByLayer
370
18
48
1
60
0
100
AcDbTrace
10
-126.267161
20
-36.675
30
0
11
-122.767163
21
-36.214216
31
0
12
-122.76716
22
-37.135784
32
0
13
-122.76716
23
-37.135784
33
0
39
0
210
0
220
0
230
1
0
SOLID
5
1ED
100
AcDbEntity
8
SK2
62
256
6
ByLayer
370
18
48
1
60
0
100
AcDbTrace
10
43.732839
20
-36.675
30
0
11
40.23284
21
-37.135784
31
0
12
40.232837
22
-36.214216
32
0
13
40.232837
23
-36.214216
33
0
39
0
210
0
220
0
230
1
0
ENDBLK
5
1EF
100
AcDbEntity
8
0
100
AcDbBlockEnd
0
ENDSEC
0
SECTION
2
ENTITIES
0
ARC
5
EF
100
AcDbEntity
8
1
62
256
6
ByLayer
370
18
48
1
60
0
100
AcDbCircle
39
0
10
20.732839
20
8.8
30
0
40
1.6
210
0
220
0
230
1
100
AcDbArc
50
164.600078
51
180
0
ARC
5
F1
100
AcDbEntity
8
1
62
256
6
ByLayer
370
18
48
1
60
0
100
AcDbCircle
39
0
10
12.382839
20
2.475
30
0
40
2.1768
210
0
220
0
230
1
100
AcDbArc
50
90
51
150
0
ARC
5
F2
100
AcDbEntity
8
1
62
256
6
ByLayer
370
18
48
1
60
0
100
AcDbCircle
39
0
10
12.382839
20
2.475
30
0
40
2.1768
210
0
220
0
230
1
100
AcDbArc
50
210
51
270
0
ARC
5
F3
100
AcDbEntity
8
1
62
256
6
ByLayer
370
18
48
1
60
0
100
AcDbCircle
39
0
10
12.382839
20
2.475
30
0
40
2.1768
210
0
220
0
230
1
100
AcDbArc
50
270
51
330
0
ARC
5
F4
100
AcDbEntity
8
1
62
256
6
ByLayer
370
18
48
1
60
0
100
AcDbCircle
39
0
10
12.382839
20
2.475
30
0
40
2.1768
210
0
220
0
230
1
100
AcDbArc
50
330
51
30
0
ARC
5
F5
100
AcDbEntity
8
1
62
256
6
ByLayer
370
18
48
1
60
0
100
AcDbCircle
39
0
10
12.382839
20
2.475
30
0
40
2.1768
210
0
220
0
230
1
100
AcDbArc
50
30
51
90
0
ARC
5
F6
100
AcDbEntity
8
1
62
256
6
ByLayer
370
18
48
1
60
0
100
AcDbCircle
39
0
10
12.382839
20
2.475
30
0
40
2.1768
210
0
220
0
230
1
100
AcDbArc
50
150
51
210
0
ARC
5
F9
100
AcDbEntity
8
1
62
256
6
ByLayer
370
18
48
1
60
0
100
AcDbCircle
39
0
10
12.382839
20
2.475
30
0
40
2.8067
210
0
220
0
230
1
100
AcDbArc
50
180
51
240
0
ARC
5
FA
100
AcDbEntity
8
1
62
256
6
ByLayer
370
18
48
1
60
0
100
AcDbCircle
39
0
10
12.382839
20
2.475
30
0
40
2.8067
210
0
220
0
230
1
100
AcDbArc
50
240
51
300
0
ARC
5
FB
100
AcDbEntity
8
1
62
256
6
ByLayer
370
18
48
1
60
0
100
AcDbCircle
39
0
10
12.382839
20
2.475
30
0
40
2.8067
210
0
220
0
230
1
100
AcDbArc
50
60
51
120
0
ARC
5
FC
100
AcDbEntity
8
1
62
256
6
ByLayer
370
18
48
1
60
0
100
AcDbCircle
39
0
10
12.382839
20
2.475
30
0
40
2.8067
210
0
220
0
230
1
100
AcDbArc
50
0
51
60
0
ARC
5
FD
100
AcDbEntity
8
1
62
256
6
ByLayer
370
18
48
1
60
0
100
AcDbCircle
39
0
10
12.382839
20
2.475
30
0
40
2.8067
210
0
220
0
230
1
100
AcDbArc
50
300
51
0
0
ARC
5
FE
100
AcDbEntity
8
1
62
256
6
ByLayer
370
18
48
1
60
0
100
AcDbCircle
39
0
10
12.382839
20
2.475
30
0
40
2.8067
210
0
220
0
230
1
100
AcDbArc
50
120
51
180
0
CIRCLE
5
F0
100
AcDbEntity
8
1
62
256
6
ByLayer
370
18
48
1
60
0
100
AcDbCircle
10
12.382839
20
2.475
30
0
40
5.75
39
0
210
0
220
0
230
1
0
CIRCLE
5
F7
100
AcDbEntity
8
1
62
256
6
ByLayer
370
13
48
1
60
0
100
AcDbCircle
10
12.382839
20
2.475
30
0
40
4.55
39
0
210
0
220
0
230
1
0
CIRCLE
5
F8
100
AcDbEntity
8
1
62
256
6
ByLayer
370
18
48
1
60
0
100
AcDbCircle
10
12.382839
20
2.475
30
0
40
5.35
39
0
210
0
220
0
230
1
0
ELLIPSE
5
FF
100
AcDbEntity
8
1
62
256
6
ByLayer
370
18
48
1
60
0
100
AcDbEllipse
10
32.915109
20
13.050031
30
0
11
9.1845476537388E-18
21
0.150000000001159
31
0
210
0
220
0
230
1
40
0.784863
41
-2.79252680318756
42
-1.5707963267949
0
ELLIPSE
5
100
100
AcDbEntity
8
1
62
256
6
ByLayer
370
18
48
1
60
0
100
AcDbEllipse
10
32.915109
20
14.099969
30
0
11
9.18454765375386E-18
21
0.150000000001405
31
0
210
0
220
0
230
1
40
0.784863
41
-1.5707963267949
42
-0.349065850404597
0
ELLIPSE
5
101
100
AcDbEntity
8
1
62
256
6
ByLayer
370
18
48
1
60
0
100
AcDbEllipse
10
53.14714
20
84.775
30
0
11
4.16519236100102E-15
21
68.0250000010233
31
0
210
0
220
0
230
1
40
0.722135
41
2.68211375811783
42
2.92379997645852
0
ELLIPSE
5
102
100
AcDbEntity
8
1
62
256
6
ByLayer
370
18
48
1
60
0
100
AcDbEllipse
10
34.926109
20
84.774999
30
0
11
86.0632654657641
21
1.00819274023359E-13
31
0
210
0
220
0
230
1
40
0.790407
41
-1.63699682046399
42
-1.59975099265973
0
ELLIPSE
5
103
100
AcDbEntity
8
1
62
256
6
ByLayer
370
18
48
1
60
0
100
AcDbEllipse
10
0.133975
20
84.775
30
0
11
4.16519235992892E-15
21
68.0249999835141
31
0
210
0
220
0
230
1
40
0.267949
41
-3.12286987118549
42
-3.04293950771175
0
ELLIPSE
5
104
100
AcDbEntity
8
1
62
256
6
ByLayer
370
18
48
1
60
0
100
AcDbEllipse
10
34.926109
20
55.075
30
0
11
56.5215201522122
21
6.62124379966682E-14
31
0
210
0
220
0
230
1
40
0.790407
41
-1.67169491585666
42
-1.61471720126694
0
ELLIPSE
5
105
100
AcDbEntity
8
1
62
256
6
ByLayer
370
18
48
1
60
0
100
AcDbEllipse
10
-427.521372
20
55.05835
30
0
11
3464.72186807192
21
-7.75602491506702
31
0
210
0
220
0
230
1
40
0.012694
41
-1.44102756120457
42
-1.43767666083726
0
ELLIPSE
5
106
100
AcDbEntity
8
1
62
256
6
ByLayer
370
18
48
1
60
0
100
AcDbEllipse
10
37.027067
20
84.774996
30
0
11
117.822752932549
21
1.38024095992715E-13
31
0
210
0
220
0
230
1
40
0.57735
41
-1.66944947536221
42
-1.63699682194699
0
ELLIPSE
5
107
100
AcDbEntity
8
1
62
256
6
ByLayer
370
18
48
1
60
0
100
AcDbEllipse
10
37.027067
20
55.075
30
0
11
77.3793698117154
21
9.0646477873949E-14
31
0
210
0
220
0
230
1
40
0.57735
41
-1.76678847833759
42
-1.67169491601462
0
ELLIPSE
5
108
100
AcDbEntity
8
SK1
62
256
6
ByLayer
370
18
48
1
60
0
100
AcDbEllipse
10
-2.422558
20
-15.934599
30
0
11
2.99999999999992
21
3.51436609374747E-15
31
0
210
0
220
0
230
1
40
0.004363
41
1.13631474279216
42
2.31838067646382
0
POINT
5
70
100
AcDbEntity
8
1
62
256
6
ByLayer
370
18
48
1
60
0
100
AcDbPoint
10
43.732839
20
13.575
30
0
39
0
210
0
220
0
230
1
50
360
0
POINT
5
72
100
AcDbEntity
8
81
62
256
6
ByLayer
370
18
48
1
60
0
100
AcDbPoint
10
43.732839
20
17.575
30
0
39
0
210
0
220
0
230
1
50
360
0
POINT
5
74
100
AcDbEntity
8
80
62
256
6
ByLayer
370
18
48
1
60
0
100
AcDbPoint
10
0
20
0
30
0
39
0
210
0
220
0
230
1
50
360
0
POINT
5
76
100
AcDbEntity
8
1
62
256
6
ByLayer
370
18
48
1
60
1
100
AcDbPoint
10
43.732839
20
17.575
30
0
39
0
210
0
220
0
230
1
50
360
0
POINT
5
77
100
AcDbEntity
8
1
62
256
6
ByLayer
370
18
48
1
60
1
100
AcDbPoint
10
-126.267161
20
-15.925
30
0
39
0
210
0
220
0
230
1
50
360
0
POINT
5
78
100
AcDbEntity
8
1
62
256
6
ByLayer
370
18
48
1
60
1
100
AcDbPoint
10
43.732839
20
9.575
30
0
39
0
210
0
220
0
230
1
50
360
0
POINT
5
79
100
AcDbEntity
8
1
62
256
6
ByLayer
370
18
48
1
60
1
100
AcDbPoint
10
43.732839
20
17.575
30
0
39
0
210
0
220
0
230
1
50
360
0
POINT
5
7A
100
AcDbEntity
8
1
62
256
6
ByLayer
370
18
48
1
60
1
100
AcDbPoint
10
-126.267161
20
-15.925
30
0
39
0
210
0
220
0
230
1
50
360
0
POINT
5
7B
100
AcDbEntity
8
1
62
256
6
ByLayer
370
18
48
1
60
1
100
AcDbPoint
10
-126.267161
20
16.075
30
0
39
0
210
0
220
0
230
1
50
360
0
POINT
5
7C
100
AcDbEntity
8
1
62
256
6
ByLayer
370
18
48
1
60
1
100
AcDbPoint
10
-126.267161
20
-15.925
30
0
39
0
210
0
220
0
230
1
50
360
0
POINT
5
7D
100
AcDbEntity
8
1
62
256
6
ByLayer
370
18
48
1
60
1
100
AcDbPoint
10
43.732839
20
17.575
30
0
39
0
210
0
220
0
230
1
50
360
0
SPLINE
5
109
100
AcDbEntity
8
1
62
256
6
ByLayer
370
18
48
1
60
0
100
AcDbSpline
70
4
71
3
72
12
73
8
40
0
40
0
40
0
40
0
40
0.500000000000017
40
0.500000000000017
40
0.750000000000008
40
0.750000000000008
40
1
40
1
40
1
40
1
41
1
10
0.17326502186998
20
16.7521920962659
30
0
41
1
10
0.148301251454114
20
16.7069364154208
30
0
41
1
10
0.121423881575055
20
16.6633663620696
30
0
41
1
10
0.0781339058003425
20
16.6001271168841
30
0
41
1
10
0.0632070238561653
20
16.5794032607136
30
0
41
1
10
0.0323279694767393
20
16.538630350565
30
0
41
1
10
0.016363941729594
20
16.5185714484152
30
0
41
1
10
1.421E-13
20
16.4989903551088
30
0
0
SPLINE
5
10A
100
AcDbEntity
8
1
62
256
6
ByLayer
370
18
48
1
60
0
100
AcDbSpline
70
4
71
3
72
16
73
12
40
0
40
0
40
0
40
0
40
0.0562419003050954
40
0.0562419003050954
40
0.191064485975795
40
0.191064485975795
40
0.460709657317196
40
0.460709657317196
40
0.730354828658598
40
0.730354828658598
40
1
40
1
40
1
40
1
41
1
10
0.172054975816224
20
16.7500003604894
30
0
41
1
10
0.172060032653945
20
16.7500099006668
30
0
41
1
10
0.172275557850639
20
16.7504005489997
30
0
41
1
10
0.17372442198004
20
16.7530226134375
30
0
41
1
10
0.175958140110112
20
16.7570619574929
30
0
41
1
10
0.186065993319744
20
16.7757333438184
30
0
41
1
10
0.197408301154439
20
16.7969171968807
30
0
41
1
10
0.226410051734575
20
16.8567179853563
30
0
41
1
10
0.24404611672972
20
16.8953347876384
30
0
41
1
10
0.281041775689857
20
16.9900126628784
30
0
41
1
10
0.300390773524754
20
17.0460736289191
30
0
41
1
10
0.317758141296167
20
17.110889527836
30
0
0
SPLINE
5
10B
100
AcDbEntity
8
1
62
256
6
ByLayer
370
18
48
1
60
0
100
AcDbSpline
70
4
71
3
72
10
73
6
40
0
40
0
40
0
40
0
40
0.5
40
0.5
40
1
40
1
40
1
40
1
41
1
10
0.475219378336391
20
16.7619224812479
30
0
41
1
10
0.44078147816353
20
16.7595158732779
30
0
41
1
10
0.398218993542855
20
16.7575428673325
30
0
41
1
10
0.297492028254425
20
16.7543385070897
30
0
41
1
10
0.239325556213117
20
16.7531075164577
30
0
41
1
10
0.17326502186998
20
16.7521920962659
30
0
0
SPLINE
5
10C
100
AcDbEntity
8
1
62
256
6
ByLayer
370
18
48
1
60
0
100
AcDbSpline
70
4
71
2
72
6
73
3
40
0
40
0
40
0
40
1
40
1
40
1
41
0.499999969340774
10
25.6843685305624
20
17.0659516438396
30
0
41
0.49999993713347
10
26.004546399256
20
17.0665817317726
30
0
41
0.499999871092615
10
26.3247072880919
20
17.0672130736067
30
0
0
SPLINE
5
10D
100
AcDbEntity
8
1
62
256
6
ByLayer
370
18
48
1
60
0
100
AcDbSpline
70
4
71
2
72
6
73
3
40
0
40
0
40
0
40
1
40
1
40
1
41
0.499999656171057
10
32.2714358496713
20
17.0672130736067
30
0
41
0.500000343828943
10
33.506119822945
20
17.064748399461
30
0
41
0.499999656171057
10
34.7410613279207
20
17.0623028312137
30
0
0
SPLINE
5
10E
100
AcDbEntity
8
1
62
256
6
ByLayer
370
18
48
1
60
0
100
AcDbSpline
70
4
71
3
72
30
73
26
40
0
40
0
40
0
40
0
40
0.124999999999974
40
0.249999999999947
40
0.249999999999947
40
0.281249999999942
40
0.281249999999942
40
0.312499999999937
40
0.374999999999906
40
0.374999999999906
40
0.499999999999841
40
0.499999999999841
40
0.531249999999839
40
0.531249999999839
40
0.562499999999837
40
0.624999999999834
40
0.624999999999834
40
0.74999999999983
40
0.74999999999983
40
0.781249999999837
40
0.781249999999837
40
0.812499999999845
40
0.874999999999896
40
0.874999999999896
40
1
40
1
40
1
40
1
41
1
10
19.1763351341847
20
9.22500000000002
30
0
41
1
10
19.1970903606902
20
9.31153251710958
30
0
41
1
10
19.2525691093242
20
9.47874911906641
30
0
41
1
10
19.3348560770391
20
9.63474129840225
30
0
41
1
10
19.3950261406299
20
9.7285767339927
30
0
41
1
10
19.4074592979989
20
9.74709288958539
30
0
41
1
10
19.4329854627498
20
9.78343827985489
30
0
41
1
10
19.4723228106052
20
9.83701545151226
30
0
41
1
10
19.5147569135132
20
9.88781256652183
30
0
41
1
10
19.6037095755744
20
9.9857400487534
30
0
41
1
10
19.668427607002
20
10.0461626889837
30
0
41
1
10
19.7563812516505
20
10.1153564964582
30
0
41
1
10
19.7743172397193
20
10.1288650156166
30
0
41
1
10
19.8105578329552
20
10.154987209889
30
0
41
1
10
19.8655965491789
20
10.1929271315061
30
0
41
1
10
19.9226364755148
20
10.2271961363357
30
0
41
1
10
20.0393521841279
20
10.2908990675764
30
0
41
1
10
20.1206580259209
20
10.3269559627819
30
0
41
1
10
20.2268325987086
20
10.3636949745799
30
0
41
1
10
20.2483154879233
20
10.3706266401079
30
0
41
1
10
20.2913407158029
20
10.3835190601616
30
0
41
1
10
20.3561119948491
20
10.401453356332
30
0
41
1
10
20.4215726196932
20
10.4152406203703
30
0
41
1
10
20.5534023181904
20
10.4373500155452
30
0
41
1
10
20.6424933943812
20
10.4448428015514
30
0
41
1
10
20.7328387094541
20
10.4447902177879
30
0
0
SPLINE
5
10F
100
AcDbEntity
8
1
62
256
6
ByLayer
370
18
48
1
60
0
100
AcDbSpline
70
4
71
3
72
37
73
33
40
0
40
0
40
0
40
0
40
0.124999999999991
40
0.124999999999991
40
0.18749999999999
40
0.18749999999999
40
0.21874999999999
40
0.21874999999999
40
0.249999999999989
40
0.249999999999989
40
0.374999999999942
40
0.374999999999942
40
0.406249999999935
40
0.406249999999935
40
0.437499999999928
40
0.437499999999928
40
0.49999999999991
40
0.49999999999991
40
0.624999999999878
40
0.624999999999878
40
0.656249999999877
40
0.656249999999877
40
0.687499999999875
40
0.687499999999875
40
0.749999999999901
40
0.812499999999927
40
0.812499999999927
40
0.84374999999994
40
0.84374999999994
40
0.874999999999952
40
0.874999999999952
40
1
40
1
40
1
40
1
41
1
10
19.1328387094541
20
9.62518564394352
30
0
41
1
10
19.1328387094541
20
9.73155660554031
30
0
41
1
10
19.1429739140149
20
9.83643225211875
30
0
41
1
10
19.1729587377889
20
9.9915648314294
30
0
41
1
10
19.1854348574209
20
10.0429096262363
30
0
41
1
10
19.207979464072
20
10.1193616897126
30
0
41
1
10
19.2161583642274
20
10.1448159778685
30
0
41
1
10
19.2336547023933
20
10.1950549623117
30
0
41
1
10
19.2429778434051
20
10.2198717561257
30
0
41
1
10
19.2924211078164
20
10.3424671347618
30
0
41
1
10
19.3409439013684
20
10.4358220690599
30
0
41
1
10
19.4128703892317
20
10.5465809812636
30
0
41
1
10
19.4278243553521
20
10.5684333837604
30
0
41
1
10
19.4588920039776
20
10.6115276471166
30
0
41
1
10
19.4750532199295
20
10.6328265352992
30
0
41
1
10
19.5248557938792
20
10.6952110011136
30
0
41
1
10
19.5598444156654
20
10.7348610688369
30
0
41
1
10
19.6700380183759
20
10.8481368852604
30
0
41
1
10
19.7504197327499
20
10.9161436088068
30
0
41
1
10
19.8598712824001
20
10.9914108478156
30
0
41
1
10
19.8822793000828
20
11.0060106411566
30
0
41
1
10
19.9275832889262
20
11.0339344667025
30
0
41
1
10
19.9504979018936
20
11.0472764794978
30
0
41
1
10
20.0200166530693
20
11.0854733702121
30
0
41
1
10
20.1147710569347
20
11.1315335575538
30
0
41
1
10
20.2136058802751
20
11.1679620871798
30
0
41
1
10
20.2892901864382
20
11.1916054459279
30
0
41
1
10
20.3147784592707
20
11.1988724433846
30
0
41
1
10
20.3662860167554
20
11.2121530073404
30
0
41
1
10
20.3923558001996
20
11.2181734828968
30
0
41
1
10
20.5225896972309
20
11.2447851744478
30
0
41
1
10
20.627406588079
20
11.2553055122472
30
0
41
1
10
20.7328387094541
20
11.2553055122471
30
0
0
SPLINE
5
110
100
AcDbEntity
8
1
62
256
6
ByLayer
370
18
48
1
60
0
100
AcDbSpline
70
4
71
3
72
18
73
14
40
0
40
0
40
0
40
0
40
0.250000000000101
40
0.250000000000101
40
0.375000000000153
40
0.375000000000153
40
0.500000000000204
40
0.500000000000204
40
0.750000000000306
40
0.750000000000306
40
0.875000000000153
40
0.875000000000153
40
1
40
1
40
1
40
1
41
1
10
32.4177727353187
20
10.4417143091027
30
0
41
1
10
32.4069820992
20
10.441164715704
30
0
41
1
10
32.3949491676418
20
10.4406796250863
30
0
41
1
10
32.3752374156449
20
10.4400464512279
30
0
41
1
10
32.3683803243389
20
10.4398509370625
30
0
41
1
10
32.3540740523089
20
10.4394913166522
30
0
41
1
10
32.346686829938
20
10.4393289816031
30
0
41
1
10
32.3241490010968
20
10.4388988913353
30
0
41
1
10
32.3085037604413
20
10.438684172945
30
0
41
1
10
32.2840837222111
20
10.4384699668491
30
0
41
1
10
32.2758161374275
20
10.4384172170448
30
0
41
1
10
32.2592894966385
20
10.4383502439115
30
0
41
1
10
32.2509929511795
20
10.438335664248
30
0
41
1
10
32.2426628412005
20
10.4383401521166
30
0
0
SPLINE
5
111
100
AcDbEntity
8
1
62
256
6
ByLayer
370
18
48
1
60
0
100
AcDbSpline
70
4
71
2
72
6
73
3
40
0
40
0
40
0
40
1
40
1
40
1
41
0.50000001461448
10
32.4444322434987
20
10.4430830764897
30
0
41
0.49999998538552
10
32.4311014205058
20
10.4423931715267
30
0
41
0.50000001461448
10
32.4177727353188
20
10.4417143091027
30
0
0
SPLINE
5
112
100
AcDbEntity
8
1
62
256
6
ByLayer
370
18
48
1
60
0
100
AcDbSpline
70
4
71
3
72
37
73
33
40
0
40
0
40
0
40
0
40
0.125000000000023
40
0.125000000000023
40
0.250000000000046
40
0.250000000000046
40
0.375000000000069
40
0.375000000000069
40
0.437500000000091
40
0.437500000000091
40
0.500000000000114
40
0.500000000000114
40
0.562500000000137
40
0.562500000000137
40
0.62500000000016
40
0.62500000000016
40
0.687500000000182
40
0.687500000000182
40
0.718750000000189
40
0.718750000000189
40
0.750000000000196
40
0.750000000000196
40
0.812500000000143
40
0.812500000000143
40
0.843750000000121
40
0.843750000000121
40
0.8750000000001
40
0.906250000000078
40
0.906250000000078
40
0.937500000000056
40
0.937500000000056
40
1
40
1
40
1
40
1
41
1
10
9.57613870945411
20
2.47500000000002
30
0
41
1
10
9.57613870945414
20
2.43855915125963
30
0
41
1
10
9.57756392303008
20
2.40208155559958
30
0
41
1
10
9.58333843360253
20
2.32945289977508
30
0
41
1
10
9.58769303906004
20
2.29322126672176
30
0
41
1
10
9.59957347636495
20
2.22142044783635
30
0
41
1
10
9.60711305121438
20
2.18575035143812
30
0
41
1
10
9.6211592980649
20
2.13314856749349
30
0
41
1
10
9.62629990644939
20
2.11576004335475
30
0
41
1
10
9.63761492237177
20
2.08131360005061
30
0
41
1
10
9.64379023880227
20
2.06425878017811
30
0
41
1
10
9.65724539228339
20
2.0307697948115
30
0
41
1
10
9.66453234745137
20
2.01430767645422
30
0
41
1
10
9.68043513386939
20
1.98206174414287
30
0
41
1
10
9.68907624023521
20
1.96624386540321
30
0
41
1
10
9.70770410833808
20
1.93594133532531
30
0
41
1
10
9.7177107406761
20
1.9214006054444
30
0
41
1
10
9.73401488798143
20
1.90074676515999
30
0
41
1
10
9.73966655463096
20
1.89405619463224
30
0
41
1
10
9.75146908663072
20
1.88112462188187
30
0
41
1
10
9.75765108646846
20
1.87485655870162
30
0
41
1
10
9.77675623247703
20
1.85714017879801
30
0
41
1
10
9.79025876715468
20
1.84671497116329
30
0
41
1
10
9.81194009588984
20
1.83371143879867
30
0
41
1
10
9.81946517591436
20
1.82979663212436
30
0
41
1
10
9.8347157401825
20
1.82314060808054
30
0
41
1
10
9.8501620681395
20
1.81763837314162
30
0
41
1
10
9.86600749481661
20
1.81453721018005
30
0
41
1
10
9.8820606738885
20
1.81270639203441
30
0
41
1
10
9.89011911214178
20
1.81244496970177
30
0
41
1
10
9.91380394144042
20
1.81354049157738
30
0
41
1
10
9.9291793792861
20
1.81673321703389
30
0
41
1
10
9.94418206715534
20
1.82212924142365
30
0
0
SPLINE
5
113
100
AcDbEntity
8
1
62
256
6
ByLayer
370
18
48
1
60
0
100
AcDbSpline
70
4
71
3
72
35
73
31
40
0
40
0
40
0
40
0
40
0.12499999999997
40
0.12499999999997
40
0.249999999999941
40
0.249999999999941
40
0.374999999999911
40
0.374999999999911
40
0.437499999999862
40
0.437499999999862
40
0.499999999999813
40
0.499999999999813
40
0.624999999999775
40
0.624999999999775
40
0.687499999999773
40
0.687499999999773
40
0.718749999999787
40
0.718749999999787
40
0.7499999999998
40
0.7499999999998
40
0.812499999999846
40
0.812499999999846
40
0.843749999999873
40
0.843749999999873
40
0.8749999999999
40
0.906249999999928
40
0.906249999999928
40
0.937499999999955
40
0.937499999999955
40
1
40
1
40
1
40
1
41
1
10
10.9794887094541
20
0.0443264991982346
30
0
41
1
10
10.9479483601669
20
0.0625363283494949
30
0
41
1
10
10.917054283334
20
0.0820187107203481
30
0
41
1
10
10.8570503261731
20
0.123328603878775
30
0
41
1
10
10.827930316057
20
0.145151975303719
30
0
41
1
10
10.7716393521681
20
0.19137564616949
30
0
41
1
10
10.7445556482935
20
0.215705926068267
30
0
41
1
10
10.7060611189831
20
0.25412365847879
30
0
41
1
10
10.6935753822179
20
0.267261575574025
30
0
41
1
10
10.6693889329271
20
0.294287833017364
30
0
41
1
10
10.6576897564098
20
0.308177352475354
30
0
41
1
10
10.6242104563962
20
0.35084656771869
30
0
41
1
10
10.6038547135245
20
0.380808660479801
30
0
41
1
10
10.578378529215
20
0.427899393227733
30
0
41
1
10
10.5706958240857
20
0.444046109715941
30
0
41
1
10
10.5609218892817
20
0.468676766762968
30
0
41
1
10
10.557954165842
20
0.476956904317973
30
0
41
1
10
10.5526784052505
20
0.493673432894326
30
0
41
1
10
10.5503648761574
20
0.502139307305782
30
0
41
1
10
10.544639107347
20
0.5274765210456
30
0
41
1
10
10.5423998419484
20
0.54433826620334
30
0
41
1
10
10.5420270389334
20
0.569550090763443
30
0
41
1
10
10.5424139962229
20
0.578001695058532
30
0
41
1
10
10.5442984765509
20
0.594483897395264
30
0
41
1
10
10.5472746545119
20
0.610560684892391
30
0
41
1
10
10.552519469113
20
0.625786353982477
30
0
41
1
10
10.5589625342157
20
0.640558928742706
30
0
41
1
10
10.5627615112744
20
0.647643350256288
30
0
41
1
10
10.5755346337563
20
0.667543360130082
30
0
41
1
10
10.5859647135953
20
0.67922865291041
30
0
41
1
10
10.5981077259896
20
0.689496775949806
30
0
0
SPLINE
5
114
100
AcDbEntity
8
1
62
256
6
ByLayer
370
18
48
1
60
0
100
AcDbSpline
70
4
71
3
72
50
73
46
40
0
40
0
40
0
40
0
40
0.0312499999999839
40
0.0312499999999839
40
0.0624999999999678
40
0.0624999999999678
40
0.0937499999999518
40
0.0937499999999518
40
0.124999999999936
40
0.124999999999936
40
0.15624999999992
40
0.15624999999992
40
0.187499999999903
40
0.187499999999903
40
0.218749999999887
40
0.218749999999887
40
0.249999999999871
40
0.249999999999871
40
0.31249999999988
40
0.31249999999988
40
0.374999999999888
40
0.374999999999888
40
0.437499999999897
40
0.437499999999897
40
0.499999999999905
40
0.499999999999905
40
0.624999999999922
40
0.624999999999922
40
0.687499999999933
40
0.687499999999933
40
0.749999999999944
40
0.749999999999944
40
0.812499999999955
40
0.812499999999955
40
0.843749999999962
40
0.843749999999962
40
0.87499999999997
40
0.87499999999997
40
0.906249999999977
40
0.906249999999977
40
0.937499999999985
40
0.937499999999985
40
0.968749999999992
40
0.968749999999992
40
1
40
1
40
1
40
1
41
1
10
9.96418206715532
20
1.8235010382345
30
0
41
1
10
9.97785001797732
20
1.82443852080195
30
0
41
1
10
9.99154471523798
20
1.82391488064081
30
0
41
1
10
10.0189860322177
20
1.82053341093828
30
0
41
1
10
10.0327189886951
20
1.8176624398792
30
0
41
1
10
10.0598023405246
20
1.81008980234253
30
0
41
1
10
10.0732494801656
20
1.8053626812617
30
0
41
1
10
10.0996839926164
20
1.7944642098748
30
0
41
1
10
10.1126938950752
20
1.78828931563731
30
0
41
1
10
10.1383754287873
20
1.77470863089914
30
0
41
1
10
10.1510219453299
20
1.76731214512265
30
0
41
1
10
10.1758322977173
20
1.75156875264528
30
0
41
1
10
10.1880218080416
20
1.74320751156878
30
0
41
1
10
10.2120291159882
20
1.72561479441112
30
0
41
1
10
10.2238505454347
20
1.7163774880471
30
0
41
1
10
10.2470097414991
20
1.69723764324559
30
0
41
1
10
10.2583687536757
20
1.6873198428485
30
0
41
1
10
10.291852421707
20
1.65661013641042
30
0
41
1
10
10.3134407100924
20
1.63480506863922
30
0
41
1
10
10.354856746982
20
1.58937030752926
30
0
41
1
10
10.3747199690914
20
1.56571367197935
30
0
41
1
10
10.4129187300682
20
1.51666604536769
30
0
41
1
10
10.4312108945464
20
1.49131855884195
30
0
41
1
10
10.4659838284
20
1.43947010111094
30
0
41
1
10
10.4825131727966
20
1.41290541389583
30
0
41
1
10
10.5295205574372
20
1.33134891163027
30
0
41
1
10
10.5569271425376
20
1.27548387292126
30
0
41
1
10
10.591794735382
20
1.18928047522491
30
0
41
1
10
10.6023832779364
20
1.16004509042838
30
0
41
1
10
10.6208725273069
20
1.10167157068347
30
0
41
1
10
10.6288254229846
20
1.07243107975765
30
0
41
1
10
10.6418105208473
20
1.01377676933021
30
0
41
1
10
10.6468519021132
20
0.98436401705041
30
0
41
1
10
10.6516874797534
20
0.940033157797899
30
0
41
1
10
10.652840188365
20
0.92517558728332
30
0
41
1
10
10.6540591296663
20
0.895794772377798
30
0
41
1
10
10.6541330070588
20
0.881232622935812
30
0
41
1
10
10.653057019327
20
0.852386800750139
30
0
41
1
10
10.6519086562702
20
0.8381028345934
30
0
41
1
10
10.6481526741809
20
0.809851946490056
30
0
41
1
10
10.6455348180151
20
0.795833378911937
30
0
41
1
10
10.6385126175908
20
0.768406784312418
30
0
41
1
10
10.6341542305623
20
0.755155697189451
30
0
41
1
10
10.623396603314
20
0.729749321569074
30
0
41
1
10
10.6170031270969
20
0.717590922903923
30
0
41
1
10
10.609295736877
20
0.706131385620665
30
0
0
SPLINE
5
115
100
AcDbEntity
8
1
62
256
6
ByLayer
370
18
48
1
60
0
100
AcDbSpline
70
4
71
3
72
8
73
4
40
0
40
0
40
0
40
0
40
1
40
1
40
1
40
1
41
1
10
9.94418206715534
20
1.82212924142365
30
0
41
1
10
9.95084849055098
20
1.82258649034134
30
0
41
1
10
9.95751515531717
20
1.82304375581461
30
0
41
1
10
9.96418206715532
20
1.8235010382345
30
0
0
SPLINE
5
116
100
AcDbEntity
8
1
62
256
6
ByLayer
370
18
48
1
60
0
100
AcDbSpline
70
4
71
3
72
8
73
4
40
0
40
0
40
0
40
0
40
1
40
1
40
1
40
1
41
1
10
10.5981077259896
20
0.689496775949806
30
0
41
1
10
10.601836926866
20
0.695041443503953
30
0
41
1
10
10.6055662627652
20
0.700586311813368
30
0
41
1
10
10.6092957368766
20
0.706131385620068
30
0
0
SPLINE
5
117
100
AcDbEntity
8
1
62
256
6
ByLayer
370
18
48
1
60
0
100
AcDbSpline
70
4
71
3
72
35
73
31
40
0
40
0
40
0
40
0
40
0.125000000000022
40
0.125000000000022
40
0.250000000000043
40
0.250000000000043
40
0.375000000000064
40
0.375000000000064
40
0.437500000000076
40
0.437500000000076
40
0.500000000000087
40
0.500000000000087
40
0.625000000000111
40
0.625000000000111
40
0.687500000000122
40
0.687500000000122
40
0.718750000000079
40
0.718750000000079
40
0.750000000000037
40
0.750000000000037
40
0.812500000000034
40
0.812500000000034
40
0.843750000000029
40
0.843750000000029
40
0.875000000000023
40
0.906250000000017
40
0.906250000000017
40
0.937500000000011
40
0.937500000000011
40
1
40
1
40
1
40
1
41
1
10
13.7861887094541
20
0.0443264991982346
30
0
41
1
10
13.754648360167
20
0.0261166700469744
30
0
41
1
10
13.7223290836911
20
0.0091028058685652
30
0
41
1
10
13.6565516882079
20
-0.0222071987811034
30
0
41
1
10
13.6230920890996
20
-0.0365141815876768
30
0
41
1
10
13.5549157339291
20
-0.0621517508861018
30
0
41
1
10
13.5203032415183
20
-0.0734417865207035
30
0
41
1
10
13.4677852446398
20
-0.0875701606049404
30
0
41
1
10
13.4501646063
20
-0.0918141672809156
30
0
41
1
10
13.4146659561394
20
-0.0992471180724976
30
0
41
1
10
13.3967876911838
20
-0.102434142410743
30
0
41
1
10
13.3430954168167
20
-0.110093459101819
30
0
41
1
10
13.3069696118992
20
-0.112741003161148
30
0
41
1
10
13.2534497489019
20
-0.111258659590618
30
0
41
1
10
13.2356249296708
20
-0.109838719158262
30
0
41
1
10
13.2094071875542
20
-0.105987866469974
30
0
41
1
10
13.2007525163648
20
-0.104417921582723
30
0
41
1
10
13.1836376976588
20
-0.100628599991012
30
0
41
1
10
13.1751492708068
20
-0.0983992377522611
30
0
41
1
10
13.1503437156418
20
-0.0906892921284452
30
0
41
1
10
13.1346213832837
20
-0.0841976802705346
30
0
41
1
10
13.1126009012314
20
-0.071914624872079
30
0
41
1
10
13.1054750758539
20
-0.0673537078816366
30
0
41
1
10
13.0921433100839
20
-0.0574805988762535
30
0
41
1
10
13.0797084926807
20
-0.0468647594072991
30
0
41
1
10
13.0691450837597
20
-0.034709782179533
30
0
41
1
10
13.0595731912893
20
-0.0217436367422579
30
0
41
1
10
13.0553373908168
20
-0.014911415344244
30
0
41
1
10
13.0444900379715
20
0.0061004381476266
30
0
41
1
10
13.0395853174925
20
0.020975798641814
30
0
41
1
10
13.0367643682884
20
0.0366260173734361
30
0
0
SPLINE
5
118
100
AcDbEntity
8
1
62
256
6
ByLayer
370
18
48
1
60
0
100
AcDbSpline
70
4
71
3
72
35
73
31
40
0
40
0
40
0
40
0
40
0.125000000000098
40
0.125000000000098
40
0.250000000000196
40
0.250000000000196
40
0.375000000000294
40
0.375000000000294
40
0.500000000000392
40
0.500000000000392
40
0.562500000000393
40
0.562500000000393
40
0.625000000000395
40
0.625000000000395
40
0.687500000000396
40
0.687500000000396
40
0.718750000000354
40
0.718750000000354
40
0.750000000000312
40
0.750000000000312
40
0.812500000000227
40
0.812500000000227
40
0.843750000000185
40
0.843750000000185
40
0.875000000000143
40
0.9062500000001
40
0.9062500000001
40
0.937500000000058
40
0.937500000000058
40
1
40
1
40
1
40
1
41
1
10
10.9794887094541
20
0.0443264991982346
30
0
41
1
10
11.011028350136
20
0.0261170791603718
30
0
41
1
10
11.0433070999613
20
0.0091230226135792
30
0
41
1
10
11.1091314398774
20
-0.0222105048141259
30
0
41
1
10
11.1425903443652
20
-0.036515200564736
30
0
41
1
10
11.210705679533
20
-0.0621315562479481
30
0
41
1
10
11.2453769719865
20
-0.0734464511671717
30
0
41
1
10
11.3156012127466
20
-0.0923303159264606
30
0
41
1
10
11.3511721157114
20
-0.0999156410749436
30
0
41
1
10
11.4048782278971
20
-0.10756346588289
30
0
41
1
10
11.4228115257762
20
-0.109483772285131
30
0
41
1
10
11.4587456667996
20
-0.111827987162627
30
0
41
1
10
11.4767028779032
20
-0.112244692023808
30
0
41
1
10
11.5121946832694
20
-0.111257466328226
30
0
41
1
10
11.5297791866565
20
-0.109861467049001
30
0
41
1
10
11.5558382545717
20
-0.106059730696501
30
0
41
1
10
11.5644713017826
20
-0.104506118904482
30
0
41
1
10
11.5816115358117
20
-0.100735021444279
30
0
41
1
10
11.5901265635872
20
-0.0985111179758462
30
0
41
1
10
11.6149782386253
20
-0.0908247679775798
30
0
41
1
10
11.6307794513722
20
-0.0843353535815083
30
0
41
1
10
11.6529796019657
20
-0.0719768561626211
30
0
41
1
10
11.6601079222435
20
-0.0674150395982167
30
0
41
1
10
11.6733855035737
20
-0.0575990890957314
30
0
41
1
10
11.6857920315711
20
-0.047035326389647
30
0
41
1
10
11.6963673870193
20
-0.0349100014969395
30
0
41
1
10
11.7059647672532
20
-0.0219550452062833
30
0
41
1
10
11.7102402193257
20
-0.0150853656834897
30
0
41
1
10
11.7211570731563
20
0.0060035688800895
30
0
41
1
10
11.7260837279005
20
0.020929343589188
30
0
41
1
10
11.7289130506199
20
0.0366260173734361
30
0
0
SPLINE
5
119
100
AcDbEntity
8
1
62
256
6
ByLayer
370
18
48
1
60
0
100
AcDbSpline
70
4
71
3
72
52
73
48
40
0
40
0
40
0
40
0
40
0.0156249999999922
40
0.0156249999999922
40
0.0312499999999846
40
0.0312499999999846
40
0.0625000000000003
40
0.0625000000000003
40
0.093750000000016
40
0.093750000000016
40
0.125000000000032
40
0.125000000000032
40
0.187500000000063
40
0.187500000000063
40
0.218750000000056
40
0.218750000000056
40
0.250000000000049
40
0.250000000000049
40
0.312500000000033
40
0.312500000000033
40
0.375000000000017
40
0.375000000000017
40
0.437500000000001
40
0.437500000000001
40
0.499999999999985
40
0.499999999999985
40
0.562499999999968
40
0.562499999999968
40
0.624999999999952
40
0.624999999999952
40
0.687499999999936
40
0.687499999999936
40
0.74999999999992
40
0.74999999999992
40
0.812499999999904
40
0.812499999999904
40
0.84374999999992
40
0.84374999999992
40
0.874999999999936
40
0.874999999999936
40
0.906249999999952
40
0.906249999999952
40
0.937499999999968
40
0.937499999999968
40
0.968749999999984
40
0.968749999999984
40
1
40
1
40
1
40
1
41
1
10
13.027952379175
20
0.0546324238552245
30
0
41
1
10
13.0249377354792
20
0.0607925426531608
30
0
41
1
10
13.0215935579511
20
0.0667875812634975
30
0
41
1
10
13.0143139495517
20
0.0784826645773364
30
0
41
1
10
13.0103688320871
20
0.0841927439880692
30
0
41
1
10
12.997874723546
20
0.100734560381738
30
0
41
1
10
12.9886381542611
20
0.111048665767925
30
0
41
1
10
12.9687212215768
20
0.130555793734999
30
0
41
1
10
12.9580376072549
20
0.139746244728485
30
0
41
1
10
12.9354375944146
20
0.157186963505581
30
0
41
1
10
12.9235565797673
20
0.165402766085236
30
0
41
1
10
12.8867885582089
20
0.188541807314351
30
0
41
1
10
12.8605569373672
20
0.202118939959092
30
0
41
1
10
12.819822581896
20
0.220094746210265
30
0
41
1
10
12.8059913764864
20
0.225695947546996
30
0
41
1
10
12.7778650123332
20
0.236199069729906
30
0
41
1
10
12.7635555451531
20
0.241104041836707
30
0
41
1
10
12.720236629209
20
0.254775450800622
30
0
41
1
10
12.6907610408966
20
0.26253908676776
30
0
41
1
10
12.6307333831835
20
0.275732845525056
30
0
41
1
10
12.6002313956846
20
0.281141458688325
30
0
41
1
10
12.5388442989277
20
0.289717027221371
30
0
41
1
10
12.5078603709157
20
0.292901491721608
30
0
41
1
10
12.4454551550491
20
0.297147486978133
30
0
41
1
10
12.4141801615121
20
0.298200118884409
30
0
41
1
10
12.3514866908611
20
0.298199881095599
30
0
41
1
10
12.3202279515912
20
0.297146996597405
30
0
41
1
10
12.2578873828277
20
0.292907153540767
30
0
41
1
10
12.2268178719208
20
0.289716341125342
30
0
41
1
10
12.1653455685808
20
0.281125978790072
30
0
41
1
10
12.134820300408
20
0.275708766775608
30
0
41
1
10
12.0748232078668
20
0.262515479563575
30
0
41
1
10
12.0452847422301
20
0.254732981648459
30
0
41
1
10
11.9874593539842
20
0.236469740596362
30
0
41
1
10
11.9593494214863
20
0.226054570785408
30
0
41
1
10
11.9185962296961
20
0.208063311297565
30
0
41
1
10
11.9052278222421
20
0.201656155737766
30
0
41
1
10
11.8792063340995
20
0.188013385632132
30
0
41
1
10
11.8665375960412
20
0.180773483734129
30
0
41
1
10
11.8419845468401
20
0.165312311884747
30
0
41
1
10
11.8301256578438
20
0.157104434478043
30
0
41
1
10
11.8075545769843
20
0.139674843752545
30
0
41
1
10
11.7967864153115
20
0.130410106036209
30
0
41
1
10
11.7767277906377
20
0.110722499780167
30
0
41
1
10
11.7675129470895
20
0.10038168150237
30
0
41
1
10
11.751028937598
20
0.0784951177037101
30
0
41
1
10
11.7437543521516
20
0.0669527125909894
30
0
41
1
10
11.7377250397328
20
0.0546324238545424
30
0
0
SPLINE
5
11A
100
AcDbEntity
8
1
62
256
6
ByLayer
370
18
48
1
60
0
100
AcDbSpline
70
4
71
3
72
8
73
4
40
0
40
0
40
0
40
0
40
1
40
1
40
1
40
1
41
1
10
11.7377250397328
20
0.0546324238545424
30
0
41
1
10
11.7347876020061
20
0.0486300676279541
30
0
41
1
10
11.7318502731391
20
0.0426279338452673
30
0
41
1
10
11.7289130506199
20
0.0366260173734361
30
0
0
SPLINE
5
11B
100
AcDbEntity
8
1
62
256
6
ByLayer
370
18
48
1
60
0
100
AcDbSpline
70
4
71
3
72
8
73
4
40
0
40
0
40
0
40
0
40
1
40
1
40
1
40
1
41
1
10
13.0367643682884
20
0.0366260173734361
30
0
41
1
10
13.0338271457691
20
0.0426279338452673
30
0
41
1
10
13.0308898169021
20
0.0486300676279541
30
0
41
1
10
13.0279523791754
20
0.0546324238545424
30
0
0
SPLINE
5
11C
100
AcDbEntity
8
1
62
256
6
ByLayer
370
18
48
1
60
0
100
AcDbSpline
70
4
71
3
72
35
73
31
40
0
40
0
40
0
40
0
40
0.125000000000004
40
0.125000000000004
40
0.250000000000008
40
0.250000000000008
40
0.375000000000012
40
0.375000000000012
40
0.437500000000015
40
0.437500000000015
40
0.500000000000018
40
0.500000000000018
40
0.625000000000022
40
0.625000000000022
40
0.687500000000024
40
0.687500000000024
40
0.718750000000026
40
0.718750000000026
40
0.750000000000028
40
0.750000000000028
40
0.812500000000028
40
0.812500000000028
40
0.843750000000023
40
0.843750000000023
40
0.875000000000019
40
0.906250000000014
40
0.906250000000014
40
0.937500000000009
40
0.937500000000009
40
1
40
1
40
1
40
1
41
1
10
10.9794887094541
20
4.90567350080181
30
0
41
1
10
11.0110290587413
20
4.92388332995307
30
0
41
1
10
11.0433483352171
20
4.94089719413148
30
0
41
1
10
11.1091257307004
20
4.97220719878115
30
0
41
1
10
11.1425853298087
20
4.98651418158772
30
0
41
1
10
11.2107616849791
20
5.01215175088615
30
0
41
1
10
11.2453741773899
20
5.02344178652072
30
0
41
1
10
11.2978921742684
20
5.03757016060496
30
0
41
1
10
11.3155128126083
20
5.04181416728093
30
0
41
1
10
11.3510114627689
20
5.04924711807254
30
0
41
1
10
11.3688897277245
20
5.05243414241076
30
0
41
1
10
11.4225820020915
20
5.06009345910184
30
0
41
1
10
11.458707807009
20
5.06274100316116
30
0
41
1
10
11.5122276700064
20
5.06125865959066
30
0
41
1
10
11.5300524892375
20
5.05983871915828
30
0
41
1
10
11.5562702313541
20
5.05598786646999
30
0
41
1
10
11.5649249025434
20
5.05441792158274
30
0
41
1
10
11.5820397212494
20
5.05062859999106
30
0
41
1
10
11.5905281481014
20
5.04839923775231
30
0
41
1
10
11.6153337032665
20
5.04068929212846
30
0
41
1
10
11.6310560356246
20
5.03419768027055
30
0
41
1
10
11.6530765176769
20
5.0219146248721
30
0
41
1
10
11.6602023430544
20
5.01735370788168
30
0
41
1
10
11.6735341088243
20
5.00748059887627
30
0
41
1
10
11.6859689262275
20
4.99686475940732
30
0
41
1
10
11.6965323351486
20
4.98470978217955
30
0
41
1
10
11.706104227619
20
4.9717436367423
30
0
41
1
10
11.7103400280914
20
4.96491141534426
30
0
41
1
10
11.7211873809367
20
4.94389956185242
30
0
41
1
10
11.7260921014157
20
4.9290242013582
30
0
41
1
10
11.7289130506199
20
4.91337398262661
30
0
0
SPLINE
5
11D
100
AcDbEntity
8
1
62
256
6
ByLayer
370
18
48
1
60
0
100
AcDbSpline
70
4
71
3
72
35
73
31
40
0
40
0
40
0
40
0
40
0.124999999999996
40
0.124999999999996
40
0.249999999999993
40
0.249999999999993
40
0.374999999999989
40
0.374999999999989
40
0.499999999999986
40
0.499999999999986
40
0.562499999999937
40
0.562499999999937
40
0.624999999999889
40
0.624999999999889
40
0.68749999999984
40
0.68749999999984
40
0.718749999999819
40
0.718749999999819
40
0.749999999999798
40
0.749999999999798
40
0.812499999999846
40
0.812499999999846
40
0.843749999999867
40
0.843749999999867
40
0.874999999999888
40
0.90624999999991
40
0.90624999999991
40
0.937499999999931
40
0.937499999999931
40
1
40
1
40
1
40
1
41
1
10
13.7861887094541
20
4.90567350080181
30
0
41
1
10
13.7546490687721
20
4.92388292083967
30
0
41
1
10
13.722370318947
20
4.94087697738647
30
0
41
1
10
13.6565459790308
20
4.97221050481417
30
0
41
1
10
13.6230870745429
20
4.98651520056478
30
0
41
1
10
13.5549717393752
20
5.01213155624799
30
0
41
1
10
13.5203004469217
20
5.02344645116722
30
0
41
1
10
13.4500762061615
20
5.04233031592648
30
0
41
1
10
13.4145053031968
20
5.04991564107499
30
0
41
1
10
13.3607991910111
20
5.05756346588291
30
0
41
1
10
13.3428658931321
20
5.05948377228518
30
0
41
1
10
13.3069317521087
20
5.06182798716267
30
0
41
1
10
13.2889745410051
20
5.06224469202385
30
0
41
1
10
13.2534827356389
20
5.06125746632827
30
0
41
1
10
13.2358982322518
20
5.05986146704902
30
0
41
1
10
13.2098391643366
20
5.05605973069655
30
0
41
1
10
13.2012061171257
20
5.05450611890453
30
0
41
1
10
13.1840658830966
20
5.05073502144433
30
0
41
1
10
13.175550855321
20
5.04851111797586
30
0
41
1
10
13.150699180283
20
5.0408247679776
30
0
41
1
10
13.134897967536
20
5.03433535358153
30
0
41
1
10
13.1126978169426
20
5.02197685616267
30
0
41
1
10
13.1055694966647
20
5.01741503959823
30
0
41
1
10
13.0922919153345
20
5.00759908909578
30
0
41
1
10
13.0798855508326
20
4.99703518489687
30
0
41
1
10
13.069310031889
20
4.98491000149696
30
0
41
1
10
13.059712651655
20
4.97195504520633
30
0
41
1
10
13.0554371995825
20
4.96508536568351
30
0
41
1
10
13.0445203457518
20
4.94399643111993
30
0
41
1
10
13.0395936910076
20
4.92907065641086
30
0
41
1
10
13.0367643682884
20
4.91337398262661
30
0
0
SPLINE
5
11E
100
AcDbEntity
8
1
62
256
6
ByLayer
370
18
48
1
60
0
100
AcDbSpline
70
4
71
3
72
52
73
48
40
0
40
0
40
0
40
0
40
0.0156250000000181
40
0.0156250000000181
40
0.0312500000000362
40
0.0312500000000362
40
0.0625000000000479
40
0.0625000000000479
40
0.0937500000000596
40
0.0937500000000596
40
0.125000000000071
40
0.125000000000071
40
0.1875000000001
40
0.1875000000001
40
0.218750000000092
40
0.218750000000092
40
0.250000000000083
40
0.250000000000083
40
0.312500000000064
40
0.312500000000064
40
0.375000000000045
40
0.375000000000045
40
0.437500000000026
40
0.437500000000026
40
0.500000000000007
40
0.500000000000007
40
0.562499999999988
40
0.562499999999988
40
0.624999999999969
40
0.624999999999969
40
0.68749999999995
40
0.68749999999995
40
0.749999999999931
40
0.749999999999931
40
0.812499999999912
40
0.812499999999912
40
0.843749999999927
40
0.843749999999927
40
0.874999999999942
40
0.874999999999942
40
0.906249999999956
40
0.906249999999956
40
0.937499999999971
40
0.937499999999971
40
0.968749999999985
40
0.968749999999985
40
1
40
1
40
1
40
1
41
1
10
11.7377250397332
20
4.89536757614482
30
0
41
1
10
11.7407396834291
20
4.88920745734688
30
0
41
1
10
11.7440838609572
20
4.88321241873652
30
0
41
1
10
11.7513634693565
20
4.87151733542268
30
0
41
1
10
11.7553085868211
20
4.86580725601195
30
0
41
1
10
11.7678026953622
20
4.84926543961828
30
0
41
1
10
11.7770392646472
20
4.83895133423212
30
0
41
1
10
11.7969561973314
20
4.81944420626502
30
0
41
1
10
11.8076398116533
20
4.81025375527153
30
0
41
1
10
11.8302398244936
20
4.79281303649444
30
0
41
1
10
11.842120839141
20
4.78459723391478
30
0
41
1
10
11.8788888606994
20
4.76145819268567
30
0
41
1
10
11.9051204815409
20
4.74788106004092
30
0
41
1
10
11.9458548370123
20
4.72990525378975
30
0
41
1
10
11.9596860424219
20
4.72430405245305
30
0
41
1
10
11.9878124065751
20
4.71380093027011
30
0
41
1
10
12.002121873755
20
4.70889595816331
30
0
41
1
10
12.0454407896993
20
4.69522454919942
30
0
41
1
10
12.0749163780115
20
4.68746091323226
30
0
41
1
10
12.1349440357248
20
4.67426715447499
30
0
41
1
10
12.1654460232237
20
4.66885854131172
30
0
41
1
10
12.2268331199805
20
4.66028297277867
30
0
41
1
10
12.2578170479925
20
4.65709850827844
30
0
41
1
10
12.3202222638591
20
4.65285251302188
30
0
41
1
10
12.3514972573962
20
4.65179988111561
30
0
41
1
10
12.4141907280472
20
4.65180011890445
30
0
41
1
10
12.4454494673171
20
4.65285300340264
30
0
41
1
10
12.5077900360805
20
4.65709284645928
30
0
41
1
10
12.5388595469874
20
4.66028365887468
30
0
41
1
10
12.6003318503275
20
4.66887402120997
30
0
41
1
10
12.6308571185002
20
4.67429123322441
30
0
41
1
10
12.6908542110415
20
4.68748452043644
30
0
41
1
10
12.7203926766781
20
4.69526701835156
30
0
41
1
10
12.778218064924
20
4.71353025940366
30
0
41
1
10
12.8063279974218
20
4.72394542921464
30
0
41
1
10
12.8470811892121
20
4.74193668870245
30
0
41
1
10
12.8604495966661
20
4.74834384426225
30
0
41
1
10
12.8864710848087
20
4.76198661436788
30
0
41
1
10
12.8991398228669
20
4.76922651626589
30
0
41
1
10
12.9236928720682
20
4.78468768811527
30
0
41
1
10
12.9355517610644
20
4.792895565522
30
0
41
1
10
12.9581228419239
20
4.8103251562475
30
0
41
1
10
12.9688910035966
20
4.81958989396381
30
0
41
1
10
12.9889496282704
20
4.83927750021985
30
0
41
1
10
12.9981644718187
20
4.84961831849768
30
0
41
1
10
13.0146484813102
20
4.87150488229634
30
0
41
1
10
13.0219230667566
20
4.88304728740903
30
0
41
1
10
13.0279523791754
20
4.89536757614547
30
0
0
SPLINE
5
11F
100
AcDbEntity
8
1
62
256
6
ByLayer
370
18
48
1
60
0
100
AcDbSpline
70
4
71
3
72
8
73
4
40
0
40
0
40
0
40
0
40
1
40
1
40
1
40
1
41
1
10
13.0279523791754
20
4.8953675761455
30
0
41
1
10
13.0308898169021
20
4.90136993237206
30
0
41
1
10
13.0338271457691
20
4.90737206615475
30
0
41
1
10
13.0367643682884
20
4.91337398262661
30
0
0
SPLINE
5
120
100
AcDbEntity
8
1
62
256
6
ByLayer
370
18
48
1
60
0
100
AcDbSpline
70
4
71
3
72
8
73
4
40
0
40
0
40
0
40
0
40
1
40
1
40
1
40
1
41
1
10
11.7289130506199
20
4.91337398262661
30
0
41
1
10
11.7318502731391
20
4.90737206615475
30
0
41
1
10
11.7347876020061
20
4.90136993237206
30
0
41
1
10
11.7377250397328
20
4.89536757614547
30
0
0
SPLINE
5
121
100
AcDbEntity
8
1
62
256
6
ByLayer
370
18
48
1
60
0
100
AcDbSpline
70
4
71
3
72
52
73
48
40
0
40
0
40
0
40
0
40
0.0156250000000017
40
0.0156250000000017
40
0.0312500000000032
40
0.0312500000000032
40
0.0625000000000063
40
0.0625000000000063
40
0.0937500000000094
40
0.0937500000000094
40
0.125000000000013
40
0.125000000000013
40
0.187500000000021
40
0.187500000000021
40
0.218750000000022
40
0.218750000000022
40
0.250000000000023
40
0.250000000000023
40
0.312500000000022
40
0.312500000000022
40
0.375000000000021
40
0.375000000000021
40
0.43750000000002
40
0.43750000000002
40
0.500000000000019
40
0.500000000000019
40
0.562500000000018
40
0.562500000000018
40
0.625000000000018
40
0.625000000000018
40
0.687500000000017
40
0.687500000000017
40
0.750000000000016
40
0.750000000000016
40
0.812500000000015
40
0.812500000000015
40
0.843750000000012
40
0.843750000000012
40
0.87500000000001
40
0.87500000000001
40
0.906250000000007
40
0.906250000000007
40
0.937500000000005
40
0.937500000000005
40
0.968750000000002
40
0.968750000000002
40
1
40
1
40
1
40
1
41
1
10
14.1563816820312
20
4.24386861437935
30
0
41
1
10
14.1525541845097
20
4.23817779695645
30
0
41
1
10
14.1490344175406
20
4.23228413495713
30
0
41
1
10
14.1425459824911
20
4.22013226749681
30
0
41
1
10
14.139573467396
20
4.21386065584616
30
0
41
1
10
14.131494888445
20
4.19476953225509
30
0
41
1
10
14.1271808958057
20
4.18161337591741
30
0
41
1
10
14.1202456937735
20
4.15461124226383
30
0
41
1
10
14.1176283369018
20
4.14076373536008
30
0
41
1
10
14.1138242378008
20
4.11247119072601
30
0
41
1
10
14.112649651378
20
4.09807402892881
30
0
41
1
10
14.1109946646335
20
4.05466246759778
30
0
41
1
10
14.1123523332734
20
4.02515665124417
30
0
41
1
10
14.1171520061421
20
3.98089176147354
30
0
41
1
10
14.1192168261976
20
3.96611298555558
30
0
41
1
10
14.1241840376448
20
3.93650327859137
30
0
41
1
10
14.1270909407854
20
3.92165843044543
30
0
41
1
10
14.1369106112891
20
3.87730744429143
30
0
41
1
10
14.1449248994721
20
3.84789901803791
30
0
41
1
10
14.1635125980735
20
3.78931666214993
30
0
41
1
10
14.1740795954243
20
3.76019685952841
30
0
41
1
10
14.1973464836012
20
3.70274629000588
30
0
41
1
10
14.2100806204525
20
3.67432118898827
30
0
41
1
10
14.2376060886294
20
3.61815368909089
30
0
41
1
10
14.2523319794262
20
3.59054243423145
30
0
41
1
10
14.2836789206829
20
3.53624841489071
30
0
41
1
10
14.3002201150404
20
3.50970399484183
30
0
41
1
10
14.3350622112173
20
3.45783540013466
30
0
41
1
10
14.3533602912812
20
3.43252382061382
30
0
41
1
10
14.3915359149613
20
3.38358242545982
30
0
41
1
10
14.4114899922699
20
3.35985537377209
30
0
41
1
10
14.4529142604255
20
3.31449301108421
30
0
41
1
10
14.4744233341433
20
3.29280319841163
30
0
41
1
10
14.5191524589728
20
3.25185656373299
30
0
41
1
10
14.5422272268628
20
3.23272023299665
30
0
41
1
10
14.5781847105204
20
3.20642256336492
30
0
41
1
10
14.5904176737282
20
3.1980487606815
30
0
41
1
10
14.615243403289
20
3.18233487595853
30
0
41
1
10
14.6278477112827
20
3.17498337791523
30
0
41
1
10
14.6535140034771
20
3.16145039949132
30
0
41
1
10
14.6665516783206
20
3.15528423906326
30
0
41
1
10
14.6929316870962
20
3.14445190501087
30
0
41
1
10
14.7063392661543
20
3.13975877230831
30
0
41
1
10
14.7334185456487
20
3.13223129690385
30
0
41
1
10
14.7469813787473
20
3.12942141743807
30
0
41
1
10
14.7741777037442
20
3.12608912836154
30
0
41
1
10
14.7878110125158
20
3.12556035511932
30
0
41
1
10
14.8014953517529
20
3.12649896176552
30
0
0
SPLINE
5
122
100
AcDbEntity
8
1
62
256
6
ByLayer
370
18
48
1
60
0
100
AcDbSpline
70
4
71
3
72
8
73
4
40
0
40
0
40
0
40
0
40
1
40
1
40
1
40
1
41
1
10
14.8014953517529
20
3.12649896176552
30
0
41
1
10
14.808162263591
20
3.12695624418544
30
0
41
1
10
14.8148289283573
20
3.12741350965868
30
0
41
1
10
14.8214953517529
20
3.12787075857639
30
0
0
SPLINE
5
123
100
AcDbEntity
8
1
62
256
6
ByLayer
370
18
48
1
60
0
100
AcDbSpline
70
4
71
3
72
35
73
31
40
0
40
0
40
0
40
0
40
0.124999999999969
40
0.124999999999969
40
0.249999999999937
40
0.249999999999937
40
0.374999999999906
40
0.374999999999906
40
0.499999999999874
40
0.499999999999874
40
0.562499999999843
40
0.562499999999843
40
0.624999999999811
40
0.624999999999811
40
0.687499999999779
40
0.687499999999779
40
0.718749999999799
40
0.718749999999799
40
0.74999999999982
40
0.74999999999982
40
0.812499999999868
40
0.812499999999868
40
0.843749999999892
40
0.843749999999892
40
0.874999999999916
40
0.90624999999994
40
0.90624999999994
40
0.937499999999964
40
0.937499999999964
40
1
40
1
40
1
40
1
41
1
10
15.1895387094541
20
2.47500000000002
30
0
41
1
10
15.1895387094541
20
2.51141884007572
30
0
41
1
10
15.1881166192244
20
2.54787008570017
30
0
41
1
10
15.1823400800089
20
2.62054239996868
30
0
41
1
10
15.1779988576784
20
2.65667100911333
30
0
41
1
10
15.1661256048686
20
2.72846879759752
30
0
41
1
10
15.158588945083
20
2.76415246510393
30
0
41
1
10
15.1398307313061
20
2.83441037394326
30
0
41
1
10
15.1286143640983
20
2.86900834212051
30
0
41
1
10
15.1083845185728
20
2.91934311201587
30
0
41
1
10
15.1010809037607
20
2.93583395675384
30
0
41
1
10
15.0851439828848
20
2.96812594318203
30
0
41
1
10
15.0765262543288
20
2.98388569660943
30
0
41
1
10
15.0579253891139
20
3.01412888883496
30
0
41
1
10
15.0479241665809
20
3.0286595158415
30
0
41
1
10
15.0316022323636
20
3.04932646247877
30
0
41
1
10
15.0259402414786
20
3.0560260947795
30
0
41
1
10
15.0141042582634
20
3.06898442414538
30
0
41
1
10
15.0079207874763
20
3.07524670277874
30
0
41
1
10
14.9888383755964
20
3.09292570968913
30
0
41
1
10
14.9753177715003
20
3.10336525414053
30
0
41
1
10
14.9535149234862
20
3.1164118998129
30
0
41
1
10
14.9460001143151
20
3.12030429797767
30
0
41
1
10
14.9308604611525
20
3.12689504545918
30
0
41
1
10
14.9155087102909
20
3.13235753252459
30
0
41
1
10
14.8997201931805
20
3.13545339655045
30
0
41
1
10
14.8837021818109
20
3.13728749349747
30
0
41
1
10
14.8756151387921
20
3.13755530384353
30
0
41
1
10
14.851893158806
20
3.13646510930846
30
0
41
1
10
14.8365037313646
20
3.13326883011805
30
0
41
1
10
14.8214953517529
20
3.12787075857639
30
0
0
SPLINE
5
124
100
AcDbEntity
8
1
62
256
6
ByLayer
370
18
48
1
60
0
100
AcDbSpline
70
4
71
3
72
35
73
31
40
0
40
0
40
0
40
0
40
0.124999999999999
40
0.124999999999999
40
0.249999999999997
40
0.249999999999997
40
0.374999999999996
40
0.374999999999996
40
0.437499999999961
40
0.437499999999961
40
0.499999999999925
40
0.499999999999925
40
0.624999999999855
40
0.624999999999855
40
0.687499999999842
40
0.687499999999842
40
0.718749999999849
40
0.718749999999849
40
0.749999999999857
40
0.749999999999857
40
0.812499999999881
40
0.812499999999881
40
0.843749999999902
40
0.843749999999902
40
0.874999999999923
40
0.906249999999945
40
0.906249999999945
40
0.937499999999966
40
0.937499999999966
40
1
40
1
40
1
40
1
41
1
10
13.7861887094541
20
4.90567350080181
30
0
41
1
10
13.8177290587413
20
4.88746367165055
30
0
41
1
10
13.8486231355742
20
4.8679812892797
30
0
41
1
10
13.9086270927351
20
4.82667139612127
30
0
41
1
10
13.9377471028513
20
4.80484802469633
30
0
41
1
10
13.9940380667402
20
4.75862435383056
30
0
41
1
10
14.0211217706147
20
4.73429407393178
30
0
41
1
10
14.0596162999251
20
4.69587634152126
30
0
41
1
10
14.0721020366903
20
4.68273842442602
30
0
41
1
10
14.0962884859812
20
4.65571216698268
30
0
41
1
10
14.1079876624983
20
4.64182264752469
30
0
41
1
10
14.141466962512
20
4.59915343228136
30
0
41
1
10
14.1618227053837
20
4.56919133952024
30
0
41
1
10
14.1872988896932
20
4.52210060677231
30
0
41
1
10
14.1949815948225
20
4.50595389028408
30
0
41
1
10
14.2047555296265
20
4.48132323323708
30
0
41
1
10
14.2077232530663
20
4.47304309568207
30
0
41
1
10
14.2129990136577
20
4.45632656710572
30
0
41
1
10
14.2153125427508
20
4.44786069269426
30
0
41
1
10
14.2210383115613
20
4.42252347895445
30
0
41
1
10
14.2232775769599
20
4.4056617337967
30
0
41
1
10
14.2236503799748
20
4.3804499092366
30
0
41
1
10
14.2232634226854
20
4.37199830494151
30
0
41
1
10
14.2213789423573
20
4.35551610260478
30
0
41
1
10
14.2184027643964
20
4.33943931510763
30
0
41
1
10
14.2131579497951
20
4.32421364601754
30
0
41
1
10
14.2067148846925
20
4.30944107125731
30
0
41
1
10
14.2029159076338
20
4.30235664974373
30
0
41
1
10
14.1901427851519
20
4.28245663986993
30
0
41
1
10
14.179712705313
20
4.27077134708964
30
0
41
1
10
14.1675696929187
20
4.26050322405024
30
0
0
SPLINE
5
125
100
AcDbEntity
8
1
62
256
6
ByLayer
370
18
48
1
60
0
100
AcDbSpline
70
4
71
3
72
8
73
4
40
0
40
0
40
0
40
0
40
1
40
1
40
1
40
1
41
1
10
14.1675696929187
20
4.26050322405024
30
0
41
1
10
14.1638404920422
20
4.25495855649606
30
0
41
1
10
14.160111156143
20
4.24941368818665
30
0
41
1
10
14.1563816820316
20
4.24386861437998
30
0
0
SPLINE
5
126
100
AcDbEntity
8
1
62
256
6
ByLayer
370
18
48
1
60
0
100
AcDbSpline
70
4
71
3
72
52
73
48
40
0
40
0
40
0
40
0
40
0.0156250000000169
40
0.0156250000000169
40
0.0312500000000339
40
0.0312500000000339
40
0.0625000000000685
40
0.0625000000000685
40
0.0937500000001033
40
0.0937500000001033
40
0.125000000000138
40
0.125000000000138
40
0.187500000000162
40
0.187500000000162
40
0.218750000000172
40
0.218750000000172
40
0.250000000000182
40
0.250000000000182
40
0.312500000000167
40
0.312500000000167
40
0.375000000000152
40
0.375000000000152
40
0.437500000000137
40
0.437500000000137
40
0.500000000000122
40
0.500000000000122
40
0.562500000000107
40
0.562500000000107
40
0.625000000000092
40
0.625000000000092
40
0.687500000000077
40
0.687500000000077
40
0.750000000000062
40
0.750000000000062
40
0.812500000000048
40
0.812500000000048
40
0.84375000000004
40
0.84375000000004
40
0.875000000000032
40
0.875000000000032
40
0.906250000000024
40
0.906250000000024
40
0.937500000000016
40
0.937500000000016
40
0.968750000000008
40
0.968750000000008
40
1
40
1
40
1
40
1
41
1
10
14.8014953517522
20
1.82350103823455
30
0
41
1
10
14.7946532105349
20
1.82397033960959
30
0
41
1
10
14.7877892660376
20
1.82407171622063
30
0
41
1
10
14.7740212225888
20
1.82361493207412
30
0
41
1
10
14.7671035900292
20
1.82305339983418
30
0
41
1
10
14.746530902537
20
1.82050409263684
30
0
41
1
10
14.7329803406127
20
1.81766204168534
30
0
41
1
10
14.7061282058963
20
1.81016703599883
30
0
41
1
10
14.6928272347026
20
1.80550998008854
30
0
41
1
10
14.6664231227613
20
1.79465815423157
30
0
41
1
10
14.6533675216912
20
1.78847679501402
30
0
41
1
10
14.6149445133883
20
1.76820427491214
30
0
41
1
10
14.5900705611866
20
1.75227559120327
30
0
41
1
10
14.5541358785839
20
1.72598650768381
30
0
41
1
10
14.5423694932298
20
1.71680893310256
30
0
41
1
10
14.5192103405238
20
1.69770234832126
30
0
41
1
10
14.5078077764844
20
1.68776247228212
30
0
41
1
10
14.4743085310441
20
1.65708289509206
30
0
41
1
10
14.4528472309146
20
1.63543810480567
30
0
41
1
10
14.4114072718028
20
1.59004950767499
30
0
41
1
10
14.3914722816548
20
1.56633831821668
30
0
41
1
10
14.3533520730748
20
1.51746331722722
30
0
41
1
10
14.3351022819141
20
1.49222268070986
30
0
41
1
10
14.3002225342244
20
1.44030117606903
30
0
41
1
10
14.2836734314842
20
1.41374255311584
30
0
41
1
10
14.2523269020898
20
1.35944829598628
30
0
41
1
10
14.2376093571776
20
1.33185099143927
30
0
41
1
10
14.210110884591
20
1.2757425536754
30
0
41
1
10
14.1973394537479
20
1.24724016173914
30
0
41
1
10
14.174042774088
20
1.18970840424987
30
0
41
1
10
14.1634715832238
20
1.16056414054768
30
0
41
1
10
14.1448987588382
20
1.10200849064779
30
0
41
1
10
14.1368693669193
20
1.07253618006007
30
0
41
1
10
14.1237731035029
20
1.01332630432935
30
0
41
1
10
14.118737938895
20
0.98377480378204
30
0
41
1
10
14.1139422307624
20
0.939485874662495
30
0
41
1
10
14.1128067865162
20
0.924704916419273
30
0
41
1
10
14.1116110279343
20
0.895348261590641
30
0
41
1
10
14.1115465978699
20
0.88075686164936
30
0
41
1
10
14.1126598408631
20
0.851762711376068
30
0
41
1
10
14.1138386267102
20
0.837388673541284
30
0
41
1
10
14.1176475546264
20
0.809126748763362
30
0
41
1
10
14.1202869720117
20
0.795168878344526
30
0
41
1
10
14.1273076268323
20
0.767953796683997
30
0
41
1
10
14.1316556163826
20
0.754803098940414
30
0
41
1
10
14.1423679318881
20
0.72958424606523
30
0
41
1
10
14.1487266552133
20
0.717513067710286
30
0
41
1
10
14.1563816820316
20
0.706131385620068
30
0
0
SPLINE
5
127
100
AcDbEntity
8
1
62
256
6
ByLayer
370
18
48
1
60
0
100
AcDbSpline
70
4
71
3
72
8
73
4
40
0
40
0
40
0
40
0
40
1
40
1
40
1
40
1
41
1
10
14.1563816820316
20
0.706131385620068
30
0
41
1
10
14.160111156143
20
0.700586311813368
30
0
41
1
10
14.1638404920422
20
0.695041443503953
30
0
41
1
10
14.1675696929187
20
0.689496775949806
30
0
0
SPLINE
5
128
100
AcDbEntity
8
1
62
256
6
ByLayer
370
18
48
1
60
0
100
AcDbSpline
70
4
71
3
72
35
73
31
40
0
40
0
40
0
40
0
40
0.125000000000043
40
0.125000000000043
40
0.250000000000085
40
0.250000000000085
40
0.375000000000128
40
0.375000000000128
40
0.50000000000017
40
0.50000000000017
40
0.56250000000016
40
0.56250000000016
40
0.625000000000149
40
0.625000000000149
40
0.687500000000138
40
0.687500000000138
40
0.718750000000135
40
0.718750000000135
40
0.750000000000133
40
0.750000000000133
40
0.812500000000097
40
0.812500000000097
40
0.843750000000079
40
0.843750000000079
40
0.875000000000061
40
0.906250000000042
40
0.906250000000042
40
0.937500000000024
40
0.937500000000024
40
1
40
1
40
1
40
1
41
1
10
13.7861887094541
20
0.0443264991982346
30
0
41
1
10
13.8177283501361
20
0.0625359192360975
30
0
41
1
10
13.8485850097316
20
0.0819931083137533
30
0
41
1
10
13.9086328104322
20
0.123331895154564
30
0
41
1
10
13.9377504925895
20
0.145155808548566
30
0
41
1
10
13.9939925749474
20
0.191337241349544
30
0
41
1
10
14.0211272076155
20
0.215706013936767
30
0
41
1
10
14.0725932345987
20
0.267080058016802
30
0
41
1
10
14.0969477703555
20
0.294092701045543
30
0
41
1
10
14.1304240370158
20
0.336779646132953
30
0
41
1
10
14.1410537200828
20
0.351350184468714
30
0
41
1
10
14.1610509402303
20
0.381297956019409
30
0
41
1
10
14.1703904227778
20
0.396641004585604
30
0
41
1
10
14.1872813629292
20
0.42787142250674
30
0
41
1
10
14.1948646437833
20
0.44379804879253
30
0
41
1
10
14.2046017774811
20
0.468266731782251
30
0
41
1
10
14.207572833807
20
0.476519975874993
30
0
41
1
10
14.2128770846209
20
0.493249402701082
30
0
41
1
10
14.2152086416094
20
0.501735584802901
30
0
41
1
10
14.2209779047675
20
0.527100941711524
30
0
41
1
10
14.2232585134184
20
0.544029900558996
30
0
41
1
10
14.2236558159978
20
0.569435043650259
30
0
41
1
10
14.2232693271046
20
0.577889258379457
30
0
41
1
10
14.2214072552721
20
0.594295956363425
30
0
41
1
10
14.2184618281237
20
0.61032213529009
30
0
41
1
10
14.2132488707457
20
0.625543395053484
30
0
41
1
10
14.2068282396101
20
0.640332448291161
30
0
41
1
10
14.2030166486637
20
0.647469938160043
30
0
41
1
10
14.1902115225082
20
0.667468678188527
30
0
41
1
10
14.1797487498111
20
0.679198173707221
30
0
41
1
10
14.1675696929187
20
0.689496775949806
30
0
0
SPLINE
5
129
100
AcDbEntity
8
1
62
256
6
ByLayer
370
18
48
1
60
0
100
AcDbSpline
70
4
71
3
72
35
73
31
40
0
40
0
40
0
40
0
40
0.124999999999996
40
0.124999999999996
40
0.249999999999993
40
0.249999999999993
40
0.374999999999989
40
0.374999999999989
40
0.437499999999998
40
0.437499999999998
40
0.500000000000007
40
0.500000000000007
40
0.625000000000018
40
0.625000000000018
40
0.687500000000019
40
0.687500000000019
40
0.718750000000049
40
0.718750000000049
40
0.75000000000008
40
0.75000000000008
40
0.812500000000089
40
0.812500000000089
40
0.84375000000006
40
0.84375000000006
40
0.875000000000032
40
0.906250000000003
40
0.906250000000003
40
0.937499999999974
40
0.937499999999974
40
1
40
1
40
1
40
1
41
1
10
15.1895387094541
20
2.47500000000002
30
0
41
1
10
15.1895387094541
20
2.43858034169747
30
0
41
1
10
15.1881135098113
20
2.40208409514821
30
0
41
1
10
15.1823400714889
20
2.32946419734012
30
0
41
1
10
15.1780004824967
20
2.2933338431086
30
0
41
1
10
15.1661150912152
20
2.2214726029444
30
0
41
1
10
15.1585863026789
20
2.18585228741105
30
0
41
1
10
15.1445628351108
20
2.13330618091629
30
0
41
1
10
15.1394279335361
20
2.11592425714508
30
0
41
1
10
15.1281157326664
20
2.08146504891013
30
0
41
1
10
15.121936644228
20
2.0643885051139
30
0
41
1
10
15.1017236698746
20
2.01405997317951
30
0
41
1
10
15.0859536078288
20
1.98145033635907
30
0
41
1
10
15.057909929141
20
1.93584194718167
30
0
41
1
10
15.0477678150391
20
1.92111517112582
30
0
41
1
10
15.0313240077265
20
1.90033536676708
30
0
41
1
10
15.0256370599769
20
1.89362517409936
30
0
41
1
10
15.0137980018624
20
1.88069796711466
30
0
41
1
10
15.0076231041035
20
1.87446145494195
30
0
41
1
10
14.9885433177488
20
1.85683418682598
30
0
41
1
10
14.9750602507894
20
1.84646405352615
30
0
41
1
10
14.9534125717521
20
1.8335352843645
30
0
41
1
10
14.945899789085
20
1.82964459705985
30
0
41
1
10
14.9306835429871
20
1.82303550372851
30
0
41
1
10
14.9152725476229
20
1.8175745557003
30
0
41
1
10
14.8994643241006
20
1.81450386383801
30
0
41
1
10
14.8834493665277
20
1.81269743451503
30
0
41
1
10
14.8754145889964
20
1.81244523439946
30
0
41
1
10
14.8517941136692
20
1.81355707801757
30
0
41
1
10
14.8364593133514
20
1.81674714573143
30
0
41
1
10
14.8214953517529
20
1.82212924142365
30
0
0
SPLINE
5
12A
100
AcDbEntity
8
1
62
256
6
ByLayer
370
18
48
1
60
0
100
AcDbSpline
70
4
71
3
72
8
73
4
40
0
40
0
40
0
40
0
40
1
40
1
40
1
40
1
41
1
10
14.8214953517529
20
1.82212924142365
30
0
41
1
10
14.8148289283573
20
1.82258649034134
30
0
41
1
10
14.808162263591
20
1.82304375581461
30
0
41
1
10
14.8014953517529
20
1.8235010382345
30
0
0
SPLINE
5
12B
100
AcDbEntity
8
1
62
256
6
ByLayer
370
18
48
1
60
0
100
AcDbSpline
70
4
71
3
72
39
73
35
40
0
40
0
40
0
40
0
40
0.12500000000007
40
0.12500000000007
40
0.25000000000014
40
0.25000000000014
40
0.37500000000021
40
0.37500000000021
40
0.437500000000246
40
0.437500000000246
40
0.500000000000282
40
0.500000000000282
40
0.562500000000318
40
0.562500000000318
40
0.625000000000354
40
0.625000000000354
40
0.68750000000039
40
0.68750000000039
40
0.718750000000376
40
0.718750000000376
40
0.750000000000363
40
0.750000000000363
40
0.812500000000276
40
0.812500000000276
40
0.84375000000023
40
0.84375000000023
40
0.875000000000184
40
0.875000000000184
40
0.906250000000138
40
0.906250000000138
40
0.937500000000092
40
0.968750000000046
40
0.968750000000046
40
1
40
1
40
1
40
1
41
1
10
9.57613870945411
20
2.47500000000002
30
0
41
1
10
9.57613870945414
20
2.51142487228591
30
0
41
1
10
9.57756256449403
20
2.54788509469861
30
0
41
1
10
9.58333222855276
20
2.62048529795453
30
0
41
1
10
9.58768228543261
20
2.65669641599422
30
0
41
1
10
9.59955325429132
20
2.72847461901546
30
0
41
1
10
9.60708327898504
20
2.76411874246375
30
0
41
1
10
9.6211196174072
20
2.81671248199578
30
0
41
1
10
9.62625481605335
20
2.83409147396199
30
0
41
1
10
9.6375514244755
20
2.86850419869802
30
0
41
1
10
9.64372214932814
20
2.88556075244574
30
0
41
1
10
9.65718261617781
20
2.91908485042921
30
0
41
1
10
9.6644740860275
20
2.93556693333036
30
0
41
1
10
9.68039190633149
20
2.96785781174884
30
0
41
1
10
9.68898051989612
20
2.98358402379441
30
0
41
1
10
9.70753985290517
20
3.01380763675576
30
0
41
1
10
9.71752214107315
20
3.0283382348884
30
0
41
1
10
9.73382286554804
20
3.04902081568636
30
0
41
1
10
9.73947901035979
20
3.05572827372228
30
0
41
1
10
9.75130705190114
20
3.06870759716259
30
0
41
1
10
9.75747379340203
20
3.0749678330676
30
0
41
1
10
9.77651294319733
20
3.09265610276952
30
0
41
1
10
9.79001224551553
20
3.10311835172166
30
0
41
1
10
9.81180610586878
20
3.11621744606751
30
0
41
1
10
9.81929802934167
20
3.1201186868575
30
0
41
1
10
9.8344538069959
20
3.12675647600486
30
0
41
1
10
9.84215907510844
20
3.12951927561139
30
0
41
1
10
9.85783733617669
20
3.13385809607846
30
0
41
1
10
9.86587558980142
20
3.13543951792636
30
0
41
1
10
9.88188900402989
20
3.13728210350672
30
0
41
1
10
9.89778243601975
20
3.13782304564123
30
0
41
1
10
9.91344257125806
20
3.13588363920579
30
0
41
1
10
9.92898851978921
20
3.13274189284377
30
0
41
1
10
9.93668025696462
20
3.13056893846985
30
0
41
1
10
9.94418206715534
20
3.12787075857639
30
0
0
SPLINE
5
12C
100
AcDbEntity
8
1
62
256
6
ByLayer
370
18
48
1
60
0
100
AcDbSpline
70
4
71
3
72
8
73
4
40
0
40
0
40
0
40
0
40
1
40
1
40
1
40
1
41
1
10
10.6092957368766
20
4.24386861437998
30
0
41
1
10
10.6055662627652
20
4.24941368818665
30
0
41
1
10
10.601836926866
20
4.25495855649606
30
0
41
1
10
10.5981077259896
20
4.26050322405024
30
0
0
SPLINE
5
12D
100
AcDbEntity
8
1
62
256
6
ByLayer
370
18
48
1
60
0
100
AcDbSpline
70
4
71
3
72
35
73
31
40
0
40
0
40
0
40
0
40
0.12499999999996
40
0.12499999999996
40
0.249999999999919
40
0.249999999999919
40
0.374999999999879
40
0.374999999999879
40
0.499999999999838
40
0.499999999999838
40
0.562499999999852
40
0.562499999999852
40
0.624999999999865
40
0.624999999999865
40
0.687499999999879
40
0.687499999999879
40
0.718749999999888
40
0.718749999999888
40
0.749999999999897
40
0.749999999999897
40
0.812499999999914
40
0.812499999999914
40
0.843749999999928
40
0.843749999999928
40
0.874999999999942
40
0.906249999999955
40
0.906249999999955
40
0.937499999999969
40
0.937499999999969
40
1
40
1
40
1
40
1
41
1
10
10.9794887094541
20
4.90567350080181
30
0
41
1
10
10.9479490687722
20
4.88746408076395
30
0
41
1
10
10.9170924091767
20
4.86800689168629
30
0
41
1
10
10.8570446084761
20
4.82666810484548
30
0
41
1
10
10.8279269263187
20
4.80484419145145
30
0
41
1
10
10.7716848439607
20
4.75866275865047
30
0
41
1
10
10.7445502112928
20
4.73429398606328
30
0
41
1
10
10.6930841843096
20
4.68291994198322
30
0
41
1
10
10.6687296485527
20
4.65590729895448
30
0
41
1
10
10.6352533818924
20
4.61322035386706
30
0
41
1
10
10.6246236988256
20
4.59864981553133
30
0
41
1
10
10.604626478678
20
4.56870204398066
30
0
41
1
10
10.5952869961305
20
4.55335899541444
30
0
41
1
10
10.578396055979
20
4.52212857749331
30
0
41
1
10
10.570812775125
20
4.50620195120752
30
0
41
1
10
10.5610756414272
20
4.48173326821779
30
0
41
1
10
10.5581045851012
20
4.47348002412505
30
0
41
1
10
10.5528003342873
20
4.45675059729894
30
0
41
1
10
10.5504687772988
20
4.44826441519714
30
0
41
1
10
10.5446995141407
20
4.42289905828849
30
0
41
1
10
10.5424189054899
20
4.40597009944102
30
0
41
1
10
10.5420216029105
20
4.38056495634979
30
0
41
1
10
10.5424080918037
20
4.37211074162062
30
0
41
1
10
10.5442701636361
20
4.35570404363662
30
0
41
1
10
10.5472155907845
20
4.33967786470996
30
0
41
1
10
10.5524285481625
20
4.32445660494656
30
0
41
1
10
10.5588491792982
20
4.30966755170888
30
0
41
1
10
10.5626607702446
20
4.30253006184003
30
0
41
1
10
10.5754658964001
20
4.28253132181152
30
0
41
1
10
10.5859286690971
20
4.2708018262928
30
0
41
1
10
10.5981077259896
20
4.26050322405024
30
0
0
SPLINE
5
12E
100
AcDbEntity
8
1
62
256
6
ByLayer
370
18
48
1
60
0
100
AcDbSpline
70
4
71
3
72
8
73
4
40
0
40
0
40
0
40
0
40
1
40
1
40
1
40
1
41
1
10
9.96418206715532
20
3.12649896176552
30
0
41
1
10
9.95751515531717
20
3.12695624418544
30
0
41
1
10
9.95084849055098
20
3.12741350965868
30
0
41
1
10
9.94418206715534
20
3.12787075857639
30
0
0
SPLINE
5
12F
100
AcDbEntity
8
1
62
256
6
ByLayer
370
18
48
1
60
0
100
AcDbSpline
70
4
71
3
72
50
73
46
40
0
40
0
40
0
40
0
40
0.0312500000000271
40
0.0312500000000271
40
0.0468750000000283
40
0.0468750000000283
40
0.0625000000000295
40
0.0625000000000295
40
0.125000000000028
40
0.125000000000028
40
0.156250000000023
40
0.156250000000023
40
0.187500000000017
40
0.187500000000017
40
0.25
40
0.25
40
0.28124999999999
40
0.28124999999999
40
0.31249999999998
40
0.31249999999998
40
0.374999999999983
40
0.374999999999983
40
0.499999999999988
40
0.499999999999988
40
0.562500000000004
40
0.562500000000004
40
0.62500000000002
40
0.62500000000002
40
0.687500000000036
40
0.687500000000036
40
0.750000000000052
40
0.750000000000052
40
0.812500000000068
40
0.812500000000068
40
0.843750000000056
40
0.843750000000056
40
0.875000000000045
40
0.875000000000045
40
0.906250000000034
40
0.906250000000034
40
0.937500000000023
40
0.937500000000023
40
0.968750000000011
40
0.968750000000011
40
1
40
1
40
1
40
1
41
1
10
10.6092957368766
20
4.24386861437998
30
0
41
1
10
10.6169938815279
20
4.2324228236354
30
0
41
1
10
10.6233973192658
20
4.22025405452209
30
0
41
1
10
10.631485007602
20
4.20114568520566
30
0
41
1
10
10.6339253493951
20
4.19463218716101
30
0
41
1
10
10.6383415502521
20
4.18134154822121
30
0
41
1
10
10.6403214884213
20
4.1745449371565
30
0
41
1
10
10.6490662205231
20
4.14030640596656
30
0
41
1
10
10.6525357370637
20
4.11197052693049
30
0
41
1
10
10.6541384659695
20
4.06842734754878
30
0
41
1
10
10.6540504287513
20
4.05368949864149
30
0
41
1
10
10.6528040629902
20
4.02427099963651
30
0
41
1
10
10.651649986281
20
4.00955451242504
30
0
41
1
10
10.6468078862421
20
3.96537223400853
30
0
41
1
10
10.6417530588291
20
3.93587341384165
30
0
41
1
10
10.6319040393352
20
3.89152167291471
30
0
41
1
10
10.6282301881799
20
3.87668796128926
30
0
41
1
10
10.6202034638928
20
3.84713480876607
30
0
41
1
10
10.6158651478191
20
3.83246210736013
30
0
41
1
10
10.601955287144
20
3.78872586506469
30
0
41
1
10
10.5914943229843
20
3.75994221932203
30
0
41
1
10
10.5569205839979
20
3.67457002010389
30
0
41
1
10
10.5296719832557
20
3.61894031339114
30
0
41
1
10
10.4826568539273
20
3.53733070867068
30
0
41
1
10
10.4661048519747
20
3.51071612064922
30
0
41
1
10
10.431245210222
20
3.45872686486138
30
0
41
1
10
10.412933125196
20
3.43335308614448
30
0
41
1
10
10.3747255186328
20
3.38429280601997
30
0
41
1
10
10.3547526220376
20
3.36050756761341
30
0
41
1
10
10.3132832080984
20
3.31503009279831
30
0
41
1
10
10.2917518552295
20
3.29328734689341
30
0
41
1
10
10.2469647474149
20
3.25223127900975
30
0
41
1
10
10.2238593947302
20
3.23304371366598
30
0
41
1
10
10.1878533950249
20
3.20667453180968
30
0
41
1
10
10.1756033215629
20
3.19827740056755
30
0
41
1
10
10.1507409562401
20
3.18251828074634
30
0
41
1
10
10.1381179283169
20
3.17514537857164
30
0
41
1
10
10.1124132342828
20
3.16157229692763
30
0
41
1
10
10.0993543057078
20
3.1553867053959
30
0
41
1
10
10.0729319401832
20
3.14451988985758
30
0
41
1
10
10.059503576482
20
3.13981156771951
30
0
41
1
10
10.0323773132969
20
3.13225748061362
30
0
41
1
10
10.0187909462294
20
3.129437105167
30
0
41
1
10
9.99154735466325
20
3.12609092752379
30
0
41
1
10
9.9778903146572
20
3.12555871525527
30
0
41
1
10
9.96418206715532
20
3.12649896176552
30
0
0
SPLINE
5
130
100
AcDbEntity
8
SK1
62
256
6
ByLayer
370
18
48
1
60
0
100
AcDbSpline
70
4
71
3
72
26
73
22
40
0
40
0
40
0
40
0
40
0.125000000000013
40
0.125000000000013
40
0.250000000000025
40
0.250000000000025
40
0.375000000000038
40
0.375000000000038
40
0.437500000000047
40
0.437500000000047
40
0.500000000000056
40
0.500000000000056
40
0.625000000000042
40
0.625000000000042
40
0.750000000000028
40
0.750000000000028
40
0.812500000000021
40
0.812500000000021
40
0.875000000000014
40
0.875000000000014
40
1
40
1
40
1
40
1
41
1
10
1.421E-13
20
16.4989903551088
30
0
41
1
10
-0.0345725006425539
20
16.4576208995022
30
0
41
1
10
-0.0710564067022119
20
16.4181957540297
30
0
41
1
10
-0.148006896918588
20
16.3430074401606
30
0
41
1
10
-0.188472990040424
20
16.3072465322047
30
0
41
1
10
-0.27365989631798
20
16.2394154183723
30
0
41
1
10
-0.318379385332463
20
16.2073452673039
30
0
41
1
10
-0.388957475186629
20
16.1621896227406
30
0
41
1
10
-0.413067849407668
20
16.1476310141789
30
0
41
1
10
-0.462526245498708
20
16.1195526398083
30
0
41
1
10
-0.487912695030815
20
16.1060137359715
30
0
41
1
10
-0.565800331069141
20
16.0671850493731
30
0
41
1
10
-0.619515271610226
20
16.043921447396
30
0
41
1
10
-0.730722873479948
20
16.0029943382823
30
0
41
1
10
-0.788214359501325
20
15.9853285072151
30
0
41
1
10
-0.877517409999427
20
15.9634959188213
30
0
41
1
10
-0.907797052687698
20
15.9569983745997
30
0
41
1
10
-0.9694336770782
20
15.9456747146424
30
0
41
1
10
-1.00085516563499
20
15.9408409508879
30
0
41
1
10
-1.09637115478708
20
15.9291107175108
30
0
41
1
10
-1.16136602911908
20
15.925
30
0
41
1
10
-1.22772318076633
20
15.925
30
0
0
SPLINE
5
131
100
AcDbEntity
8
SK1
62
256
6
ByLayer
370
18
48
1
60
0
100
AcDbSpline
70
4
71
3
72
23
73
19
40
0
40
0
40
0
40
0
40
0.250000000000059
40
0.250000000000059
40
0.375000000000071
40
0.375000000000071
40
0.500000000000083
40
0.500000000000083
40
0.625000000000095
40
0.625000000000095
40
0.750000000000107
40
0.750000000000107
40
0.812500000000113
40
0.812500000000113
40
0.843750000000095
40
0.843750000000095
40
0.875000000000077
40
1
40
1
40
1
40
1
41
1
10
0
20
-15.425
30
0
41
1
10
-0.0810653617874948
20
-15.425
30
0
41
1
10
-0.16852557876112
20
-15.4311022577987
30
0
41
1
10
-0.308215611699694
20
-15.4542578640886
30
0
41
1
10
-0.356198703670003
20
-15.4643200320812
30
0
41
1
10
-0.454839406705077
20
-15.4901643107917
30
0
41
1
10
-0.505497822703546
20
-15.5059415634762
30
0
41
1
10
-0.609313021883935
20
-15.5445256761109
30
0
41
1
10
-0.661395995139486
20
-15.5669486134939
30
0
41
1
10
-0.765146891488598
20
-15.618618564356
30
0
41
1
10
-0.816847987308108
20
-15.6478741929353
30
0
41
1
10
-0.893660620763427
20
-15.6974836251067
30
0
41
1
10
-0.919141036408774
20
-15.7149759422455
30
0
41
1
10
-0.957108222418242
20
-15.7427404046933
30
0
41
1
10
-0.969739533448859
20
-15.7522645810993
30
0
41
1
10
-0.994712699629275
20
-15.7716856521788
30
0
41
1
10
-1.05652373228901
20
-15.8212427581829
30
0
41
1
10
-1.11514398345983
20
-15.8758073295706
30
0
41
1
10
-1.15973747406426
20
-15.9227255372408
30
0
0
SPLINE
5
132
100
AcDbEntity
8
1
62
256
6
ByLayer
370
18
48
1
60
0
100
AcDbSpline
70
4
71
11
72
24
73
12
40
0
40
0
40
0
40
0
40
0
40
0
40
0
40
0
40
0
40
0
40
0
40
0
40
1
40
1
40
1
40
1
40
1
40
1
40
1
40
1
40
1
40
1
40
1
40
1
41
1
10
20.6839456005441
20
17.33219902133
30
0
41
1
10
20.6926639410341
20
17.33181837037
30
0
41
1
10
20.7013640113941
20
17.33101926908
30
0
41
1
10
20.7100234960941
20
17.32980269182
30
0
41
1
10
20.7186201379041
20
17.32817095177
30
0
41
1
10
20.7271318297541
20
17.32612769695
30
0
41
1
10
20.7355367063241
20
17.32367789884
30
0
41
1
10
20.7438132344741
20
17.3208278338
30
0
41
1
10
20.7519403019941
20
17.31758505709
30
0
41
1
10
20.7598973039141
20
17.31395837013
30
0
41
1
10
20.7676642257541
20
17.30995778084
30
0
41
1
10
20.7752217231041
20
17.30559445771
30
0
0
SPLINE
5
133
100
AcDbEntity
8
1
62
256
6
ByLayer
370
18
48
1
60
0
100
AcDbSpline
70
4
71
5
72
12
73
6
40
0
40
0
40
0
40
0
40
0
40
0
40
1
40
1
40
1
40
1
40
1
40
1
41
1
10
13.7854430689559
20
17.0853299865194
30
0
41
1
10
13.856754146692
20
17.2721457910373
30
0
41
1
10
13.9864764279917
20
17.4366377890848
30
0
41
1
10
14.1653097241128
20
17.5544868173037
30
0
41
1
10
14.3680222186209
20
17.607890823583
30
0
41
1
10
14.5677342193542
20
17.59923857727
30
0
0
SPLINE
5
134
100
AcDbEntity
8
1
62
256
6
ByLayer
370
18
48
1
60
0
100
AcDbSpline
70
4
71
11
72
24
73
12
40
0
40
0
40
0
40
0
40
0
40
0
40
0
40
0
40
0
40
0
40
0
40
0
40
1
40
1
40
1
40
1
40
1
40
1
40
1
40
1
40
1
40
1
40
1
40
1
41
1
10
20.6839456005441
20
9.81780097867002
30
0
41
1
10
20.6926639410341
20
9.81818162963
30
0
41
1
10
20.7013640113941
20
9.81898073092
30
0
41
1
10
20.7100234960941
20
9.82019730818001
30
0
41
1
10
20.7186201379041
20
9.82182904823
30
0
41
1
10
20.7271318297541
20
9.82387230305002
30
0
41
1
10
20.7355367063241
20
9.82632210116
30
0
41
1
10
20.7438132344741
20
9.82917216620001
30
0
41
1
10
20.7519403019941
20
9.83241494291002
30
0
41
1
10
20.7598973039141
20
9.83604162987001
30
0
41
1
10
20.7676642257541
20
9.84004221916001
30
0
41
1
10
20.7752217231041
20
9.84440554229002
30
0
0
SPLINE
5
135
100
AcDbEntity
8
1
62
256
6
ByLayer
370
18
48
1
60
0
100
AcDbSpline
70
4
71
11
72
24
73
12
40
0
40
0
40
0
40
0
40
0
40
0
40
0
40
0
40
0
40
0
40
0
40
0
40
1
40
1
40
1
40
1
40
1
40
1
40
1
40
1
40
1
40
1
40
1
40
1
41
1
10
21.4746230398841
20
10.24820508076
30
0
41
1
10
21.4828675825041
20
10.25296506966
30
0
41
1
10
21.4913613573841
20
10.25729337518
30
0
41
1
10
21.5000792504241
20
10.26117549774
30
0
41
1
10
21.5089951983441
20
10.26459858134
30
0
41
1
10
21.5180823117441
20
10.26755148464
30
0
41
1
10
21.5273130042941
20
10.27002484128
30
0
41
1
10
21.5366591269941
20
10.27201110873
30
0
41
1
10
21.5460921062341
20
10.27350460535
30
0
41
1
10
21.5555830844841
20
10.2745015351
30
0
41
1
10
21.5651030622141
20
10.27499999997
30
0
41
1
10
21.5746230399441
20
10.27499999996
30
0
0
SPLINE
5
136
100
AcDbEntity
8
1
62
256
6
ByLayer
370
18
48
1
60
0
100
AcDbSpline
70
4
71
11
72
24
73
12
40
0
40
0
40
0
40
0
40
0
40
0
40
0
40
0
40
0
40
0
40
0
40
0
40
1
40
1
40
1
40
1
40
1
40
1
40
1
40
1
40
1
40
1
40
1
40
1
41
1
10
35.9910543790241
20
10.24820508076
30
0
41
1
10
35.9828098364041
20
10.25296506966
30
0
41
1
10
35.9743160615241
20
10.25729337518
30
0
41
1
10
35.9655981684841
20
10.26117549774
30
0
41
1
10
35.9566822205641
20
10.26459858134
30
0
41
1
10
35.9475951071641
20
10.26755148464
30
0
41
1
10
35.9383644146141
20
10.27002484128
30
0
41
1
10
35.9290182919141
20
10.27201110873
30
0
41
1
10
35.9195853126741
20
10.27350460535
30
0
41
1
10
35.9100943344241
20
10.2745015351
30
0
41
1
10
35.9005743566941
20
10.27499999997
30
0
41
1
10
35.8910543789641
20
10.27499999996
30
0
0
SPLINE
5
137
100
AcDbEntity
8
1
62
256
6
ByLayer
370
18
48
1
60
0
100
AcDbSpline
70
4
71
11
72
24
73
12
40
0
40
0
40
0
40
0
40
0
40
0
40
0
40
0
40
0
40
0
40
0
40
0
40
1
40
1
40
1
40
1
40
1
40
1
40
1
40
1
40
1
40
1
40
1
40
1
41
1
10
36.7817318183641
20
9.81780097867002
30
0
41
1
10
36.7730134778741
20
9.81818162963
30
0
41
1
10
36.7643134075141
20
9.81898073092
30
0
41
1
10
36.7556539228141
20
9.82019730818001
30
0
41
1
10
36.7470572810042
20
9.82182904823
30
0
41
1
10
36.7385455891541
20
9.82387230305002
30
0
41
1
10
36.7301407125841
20
9.82632210116
30
0
41
1
10
36.7218641844341
20
9.82917216620001
30
0
41
1
10
36.7137371169141
20
9.83241494291002
30
0
41
1
10
36.7057801149941
20
9.83604162987001
30
0
41
1
10
36.6980131931541
20
9.84004221916001
30
0
41
1
10
36.6904556958041
20
9.84440554229002
30
0
0
SPLINE
5
138
100
AcDbEntity
8
1
62
256
6
ByLayer
370
18
48
1
60
0
100
AcDbSpline
70
4
71
5
72
12
73
6
40
0
40
0
40
0
40
0
40
0
40
0
40
1
40
1
40
1
40
1
40
1
40
1
41
1
10
43.7328387094541
20
10.34999999833
30
0
41
1
10
43.7327517640541
20
10.0917685966
30
0
41
1
10
43.6289876117541
20
9.83305194597003
30
0
41
1
10
43.4189291524541
20
9.63196471986001
30
0
41
1
10
43.1559326149541
20
9.53958438800001
30
0
41
1
10
42.8979431995541
20
9.55076142273001
30
0
0
SPLINE
5
139
100
AcDbEntity
8
1
62
256
6
ByLayer
370
18
48
1
60
0
100
AcDbSpline
70
4
71
5
72
12
73
6
40
0
40
0
40
0
40
0
40
0
40
0
40
1
40
1
40
1
40
1
40
1
40
1
41
1
10
43.7328387094541
20
16.80000000167
30
0
41
1
10
43.7327517640541
20
17.0582314034
30
0
41
1
10
43.6289876117541
20
17.31694805403
30
0
41
1
10
43.4189291524541
20
17.51803528014
30
0
41
1
10
43.1559326149541
20
17.610415612
30
0
41
1
10
42.8979431995541
20
17.59923857727
30
0
0
SPLINE
5
13A
100
AcDbEntity
8
1
62
256
6
ByLayer
370
18
48
1
60
0
100
AcDbSpline
70
4
71
11
72
24
73
12
40
0
40
0
40
0
40
0
40
0
40
0
40
0
40
0
40
0
40
0
40
0
40
0
40
1
40
1
40
1
40
1
40
1
40
1
40
1
40
1
40
1
40
1
40
1
40
1
41
1
10
36.7817318183641
20
17.33219902133
30
0
41
1
10
36.7730134778741
20
17.33181837037
30
0
41
1
10
36.7643134075141
20
17.33101926908
30
0
41
1
10
36.7556539228141
20
17.32980269182
30
0
41
1
10
36.7470572810042
20
17.32817095177
30
0
41
1
10
36.7385455891541
20
17.32612769695
30
0
41
1
10
36.7301407125841
20
17.32367789884
30
0
41
1
10
36.7218641844341
20
17.3208278338
30
0
41
1
10
36.7137371169141
20
17.31758505709
30
0
41
1
10
36.7057801149941
20
17.31395837013
30
0
41
1
10
36.6980131931541
20
17.30995778084
30
0
41
1
10
36.6904556958041
20
17.30559445771
30
0
0
SPLINE
5
13B
100
AcDbEntity
8
1
62
256
6
ByLayer
370
18
48
1
60
0
100
AcDbSpline
70
4
71
11
72
24
73
12
40
0
40
0
40
0
40
0
40
0
40
0
40
0
40
0
40
0
40
0
40
0
40
0
40
1
40
1
40
1
40
1
40
1
40
1
40
1
40
1
40
1
40
1
40
1
40
1
41
1
10
35.9910543790241
20
16.90179491924
30
0
41
1
10
35.9828098364041
20
16.89703493034
30
0
41
1
10
35.9743160615241
20
16.89270662482
30
0
41
1
10
35.9655981684841
20
16.88882450226
30
0
41
1
10
35.9566822205641
20
16.88540141866
30
0
41
1
10
35.9475951071641
20
16.88244851536
30
0
41
1
10
35.9383644146141
20
16.87997515872
30
0
41
1
10
35.9290182919141
20
16.87798889127
30
0
41
1
10
35.9195853126741
20
16.87649539465
30
0
41
1
10
35.9100943344241
20
16.8754984649
30
0
41
1
10
35.9005743566941
20
16.87500000003
30
0
41
1
10
35.8910543789641
20
16.87500000004
30
0
0
SPLINE
5
13C
100
AcDbEntity
8
1
62
256
6
ByLayer
370
18
48
1
60
0
100
AcDbSpline
70
4
71
5
72
15
73
9
40
0
40
0
40
0
40
0
40
0
40
0
40
0.007461357302274
40
0.007461357302274
40
0.007461357302274
40
1
40
1
40
1
40
1
40
1
40
1
41
1
10
40.228944744212
20
11.0803339130553
30
0
41
1
10
40.2284596163139
20
11.080992630021
30
0
41
1
10
40.2279739067674
20
11.0816508388278
30
0
41
1
10
40.2274876173251
20
11.082308540623
30
0
41
1
10
40.1622357345646
20
11.1703884884561
30
0
41
1
10
40.0866290552541
20
11.24940418424
30
0
41
1
10
40.0062825575541
20
11.31978114333
30
0
41
1
10
39.9209923535541
20
11.38444748613
30
0
41
1
10
39.8337069035541
20
11.44297937991
30
0
0
SPLINE
5
13D
100
AcDbEntity
8
1
62
256
6
ByLayer
370
18
48
1
60
0
100
AcDbSpline
70
4
71
5
72
15
73
9
40
0
40
0
40
0
40
0
40
0
40
0
40
0.0074613572676817
40
0.0074613572676817
40
0.0074613572676817
40
1
40
1
40
1
40
1
40
1
40
1
41
1
10
40.2289447442006
20
16.0696660869294
30
0
41
1
10
40.2284596163048
20
16.0690073699668
30
0
41
1
10
40.2279739067606
20
16.0683491611631
30
0
41
1
10
40.2274876173205
20
16.0676914593709
30
0
41
1
10
40.162235734562
20
15.9796115115411
30
0
41
1
10
40.0866290552541
20
15.90059581576
30
0
41
1
10
40.0062825575541
20
15.83021885667
30
0
41
1
10
39.9209923535541
20
15.76555251387
30
0
41
1
10
39.8337069035541
20
15.70702062009
30
0
0
SPLINE
5
13E
100
AcDbEntity
8
1
62
256
6
ByLayer
370
18
48
1
60
0
100
AcDbSpline
70
4
71
5
72
15
73
9
40
0
40
0
40
0
40
0
40
0
40
0
40
0.437068328965547
40
0.437068328965547
40
0.437068328965547
40
1
40
1
40
1
40
1
40
1
40
1
41
1
10
39.2639169243541
20
15.05957438325
30
0
41
1
10
39.2639860899541
20
15.11657409501
30
0
41
1
10
39.2745111666541
20
15.17121097841
30
0
41
1
10
39.2949683046541
20
15.2244498694
30
0
41
1
10
39.3555850420541
20
15.33511486912
30
0
41
1
10
39.4407146839541
20
15.42713126732
30
0
41
1
10
39.4919989449541
20
15.47267396789
30
0
41
1
10
39.5475179910541
20
15.51518419429
30
0
41
1
10
39.6034247134541
20
15.55259794375
30
0
0
SPLINE
5
13F
100
AcDbEntity
8
1
62
256
6
ByLayer
370
18
48
1
60
0
100
AcDbSpline
70
4
71
5
72
15
73
9
40
0
40
0
40
0
40
0
40
0
40
0
40
0.437068328965547
40
0.437068328965547
40
0.437068328965547
40
1
40
1
40
1
40
1
40
1
40
1
41
1
10
39.2639169243541
20
12.09042561675
30
0
41
1
10
39.2639860899541
20
12.03342590499
30
0
41
1
10
39.2745111666541
20
11.97878902159
30
0
41
1
10
39.2949683046541
20
11.9255501306
30
0
41
1
10
39.3555850420541
20
11.81488513088
30
0
41
1
10
39.4407146839541
20
11.72286873268
30
0
41
1
10
39.4919989449541
20
11.67732603211
30
0
41
1
10
39.5475179910541
20
11.63481580571
30
0
41
1
10
39.6034247134541
20
11.59740205625
30
0
0
SPLINE
5
140
100
AcDbEntity
8
1
62
256
6
ByLayer
370
18
48
1
60
0
100
AcDbSpline
70
4
71
5
72
12
73
6
40
0
40
0
40
0
40
0
40
0
40
0
40
1
40
1
40
1
40
1
40
1
40
1
41
1
10
34.7330649700841
20
13.304999999302
30
0
41
1
10
34.7230571246641
20
13.304999999302
30
0
41
1
10
34.7119792098741
20
13.304999999302
30
0
41
1
10
34.7001419862841
20
13.304999999302
30
0
41
1
10
34.6879246189441
20
13.304999999302
30
0
41
1
10
34.6757073264541
20
13.304999999302
30
0
0
SPLINE
5
141
100
AcDbEntity
8
1
62
256
6
ByLayer
370
18
48
1
60
0
100
AcDbSpline
70
4
71
5
72
12
73
6
40
0
40
0
40
0
40
0
40
0
40
0
40
1
40
1
40
1
40
1
40
1
40
1
41
1
10
34.7330649700841
20
13.845000000698
30
0
41
1
10
34.7230571246641
20
13.845000000698
30
0
41
1
10
34.7119792098741
20
13.845000000698
30
0
41
1
10
34.7001419862841
20
13.845000000698
30
0
41
1
10
34.6879246189441
20
13.845000000698
30
0
41
1
10
34.6757073264541
20
13.845000000698
30
0
0
SPLINE
5
142
100
AcDbEntity
8
1
62
256
6
ByLayer
370
18
48
1
60
0
100
AcDbSpline
70
4
71
5
72
12
73
6
40
0
40
0
40
0
40
0
40
0
40
0
40
1
40
1
40
1
40
1
40
1
40
1
41
1
10
34.6756957010842
20
13.845000736044
30
0
41
1
10
34.6756648820709
20
13.8833114203009
30
0
41
1
10
34.6744372981317
20
13.9216297168706
30
0
41
1
10
34.6716180696452
20
13.9598382344002
30
0
41
1
10
34.667684739649
20
13.9978891774297
30
0
41
1
10
34.6623599099927
20
14.0356636600115
30
0
0
SPLINE
5
143
100
AcDbEntity
8
1
62
256
6
ByLayer
370
18
48
1
60
0
100
AcDbSpline
70
4
71
5
72
12
73
6
40
0
40
0
40
0
40
0
40
0
40
0
40
1
40
1
40
1
40
1
40
1
40
1
41
1
10
34.6756957010842
20
13.304999263956
30
0
41
1
10
34.6756648820709
20
13.2666885796991
30
0
41
1
10
34.6744372981317
20
13.2283702831294
30
0
41
1
10
34.6716180696452
20
13.1901617655998
30
0
41
1
10
34.667684739649
20
13.1521108225703
30
0
41
1
10
34.6623599099927
20
13.1143363399886
30
0
0
SPLINE
5
144
100
AcDbEntity
8
1
62
256
6
ByLayer
370
18
48
1
60
0
100
AcDbSpline
70
4
71
5
72
12
73
6
40
0
40
0
40
0
40
0
40
0
40
0
40
1
40
1
40
1
40
1
40
1
40
1
41
1
10
34.7197405243741
20
13.105198243564
30
0
41
1
10
34.7097640363015
20
13.1071746964012
30
0
41
1
10
34.698696330138
20
13.1091508999295
30
0
41
1
10
34.6868531648652
20
13.1110635768048
30
0
41
1
10
34.6746213779096
20
13.1128468219245
30
0
41
1
10
34.6623890392603
20
13.1144499644977
30
0
0
SPLINE
5
145
100
AcDbEntity
8
1
62
256
6
ByLayer
370
13
48
1
60
0
100
AcDbSpline
70
4
71
5
72
12
73
6
40
0
40
0
40
0
40
0
40
0
40
0
40
1
40
1
40
1
40
1
40
1
40
1
41
1
10
34.6623620932424
20
13.114337142689
30
0
41
1
10
34.646393084334
20
13.0270976691807
30
0
41
1
10
34.5558155352149
20
12.9659522242555
30
0
41
1
10
34.4811021180297
20
12.9361836888088
30
0
41
1
10
34.3904481790496
20
12.9090718715532
30
0
41
1
10
34.3025614455541
20
12.897399547127
30
0
0
SPLINE
5
146
100
AcDbEntity
8
1
62
256
6
ByLayer
370
13
48
1
60
0
100
AcDbSpline
70
4
71
3
72
26
73
22
40
0
40
0
40
0
40
0
40
0.0039953692450149
40
0.0081034076465842
40
0.0162182804967772
40
0.0320941361820795
40
0.0628014698360426
40
0.122365117924765
40
0.179522955805309
40
0.243498148205779
40
0.359092368685276
40
0.494172294572758
40
0.539711050366914
40
0.587883177252675
40
0.63870592207825
40
0.692193967160127
40
0.748359904089074
40
0.807214605180614
40
0.86876751745326
40
0.933026897389338
40
1
40
1
40
1
40
1
41
1
10
34.6623598989935
20
14.035735586972
30
0
41
1
10
34.6622250393307
20
14.0363581257009
30
0
41
1
10
34.6619515169712
20
14.0376207587109
30
0
41
1
10
34.6613971847637
20
14.0401439499968
30
0
41
1
10
34.660348305881
20
14.044490539364
30
0
41
1
10
34.6580107963771
20
14.0528547731923
30
0
41
1
10
34.6523110524741
20
14.0686377389123
30
0
41
1
10
34.6413847242915
20
14.0890059861304
30
0
41
1
10
34.6245960260311
20
14.1111584351604
30
0
41
1
10
34.599604754568
20
14.1369098210395
30
0
41
1
10
34.5622886286903
20
14.1655199839741
30
0
41
1
10
34.5242190731558
20
14.1867211732262
30
0
41
1
10
34.493904717015
20
14.2006538622067
30
0
41
1
10
34.4744962052329
20
14.2087230286022
30
0
41
1
10
34.4537874272053
20
14.2164819352282
30
0
41
1
10
34.4317769392235
20
14.2238695727508
30
0
41
1
10
34.4084647684173
20
14.2308207977221
30
0
41
1
10
34.3838513836187
20
14.2372741184038
30
0
41
1
10
34.3579338587766
20
14.2431421525687
30
0
41
1
10
34.3307234334046
20
14.2484311880068
30
0
41
1
10
34.3120773010258
20
14.2512634009972
30
0
41
1
10
34.3025614455541
20
14.2527087907935
30
0
0
SPLINE
5
147
100
AcDbEntity
8
1
62
256
6
ByLayer
370
18
48
1
60
0
100
AcDbSpline
70
4
71
5
72
12
73
6
40
0
40
0
40
0
40
0
40
0
40
0
40
1
40
1
40
1
40
1
40
1
40
1
41
1
10
34.7197405243741
20
14.044801756436
30
0
41
1
10
34.7097640363015
20
14.0428253035988
30
0
41
1
10
34.698696330138
20
14.0408491000705
30
0
41
1
10
34.6868531648652
20
14.0389364231952
30
0
41
1
10
34.6746213779096
20
14.0371531780755
30
0
41
1
10
34.6623890392603
20
14.0355500355024
30
0
0
SPLINE
5
148
100
AcDbEntity
8
1
62
256
6
ByLayer
370
18
48
1
60
0
100
AcDbSpline
70
4
71
5
72
12
73
6
40
0
40
0
40
0
40
0
40
0
40
0
40
1
40
1
40
1
40
1
40
1
40
1
41
1
10
34.3597942943876
20
12.8013011578708
30
0
41
1
10
34.3562032503784
20
12.8277708458973
30
0
41
1
10
34.3474614578786
20
12.8542436461872
30
0
41
1
10
34.3340572571157
20
12.8766792391711
30
0
41
1
10
34.3182524630021
20
12.89129092588
30
0
41
1
10
34.3024582620241
20
12.897267476332
30
0
0
SPLINE
5
149
100
AcDbEntity
8
1
62
256
6
ByLayer
370
13
48
1
60
0
100
AcDbSpline
70
4
71
5
72
12
73
6
40
0
40
0
40
0
40
0
40
0
40
0
40
1
40
1
40
1
40
1
40
1
40
1
41
1
10
34.0907519938741
20
12.841914648241
30
0
41
1
10
34.1327501033241
20
12.854919281998
30
0
41
1
10
34.1749420068441
20
12.866936474904
30
0
41
1
10
34.2173056682241
20
12.877989154613
30
0
41
1
10
34.2598184926541
20
12.888094685179
30
0
41
1
10
34.3024582620241
20
12.897267476332
30
0
0
SPLINE
5
14A
100
AcDbEntity
8
1
62
256
6
ByLayer
370
13
48
1
60
0
100
AcDbSpline
70
4
71
5
72
12
73
6
40
0
40
0
40
0
40
0
40
0
40
0
40
1
40
1
40
1
40
1
40
1
40
1
41
1
10
34.0907519938741
20
14.308085351759
30
0
41
1
10
34.1327501033241
20
14.295080718002
30
0
41
1
10
34.1749420068441
20
14.283063525096
30
0
41
1
10
34.2173056682241
20
14.272010845387
30
0
41
1
10
34.2598184926541
20
14.261905314821
30
0
41
1
10
34.3024582620241
20
14.252732523668
30
0
0
SPLINE
5
14B
100
AcDbEntity
8
1
62
256
6
ByLayer
370
18
48
1
60
0
100
AcDbSpline
70
4
71
5
72
12
73
6
40
0
40
0
40
0
40
0
40
0
40
0
40
1
40
1
40
1
40
1
40
1
40
1
41
1
10
34.3599190897846
20
14.3486737940091
30
0
41
1
10
34.3563476082873
20
14.3221835644654
30
0
41
1
10
34.3476132389691
20
14.2956755442784
30
0
41
1
10
34.3342013943331
20
14.2732050221121
30
0
41
1
10
34.3183806562485
20
14.2585758723839
30
0
41
1
10
34.3025697678888
20
14.2526035952293
30
0
0
SPLINE
5
14C
100
AcDbEntity
8
1
62
256
6
ByLayer
370
18
48
1
60
0
100
AcDbSpline
70
4
71
5
72
12
73
6
40
0
40
0
40
0
40
0
40
0
40
0
40
1
40
1
40
1
40
1
40
1
40
1
41
1
10
34.0907519937142
20
14.338887563487
30
0
41
1
10
34.0907519937741
20
14.330759150896
30
0
41
1
10
34.0907519938941
20
14.323456221514
30
0
41
1
10
34.0907519938041
20
14.317159397245
30
0
41
1
10
34.0907519938241
20
14.312008782037
30
0
41
1
10
34.0907519938841
20
14.308085349363
30
0
0
SPLINE
5
14D
100
AcDbEntity
8
1
62
256
6
ByLayer
370
18
48
1
60
0
100
AcDbSpline
70
4
71
5
72
12
73
6
40
0
40
0
40
0
40
0
40
0
40
0
40
1
40
1
40
1
40
1
40
1
40
1
41
1
10
34.1481096371242
20
14.400521332762
30
0
41
1
10
34.1433811635241
20
14.376138352077
30
0
41
1
10
34.1341554064341
20
14.351744469982
30
0
41
1
10
34.1210186242341
20
14.33057359778
30
0
41
1
10
34.1058819266941
20
14.315705626901
30
0
41
1
10
34.0907519938841
20
14.308085349363
30
0
0
SPLINE
5
14E
100
AcDbEntity
8
1
62
256
6
ByLayer
370
18
48
1
60
0
100
AcDbSpline
70
4
71
5
72
12
73
6
40
0
40
0
40
0
40
0
40
0
40
0
40
1
40
1
40
1
40
1
40
1
40
1
41
1
10
34.1481096371242
20
12.749478667238
30
0
41
1
10
34.1433811635241
20
12.773861647923
30
0
41
1
10
34.1341554064341
20
12.798255530018
30
0
41
1
10
34.1210186242341
20
12.81942640222
30
0
41
1
10
34.1058819266941
20
12.834294373099
30
0
41
1
10
34.0907519938841
20
12.841914650637
30
0
0
SPLINE
5
14F
100
AcDbEntity
8
1
62
256
6
ByLayer
370
18
48
1
60
0
100
AcDbSpline
70
4
71
5
72
12
73
6
40
0
40
0
40
0
40
0
40
0
40
0
40
1
40
1
40
1
40
1
40
1
40
1
41
1
10
34.0907519937142
20
12.811112436513
30
0
41
1
10
34.0907519937741
20
12.819240849104
30
0
41
1
10
34.0907519938941
20
12.826543778486
30
0
41
1
10
34.0907519938041
20
12.832840602755
30
0
41
1
10
34.0907519938241
20
12.837991217963
30
0
41
1
10
34.0907519938841
20
12.841914650637
30
0
0
SPLINE
5
150
100
AcDbEntity
8
1
62
256
6
ByLayer
370
18
48
1
60
0
100
AcDbSpline
70
4
71
5
72
12
73
6
40
0
40
0
40
0
40
0
40
0
40
0
40
1
40
1
40
1
40
1
40
1
40
1
41
1
10
34.1481096373641
20
12.749478667203
30
0
41
1
10
34.1396875541541
20
12.763508155574
30
0
41
1
10
34.1290967677241
20
12.777538369833
30
0
41
1
10
34.1168649232241
20
12.790682122169
30
0
41
1
10
34.1038081207441
20
12.802062469818
30
0
41
1
10
34.0907519937142
20
12.811112436513
30
0
0
SPLINE
5
151
100
AcDbEntity
8
1
62
256
6
ByLayer
370
18
48
1
60
0
100
AcDbSpline
70
4
71
5
72
12
73
6
40
0
40
0
40
0
40
0
40
0
40
0
40
1
40
1
40
1
40
1
40
1
40
1
41
1
10
34.1481096373641
20
14.400521332797
30
0
41
1
10
34.1396875541541
20
14.386491844426
30
0
41
1
10
34.1290967677241
20
14.372461630167
30
0
41
1
10
34.1168649232241
20
14.359317877831
30
0
41
1
10
34.1038081207441
20
14.347937530182
30
0
41
1
10
34.0907519937142
20
14.338887563487
30
0
0
SPLINE
5
152
100
AcDbEntity
8
1
62
256
6
ByLayer
370
18
48
1
60
0
100
AcDbSpline
70
4
71
5
72
12
73
6
40
0
40
0
40
0
40
0
40
0
40
0
40
1
40
1
40
1
40
1
40
1
40
1
41
1
10
33.9881663362541
20
14.474933833468
30
0
41
1
10
33.9881663356341
20
14.465291515484
30
0
41
1
10
33.9881663370341
20
14.455857494547
30
0
41
1
10
33.9881663356341
20
14.446824074795
30
0
41
1
10
33.9881663365341
20
14.438375066566
30
0
41
1
10
33.9881663363441
20
14.430664886196
30
0
0
SPLINE
5
153
100
AcDbEntity
8
1
62
256
6
ByLayer
370
18
48
1
60
0
100
AcDbSpline
70
4
71
8
72
18
73
9
40
0
40
0
40
0
40
0
40
0
40
0
40
0
40
0
40
0
40
1
40
1
40
1
40
1
40
1
40
1
40
1
40
1
40
1
41
1
10
33.9881663372241
20
14.43066488864
30
0
41
1
10
33.9963264921741
20
14.436321169267
30
0
41
1
10
34.0044866467541
20
14.442809892465
30
0
41
1
10
34.0124998509241
20
14.450029198244
30
0
41
1
10
34.0202191530141
20
14.457856239019
30
0
41
1
10
34.0275031576041
20
14.466151029836
30
0
41
1
10
34.0342215911341
20
14.474761632917
30
0
41
1
10
34.0402601301341
20
14.483530142886
30
0
41
1
10
34.0455239808641
20
14.492298652793
30
0
0
SPLINE
5
154
100
AcDbEntity
8
1
62
256
6
ByLayer
370
18
48
1
60
0
100
AcDbSpline
70
4
71
8
72
18
73
9
40
0
40
0
40
0
40
0
40
0
40
0
40
0
40
0
40
0
40
1
40
1
40
1
40
1
40
1
40
1
40
1
40
1
40
1
41
1
10
33.9881663372241
20
12.71933511136
30
0
41
1
10
33.9963264921741
20
12.713678830733
30
0
41
1
10
34.0044866467541
20
12.707190107535
30
0
41
1
10
34.0124998509241
20
12.699970801756
30
0
41
1
10
34.0202191530141
20
12.692143760981
30
0
41
1
10
34.0275031576041
20
12.683848970164
30
0
41
1
10
34.0342215911341
20
12.675238367083
30
0
41
1
10
34.0402601301341
20
12.666469857114
30
0
41
1
10
34.0455239808641
20
12.657701347207
30
0
0
SPLINE
5
155
100
AcDbEntity
8
1
62
256
6
ByLayer
370
18
48
1
60
0
100
AcDbSpline
70
4
71
5
72
12
73
6
40
0
40
0
40
0
40
0
40
0
40
0
40
1
40
1
40
1
40
1
40
1
40
1
41
1
10
33.9881663362541
20
12.675066166532
30
0
41
1
10
33.9881663356341
20
12.684708484516
30
0
41
1
10
33.9881663370341
20
12.694142505453
30
0
41
1
10
33.9881663356341
20
12.703175925205
30
0
41
1
10
33.9881663365341
20
12.711624933434
30
0
41
1
10
33.9881663363441
20
12.719335113804
30
0
0
SPLINE
5
156
100
AcDbEntity
8
1
62
256
6
ByLayer
370
18
48
1
60
0
100
AcDbSpline
70
4
71
2
72
6
73
3
40
0
40
0
40
0
40
1
40
1
40
1
41
1
10
35.844633467395
20
11.4491963764511
30
0
41
1
10
35.7776071986907
20
11.540349642733
30
0
41
1
10
35.6929598044602
20
11.6237683026
30
0
0
SPLINE
5
157
100
AcDbEntity
8
1
62
256
6
ByLayer
370
18
48
1
60
0
100
AcDbSpline
70
4
71
5
72
12
73
6
40
0
40
0
40
0
40
0
40
0
40
0
40
1
40
1
40
1
40
1
40
1
40
1
41
1
10
35.3135050316341
20
12.26290432486
30
0
41
1
10
35.3133255385441
20
12.14694828782
30
0
41
1
10
35.3441699408541
20
12.03175988848
30
0
41
1
10
35.3993831779041
20
11.93298783366
30
0
41
1
10
35.4656728371541
20
11.84758746406
30
0
41
1
10
35.5396020575741
20
11.77483238521
30
0
0
SPLINE
5
158
100
AcDbEntity
8
1
62
256
6
ByLayer
370
18
48
1
60
0
100
AcDbSpline
70
4
71
5
72
12
73
6
40
0
40
0
40
0
40
0
40
0
40
0
40
1
40
1
40
1
40
1
40
1
40
1
41
1
10
35.3135050316341
20
14.88709567514
30
0
41
1
10
35.3133255385441
20
15.00305171218
30
0
41
1
10
35.3441699408541
20
15.11824011152
30
0
41
1
10
35.3993831779041
20
15.21701216634
30
0
41
1
10
35.4656728371541
20
15.30241253594
30
0
41
1
10
35.5396020575741
20
15.37516761479
30
0
0
SPLINE
5
159
100
AcDbEntity
8
1
62
256
6
ByLayer
370
18
48
1
60
0
100
AcDbSpline
70
4
71
3
72
20
73
16
40
0
40
0
40
0
40
0
40
0.0728250660510343
40
0.146312952644167
40
0.22046958091791
40
0.295300696636261
40
0.370811875032921
40
0.447008525573673
40
0.523895896630329
40
0.601479080064951
40
0.6797630157195
40
0.758752495810193
40
0.838452169223657
40
0.918866545713901
40
1
40
1
40
1
40
1
41
1
10
35.8446304761437
20
15.7008008417869
30
0
41
1
10
35.8412328701988
20
15.6962130096939
30
0
41
1
10
35.8344067348489
20
15.6869955891524
30
0
41
1
10
35.8239327458698
20
15.6733173775686
30
0
41
1
10
35.8132291994535
20
15.659670838273
30
0
41
1
10
35.8022821544851
20
15.6460736361913
30
0
41
1
10
35.7910953967783
20
15.6325239925039
30
0
41
1
10
35.7796679016439
20
15.6190254211128
30
0
41
1
10
35.767999934386
20
15.6055800411005
30
0
41
1
10
35.7560914724245
20
15.5921902730705
30
0
41
1
10
35.743942334793
20
15.5788588301807
30
0
41
1
10
35.731553278248
20
15.5655870092672
30
0
41
1
10
35.7189214203842
20
15.552381625749
30
0
41
1
10
35.7060576686901
20
15.5392286519481
30
0
41
1
10
35.69733869576
20
15.5305768524739
30
0
41
1
10
35.6929598044542
20
15.5262316973966
30
0
0
SPLINE
5
15A
100
AcDbEntity
8
1
62
256
6
ByLayer
370
13
48
1
60
0
100
AcDbSpline
70
4
71
5
72
12
73
6
40
0
40
0
40
0
40
0
40
0
40
0
40
1
40
1
40
1
40
1
40
1
40
1
41
1
10
34.3598159056641
20
14.348858693264
30
0
41
1
10
34.3171889412241
20
14.357417390238
30
0
41
1
10
34.2746844831941
20
14.366847016315
30
0
41
1
10
34.2323217653641
20
14.377161901592
30
0
41
1
10
34.1901219745541
20
14.388379562948
30
0
41
1
10
34.1481096378141
20
14.400521332763
30
0
0
SPLINE
5
15B
100
AcDbEntity
8
1
62
256
6
ByLayer
370
18
48
1
60
0
100
AcDbSpline
70
4
71
5
72
22
73
16
40
0
40
0
40
0
40
0
40
0
40
0
40
0.333333333333333
40
0.333333333333333
40
0.333333333333333
40
0.333333333333333
40
0.333333333333333
40
0.666666666666667
40
0.666666666666667
40
0.666666666666667
40
0.666666666666667
40
0.666666666666667
40
1
40
1
40
1
40
1
40
1
40
1
41
1
10
34.3599190892041
20
14.348673794117
30
0
41
1
10
34.4267791991341
20
14.336038542373
30
0
41
1
10
34.4923994823041
20
14.312658572081
30
0
41
1
10
34.5566044080241
20
14.281634754115
30
0
41
1
10
34.6153396746941
20
14.238919300094
30
0
41
1
10
34.661927134604
20
14.1785101433079
30
0
41
1
10
34.6737773138041
20
14.163144220061
30
0
41
1
10
34.6847216307641
20
14.146601770428
30
0
41
1
10
34.6944554712141
20
14.128956244297
30
0
41
1
10
34.7027127462141
20
14.110370950469
30
0
41
1
10
34.7091409888419
20
14.0907119059596
30
0
41
1
10
34.7120457846641
20
14.081828372206
30
0
41
1
10
34.7146706134441
20
14.072836677366
30
0
41
1
10
34.7168623204441
20
14.063580013331
30
0
41
1
10
34.7184110501741
20
14.054230968689
30
0
41
1
10
34.7197405245641
20
14.044801756436
30
0
0
SPLINE
5
15C
100
AcDbEntity
8
1
62
256
6
ByLayer
370
18
48
1
60
0
100
AcDbSpline
70
4
71
5
72
19
73
13
40
0
40
0
40
0
40
0
40
0
40
0
40
0.44522345479053
40
0.44522345479053
40
0.44522345479053
40
0.55477654520947
40
0.55477654520947
40
0.55477654520947
40
0.55477654520947
40
1
40
1
40
1
40
1
40
1
40
1
41
1
10
34.7197430075141
20
14.04480586524
30
0
41
1
10
34.7223974801241
20
14.025000089434
30
0
41
1
10
34.7246802113741
20
14.005124268218
30
0
41
1
10
34.7266740856941
20
13.985198280555
30
0
41
1
10
34.7287675943641
20
13.960317689085
30
0
41
1
10
34.7303488532041
20
13.935385347033
30
0
41
1
10
34.7306407490141
20
13.930460018047
30
0
41
1
10
34.7309120853141
20
13.925532960811
30
0
41
1
10
34.7318934127941
20
13.905499760755
30
0
41
1
10
34.7325028789641
20
13.890390221986
30
0
41
1
10
34.7328712854941
20
13.875258475561
30
0
41
1
10
34.7330241757441
20
13.86013145821
30
0
41
1
10
34.7330571658241
20
13.845000771754
30
0
0
SPLINE
5
15D
100
AcDbEntity
8
1
62
256
6
ByLayer
370
18
48
1
60
0
100
AcDbSpline
70
4
71
5
72
19
73
13
40
0
40
0
40
0
40
0
40
0
40
0
40
0.44522345479053
40
0.44522345479053
40
0.44522345479053
40
0.55477654520947
40
0.55477654520947
40
0.55477654520947
40
0.55477654520947
40
1
40
1
40
1
40
1
40
1
40
1
41
1
10
34.7197430075141
20
13.10519413476
30
0
41
1
10
34.7223974801241
20
13.124999910566
30
0
41
1
10
34.7246802113741
20
13.144875731782
30
0
41
1
10
34.7266740856941
20
13.164801719445
30
0
41
1
10
34.7287675943641
20
13.189682310915
30
0
41
1
10
34.7303488532041
20
13.214614652967
30
0
41
1
10
34.7306407490141
20
13.219539981953
30
0
41
1
10
34.7309120853141
20
13.224467039189
30
0
41
1
10
34.7318934127941
20
13.244500239245
30
0
41
1
10
34.7325028789641
20
13.259609778014
30
0
41
1
10
34.7328712854941
20
13.274741524439
30
0
41
1
10
34.7330241757441
20
13.28986854179
30
0
41
1
10
34.7330571658241
20
13.304999228246
30
0
0
SPLINE
5
15E
100
AcDbEntity
8
1
62
256
6
ByLayer
370
18
48
1
60
0
100
AcDbSpline
70
4
71
5
72
22
73
16
40
0
40
0
40
0
40
0
40
0
40
0
40
0.333333333333333
40
0.333333333333333
40
0.333333333333333
40
0.333333333333333
40
0.333333333333333
40
0.666666666666667
40
0.666666666666667
40
0.666666666666667
40
0.666666666666667
40
0.666666666666667
40
1
40
1
40
1
40
1
40
1
40
1
41
1
10
34.3599190892041
20
12.801326205883
30
0
41
1
10
34.4267791991341
20
12.813961457627
30
0
41
1
10
34.4923994823041
20
12.837341427919
30
0
41
1
10
34.5566044080241
20
12.868365245885
30
0
41
1
10
34.6153396746941
20
12.911080699906
30
0
41
1
10
34.661927134604
20
12.9714898566922
30
0
41
1
10
34.6737773138041
20
12.986855779939
30
0
41
1
10
34.6847216307641
20
13.003398229572
30
0
41
1
10
34.6944554712141
20
13.021043755703
30
0
41
1
10
34.7027127462141
20
13.039629049531
30
0
41
1
10
34.7091409888419
20
13.0592880940404
30
0
41
1
10
34.7120457846641
20
13.068171627794
30
0
41
1
10
34.7146706134441
20
13.077163322634
30
0
41
1
10
34.7168623204441
20
13.086419986669
30
0
41
1
10
34.7184110501741
20
13.095769031311
30
0
41
1
10
34.7197405245641
20
13.105198243564
30
0
0
SPLINE
5
15F
100
AcDbEntity
8
1
62
256
6
ByLayer
370
13
48
1
60
0
100
AcDbSpline
70
4
71
5
72
12
73
6
40
0
40
0
40
0
40
0
40
0
40
0
40
1
40
1
40
1
40
1
40
1
40
1
41
1
10
34.3598159056641
20
12.801141306736
30
0
41
1
10
34.3171889412241
20
12.792582609762
30
0
41
1
10
34.2746844831941
20
12.783152983685
30
0
41
1
10
34.2323217653641
20
12.772838098408
30
0
41
1
10
34.1901219745541
20
12.761620437052
30
0
41
1
10
34.1481096378141
20
12.749478667237
30
0
0
SPLINE
5
160
100
AcDbEntity
8
1
62
256
6
ByLayer
370
18
48
1
60
0
100
AcDbSpline
70
4
71
5
72
12
73
6
40
0
40
0
40
0
40
0
40
0
40
0
40
1
40
1
40
1
40
1
40
1
40
1
41
1
10
33.9881663372041
20
14.474933833868
30
0
41
1
10
34.0004392977641
20
14.477931242685
30
0
41
1
10
34.0127123514841
20
14.481275668435
30
0
41
1
10
34.0245763067541
20
14.484867425935
30
0
41
1
10
34.0356232608541
20
14.488583064616
30
0
41
1
10
34.0455239808341
20
14.492298651634
30
0
0
SPLINE
5
161
100
AcDbEntity
8
1
62
256
6
ByLayer
370
18
48
1
60
0
100
AcDbSpline
70
4
71
5
72
12
73
6
40
0
40
0
40
0
40
0
40
0
40
0
40
1
40
1
40
1
40
1
40
1
40
1
41
1
10
33.9881663372041
20
12.675066166132
30
0
41
1
10
34.0004392977641
20
12.672068757315
30
0
41
1
10
34.0127123514841
20
12.668724331565
30
0
41
1
10
34.0245763067541
20
12.665132574065
30
0
41
1
10
34.0356232608541
20
12.661416935384
30
0
41
1
10
34.0455239808341
20
12.657701348366
30
0
0
SPLINE
5
162
100
AcDbEntity
8
1
62
256
6
ByLayer
370
18
48
1
60
0
100
AcDbSpline
70
4
71
5
72
12
73
6
40
0
40
0
40
0
40
0
40
0
40
0
40
1
40
1
40
1
40
1
40
1
40
1
41
1
10
33.6839402011541
20
15.68303841846
30
0
41
1
10
33.6962126992741
20
15.6860357289
30
0
41
1
10
33.7084851726541
20
15.68938002412
30
0
41
1
10
33.7203486574941
20
15.6929716622
30
0
41
1
10
33.7313950891141
20
15.69668709548
30
0
41
1
10
33.7412953451641
20
15.70040251957
30
0
0
SPLINE
5
163
100
AcDbEntity
8
1
62
256
6
ByLayer
370
18
48
1
60
0
100
AcDbSpline
70
4
71
5
72
12
73
6
40
0
40
0
40
0
40
0
40
0
40
0
40
1
40
1
40
1
40
1
40
1
40
1
41
1
10
33.6839402011541
20
11.46696158154
30
0
41
1
10
33.6962126992741
20
11.4639642711
30
0
41
1
10
33.7084851726541
20
11.46061997588
30
0
41
1
10
33.7203486574941
20
11.4570283378
30
0
41
1
10
33.7313950891141
20
11.45331290452
30
0
41
1
10
33.7412953451641
20
11.44959748043
30
0
0
SPLINE
5
164
100
AcDbEntity
8
1
62
256
6
ByLayer
370
13
48
1
60
0
100
AcDbSpline
70
4
71
5
72
12
73
6
40
0
40
0
40
0
40
0
40
0
40
0
40
1
40
1
40
1
40
1
40
1
40
1
41
1
10
33.7412475251506
20
15.701330226278
30
0
41
1
10
34.1619251256814
20
15.7013945833403
30
0
41
1
10
34.5826027268029
20
15.7014532905441
30
0
41
1
10
35.0032803281437
20
15.7015084468365
30
0
41
1
10
35.423957929703
20
15.7015605419758
30
0
41
1
10
35.8446355314967
20
15.7016100473512
30
0
0
SPLINE
5
165
100
AcDbEntity
8
1
62
256
6
ByLayer
370
18
48
1
60
0
100
AcDbSpline
70
4
71
3
72
28
73
24
40
0
40
0
40
0
40
0
40
0.0551217751834356
40
0.109310996195578
40
0.162590498173922
40
0.214984306375754
40
0.266517685330365
40
0.317217186271384
40
0.367110691993075
40
0.416227458147313
40
0.464598149886554
40
0.512254872642498
40
0.559231195735975
40
0.605562167442713
40
0.651284320092014
40
0.69643566377592
40
0.741055667297342
40
0.785185225091058
40
0.828866609030733
40
0.872143404282144
40
0.915060428682715
40
0.957663635517059
40
1
40
1
40
1
40
1
41
1
10
35.8446429807243
20
15.7007939153768
30
0
41
1
10
35.8467255026823
20
15.7036810116075
30
0
41
1
10
35.8508553143414
20
15.7094063599666
30
0
41
1
10
35.8567279730184
20
15.7181091148242
30
0
41
1
10
35.8622947315123
20
15.7268002355525
30
0
41
1
10
35.8675373113786
20
15.7354910009725
30
0
41
1
10
35.8724604644887
20
15.7441761688955
30
0
41
1
10
35.8770629431254
20
15.7528548114878
30
0
41
1
10
35.8813450845431
20
15.7615248717455
30
0
41
1
10
35.8853068286246
20
15.7701845862983
30
0
41
1
10
35.8889482360377
20
15.7788321135224
30
0
41
1
10
35.8922693527891
20
15.7874656308532
30
0
41
1
10
35.8952702453459
20
15.7960833093378
30
0
41
1
10
35.8979509929303
20
15.8046833202467
30
0
41
1
10
35.9003116848344
20
15.8132638334158
30
0
41
1
10
35.9023524395709
20
15.821823017243
30
0
41
1
10
35.9040733340313
20
15.8303590401677
30
0
41
1
10
35.9054746658135
20
15.838870064882
30
0
41
1
10
35.906555992197
20
15.8473542699887
30
0
41
1
10
35.9073196663857
20
15.8558097709954
30
0
41
1
10
35.9077578211038
20
15.8642349123315
30
0
41
1
10
35.9079003647146
20
15.8726271923639
30
0
41
1
10
35.9077248013147
20
15.8782160122435
30
0
41
1
10
35.9076372953858
20
15.8810016433903
30
0
0
SPLINE
5
166
100
AcDbEntity
8
1
62
256
6
ByLayer
370
18
48
1
60
0
100
AcDbSpline
70
4
71
5
72
12
73
6
40
0
40
0
40
0
40
0
40
0
40
0
40
1
40
1
40
1
40
1
40
1
40
1
41
1
10
35.9076674937397
20
15.8810034977512
30
0
41
1
10
35.894406614119
20
15.9051039195294
30
0
41
1
10
35.8792399339212
20
15.92823727702
30
0
41
1
10
35.8624596940276
20
15.9502817798587
30
0
41
1
10
35.8444025385466
20
15.9711666901564
30
0
41
1
10
35.8254146045941
20
15.990877082
30
0
0
SPLINE
5
167
100
AcDbEntity
8
1
62
256
6
ByLayer
370
13
48
1
60
0
100
AcDbSpline
70
4
71
3
72
36
73
32
40
0
40
0
40
0
40
0
40
0.0398968292394745
40
0.0793541845670641
40
0.118376725289981
40
0.156969269094779
40
0.195136797122089
40
0.232884459176778
40
0.270217579058453
40
0.307141659992057
40
0.343662390140446
40
0.379785648174529
40
0.415517508877477
40
0.450864248755166
40
0.485832351619378
40
0.52042851411188
40
0.554659651133383
40
0.588532901132933
40
0.622055631215887
40
0.655235442025578
40
0.688080172341361
40
0.720597903345842
40
0.752796962499199
40
0.784685926962348
40
0.816273626506358
40
0.847569145842052
40
0.878581826304479
40
0.909321266824308
40
0.939797324119512
40
0.970020112039854
40
1
40
1
40
1
40
1
41
1
10
33.5642124878069
20
15.9908705599319
30
0
41
1
10
33.5675573574226
20
15.9877021058936
30
0
41
1
10
33.5742102520488
20
15.9814000991593
30
0
41
1
10
33.5839217880747
20
15.9717818588828
30
0
41
1
10
33.593365503481
20
15.9621134841221
30
0
41
1
10
33.6025266105158
20
15.9523833659378
30
0
41
1
10
33.6114089350174
20
15.9425993644429
30
0
41
1
10
33.6200114530518
20
15.9327641765299
30
0
41
1
10
33.6283344731489
20
15.9228818253971
30
0
41
1
10
33.6363780060662
20
15.9129559486392
30
0
41
1
10
33.6441421933915
20
15.9029902477401
30
0
41
1
10
33.6516271935701
20
15.8929883680184
30
0
41
1
10
33.6588332109332
20
15.8829539287365
30
0
41
1
10
33.6657604870424
20
15.8728905136952
30
0
41
1
10
33.6724093019726
20
15.8628016723012
30
0
41
1
10
33.6787799729827
20
15.8526909179345
30
0
41
1
10
33.6848728538806
20
15.8425617270853
30
0
41
1
10
33.6906883342206
20
15.832417538347
30
0
41
1
10
33.6962268385223
20
15.8222617514966
30
0
41
1
10
33.7014888255971
20
15.8120977266299
30
0
41
1
10
33.7064747874862
20
15.8019287832618
30
0
41
1
10
33.7111852498486
20
15.7917581997529
30
0
41
1
10
33.7156207670721
20
15.781589211742
30
0
41
1
10
33.7197819368116
20
15.7714250144155
30
0
41
1
10
33.7236693431151
20
15.7612687508581
30
0
41
1
10
33.7272837623487
20
15.7511235517923
30
0
41
1
10
33.7306254019199
20
15.7409923863585
30
0
41
1
10
33.7336966999986
20
15.7308786087587
30
0
41
1
10
33.736492010262
20
15.7207839422265
30
0
41
1
10
33.7390356063661
20
15.7107159048464
30
0
41
1
10
33.7405120467797
20
15.7039858964913
30
0
41
1
10
33.7412472884867
20
15.7006344691085
30
0
0
SPLINE
5
168
100
AcDbEntity
8
1
62
256
6
ByLayer
370
13
48
1
60
0
100
AcDbSpline
70
4
71
5
72
12
73
6
40
0
40
0
40
0
40
0
40
0
40
0
40
1
40
1
40
1
40
1
40
1
40
1
41
1
10
33.5642050328041
20
11.15912370903
30
0
41
1
10
33.6141040515061
20
11.2058741109441
30
0
41
1
10
33.6591779364718
20
11.258151766188
30
0
41
1
10
33.6980650730598
20
11.3161602486306
30
0
41
1
10
33.7269176628239
20
11.3811191358948
30
0
41
1
10
33.7412466927765
20
11.4493654237634
30
0
0
SPLINE
5
169
100
AcDbEntity
8
1
62
256
6
ByLayer
370
18
48
1
60
0
100
AcDbSpline
70
4
71
5
72
12
73
6
40
0
40
0
40
0
40
0
40
0
40
0
40
1
40
1
40
1
40
1
40
1
40
1
41
1
10
35.9076674937397
20
11.2689965022489
30
0
41
1
10
35.894406614119
20
11.2448960804706
30
0
41
1
10
35.8792399339212
20
11.22176272298
30
0
41
1
10
35.8624596940276
20
11.1997182201413
30
0
41
1
10
35.8444025385466
20
11.1788333098437
30
0
41
1
10
35.8254146045941
20
11.159122918
30
0
0
SPLINE
5
16A
100
AcDbEntity
8
1
62
256
6
ByLayer
370
18
48
1
60
0
100
AcDbSpline
70
4
71
3
72
27
73
23
40
0
40
0
40
0
40
0
40
0.0578302361332107
40
0.114602197772244
40
0.170346760507113
40
0.225096554752546
40
0.278886038038895
40
0.331751562498414
40
0.383731435667069
40
0.434865972492658
40
0.485197536229036
40
0.534770565726616
40
0.583631586522686
40
0.63182920311063
40
0.679414069851157
40
0.726438838202699
40
0.7729580783144
40
0.819028173540165
40
0.864707187116013
40
0.910054701061584
40
0.955131628300882
40
1
40
1
40
1
40
1
41
1
10
35.844642785999
20
11.4492061260302
30
0
41
1
10
35.8468256993362
20
11.4461767609156
30
0
41
1
10
35.851151579407
20
11.4401734670818
30
0
41
1
10
35.8572892120353
20
11.4310478487751
30
0
41
1
10
35.8630899587373
20
11.4219411418398
30
0
41
1
10
35.8685341684772
20
11.412840041192
30
0
41
1
10
35.8736269428017
20
11.403749011278
30
0
41
1
10
35.8783669249471
20
11.3946678732978
30
0
41
1
10
35.8827544387265
20
11.3855976505223
30
0
41
1
10
35.8867893649957
20
11.3765390439621
30
0
41
1
10
35.8904716960792
20
11.3674928310428
30
0
41
1
10
35.8938013907037
20
11.3584597623147
30
0
41
1
10
35.8967784137355
20
11.349440589388
30
0
41
1
10
35.8994027209154
20
11.3404360584382
30
0
41
1
10
35.901674283439
20
11.3314469132251
30
0
41
1
10
35.9035930099727
20
11.3224738935937
30
0
41
1
10
35.9051590344879
20
11.3135177421505
30
0
41
1
10
35.9063716643725
20
11.304579182382
30
0
41
1
10
35.9072332567099
20
11.2956590003893
30
0
41
1
10
35.9077349346924
20
11.2867577438299
30
0
41
1
10
35.9079093486703
20
11.2778768327699
30
0
41
1
10
35.9077263992029
20
11.2719576105564
30
0
41
1
10
35.9076351365711
20
11.2690048618794
30
0
0
SPLINE
5
16B
100
AcDbEntity
8
1
62
256
6
ByLayer
370
13
48
1
60
0
100
AcDbSpline
70
4
71
5
72
12
73
6
40
0
40
0
40
0
40
0
40
0
40
0
40
1
40
1
40
1
40
1
40
1
40
1
41
1
10
33.741247525148
20
11.4486697737221
30
0
41
1
10
34.1619251256791
20
11.4486054166597
30
0
41
1
10
34.5826027268008
20
11.448546709456
30
0
41
1
10
35.0032803281418
20
11.4484915531636
30
0
41
1
10
35.4239579297013
20
11.4484394580242
30
0
41
1
10
35.8446355314952
20
11.4483899526488
30
0
0
SPLINE
5
16C
100
AcDbEntity
8
1
62
256
6
ByLayer
370
13
48
1
60
0
100
AcDbSpline
70
4
71
5
72
12
73
6
40
0
40
0
40
0
40
0
40
0
40
0
40
1
40
1
40
1
40
1
40
1
40
1
41
1
10
33.6839378681441
20
11.46696215133
30
0
41
1
10
33.6696364917141
20
11.41004373541
30
0
41
1
10
33.6417238539941
20
11.35586408801
30
0
41
1
10
33.6044680305341
20
11.30748225618
30
0
41
1
10
33.5614736918541
20
11.26388633844
30
0
41
1
10
33.5140171984441
20
11.22490067765
30
0
0
SPLINE
5
16D
100
AcDbEntity
8
1
62
256
6
ByLayer
370
13
48
1
60
0
100
AcDbSpline
70
4
71
5
72
12
73
6
40
0
40
0
40
0
40
0
40
0
40
0
40
1
40
1
40
1
40
1
40
1
40
1
41
1
10
33.6839378681441
20
15.68303784867
30
0
41
1
10
33.6696364917141
20
15.73995626459
30
0
41
1
10
33.6417238539941
20
15.79413591199
30
0
41
1
10
33.6044680305341
20
15.84251774382
30
0
41
1
10
33.5614736918541
20
15.88611366156
30
0
41
1
10
33.5140171984441
20
15.92509932235
30
0
0
SPLINE
5
16E
100
AcDbEntity
8
1
62
256
6
ByLayer
370
18
48
1
60
0
100
AcDbSpline
70
4
71
5
72
12
73
6
40
0
40
0
40
0
40
0
40
0
40
0
40
1
40
1
40
1
40
1
40
1
40
1
41
1
10
33.5140259032941
20
15.92510959018
30
0
41
1
10
33.5255575786541
20
15.93871421769
30
0
41
1
10
33.5370894643241
20
15.9530216031
30
0
41
1
10
33.5478420395541
20
15.96711411792
30
0
41
1
10
33.5570429611041
20
15.97997949689
30
0
41
1
10
33.5642132755241
20
15.99088603575
30
0
0
SPLINE
5
16F
100
AcDbEntity
8
1
62
256
6
ByLayer
370
13
48
1
60
0
100
AcDbSpline
70
4
71
5
72
12
73
6
40
0
40
0
40
0
40
0
40
0
40
0
40
1
40
1
40
1
40
1
40
1
40
1
41
1
10
33.5140255305662
20
15.9251098966437
30
0
41
1
10
33.4283705087959
20
15.995536821601
30
0
41
1
10
33.3485178562484
20
16.073182896621
30
0
41
1
10
33.2764570223229
20
16.1589332661032
30
0
41
1
10
33.2157401433422
20
16.2544145312873
30
0
41
1
10
33.1732510882961
20
16.3577695867351
30
0
0
SPLINE
5
170
100
AcDbEntity
8
1
62
256
6
ByLayer
370
13
48
1
60
0
100
AcDbSpline
70
4
71
5
72
12
73
6
40
0
40
0
40
0
40
0
40
0
40
0
40
1
40
1
40
1
40
1
40
1
40
1
41
1
10
33.5140255305662
20
11.2248901033564
30
0
41
1
10
33.4283705087959
20
11.1544631783991
30
0
41
1
10
33.3485178562484
20
11.076817103379
30
0
41
1
10
33.2764570223229
20
10.9910667338968
30
0
41
1
10
33.2157401433422
20
10.8955854687127
30
0
41
1
10
33.1732510882961
20
10.7922304132649
30
0
0
SPLINE
5
171
100
AcDbEntity
8
1
62
256
6
ByLayer
370
18
48
1
60
0
100
AcDbSpline
70
4
71
5
72
12
73
6
40
0
40
0
40
0
40
0
40
0
40
0
40
1
40
1
40
1
40
1
40
1
40
1
41
1
10
33.5140259032941
20
11.22489040982
30
0
41
1
10
33.5255575786541
20
11.21128578231
30
0
41
1
10
33.5370894643241
20
11.1969783969
30
0
41
1
10
33.5478420395541
20
11.18288588208
30
0
41
1
10
33.5570429611041
20
11.17002050311
30
0
41
1
10
33.5642132755241
20
11.15911396425
30
0
0
SPLINE
5
172
100
AcDbEntity
8
1
62
256
6
ByLayer
370
18
48
1
60
0
100
AcDbSpline
70
4
71
5
72
12
73
6
40
0
40
0
40
0
40
0
40
0
40
0
40
1
40
1
40
1
40
1
40
1
40
1
41
1
10
33.2303805514341
20
16.38421174076
30
0
41
1
10
33.2206861912441
20
16.37892908377
30
0
41
1
10
33.2097332582042
20
16.37344637939
30
0
41
1
10
33.1978769438341
20
16.36795758472
30
0
41
1
10
33.1855683492042
20
16.36267153407
30
0
41
1
10
33.1732597828441
20
16.35776809604
30
0
0
SPLINE
5
173
100
AcDbEntity
8
1
62
256
6
ByLayer
370
13
48
1
60
0
100
AcDbSpline
70
4
71
5
72
12
73
6
40
0
40
0
40
0
40
0
40
0
40
0
40
1
40
1
40
1
40
1
40
1
40
1
41
1
10
33.168571736745
20
16.3924977332101
30
0
41
1
10
33.1807602182409
20
16.3940961056068
30
0
41
1
10
33.1929483321499
20
16.3956944297609
30
0
41
1
10
33.204752074323
20
16.3972423297828
30
0
41
1
10
33.2157885931087
20
16.3986895817838
30
0
41
1
10
33.2257448609186
20
16.3999951173545
30
0
0
SPLINE
5
174
100
AcDbEntity
8
1
62
256
6
ByLayer
370
13
48
1
60
0
100
AcDbSpline
70
4
71
5
72
12
73
6
40
0
40
0
40
0
40
0
40
0
40
0
40
1
40
1
40
1
40
1
40
1
40
1
41
1
10
33.1685717367442
20
10.75750226679
30
0
41
1
10
33.1807609987389
20
10.7559038711218
30
0
41
1
10
33.1929503407229
20
10.7543054650203
30
0
41
1
10
33.2047556495635
20
10.7527574177555
30
0
41
1
10
33.2157939402766
20
10.7513099507155
30
0
41
1
10
33.2257520452713
20
10.7500041299892
30
0
0
SPLINE
5
175
100
AcDbEntity
8
1
62
256
6
ByLayer
370
18
48
1
60
0
100
AcDbSpline
70
4
71
5
72
12
73
6
40
0
40
0
40
0
40
0
40
0
40
0
40
1
40
1
40
1
40
1
40
1
40
1
41
1
10
33.2303805514341
20
10.76578825924
30
0
41
1
10
33.2206861912441
20
10.77107091623
30
0
41
1
10
33.2097332582042
20
10.77655362061
30
0
41
1
10
33.1978769438341
20
10.78204241528
30
0
41
1
10
33.1855683492042
20
10.78732846593
30
0
41
1
10
33.1732597828441
20
10.79223190396
30
0
0
SPLINE
5
176
100
AcDbEntity
8
1
62
256
6
ByLayer
370
18
48
1
60
0
100
AcDbSpline
70
4
71
8
72
18
73
9
40
0
40
0
40
0
40
0
40
0
40
0
40
0
40
0
40
0
40
1
40
1
40
1
40
1
40
1
40
1
40
1
40
1
40
1
41
1
10
24.2451497309541
20
10.275
30
0
41
1
10
24.2514046247741
20
10.275
30
0
41
1
10
24.2580417214241
20
10.275
30
0
41
1
10
24.2650054486541
20
10.275
30
0
41
1
10
24.2722354794941
20
10.275
30
0
41
1
10
24.2796677698541
20
10.275
30
0
41
1
10
24.2872357436041
20
10.275
30
0
41
1
10
24.2948715591041
20
10.275
30
0
41
1
10
24.3025073745941
20
10.275
30
0
0
SPLINE
5
177
100
AcDbEntity
8
1
62
256
6
ByLayer
370
13
48
1
60
0
100
AcDbSpline
70
4
71
5
72
12
73
6
40
0
40
0
40
0
40
0
40
0
40
0
40
1
40
1
40
1
40
1
40
1
40
1
41
1
10
33.2205405382904
20
16.4749872603815
30
0
41
1
10
33.210536463509
20
16.4749868913062
30
0
41
1
10
33.199463897452
20
16.4749866088287
30
0
41
1
10
33.1876332725618
20
16.4749863832916
30
0
41
1
10
33.1754231151763
20
16.4749861854913
30
0
41
1
10
33.1632130347521
20
16.474985987651
30
0
0
SPLINE
5
178
100
AcDbEntity
8
1
62
256
6
ByLayer
370
18
48
1
60
0
100
AcDbSpline
70
4
71
8
72
18
73
9
40
0
40
0
40
0
40
0
40
0
40
0
40
0
40
0
40
0
40
1
40
1
40
1
40
1
40
1
40
1
40
1
40
1
40
1
41
1
10
33.2205276879541
20
16.875
30
0
41
1
10
33.2142727941341
20
16.875
30
0
41
1
10
33.2076356974841
20
16.875
30
0
41
1
10
33.2006719702541
20
16.875
30
0
41
1
10
33.1934419394141
20
16.875
30
0
41
1
10
33.1860096490541
20
16.875
30
0
41
1
10
33.1784416753041
20
16.875
30
0
41
1
10
33.1708058598041
20
16.875
30
0
41
1
10
33.1631700443141
20
16.875
30
0
0
SPLINE
5
179
100
AcDbEntity
8
1
62
256
6
ByLayer
370
18
48
1
60
0
100
AcDbSpline
70
4
71
8
72
18
73
9
40
0
40
0
40
0
40
0
40
0
40
0
40
0
40
0
40
0
40
1
40
1
40
1
40
1
40
1
40
1
40
1
40
1
40
1
41
1
10
33.2205276879541
20
10.275
30
0
41
1
10
33.2142727941341
20
10.275
30
0
41
1
10
33.2076356974841
20
10.275
30
0
41
1
10
33.2006719702541
20
10.275
30
0
41
1
10
33.1934419394141
20
10.275
30
0
41
1
10
33.1860096490541
20
10.275
30
0
41
1
10
33.1784416753041
20
10.275
30
0
41
1
10
33.1708058598041
20
10.275
30
0
41
1
10
33.1631700443141
20
10.275
30
0
0
SPLINE
5
17A
100
AcDbEntity
8
1
62
256
6
ByLayer
370
13
48
1
60
0
100
AcDbSpline
70
4
71
3
72
10
73
6
40
0
40
0
40
0
40
0
40
0.5
40
0.5
40
1
40
1
40
1
40
1
41
1
10
33.2205276879525
20
10.67501270187
30
0
41
1
10
33.2121936987575
20
10.6750129203658
30
0
41
1
10
33.2029635081708
20
10.6750131388615
30
0
41
1
10
33.1835587396724
20
10.6750135758531
30
0
41
1
10
33.1733869560333
20
10.6750137943488
30
0
41
1
10
33.1632130347409
20
10.6750140128446
30
0
0
SPLINE
5
17B
100
AcDbEntity
8
1
62
256
6
ByLayer
370
13
48
1
60
0
100
AcDbSpline
70
4
71
5
72
12
73
6
40
0
40
0
40
0
40
0
40
0
40
0
40
1
40
1
40
1
40
1
40
1
40
1
41
1
10
33.16854788331
20
16.3924960031468
30
0
41
1
10
33.1663899456561
20
16.4089022407207
30
0
41
1
10
33.1647641793549
20
16.4253816358122
30
0
41
1
10
33.1636848669523
20
16.4419089979261
30
0
41
1
10
33.1631644753274
20
16.4584550768133
30
0
41
1
10
33.1632130347505
20
16.4749859870851
30
0
0
SPLINE
5
17C
100
AcDbEntity
8
1
62
256
6
ByLayer
370
13
48
1
60
0
100
AcDbSpline
70
4
71
5
72
12
73
6
40
0
40
0
40
0
40
0
40
0
40
0
40
1
40
1
40
1
40
1
40
1
40
1
41
1
10
33.16854788331
20
10.7575039968532
30
0
41
1
10
33.1663899456561
20
10.7410977592793
30
0
41
1
10
33.1647641793549
20
10.7246183641879
30
0
41
1
10
33.1636848669523
20
10.7080910020739
30
0
41
1
10
33.1631644753274
20
10.6915449231867
30
0
41
1
10
33.1632130347505
20
10.6750140129149
30
0
0
SPLINE
5
17D
100
AcDbEntity
8
1
62
256
6
ByLayer
370
18
48
1
60
0
100
AcDbSpline
70
4
71
5
72
12
73
6
40
0
40
0
40
0
40
0
40
0
40
0
40
1
40
1
40
1
40
1
40
1
40
1
41
1
10
33.1732592574616
20
10.7922293458047
30
0
41
1
10
33.1718620559471
20
10.7854260153571
30
0
41
1
10
33.1706841830297
20
10.77852452876
30
0
41
1
10
33.1697385213867
20
10.7715526583477
30
0
41
1
10
33.1690329261412
20
10.7645363843219
30
0
41
1
10
33.1685717367442
20
10.75750226679
30
0
0
SPLINE
5
17E
100
AcDbEntity
8
1
62
256
6
ByLayer
370
18
48
1
60
0
100
AcDbSpline
70
4
71
5
72
12
73
6
40
0
40
0
40
0
40
0
40
0
40
0
40
1
40
1
40
1
40
1
40
1
40
1
41
1
10
33.1732592574616
20
16.3577706541953
30
0
41
1
10
33.1718620559471
20
16.3645739846429
30
0
41
1
10
33.1706841830297
20
16.37147547124
30
0
41
1
10
33.1697385213867
20
16.3784473416523
30
0
41
1
10
33.1690329261412
20
16.3854636156781
30
0
41
1
10
33.1685717367442
20
16.39249773321
30
0
0
SPLINE
5
17F
100
AcDbEntity
8
1
62
256
6
ByLayer
370
13
48
1
60
0
100
AcDbSpline
70
4
71
5
72
12
73
6
40
0
40
0
40
0
40
0
40
0
40
0
40
1
40
1
40
1
40
1
40
1
40
1
41
1
10
33.2303696823452
20
10.7657937337899
30
0
41
1
10
33.2723665916505
20
10.859752010167
30
0
41
1
10
33.3319862535044
20
10.9465523560844
30
0
41
1
10
33.4025370084187
20
11.0245065929124
30
0
41
1
10
33.4805853331511
20
11.0950933798171
30
0
41
1
10
33.5642080007325
20
11.1591173737998
30
0
0
SPLINE
5
180
100
AcDbEntity
8
1
62
256
6
ByLayer
370
18
48
1
60
0
100
AcDbSpline
70
4
71
5
72
12
73
6
40
0
40
0
40
0
40
0
40
0
40
0
40
1
40
1
40
1
40
1
40
1
40
1
41
1
10
33.2303805428541
20
10.76578826391
30
0
41
1
10
33.2291159803241
20
10.76277287907
30
0
41
1
10
33.2279068564441
20
10.75974081027
30
0
41
1
10
33.2269316462341
20
10.75654137222
30
0
41
1
10
33.2263243052241
20
10.75329670126
30
0
41
1
10
33.2257713845041
20
10.75002751382
30
0
0
SPLINE
5
181
100
AcDbEntity
8
1
62
256
6
ByLayer
370
13
48
1
60
0
100
AcDbSpline
70
4
71
5
72
12
73
6
40
0
40
0
40
0
40
0
40
0
40
0
40
1
40
1
40
1
40
1
40
1
40
1
41
1
10
33.2205693926741
20
10.6750127008
30
0
41
1
10
33.220522275368
20
10.6900436981375
30
0
41
1
10
33.2210273056839
20
10.7050884905266
30
0
41
1
10
33.222074747685
20
10.7201162552293
30
0
41
1
10
33.2236524999288
20
10.7351003865419
30
0
41
1
10
33.225746698324
20
10.7500179721735
30
0
0
SPLINE
5
182
100
AcDbEntity
8
1
62
256
6
ByLayer
370
18
48
1
60
0
100
AcDbSpline
70
4
71
2
72
8
73
5
40
0
40
0
40
0
40
0.5
40
0.5
40
1
40
1
40
1
41
1
10
35.8254207399898
20
11.1591174072244
30
0
41
1
10
35.7237857958203
20
11.0536593170134
30
0
41
1
10
35.6686202539561
20
10.9374778668386
30
0
41
1
10
35.6073551134734
20
10.808450350278
30
0
41
1
10
35.6074837550441
20
10.675
30
0
0
SPLINE
5
183
100
AcDbEntity
8
1
62
256
6
ByLayer
370
18
48
1
60
0
100
AcDbSpline
70
4
71
3
72
47
73
43
40
0
40
0
40
0
40
0
40
0.0287631811385519
40
0.0572730386984825
40
0.0855333248621688
40
0.113547892092554
40
0.141320695106454
40
0.16885579279074
40
0.196157350050433
40
0.223229639577078
40
0.250077043524503
40
0.276704055078743
40
0.303115279908202
40
0.329315437479608
40
0.3553093622243
40
0.381102004539284
40
0.406698431607145
40
0.432103828017699
40
0.457323496175998
40
0.482362856478111
40
0.507227447240091
40
0.531922924361868
40
0.556455060711566
40
0.580829745213749
40
0.605052981627913
40
0.629130887003302
40
0.653069689798164
40
0.676875727652706
40
0.700555444806991
40
0.724115389157056
40
0.747562208944528
40
0.7709026490777
40
0.794143547084662
40
0.817291828701838
40
0.840354503104059
40
0.863338657785832
40
0.886251453106036
40
0.909100116511884
40
0.931891936460736
40
0.954634256061568
40
0.977334466460842
40
1
40
1
40
1
40
1
41
1
10
35.8254177863902
20
15.9908797436947
30
0
41
1
10
35.8218107521178
20
15.9946523763944
30
0
41
1
10
35.8146284515068
20
16.0021644153989
30
0
41
1
10
35.8041252203497
20
16.0135930868265
30
0
41
1
10
35.7938820702525
20
16.0250734056148
30
0
41
1
10
35.7839147404597
20
16.0366181276132
30
0
41
1
10
35.7742193836009
20
16.04822112959
30
0
41
1
10
35.7647973098373
20
16.0598812830067
30
0
41
1
10
35.7556484432932
20
16.0715961410239
30
0
41
1
10
35.7467730528183
20
16.0833636086704
30
0
41
1
10
35.7381712943129
20
16.0951815015764
30
0
41
1
10
35.7298433319296
20
16.107047663205
30
0
41
1
10
35.7217893061372
20
16.1189599343282
30
0
41
1
10
35.7140093423047
20
16.1309161615896
30
0
41
1
10
35.7065035485653
20
16.1429141957173
30
0
41
1
10
35.6992720165196
20
16.1549518924697
30
0
41
1
10
35.6923148211879
20
16.1670271128503
30
0
41
1
10
35.6856320211652
20
16.1791377235108
30
0
41
1
10
35.6792236587211
20
16.1912815970965
30
0
41
1
10
35.6730897599175
20
16.2034566126016
30
0
41
1
10
35.6672303347211
20
16.2156606557153
30
0
41
1
10
35.6616453771198
20
16.2278916191644
30
0
41
1
10
35.656334865236
20
16.2401474030511
30
0
41
1
10
35.6512987614441
20
16.2524259151861
30
0
41
1
10
35.646537012485
20
16.2647250714181
30
0
41
1
10
35.6420495495832
20
16.277042795959
30
0
41
1
10
35.6378362885625
20
16.2893770217055
30
0
41
1
10
35.6338971299639
20
16.3017256905567
30
0
41
1
10
35.6302319591577
20
16.3140867537298
30
0
41
1
10
35.6268406464812
20
16.3264581720707
30
0
41
1
10
35.6237230472779
20
16.3388379163643
30
0
41
1
10
35.6208790023122
20
16.3512239676394
30
0
41
1
10
35.6183083367895
20
16.3636143174746
30
0
41
1
10
35.6160108645574
20
16.3760069682947
30
0
41
1
10
35.613986373087
20
16.3883999336889
30
0
41
1
10
35.6122346798028
20
16.4007912386392
30
0
41
1
10
35.6107554234914
20
16.4131789200713
30
0
41
1
10
35.6095488398421
20
16.4255610261982
30
0
41
1
10
35.6086128795023
20
16.4379356203413
30
0
41
1
10
35.6079539254541
20
16.4503007680893
30
0
41
1
10
35.6075469212115
20
16.4626545864343
30
0
41
1
10
35.6075047997028
20
16.4708869597103
30
0
41
1
10
35.6074837550469
20
16.475
30
0
0
SPLINE
5
184
100
AcDbEntity
8
1
62
256
6
ByLayer
370
13
48
1
60
0
100
AcDbSpline
70
4
71
3
72
14
73
10
40
0
40
0
40
0
40
0
40
0.141623314433834
40
0.283587055670697
40
0.425934098694511
40
0.568706973170349
40
0.711947829462664
40
0.855698406273292
40
1
40
1
40
1
40
1
41
1
10
33.2205565350486
20
16.4749872989153
30
0
41
1
10
33.220570093401
20
16.4714350040531
30
0
41
1
10
33.2205972426965
20
16.464321875506
30
0
41
1
10
33.2209143600214
20
16.453642158521
30
0
41
1
10
33.2214344801818
20
16.442942135832
30
0
41
1
10
33.222176591885
20
16.4322228200901
30
0
41
1
10
33.2231408554025
20
16.4214862080029
30
0
41
1
10
33.2243098287907
20
16.4107308664962
30
0
41
1
10
33.2252719013817
20
16.403570165986
30
0
41
1
10
33.2257538578547
20
16.3999829668551
30
0
0
SPLINE
5
185
100
AcDbEntity
8
1
62
256
6
ByLayer
370
18
48
1
60
0
100
AcDbSpline
70
4
71
5
72
12
73
6
40
0
40
0
40
0
40
0
40
0
40
0
40
1
40
1
40
1
40
1
40
1
40
1
41
1
10
33.2303805428541
20
16.38421173609
30
0
41
1
10
33.2291159803241
20
16.38722712093
30
0
41
1
10
33.2279068564441
20
16.39025918973
30
0
41
1
10
33.2269316462341
20
16.39345862778
30
0
41
1
10
33.2263243052241
20
16.39670329874
30
0
41
1
10
33.2257713845041
20
16.39997248618
30
0
0
SPLINE
5
186
100
AcDbEntity
8
1
62
256
6
ByLayer
370
13
48
1
60
0
100
AcDbSpline
70
4
71
3
72
42
73
38
40
0
40
0
40
0
40
0
40
0.0239696419765096
40
0.0481675123981378
40
0.0725984230559196
40
0.0972670493728398
40
0.122177932924605
40
0.147335484086426
40
0.172743984785083
40
0.198407591336156
40
0.224330337348605
40
0.250516136679575
40
0.276968786424677
40
0.303691969929321
40
0.330689259809367
40
0.357964120968718
40
0.385519913604884
40
0.413359896192854
40
0.441487228440025
40
0.469904974204383
40
0.498616104371256
40
0.527623499682296
40
0.556929953513151
40
0.586538174596014
40
0.616450789683649
40
0.646670346152912
40
0.677199314546192
40
0.708040091048108
40
0.739194999898172
40
0.770666295737449
40
0.802456165889275
40
0.834566732574837
40
0.867000055062421
40
0.899758131752272
40
0.932842902196991
40
0.966256249057968
40
1
40
1
40
1
40
1
41
1
10
33.230372079151
20
16.3842066471822
30
0
41
1
10
33.2320849559053
20
16.3804255902347
30
0
41
1
10
33.2355270186772
20
16.3728274747695
30
0
41
1
10
33.2409739069339
20
16.3614941879618
30
0
41
1
10
33.2466585917783
20
16.3501419564319
30
0
41
1
10
33.2526006760787
20
16.3387808488173
30
0
41
1
10
33.2587953665035
20
16.3274101736675
30
0
41
1
10
33.2652444889843
20
16.3160321891525
30
0
41
1
10
33.2719480567181
20
16.3046483758685
30
0
41
1
10
33.2789065624615
20
16.2932604500757
30
0
41
1
10
33.2861203548947
20
16.2818700880064
30
0
41
1
10
33.2935898079216
20
16.270479000663
30
0
41
1
10
33.3013152743195
20
16.2590889132866
30
0
41
1
10
33.3092970980424
20
16.2477015707418
30
0
41
1
10
33.3175356105701
20
16.236318735843
30
0
41
1
10
33.3260311315962
20
16.224942189589
30
0
41
1
10
33.3347839685361
20
16.2135737308679
30
0
41
1
10
33.3437944163558
20
16.2022151762955
30
0
41
1
10
33.3530627573131
20
16.1908683600067
30
0
41
1
10
33.3625892607242
20
16.1795351334486
30
0
41
1
10
33.3723741827228
20
16.1682173651631
30
0
41
1
10
33.3824177660215
20
16.1569169405605
30
0
41
1
10
33.3927202396745
20
16.1456357616859
30
0
41
1
10
33.4032818188386
20
16.1343757469748
30
0
41
1
10
33.4141027045434
20
16.1231388310101
30
0
41
1
10
33.4251830834271
20
16.1119269642274
30
0
41
1
10
33.4365231276099
20
16.1007421127826
30
0
41
1
10
33.4481229940505
20
16.0895862577591
30
0
41
1
10
33.4599828258607
20
16.0784613968379
30
0
41
1
10
33.4721027462146
20
16.0673695365949
30
0
41
1
10
33.484482880313
20
16.0563127202702
30
0
41
1
10
33.4971232710623
20
16.0452929210979
30
0
41
1
10
33.5100241974389
20
16.0343124449452
30
0
41
1
10
33.5231849672925
20
16.0233724033929
30
0
41
1
10
33.5366084894031
20
16.0124784964865
30
0
41
1
10
33.5502839534222
20
16.0016191060082
30
0
41
1
10
33.5595505197679
20
15.9944738293504
30
0
41
1
10
33.564206598084
20
15.9908836141113
30
0
0
LINE
5
7E
100
AcDbEntity
8
81
62
256
6
ByLayer
370
18
48
1
60
0
100
AcDbLine
10
43.732839
20
17.575
30
0
11
48.732839
21
17.575
31
0
39
0
210
0
220
0
230
1
0
LINE
5
7F
100
AcDbEntity
8
80
62
256
6
ByLayer
370
18
48
1
60
0
100
AcDbLine
10
0
20
0
30
0
11
-5
21
0
31
0
39
0
210
0
220
0
230
1
0
LINE
5
80
100
AcDbEntity
8
1
62
256
6
ByLayer
370
18
48
1
60
0
100
AcDbLine
10
0
20
16.49899
30
0
11
0
21
-15.425
31
0
39
0
210
0
220
0
230
1
0
LINE
5
81
100
AcDbEntity
8
1
62
256
6
ByLayer
370
18
48
1
60
0
100
AcDbLine
10
32.271093
20
16.874958
30
0
11
32.271436
21
17.067213
31
0
39
0
210
0
220
0
230
1
0
LINE
5
82
100
AcDbEntity
8
1
62
256
6
ByLayer
370
18
48
1
60
0
100
AcDbLine
10
34.740727
20
16.874969
30
0
11
34.741061
21
17.062303
31
0
39
0
210
0
220
0
230
1
0
LINE
5
83
100
AcDbEntity
8
1
62
256
6
ByLayer
370
18
48
1
60
0
100
AcDbLine
10
26.324771
20
17.031179
30
0
11
26.324707
21
17.067213
31
0
39
0
210
0
220
0
230
1
0
LINE
5
84
100
AcDbEntity
8
1
62
256
6
ByLayer
370
18
48
1
60
0
100
AcDbLine
10
0.475219
20
-15.425
30
0
11
0
21
-15.425
31
0
39
0
210
0
220
0
230
1
0
LINE
5
85
100
AcDbEntity
8
1
62
256
6
ByLayer
370
18
48
1
60
0
100
AcDbLine
10
32.774072
20
12.825
30
0
11
32.444432
21
10.443083
31
0
39
0
210
0
220
0
230
1
0
LINE
5
86
100
AcDbEntity
8
1
62
256
6
ByLayer
370
18
48
1
60
0
100
AcDbLine
10
32.955375
20
12.909077
30
0
11
32.774072
21
12.825
31
0
39
0
210
0
220
0
230
1
0
LINE
5
87
100
AcDbEntity
8
1
62
256
6
ByLayer
370
18
48
1
60
0
100
AcDbLine
10
33.032839
20
14.099969
30
0
11
33.032839
21
13.050031
31
0
39
0
210
0
220
0
230
1
0
LINE
5
88
100
AcDbEntity
8
1
62
256
6
ByLayer
370
18
48
1
60
0
100
AcDbLine
10
32.774072
20
14.325
30
0
11
32.955375
21
14.240923
31
0
39
0
210
0
220
0
230
1
0
LINE
5
89
100
AcDbEntity
8
1
62
256
6
ByLayer
370
18
48
1
60
0
100
AcDbLine
10
32.434524
20
16.778513
30
0
11
32.774072
21
14.325
31
0
39
0
210
0
220
0
230
1
0
LINE
5
8A
100
AcDbEntity
8
1
62
256
6
ByLayer
370
18
48
1
60
0
100
AcDbLine
10
42.532839
20
18.35697
30
0
11
42.532839
21
17.583307
31
0
39
0
210
0
220
0
230
1
0
LINE
5
8B
100
AcDbEntity
8
1
62
256
6
ByLayer
370
18
48
1
60
0
100
AcDbLine
10
31.361914
20
23.8053
30
0
11
2.11152
21
23.8053
31
0
39
0
210
0
220
0
230
1
0
LINE
5
8C
100
AcDbEntity
8
1
62
256
6
ByLayer
370
18
48
1
60
0
100
AcDbLine
10
2.11152
20
23.8053
30
0
11
0.317758
21
17.11089
31
0
39
0
210
0
220
0
230
1
0
LINE
5
8D
100
AcDbEntity
8
1
62
256
6
ByLayer
370
18
48
1
60
0
100
AcDbLine
10
26.324707
20
17.067213
30
0
11
32.271436
21
17.067213
31
0
39
0
210
0
220
0
230
1
0
LINE
5
8E
100
AcDbEntity
8
1
62
256
6
ByLayer
370
18
48
1
60
0
100
AcDbLine
10
34.741061
20
17.062303
30
0
11
36.269102
21
17.062303
31
0
39
0
210
0
220
0
230
1
0
LINE
5
8F
100
AcDbEntity
8
1
62
256
6
ByLayer
370
18
48
1
60
0
100
AcDbLine
10
2.465133
20
17.080756
30
0
11
21.958225
21
17.080756
31
0
39
0
210
0
220
0
230
1
0
LINE
5
90
100
AcDbEntity
8
1
62
256
6
ByLayer
370
18
48
1
60
0
100
AcDbLine
10
19.132839
20
-0.790263
30
0
11
19.132839
21
9.625186
31
0
39
0
210
0
220
0
230
1
0
LINE
5
91
100
AcDbEntity
8
1
62
256
6
ByLayer
370
18
48
1
60
0
100
AcDbLine
10
19.132839
20
-0.790263
30
0
11
8.012759
21
-15.425
31
0
39
0
210
0
220
0
230
1
0
LINE
5
92
100
AcDbEntity
8
1
62
256
6
ByLayer
370
18
48
1
60
0
100
AcDbLine
10
8.012759
20
-15.425
30
0
11
2.465133
21
-15.425
31
0
39
0
210
0
220
0
230
1
0
LINE
5
93
100
AcDbEntity
8
1
62
256
6
ByLayer
370
18
48
1
60
0
100
AcDbLine
10
2.465133
20
17.080756
30
0
11
1.929234
21
17.080756
31
0
39
0
210
0
220
0
230
1
0
LINE
5
94
100
AcDbEntity
8
1
62
256
6
ByLayer
370
18
48
1
60
0
100
AcDbLine
10
2.465133
20
-15.425
30
0
11
0.475219
21
-15.425
31
0
39
0
210
0
220
0
230
1
0
LINE
5
95
100
AcDbEntity
8
1
62
256
6
ByLayer
370
18
48
1
60
0
100
AcDbLine
10
2.465133
20
17.080756
30
0
11
2.465133
21
-15.425
31
0
39
0
210
0
220
0
230
1
0
LINE
5
96
100
AcDbEntity
8
1
62
256
6
ByLayer
370
13
48
1
60
0
100
AcDbLine
10
0.475219
20
-15.425
30
0
11
0.475219
21
16.761922
31
0
39
0
210
0
220
0
230
1
0
LINE
5
97
100
AcDbEntity
8
1
62
256
6
ByLayer
370
18
48
1
60
0
100
AcDbLine
10
21.958225
20
11.255306
30
0
11
20.732839
21
11.255306
31
0
39
0
210
0
220
0
230
1
0
LINE
5
98
100
AcDbEntity
8
1
62
256
6
ByLayer
370
13
48
1
60
0
100
AcDbLine
10
20.732839
20
11.255306
30
0
11
20.732839
21
10.44479
31
0
39
0
210
0
220
0
230
1
0
LINE
5
99
100
AcDbEntity
8
1
62
256
6
ByLayer
370
18
48
1
60
0
100
AcDbLine
10
25.422327
20
17.080756
30
0
11
21.958225
21
17.080756
31
0
39
0
210
0
220
0
230
1
0
LINE
5
9A
100
AcDbEntity
8
1
62
256
6
ByLayer
370
18
48
1
60
0
100
AcDbLine
10
21.958225
20
11.255306
30
0
11
21.958225
21
17.080756
31
0
39
0
210
0
220
0
230
1
0
LINE
5
9B
100
AcDbEntity
8
1
62
256
6
ByLayer
370
18
48
1
60
0
100
AcDbLine
10
29.232839
20
16.899006
30
0
11
29.232839
21
10.627215
31
0
39
0
210
0
220
0
230
1
0
LINE
5
9C
100
AcDbEntity
8
SK1
62
256
6
ByLayer
370
18
48
1
60
0
100
AcDbLine
10
-126.267161
20
-15.925
30
0
11
-126.267161
21
15.925
31
0
39
0
210
0
220
0
230
1
0
LINE
5
9E
100
AcDbEntity
8
SK1
62
256
6
ByLayer
370
18
48
1
60
0
100
AcDbLine
10
-126.267161
20
15.925
30
0
11
-4.462166
21
15.925
31
0
39
0
210
0
220
0
230
1
0
LINE
5
9F
100
AcDbEntity
8
SK1
62
256
6
ByLayer
370
18
48
1
60
0
100
AcDbLine
10
-126.267161
20
-15.925
30
0
11
-4.462166
21
-15.925
31
0
39
0
210
0
220
0
230
1
0
LINE
5
A0
100
AcDbEntity
8
SK1
62
256
6
ByLayer
370
18
48
1
60
0
100
AcDbLine
10
0
20
16.49899
30
0
11
0
21
-15.425
31
0
39
0
210
0
220
0
230
1
0
LINE
5
A1
100
AcDbEntity
8
SK1
62
256
6
ByLayer
370
18
48
1
60
0
100
AcDbLine
10
-4.462166
20
15.925
30
0
11
-1.227723
21
15.925
31
0
39
0
210
0
220
0
230
1
0
LINE
5
A2
100
AcDbEntity
8
SK1
62
256
6
ByLayer
370
18
48
1
60
0
100
AcDbLine
10
-4.462166
20
15.925
30
0
11
-4.462166
21
-15.925
31
0
39
0
210
0
220
0
230
1
0
LINE
5
A3
100
AcDbEntity
8
1
62
256
6
ByLayer
370
18
48
1
60
0
100
AcDbLine
10
21.858194
20
10.275
30
0
11
21.574623
21
10.275
31
0
39
0
210
0
220
0
230
1
0
LINE
5
A4
100
AcDbEntity
8
1
62
256
6
ByLayer
370
18
48
1
60
0
100
AcDbLine
10
20.775222
20
17.305594
30
0
11
21.164646
21
17.08076
31
0
39
0
210
0
220
0
230
1
0
LINE
5
A5
100
AcDbEntity
8
1
62
256
6
ByLayer
370
18
48
1
60
0
100
AcDbLine
10
14.567734
20
17.599239
30
0
11
20.683946
21
17.332199
31
0
39
0
210
0
220
0
230
1
0
LINE
5
A6
100
AcDbEntity
8
1
62
256
6
ByLayer
370
18
48
1
60
0
100
AcDbLine
10
19.429931
20
9.76305
30
0
11
20.683946
21
9.817801
31
0
39
0
210
0
220
0
230
1
0
LINE
5
A7
100
AcDbEntity
8
1
62
256
6
ByLayer
370
18
48
1
60
0
100
AcDbLine
10
20.775222
20
9.844406
30
0
11
21.474623
21
10.248205
31
0
39
0
210
0
220
0
230
1
0
LINE
5
A8
100
AcDbEntity
8
1
62
256
6
ByLayer
370
18
48
1
60
0
100
AcDbLine
10
35.607484
20
10.275
30
0
11
35.891055
21
10.275
31
0
39
0
210
0
220
0
230
1
0
LINE
5
A9
100
AcDbEntity
8
1
62
256
6
ByLayer
370
18
48
1
60
0
100
AcDbLine
10
35.607484
20
16.875
30
0
11
35.891055
21
16.875
31
0
39
0
210
0
220
0
230
1
0
LINE
5
AA
100
AcDbEntity
8
1
62
256
6
ByLayer
370
18
48
1
60
0
100
AcDbLine
10
36.690456
20
9.844406
30
0
11
35.991054
21
10.248205
31
0
39
0
210
0
220
0
230
1
0
LINE
5
AB
100
AcDbEntity
8
1
62
256
6
ByLayer
370
18
48
1
60
0
100
AcDbLine
10
42.897943
20
9.550761
30
0
11
36.781732
21
9.817801
31
0
39
0
210
0
220
0
230
1
0
LINE
5
AC
100
AcDbEntity
8
1
62
256
6
ByLayer
370
18
48
1
60
0
100
AcDbLine
10
43.732839
20
16.8
30
0
11
43.732839
21
10.35
31
0
39
0
210
0
220
0
230
1
0
LINE
5
AD
100
AcDbEntity
8
1
62
256
6
ByLayer
370
18
48
1
60
0
100
AcDbLine
10
42.897943
20
17.599239
30
0
11
36.781732
21
17.332199
31
0
39
0
210
0
220
0
230
1
0
LINE
5
AE
100
AcDbEntity
8
1
62
256
6
ByLayer
370
18
48
1
60
0
100
AcDbLine
10
36.690456
20
17.305594
30
0
11
35.991054
21
16.901795
31
0
39
0
210
0
220
0
230
1
0
LINE
5
AF
100
AcDbEntity
8
1
62
256
6
ByLayer
370
18
48
1
60
0
100
AcDbLine
10
40.228947
20
11.080335
30
0
11
35.907655
21
11.269007
31
0
39
0
210
0
220
0
230
1
0
LINE
5
B0
100
AcDbEntity
8
1
62
256
6
ByLayer
370
18
48
1
60
0
100
AcDbLine
10
40.228947
20
16.069665
30
0
11
35.907655
21
15.880993
31
0
39
0
210
0
220
0
230
1
0
LINE
5
B1
100
AcDbEntity
8
1
62
256
6
ByLayer
370
13
48
1
60
0
100
AcDbLine
10
39.83371
20
11.442979
30
0
11
35.692962
21
11.623768
31
0
39
0
210
0
220
0
230
1
0
LINE
5
B2
100
AcDbEntity
8
1
62
256
6
ByLayer
370
13
48
1
60
0
100
AcDbLine
10
39.83371
20
15.707021
30
0
11
35.692962
21
15.526232
31
0
39
0
210
0
220
0
230
1
0
LINE
5
B3
100
AcDbEntity
8
1
62
256
6
ByLayer
370
18
48
1
60
0
100
AcDbLine
10
39.603425
20
11.597402
30
0
11
39.83371
21
11.442977
31
0
39
0
210
0
220
0
230
1
0
LINE
5
B4
100
AcDbEntity
8
1
62
256
6
ByLayer
370
18
48
1
60
0
100
AcDbLine
10
40.228945
20
11.080336
30
0
11
40.228945
21
13.575
31
0
39
0
210
0
220
0
230
1
0
LINE
5
B5
100
AcDbEntity
8
1
62
256
6
ByLayer
370
18
48
1
60
0
100
AcDbLine
10
40.228945
20
16.069664
30
0
11
40.228945
21
13.575
31
0
39
0
210
0
220
0
230
1
0
LINE
5
B6
100
AcDbEntity
8
1
62
256
6
ByLayer
370
18
48
1
60
0
100
AcDbLine
10
39.603425
20
15.552598
30
0
11
39.83371
21
15.707023
31
0
39
0
210
0
220
0
230
1
0
LINE
5
B7
100
AcDbEntity
8
1
62
256
6
ByLayer
370
18
48
1
60
0
100
AcDbLine
10
39.263917
20
12.090426
30
0
11
39.263917
21
13.575
31
0
39
0
210
0
220
0
230
1
0
LINE
5
B8
100
AcDbEntity
8
1
62
256
6
ByLayer
370
18
48
1
60
0
100
AcDbLine
10
39.263917
20
15.059574
30
0
11
39.263917
21
13.575
31
0
39
0
210
0
220
0
230
1
0
LINE
5
B9
100
AcDbEntity
8
1
62
256
6
ByLayer
370
13
48
1
60
0
100
AcDbLine
10
39.263917
20
15.059574
30
0
11
35.313505
21
14.887096
31
0
39
0
210
0
220
0
230
1
0
LINE
5
BA
100
AcDbEntity
8
1
62
256
6
ByLayer
370
13
48
1
60
0
100
AcDbLine
10
39.603425
20
15.552598
30
0
11
35.539602
21
15.375168
31
0
39
0
210
0
220
0
230
1
0
LINE
5
BB
100
AcDbEntity
8
1
62
256
6
ByLayer
370
13
48
1
60
0
100
AcDbLine
10
39.603425
20
11.597402
30
0
11
35.539602
21
11.774832
31
0
39
0
210
0
220
0
230
1
0
LINE
5
BC
100
AcDbEntity
8
1
62
256
6
ByLayer
370
13
48
1
60
0
100
AcDbLine
10
39.263917
20
12.090426
30
0
11
35.313505
21
12.262904
31
0
39
0
210
0
220
0
230
1
0
LINE
5
BD
100
AcDbEntity
8
1
62
256
6
ByLayer
370
13
48
1
60
0
100
AcDbLine
10
34.675707
20
13.845
30
0
11
34.675707
21
13.305
31
0
39
0
210
0
220
0
230
1
0
LINE
5
BE
100
AcDbEntity
8
1
62
256
6
ByLayer
370
13
48
1
60
0
100
AcDbLine
10
33.03278
20
13.845
30
0
11
34.675703
21
13.845
31
0
39
0
210
0
220
0
230
1
0
LINE
5
BF
100
AcDbEntity
8
1
62
256
6
ByLayer
370
13
48
1
60
0
100
AcDbLine
10
33.03278
20
13.305
30
0
11
34.675703
21
13.305
31
0
39
0
210
0
220
0
230
1
0
LINE
5
C0
100
AcDbEntity
8
1
62
256
6
ByLayer
370
13
48
1
60
0
100
AcDbLine
10
33.032771
20
14.035736
30
0
11
34.662374
21
14.035736
31
0
39
0
210
0
220
0
230
1
0
LINE
5
C1
100
AcDbEntity
8
1
62
256
6
ByLayer
370
13
48
1
60
0
100
AcDbLine
10
33.032771
20
13.114264
30
0
11
34.662374
21
13.114264
31
0
39
0
210
0
220
0
230
1
0
LINE
5
C2
100
AcDbEntity
8
1
62
256
6
ByLayer
370
13
48
1
60
0
100
AcDbLine
10
32.929837
20
14.252733
30
0
11
34.302497
21
14.252733
31
0
39
0
210
0
220
0
230
1
0
LINE
5
C3
100
AcDbEntity
8
1
62
256
6
ByLayer
370
13
48
1
60
0
100
AcDbLine
10
32.929837
20
12.897267
30
0
11
34.302497
21
12.897267
31
0
39
0
210
0
220
0
230
1
0
LINE
5
C4
100
AcDbEntity
8
1
62
256
6
ByLayer
370
13
48
1
60
0
100
AcDbLine
10
32.810546
20
12.841915
30
0
11
34.090752
21
12.841915
31
0
39
0
210
0
220
0
230
1
0
LINE
5
C5
100
AcDbEntity
8
1
62
256
6
ByLayer
370
13
48
1
60
0
100
AcDbLine
10
32.810546
20
14.308085
30
0
11
34.090752
21
14.308085
31
0
39
0
210
0
220
0
230
1
0
LINE
5
C6
100
AcDbEntity
8
1
62
256
6
ByLayer
370
13
48
1
60
0
100
AcDbLine
10
32.772036
20
12.811112
30
0
11
34.090752
21
12.811112
31
0
39
0
210
0
220
0
230
1
0
LINE
5
C7
100
AcDbEntity
8
1
62
256
6
ByLayer
370
13
48
1
60
0
100
AcDbLine
10
32.772036
20
14.338888
30
0
11
34.090752
21
14.338888
31
0
39
0
210
0
220
0
230
1
0
LINE
5
C8
100
AcDbEntity
8
1
62
256
6
ByLayer
370
13
48
1
60
0
100
AcDbLine
10
34.090752
20
12.811112
30
0
11
33.988166
21
12.719335
31
0
39
0
210
0
220
0
230
1
0
LINE
5
C9
100
AcDbEntity
8
1
62
256
6
ByLayer
370
13
48
1
60
0
100
AcDbLine
10
34.090752
20
14.338888
30
0
11
33.988166
21
14.430665
31
0
39
0
210
0
220
0
230
1
0
LINE
5
CA
100
AcDbEntity
8
1
62
256
6
ByLayer
370
13
48
1
60
0
100
AcDbLine
10
33.988166
20
12.719335
30
0
11
32.759405
21
12.719335
31
0
39
0
210
0
220
0
230
1
0
LINE
5
CB
100
AcDbEntity
8
1
62
256
6
ByLayer
370
13
48
1
60
0
100
AcDbLine
10
33.988166
20
14.430665
30
0
11
32.759405
21
14.430665
31
0
39
0
210
0
220
0
230
1
0
LINE
5
CC
100
AcDbEntity
8
1
62
256
6
ByLayer
370
18
48
1
60
0
100
AcDbLine
10
35.539602
20
11.774832
30
0
11
35.692962
21
11.623767
31
0
39
0
210
0
220
0
230
1
0
LINE
5
CD
100
AcDbEntity
8
1
62
256
6
ByLayer
370
18
48
1
60
0
100
AcDbLine
10
35.313506
20
13.575
30
0
11
35.313505
21
12.262904
31
0
39
0
210
0
220
0
230
1
0
LINE
5
CE
100
AcDbEntity
8
1
62
256
6
ByLayer
370
18
48
1
60
0
100
AcDbLine
10
35.313506
20
13.575
30
0
11
35.313505
21
14.887096
31
0
39
0
210
0
220
0
230
1
0
LINE
5
CF
100
AcDbEntity
8
1
62
256
6
ByLayer
370
18
48
1
60
0
100
AcDbLine
10
35.539602
20
15.375168
30
0
11
35.692962
21
15.526233
31
0
39
0
210
0
220
0
230
1
0
LINE
5
D0
100
AcDbEntity
8
1
62
256
6
ByLayer
370
13
48
1
60
0
100
AcDbLine
10
34.14811
20
14.400521
30
0
11
34.045524
21
14.492299
31
0
39
0
210
0
220
0
230
1
0
LINE
5
D1
100
AcDbEntity
8
1
62
256
6
ByLayer
370
13
48
1
60
0
100
AcDbLine
10
34.733065
20
13.845001
30
0
11
34.733065
21
13.304999
31
0
39
0
210
0
220
0
230
1
0
LINE
5
D2
100
AcDbEntity
8
1
62
256
6
ByLayer
370
13
48
1
60
0
100
AcDbLine
10
34.14811
20
12.749479
30
0
11
34.045524
21
12.657701
31
0
39
0
210
0
220
0
230
1
0
LINE
5
D3
100
AcDbEntity
8
1
62
256
6
ByLayer
370
13
48
1
60
0
100
AcDbLine
10
33.74124
20
15.700632
30
0
11
34.045524
21
14.492299
31
0
39
0
210
0
220
0
230
1
0
LINE
5
D4
100
AcDbEntity
8
1
62
256
6
ByLayer
370
13
48
1
60
0
100
AcDbLine
10
33.74124
20
11.449368
30
0
11
34.045524
21
12.657701
31
0
39
0
210
0
220
0
230
1
0
LINE
5
D5
100
AcDbEntity
8
1
62
256
6
ByLayer
370
18
48
1
60
0
100
AcDbLine
10
33.220528
20
10.275
30
0
11
35.607484
21
10.275
31
0
39
0
210
0
220
0
230
1
0
LINE
5
D6
100
AcDbEntity
8
1
62
256
6
ByLayer
370
18
48
1
60
0
100
AcDbLine
10
35.607484
20
10.675
30
0
11
35.607484
21
10.275
31
0
39
0
210
0
220
0
230
1
0
LINE
5
D7
100
AcDbEntity
8
1
62
256
6
ByLayer
370
18
48
1
60
0
100
AcDbLine
10
24.24515
20
10.275
30
0
11
21.858194
21
10.275
31
0
39
0
210
0
220
0
230
1
0
LINE
5
D8
100
AcDbEntity
8
1
62
256
6
ByLayer
370
18
48
1
60
0
100
AcDbLine
10
21.858194
20
10.444144
30
0
11
21.858194
21
10.275
31
0
39
0
210
0
220
0
230
1
0
LINE
5
D9
100
AcDbEntity
8
1
62
256
6
ByLayer
370
18
48
1
60
0
100
AcDbLine
10
33.220528
20
16.875
30
0
11
35.607484
21
16.875
31
0
39
0
210
0
220
0
230
1
0
LINE
5
DA
100
AcDbEntity
8
1
62
256
6
ByLayer
370
18
48
1
60
0
100
AcDbLine
10
35.607484
20
16.475
30
0
11
35.607484
21
16.875
31
0
39
0
210
0
220
0
230
1
0
LINE
5
DB
100
AcDbEntity
8
1
62
256
6
ByLayer
370
13
48
1
60
0
100
AcDbLine
10
33.68394
20
11.466962
30
0
11
33.988166
21
12.675066
31
0
39
0
210
0
220
0
230
1
0
LINE
5
DC
100
AcDbEntity
8
1
62
256
6
ByLayer
370
13
48
1
60
0
100
AcDbLine
10
33.988166
20
12.675066
30
0
11
32.753164
21
12.675066
31
0
39
0
210
0
220
0
230
1
0
LINE
5
DD
100
AcDbEntity
8
1
62
256
6
ByLayer
370
13
48
1
60
0
100
AcDbLine
10
33.988166
20
14.474934
30
0
11
32.753164
21
14.474934
31
0
39
0
210
0
220
0
230
1
0
LINE
5
DE
100
AcDbEntity
8
1
62
256
6
ByLayer
370
13
48
1
60
0
100
AcDbLine
10
33.68394
20
15.683038
30
0
11
33.988166
21
14.474934
31
0
39
0
210
0
220
0
230
1
0
LINE
5
DF
100
AcDbEntity
8
1
62
256
6
ByLayer
370
13
48
1
60
0
100
AcDbLine
10
24.24515
20
10.275
30
0
11
24.24515
21
10.442772
31
0
39
0
210
0
220
0
230
1
0
LINE
5
E0
100
AcDbEntity
8
1
62
256
6
ByLayer
370
13
48
1
60
0
100
AcDbLine
10
33.220528
20
16.875
30
0
11
33.220528
21
16.474992
31
0
39
0
210
0
220
0
230
1
0
LINE
5
E1
100
AcDbEntity
8
1
62
256
6
ByLayer
370
13
48
1
60
0
100
AcDbLine
10
33.220528
20
10.275
30
0
11
33.220528
21
10.675008
31
0
39
0
210
0
220
0
230
1
0
LINE
5
E2
100
AcDbEntity
8
1
62
256
6
ByLayer
370
18
48
1
60
0
100
AcDbLine
10
33.16317
20
16.875
30
0
11
29.711111
21
16.875
31
0
39
0
210
0
220
0
230
1
0
LINE
5
E3
100
AcDbEntity
8
1
62
256
6
ByLayer
370
13
48
1
60
0
100
AcDbLine
10
33.16317
20
16.875
30
0
11
33.16317
21
16.474986
31
0
39
0
210
0
220
0
230
1
0
LINE
5
E4
100
AcDbEntity
8
1
62
256
6
ByLayer
370
13
48
1
60
0
100
AcDbLine
10
33.16317
20
10.275
30
0
11
33.16317
21
10.675014
31
0
39
0
210
0
220
0
230
1
0
LINE
5
E5
100
AcDbEntity
8
1
62
256
6
ByLayer
370
13
48
1
60
0
100
AcDbLine
10
24.302507
20
10.275
30
0
11
24.302507
21
10.442737
31
0
39
0
210
0
220
0
230
1
0
LINE
5
E6
100
AcDbEntity
8
1
62
256
6
ByLayer
370
18
48
1
60
0
100
AcDbLine
10
33.16317
20
10.275
30
0
11
24.302507
21
10.275
31
0
39
0
210
0
220
0
230
1
0
LINE
5
E7
100
AcDbEntity
8
1
62
256
6
ByLayer
370
13
48
1
60
0
100
AcDbLine
10
33.168561
20
10.757502
30
0
11
32.487816
21
10.757502
31
0
39
0
210
0
220
0
230
1
0
LINE
5
E8
100
AcDbEntity
8
1
62
256
6
ByLayer
370
13
48
1
60
0
100
AcDbLine
10
33.173248
20
10.792232
30
0
11
32.492617
21
10.792232
31
0
39
0
210
0
220
0
230
1
0
LINE
5
E9
100
AcDbEntity
8
1
62
256
6
ByLayer
370
13
48
1
60
0
100
AcDbLine
10
33.168561
20
16.392498
30
0
11
32.487816
21
16.392498
31
0
39
0
210
0
220
0
230
1
0
LINE
5
EA
100
AcDbEntity
8
1
62
256
6
ByLayer
370
13
48
1
60
0
100
AcDbLine
10
33.173248
20
16.357768
30
0
11
32.492617
21
16.357768
31
0
39
0
210
0
220
0
230
1
0
LINE
5
EB
100
AcDbEntity
8
1
62
256
6
ByLayer
370
13
48
1
60
0
100
AcDbLine
10
35.825415
20
11.159123
30
0
11
33.564208
21
11.159123
31
0
39
0
210
0
220
0
230
1
0
LINE
5
EC
100
AcDbEntity
8
1
62
256
6
ByLayer
370
13
48
1
60
0
100
AcDbLine
10
33.220542
20
10.675
30
0
11
35.607484
21
10.675
31
0
39
0
210
0
220
0
230
1
0
LINE
5
ED
100
AcDbEntity
8
1
62
256
6
ByLayer
370
13
48
1
60
0
100
AcDbLine
10
33.220542
20
16.475
30
0
11
35.607484
21
16.475
31
0
39
0
210
0
220
0
230
1
0
LINE
5
EE
100
AcDbEntity
8
1
62
256
6
ByLayer
370
13
48
1
60
0
100
AcDbLine
10
35.825415
20
15.990877
30
0
11
33.564208
21
15.990877
31
0
39
0
210
0
220
0
230
1
0
MTEXT
5
187
100
AcDbEntity
8
SK6
62
256
6
ByLayer
370
18
48
1
60
0
100
AcDbMText
10
-73.581661
20
-50.359904
30
0
210
0
220
0
230
1
1
\W0.7855;C2A-RS32-RFL23B-075DB
40
3.5
41
0
44
1.084337
50
0
71
7
72
5
7
iso_b_vert
0
DIMENSION
5
18C
100
AcDbEntity
8
2
62
256
6
ByLayer
370
18
48
1
60
0
100
AcDbDimension
2
_U0
10
76.832839
20
-15.925
30
0
11
76.832839
21
0.825
31
0
70
32
71
1
72
1
41
1
210
0
220
0
230
1
3
Standard
100
AcDbAlignedDimension
13
43.732839
23
17.575
33
0
14
-126.267161
24
-15.925
34
0
50
90
100
AcDbRotatedDimension
1001
ACAD
1000
DSTYLE
1002
{
1070
   371
1070
    13
1070
   372
1070
    13
1070
   170
1070
     0
1070
   144
1040
1.0
1070
   277
1070
     2
1070
   284
1070
     8
1070
   278
1070
    46
1070
   146
1040
1.0
1070
   345
1005
16
1070
   347
1005
16
1070
   346
1005
16
1070
   344
1005
0
1070
   343
1005
0
1070
   172
1070
     1
1070
    76
1070
     0
1070
    75
1070
     0
1070
   282
1070
     0
1070
   281
1070
     0
1070
    71
1070
     0
1070
    74
1070
     0
1070
   279
1070
     0
1070
   173
1070
     1
1070
   340
1005
188
1070
   271
1070
     2
1070
   272
1070
     2
1070
    77
1070
     1
1070
    73
1070
     0
1070
   171
1070
     3
1070
   274
1070
     4
1070
   177
1070
     2
1070
   176
1070
     2
1070
   178
1070
     2
1070
    78
1070
     8
1070
    48
1040
-0.1
1070
    41
1040
3.5
1070
   147
1040
1.75
1070
    42
1040
1.5875
1070
    44
1040
2.0
1070
   140
1040
3.5
1002
}
1001
ACAD_DSTYLE_DIM_LINETYPE
1070
   380
1005
16
1001
ACAD_DSTYLE_DIM_EXT1_LINETYPE
1070
   381
1005
16
1001
ACAD_DSTYLE_DIM_EXT2_LINETYPE
1070
   382
1005
16
0
DIMENSION
5
1A6
100
AcDbEntity
8
2
62
256
6
ByLayer
370
18
48
1
60
0
100
AcDbDimension
2
_U1
10
64.832839
20
17.575
30
0
11
64.832839
21
13.575
31
0
70
32
71
1
72
1
41
1
210
0
220
0
230
1
3
Standard
100
AcDbAlignedDimension
13
43.732839
23
9.575
33
0
14
43.732839
24
17.575
34
0
50
90
100
AcDbRotatedDimension
1001
ACAD
1000
DSTYLE
1002
{
1070
   371
1070
    13
1070
   372
1070
    13
1070
   170
1070
     0
1070
   144
1040
1.0
1070
   277
1070
     2
1070
   284
1070
     8
1070
   278
1070
    46
1070
   146
1040
1.0
1070
   345
1005
16
1070
   347
1005
16
1070
   346
1005
16
1070
   344
1005
0
1070
   343
1005
0
1070
   172
1070
     1
1070
    76
1070
     0
1070
    75
1070
     0
1070
   282
1070
     0
1070
   281
1070
     0
1070
    71
1070
     0
1070
    74
1070
     0
1070
   279
1070
     0
1070
   173
1070
     1
1070
   340
1005
188
1070
   271
1070
     2
1070
   272
1070
     2
1070
    77
1070
     1
1070
    73
1070
     0
1070
   171
1070
     3
1070
   274
1070
     4
1070
   177
1070
     2
1070
   176
1070
     2
1070
   178
1070
     2
1070
    78
1070
     8
1070
    48
1040
-0.1
1070
    41
1040
3.5
1070
   147
1040
1.75
1070
    42
1040
1.5875
1070
    44
1040
2.0
1070
   140
1040
3.5
1002
}
1001
ACAD_DSTYLE_DIM_LINETYPE
1070
   380
1005
16
1001
ACAD_DSTYLE_DIM_EXT1_LINETYPE
1070
   381
1005
16
1001
ACAD_DSTYLE_DIM_EXT2_LINETYPE
1070
   382
1005
16
0
DIMENSION
5
1BF
100
AcDbEntity
8
SK2
62
256
6
ByLayer
370
18
48
1
60
0
100
AcDbDimension
2
_U2
10
-137.867161
20
16.075
30
0
11
-137.867161
21
0.075
31
0
70
32
71
1
72
1
41
1
210
0
220
0
230
1
3
Standard
100
AcDbAlignedDimension
13
-126.267161
23
-15.925
33
0
14
-126.267161
24
16.075
34
0
50
90
100
AcDbRotatedDimension
1001
ACAD
1000
DSTYLE
1002
{
1070
   371
1070
    13
1070
   372
1070
    13
1070
   170
1070
     0
1070
   144
1040
1.0
1070
   277
1070
     2
1070
   284
1070
     8
1070
   278
1070
    46
1070
   146
1040
1.0
1070
   345
1005
16
1070
   347
1005
16
1070
   346
1005
16
1070
   344
1005
0
1070
   343
1005
0
1070
   172
1070
     1
1070
    76
1070
     0
1070
    75
1070
     0
1070
   282
1070
     0
1070
   281
1070
     0
1070
    71
1070
     0
1070
    74
1070
     0
1070
   279
1070
     0
1070
   173
1070
     1
1070
   340
1005
188
1070
   271
1070
     2
1070
   272
1070
     2
1070
    77
1070
     1
1070
    73
1070
     0
1070
   171
1070
     3
1070
   274
1070
     4
1070
   177
1070
     2
1070
   176
1070
     2
1070
   178
1070
     2
1070
    78
1070
     8
1070
    48
1040
-0.1
1070
    41
1040
3.5
1070
   147
1040
1.75
1070
    42
1040
1.5875
1070
    44
1040
2.0
1070
   140
1040
3.5
1002
}
1001
ACAD_DSTYLE_DIM_LINETYPE
1070
   380
1005
16
1001
ACAD_DSTYLE_DIM_EXT1_LINETYPE
1070
   381
1005
16
1001
ACAD_DSTYLE_DIM_EXT2_LINETYPE
1070
   382
1005
16
0
DIMENSION
5
1D8
100
AcDbEntity
8
SK2
62
256
6
ByLayer
370
18
48
1
60
0
100
AcDbDimension
2
_U3
10
43.732839
20
-36.675
30
0
11
-41.267161
21
-36.675
31
0
70
32
71
1
72
1
41
1
210
0
220
0
230
1
3
Standard
100
AcDbAlignedDimension
13
-126.267161
23
-15.925
33
0
14
43.732839
24
17.575
34
0
50
0
100
AcDbRotatedDimension
1001
ACAD
1000
DSTYLE
1002
{
1070
   371
1070
    13
1070
   372
1070
    13
1070
   170
1070
     0
1070
   144
1040
1.0
1070
   277
1070
     2
1070
   284
1070
     8
1070
   278
1070
    46
1070
   146
1040
1.0
1070
   345
1005
16
1070
   347
1005
16
1070
   346
1005
16
1070
   344
1005
0
1070
   343
1005
0
1070
   172
1070
     1
1070
    76
1070
     0
1070
    75
1070
     0
1070
   282
1070
     0
1070
   281
1070
     0
1070
    71
1070
     0
1070
    74
1070
     0
1070
   279
1070
     0
1070
   173
1070
     1
1070
   340
1005
188
1070
   271
1070
     1
1070
   272
1070
     2
1070
    77
1070
     1
1070
    73
1070
     1
1070
   171
1070
     3
1070
   274
1070
     4
1070
   177
1070
     2
1070
   176
1070
     2
1070
   178
1070
     2
1070
    78
1070
     8
1070
    48
1040
-0.1
1070
    41
1040
3.5
1070
   147
1040
1.75
1070
    42
1040
1.5875
1070
    44
1040
2.0
1070
   140
1040
3.5
1002
}
1001
ACAD_DSTYLE_DIM_LINETYPE
1070
   380
1005
16
1001
ACAD_DSTYLE_DIM_EXT1_LINETYPE
1070
   381
1005
16
1001
ACAD_DSTYLE_DIM_EXT2_LINETYPE
1070
   382
1005
16
0
ENDSEC
0
SECTION
2
OBJECTS
0
DICTIONARY
5
25f
330
0
100
AcDbDictionary
280
0
281
1
3
ACAD_GROUP
350
260
3
ACAD_MLINESTYLE
350
261
0
DICTIONARY
5
260
330
0
100
AcDbDictionary
280
0
281
1
0
DICTIONARY
5
261
330
0
100
AcDbDictionary
280
0
281
1
3
Standard
350
18
0
MLINESTYLE
5
18
330
261
100
AcDbMlineStyle
2
Standard
70
0
3

62
256
51
90
52
90
71
2
49
-0.5
62
256
6
ByLayer
49
0.5
62
256
6
ByLayer
0
RASTERVARIABLES
5
24e
330

100
AcDbRasterVariables
90
0
70
1
71
1
72
1
0
ENDSEC
0
EOF
