0
SECTION
2
HEADER
9
$ACADVER
1
AC1015
9
$DWGCODEPAGE
3
ANSI_1252
9
$HANDSEED
5
219
9
$ANGBASE
50
0
9
$ANGDIR
70
0
9
$ATTMODE
70
1
9
$AUNITS
70
0
9
$AUPREC
70
0
9
$CECOLOR
62
256
9
$CELTSCALE
40
1
9
$CELTYPE
6
ByLayer
9
$CELWEIGHT
370
18
9
$CLAYER
8
0
9
$CMLJUST
70
0
9
$CMLSCALE
40
1
9
$CMLSTYLE
2
Standard
9
$DIMSTYLE
2
Standard
9
$TEXTSIZE
40
0.2
9
$TEXTSTYLE
7
Standard
9
$LUNITS
70
2
9
$LUPREC
70
4
9
$EXTNAMES
290
1
9
$INSUNITS
70
4
9
$LTSCALE
40
1
9
$LWDISPLAY
290
1
9
$PDMODE
70
0
9
$PDSIZE
40
0
9
$PLINEGEN
70
0
0
ENDSEC
0
SECTION
2
CLASSES
0
CLASS
1
RASTERVARIABLES
2
AcDbRasterVariables
3
ISM
90
0
280
0
281
0
0
ENDSEC
0
SECTION
2
TABLES
0
TABLE
2
VPORT
5
20f
100
AcDbSymbolTable
0
VPORT
5
1
100
AcDbSymbolTableRecord
100
AcDbViewportTableRecord
2
*Active
70
0
10
0
20
0
11
1
21
1
12
-1
22
1
13
0
23
0
14
0.5
24
0.5
15
10
25
10
16
0
26
0
36
1
17
0
27
0
37
0
0
ENDTAB
0
TABLE
2
LTYPE
5
210
100
AcDbSymbolTable
0
LTYPE
5
14
100
AcDbSymbolTableRecord
100
AcDbLinetypeTableRecord
70
0
2
ByBlock
3

72
65
73
0
40
0
0
LTYPE
5
15
100
AcDbSymbolTableRecord
100
AcDbLinetypeTableRecord
70
0
2
ByLayer
3

72
65
73
0
40
0
0
LTYPE
5
16
100
AcDbSymbolTableRecord
100
AcDbLinetypeTableRecord
70
0
2
Continuous
3
Solid line
72
65
73
0
40
0
0
LTYPE
5
6E
100
AcDbSymbolTableRecord
100
AcDbLinetypeTableRecord
70
0
2
CENTER
3
____ _ ____ _ ____ _ ____
72
65
73
4
40
47.5
49
22
74
0
49
-8.5
74
0
49
8.5
74
0
49
-8.5
74
0
0
LTYPE
5
6F
100
AcDbSymbolTableRecord
100
AcDbLinetypeTableRecord
70
0
2
DASHED
3
__ __ __ __ __ __ __ __ __
72
65
73
2
40
25.72
49
12.86
74
0
49
-12.86
74
0
0
ENDTAB
0
TABLE
2
LAYER
5
211
100
AcDbSymbolTable
0
LAYER
5
10
100
AcDbSymbolTableRecord
100
AcDbLayerTableRecord
2
0
70
0
62
7
6
Continuous
290
1
370
-3
390
0
0
LAYER
5
71
100
AcDbSymbolTableRecord
100
AcDbLayerTableRecord
2
81
70
0
62
-3
6
Continuous
290
1
370
-3
390
0
0
LAYER
5
73
100
AcDbSymbolTableRecord
100
AcDbLayerTableRecord
2
80
70
0
62
-6
6
Continuous
290
1
370
-3
390
0
0
LAYER
5
75
100
AcDbSymbolTableRecord
100
AcDbLayerTableRecord
2
1
70
0
62
4
6
Continuous
290
1
370
-3
390
0
0
LAYER
5
124
100
AcDbSymbolTableRecord
100
AcDbLayerTableRecord
2
Defpoints
70
0
62
7
6
Continuous
290
0
370
-3
390
0
0
LAYER
5
131
100
AcDbSymbolTableRecord
100
AcDbLayerTableRecord
2
2
70
0
62
7
6
Continuous
290
1
370
-3
390
0
0
LAYER
5
1fc
100
AcDbSymbolTableRecord
100
AcDbLayerTableRecord
2
SK1
70
0
62
4
6
Continuous
290
1
370
-3
390
0
0
LAYER
5
1fd
100
AcDbSymbolTableRecord
100
AcDbLayerTableRecord
2
SK6
70
0
62
5
6
Continuous
290
1
370
-3
390
0
0
LAYER
5
1fe
100
AcDbSymbolTableRecord
100
AcDbLayerTableRecord
2
SK2
70
0
62
7
6
Continuous
290
1
370
-3
390
0
0
ENDTAB
0
TABLE
2
STYLE
5
212
100
AcDbSymbolTable
0
STYLE
5
11
100
AcDbSymbolTableRecord
100
AcDbTextStyleTableRecord
2
Standard
3
txt
70
0
71
0
40
0
41
1
42
0
50
0
0
STYLE
5
11D
100
AcDbSymbolTableRecord
100
AcDbTextStyleTableRecord
2
iso_b_vert
3
simplex.shx
70
0
71
0
40
0
41
1
42
0
50
0
0
STYLE
5
11E
100
AcDbSymbolTableRecord
100
AcDbTextStyleTableRecord
2
DWGDirectTextStyle
3
simplex
70
0
71
0
40
0
41
1
42
0
50
0
0
ENDTAB
0
TABLE
2
DIMSTYLE
5
213
100
AcDbSymbolTable
100
AcDbDimStyleTable
0
DIMSTYLE
105
27
100
AcDbSymbolTableRecord
100
AcDbDimStyleTableRecord
2
Standard
70
0
3
<>
41
0.18
42
0.0625
44
0.18
140
0.18
147
0.09
73
0
74
0
77
1
271
2
275
0
278
52
280
0
340
11
0
ENDTAB
0
TABLE
2
VIEW
5
214
100
AcDbSymbolTable
0
ENDTAB
0
TABLE
2
UCS
5
215
100
AcDbSymbolTable
0
ENDTAB
0
TABLE
2
APPID
5
216
100
AcDbSymbolTable
0
APPID
5
12
100
AcDbSymbolTableRecord
100
AcDbRegAppTableRecord
2
ACAD
70
0
0
APPID
5
120
100
AcDbSymbolTableRecord
100
AcDbRegAppTableRecord
2
ACAD_DSTYLE_DIMBREAK
70
0
0
APPID
5
1BB
100
AcDbSymbolTableRecord
100
AcDbRegAppTableRecord
2
ACAD_DSTYLE_DIM_LINETYPE
70
0
0
APPID
5
1BC
100
AcDbSymbolTableRecord
100
AcDbRegAppTableRecord
2
ACAD_DSTYLE_DIM_EXT1_LINETYPE
70
0
0
APPID
5
1BD
100
AcDbSymbolTableRecord
100
AcDbRegAppTableRecord
2
ACAD_DSTYLE_DIM_EXT2_LINETYPE
70
0
0
APPID
5
1F8
100
AcDbSymbolTableRecord
100
AcDbRegAppTableRecord
2
ACAD_MLEADERVER
70
0
0
ENDTAB
0
TABLE
2
BLOCK_RECORD
5
217
100
AcDbSymbolTable
0
BLOCK_RECORD
5
1F
100
AcDbSymbolTableRecord
100
AcDbBlockTableRecord
2
*Model_Space
340
0
70
0
0
BLOCK_RECORD
5
1B
100
AcDbSymbolTableRecord
100
AcDbBlockTableRecord
2
*Paper_Space
340
0
70
0
0
BLOCK_RECORD
5
23
100
AcDbSymbolTableRecord
100
AcDbBlockTableRecord
2
*Paper_Space0
340
0
70
0
0
BLOCK_RECORD
5
125
100
AcDbSymbolTableRecord
100
AcDbBlockTableRecord
2
*D1
340
0
70
0
0
BLOCK_RECORD
5
132
100
AcDbSymbolTableRecord
100
AcDbBlockTableRecord
2
_U0
340
0
70
0
0
BLOCK_RECORD
5
13E
100
AcDbSymbolTableRecord
100
AcDbBlockTableRecord
2
*D3
340
0
70
0
0
BLOCK_RECORD
5
14B
100
AcDbSymbolTableRecord
100
AcDbBlockTableRecord
2
_U1
340
0
70
0
0
BLOCK_RECORD
5
157
100
AcDbSymbolTableRecord
100
AcDbBlockTableRecord
2
*D5
340
0
70
0
0
BLOCK_RECORD
5
164
100
AcDbSymbolTableRecord
100
AcDbBlockTableRecord
2
_U2
340
0
70
0
0
BLOCK_RECORD
5
170
100
AcDbSymbolTableRecord
100
AcDbBlockTableRecord
2
*D7
340
0
70
0
0
BLOCK_RECORD
5
17C
100
AcDbSymbolTableRecord
100
AcDbBlockTableRecord
2
_U3
340
0
70
0
0
BLOCK_RECORD
5
188
100
AcDbSymbolTableRecord
100
AcDbBlockTableRecord
2
*D9
340
0
70
0
0
BLOCK_RECORD
5
194
100
AcDbSymbolTableRecord
100
AcDbBlockTableRecord
2
_U4
340
0
70
0
0
ENDTAB
0
ENDSEC
0
SECTION
2
BLOCKS
0
BLOCK
5
20
100
AcDbEntity
8
0
100
AcDbBlockBegin
2
*Model_Space
70
0
10
0
20
0
30
0
3
*Model_Space
0
ENDBLK
5
21
100
AcDbEntity
8
0
100
AcDbBlockEnd
0
BLOCK
5
1C
100
AcDbEntity
8
0
100
AcDbBlockBegin
2
*Paper_Space
70
0
10
0
20
0
30
0
3
*Paper_Space
0
ENDBLK
5
1D
100
AcDbEntity
8
0
100
AcDbBlockEnd
0
BLOCK
5
24
100
AcDbEntity
8
0
100
AcDbBlockBegin
2
*Paper_Space0
70
0
10
0
20
0
30
0
3
*Paper_Space0
0
ENDBLK
5
25
100
AcDbEntity
8
0
100
AcDbBlockEnd
0
BLOCK
5
126
100
AcDbEntity
8
0
100
AcDbBlockBegin
2
*D1
70
1
10
0
20
0
30
0
3
*D1
0
LINE
5
128
100
AcDbEntity
8
0
62
256
6
ByLayer
370
-2
48
1
60
0
100
AcDbLine
10
40.695468
20
-13.5625
30
0
11
74.207968
21
-13.5625
31
0
39
0
210
0
220
0
230
1
0
LINE
5
129
100
AcDbEntity
8
0
62
256
6
ByLayer
370
-2
48
1
60
0
100
AcDbLine
10
-109.304532
20
12.4375
30
0
11
74.207968
21
12.4375
31
0
39
0
210
0
220
0
230
1
0
LINE
5
12A
100
AcDbEntity
8
0
62
256
6
ByLayer
370
-2
48
1
60
0
100
AcDbLine
10
72.207968
20
-10.0625
30
0
11
72.207968
21
8.9375
31
0
39
0
210
0
220
0
230
1
0
SOLID
5
12B
100
AcDbEntity
8
0
62
256
6
ByLayer
370
-1
48
1
60
0
100
AcDbTrace
10
71.624634
20
-10.0625
30
0
11
72.791301
21
-10.0625
31
0
12
72.207968
22
-13.5625
32
0
13
72.207968
23
-13.5625
33
0
39
0
210
0
220
0
230
1
0
SOLID
5
12C
100
AcDbEntity
8
0
62
256
6
ByLayer
370
-1
48
1
60
0
100
AcDbTrace
10
72.791301
20
8.9375
30
0
11
71.624634
21
8.9375
31
0
12
72.207968
22
12.4375
32
0
13
72.207968
23
12.4375
33
0
39
0
210
0
220
0
230
1
0
MTEXT
5
12D
100
AcDbEntity
8
0
62
256
6
ByLayer
370
18
48
1
60
0
100
AcDbMText
10
65.207968
20
-0.5625
30
0
210
0
220
0
230
1
1
\A1;26
40
3.5
41
0
44
1
50
90
71
5
72
5
7
iso_b_vert
0
POINT
5
12E
100
AcDbEntity
8
Defpoints
62
0
6
ByLayer
370
-1
48
1
60
0
100
AcDbPoint
10
39.107968
20
-13.5625
30
0
39
0
210
0
220
0
230
1
50
360
0
POINT
5
12F
100
AcDbEntity
8
Defpoints
62
0
6
ByLayer
370
-1
48
1
60
0
100
AcDbPoint
10
-110.892032
20
12.4375
30
0
39
0
210
0
220
0
230
1
50
360
0
POINT
5
130
100
AcDbEntity
8
Defpoints
62
0
6
ByLayer
370
-1
48
1
60
0
100
AcDbPoint
10
72.207968
20
12.4375
30
0
39
0
210
0
220
0
230
1
50
360
0
ENDBLK
5
127
100
AcDbEntity
8
0
100
AcDbBlockEnd
0
BLOCK
5
139
100
AcDbEntity
8
0
100
AcDbBlockBegin
2
_U0
70
0
10
0
20
0
30
0
3
_U0
0
MTEXT
5
133
100
AcDbEntity
8
2
62
256
6
ByLayer
370
18
48
1
60
0
100
AcDbMText
10
71.518334
20
-2.495466
30
0
210
0
220
0
230
1
1
\W0.6740;26
40
3.5
41
0
44
1.084337
50
90
71
7
72
5
7
iso_b_vert
0
LINE
5
134
100
AcDbEntity
8
2
62
256
6
ByLayer
370
13
48
1
60
0
100
AcDbLine
10
40.695468
20
-13.5625
30
0
11
74.207968
21
-13.5625
31
0
39
0
210
0
220
0
230
1
0
LINE
5
135
100
AcDbEntity
8
2
62
256
6
ByLayer
370
13
48
1
60
0
100
AcDbLine
10
-109.304532
20
12.4375
30
0
11
74.207968
21
12.4375
31
0
39
0
210
0
220
0
230
1
0
LINE
5
136
100
AcDbEntity
8
2
62
256
6
ByLayer
370
13
48
1
60
0
100
AcDbLine
10
72.207968
20
-13.5625
30
0
11
72.207968
21
12.4375
31
0
39
0
210
0
220
0
230
1
0
SOLID
5
137
100
AcDbEntity
8
2
62
256
6
ByLayer
370
18
48
1
60
0
100
AcDbTrace
10
72.207968
20
-13.5625
30
0
11
71.747184
21
-10.062502
31
0
12
72.668751
22
-10.062498
32
0
13
72.668751
23
-10.062498
33
0
39
0
210
0
220
0
230
1
0
SOLID
5
138
100
AcDbEntity
8
2
62
256
6
ByLayer
370
18
48
1
60
0
100
AcDbTrace
10
72.207968
20
12.4375
30
0
11
72.668751
21
8.937502
31
0
12
71.747184
22
8.937498
32
0
13
71.747184
23
8.937498
33
0
39
0
210
0
220
0
230
1
0
ENDBLK
5
13A
100
AcDbEntity
8
0
100
AcDbBlockEnd
0
BLOCK
5
13F
100
AcDbEntity
8
0
100
AcDbBlockBegin
2
*D3
70
1
10
0
20
0
30
0
3
*D3
0
LINE
5
141
100
AcDbEntity
8
0
62
256
6
ByLayer
370
-2
48
1
60
0
100
AcDbLine
10
40.695468
20
-8.5625
30
0
11
62.207968
21
-8.5625
31
0
39
0
210
0
220
0
230
1
0
LINE
5
142
100
AcDbEntity
8
0
62
256
6
ByLayer
370
-2
48
1
60
0
100
AcDbLine
10
40.695468
20
-13.5625
30
0
11
62.207968
21
-13.5625
31
0
39
0
210
0
220
0
230
1
0
LINE
5
143
100
AcDbEntity
8
0
62
256
6
ByLayer
370
-2
48
1
60
0
100
AcDbLine
10
60.207968
20
-5.0625
30
0
11
60.207968
21
-1.5625
31
0
39
0
210
0
220
0
230
1
0
LINE
5
144
100
AcDbEntity
8
0
62
256
6
ByLayer
370
-2
48
1
60
0
100
AcDbLine
10
60.207968
20
-17.0625
30
0
11
60.207968
21
-20.5625
31
0
39
0
210
0
220
0
230
1
0
SOLID
5
145
100
AcDbEntity
8
0
62
256
6
ByLayer
370
-1
48
1
60
0
100
AcDbTrace
10
59.624634
20
-5.0625
30
0
11
60.791301
21
-5.0625
31
0
12
60.207968
22
-8.5625
32
0
13
60.207968
23
-8.5625
33
0
39
0
210
0
220
0
230
1
0
SOLID
5
146
100
AcDbEntity
8
0
62
256
6
ByLayer
370
-1
48
1
60
0
100
AcDbTrace
10
60.791301
20
-17.0625
30
0
11
59.624634
21
-17.0625
31
0
12
60.207968
22
-13.5625
32
0
13
60.207968
23
-13.5625
33
0
39
0
210
0
220
0
230
1
0
MTEXT
5
147
100
AcDbEntity
8
0
62
256
6
ByLayer
370
18
48
1
60
0
100
AcDbMText
10
53.207968
20
-11.0625
30
0
210
0
220
0
230
1
1
\A1;5
40
3.5
41
0
44
1
50
90
71
5
72
5
7
iso_b_vert
0
POINT
5
148
100
AcDbEntity
8
Defpoints
62
0
6
ByLayer
370
-1
48
1
60
0
100
AcDbPoint
10
39.107968
20
-8.5625
30
0
39
0
210
0
220
0
230
1
50
360
0
POINT
5
149
100
AcDbEntity
8
Defpoints
62
0
6
ByLayer
370
-1
48
1
60
0
100
AcDbPoint
10
39.107968
20
-13.5625
30
0
39
0
210
0
220
0
230
1
50
360
0
POINT
5
14A
100
AcDbEntity
8
Defpoints
62
0
6
ByLayer
370
-1
48
1
60
0
100
AcDbPoint
10
60.207968
20
-13.5625
30
0
39
0
210
0
220
0
230
1
50
360
0
ENDBLK
5
140
100
AcDbEntity
8
0
100
AcDbBlockEnd
0
BLOCK
5
152
100
AcDbEntity
8
0
100
AcDbBlockBegin
2
_U1
70
0
10
0
20
0
30
0
3
_U1
0
MTEXT
5
14C
100
AcDbEntity
8
2
62
256
6
ByLayer
370
18
48
1
60
0
100
AcDbMText
10
59.518334
20
-11.687733
30
0
210
0
220
0
230
1
1
\W0.5404;5
40
3.5
41
0
44
1.084337
50
90
71
7
72
5
7
iso_b_vert
0
LINE
5
14D
100
AcDbEntity
8
2
62
256
6
ByLayer
370
13
48
1
60
0
100
AcDbLine
10
40.695468
20
-8.5625
30
0
11
62.207968
21
-8.5625
31
0
39
0
210
0
220
0
230
1
0
LINE
5
14E
100
AcDbEntity
8
2
62
256
6
ByLayer
370
13
48
1
60
0
100
AcDbLine
10
40.695468
20
-13.5625
30
0
11
62.207968
21
-13.5625
31
0
39
0
210
0
220
0
230
1
0
LINE
5
14F
100
AcDbEntity
8
2
62
256
6
ByLayer
370
13
48
1
60
0
100
AcDbLine
10
60.207968
20
0.1875
30
0
11
60.207968
21
-22.3125
31
0
39
0
210
0
220
0
230
1
0
SOLID
5
150
100
AcDbEntity
8
2
62
256
6
ByLayer
370
18
48
1
60
0
100
AcDbTrace
10
60.207968
20
-8.5625
30
0
11
59.747184
21
-5.062502
31
0
12
60.668751
22
-5.062498
32
0
13
60.668751
23
-5.062498
33
0
39
0
210
0
220
0
230
1
0
SOLID
5
151
100
AcDbEntity
8
2
62
256
6
ByLayer
370
18
48
1
60
0
100
AcDbTrace
10
60.207968
20
-13.5625
30
0
11
60.668751
21
-17.062498
31
0
12
59.747184
22
-17.062502
32
0
13
59.747184
23
-17.062502
33
0
39
0
210
0
220
0
230
1
0
ENDBLK
5
153
100
AcDbEntity
8
0
100
AcDbBlockEnd
0
BLOCK
5
158
100
AcDbEntity
8
0
100
AcDbBlockBegin
2
*D5
70
1
10
0
20
0
30
0
3
*D5
0
LINE
5
15A
100
AcDbEntity
8
0
62
256
6
ByLayer
370
-2
48
1
60
0
100
AcDbLine
10
-112.479532
20
12.4375
30
0
11
-124.492032
21
12.4375
31
0
39
0
210
0
220
0
230
1
0
LINE
5
15B
100
AcDbEntity
8
0
62
256
6
ByLayer
370
-2
48
1
60
0
100
AcDbLine
10
-112.479532
20
-12.5625
30
0
11
-124.492032
21
-12.5625
31
0
39
0
210
0
220
0
230
1
0
LINE
5
15C
100
AcDbEntity
8
0
62
256
6
ByLayer
370
-2
48
1
60
0
100
AcDbLine
10
-122.492032
20
8.9375
30
0
11
-122.492032
21
-9.0625
31
0
39
0
210
0
220
0
230
1
0
SOLID
5
15D
100
AcDbEntity
8
0
62
256
6
ByLayer
370
-1
48
1
60
0
100
AcDbTrace
10
-121.908699
20
8.9375
30
0
11
-123.075366
21
8.9375
31
0
12
-122.492032
22
12.4375
32
0
13
-122.492032
23
12.4375
33
0
39
0
210
0
220
0
230
1
0
SOLID
5
15E
100
AcDbEntity
8
0
62
256
6
ByLayer
370
-1
48
1
60
0
100
AcDbTrace
10
-123.075366
20
-9.0625
30
0
11
-121.908699
21
-9.0625
31
0
12
-122.492032
22
-12.5625
32
0
13
-122.492032
23
-12.5625
33
0
39
0
210
0
220
0
230
1
0
MTEXT
5
15F
100
AcDbEntity
8
0
62
256
6
ByLayer
370
18
48
1
60
0
100
AcDbMText
10
-129.492032
20
-0.0625
30
0
210
0
220
0
230
1
1
\A1;25
40
3.5
41
0
44
1
50
90
71
5
72
5
7
iso_b_vert
0
POINT
5
160
100
AcDbEntity
8
Defpoints
62
0
6
ByLayer
370
-1
48
1
60
0
100
AcDbPoint
10
-110.892032
20
12.4375
30
0
39
0
210
0
220
0
230
1
50
360
0
POINT
5
161
100
AcDbEntity
8
Defpoints
62
0
6
ByLayer
370
-1
48
1
60
0
100
AcDbPoint
10
-110.892032
20
-12.5625
30
0
39
0
210
0
220
0
230
1
50
360
0
POINT
5
162
100
AcDbEntity
8
Defpoints
62
0
6
ByLayer
370
-1
48
1
60
0
100
AcDbPoint
10
-122.492032
20
-12.5625
30
0
39
0
210
0
220
0
230
1
50
360
0
ENDBLK
5
159
100
AcDbEntity
8
0
100
AcDbBlockEnd
0
BLOCK
5
16B
100
AcDbEntity
8
0
100
AcDbBlockBegin
2
_U2
70
0
10
0
20
0
30
0
3
_U2
0
MTEXT
5
165
100
AcDbEntity
8
SK2
62
256
6
ByLayer
370
18
48
1
60
0
100
AcDbMText
10
-123.181666
20
-1.995466
30
0
210
0
220
0
230
1
1
\W0.6740;25
40
3.5
41
0
44
1.084337
50
90
71
7
72
5
7
iso_b_vert
0
LINE
5
166
100
AcDbEntity
8
SK2
62
256
6
ByLayer
370
13
48
1
60
0
100
AcDbLine
10
-112.479532
20
12.4375
30
0
11
-124.492032
21
12.4375
31
0
39
0
210
0
220
0
230
1
0
LINE
5
167
100
AcDbEntity
8
SK2
62
256
6
ByLayer
370
13
48
1
60
0
100
AcDbLine
10
-112.479532
20
-12.5625
30
0
11
-124.492032
21
-12.5625
31
0
39
0
210
0
220
0
230
1
0
LINE
5
168
100
AcDbEntity
8
SK2
62
256
6
ByLayer
370
13
48
1
60
0
100
AcDbLine
10
-122.492032
20
12.4375
30
0
11
-122.492032
21
-12.5625
31
0
39
0
210
0
220
0
230
1
0
SOLID
5
169
100
AcDbEntity
8
SK2
62
256
6
ByLayer
370
18
48
1
60
0
100
AcDbTrace
10
-122.492032
20
12.4375
30
0
11
-122.031249
21
8.937502
31
0
12
-122.952816
22
8.937498
32
0
13
-122.952816
23
8.937498
33
0
39
0
210
0
220
0
230
1
0
SOLID
5
16A
100
AcDbEntity
8
SK2
62
256
6
ByLayer
370
18
48
1
60
0
100
AcDbTrace
10
-122.492032
20
-12.5625
30
0
11
-122.952816
21
-9.062502
31
0
12
-122.031249
22
-9.062498
32
0
13
-122.031249
23
-9.062498
33
0
39
0
210
0
220
0
230
1
0
ENDBLK
5
16C
100
AcDbEntity
8
0
100
AcDbBlockEnd
0
BLOCK
5
171
100
AcDbEntity
8
0
100
AcDbBlockBegin
2
*D7
70
1
10
0
20
0
30
0
3
*D7
0
LINE
5
173
100
AcDbEntity
8
0
62
256
6
ByLayer
370
-2
48
1
60
0
100
AcDbLine
10
21.107968
20
-7.3
30
0
11
21.107968
21
20.6875
31
0
39
0
210
0
220
0
230
1
0
LINE
5
174
100
AcDbEntity
8
0
62
256
6
ByLayer
370
-2
48
1
60
0
100
AcDbLine
10
39.107968
20
-11.975
30
0
11
39.107968
21
20.6875
31
0
39
0
210
0
220
0
230
1
0
LINE
5
175
100
AcDbEntity
8
0
62
256
6
ByLayer
370
-2
48
1
60
0
100
AcDbLine
10
24.607968
20
18.6875
30
0
11
35.607968
21
18.6875
31
0
39
0
210
0
220
0
230
1
0
SOLID
5
176
100
AcDbEntity
8
0
62
256
6
ByLayer
370
-1
48
1
60
0
100
AcDbTrace
10
24.607968
20
19.270833
30
0
11
24.607968
21
18.104167
31
0
12
21.107968
22
18.6875
32
0
13
21.107968
23
18.6875
33
0
39
0
210
0
220
0
230
1
0
SOLID
5
177
100
AcDbEntity
8
0
62
256
6
ByLayer
370
-1
48
1
60
0
100
AcDbTrace
10
35.607968
20
18.104167
30
0
11
35.607968
21
19.270833
31
0
12
39.107968
22
18.6875
32
0
13
39.107968
23
18.6875
33
0
39
0
210
0
220
0
230
1
0
MTEXT
5
178
100
AcDbEntity
8
0
62
256
6
ByLayer
370
18
48
1
60
0
100
AcDbMText
10
30.107968
20
25.6875
30
0
210
0
220
0
230
1
1
\A1;18
40
3.5
41
0
44
1
50
0
71
5
72
5
7
iso_b_vert
0
POINT
5
179
100
AcDbEntity
8
Defpoints
62
0
6
ByLayer
370
-1
48
1
60
0
100
AcDbPoint
10
21.107968
20
-8.8875
30
0
39
0
210
0
220
0
230
1
50
360
0
POINT
5
17A
100
AcDbEntity
8
Defpoints
62
0
6
ByLayer
370
-1
48
1
60
0
100
AcDbPoint
10
39.107968
20
-13.5625
30
0
39
0
210
0
220
0
230
1
50
360
0
POINT
5
17B
100
AcDbEntity
8
Defpoints
62
0
6
ByLayer
370
-1
48
1
60
0
100
AcDbPoint
10
39.107968
20
18.6875
30
0
39
0
210
0
220
0
230
1
50
360
0
ENDBLK
5
172
100
AcDbEntity
8
0
100
AcDbBlockEnd
0
BLOCK
5
183
100
AcDbEntity
8
0
100
AcDbBlockBegin
2
_U3
70
0
10
0
20
0
30
0
3
_U3
0
MTEXT
5
17D
100
AcDbEntity
8
2
62
256
6
ByLayer
370
18
48
1
60
0
100
AcDbMText
10
28.640435
20
19.720134
30
0
210
0
220
0
230
1
1
\W0.5321;18
40
3.5
41
0
44
1.084337
50
0
71
7
72
5
7
iso_b_vert
0
LINE
5
17E
100
AcDbEntity
8
2
62
256
6
ByLayer
370
13
48
1
60
0
100
AcDbLine
10
21.107968
20
-7.3
30
0
11
21.107968
21
20.6875
31
0
39
0
210
0
220
0
230
1
0
LINE
5
17F
100
AcDbEntity
8
2
62
256
6
ByLayer
370
13
48
1
60
0
100
AcDbLine
10
39.107968
20
-11.975
30
0
11
39.107968
21
20.6875
31
0
39
0
210
0
220
0
230
1
0
LINE
5
180
100
AcDbEntity
8
2
62
256
6
ByLayer
370
13
48
1
60
0
100
AcDbLine
10
21.107968
20
18.6875
30
0
11
39.107968
21
18.6875
31
0
39
0
210
0
220
0
230
1
0
SOLID
5
181
100
AcDbEntity
8
2
62
256
6
ByLayer
370
18
48
1
60
0
100
AcDbTrace
10
21.107968
20
18.6875
30
0
11
24.607966
21
19.148284
31
0
12
24.607969
22
18.226716
32
0
13
24.607969
23
18.226716
33
0
39
0
210
0
220
0
230
1
0
SOLID
5
182
100
AcDbEntity
8
2
62
256
6
ByLayer
370
18
48
1
60
0
100
AcDbTrace
10
39.107968
20
18.6875
30
0
11
35.607969
21
18.226716
31
0
12
35.607966
22
19.148284
32
0
13
35.607966
23
19.148284
33
0
39
0
210
0
220
0
230
1
0
ENDBLK
5
184
100
AcDbEntity
8
0
100
AcDbBlockEnd
0
BLOCK
5
189
100
AcDbEntity
8
0
100
AcDbBlockBegin
2
*D9
70
1
10
0
20
0
30
0
3
*D9
0
LINE
5
18B
100
AcDbEntity
8
0
62
256
6
ByLayer
370
-2
48
1
60
0
100
AcDbLine
10
-110.892032
20
14.025
30
0
11
-110.892032
21
36.6875
31
0
39
0
210
0
220
0
230
1
0
LINE
5
18C
100
AcDbEntity
8
0
62
256
6
ByLayer
370
-2
48
1
60
0
100
AcDbLine
10
39.107968
20
-11.975
30
0
11
39.107968
21
36.6875
31
0
39
0
210
0
220
0
230
1
0
LINE
5
18D
100
AcDbEntity
8
0
62
256
6
ByLayer
370
-2
48
1
60
0
100
AcDbLine
10
-107.392032
20
34.6875
30
0
11
35.607968
21
34.6875
31
0
39
0
210
0
220
0
230
1
0
SOLID
5
18E
100
AcDbEntity
8
0
62
256
6
ByLayer
370
-1
48
1
60
0
100
AcDbTrace
10
-107.392032
20
35.270833
30
0
11
-107.392032
21
34.104167
31
0
12
-110.892032
22
34.6875
32
0
13
-110.892032
23
34.6875
33
0
39
0
210
0
220
0
230
1
0
SOLID
5
18F
100
AcDbEntity
8
0
62
256
6
ByLayer
370
-1
48
1
60
0
100
AcDbTrace
10
35.607968
20
34.104167
30
0
11
35.607968
21
35.270833
31
0
12
39.107968
22
34.6875
32
0
13
39.107968
23
34.6875
33
0
39
0
210
0
220
0
230
1
0
MTEXT
5
190
100
AcDbEntity
8
0
62
256
6
ByLayer
370
18
48
1
60
0
100
AcDbMText
10
-35.892032
20
41.6875
30
0
210
0
220
0
230
1
1
\A1;150
40
3.5
41
0
44
1
50
0
71
5
72
5
7
iso_b_vert
0
POINT
5
191
100
AcDbEntity
8
Defpoints
62
0
6
ByLayer
370
-1
48
1
60
0
100
AcDbPoint
10
-110.892032
20
12.4375
30
0
39
0
210
0
220
0
230
1
50
360
0
POINT
5
192
100
AcDbEntity
8
Defpoints
62
0
6
ByLayer
370
-1
48
1
60
0
100
AcDbPoint
10
39.107968
20
-13.5625
30
0
39
0
210
0
220
0
230
1
50
360
0
POINT
5
193
100
AcDbEntity
8
Defpoints
62
0
6
ByLayer
370
-1
48
1
60
0
100
AcDbPoint
10
39.107968
20
34.6875
30
0
39
0
210
0
220
0
230
1
50
360
0
ENDBLK
5
18A
100
AcDbEntity
8
0
100
AcDbBlockEnd
0
BLOCK
5
19B
100
AcDbEntity
8
0
100
AcDbBlockBegin
2
_U4
70
0
10
0
20
0
30
0
3
_U4
0
MTEXT
5
195
100
AcDbEntity
8
SK2
62
256
6
ByLayer
370
18
48
1
60
0
100
AcDbMText
10
-38.667298
20
35.720134
30
0
210
0
220
0
230
1
1
\W0.6217;150
40
3.5
41
0
44
1.084337
50
0
71
7
72
5
7
iso_b_vert
0
LINE
5
196
100
AcDbEntity
8
SK2
62
256
6
ByLayer
370
13
48
1
60
0
100
AcDbLine
10
-110.892032
20
14.025
30
0
11
-110.892032
21
36.6875
31
0
39
0
210
0
220
0
230
1
0
LINE
5
197
100
AcDbEntity
8
SK2
62
256
6
ByLayer
370
13
48
1
60
0
100
AcDbLine
10
39.107968
20
-11.975
30
0
11
39.107968
21
36.6875
31
0
39
0
210
0
220
0
230
1
0
LINE
5
198
100
AcDbEntity
8
SK2
62
256
6
ByLayer
370
13
48
1
60
0
100
AcDbLine
10
-110.892032
20
34.6875
30
0
11
39.107968
21
34.6875
31
0
39
0
210
0
220
0
230
1
0
SOLID
5
199
100
AcDbEntity
8
SK2
62
256
6
ByLayer
370
18
48
1
60
0
100
AcDbTrace
10
-110.892032
20
34.6875
30
0
11
-107.392034
21
35.148284
31
0
12
-107.392031
22
34.226716
32
0
13
-107.392031
23
34.226716
33
0
39
0
210
0
220
0
230
1
0
SOLID
5
19A
100
AcDbEntity
8
SK2
62
256
6
ByLayer
370
18
48
1
60
0
100
AcDbTrace
10
39.107968
20
34.6875
30
0
11
35.607969
21
34.226716
31
0
12
35.607966
22
35.148284
32
0
13
35.607966
23
35.148284
33
0
39
0
210
0
220
0
230
1
0
ENDBLK
5
19C
100
AcDbEntity
8
0
100
AcDbBlockEnd
0
ENDSEC
0
SECTION
2
ENTITIES
0
ARC
5
C7
100
AcDbEntity
8
1
62
256
6
ByLayer
370
18
48
1
60
0
100
AcDbCircle
39
0
10
21.107968
20
-7.2875
30
0
40
1.6
210
0
220
0
230
1
100
AcDbArc
50
180
51
193.547694
0
ARC
5
C9
100
AcDbEntity
8
1
62
256
6
ByLayer
370
18
48
1
60
0
100
AcDbCircle
39
0
10
14.407968
20
-13.2625
30
0
40
0.3
210
0
220
0
230
1
100
AcDbArc
50
195.006694
51
272.5
0
ARC
5
CA
100
AcDbEntity
8
1
62
256
6
ByLayer
370
18
48
1
60
0
100
AcDbCircle
39
0
10
38.807968
20
-13.2625
30
0
40
0.3
210
0
220
0
230
1
100
AcDbArc
50
267.5
51
0
0
ARC
5
CB
100
AcDbEntity
8
1
62
256
6
ByLayer
370
18
48
1
60
0
100
AcDbCircle
39
0
10
38.807968
20
-8.8625
30
0
40
0.3
210
0
220
0
230
1
100
AcDbArc
50
0
51
92.5
0
ARC
5
CC
100
AcDbEntity
8
1
62
256
6
ByLayer
370
18
48
1
60
0
100
AcDbCircle
39
0
10
31.664407
20
-10.395201
30
0
40
0.100000000015599
210
0
220
0
230
1
100
AcDbArc
50
190.000001
51
218.049181
0
ARC
5
CD
100
AcDbEntity
8
1
62
256
6
ByLayer
370
18
48
1
60
0
100
AcDbCircle
39
0
10
31.664407
20
-11.729799
30
0
40
0.100000000015599
210
0
220
0
230
1
100
AcDbArc
50
141.950819
51
169.999999
0
ARC
5
CE
100
AcDbEntity
8
1
62
256
6
ByLayer
370
18
48
1
60
0
100
AcDbCircle
39
0
10
12.757968
20
-0.9125
30
0
40
2.1768
210
0
220
0
230
1
100
AcDbArc
50
150
51
210
0
ARC
5
CF
100
AcDbEntity
8
1
62
256
6
ByLayer
370
18
48
1
60
0
100
AcDbCircle
39
0
10
12.757968
20
-0.9125
30
0
40
2.1768
210
0
220
0
230
1
100
AcDbArc
50
210
51
270
0
ARC
5
D0
100
AcDbEntity
8
1
62
256
6
ByLayer
370
18
48
1
60
0
100
AcDbCircle
39
0
10
12.757968
20
-0.9125
30
0
40
2.1768
210
0
220
0
230
1
100
AcDbArc
50
270
51
330
0
ARC
5
D1
100
AcDbEntity
8
1
62
256
6
ByLayer
370
18
48
1
60
0
100
AcDbCircle
39
0
10
12.757968
20
-0.9125
30
0
40
2.1768
210
0
220
0
230
1
100
AcDbArc
50
330
51
30
0
ARC
5
D2
100
AcDbEntity
8
1
62
256
6
ByLayer
370
18
48
1
60
0
100
AcDbCircle
39
0
10
12.757968
20
-0.9125
30
0
40
2.1768
210
0
220
0
230
1
100
AcDbArc
50
30
51
90
0
ARC
5
D3
100
AcDbEntity
8
1
62
256
6
ByLayer
370
18
48
1
60
0
100
AcDbCircle
39
0
10
12.757968
20
-0.9125
30
0
40
2.1768
210
0
220
0
230
1
100
AcDbArc
50
90
51
150
0
ARC
5
D6
100
AcDbEntity
8
1
62
256
6
ByLayer
370
18
48
1
60
0
100
AcDbCircle
39
0
10
12.757968
20
-0.9125
30
0
40
2.8067
210
0
220
0
230
1
100
AcDbArc
50
180
51
240
0
ARC
5
D7
100
AcDbEntity
8
1
62
256
6
ByLayer
370
18
48
1
60
0
100
AcDbCircle
39
0
10
12.757968
20
-0.9125
30
0
40
2.8067
210
0
220
0
230
1
100
AcDbArc
50
360
51
60
0
ARC
5
D8
100
AcDbEntity
8
1
62
256
6
ByLayer
370
18
48
1
60
0
100
AcDbCircle
39
0
10
12.757968
20
-0.9125
30
0
40
2.8067
210
0
220
0
230
1
100
AcDbArc
50
240
51
300
0
ARC
5
D9
100
AcDbEntity
8
1
62
256
6
ByLayer
370
18
48
1
60
0
100
AcDbCircle
39
0
10
12.757968
20
-0.9125
30
0
40
2.8067
210
0
220
0
230
1
100
AcDbArc
50
60
51
120
0
ARC
5
DA
100
AcDbEntity
8
1
62
256
6
ByLayer
370
18
48
1
60
0
100
AcDbCircle
39
0
10
12.757968
20
-0.9125
30
0
40
2.8067
210
0
220
0
230
1
100
AcDbArc
50
300
51
360
0
ARC
5
DB
100
AcDbEntity
8
1
62
256
6
ByLayer
370
18
48
1
60
0
100
AcDbCircle
39
0
10
12.757968
20
-0.9125
30
0
40
2.8067
210
0
220
0
230
1
100
AcDbArc
50
120
51
180
0
CIRCLE
5
C8
100
AcDbEntity
8
1
62
256
6
ByLayer
370
18
48
1
60
0
100
AcDbCircle
10
12.757968
20
-0.9125
30
0
40
5.75
39
0
210
0
220
0
230
1
0
CIRCLE
5
D4
100
AcDbEntity
8
1
62
256
6
ByLayer
370
13
48
1
60
0
100
AcDbCircle
10
12.757968
20
-0.9125
30
0
40
4.55
39
0
210
0
220
0
230
1
0
CIRCLE
5
D5
100
AcDbEntity
8
1
62
256
6
ByLayer
370
18
48
1
60
0
100
AcDbCircle
10
12.757968
20
-0.9125
30
0
40
5.35
39
0
210
0
220
0
230
1
0
ELLIPSE
5
DC
100
AcDbEntity
8
1
62
256
6
ByLayer
370
18
48
1
60
0
100
AcDbEllipse
10
32.353005
20
-258.763558
30
0
11
291.256046781345
21
-4.24447271030622E-05
31
0
210
0
220
0
230
1
40
0.84299
41
1.57709415422117
42
1.58708880533039
0
ELLIPSE
5
DD
100
AcDbEntity
8
1
62
256
6
ByLayer
370
18
48
1
60
0
100
AcDbEllipse
10
47.526508
20
-258.762499
30
0
11
1.50335737150133E-14
21
245.524999410444
31
0
210
0
220
0
230
1
40
0.723618
41
0.0530373861276939
42
0.101999397995888
0
ELLIPSE
5
DE
100
AcDbEntity
8
1
62
256
6
ByLayer
370
18
48
1
60
0
100
AcDbEllipse
10
32.35299
20
-101.062511
30
0
11
109.34312144591
21
1.2809058619801E-13
31
0
210
0
220
0
230
1
40
0.842989
41
1.58753742771786
42
1.61420567077293
0
ELLIPSE
5
DF
100
AcDbEntity
8
1
62
256
6
ByLayer
370
18
48
1
60
0
100
AcDbEllipse
10
-1079.086801
20
-99.908651
30
0
11
7103.90129922898
21
15.7322639352747
31
0
210
0
220
0
230
1
40
0.01262
41
1.41392898383689
42
1.41527058008367
0
ELLIPSE
5
E0
100
AcDbEntity
8
1
62
256
6
ByLayer
370
18
48
1
60
0
100
AcDbEllipse
10
33.32056
20
-258.762316
30
0
11
350.645907881705
21
4.10766029856933E-13
31
0
210
0
220
0
230
1
40
0.700207
41
1.58708867365621
42
1.59971799493838
0
ELLIPSE
5
E1
100
AcDbEntity
8
1
62
256
6
ByLayer
370
18
48
1
60
0
100
AcDbEllipse
10
33.32056
20
-101.0625
30
0
11
131.639542497801
21
1.54209848250238E-13
31
0
210
0
220
0
230
1
40
0.700208
41
1.61420567341325
42
1.66370290032403
0
ELLIPSE
5
E2
100
AcDbEntity
8
1
62
256
6
ByLayer
370
18
48
1
60
0
100
AcDbEllipse
10
0.133975
20
-258.762482
30
0
11
1.50335726446112E-14
21
245.524981928875
31
0
210
0
220
0
230
1
40
0.267949
41
-0.0289216583712848
42
-0.00528886657662963
0
ELLIPSE
5
E3
100
AcDbEntity
8
1
62
256
6
ByLayer
370
18
48
1
60
0
100
AcDbEllipse
10
31.454322
20
-9.203751
30
0
11
0.0995927298029791
21
0.00901612433284627
31
0
210
0
220
0
230
1
40
1
41
3.05130882282367
42
-3.05734356937914
0
ELLIPSE
5
E4
100
AcDbEntity
8
1
62
256
6
ByLayer
370
18
48
1
60
0
100
AcDbEllipse
10
31.454322
20
-12.921249
30
0
11
0.0995927298029791
21
-0.00901612433284627
31
0
210
0
220
0
230
1
40
1
41
3.05734356937912
42
-3.05130882282367
0
ELLIPSE
5
E5
100
AcDbEntity
8
SK1
62
256
6
ByLayer
370
18
48
1
60
0
100
AcDbEllipse
10
-2.415859
20
12.447099
30
0
11
2.99999999999971
21
3.51436609374723E-15
31
0
210
0
220
0
230
1
40
0.004363
41
-2.31838067646419
42
-1.13877025635174
0
POINT
5
70
100
AcDbEntity
8
81
62
256
6
ByLayer
370
18
48
1
60
0
100
AcDbPoint
10
39.107968
20
-13.5625
30
0
39
0
210
0
220
0
230
1
50
360
0
POINT
5
72
100
AcDbEntity
8
80
62
256
6
ByLayer
370
18
48
1
60
0
100
AcDbPoint
10
0
20
0
30
0
39
0
210
0
220
0
230
1
50
360
0
POINT
5
74
100
AcDbEntity
8
1
62
256
6
ByLayer
370
18
48
1
60
1
100
AcDbPoint
10
39.107968
20
-13.5625
30
0
39
0
210
0
220
0
230
1
50
360
0
POINT
5
76
100
AcDbEntity
8
1
62
256
6
ByLayer
370
18
48
1
60
1
100
AcDbPoint
10
-110.892032
20
12.4375
30
0
39
0
210
0
220
0
230
1
50
360
0
POINT
5
77
100
AcDbEntity
8
1
62
256
6
ByLayer
370
18
48
1
60
1
100
AcDbPoint
10
39.107968
20
-8.5625
30
0
39
0
210
0
220
0
230
1
50
360
0
POINT
5
78
100
AcDbEntity
8
1
62
256
6
ByLayer
370
18
48
1
60
1
100
AcDbPoint
10
39.107968
20
-13.5625
30
0
39
0
210
0
220
0
230
1
50
360
0
POINT
5
79
100
AcDbEntity
8
1
62
256
6
ByLayer
370
18
48
1
60
1
100
AcDbPoint
10
-110.892032
20
12.4375
30
0
39
0
210
0
220
0
230
1
50
360
0
POINT
5
7A
100
AcDbEntity
8
1
62
256
6
ByLayer
370
18
48
1
60
1
100
AcDbPoint
10
-110.892032
20
-12.5625
30
0
39
0
210
0
220
0
230
1
50
360
0
POINT
5
7B
100
AcDbEntity
8
1
62
256
6
ByLayer
370
18
48
1
60
1
100
AcDbPoint
10
21.107968
20
-8.8875
30
0
39
0
210
0
220
0
230
1
50
360
0
POINT
5
7C
100
AcDbEntity
8
1
62
256
6
ByLayer
370
18
48
1
60
1
100
AcDbPoint
10
39.107968
20
-13.5625
30
0
39
0
210
0
220
0
230
1
50
360
0
POINT
5
7D
100
AcDbEntity
8
1
62
256
6
ByLayer
370
18
48
1
60
1
100
AcDbPoint
10
-110.892032
20
12.4375
30
0
39
0
210
0
220
0
230
1
50
360
0
POINT
5
7E
100
AcDbEntity
8
1
62
256
6
ByLayer
370
18
48
1
60
1
100
AcDbPoint
10
39.107968
20
-13.5625
30
0
39
0
210
0
220
0
230
1
50
360
0
SPLINE
5
E6
100
AcDbEntity
8
1
62
256
6
ByLayer
370
18
48
1
60
0
100
AcDbSpline
70
4
71
3
72
12
73
8
40
0
40
0
40
0
40
0
40
0.249999999999991
40
0.249999999999991
40
0.499999999999982
40
0.499999999999982
40
1
40
1
40
1
40
1
41
1
10
1.421E-13
20
-13.0114903551089
30
0
41
1
10
0.0147486389304561
20
-13.0291385770234
30
0
41
1
10
0.0291750735423477
20
-13.0471777658981
30
0
41
1
10
0.05718241027418
20
-13.0837972312332
30
0
41
1
10
0.0707693632801352
20
-13.102381290741
30
0
41
1
10
0.110315666154634
20
-13.1589946821261
30
0
41
1
10
0.135063655890519
20
-13.1978773907042
30
0
41
1
10
0.158252873818384
20
-13.2380812260662
30
0
0
SPLINE
5
E7
100
AcDbEntity
8
1
62
256
6
ByLayer
370
18
48
1
60
0
100
AcDbSpline
70
4
71
3
72
14
73
10
40
0
40
0
40
0
40
0
40
0.25
40
0.25
40
0.5
40
0.5
40
0.75
40
0.75
40
1
40
1
40
1
40
1
41
1
10
30.615113930741
20
-12.7889678332875
30
0
41
1
10
30.6365684169112
20
-12.68799912548
30
0
41
1
10
30.6562871416618
20
-12.5863690048676
30
0
41
1
10
30.6941078774266
20
-12.3824927140205
30
0
41
1
10
30.7121591903266
20
-12.2802489621615
30
0
41
1
10
30.7472519962332
20
-12.0755459385157
30
0
41
1
10
30.7642867465845
20
-11.9730561903268
30
0
41
1
10
30.7976987267546
20
-11.767899047537
30
0
41
1
10
30.8140719316688
20
-11.6652305655026
30
0
41
1
10
30.8302153477876
20
-11.5625
30
0
0
SPLINE
5
E8
100
AcDbEntity
8
1
62
256
6
ByLayer
370
18
48
1
60
0
100
AcDbSpline
70
4
71
3
72
8
73
4
40
0
40
0
40
0
40
0
40
1
40
1
40
1
40
1
41
1
10
31.0271257792798
20
-11.4784227623865
30
0
41
1
10
30.9616597633984
20
-11.507271147779
30
0
41
1
10
30.8960855537288
20
-11.5355984131964
30
0
41
1
10
30.8302153477876
20
-11.5625
30
0
0
SPLINE
5
E9
100
AcDbEntity
8
1
62
256
6
ByLayer
370
18
48
1
60
0
100
AcDbSpline
70
4
71
3
72
20
73
16
40
0
40
0
40
0
40
0
40
0.125000000000034
40
0.125000000000034
40
0.250000000000069
40
0.250000000000069
40
0.375000000000103
40
0.375000000000103
40
0.500000000000137
40
0.500000000000137
40
0.625000000000171
40
0.625000000000171
40
0.750000000000205
40
0.750000000000205
40
1
40
1
40
1
40
1
41
1
10
31.1079675788694
20
-11.3374688692701
30
0
41
1
10
31.1079675788694
20
-11.3453893156454
30
0
41
1
10
31.1074607871041
20
-11.3532425880657
30
0
41
1
10
31.1054464872661
20
-11.368816490514
30
0
41
1
10
31.1039382341003
20
-11.3764820096556
30
0
41
1
10
31.1000349899855
20
-11.3912308118808
30
0
41
1
10
31.0976335769425
20
-11.3983683739999
30
0
41
1
10
31.0919343358607
20
-11.4121714878333
30
0
41
1
10
31.0886149272941
20
-11.4188528991704
30
0
41
1
10
31.0813341354953
20
-11.431254614299
30
0
41
1
10
31.0773490077084
20
-11.4370431644952
30
0
41
1
10
31.0687115475183
20
-11.4478222726242
30
0
41
1
10
31.0640159096367
20
-11.4528494779288
30
0
41
1
10
31.0492453454356
20
-11.466387719873
30
0
41
1
10
31.0385771767406
20
-11.4733765666957
30
0
41
1
10
31.0271257792798
20
-11.4784227623865
30
0
0
SPLINE
5
EA
100
AcDbEntity
8
1
62
256
6
ByLayer
370
18
48
1
60
0
100
AcDbSpline
70
4
71
3
72
18
73
14
40
0
40
0
40
0
40
0
40
0.125000000000051
40
0.125000000000051
40
0.250000000000102
40
0.250000000000102
40
0.375000000000153
40
0.375000000000153
40
0.500000000000204
40
0.500000000000204
40
0.750000000000102
40
0.750000000000102
40
1
40
1
40
1
40
1
41
1
10
31.0271257792801
20
-10.6465772376137
30
0
41
1
10
31.0328489567552
20
-10.6490992244377
30
0
41
1
10
31.0383871450721
20
-10.6521203164928
30
0
41
1
10
31.0490910285897
20
-10.6591674960561
30
0
41
1
10
31.0542858359855
20
-10.6632208978465
30
0
41
1
10
31.0641365664652
20
-10.6722727290416
30
0
41
1
10
31.0687590323546
20
-10.6772311583368
30
0
41
1
10
31.0773940441613
20
-10.6880189291369
30
0
41
1
10
31.0814223162421
20
-10.6938746660172
30
0
41
1
10
31.0924216759353
20
-10.7126741512117
30
0
41
1
10
31.0981161574226
20
-10.7264348946635
30
0
41
1
10
31.105982063428
20
-10.7563259354211
30
0
41
1
10
31.1079675788577
20
-10.7717066707605
30
0
41
1
10
31.1079675788577
20
-10.7875311307315
30
0
0
SPLINE
5
EB
100
AcDbEntity
8
1
62
256
6
ByLayer
370
18
48
1
60
0
100
AcDbSpline
70
4
71
3
72
8
73
4
40
0
40
0
40
0
40
0
40
1
40
1
40
1
40
1
41
1
10
30.8302153477876
20
-10.5625
30
0
41
1
10
30.8961025793965
20
-10.5894085401366
30
0
41
1
10
30.9616721404867
20
-10.6177343063335
30
0
41
1
10
31.0271257792801
20
-10.6465772376137
30
0
0
SPLINE
5
EC
100
AcDbEntity
8
1
62
256
6
ByLayer
370
18
48
1
60
0
100
AcDbSpline
70
4
71
3
72
14
73
10
40
0
40
0
40
0
40
0
40
0.25
40
0.25
40
0.5
40
0.5
40
0.75
40
0.75
40
1
40
1
40
1
40
1
41
1
10
30.8302153477876
20
-10.5625
30
0
41
1
10
30.8140608614963
20
-10.4596989881265
30
0
41
1
10
30.7976759958522
20
-10.3569583240908
30
0
41
1
10
30.764238701527
20
-10.1516518640596
30
0
41
1
10
30.7471949994158
20
-10.0491145468622
30
0
41
1
10
30.7120997032048
20
-9.8444111028536
30
0
41
1
10
30.6940593525021
20
-9.74223944771586
30
0
41
1
10
30.6562657837833
20
-9.53852213505337
30
0
41
1
10
30.6365595817618
20
-9.43695929470309
30
0
41
1
10
30.6151139307407
20
-9.33603216671258
30
0
0
SPLINE
5
ED
100
AcDbEntity
8
1
62
256
6
ByLayer
370
18
48
1
60
0
100
AcDbSpline
70
4
71
2
72
6
73
3
40
0
40
0
40
0
40
1
40
1
40
1
41
0.500005806479296
10
31.9143727860886
20
-13.2815126277098
30
0
41
0.499994193520704
10
30.6795317754551
20
-13.2819876516325
30
0
41
0.500005806479296
10
29.4447402489571
20
-13.2824678019691
30
0
0
SPLINE
5
EE
100
AcDbEntity
8
1
62
256
6
ByLayer
370
18
48
1
60
0
100
AcDbSpline
70
4
71
3
72
10
73
6
40
0
40
0
40
0
40
0
40
0.5
40
0.5
40
1
40
1
40
1
40
1
41
1
10
0.158252873818384
20
-13.2380812260662
30
0
41
1
10
0.2296918225517
20
-13.2383409234377
30
0
41
1
10
0.29232937965358
20
-13.2386963754514
30
0
41
1
10
0.400290038667407
20
-13.2396346550763
30
0
41
1
10
0.445615256151882
20
-13.240217353936
30
0
41
1
10
0.481918108147198
20
-13.2409339178562
30
0
0
SPLINE
5
EF
100
AcDbEntity
8
1
62
256
6
ByLayer
370
18
48
1
60
0
100
AcDbSpline
70
4
71
3
72
16
73
12
40
0
40
0
40
0
40
0
40
0.25948800538936
40
0.25948800538936
40
0.51897601077872
40
0.51897601077872
40
0.77846401616808
40
0.77846401616808
40
0.90820801886276
40
0.90820801886276
40
1
40
1
40
1
40
1
41
1
10
0.317758141296167
20
-13.6233895278359
30
0
41
1
10
0.299857300489663
20
-13.556582680448
30
0
41
1
10
0.279679143068819
20
-13.4984578837456
30
0
41
1
10
0.24055856239346
20
-13.399552594877
30
0
41
1
10
0.221626029348983
20
-13.3587721282129
30
0
41
1
10
0.189778590628663
20
-13.2945508867396
30
0
41
1
10
0.176888106450008
20
-13.2711101482828
30
0
41
1
10
0.164497310944512
20
-13.2489610531445
30
0
41
1
10
0.161509765438978
20
-13.2437467983756
30
0
41
1
10
0.158524663078992
20
-13.2385487599425
30
0
41
1
10
0.157908317666511
20
-13.2374812191882
30
0
41
1
10
0.157918503720452
20
-13.2375002889006
30
0
0
SPLINE
5
F0
100
AcDbEntity
8
1
62
256
6
ByLayer
370
18
48
1
60
0
100
AcDbSpline
70
4
71
3
72
16
73
12
40
0
40
0
40
0
40
0
40
0.124999999999996
40
0.124999999999996
40
0.249999999999991
40
0.249999999999991
40
0.499999999999994
40
0.499999999999994
40
0.749999999999997
40
0.749999999999997
40
1
40
1
40
1
40
1
41
1
10
21.1079675788577
20
-9.28502424854878
30
0
41
1
10
21.0744316335351
20
-9.28721219081208
30
0
41
1
10
21.0408580386577
20
-9.28835381922161
30
0
41
1
10
20.9736345648752
20
-9.2885170766117
30
0
41
1
10
20.9400102705398
20
-9.28753335261743
30
0
41
1
10
20.8398484452387
20
-9.28141359027561
30
0
41
1
10
20.7737486977164
20
-9.2731263480124
30
0
41
1
10
20.6429151653729
20
-9.24803507389339
30
0
41
1
10
20.5781809714271
20
-9.23123359293331
30
0
41
1
10
20.4501645318024
20
-9.18857772065439
30
0
41
1
10
20.3868810614129
20
-9.16273096541585
30
0
41
1
10
20.3244127444819
20
-9.13180172111313
30
0
0
SPLINE
5
F1
100
AcDbEntity
8
1
62
256
6
ByLayer
370
18
48
1
60
0
100
AcDbSpline
70
4
71
3
72
30
73
26
40
0
40
0
40
0
40
0
40
0.125000000000055
40
0.125000000000055
40
0.187500000000064
40
0.218750000000069
40
0.218750000000069
40
0.250000000000074
40
0.250000000000074
40
0.375000000000018
40
0.375000000000018
40
0.437499999999974
40
0.468749999999968
40
0.468749999999968
40
0.499999999999963
40
0.499999999999963
40
0.624999999999971
40
0.624999999999971
40
0.687499999999976
40
0.718749999999978
40
0.718749999999978
40
0.74999999999998
40
0.74999999999998
40
0.87499999999999
40
1
40
1
40
1
40
1
41
1
10
21.1079675788577
20
-8.90255542508254
30
0
41
1
10
21.0167903769988
20
-8.90257693187692
30
0
41
1
10
20.926930832972
20
-8.89488543890869
30
0
41
1
10
20.7940349337497
20
-8.87226495530106
30
0
41
1
10
20.728063014267
20
-8.85816823875496
30
0
41
1
10
20.6628130135858
20
-8.83984572139209
30
0
41
1
10
20.6194759581277
20
-8.82667690019667
30
0
41
1
10
20.5978373729926
20
-8.81959727219009
30
0
41
1
10
20.4907884980458
20
-8.78203346380084
30
0
41
1
10
20.4089285081807
20
-8.74520002010689
30
0
41
1
10
20.2915695140011
20
-8.68020281532222
30
0
41
1
10
20.234255381795
20
-8.64525378242089
30
0
41
1
10
20.1790114705641
20
-8.60658930854245
30
0
41
1
10
20.1426493844518
20
-8.57997452677131
30
0
41
1
10
20.124662389822
20
-8.56621632998281
30
0
41
1
10
20.036419948252
20
-8.49569837350458
30
0
41
1
10
19.9716261827016
20
-8.43418369185255
30
0
41
1
10
19.8827557861665
20
-8.33459536869788
30
0
41
1
10
19.8404123017946
20
-8.28296188684803
30
0
41
1
10
19.8012367569929
20
-8.22854272026112
30
0
41
1
10
19.7758341660037
20
-8.19163504372224
30
0
41
1
10
19.7634734380828
20
-8.17284116836649
30
0
41
1
10
19.7036677093475
20
-8.07756318088511
30
0
41
1
10
19.6222152157198
20
-7.91933206723635
30
0
41
1
10
19.567998445691
20
-7.75003130326084
30
0
41
1
10
19.5479782679086
20
-7.66250000000002
30
0
0
SPLINE
5
F2
100
AcDbEntity
8
1
62
256
6
ByLayer
370
18
48
1
60
0
100
AcDbSpline
70
4
71
3
72
9
73
5
40
0
40
0
40
0
40
0
40
0.5
40
1
40
1
40
1
40
1
41
1
10
19.5514945581529
20
-7.66250000000002
30
0
41
1
10
19.5525673097471
20
-7.66250000000002
30
0
41
1
10
19.553057396559
20
-7.66250000000002
30
0
41
1
10
19.5501511981952
20
-7.66250000000002
30
0
41
1
10
19.5479782679086
20
-7.66250000000002
30
0
0
SPLINE
5
F3
100
AcDbEntity
8
1
62
256
6
ByLayer
370
18
48
1
60
0
100
AcDbSpline
70
4
71
3
72
34
73
30
40
0
40
0
40
0
40
0
40
0.0625000000000139
40
0.0625000000000139
40
0.125000000000028
40
0.125000000000028
40
0.250000000000068
40
0.250000000000068
40
0.312500000000079
40
0.312500000000079
40
0.343750000000077
40
0.343750000000077
40
0.375000000000074
40
0.375000000000074
40
0.500000000000057
40
0.62500000000004
40
0.62500000000004
40
0.656250000000034
40
0.656250000000034
40
0.687500000000028
40
0.687500000000028
40
0.750000000000013
40
0.750000000000013
40
0.874999999999986
40
0.874999999999986
40
0.937499999999974
40
0.968749999999987
40
0.968749999999987
40
1
40
1
40
1
40
1
41
1
10
19.5079675788577
20
-7.73007998958781
30
0
41
1
10
19.5079675788578
20
-7.76572594308382
30
0
41
1
10
19.5091570028848
20
-7.80153351942167
30
0
41
1
10
19.5138658653987
20
-7.87250108022997
30
0
41
1
10
19.5173803545961
20
-7.90774904889679
30
0
41
1
10
19.5313352905755
20
-8.01279948583922
30
0
41
1
10
19.5451727286934
20
-8.08191142789141
30
0
41
1
10
19.5727267425679
20
-8.18419750102697
30
0
41
1
10
19.5830480111727
20
-8.21806181597989
30
0
41
1
10
19.6002682649091
20
-8.26850492370667
30
0
41
1
10
19.6062983175137
20
-8.28526034945864
30
0
41
1
10
19.6189470085465
20
-8.3186515556925
30
0
41
1
10
19.6255564408249
20
-8.33525985755546
30
0
41
1
10
19.6598309067304
20
-8.41740088498065
30
0
41
1
10
19.7228182914193
20
-8.54396287447841
30
0
41
1
10
19.8016365679237
20
-8.66107546219862
30
0
41
1
10
19.8559626053176
20
-8.73124777949215
30
0
41
1
10
19.8670820919961
20
-8.74513046462087
30
0
41
1
10
19.889836915009
20
-8.77258792609396
30
0
41
1
10
19.9014868912831
20
-8.78617772229012
30
0
41
1
10
19.9369587196315
20
-8.8261863100405
30
0
41
1
10
19.961373951266
20
-8.85193665507066
30
0
41
1
10
20.0368700538686
20
-8.92648358922216
30
0
41
1
10
20.0901917763272
20
-8.9725875601917
30
0
41
1
10
20.1746357057623
20
-9.03638274169478
30
0
41
1
10
20.2179766132415
20
-9.06693580533087
30
0
41
1
10
20.2630247234798
20
-9.09543748575038
30
0
41
1
10
20.2934418375232
20
-9.11397593941373
30
0
41
1
10
20.3088727006119
20
-9.12303044220346
30
0
41
1
10
20.3244127444816
20
-9.13180172111379
30
0
0
SPLINE
5
F4
100
AcDbEntity
8
1
62
256
6
ByLayer
370
18
48
1
60
0
100
AcDbSpline
70
4
71
3
72
18
73
14
40
0
40
0
40
0
40
0
40
0.106502320877223
40
0.20981972088771
40
0.309970050662984
40
0.40697292239881
40
0.500849920824853
40
0.591624858695446
40
0.679324076625659
40
0.763976789998124
40
0.845615488386566
40
0.924276395492708
40
1
40
1
40
1
40
1
41
1
10
31.6980862172678
20
-10.579414648177
30
0
41
1
10
31.6965091061935
20
-10.5787356963495
30
0
41
1
10
31.6934020470921
20
-10.5773980965508
30
0
41
1
10
31.6888919111762
20
-10.5750950376113
30
0
41
1
10
31.6845829023201
20
-10.5726336525213
30
0
41
1
10
31.6804802013749
20
-10.5700098420596
30
0
41
1
10
31.6765824890681
20
-10.5672475341628
30
0
41
1
10
31.6728900240874
20
-10.5643629608243
30
0
41
1
10
31.6694029509027
20
-10.5613731471596
30
0
41
1
10
31.6661204155718
20
-10.5582956455299
30
0
41
1
10
31.6630454487203
20
-10.5551415847493
30
0
41
1
10
31.6601672624499
20
-10.5519420074179
30
0
41
1
10
31.6583711657764
20
-10.5497081231617
30
0
41
1
10
31.6574902036077
20
-10.5486124318507
30
0
0
SPLINE
5
F5
100
AcDbEntity
8
1
62
256
6
ByLayer
370
18
48
1
60
0
100
AcDbSpline
70
4
71
3
72
16
73
12
40
0
40
0
40
0
40
0
40
0.117319552095921
40
0.233085853241645
40
0.347299362202276
40
0.459960556706174
40
0.571069934503135
40
0.680628014495697
40
0.788635337949857
40
0.895092469791749
40
1
40
1
40
1
40
1
41
1
10
31.8569129943077
20
-10.634767476298
30
0
41
1
10
31.8506453455753
20
-10.6329446731315
30
0
41
1
10
31.8381930285788
20
-10.6293231997813
30
0
41
1
10
31.8196868349079
20
-10.623608591244
30
0
41
1
10
31.8014648756093
20
-10.6177431101975
30
0
41
1
10
31.7835304222722
20
-10.6117133266253
30
0
41
1
10
31.7658826942723
20
-10.605533730945
30
0
41
1
10
31.7485216077755
20
-10.599213079835
30
0
41
1
10
31.7314482370181
20
-10.5927550550605
30
0
41
1
10
31.7146584541305
20
-10.5861879439501
30
0
41
1
10
31.7035832305425
20
-10.5816613513234
30
0
41
1
10
31.6980862172677
20
-10.57941464817
30
0
0
SPLINE
5
F6
100
AcDbEntity
8
1
62
256
6
ByLayer
370
18
48
1
60
0
100
AcDbSpline
70
4
71
2
72
10
73
7
40
0
40
0
40
0
40
0.5
40
0.5
40
0.75
40
0.75
40
1
40
1
40
1
41
1
10
31.8569129942982
20
-10.634767476262
30
0
41
1
10
31.9245068205208
20
-10.6542621635149
30
0
41
1
10
31.9722030616238
20
-10.7059857110099
30
0
41
1
10
31.9981900515756
20
-10.7341669529261
30
0
41
1
10
32.0148269535852
20
-10.7700223538963
30
0
41
1
10
32.0327928150071
20
-10.8087418922267
30
0
41
1
10
32.0369137759377
20
-10.851764413028
30
0
0
SPLINE
5
F7
100
AcDbEntity
8
1
62
256
6
ByLayer
370
18
48
1
60
0
100
AcDbSpline
70
4
71
2
72
6
73
3
40
0
40
0
40
0
40
1
40
1
40
1
41
1
10
32.0369137759757
20
-10.851764412942
30
0
41
1
10
32.0458050681478
20
-10.9469834459669
30
0
41
1
10
32.0458285383862
20
-11.0424999993024
30
0
0
SPLINE
5
F8
100
AcDbEntity
8
1
62
256
6
ByLayer
370
18
48
1
60
0
100
AcDbSpline
70
4
71
3
72
17
73
13
40
0
40
0
40
0
40
0
40
0.100317411816896
40
0.200541310293417
40
0.300680278273357
40
0.400742920447326
40
0.500737861201696
40
0.600673742442671
40
0.700559221399116
40
0.800402968404847
40
0.900213664663565
40
1
40
1
40
1
40
1
41
1
10
32.0369137759777
20
-11.273235587058
30
0
41
1
10
32.0374907017395
20
-11.2668912298246
30
0
41
1
10
32.0386440154675
20
-11.2542084294062
30
0
41
1
10
32.040149403979
20
-11.2351539472122
30
0
41
1
10
32.041489205109
20
-11.2160914790205
30
0
41
1
10
32.042647382609
20
-11.197019695717
30
0
41
1
10
32.0436283058491
20
-11.1779410706663
30
0
41
1
10
32.0444305147006
20
-11.1588570587512
30
0
41
1
10
32.0450554832193
20
-11.1397693864805
30
0
41
1
10
32.0454987763668
20
-11.120679706331
30
0
41
1
10
32.0457766520423
20
-11.1015896896565
30
0
41
1
10
32.0458112443465
20
-11.0888627125725
30
0
41
1
10
32.0458285383877
20
-11.0825000006976
30
0
0
SPLINE
5
F9
100
AcDbEntity
8
1
62
256
6
ByLayer
370
18
48
1
60
0
100
AcDbSpline
70
4
71
3
72
38
73
34
40
0
40
0
40
0
40
0
40
0.0320161803191076
40
0.0634137556494093
40
0.0941938978101958
40
0.124357850627746
40
0.153906935790704
40
0.182842559292628
40
0.211166218534047
40
0.238879510162475
40
0.265984138740209
40
0.292481926344036
40
0.31837482321178
40
0.343664919571574
40
0.36835445880407
40
0.392445852114334
40
0.415941694911023
40
0.43884478512366
40
0.461158143716761
40
0.482885037704955
40
0.504029006008817
40
0.551366811163279
40
0.597409666800362
40
0.642207857910853
40
0.685815975457081
40
0.728293199079308
40
0.769703557231235
40
0.810116149643042
40
0.849605314210588
40
0.888250718110506
40
0.926137351649333
40
0.963355403684615
40
1
40
1
40
1
40
1
41
1
10
31.8569129942977
20
-11.490232523738
30
0
41
1
10
31.8595412022224
20
-11.4894514392853
30
0
41
1
10
31.8647468367944
20
-11.4879043622095
30
0
41
1
10
31.8724183692594
20
-11.4852682841384
30
0
41
1
10
31.879892488419
20
-11.4824441000577
30
0
41
1
10
31.8871650942024
20
-11.4794210898557
30
0
41
1
10
31.8942372552918
20
-11.4762183659091
30
0
41
1
10
31.9011086967204
20
-11.4728470598276
30
0
41
1
10
31.9077794928923
20
-11.4693201212977
30
0
41
1
10
31.9142496277194
20
-11.4656497437464
30
0
41
1
10
31.9205191088584
20
-11.4618480072663
30
0
41
1
10
31.9265879381019
20
-11.4579266889419
30
0
41
1
10
31.9324561190196
20
-11.4538972918287
30
0
41
1
10
31.938123655224
20
-11.449771019817
30
0
41
1
10
31.9435905500443
20
-11.4455587686786
30
0
41
1
10
31.9488568095144
20
-11.441271116109
30
0
41
1
10
31.9539224312731
20
-11.4369183110036
30
0
41
1
10
31.9587874446595
20
-11.4325102765188
30
0
41
1
10
31.9634517667679
20
-11.4280565701334
30
0
41
1
10
31.9679157190755
20
-11.4235665051893
30
0
41
1
10
31.9739771356574
20
-11.4171419695073
30
0
41
1
10
31.981426398061
20
-11.4085531831907
30
0
41
1
10
31.9899703211373
20
-11.3974799163682
30
0
41
1
10
31.9978165015013
20
-11.386030558693
30
0
41
1
10
32.0049651843956
20
-11.3742506191721
30
0
41
1
10
32.0114161979484
20
-11.3621846186177
30
0
41
1
10
32.0171693145935
20
-11.3498766525567
30
0
41
1
10
32.0222247334685
20
-11.3373701653714
30
0
41
1
10
32.0265808749648
20
-11.3247074528299
30
0
41
1
10
32.0302424590417
20
-11.3119310234887
30
0
41
1
10
32.0331912788524
20
-11.2990780883646
30
0
41
1
10
32.0354922122895
20
-11.2862000583366
30
0
41
1
10
32.0364423803638
20
-11.2775346518979
30
0
41
1
10
32.0369137759377
20
-11.273235586972
30
0
0
SPLINE
5
FA
100
AcDbEntity
8
1
62
256
6
ByLayer
370
18
48
1
60
0
100
AcDbSpline
70
4
71
2
72
6
73
3
40
0
40
0
40
0
40
1
40
1
40
1
41
1
10
31.8569129943067
20
-11.490232523702
30
0
41
1
10
31.7759142978674
20
-11.5134847566733
30
0
41
1
10
31.6980862172673
20
-11.54558535183
30
0
0
SPLINE
5
FB
100
AcDbEntity
8
1
62
256
6
ByLayer
370
18
48
1
60
0
100
AcDbSpline
70
4
71
2
72
6
73
3
40
0
40
0
40
0
40
1
40
1
40
1
41
1
10
31.6980862172663
20
-11.545585351823
30
0
41
1
10
31.6737873382729
20
-11.5557546708635
30
0
41
1
10
31.6574902036057
20
-11.576387568149
30
0
0
SPLINE
5
FC
100
AcDbEntity
8
1
62
256
6
ByLayer
370
18
48
1
60
0
100
AcDbSpline
70
4
71
3
72
37
73
33
40
0
40
0
40
0
40
0
40
0.124999999999986
40
0.124999999999986
40
0.249999999999972
40
0.249999999999972
40
0.374999999999958
40
0.374999999999958
40
0.43749999999995
40
0.43749999999995
40
0.499999999999942
40
0.499999999999942
40
0.562499999999934
40
0.562499999999934
40
0.624999999999926
40
0.624999999999926
40
0.687499999999918
40
0.687499999999918
40
0.718749999999927
40
0.718749999999927
40
0.749999999999935
40
0.749999999999935
40
0.81249999999998
40
0.81249999999998
40
0.843749999999986
40
0.843749999999986
40
0.874999999999991
40
0.906249999999996
40
0.906249999999996
40
0.937500000000001
40
0.937500000000001
40
1
40
1
40
1
40
1
41
1
10
9.95126757885774
20
-0.912500000000023
30
0
41
1
10
9.95126757885774
20
-0.948940848740421
30
0
41
1
10
9.95269279243362
20
-0.985418444400437
30
0
41
1
10
9.95846730300613
20
-1.05804710022497
30
0
41
1
10
9.96282190846367
20
-1.09427873327832
30
0
41
1
10
9.97470234576861
20
-1.16607955216369
30
0
41
1
10
9.98224192061798
20
-1.20174964856193
30
0
41
1
10
9.99628816746852
20
-1.25435143250655
30
0
41
1
10
10.001428775853
20
-1.27173995664529
30
0
41
1
10
10.0127437917754
20
-1.30618639994947
30
0
41
1
10
10.0189191082059
20
-1.32324121982194
30
0
41
1
10
10.032374261687
20
-1.35673020518851
30
0
41
1
10
10.039661216855
20
-1.37319232354582
30
0
41
1
10
10.055564003273
20
-1.40543825585718
30
0
41
1
10
10.0642051096389
20
-1.42125613459683
30
0
41
1
10
10.0828329777417
20
-1.45155866467473
30
0
41
1
10
10.0928396100797
20
-1.46609939455564
30
0
41
1
10
10.1091437573851
20
-1.48675323484008
30
0
41
1
10
10.1147954240346
20
-1.4934438053678
30
0
41
1
10
10.1265979560343
20
-1.50637537811818
30
0
41
1
10
10.132779955872
20
-1.51264344129842
30
0
41
1
10
10.1518851018807
20
-1.53035982120204
30
0
41
1
10
10.1653876365584
20
-1.54078502883675
30
0
41
1
10
10.1870689652934
20
-1.55378856120137
30
0
41
1
10
10.194594045318
20
-1.55770336787569
30
0
41
1
10
10.2098446095861
20
-1.56435939191954
30
0
41
1
10
10.2252909056517
20
-1.56986181074612
30
0
41
1
10
10.2411363642203
20
-1.57296278982
30
0
41
1
10
10.2571895432921
20
-1.5747936079656
30
0
41
1
10
10.2652479815454
20
-1.57505503029827
30
0
41
1
10
10.2889328108441
20
-1.57395950842266
30
0
41
1
10
10.3043082486898
20
-1.57076678296613
30
0
41
1
10
10.3193109365589
20
-1.56537075857639
30
0
0
SPLINE
5
FD
100
AcDbEntity
8
1
62
256
6
ByLayer
370
18
48
1
60
0
100
AcDbSpline
70
4
71
3
72
35
73
31
40
0
40
0
40
0
40
0
40
0.125000000000023
40
0.125000000000023
40
0.250000000000046
40
0.250000000000046
40
0.37500000000007
40
0.37500000000007
40
0.437500000000078
40
0.437500000000078
40
0.500000000000086
40
0.500000000000086
40
0.625000000000099
40
0.625000000000099
40
0.687500000000108
40
0.687500000000108
40
0.718750000000103
40
0.718750000000103
40
0.750000000000099
40
0.750000000000099
40
0.812500000000075
40
0.812500000000075
40
0.843750000000067
40
0.843750000000067
40
0.875000000000059
40
0.906250000000051
40
0.906250000000051
40
0.937500000000043
40
0.937500000000043
40
1
40
1
40
1
40
1
41
1
10
11.3546175788577
20
-3.34317350080181
30
0
41
1
10
11.3230772295705
20
-3.32496367165052
30
0
41
1
10
11.2921831527376
20
-3.30548128927967
30
0
41
1
10
11.2321791955768
20
-3.26417139612124
30
0
41
1
10
11.2030591854607
20
-3.2423480246963
30
0
41
1
10
11.1467682215716
20
-3.19612435383053
30
0
41
1
10
11.119684517697
20
-3.17179407393175
30
0
41
1
10
11.0811899883867
20
-3.1333763415212
30
0
41
1
10
11.0687042516215
20
-3.12023842442599
30
0
41
1
10
11.0445178023307
20
-3.09321216698262
30
0
41
1
10
11.0328186258135
20
-3.07932264752466
30
0
41
1
10
10.9993393257999
20
-3.03665343228133
30
0
41
1
10
10.9789835829281
20
-3.00669133952024
30
0
41
1
10
10.9535073986186
20
-2.95960060677228
30
0
41
1
10
10.9458246934894
20
-2.94345389028408
30
0
41
1
10
10.9360507586854
20
-2.91882323323708
30
0
41
1
10
10.9330830352456
20
-2.91054309568207
30
0
41
1
10
10.9278072746541
20
-2.89382656710569
30
0
41
1
10
10.9254937455611
20
-2.88536069269423
30
0
41
1
10
10.9197679767506
20
-2.86002347895445
30
0
41
1
10
10.917528711352
20
-2.84316173379671
30
0
41
1
10
10.917155908337
20
-2.8179499092366
30
0
41
1
10
10.9175428656265
20
-2.80949830494149
30
0
41
1
10
10.9194273459546
20
-2.79301610260475
30
0
41
1
10
10.9224035239156
20
-2.77693931510765
30
0
41
1
10
10.9276483385167
20
-2.76171364601757
30
0
41
1
10
10.9340914036194
20
-2.74694107125734
30
0
41
1
10
10.9378903806781
20
-2.73985664974376
30
0
41
1
10
10.9506635031599
20
-2.71995663986996
30
0
41
1
10
10.9610935829989
20
-2.70827134708964
30
0
41
1
10
10.9732365953932
20
-2.69800322405024
30
0
0
SPLINE
5
FE
100
AcDbEntity
8
1
62
256
6
ByLayer
370
18
48
1
60
0
100
AcDbSpline
70
4
71
3
72
50
73
46
40
0
40
0
40
0
40
0
40
0.0312499999999938
40
0.0312499999999938
40
0.0624999999999877
40
0.0624999999999877
40
0.0937499999999815
40
0.0937499999999815
40
0.124999999999975
40
0.124999999999975
40
0.156249999999969
40
0.156249999999969
40
0.187499999999963
40
0.187499999999963
40
0.218749999999957
40
0.218749999999957
40
0.249999999999951
40
0.249999999999951
40
0.312499999999955
40
0.312499999999955
40
0.374999999999961
40
0.374999999999961
40
0.437499999999966
40
0.437499999999966
40
0.499999999999971
40
0.499999999999971
40
0.624999999999978
40
0.624999999999978
40
0.687499999999982
40
0.687499999999982
40
0.749999999999987
40
0.749999999999987
40
0.812499999999991
40
0.812499999999991
40
0.843749999999993
40
0.843749999999993
40
0.874999999999994
40
0.874999999999994
40
0.906249999999996
40
0.906249999999996
40
0.937499999999997
40
0.937499999999997
40
0.968749999999999
40
0.968749999999999
40
1
40
1
40
1
40
1
41
1
10
10.339310936559
20
-1.56399896176552
30
0
41
1
10
10.3529788873809
20
-1.5630614791981
30
0
41
1
10
10.3666735846415
20
-1.56358511935923
30
0
41
1
10
10.3941149016213
20
-1.56696658906176
30
0
41
1
10
10.4078478580987
20
-1.56983756012084
30
0
41
1
10
10.4349312099281
20
-1.57741019765749
30
0
41
1
10
10.4483783495692
20
-1.58213731873835
30
0
41
1
10
10.4748128620199
20
-1.59303579012524
30
0
41
1
10
10.4878227644788
20
-1.59921068436273
30
0
41
1
10
10.5135042981909
20
-1.6127913691009
30
0
41
1
10
10.5261508147335
20
-1.6201878548774
30
0
41
1
10
10.550961167121
20
-1.63593124735476
30
0
41
1
10
10.5631506774453
20
-1.64429248843126
30
0
41
1
10
10.5871579853918
20
-1.66188520558893
30
0
41
1
10
10.5989794148383
20
-1.67112251195292
30
0
41
1
10
10.6221386109027
20
-1.69026235675446
30
0
41
1
10
10.6334976230793
20
-1.70018015715155
30
0
41
1
10
10.6669812911105
20
-1.73088986358962
30
0
41
1
10
10.688569579496
20
-1.75269493136085
30
0
41
1
10
10.7299856163856
20
-1.79812969247078
30
0
41
1
10
10.749848838495
20
-1.82178632802069
30
0
41
1
10
10.7880475994718
20
-1.87083395463236
30
0
41
1
10
10.8063397639499
20
-1.89618144115812
30
0
41
1
10
10.8411126978036
20
-1.94802989888913
30
0
41
1
10
10.8576420422002
20
-1.97459458610425
30
0
41
1
10
10.9046494268408
20
-2.0561510883698
30
0
41
1
10
10.9320560119412
20
-2.11201612707879
30
0
41
1
10
10.9669236047856
20
-2.19821952477514
30
0
41
1
10
10.9775121473401
20
-2.22745490957166
30
0
41
1
10
10.9960013967105
20
-2.28582842931658
30
0
41
1
10
11.0039542923882
20
-2.3150689202424
30
0
41
1
10
11.0169393902509
20
-2.37372323066984
30
0
41
1
10
11.0219807715168
20
-2.40313598294963
30
0
41
1
10
11.026816349157
20
-2.44746684220212
30
0
41
1
10
11.0279690577686
20
-2.46232441271673
30
0
41
1
10
11.0291879990699
20
-2.49170522762225
30
0
41
1
10
11.0292618764624
20
-2.50626737706423
30
0
41
1
10
11.0281858887306
20
-2.53511319924991
30
0
41
1
10
11.0270375256738
20
-2.54939716540662
30
0
41
1
10
11.0232815435845
20
-2.57764805350999
30
0
41
1
10
11.0206636874187
20
-2.59166662108811
30
0
41
1
10
11.0136414869944
20
-2.61909321568763
30
0
41
1
10
11.0092830999659
20
-2.63234430281057
30
0
41
1
10
10.9985254727176
20
-2.65775067843094
30
0
41
1
10
10.9921319965006
20
-2.66990907709612
30
0
41
1
10
10.9844246062806
20
-2.68136861437938
30
0
0
SPLINE
5
FF
100
AcDbEntity
8
1
62
256
6
ByLayer
370
18
48
1
60
0
100
AcDbSpline
70
4
71
3
72
8
73
4
40
0
40
0
40
0
40
0
40
1
40
1
40
1
40
1
41
1
10
10.3193109365589
20
-1.56537075857639
30
0
41
1
10
10.3259773599546
20
-1.56491350965871
30
0
41
1
10
10.3326440247208
20
-1.56445624418544
30
0
41
1
10
10.339310936559
20
-1.56399896176555
30
0
0
SPLINE
5
100
100
AcDbEntity
8
1
62
256
6
ByLayer
370
18
48
1
60
0
100
AcDbSpline
70
4
71
3
72
8
73
4
40
0
40
0
40
0
40
0
40
1
40
1
40
1
40
1
41
1
10
10.9732365953932
20
-2.69800322405024
30
0
41
1
10
10.9769657962696
20
-2.69245855649609
30
0
41
1
10
10.9806951321688
20
-2.68691368818668
30
0
41
1
10
10.9844246062802
20
-2.68136861437998
30
0
0
SPLINE
5
101
100
AcDbEntity
8
1
62
256
6
ByLayer
370
18
48
1
60
0
100
AcDbSpline
70
4
71
3
72
35
73
31
40
0
40
0
40
0
40
0
40
0.125000000000079
40
0.125000000000079
40
0.250000000000157
40
0.250000000000157
40
0.375000000000236
40
0.375000000000236
40
0.437500000000241
40
0.437500000000241
40
0.500000000000245
40
0.500000000000245
40
0.625000000000255
40
0.625000000000255
40
0.687500000000237
40
0.687500000000237
40
0.718750000000211
40
0.718750000000211
40
0.750000000000185
40
0.750000000000185
40
0.812500000000133
40
0.812500000000133
40
0.843750000000108
40
0.843750000000108
40
0.875000000000083
40
0.906250000000059
40
0.906250000000059
40
0.937500000000034
40
0.937500000000034
40
1
40
1
40
1
40
1
41
1
10
14.1613175788577
20
1.51817350080179
30
0
41
1
10
14.1928579281449
20
1.4999636716505
30
0
41
1
10
14.2237520049779
20
1.48048128927968
30
0
41
1
10
14.2837559621387
20
1.43917139612125
30
0
41
1
10
14.3128759722548
20
1.41734802469628
30
0
41
1
10
14.3691669361438
20
1.37112435383051
30
0
41
1
10
14.3962506400184
20
1.34679407393173
30
0
41
1
10
14.4347451693287
20
1.30837634152121
30
0
41
1
10
14.4472309060939
20
1.29523842442597
30
0
41
1
10
14.4714173553848
20
1.26821216698264
30
0
41
1
10
14.483116531902
20
1.25432264752465
30
0
41
1
10
14.5165958319156
20
1.21165343228131
30
0
41
1
10
14.5369515747875
20
1.1816913395202
30
0
41
1
10
14.5624277590969
20
1.13460060677227
30
0
41
1
10
14.5701104642261
20
1.11845389028403
30
0
41
1
10
14.5798843990301
20
1.09382323323703
30
0
41
1
10
14.5828521224699
20
1.08554309568206
30
0
41
1
10
14.5881278830613
20
1.06882656710567
30
0
41
1
10
14.5904414121544
20
1.06036069269422
30
0
41
1
10
14.5961671809649
20
1.0350234789544
30
0
41
1
10
14.5984064463634
20
1.01816173379666
30
0
41
1
10
14.5987792493784
20
0.992949909236557
30
0
41
1
10
14.598392292089
20
0.984498304941468
30
0
41
1
10
14.5965078117609
20
0.968016102604736
30
0
41
1
10
14.5935316338
20
0.95193931510758
30
0
41
1
10
14.5882868191988
20
0.936713646017523
30
0
41
1
10
14.5818437540961
20
0.921941071257294
30
0
41
1
10
14.5780447770374
20
0.914856649743683
30
0
41
1
10
14.5652716545555
20
0.894956639869918
30
0
41
1
10
14.5548415747166
20
0.88327134708959
30
0
41
1
10
14.5426985623223
20
0.873003224050194
30
0
0
SPLINE
5
102
100
AcDbEntity
8
1
62
256
6
ByLayer
370
18
48
1
60
0
100
AcDbSpline
70
4
71
3
72
35
73
31
40
0
40
0
40
0
40
0
40
0.125000000000078
40
0.125000000000078
40
0.250000000000156
40
0.250000000000156
40
0.375000000000234
40
0.375000000000234
40
0.500000000000312
40
0.500000000000312
40
0.562500000000349
40
0.562500000000349
40
0.625000000000385
40
0.625000000000385
40
0.687500000000421
40
0.687500000000421
40
0.718750000000408
40
0.718750000000408
40
0.750000000000394
40
0.750000000000394
40
0.812500000000301
40
0.812500000000301
40
0.843750000000252
40
0.843750000000252
40
0.875000000000204
40
0.906250000000156
40
0.906250000000156
40
0.937500000000108
40
0.937500000000108
40
1
40
1
40
1
40
1
41
1
10
15.5646675788577
20
-0.912500000000023
30
0
41
1
10
15.5646675788577
20
-0.876081159924325
30
0
41
1
10
15.563245488628
20
-0.839629914299877
30
0
41
1
10
15.5574689494126
20
-0.766957600031361
30
0
41
1
10
15.553127727082
20
-0.730828990886721
30
0
41
1
10
15.5412544742722
20
-0.659031202402531
30
0
41
1
10
15.5337178144866
20
-0.623347534896112
30
0
41
1
10
15.5149596007097
20
-0.553089626056789
30
0
41
1
10
15.5037432335019
20
-0.518491657879537
30
0
41
1
10
15.4835133879764
20
-0.468156887984179
30
0
41
1
10
15.4762097731643
20
-0.451666043246178
30
0
41
1
10
15.4602728522884
20
-0.419374056818015
30
0
41
1
10
15.4516551237323
20
-0.403614303390611
30
0
41
1
10
15.4330542585176
20
-0.373371111165056
30
0
41
1
10
15.4230530359845
20
-0.35884048415852
30
0
41
1
10
15.4067311017672
20
-0.338173537521271
30
0
41
1
10
15.4010691108822
20
-0.331473905220548
30
0
41
1
10
15.389233127667
20
-0.318515575854633
30
0
41
1
10
15.38304965688
20
-0.312253297221304
30
0
41
1
10
15.3639672450001
20
-0.294574290310919
30
0
41
1
10
15.350446640904
20
-0.284134745859518
30
0
41
1
10
15.3286437928898
20
-0.271088100187114
30
0
41
1
10
15.3211289837187
20
-0.267195702022377
30
0
41
1
10
15.3059893305561
20
-0.260604954540867
30
0
41
1
10
15.2906375389059
20
-0.255142679813076
30
0
41
1
10
15.2748490625842
20
-0.2520466034496
30
0
41
1
10
15.2588310512146
20
-0.250212506502578
30
0
41
1
10
15.2507440081957
20
-0.249944696156518
30
0
41
1
10
15.2270220282096
20
-0.251034890691585
30
0
41
1
10
15.2116326007683
20
-0.254231169881962
30
0
41
1
10
15.1966242211565
20
-0.259629241423653
30
0
0
SPLINE
5
103
100
AcDbEntity
8
1
62
256
6
ByLayer
370
18
48
1
60
0
100
AcDbSpline
70
4
71
3
72
52
73
48
40
0
40
0
40
0
40
0
40
0.0156249999999978
40
0.0156249999999978
40
0.0312499999999957
40
0.0312499999999957
40
0.062499999999998
40
0.062499999999998
40
0.0937500000000003
40
0.0937500000000003
40
0.125000000000003
40
0.125000000000003
40
0.187499999999997
40
0.187499999999997
40
0.218749999999997
40
0.218749999999997
40
0.249999999999997
40
0.249999999999997
40
0.312499999999996
40
0.312499999999996
40
0.374999999999996
40
0.374999999999996
40
0.437499999999996
40
0.437499999999996
40
0.499999999999996
40
0.499999999999996
40
0.562499999999995
40
0.562499999999995
40
0.624999999999995
40
0.624999999999995
40
0.687499999999995
40
0.687499999999995
40
0.749999999999995
40
0.749999999999995
40
0.812499999999995
40
0.812499999999995
40
0.843749999999996
40
0.843749999999996
40
0.874999999999996
40
0.874999999999996
40
0.906249999999997
40
0.906249999999997
40
0.937499999999998
40
0.937499999999998
40
0.968749999999999
40
0.968749999999999
40
1
40
1
40
1
40
1
41
1
10
14.5315105514348
20
0.856368614379335
30
0
41
1
10
14.5276830539134
20
0.850677796956404
30
0
41
1
10
14.5241632869443
20
0.844784134957081
30
0
41
1
10
14.5176748518947
20
0.832632267496734
30
0
41
1
10
14.5147023367997
20
0.826360655846116
30
0
41
1
10
14.5066237578486
20
0.807269532255049
30
0
41
1
10
14.5023097652094
20
0.794113375917362
30
0
41
1
10
14.4953745631771
20
0.76711124226378
30
0
41
1
10
14.4927572063055
20
0.753263735360036
30
0
41
1
10
14.4889531072044
20
0.724971190725967
30
0
41
1
10
14.4877785207817
20
0.710574028928761
30
0
41
1
10
14.4861235340372
20
0.667162467597734
30
0
41
1
10
14.487481202677
20
0.637656651244129
30
0
41
1
10
14.4922808755458
20
0.593391761473498
30
0
41
1
10
14.4943456956013
20
0.578612985555537
30
0
41
1
10
14.4993129070484
20
0.549003278591329
30
0
41
1
10
14.5022198101891
20
0.534158430445387
30
0
41
1
10
14.5120394806928
20
0.489807444291415
30
0
41
1
10
14.5200537688757
20
0.460399018037862
30
0
41
1
10
14.5386414674771
20
0.401816662149883
30
0
41
1
10
14.5492084648279
20
0.372696859528361
30
0
41
1
10
14.5724753530048
20
0.315246290005803
30
0
41
1
10
14.5852094898562
20
0.286821188988228
30
0
41
1
10
14.612734958033
20
0.230653689090843
30
0
41
1
10
14.6274608488298
20
0.203042434231435
30
0
41
1
10
14.6588077900865
20
0.148748414890662
30
0
41
1
10
14.6753489844441
20
0.122203994841811
30
0
41
1
10
14.7101910806209
20
0.0703354001346099
30
0
41
1
10
14.7284891606848
20
0.0450238206137783
30
0
41
1
10
14.7666647843649
20
-0.0039175745402247
30
0
41
1
10
14.7866188616736
20
-0.0276446262279535
30
0
41
1
10
14.8280431298292
20
-0.0730069889158074
30
0
41
1
10
14.8495522035469
20
-0.094696801588384
30
0
41
1
10
14.8942813283764
20
-0.135643436267031
30
0
41
1
10
14.9173560962664
20
-0.15477976700339
30
0
41
1
10
14.953313579924
20
-0.181077436635121
30
0
41
1
10
14.9655465431317
20
-0.189451239318544
30
0
41
1
10
14.9903722726927
20
-0.205165124041514
30
0
41
1
10
15.0029765806863
20
-0.21251662208482
30
0
41
1
10
15.0286428728807
20
-0.22604960050873
30
0
41
1
10
15.0416805477243
20
-0.232215760936782
30
0
41
1
10
15.0680605564998
20
-0.243048094989177
30
0
41
1
10
15.0814681355579
20
-0.247741227691734
30
0
41
1
10
15.1085474150522
20
-0.255268703096192
30
0
41
1
10
15.1221102481509
20
-0.25807858256195
30
0
41
1
10
15.1493065731479
20
-0.261410871638503
30
0
41
1
10
15.1629398819194
20
-0.261939644880727
30
0
41
1
10
15.1766242211565
20
-0.261001038234525
30
0
0
SPLINE
5
104
100
AcDbEntity
8
1
62
256
6
ByLayer
370
18
48
1
60
0
100
AcDbSpline
70
4
71
3
72
8
73
4
40
0
40
0
40
0
40
0
40
1
40
1
40
1
40
1
41
1
10
15.1766242211565
20
-0.261001038234525
30
0
41
1
10
15.1832911329946
20
-0.260543755814609
30
0
41
1
10
15.1899577977609
20
-0.260086490341337
30
0
41
1
10
15.1966242211565
20
-0.259629241423653
30
0
0
SPLINE
5
105
100
AcDbEntity
8
1
62
256
6
ByLayer
370
18
48
1
60
0
100
AcDbSpline
70
4
71
3
72
8
73
4
40
0
40
0
40
0
40
0
40
1
40
1
40
1
40
1
41
1
10
14.5426985623223
20
0.873003224050194
30
0
41
1
10
14.5389693614459
20
0.867458556496047
30
0
41
1
10
14.5352400255467
20
0.861913688186633
30
0
41
1
10
14.5315105514353
20
0.856368614379932
30
0
0
SPLINE
5
106
100
AcDbEntity
8
1
62
256
6
ByLayer
370
18
48
1
60
0
100
AcDbSpline
70
4
71
3
72
35
73
31
40
0
40
0
40
0
40
0
40
0.125000000000001
40
0.125000000000001
40
0.250000000000002
40
0.250000000000002
40
0.375000000000003
40
0.375000000000003
40
0.437500000000005
40
0.437500000000005
40
0.500000000000006
40
0.500000000000006
40
0.625000000000014
40
0.625000000000014
40
0.687499999999994
40
0.687499999999994
40
0.718750000000005
40
0.718750000000005
40
0.750000000000016
40
0.750000000000016
40
0.812499999999998
40
0.812499999999998
40
0.843749999999994
40
0.843749999999994
40
0.874999999999989
40
0.906249999999985
40
0.906249999999985
40
0.93749999999998
40
0.93749999999998
40
1
40
1
40
1
40
1
41
1
10
14.1613175788577
20
-3.34317350080181
30
0
41
1
10
14.1297772295706
20
-3.36138332995307
30
0
41
1
10
14.0974579530947
20
-3.37839719413148
30
0
41
1
10
14.0316805576115
20
-3.40970719878115
30
0
41
1
10
13.9982209585031
20
-3.42401418158772
30
0
41
1
10
13.9300446033328
20
-3.44965175088615
30
0
41
1
10
13.8954321109219
20
-3.46094178652072
30
0
41
1
10
13.8429141140435
20
-3.47507016060496
30
0
41
1
10
13.8252934757036
20
-3.47931416728096
30
0
41
1
10
13.789794825543
20
-3.48674711807254
30
0
41
1
10
13.7719165605874
20
-3.48993414241079
30
0
41
1
10
13.7182242862203
20
-3.49759345910184
30
0
41
1
10
13.6820984813028
20
-3.50024100316117
30
0
41
1
10
13.6285786183055
20
-3.49875865959066
30
0
41
1
10
13.6107537990744
20
-3.49733871915828
30
0
41
1
10
13.5845360569578
20
-3.49348786646999
30
0
41
1
10
13.5758813857684
20
-3.49191792158274
30
0
41
1
10
13.5587665670625
20
-3.48812859999106
30
0
41
1
10
13.5502781402104
20
-3.48589923775231
30
0
41
1
10
13.5254725850453
20
-3.47818929212849
30
0
41
1
10
13.5097502526873
20
-3.47169768027058
30
0
41
1
10
13.487729770635
20
-3.4594146248721
30
0
41
1
10
13.4806039452574
20
-3.45485370788168
30
0
41
1
10
13.4672721794875
20
-3.4449805988763
30
0
41
1
10
13.4548375042636
20
-3.43436464076478
30
0
41
1
10
13.4442739531633
20
-3.42220978217958
30
0
41
1
10
13.4347020606929
20
-3.4092436367423
30
0
41
1
10
13.4304662602203
20
-3.40241141534429
30
0
41
1
10
13.419618907375
20
-3.38139956185245
30
0
41
1
10
13.4147141868962
20
-3.36652420135823
30
0
41
1
10
13.4118932376919
20
-3.35087398262661
30
0
0
SPLINE
5
107
100
AcDbEntity
8
1
62
256
6
ByLayer
370
18
48
1
60
0
100
AcDbSpline
70
4
71
3
72
35
73
31
40
0
40
0
40
0
40
0
40
0.12500000000002
40
0.12500000000002
40
0.25000000000004
40
0.25000000000004
40
0.375000000000059
40
0.375000000000059
40
0.500000000000079
40
0.500000000000079
40
0.562500000000068
40
0.562500000000068
40
0.625000000000057
40
0.625000000000057
40
0.687500000000046
40
0.687500000000046
40
0.718750000000059
40
0.718750000000059
40
0.750000000000073
40
0.750000000000073
40
0.812500000000057
40
0.812500000000057
40
0.843750000000046
40
0.843750000000046
40
0.875000000000035
40
0.906250000000025
40
0.906250000000025
40
0.937500000000014
40
0.937500000000014
40
1
40
1
40
1
40
1
41
1
10
11.3546175788577
20
-3.34317350080181
30
0
41
1
10
11.3861572195397
20
-3.36138292083964
30
0
41
1
10
11.4184359693649
20
-3.37837697738644
30
0
41
1
10
11.484260309281
20
-3.40971050481417
30
0
41
1
10
11.5177192137689
20
-3.42401520056478
30
0
41
1
10
11.5858345489366
20
-3.44963155624799
30
0
41
1
10
11.6205058413902
20
-3.46094645116722
30
0
41
1
10
11.6907300821502
20
-3.47983031592648
30
0
41
1
10
11.726300985115
20
-3.48741564107496
30
0
41
1
10
11.7800070973007
20
-3.49506346588291
30
0
41
1
10
11.7979403951798
20
-3.49698377228518
30
0
41
1
10
11.8338745362031
20
-3.49932798716267
30
0
41
1
10
11.8518317473067
20
-3.49974469202385
30
0
41
1
10
11.887323552673
20
-3.49875746632827
30
0
41
1
10
11.9049080560601
20
-3.49736146704902
30
0
41
1
10
11.9309671239753
20
-3.49355973069655
30
0
41
1
10
11.9396001711862
20
-3.49200611890456
30
0
41
1
10
11.9567404052152
20
-3.48823502144433
30
0
41
1
10
11.9652554329908
20
-3.48601111797589
30
0
41
1
10
11.9901071080288
20
-3.47832476797762
30
0
41
1
10
12.0059083207758
20
-3.47183535358155
30
0
41
1
10
12.0281084713693
20
-3.4594768561627
30
0
41
1
10
12.0352367916472
20
-3.45491503959826
30
0
41
1
10
12.0485143729773
20
-3.44509908909578
30
0
41
1
10
12.0609209009747
20
-3.43453532638969
30
0
41
1
10
12.0714962564229
20
-3.42241000149698
30
0
41
1
10
12.0810936366569
20
-3.40945504520633
30
0
41
1
10
12.0853690887293
20
-3.40258536568351
30
0
41
1
10
12.09628594256
20
-3.38149643111996
30
0
41
1
10
12.1012125973042
20
-3.36657065641086
30
0
41
1
10
12.1040419200235
20
-3.35087398262661
30
0
0
SPLINE
5
108
100
AcDbEntity
8
1
62
256
6
ByLayer
370
18
48
1
60
0
100
AcDbSpline
70
4
71
3
72
52
73
48
40
0
40
0
40
0
40
0
40
0.015624999999986
40
0.015624999999986
40
0.0312499999999722
40
0.0312499999999722
40
0.0624999999999707
40
0.0624999999999707
40
0.0937499999999691
40
0.0937499999999691
40
0.124999999999967
40
0.124999999999967
40
0.187499999999968
40
0.187499999999968
40
0.218749999999981
40
0.218749999999981
40
0.249999999999994
40
0.249999999999994
40
0.312499999999994
40
0.312499999999994
40
0.374999999999994
40
0.374999999999994
40
0.437499999999994
40
0.437499999999994
40
0.499999999999994
40
0.499999999999994
40
0.562499999999995
40
0.562499999999995
40
0.624999999999995
40
0.624999999999995
40
0.687499999999995
40
0.687499999999995
40
0.749999999999995
40
0.749999999999995
40
0.812499999999995
40
0.812499999999995
40
0.843749999999996
40
0.843749999999996
40
0.874999999999997
40
0.874999999999997
40
0.906249999999998
40
0.906249999999998
40
0.937499999999998
40
0.937499999999998
40
0.968749999999999
40
0.968749999999999
40
1
40
1
40
1
40
1
41
1
10
13.4030812485787
20
-3.33286757614482
30
0
41
1
10
13.4000666048829
20
-3.32670745734689
30
0
41
1
10
13.3967224273547
20
-3.32071241873655
30
0
41
1
10
13.3894428189554
20
-3.30901733542271
30
0
41
1
10
13.3854977014907
20
-3.30330725601198
30
0
41
1
10
13.3730035929497
20
-3.28676543961831
30
0
41
1
10
13.3637670236647
20
-3.27645133423212
30
0
41
1
10
13.3438500909804
20
-3.25694420626505
30
0
41
1
10
13.3331664766585
20
-3.24775375527153
30
0
41
1
10
13.3105664638183
20
-3.23031303649447
30
0
41
1
10
13.2986854491709
20
-3.22209723391481
30
0
41
1
10
13.2619174276125
20
-3.19895819268569
30
0
41
1
10
13.2356858067709
20
-3.18538106004093
30
0
41
1
10
13.1949514512995
20
-3.16740525378975
30
0
41
1
10
13.18112024589
20
-3.16180405245305
30
0
41
1
10
13.1529938817368
20
-3.15130093027014
30
0
41
1
10
13.1386844145568
20
-3.14639595816331
30
0
41
1
10
13.0953654986126
20
-3.13272454919942
30
0
41
1
10
13.0658899103002
20
-3.12496091323226
30
0
41
1
10
13.005862252587
20
-3.11176715447499
30
0
41
1
10
12.9753602650882
20
-3.10635854131172
30
0
41
1
10
12.9139731683314
20
-3.09778297277867
30
0
41
1
10
12.8829892403193
20
-3.09459850827844
30
0
41
1
10
12.8205840244527
20
-3.09035251302188
30
0
41
1
10
12.7893090309156
20
-3.08929988111564
30
0
41
1
10
12.7266155602646
20
-3.08930011890445
30
0
41
1
10
12.6953568209948
20
-3.09035300340264
30
0
41
1
10
12.6330162522314
20
-3.09459284645928
30
0
41
1
10
12.6019467413244
20
-3.0977836588747
30
0
41
1
10
12.5404744379844
20
-3.10637402120997
30
0
41
1
10
12.5099491698116
20
-3.11179123322444
30
0
41
1
10
12.4499520772704
20
-3.12498452043644
30
0
41
1
10
12.4204136116338
20
-3.13276701835159
30
0
41
1
10
12.3625882233879
20
-3.15103025940366
30
0
41
1
10
12.33447829089
20
-3.16144542921464
30
0
41
1
10
12.2937250990998
20
-3.17943668870248
30
0
41
1
10
12.2803566916457
20
-3.18584384426225
30
0
41
1
10
12.2543352035031
20
-3.19948661436788
30
0
41
1
10
12.2416664654448
20
-3.20672651626589
30
0
41
1
10
12.2171134162437
20
-3.2221876881153
30
0
41
1
10
12.2052545272475
20
-3.230395565522
30
0
41
1
10
12.182683446388
20
-3.2478251562475
30
0
41
1
10
12.1719152847152
20
-3.25708989396381
30
0
41
1
10
12.1518566600414
20
-3.27677750021988
30
0
41
1
10
12.1426418164931
20
-3.28711831849768
30
0
41
1
10
12.1261578070017
20
-3.30900488229633
30
0
41
1
10
12.1188832215553
20
-3.32054728740906
30
0
41
1
10
12.1128539091365
20
-3.3328675761455
30
0
0
SPLINE
5
109
100
AcDbEntity
8
1
62
256
6
ByLayer
370
18
48
1
60
0
100
AcDbSpline
70
4
71
3
72
8
73
4
40
0
40
0
40
0
40
0
40
1
40
1
40
1
40
1
41
1
10
12.1128539091365
20
-3.3328675761455
30
0
41
1
10
12.1099164714097
20
-3.33886993237209
30
0
41
1
10
12.1069791425427
20
-3.34487206615478
30
0
41
1
10
12.1040419200235
20
-3.35087398262661
30
0
0
SPLINE
5
10A
100
AcDbEntity
8
1
62
256
6
ByLayer
370
18
48
1
60
0
100
AcDbSpline
70
4
71
3
72
8
73
4
40
0
40
0
40
0
40
0
40
1
40
1
40
1
40
1
41
1
10
13.4118932376919
20
-3.35087398262661
30
0
41
1
10
13.4089560151727
20
-3.34487206615478
30
0
41
1
10
13.4060186863058
20
-3.33886993237209
30
0
41
1
10
13.403081248579
20
-3.3328675761455
30
0
0
SPLINE
5
10B
100
AcDbEntity
8
1
62
256
6
ByLayer
370
18
48
1
60
0
100
AcDbSpline
70
4
71
3
72
35
73
31
40
0
40
0
40
0
40
0
40
0.124999999999946
40
0.124999999999946
40
0.249999999999891
40
0.249999999999891
40
0.374999999999837
40
0.374999999999837
40
0.499999999999782
40
0.499999999999782
40
0.562499999999755
40
0.562499999999755
40
0.624999999999727
40
0.624999999999727
40
0.687499999999699
40
0.687499999999699
40
0.718749999999711
40
0.718749999999711
40
0.749999999999723
40
0.749999999999723
40
0.812499999999791
40
0.812499999999791
40
0.843749999999824
40
0.843749999999824
40
0.874999999999858
40
0.906249999999892
40
0.906249999999892
40
0.937499999999925
40
0.937499999999925
40
1
40
1
40
1
40
1
41
1
10
14.1613175788577
20
1.51817350080179
30
0
41
1
10
14.1297779381758
20
1.53638292083963
30
0
41
1
10
14.0974991883506
20
1.55337697738642
30
0
41
1
10
14.0316748484345
20
1.58471050481415
30
0
41
1
10
13.9982159439466
20
1.59901520056474
30
0
41
1
10
13.9301006087788
20
1.62463155624798
30
0
41
1
10
13.8954293163253
20
1.63594645116717
30
0
41
1
10
13.8252050755652
20
1.65483031592646
30
0
41
1
10
13.7896341726004
20
1.66241564107494
30
0
41
1
10
13.7359280604147
20
1.67006346588286
30
0
41
1
10
13.7179947625356
20
1.67198377228513
30
0
41
1
10
13.6820606215123
20
1.67432798716263
30
0
41
1
10
13.6641034104088
20
1.67474469202381
30
0
41
1
10
13.6286116050425
20
1.67375746632823
30
0
41
1
10
13.6110271016554
20
1.67236146704897
30
0
41
1
10
13.5849680337402
20
1.6685597306965
30
0
41
1
10
13.5763349865293
20
1.66700611890448
30
0
41
1
10
13.5591947525002
20
1.66323502144428
30
0
41
1
10
13.5506797247246
20
1.66101111797582
30
0
41
1
10
13.5258280496867
20
1.65332476797755
30
0
41
1
10
13.5100268369397
20
1.64683535358151
30
0
41
1
10
13.4878266863462
20
1.63447685616262
30
0
41
1
10
13.4806983660683
20
1.62991503959819
30
0
41
1
10
13.4674207847381
20
1.62009908909573
30
0
41
1
10
13.4550144202363
20
1.60953518489686
30
0
41
1
10
13.4444389012926
20
1.59741000149694
30
0
41
1
10
13.4348415210587
20
1.58445504520628
30
0
41
1
10
13.4305660689862
20
1.57758536568346
30
0
41
1
10
13.4196492151555
20
1.55649643111991
30
0
41
1
10
13.4147225604113
20
1.54157065641081
30
0
41
1
10
13.411893237692
20
1.52587398262656
30
0
0
SPLINE
5
10C
100
AcDbEntity
8
1
62
256
6
ByLayer
370
18
48
1
60
0
100
AcDbSpline
70
4
71
3
72
52
73
48
40
0
40
0
40
0
40
0
40
0.0156249999999899
40
0.0156249999999899
40
0.0312499999999799
40
0.0312499999999799
40
0.0624999999999811
40
0.0624999999999811
40
0.0937499999999825
40
0.0937499999999825
40
0.124999999999984
40
0.124999999999984
40
0.187499999999986
40
0.187499999999986
40
0.218749999999999
40
0.218749999999999
40
0.250000000000011
40
0.250000000000011
40
0.31250000000001
40
0.31250000000001
40
0.375000000000009
40
0.375000000000009
40
0.437500000000008
40
0.437500000000008
40
0.500000000000006
40
0.500000000000006
40
0.562500000000005
40
0.562500000000005
40
0.625000000000004
40
0.625000000000004
40
0.687500000000002
40
0.687500000000002
40
0.750000000000001
40
0.750000000000001
40
0.8125
40
0.8125
40
0.84375
40
0.84375
40
0.875
40
0.875
40
0.90625
40
0.90625
40
0.9375
40
0.9375
40
0.96875
40
0.96875
40
1
40
1
40
1
40
1
41
1
10
12.1128539091368
20
1.50786757614478
30
0
41
1
10
12.1158685528326
20
1.50170745734684
30
0
41
1
10
12.1192127303607
20
1.4957124187365
30
0
41
1
10
12.1264923387601
20
1.48401733542266
30
0
41
1
10
12.1304374562247
20
1.47830725601193
30
0
41
1
10
12.1429315647658
20
1.46176543961823
30
0
41
1
10
12.1521681340508
20
1.45145133423207
30
0
41
1
10
12.1720850667351
20
1.43194420626497
30
0
41
1
10
12.182768681057
20
1.42275375527149
30
0
41
1
10
12.2053686938972
20
1.40531303649442
30
0
41
1
10
12.2172497085446
20
1.39709723391476
30
0
41
1
10
12.254017730103
20
1.37395819268562
30
0
41
1
10
12.2802493509446
20
1.36038106004088
30
0
41
1
10
12.320983706416
20
1.34240525378971
30
0
41
1
10
12.3348149118255
20
1.336804052453
30
0
41
1
10
12.3629412759787
20
1.32630093027009
30
0
41
1
10
12.3772507431587
20
1.32139595816329
30
0
41
1
10
12.4205696591029
20
1.30772454919938
30
0
41
1
10
12.4500452474152
20
1.29996091323221
30
0
41
1
10
12.5100729051284
20
1.28676715447492
30
0
41
1
10
12.5405748926273
20
1.28135854131168
30
0
41
1
10
12.6019619893841
20
1.27278297277863
30
0
41
1
10
12.6329459173962
20
1.26959850827839
30
0
41
1
10
12.6953511332628
20
1.26535251302184
30
0
41
1
10
12.7266261267999
20
1.26429988111559
30
0
41
1
10
12.7893195974508
20
1.2643001189044
30
0
41
1
10
12.8205783367206
20
1.2653530034026
30
0
41
1
10
12.8829189054841
20
1.26959284645923
30
0
41
1
10
12.913988416391
20
1.27278365887466
30
0
41
1
10
12.975460719731
20
1.28137402120993
30
0
41
1
10
13.0059859879039
20
1.28679123322439
30
0
41
1
10
13.0659830804451
20
1.2999845204364
30
0
41
1
10
13.0955215460817
20
1.30776701835154
30
0
41
1
10
13.1533469343276
20
1.32603025940361
30
0
41
1
10
13.1814568668255
20
1.33644542921459
30
0
41
1
10
13.2222100586157
20
1.35443668870241
30
0
41
1
10
13.2355784660698
20
1.36084384426221
30
0
41
1
10
13.2615999542124
20
1.37448661436784
30
0
41
1
10
13.2742686922707
20
1.38172651626584
30
0
41
1
10
13.2988217414718
20
1.39718768811522
30
0
41
1
10
13.3106806304681
20
1.40539556552196
30
0
41
1
10
13.3332517113275
20
1.42282515624745
30
0
41
1
10
13.3440198730003
20
1.43208989396376
30
0
41
1
10
13.3640784976741
20
1.45177750021983
30
0
41
1
10
13.3732933412223
20
1.46211831849763
30
0
41
1
10
13.3897773507138
20
1.48400488229629
30
0
41
1
10
13.3970519361602
20
1.49554728740901
30
0
41
1
10
13.403081248579
20
1.50786757614546
30
0
0
SPLINE
5
10D
100
AcDbEntity
8
1
62
256
6
ByLayer
370
18
48
1
60
0
100
AcDbSpline
70
4
71
3
72
8
73
4
40
0
40
0
40
0
40
0
40
1
40
1
40
1
40
1
41
1
10
13.403081248579
20
1.50786757614546
30
0
41
1
10
13.4060186863058
20
1.51386993237205
30
0
41
1
10
13.4089560151727
20
1.5198720661547
30
0
41
1
10
13.411893237692
20
1.52587398262656
30
0
0
SPLINE
5
10E
100
AcDbEntity
8
1
62
256
6
ByLayer
370
18
48
1
60
0
100
AcDbSpline
70
4
71
3
72
35
73
31
40
0
40
0
40
0
40
0
40
0.124999999999988
40
0.124999999999988
40
0.249999999999976
40
0.249999999999976
40
0.374999999999964
40
0.374999999999964
40
0.437499999999957
40
0.437499999999957
40
0.49999999999995
40
0.49999999999995
40
0.624999999999982
40
0.624999999999982
40
0.687499999999974
40
0.687499999999974
40
0.71874999999999
40
0.71874999999999
40
0.750000000000006
40
0.750000000000006
40
0.812499999999994
40
0.812499999999994
40
0.843749999999992
40
0.843749999999992
40
0.874999999999991
40
0.90624999999999
40
0.90624999999999
40
0.937499999999988
40
0.937499999999988
40
1
40
1
40
1
40
1
41
1
10
11.3546175788577
20
1.51817350080174
30
0
41
1
10
11.3861579281449
20
1.53638332995303
30
0
41
1
10
11.4184772046208
20
1.55339719413144
30
0
41
1
10
11.484254600104
20
1.5847071987811
30
0
41
1
10
11.5177141992123
20
1.59901418158768
30
0
41
1
10
11.5858905543827
20
1.6246517508861
30
0
41
1
10
11.6205030467935
20
1.63594178652067
30
0
41
1
10
11.673021043672
20
1.65007016060491
30
0
41
1
10
11.6906416820119
20
1.65431416728092
30
0
41
1
10
11.7261403321725
20
1.6617471180725
30
0
41
1
10
11.744018597128
20
1.66493414241074
30
0
41
1
10
11.7977108714951
20
1.67259345910179
30
0
41
1
10
11.8338366764127
20
1.67524100316112
30
0
41
1
10
11.88735653941
20
1.67375865959062
30
0
41
1
10
11.9051813586411
20
1.67233871915823
30
0
41
1
10
11.9313991007577
20
1.66848786646994
30
0
41
1
10
11.940053771947
20
1.66691792158269
30
0
41
1
10
11.957168590653
20
1.66312859999101
30
0
41
1
10
11.9656570175051
20
1.66089923775226
30
0
41
1
10
11.9904625726702
20
1.65318929212845
30
0
41
1
10
12.0061849050282
20
1.64669768027054
30
0
41
1
10
12.0282053870805
20
1.63441462487205
30
0
41
1
10
12.035331212458
20
1.62985370788164
30
0
41
1
10
12.0486629782279
20
1.61998059887625
30
0
41
1
10
12.0610977956312
20
1.60936475940733
30
0
41
1
10
12.0716612045522
20
1.59720978217951
30
0
41
1
10
12.0812330970226
20
1.58424363674226
30
0
41
1
10
12.0854688974951
20
1.57741141534424
30
0
41
1
10
12.0963162503404
20
1.55639956185237
30
0
41
1
10
12.1012209708193
20
1.54152420135819
30
0
41
1
10
12.1040419200235
20
1.52587398262656
30
0
0
SPLINE
5
10F
100
AcDbEntity
8
1
62
256
6
ByLayer
370
18
48
1
60
0
100
AcDbSpline
70
4
71
3
72
8
73
4
40
0
40
0
40
0
40
0
40
1
40
1
40
1
40
1
41
1
10
12.1040419200235
20
1.52587398262656
30
0
41
1
10
12.1069791425427
20
1.51987206615473
30
0
41
1
10
12.1099164714097
20
1.51386993237202
30
0
41
1
10
12.1128539091365
20
1.50786757614546
30
0
0
SPLINE
5
110
100
AcDbEntity
8
1
62
256
6
ByLayer
370
18
48
1
60
0
100
AcDbSpline
70
4
71
3
72
35
73
31
40
0
40
0
40
0
40
0
40
0.125000000000041
40
0.125000000000041
40
0.250000000000081
40
0.250000000000081
40
0.375000000000122
40
0.375000000000122
40
0.500000000000163
40
0.500000000000163
40
0.562500000000157
40
0.562500000000157
40
0.62500000000015
40
0.62500000000015
40
0.687500000000144
40
0.687500000000144
40
0.718750000000141
40
0.718750000000141
40
0.750000000000138
40
0.750000000000138
40
0.812500000000106
40
0.812500000000106
40
0.843750000000091
40
0.843750000000091
40
0.875000000000075
40
0.906250000000059
40
0.906250000000059
40
0.937500000000043
40
0.937500000000043
40
1
40
1
40
1
40
1
41
1
10
14.1613175788577
20
-3.34317350080181
30
0
41
1
10
14.1928572195397
20
-3.32496408076395
30
0
41
1
10
14.2237138791352
20
-3.30550689168629
30
0
41
1
10
14.2837616798358
20
-3.26416810484548
30
0
41
1
10
14.3128793619931
20
-3.24234419145145
30
0
41
1
10
14.3691214443511
20
-3.1961627586505
30
0
41
1
10
14.3962560770191
20
-3.17179398606328
30
0
41
1
10
14.4477221040023
20
-3.12041994198324
30
0
41
1
10
14.4720766397591
20
-3.09340729895448
30
0
41
1
10
14.5055529064194
20
-3.05072035386706
30
0
41
1
10
14.5161825894863
20
-3.03614981553133
30
0
41
1
10
14.5361798096338
20
-3.00620204398064
30
0
41
1
10
14.5455192921813
20
-2.99085899541444
30
0
41
1
10
14.5624102323328
20
-2.95962857749331
30
0
41
1
10
14.5699935131868
20
-2.94370195120751
30
0
41
1
10
14.5797306468847
20
-2.91923326821779
30
0
41
1
10
14.5827017032106
20
-2.91098002412505
30
0
41
1
10
14.5880059540245
20
-2.89425059729894
30
0
41
1
10
14.5903375110131
20
-2.88576441519714
30
0
41
1
10
14.5961067741712
20
-2.86039905828852
30
0
41
1
10
14.598387382822
20
-2.84347009944105
30
0
41
1
10
14.5987846854014
20
-2.81806495634979
30
0
41
1
10
14.5983981965082
20
-2.80961074162062
30
0
41
1
10
14.5965361246758
20
-2.79320404363665
30
0
41
1
10
14.5935906975274
20
-2.77717786470996
30
0
41
1
10
14.5883777401493
20
-2.76195660494656
30
0
41
1
10
14.5819571090137
20
-2.74716755170888
30
0
41
1
10
14.5781455180673
20
-2.74003006184003
30
0
41
1
10
14.5653403919118
20
-2.72003132181152
30
0
41
1
10
14.5548776192147
20
-2.7083018262928
30
0
41
1
10
14.5426985623223
20
-2.69800322405024
30
0
0
SPLINE
5
111
100
AcDbEntity
8
1
62
256
6
ByLayer
370
18
48
1
60
0
100
AcDbSpline
70
4
71
3
72
52
73
48
40
0
40
0
40
0
40
0
40
0.0156249999999866
40
0.0156249999999866
40
0.0312499999999732
40
0.0312499999999732
40
0.0624999999999535
40
0.0624999999999535
40
0.0937499999999336
40
0.0937499999999336
40
0.124999999999914
40
0.124999999999914
40
0.187499999999925
40
0.187499999999925
40
0.218749999999929
40
0.218749999999929
40
0.249999999999934
40
0.249999999999934
40
0.312499999999942
40
0.312499999999942
40
0.374999999999949
40
0.374999999999949
40
0.437499999999957
40
0.437499999999957
40
0.499999999999965
40
0.499999999999965
40
0.562499999999972
40
0.562499999999972
40
0.62499999999998
40
0.62499999999998
40
0.687499999999988
40
0.687499999999988
40
0.749999999999996
40
0.749999999999996
40
0.812500000000004
40
0.812500000000004
40
0.843750000000003
40
0.843750000000003
40
0.875000000000002
40
0.875000000000002
40
0.906250000000002
40
0.906250000000002
40
0.937500000000001
40
0.937500000000001
40
0.968750000000001
40
0.968750000000001
40
1
40
1
40
1
40
1
41
1
10
15.1766242211558
20
-1.56399896176546
30
0
41
1
10
15.1697820799384
20
-1.56352966039043
30
0
41
1
10
15.1629181354412
20
-1.56342828377942
30
0
41
1
10
15.1491500919924
20
-1.56388506792592
30
0
41
1
10
15.1422324594327
20
-1.56444660016587
30
0
41
1
10
15.1216597719405
20
-1.56699590736321
30
0
41
1
10
15.1081092100163
20
-1.56983795831474
30
0
41
1
10
15.0812570752998
20
-1.57733296400122
30
0
41
1
10
15.0679561041062
20
-1.5819900199115
30
0
41
1
10
15.041551992165
20
-1.59284184576848
30
0
41
1
10
15.0284963910948
20
-1.59902320498602
30
0
41
1
10
14.990073382792
20
-1.61929572508791
30
0
41
1
10
14.9651994305902
20
-1.63522440879677
30
0
41
1
10
14.9292647479875
20
-1.66151349231623
30
0
41
1
10
14.9174983626335
20
-1.67069106689749
30
0
41
1
10
14.8943392099274
20
-1.68979765167879
30
0
41
1
10
14.8829366458881
20
-1.6997375277179
30
0
41
1
10
14.8494374004477
20
-1.73041710490799
30
0
41
1
10
14.8279761003182
20
-1.7520618951944
30
0
41
1
10
14.7865361412064
20
-1.79745049232508
30
0
41
1
10
14.7666011510584
20
-1.82116168178334
30
0
41
1
10
14.7284809424785
20
-1.87003668277282
30
0
41
1
10
14.7102311513177
20
-1.89527731929016
30
0
41
1
10
14.675351403628
20
-1.94719882393102
30
0
41
1
10
14.6588023008877
20
-1.97375744688421
30
0
41
1
10
14.6274557714934
20
-2.02805170401379
30
0
41
1
10
14.6127382265812
20
-2.05564900856081
30
0
41
1
10
14.5852397539946
20
-2.11175744632462
30
0
41
1
10
14.5724683231516
20
-2.1402598382609
30
0
41
1
10
14.5491716434917
20
-2.19779159575018
30
0
41
1
10
14.5386004526275
20
-2.22693585945237
30
0
41
1
10
14.5200276282419
20
-2.28549150935226
30
0
41
1
10
14.511998236323
20
-2.31496381993998
30
0
41
1
10
14.4989019729065
20
-2.37417369567069
30
0
41
1
10
14.4938668082986
20
-2.40372519621801
30
0
41
1
10
14.4890711001661
20
-2.44801412533755
30
0
41
1
10
14.4879356559198
20
-2.46279508358077
30
0
41
1
10
14.486739897338
20
-2.49215173840941
30
0
41
1
10
14.4866754672734
20
-2.50674313835069
30
0
41
1
10
14.4877887102666
20
-2.53573728862398
30
0
41
1
10
14.4889674961139
20
-2.55011132645876
30
0
41
1
10
14.49277642403
20
-2.57837325123666
30
0
41
1
10
14.4954158414154
20
-2.59233112165552
30
0
41
1
10
14.5024364962359
20
-2.61954620331602
30
0
41
1
10
14.5067844857863
20
-2.6326969010596
30
0
41
1
10
14.5174968012917
20
-2.65791575393479
30
0
41
1
10
14.5238555246169
20
-2.66998693228973
30
0
41
1
10
14.5315105514353
20
-2.68136861437998
30
0
0
SPLINE
5
112
100
AcDbEntity
8
1
62
256
6
ByLayer
370
18
48
1
60
0
100
AcDbSpline
70
4
71
3
72
8
73
4
40
0
40
0
40
0
40
0
40
1
40
1
40
1
40
1
41
1
10
14.5315105514353
20
-2.68136861437998
30
0
41
1
10
14.5352400255467
20
-2.68691368818668
30
0
41
1
10
14.5389693614459
20
-2.69245855649609
30
0
41
1
10
14.5426985623223
20
-2.69800322405024
30
0
0
SPLINE
5
113
100
AcDbEntity
8
1
62
256
6
ByLayer
370
18
48
1
60
0
100
AcDbSpline
70
4
71
3
72
35
73
31
40
0
40
0
40
0
40
0
40
0.125000000000006
40
0.125000000000006
40
0.250000000000011
40
0.250000000000011
40
0.375000000000017
40
0.375000000000017
40
0.437500000000007
40
0.437500000000007
40
0.499999999999996
40
0.499999999999996
40
0.624999999999935
40
0.624999999999935
40
0.687499999999904
40
0.687499999999904
40
0.718749999999857
40
0.718749999999857
40
0.74999999999981
40
0.74999999999981
40
0.812499999999787
40
0.812499999999787
40
0.843749999999808
40
0.843749999999808
40
0.87499999999983
40
0.906249999999852
40
0.906249999999852
40
0.937499999999873
40
0.937499999999873
40
1
40
1
40
1
40
1
41
1
10
15.5646675788577
20
-0.912500000000023
30
0
41
1
10
15.5646675788577
20
-0.948919658302572
30
0
41
1
10
15.5632423792148
20
-0.985415904851834
30
0
41
1
10
15.5574689408925
20
-1.05803580265993
30
0
41
1
10
15.5531293519003
20
-1.09416615689145
30
0
41
1
10
15.5412439606187
20
-1.16602739705564
30
0
41
1
10
15.5337151720826
20
-1.20164771258899
30
0
41
1
10
15.5196917045145
20
-1.25419381908375
30
0
41
1
10
15.5145568029397
20
-1.27157574285499
30
0
41
1
10
15.50324460207
20
-1.30603495108991
30
0
41
1
10
15.4970655136316
20
-1.32311149488615
30
0
41
1
10
15.4768525392782
20
-1.37344002682053
30
0
41
1
10
15.4610824772324
20
-1.40604966364097
30
0
41
1
10
15.4330387985446
20
-1.4516580528184
30
0
41
1
10
15.4228966844427
20
-1.46638482887423
30
0
41
1
10
15.4064528771302
20
-1.48716463323294
30
0
41
1
10
15.4007659293805
20
-1.49387482590069
30
0
41
1
10
15.3889268712661
20
-1.50680203288536
30
0
41
1
10
15.382751973507
20
-1.51303854505809
30
0
41
1
10
15.3636721871525
20
-1.53066581317407
30
0
41
1
10
15.350189120193
20
-1.5410359464739
30
0
41
1
10
15.3285414411557
20
-1.55396471563552
30
0
41
1
10
15.3210286584887
20
-1.55785540294019
30
0
41
1
10
15.3058124123908
20
-1.56446449627154
30
0
41
1
10
15.2904014170265
20
-1.56992544429974
30
0
41
1
10
15.2745931935043
20
-1.57299613616203
30
0
41
1
10
15.2585782359312
20
-1.57480256548499
30
0
41
1
10
15.2505434584
20
-1.57505476560055
30
0
41
1
10
15.2269229830729
20
-1.57394292198248
30
0
41
1
10
15.2115881827549
20
-1.57075285426862
30
0
41
1
10
15.1966242211565
20
-1.56537075857639
30
0
0
SPLINE
5
114
100
AcDbEntity
8
1
62
256
6
ByLayer
370
18
48
1
60
0
100
AcDbSpline
70
4
71
3
72
8
73
4
40
0
40
0
40
0
40
0
40
1
40
1
40
1
40
1
41
1
10
15.1966242211565
20
-1.56537075857639
30
0
41
1
10
15.1899577977609
20
-1.56491350965871
30
0
41
1
10
15.1832911329946
20
-1.56445624418544
30
0
41
1
10
15.1766242211565
20
-1.56399896176555
30
0
0
SPLINE
5
115
100
AcDbEntity
8
1
62
256
6
ByLayer
370
18
48
1
60
0
100
AcDbSpline
70
4
71
3
72
39
73
35
40
0
40
0
40
0
40
0
40
0.124999999999978
40
0.124999999999978
40
0.249999999999956
40
0.249999999999956
40
0.374999999999934
40
0.374999999999934
40
0.437499999999918
40
0.437499999999918
40
0.499999999999902
40
0.499999999999902
40
0.562499999999886
40
0.562499999999886
40
0.62499999999987
40
0.62499999999987
40
0.687499999999854
40
0.687499999999854
40
0.718749999999861
40
0.718749999999861
40
0.749999999999868
40
0.749999999999868
40
0.81249999999987
40
0.81249999999987
40
0.843749999999892
40
0.843749999999892
40
0.874999999999914
40
0.874999999999914
40
0.906249999999935
40
0.906249999999935
40
0.937499999999957
40
0.968749999999978
40
0.968749999999978
40
1
40
1
40
1
40
1
41
1
10
9.95126757885774
20
-0.912500000000023
30
0
41
1
10
9.95126757885777
20
-0.876075127714131
30
0
41
1
10
9.95269143389763
20
-0.839614905301431
30
0
41
1
10
9.95846109795639
20
-0.767014702045486
30
0
41
1
10
9.9628111548362
20
-0.730803584005827
30
0
41
1
10
9.97468212369492
20
-0.659025380984588
30
0
41
1
10
9.9822121483887
20
-0.623381257536295
30
0
41
1
10
9.99624848681088
20
-0.570787518004266
30
0
41
1
10
10.001383685457
20
-0.553408526038055
30
0
41
1
10
10.0126802938791
20
-0.518995801302026
30
0
41
1
10
10.0188510187317
20
-0.501939247554304
30
0
41
1
10
10.0323114855814
20
-0.468415149570802
30
0
41
1
10
10.0396029554311
20
-0.451933066669682
30
0
41
1
10
10.0555207757351
20
-0.419642188251174
30
0
41
1
10
10.0641093892997
20
-0.403915976205639
30
0
41
1
10
10.0826687223087
20
-0.37369236324426
30
0
41
1
10
10.0926510104768
20
-0.359161765111651
30
0
41
1
10
10.1089517349517
20
-0.338479184313684
30
0
41
1
10
10.1146078797634
20
-0.331771726277765
30
0
41
1
10
10.1264359213047
20
-0.318792402837431
30
0
41
1
10
10.1326026628057
20
-0.312532166932414
30
0
41
1
10
10.1516418126009
20
-0.294843897230493
30
0
41
1
10
10.1651411149192
20
-0.284381648278384
30
0
41
1
10
10.1869349752724
20
-0.271282553932508
30
0
41
1
10
10.1944268987453
20
-0.26738131314255
30
0
41
1
10
10.2095826763995
20
-0.260743523995188
30
0
41
1
10
10.217287944512
20
-0.257980724388659
30
0
41
1
10
10.2329662055803
20
-0.25364190392159
30
0
41
1
10
10.241004459205
20
-0.252060482073688
30
0
41
1
10
10.2570178734335
20
-0.250217896493325
30
0
41
1
10
10.2729113054233
20
-0.24967695435879
30
0
41
1
10
10.2885714406617
20
-0.251616360794287
30
0
41
1
10
10.3041173891928
20
-0.254758107156306
30
0
41
1
10
10.3118091263683
20
-0.256931061530196
30
0
41
1
10
10.3193109365589
20
-0.259629241423653
30
0
0
SPLINE
5
116
100
AcDbEntity
8
1
62
256
6
ByLayer
370
18
48
1
60
0
100
AcDbSpline
70
4
71
3
72
8
73
4
40
0
40
0
40
0
40
0
40
1
40
1
40
1
40
1
41
1
10
10.9844246062802
20
0.856368614379932
30
0
41
1
10
10.9806951321688
20
0.861913688186633
30
0
41
1
10
10.9769657962696
20
0.867458556496047
30
0
41
1
10
10.9732365953932
20
0.873003224050194
30
0
0
SPLINE
5
117
100
AcDbEntity
8
1
62
256
6
ByLayer
370
18
48
1
60
0
100
AcDbSpline
70
4
71
3
72
35
73
31
40
0
40
0
40
0
40
0
40
0.124999999999983
40
0.124999999999983
40
0.249999999999966
40
0.249999999999966
40
0.374999999999949
40
0.374999999999949
40
0.499999999999933
40
0.499999999999933
40
0.562499999999922
40
0.562499999999922
40
0.624999999999911
40
0.624999999999911
40
0.6874999999999
40
0.6874999999999
40
0.718749999999909
40
0.718749999999909
40
0.749999999999918
40
0.749999999999918
40
0.812499999999941
40
0.812499999999941
40
0.843749999999953
40
0.843749999999953
40
0.874999999999964
40
0.906249999999976
40
0.906249999999976
40
0.937499999999988
40
0.937499999999988
40
1
40
1
40
1
40
1
41
1
10
11.3546175788577
20
1.51817350080174
30
0
41
1
10
11.3230779381758
20
1.4999640807639
30
0
41
1
10
11.2922212785803
20
1.48050689168625
30
0
41
1
10
11.2321734778797
20
1.43916810484544
30
0
41
1
10
11.2030557957223
20
1.41734419145141
30
0
41
1
10
11.1468137133644
20
1.37116275865043
30
0
41
1
10
11.1196790806964
20
1.34679398606323
30
0
41
1
10
11.0682130537132
20
1.2954199419832
30
0
41
1
10
11.0438585179563
20
1.26840729895443
30
0
41
1
10
11.010382251296
20
1.22572035386702
30
0
41
1
10
10.9997525682291
20
1.21114981553129
30
0
41
1
10
10.9797553480816
20
1.18120204398062
30
0
41
1
10
10.9704158655341
20
1.1658589954144
30
0
41
1
10
10.9535249253826
20
1.13462857749326
30
0
41
1
10
10.9459416445286
20
1.11870195120747
30
0
41
1
10
10.9362045108308
20
1.09423326821775
30
0
41
1
10
10.9332334545048
20
1.08598002412501
30
0
41
1
10
10.927929203691
20
1.06925059729889
30
0
41
1
10
10.9255976467024
20
1.0607644151971
30
0
41
1
10
10.9198283835443
20
1.03539905828845
30
0
41
1
10
10.9175477748935
20
1.018470099441
30
0
41
1
10
10.9171504723141
20
0.993064956349741
30
0
41
1
10
10.9175369612074
20
0.984610741620571
30
0
41
1
10
10.9193990330397
20
0.968204043636575
30
0
41
1
10
10.9223444601881
20
0.95217786470991
30
0
41
1
10
10.9275574175662
20
0.936956604946516
30
0
41
1
10
10.9339780487018
20
0.922167551708839
30
0
41
1
10
10.9377896396482
20
0.915030061839985
30
0
41
1
10
10.9505947658037
20
0.895031321811473
30
0
41
1
10
10.9610575385008
20
0.883301826292751
30
0
41
1
10
10.9732365953932
20
0.873003224050194
30
0
0
SPLINE
5
118
100
AcDbEntity
8
1
62
256
6
ByLayer
370
18
48
1
60
0
100
AcDbSpline
70
4
71
3
72
8
73
4
40
0
40
0
40
0
40
0
40
1
40
1
40
1
40
1
41
1
10
10.339310936559
20
-0.261001038234525
30
0
41
1
10
10.3326440247208
20
-0.260543755814609
30
0
41
1
10
10.3259773599546
20
-0.260086490341337
30
0
41
1
10
10.3193109365589
20
-0.259629241423653
30
0
0
SPLINE
5
119
100
AcDbEntity
8
1
62
256
6
ByLayer
370
18
48
1
60
0
100
AcDbSpline
70
4
71
3
72
50
73
46
40
0
40
0
40
0
40
0
40
0.0312499999999838
40
0.0312499999999838
40
0.046874999999982
40
0.046874999999982
40
0.0624999999999801
40
0.0624999999999801
40
0.124999999999976
40
0.124999999999976
40
0.156249999999975
40
0.156249999999975
40
0.187499999999975
40
0.187499999999975
40
0.249999999999972
40
0.249999999999972
40
0.281249999999972
40
0.281249999999972
40
0.312499999999972
40
0.312499999999972
40
0.374999999999973
40
0.374999999999973
40
0.499999999999968
40
0.499999999999968
40
0.562499999999973
40
0.562499999999973
40
0.624999999999978
40
0.624999999999978
40
0.687499999999982
40
0.687499999999982
40
0.749999999999987
40
0.749999999999987
40
0.812499999999992
40
0.812499999999992
40
0.843749999999993
40
0.843749999999993
40
0.874999999999994
40
0.874999999999994
40
0.906249999999996
40
0.906249999999996
40
0.937499999999997
40
0.937499999999997
40
0.968749999999999
40
0.968749999999999
40
1
40
1
40
1
40
1
41
1
10
10.9844246062802
20
0.856368614379932
30
0
41
1
10
10.9921227509316
20
0.844922823635386
30
0
41
1
10
10.9985261886694
20
0.832754054522042
30
0
41
1
10
11.0066138770057
20
0.813645685205643
30
0
41
1
10
11.0090542187987
20
0.807132187160988
30
0
41
1
10
11.0134704196557
20
0.793841548221195
30
0
41
1
10
11.0154503578249
20
0.787044937156452
30
0
41
1
10
11.0241950899266
20
0.75280640596651
30
0
41
1
10
11.0276646064673
20
0.724470526930475
30
0
41
1
10
11.0292673353731
20
0.680927347548732
30
0
41
1
10
11.029179298155
20
0.666189498641444
30
0
41
1
10
11.0279329323938
20
0.636770999636468
30
0
41
1
10
11.0267788556846
20
0.622054512424995
30
0
41
1
10
11.0219367556458
20
0.577872234008481
30
0
41
1
10
11.0168819282327
20
0.548373413841631
30
0
41
1
10
11.0070329087388
20
0.504021672914661
30
0
41
1
10
11.0033590575834
20
0.489187961289218
30
0
41
1
10
10.9953323332964
20
0.459634808765998
30
0
41
1
10
10.9909940172227
20
0.444962107360084
30
0
41
1
10
10.9770841565477
20
0.401225865064646
30
0
41
1
10
10.9666231923879
20
0.372442219322011
30
0
41
1
10
10.9320494534016
20
0.28707002010384
30
0
41
1
10
10.9048008526593
20
0.23144031339109
30
0
41
1
10
10.857785723331
20
0.149830708670663
30
0
41
1
10
10.8412337213783
20
0.123216120649175
30
0
41
1
10
10.8063740796256
20
0.0712268648613588
30
0
41
1
10
10.7880619945996
20
0.0458530861444331
30
0
41
1
10
10.7498543880364
20
-0.003207193980046
30
0
41
1
10
10.7298814914412
20
-0.0269924323866064
30
0
41
1
10
10.688412077502
20
-0.0724699072017359
30
0
41
1
10
10.6668807246332
20
-0.0942126531066378
30
0
41
1
10
10.6220936168186
20
-0.135268720990297
30
0
41
1
10
10.5989882641337
20
-0.154456286334067
30
0
41
1
10
10.5629822644285
20
-0.180825468190335
30
0
41
1
10
10.5507321909666
20
-0.189222599432497
30
0
41
1
10
10.5258698256437
20
-0.204981719253681
30
0
41
1
10
10.5132467977204
20
-0.212354621428403
30
0
41
1
10
10.4875421036864
20
-0.225927703072386
30
0
41
1
10
10.4744831751114
20
-0.232113294604119
30
0
41
1
10
10.4480608095869
20
-0.242980110142469
30
0
41
1
10
10.4346324458857
20
-0.247688432280512
30
0
41
1
10
10.4075061827005
20
-0.255242519386428
30
0
41
1
10
10.393919815633
20
-0.258062894833046
30
0
41
1
10
10.3666762240669
20
-0.261409072476255
30
0
41
1
10
10.3530191840608
20
-0.261941284744779
30
0
41
1
10
10.339310936559
20
-0.261001038234497
30
0
0
SPLINE
5
11A
100
AcDbEntity
8
SK1
62
256
6
ByLayer
370
18
48
1
60
0
100
AcDbSpline
70
4
71
3
72
25
73
21
40
0
40
0
40
0
40
0
40
0.124999999999995
40
0.156250000000003
40
0.156250000000003
40
0.187500000000012
40
0.187500000000012
40
0.250000000000028
40
0.250000000000028
40
0.37500000000004
40
0.37500000000004
40
0.437500000000046
40
0.437500000000046
40
0.500000000000052
40
0.500000000000052
40
0.625000000000044
40
0.625000000000044
40
0.750000000000037
40
0.750000000000037
40
1
40
1
40
1
40
1
41
1
10
-1.15972464815158
20
12.4352120428538
30
0
41
1
10
-1.11506299036407
20
12.3882232092848
30
0
41
1
10
-1.05640647538459
20
12.3336428619396
30
0
41
1
10
-0.994639946846888
20
12.2841281179534
30
0
41
1
10
-0.969691350604734
20
12.2647280710469
30
0
41
1
10
-0.957081411906955
20
12.2552207471121
30
0
41
1
10
-0.919184320269864
20
12.227507698119
30
0
41
1
10
-0.893747414488217
20
12.2100431034413
30
0
41
1
10
-0.817054361330122
20
12.1605006597188
30
0
41
1
10
-0.765418347273908
20
12.1312682141175
30
0
41
1
10
-0.687676689509203
20
12.0925297438362
30
0
41
1
10
-0.661714140375096
20
12.0804702882755
30
0
41
1
10
-0.609764315988087
20
12.0579768797454
30
0
41
1
10
-0.583750103264947
20
12.0475330443033
30
0
41
1
10
-0.505944015910899
20
12.0185913453127
30
0
41
1
10
-0.455304023752745
20
12.0028019617402
30
0
41
1
10
-0.356664569413027
20
11.976926320993
30
0
41
1
10
-0.308664304845109
20
11.9668448604547
30
0
41
1
10
-0.168870677141427
20
11.9436343920316
30
0
41
1
10
-0.0812722280129776
20
11.9375
30
0
41
1
10
5.68E-14
20
11.9375
30
0
0
SPLINE
5
11B
100
AcDbEntity
8
SK1
62
256
6
ByLayer
370
18
48
1
60
0
100
AcDbSpline
70
4
71
3
72
26
73
22
40
0
40
0
40
0
40
0
40
0.124999999999986
40
0.124999999999986
40
0.249999999999972
40
0.249999999999972
40
0.374999999999958
40
0.374999999999958
40
0.43749999999995
40
0.43749999999995
40
0.499999999999941
40
0.499999999999941
40
0.624999999999943
40
0.624999999999943
40
0.749999999999946
40
0.749999999999946
40
0.812499999999959
40
0.812499999999959
40
0.874999999999972
40
0.874999999999972
40
1
40
1
40
1
40
1
41
1
10
1.421E-13
20
-13.0114903551089
30
0
41
1
10
-0.0346247765711212
20
-12.9700583461243
30
0
41
1
10
-0.0711572466567816
20
-12.930587745735
30
0
41
1
10
-0.148194753929971
20
-12.8553333982738
30
0
41
1
10
-0.188699322251807
20
-12.8195519676671
30
0
41
1
10
-0.273950821075488
20
-12.751698198043
30
0
41
1
10
-0.318696444120974
20
-12.7196259483104
30
0
41
1
10
-0.389302647539637
20
-12.6744771038324
30
0
41
1
10
-0.413420542254954
20
-12.6599224277671
30
0
41
1
10
-0.462889913686467
20
-12.6318546577555
30
0
41
1
10
-0.488277150298814
20
-12.618323740836
30
0
41
1
10
-0.566180091253386
20
-12.5795125216883
30
0
41
1
10
-0.619895856035697
20
-12.5562658333454
30
0
41
1
10
-0.731084633046663
20
-12.5153768558119
30
0
41
1
10
-0.788556483499946
20
-12.4977322812511
30
0
41
1
10
-0.877812840841955
20
-12.4759300342488
30
0
41
1
10
-0.908074038302317
20
-12.4694423417073
30
0
41
1
10
-0.969667574983418
20
-12.458136932706
30
0
41
1
10
-1.0010629079095
20
-12.4533117276349
30
0
41
1
10
-1.09650467696932
20
-12.4416017730995
30
0
41
1
10
-1.16143874081823
20
-12.4375
30
0
41
1
10
-1.22772318076633
20
-12.4375
30
0
0
LINE
5
7F
100
AcDbEntity
8
80
62
256
6
ByLayer
370
18
48
1
60
0
100
AcDbLine
10
0
20
0
30
0
11
-5
21
0
31
0
39
0
210
0
220
0
230
1
0
LINE
5
80
100
AcDbEntity
8
81
62
256
6
ByLayer
370
18
48
1
60
0
100
AcDbLine
10
39.107968
20
-13.5625
30
0
11
44.107968
21
-13.5625
31
0
39
0
210
0
220
0
230
1
0
LINE
5
81
100
AcDbEntity
8
1
62
256
6
ByLayer
370
18
48
1
60
0
100
AcDbLine
10
0
20
11.9375
30
0
11
0
21
-13.01149
31
0
39
0
210
0
220
0
230
1
0
LINE
5
82
100
AcDbEntity
8
1
62
256
6
ByLayer
370
18
48
1
60
0
100
AcDbLine
10
29.44474
20
-13.282468
30
0
11
29.444682
21
-13.249735
31
0
39
0
210
0
220
0
230
1
0
LINE
5
83
100
AcDbEntity
8
1
62
256
6
ByLayer
370
18
48
1
60
0
100
AcDbLine
10
31.914373
20
-13.281513
30
0
11
31.91416
21
-13.162498
31
0
39
0
210
0
220
0
230
1
0
LINE
5
84
100
AcDbEntity
8
1
62
256
6
ByLayer
370
18
48
1
60
0
100
AcDbLine
10
0
20
11.9375
30
0
11
0.481918
21
11.9375
31
0
39
0
210
0
220
0
230
1
0
LINE
5
85
100
AcDbEntity
8
1
62
256
6
ByLayer
370
18
48
1
60
0
100
AcDbLine
10
30.522551
20
-8.900416
30
0
11
30.615114
21
-9.336032
31
0
39
0
210
0
220
0
230
1
0
LINE
5
86
100
AcDbEntity
8
1
62
256
6
ByLayer
370
18
48
1
60
0
100
AcDbLine
10
30.615114
20
-12.788968
30
0
11
30.518772
21
-13.242369
31
0
39
0
210
0
220
0
230
1
0
LINE
5
87
100
AcDbEntity
8
1
62
256
6
ByLayer
370
18
48
1
60
0
100
AcDbLine
10
31.107968
20
-10.787531
30
0
11
31.107968
21
-11.337469
31
0
39
0
210
0
220
0
230
1
0
LINE
5
88
100
AcDbEntity
8
1
62
256
6
ByLayer
370
18
48
1
60
0
100
AcDbLine
10
38.107968
20
-13.532219
30
0
11
38.107968
21
-13.582746
31
0
39
0
210
0
220
0
230
1
0
LINE
5
89
100
AcDbEntity
8
1
62
256
6
ByLayer
370
18
48
1
60
0
100
AcDbLine
10
34.438456
20
-13.281513
30
0
11
31.914373
21
-13.281513
31
0
39
0
210
0
220
0
230
1
0
LINE
5
8A
100
AcDbEntity
8
1
62
256
6
ByLayer
370
18
48
1
60
0
100
AcDbLine
10
29.44474
20
-13.282468
30
0
11
26.609901
21
-13.282468
31
0
39
0
210
0
220
0
230
1
0
LINE
5
8B
100
AcDbEntity
8
1
62
256
6
ByLayer
370
18
48
1
60
0
100
AcDbLine
10
0.317758
20
-13.62339
30
0
11
0.556289
21
-14.513599
31
0
39
0
210
0
220
0
230
1
0
LINE
5
8C
100
AcDbEntity
8
1
62
256
6
ByLayer
370
18
48
1
60
0
100
AcDbLine
10
29.436056
20
-14.513599
30
0
11
0.556289
21
-14.513599
31
0
39
0
210
0
220
0
230
1
0
LINE
5
8D
100
AcDbEntity
8
1
62
256
6
ByLayer
370
18
48
1
60
0
100
AcDbLine
10
2.572312
20
11.9375
30
0
11
8.621714
21
11.9375
31
0
39
0
210
0
220
0
230
1
0
LINE
5
8E
100
AcDbEntity
8
1
62
256
6
ByLayer
370
18
48
1
60
0
100
AcDbLine
10
20.324413
20
-13.340179
30
0
11
2.572312
21
-13.340179
31
0
39
0
210
0
220
0
230
1
0
LINE
5
8F
100
AcDbEntity
8
1
62
256
6
ByLayer
370
18
48
1
60
0
100
AcDbLine
10
8.621714
20
11.9375
30
0
11
19.507968
21
3.068803
31
0
39
0
210
0
220
0
230
1
0
LINE
5
90
100
AcDbEntity
8
1
62
256
6
ByLayer
370
18
48
1
60
0
100
AcDbLine
10
19.507968
20
-7.73008
30
0
11
19.507968
21
3.068803
31
0
39
0
210
0
220
0
230
1
0
LINE
5
91
100
AcDbEntity
8
1
62
256
6
ByLayer
370
18
48
1
60
0
100
AcDbLine
10
20.324413
20
-13.340179
30
0
11
23.180709
21
-13.340179
31
0
39
0
210
0
220
0
230
1
0
LINE
5
92
100
AcDbEntity
8
1
62
256
6
ByLayer
370
18
48
1
60
0
100
AcDbLine
10
27.607968
20
-8.974332
30
0
11
27.607968
21
-13.270085
31
0
39
0
210
0
220
0
230
1
0
LINE
5
93
100
AcDbEntity
8
1
62
256
6
ByLayer
370
18
48
1
60
0
100
AcDbLine
10
20.324413
20
-13.340179
30
0
11
20.324413
21
-9.131802
31
0
39
0
210
0
220
0
230
1
0
LINE
5
94
100
AcDbEntity
8
1
62
256
6
ByLayer
370
18
48
1
60
0
100
AcDbLine
10
0.481918
20
11.9375
30
0
11
2.572312
21
11.9375
31
0
39
0
210
0
220
0
230
1
0
LINE
5
95
100
AcDbEntity
8
1
62
256
6
ByLayer
370
18
48
1
60
0
100
AcDbLine
10
2.036414
20
-13.340179
30
0
11
2.572312
21
-13.340179
31
0
39
0
210
0
220
0
230
1
0
LINE
5
96
100
AcDbEntity
8
1
62
256
6
ByLayer
370
13
48
1
60
0
100
AcDbLine
10
0.481918
20
-13.240934
30
0
11
0.481918
21
11.9375
31
0
39
0
210
0
220
0
230
1
0
LINE
5
97
100
AcDbEntity
8
1
62
256
6
ByLayer
370
18
48
1
60
0
100
AcDbLine
10
2.572312
20
11.9375
30
0
11
2.572312
21
-13.340179
31
0
39
0
210
0
220
0
230
1
0
LINE
5
98
100
AcDbEntity
8
1
62
256
6
ByLayer
370
13
48
1
60
0
100
AcDbLine
10
21.107968
20
-8.902555
30
0
11
21.107968
21
-9.285024
31
0
39
0
210
0
220
0
230
1
0
LINE
5
99
100
AcDbEntity
8
1
62
256
6
ByLayer
370
18
48
1
60
0
100
AcDbLine
10
14.421053
20
-13.562214
30
0
11
18.607968
21
-13.37941
31
0
39
0
210
0
220
0
230
1
0
LINE
5
9A
100
AcDbEntity
8
1
62
256
6
ByLayer
370
18
48
1
60
0
100
AcDbLine
10
18.607968
20
-13.37941
30
0
11
18.675922
21
-13.340176
31
0
39
0
210
0
220
0
230
1
0
LINE
5
9B
100
AcDbEntity
8
1
62
256
6
ByLayer
370
18
48
1
60
0
100
AcDbLine
10
32.737968
20
-8.9625
30
0
11
34.232269
21
-8.9625
31
0
39
0
210
0
220
0
230
1
0
LINE
5
9C
100
AcDbEntity
8
1
62
256
6
ByLayer
370
18
48
1
60
0
100
AcDbLine
10
32.737968
20
-13.1625
30
0
11
34.232269
21
-13.1625
31
0
39
0
210
0
220
0
230
1
0
LINE
5
9D
100
AcDbEntity
8
1
62
256
6
ByLayer
370
18
48
1
60
0
100
AcDbLine
10
39.107968
20
-13.2625
30
0
11
39.107968
21
-8.8625
31
0
39
0
210
0
220
0
230
1
0
LINE
5
9E
100
AcDbEntity
8
1
62
256
6
ByLayer
370
18
48
1
60
0
100
AcDbLine
10
34.607968
20
-8.74559
30
0
11
34.232269
21
-8.9625
31
0
39
0
210
0
220
0
230
1
0
LINE
5
9F
100
AcDbEntity
8
1
62
256
6
ByLayer
370
18
48
1
60
0
100
AcDbLine
10
38.794882
20
-13.562214
30
0
11
34.607968
21
-13.37941
31
0
39
0
210
0
220
0
230
1
0
LINE
5
A0
100
AcDbEntity
8
1
62
256
6
ByLayer
370
18
48
1
60
0
100
AcDbLine
10
34.607968
20
-13.37941
30
0
11
34.232269
21
-13.1625
31
0
39
0
210
0
220
0
230
1
0
LINE
5
A1
100
AcDbEntity
8
1
62
256
6
ByLayer
370
18
48
1
60
0
100
AcDbLine
10
38.794882
20
-8.562786
30
0
11
34.607968
21
-8.74559
31
0
39
0
210
0
220
0
230
1
0
LINE
5
A2
100
AcDbEntity
8
1
62
256
6
ByLayer
370
13
48
1
60
0
100
AcDbLine
10
31.107967
20
-11.0825
30
0
11
32.045829
21
-11.0825
31
0
39
0
210
0
220
0
230
1
0
LINE
5
A3
100
AcDbEntity
8
1
62
256
6
ByLayer
370
13
48
1
60
0
100
AcDbLine
10
31.107967
20
-11.0425
30
0
11
32.045829
21
-11.0425
31
0
39
0
210
0
220
0
230
1
0
LINE
5
A4
100
AcDbEntity
8
1
62
256
6
ByLayer
370
13
48
1
60
0
100
AcDbLine
10
31.107885
20
-11.273236
30
0
11
32.036914
21
-11.273236
31
0
39
0
210
0
220
0
230
1
0
LINE
5
A5
100
AcDbEntity
8
1
62
256
6
ByLayer
370
13
48
1
60
0
100
AcDbLine
10
31.107885
20
-10.851764
30
0
11
32.036914
21
-10.851764
31
0
39
0
210
0
220
0
230
1
0
LINE
5
A6
100
AcDbEntity
8
1
62
256
6
ByLayer
370
13
48
1
60
0
100
AcDbLine
10
30.999449
20
-11.490233
30
0
11
31.856913
21
-11.490233
31
0
39
0
210
0
220
0
230
1
0
LINE
5
A7
100
AcDbEntity
8
1
62
256
6
ByLayer
370
13
48
1
60
0
100
AcDbLine
10
30.999449
20
-10.634767
30
0
11
31.856913
21
-10.634767
31
0
39
0
210
0
220
0
230
1
0
LINE
5
A8
100
AcDbEntity
8
1
62
256
6
ByLayer
370
13
48
1
60
0
100
AcDbLine
10
31.698086
20
-11.545585
30
0
11
30.869828
21
-11.545585
31
0
39
0
210
0
220
0
230
1
0
LINE
5
A9
100
AcDbEntity
8
1
62
256
6
ByLayer
370
13
48
1
60
0
100
AcDbLine
10
31.698086
20
-10.579415
30
0
11
30.869828
21
-10.579415
31
0
39
0
210
0
220
0
230
1
0
LINE
5
AA
100
AcDbEntity
8
1
62
256
6
ByLayer
370
13
48
1
60
0
100
AcDbLine
10
30.827869
20
-11.576388
30
0
11
31.65749
21
-11.576388
31
0
39
0
210
0
220
0
230
1
0
LINE
5
AB
100
AcDbEntity
8
1
62
256
6
ByLayer
370
13
48
1
60
0
100
AcDbLine
10
30.827948
20
-10.548612
30
0
11
31.65749
21
-10.548612
31
0
39
0
210
0
220
0
230
1
0
LINE
5
AC
100
AcDbEntity
8
1
62
256
6
ByLayer
370
13
48
1
60
0
100
AcDbLine
10
30.812561
20
-11.668165
30
0
11
31.585659
21
-11.668165
31
0
39
0
210
0
220
0
230
1
0
LINE
5
AD
100
AcDbEntity
8
1
62
256
6
ByLayer
370
13
48
1
60
0
100
AcDbLine
10
30.813183
20
-10.456835
30
0
11
31.585659
21
-10.456835
31
0
39
0
210
0
220
0
230
1
0
LINE
5
AE
100
AcDbEntity
8
1
62
256
6
ByLayer
370
13
48
1
60
0
100
AcDbLine
10
30.806119
20
-10.412566
30
0
11
31.565926
21
-10.412566
31
0
39
0
210
0
220
0
230
1
0
LINE
5
AF
100
AcDbEntity
8
1
62
256
6
ByLayer
370
13
48
1
60
0
100
AcDbLine
10
30.80519
20
-11.712434
30
0
11
31.565926
21
-11.712434
31
0
39
0
210
0
220
0
230
1
0
LINE
5
B0
100
AcDbEntity
8
1
62
256
6
ByLayer
370
13
48
1
60
0
100
AcDbLine
10
30.590692
20
-12.903884
30
0
11
31.355842
21
-12.903884
31
0
39
0
210
0
220
0
230
1
0
LINE
5
B1
100
AcDbEntity
8
1
62
256
6
ByLayer
370
13
48
1
60
0
100
AcDbLine
10
30.590692
20
-9.221116
30
0
11
31.355842
21
-9.221116
31
0
39
0
210
0
220
0
230
1
0
LINE
5
B2
100
AcDbEntity
8
1
62
256
6
ByLayer
370
18
48
1
60
0
100
AcDbLine
10
30.535724
20
-13.1625
30
0
11
31.354322
21
-13.1625
31
0
39
0
210
0
220
0
230
1
0
LINE
5
B3
100
AcDbEntity
8
1
62
256
6
ByLayer
370
13
48
1
60
0
100
AcDbLine
10
30.586896
20
-12.921249
30
0
11
31.354322
21
-12.921249
31
0
39
0
210
0
220
0
230
1
0
LINE
5
B4
100
AcDbEntity
8
1
62
256
6
ByLayer
370
18
48
1
60
0
100
AcDbLine
10
30.535724
20
-8.9625
30
0
11
31.354322
21
-8.9625
31
0
39
0
210
0
220
0
230
1
0
LINE
5
B5
100
AcDbEntity
8
1
62
256
6
ByLayer
370
13
48
1
60
0
100
AcDbLine
10
30.586896
20
-9.203751
30
0
11
31.354322
21
-9.203751
31
0
39
0
210
0
220
0
230
1
0
LINE
5
B6
100
AcDbEntity
8
1
62
256
6
ByLayer
370
18
48
1
60
0
100
AcDbLine
10
32.737968
20
-13.1625
30
0
11
32.737968
21
-8.9625
31
0
39
0
210
0
220
0
230
1
0
LINE
5
B7
100
AcDbEntity
8
1
62
256
6
ByLayer
370
18
48
1
60
0
100
AcDbLine
10
31.354322
20
-8.9625
30
0
11
32.737968
21
-8.9625
31
0
39
0
210
0
220
0
230
1
0
LINE
5
B8
100
AcDbEntity
8
1
62
256
6
ByLayer
370
18
48
1
60
0
100
AcDbLine
10
31.354322
20
-9.203751
30
0
11
31.354322
21
-8.9625
31
0
39
0
210
0
220
0
230
1
0
LINE
5
B9
100
AcDbEntity
8
1
62
256
6
ByLayer
370
18
48
1
60
0
100
AcDbLine
10
31.565926
20
-10.412566
30
0
11
31.355842
21
-9.221116
31
0
39
0
210
0
220
0
230
1
0
LINE
5
BA
100
AcDbEntity
8
1
62
256
6
ByLayer
370
18
48
1
60
0
100
AcDbLine
10
31.65749
20
-10.548612
30
0
11
31.585659
21
-10.456835
31
0
39
0
210
0
220
0
230
1
0
LINE
5
BB
100
AcDbEntity
8
1
62
256
6
ByLayer
370
18
48
1
60
0
100
AcDbLine
10
32.045829
20
-11.0825
30
0
11
32.045829
21
-11.0425
31
0
39
0
210
0
220
0
230
1
0
LINE
5
BC
100
AcDbEntity
8
1
62
256
6
ByLayer
370
18
48
1
60
0
100
AcDbLine
10
31.65749
20
-11.576388
30
0
11
31.585659
21
-11.668165
31
0
39
0
210
0
220
0
230
1
0
LINE
5
BD
100
AcDbEntity
8
1
62
256
6
ByLayer
370
18
48
1
60
0
100
AcDbLine
10
31.565926
20
-11.712434
30
0
11
31.355842
21
-12.903884
31
0
39
0
210
0
220
0
230
1
0
LINE
5
BE
100
AcDbEntity
8
1
62
256
6
ByLayer
370
18
48
1
60
0
100
AcDbLine
10
31.354322
20
-12.921249
30
0
11
31.354322
21
-13.1625
31
0
39
0
210
0
220
0
230
1
0
LINE
5
BF
100
AcDbEntity
8
1
62
256
6
ByLayer
370
18
48
1
60
0
100
AcDbLine
10
31.354322
20
-13.1625
30
0
11
32.737968
21
-13.1625
31
0
39
0
210
0
220
0
230
1
0
LINE
5
C0
100
AcDbEntity
8
SK1
62
256
6
ByLayer
370
18
48
1
60
0
100
AcDbLine
10
-4.455467
20
12.4375
30
0
11
-110.892032
21
12.4375
31
0
39
0
210
0
220
0
230
1
0
LINE
5
C2
100
AcDbEntity
8
SK1
62
256
6
ByLayer
370
18
48
1
60
0
100
AcDbLine
10
-110.892032
20
-12.4375
30
0
11
-110.892032
21
12.4375
31
0
39
0
210
0
220
0
230
1
0
LINE
5
C3
100
AcDbEntity
8
SK1
62
256
6
ByLayer
370
18
48
1
60
0
100
AcDbLine
10
-4.455467
20
-12.4375
30
0
11
-110.892032
21
-12.4375
31
0
39
0
210
0
220
0
230
1
0
LINE
5
C4
100
AcDbEntity
8
SK1
62
256
6
ByLayer
370
18
48
1
60
0
100
AcDbLine
10
0
20
11.9375
30
0
11
0
21
-13.01149
31
0
39
0
210
0
220
0
230
1
0
LINE
5
C5
100
AcDbEntity
8
SK1
62
256
6
ByLayer
370
18
48
1
60
0
100
AcDbLine
10
-4.455467
20
12.4375
30
0
11
-4.455467
21
-12.4375
31
0
39
0
210
0
220
0
230
1
0
LINE
5
C6
100
AcDbEntity
8
SK1
62
256
6
ByLayer
370
18
48
1
60
0
100
AcDbLine
10
-1.227723
20
-12.4375
30
0
11
-4.455467
21
-12.4375
31
0
39
0
210
0
220
0
230
1
0
MTEXT
5
11C
100
AcDbEntity
8
SK6
62
256
6
ByLayer
370
18
48
1
60
0
100
AcDbMText
10
-68.206532
20
-55.172425
30
0
210
0
220
0
230
1
1
\W0.7595;C2A-RS25-LFJ18B-175DB
40
3.5
41
0
44
1.084337
50
0
71
7
72
5
7
iso_b_vert
0
DIMENSION
5
121
100
AcDbEntity
8
2
62
256
6
ByLayer
370
18
48
1
60
0
100
AcDbDimension
2
_U0
10
72.207968
20
12.4375
30
0
11
72.207968
21
-0.5625
31
0
70
32
71
1
72
1
41
1
210
0
220
0
230
1
3
Standard
100
AcDbAlignedDimension
13
39.107968
23
-13.5625
33
0
14
-110.892032
24
12.4375
34
0
50
90
100
AcDbRotatedDimension
1001
ACAD
1000
DSTYLE
1002
{
1070
   371
1070
    13
1070
   372
1070
    13
1070
   170
1070
     0
1070
   144
1040
1.0
1070
   277
1070
     2
1070
   284
1070
     8
1070
   278
1070
    46
1070
   146
1040
1.0
1070
   345
1005
16
1070
   347
1005
16
1070
   346
1005
16
1070
   344
1005
0
1070
   343
1005
0
1070
   172
1070
     1
1070
    76
1070
     0
1070
    75
1070
     0
1070
   282
1070
     0
1070
   281
1070
     0
1070
    71
1070
     0
1070
    74
1070
     0
1070
   279
1070
     0
1070
   173
1070
     1
1070
   340
1005
11D
1070
   271
1070
     2
1070
   272
1070
     2
1070
    77
1070
     1
1070
    73
1070
     0
1070
   171
1070
     3
1070
   274
1070
     4
1070
   177
1070
     2
1070
   176
1070
     2
1070
   178
1070
     2
1070
    78
1070
     8
1070
    48
1040
-0.1
1070
    41
1040
3.5
1070
   147
1040
1.75
1070
    42
1040
1.5875
1070
    44
1040
2.0
1070
   140
1040
3.5
1002
}
1001
ACAD_DSTYLE_DIM_LINETYPE
1070
   380
1005
16
1001
ACAD_DSTYLE_DIM_EXT1_LINETYPE
1070
   381
1005
16
1001
ACAD_DSTYLE_DIM_EXT2_LINETYPE
1070
   382
1005
16
0
DIMENSION
5
13B
100
AcDbEntity
8
2
62
256
6
ByLayer
370
18
48
1
60
0
100
AcDbDimension
2
_U1
10
60.207968
20
-13.5625
30
0
11
60.207968
21
-11.0625
31
0
70
32
71
1
72
1
41
1
210
0
220
0
230
1
3
Standard
100
AcDbAlignedDimension
13
39.107968
23
-8.5625
33
0
14
39.107968
24
-13.5625
34
0
50
90
100
AcDbRotatedDimension
1001
ACAD
1000
DSTYLE
1002
{
1070
   371
1070
    13
1070
   372
1070
    13
1070
   170
1070
     0
1070
   144
1040
1.0
1070
   277
1070
     2
1070
   284
1070
     8
1070
   278
1070
    46
1070
   146
1040
1.0
1070
   345
1005
16
1070
   347
1005
16
1070
   346
1005
16
1070
   344
1005
0
1070
   343
1005
0
1070
   172
1070
     1
1070
    76
1070
     0
1070
    75
1070
     0
1070
   282
1070
     0
1070
   281
1070
     0
1070
    71
1070
     0
1070
    74
1070
     0
1070
   279
1070
     0
1070
   173
1070
     1
1070
   340
1005
11D
1070
   271
1070
     2
1070
   272
1070
     2
1070
    77
1070
     1
1070
    73
1070
     0
1070
   171
1070
     3
1070
   274
1070
     4
1070
   177
1070
     2
1070
   176
1070
     2
1070
   178
1070
     2
1070
    78
1070
     8
1070
    48
1040
-0.1
1070
    41
1040
3.5
1070
   147
1040
1.75
1070
    42
1040
1.5875
1070
    44
1040
2.0
1070
   140
1040
3.5
1002
}
1001
ACAD_DSTYLE_DIM_LINETYPE
1070
   380
1005
16
1001
ACAD_DSTYLE_DIM_EXT1_LINETYPE
1070
   381
1005
16
1001
ACAD_DSTYLE_DIM_EXT2_LINETYPE
1070
   382
1005
16
0
DIMENSION
5
154
100
AcDbEntity
8
SK2
62
256
6
ByLayer
370
18
48
1
60
0
100
AcDbDimension
2
_U2
10
-122.492032
20
-12.5625
30
0
11
-122.492032
21
-0.0625
31
0
70
32
71
1
72
1
41
1
210
0
220
0
230
1
3
Standard
100
AcDbAlignedDimension
13
-110.892032
23
12.4375
33
0
14
-110.892032
24
-12.5625
34
0
50
90
100
AcDbRotatedDimension
1001
ACAD
1000
DSTYLE
1002
{
1070
   371
1070
    13
1070
   372
1070
    13
1070
   170
1070
     0
1070
   144
1040
1.0
1070
   277
1070
     2
1070
   284
1070
     8
1070
   278
1070
    46
1070
   146
1040
1.0
1070
   345
1005
16
1070
   347
1005
16
1070
   346
1005
16
1070
   344
1005
0
1070
   343
1005
0
1070
   172
1070
     1
1070
    76
1070
     0
1070
    75
1070
     0
1070
   282
1070
     0
1070
   281
1070
     0
1070
    71
1070
     0
1070
    74
1070
     0
1070
   279
1070
     0
1070
   173
1070
     1
1070
   340
1005
11D
1070
   271
1070
     2
1070
   272
1070
     2
1070
    77
1070
     1
1070
    73
1070
     0
1070
   171
1070
     3
1070
   274
1070
     4
1070
   177
1070
     2
1070
   176
1070
     2
1070
   178
1070
     2
1070
    78
1070
     8
1070
    48
1040
-0.1
1070
    41
1040
3.5
1070
   147
1040
1.75
1070
    42
1040
1.5875
1070
    44
1040
2.0
1070
   140
1040
3.5
1002
}
1001
ACAD_DSTYLE_DIM_LINETYPE
1070
   380
1005
16
1001
ACAD_DSTYLE_DIM_EXT1_LINETYPE
1070
   381
1005
16
1001
ACAD_DSTYLE_DIM_EXT2_LINETYPE
1070
   382
1005
16
0
DIMENSION
5
16D
100
AcDbEntity
8
2
62
256
6
ByLayer
370
18
48
1
60
0
100
AcDbDimension
2
_U3
10
39.107968
20
18.6875
30
0
11
30.107968
21
18.6875
31
0
70
32
71
1
72
1
41
1
210
0
220
0
230
1
3
Standard
100
AcDbAlignedDimension
13
21.107968
23
-8.8875
33
0
14
39.107968
24
-13.5625
34
0
50
0
100
AcDbRotatedDimension
1001
ACAD
1000
DSTYLE
1002
{
1070
   371
1070
    13
1070
   372
1070
    13
1070
   170
1070
     0
1070
   144
1040
1.0
1070
   277
1070
     2
1070
   284
1070
     8
1070
   278
1070
    46
1070
   146
1040
1.0
1070
   345
1005
16
1070
   347
1005
16
1070
   346
1005
16
1070
   344
1005
0
1070
   343
1005
0
1070
   172
1070
     1
1070
    76
1070
     0
1070
    75
1070
     0
1070
   282
1070
     0
1070
   281
1070
     0
1070
    71
1070
     0
1070
    74
1070
     0
1070
   279
1070
     0
1070
   173
1070
     1
1070
   340
1005
11D
1070
   271
1070
     1
1070
   272
1070
     2
1070
    77
1070
     1
1070
    73
1070
     1
1070
   171
1070
     3
1070
   274
1070
     4
1070
   177
1070
     2
1070
   176
1070
     2
1070
   178
1070
     2
1070
    78
1070
     8
1070
    48
1040
-0.1
1070
    41
1040
3.5
1070
   147
1040
1.75
1070
    42
1040
1.5875
1070
    44
1040
2.0
1070
   140
1040
3.5
1002
}
1001
ACAD_DSTYLE_DIM_LINETYPE
1070
   380
1005
16
1001
ACAD_DSTYLE_DIM_EXT1_LINETYPE
1070
   381
1005
16
1001
ACAD_DSTYLE_DIM_EXT2_LINETYPE
1070
   382
1005
16
0
DIMENSION
5
185
100
AcDbEntity
8
SK2
62
256
6
ByLayer
370
18
48
1
60
0
100
AcDbDimension
2
_U4
10
39.107968
20
34.6875
30
0
11
-35.892032
21
34.6875
31
0
70
32
71
1
72
1
41
1
210
0
220
0
230
1
3
Standard
100
AcDbAlignedDimension
13
-110.892032
23
12.4375
33
0
14
39.107968
24
-13.5625
34
0
50
0
100
AcDbRotatedDimension
1001
ACAD
1000
DSTYLE
1002
{
1070
   371
1070
    13
1070
   372
1070
    13
1070
   170
1070
     0
1070
   144
1040
1.0
1070
   277
1070
     2
1070
   284
1070
     8
1070
   278
1070
    46
1070
   146
1040
1.0
1070
   345
1005
16
1070
   347
1005
16
1070
   346
1005
16
1070
   344
1005
0
1070
   343
1005
0
1070
   172
1070
     1
1070
    76
1070
     0
1070
    75
1070
     0
1070
   282
1070
     0
1070
   281
1070
     0
1070
    71
1070
     0
1070
    74
1070
     0
1070
   279
1070
     0
1070
   173
1070
     1
1070
   340
1005
11D
1070
   271
1070
     1
1070
   272
1070
     2
1070
    77
1070
     1
1070
    73
1070
     1
1070
   171
1070
     3
1070
   274
1070
     4
1070
   177
1070
     2
1070
   176
1070
     2
1070
   178
1070
     2
1070
    78
1070
     8
1070
    48
1040
-0.1
1070
    41
1040
3.5
1070
   147
1040
1.75
1070
    42
1040
1.5875
1070
    44
1040
2.0
1070
   140
1040
3.5
1002
}
1001
ACAD_DSTYLE_DIM_LINETYPE
1070
   380
1005
16
1001
ACAD_DSTYLE_DIM_EXT1_LINETYPE
1070
   381
1005
16
1001
ACAD_DSTYLE_DIM_EXT2_LINETYPE
1070
   382
1005
16
0
ENDSEC
0
SECTION
2
OBJECTS
0
DICTIONARY
5
20c
330
0
100
AcDbDictionary
280
0
281
1
3
ACAD_GROUP
350
20d
3
ACAD_MLINESTYLE
350
20e
0
DICTIONARY
5
20d
330
0
100
AcDbDictionary
280
0
281
1
0
DICTIONARY
5
20e
330
0
100
AcDbDictionary
280
0
281
1
3
Standard
350
18
0
MLINESTYLE
5
18
330
20e
100
AcDbMlineStyle
2
Standard
70
0
3

62
256
51
90
52
90
71
2
49
-0.5
62
256
6
ByLayer
49
0.5
62
256
6
ByLayer
0
RASTERVARIABLES
5
1fb
330

100
AcDbRasterVariables
90
0
70
1
71
1
72
1
0
ENDSEC
0
EOF
