0
SECTION
2
HEADER
9
$ACADVER
1
AC1015
9
$DWGCODEPAGE
3
ANSI_1252
9
$HANDSEED
5
215
9
$ANGBASE
50
0
9
$ANGDIR
70
0
9
$ATTMODE
70
1
9
$AUNITS
70
0
9
$AUPREC
70
0
9
$CECOLOR
62
256
9
$CELTSCALE
40
1
9
$CELTYPE
6
ByLayer
9
$CELWEIGHT
370
18
9
$CLAYER
8
0
9
$CMLJUST
70
0
9
$CMLSCALE
40
1
9
$CMLSTYLE
2
Standard
9
$DIMSTYLE
2
Standard
9
$TEXTSIZE
40
0.2
9
$TEXTSTYLE
7
Standard
9
$LUNITS
70
2
9
$LUPREC
70
4
9
$EXTNAMES
290
1
9
$INSUNITS
70
4
9
$LTSCALE
40
1
9
$LWDISPLAY
290
1
9
$PDMODE
70
0
9
$PDSIZE
40
0
9
$PLINEGEN
70
0
0
ENDSEC
0
SECTION
2
CLASSES
0
CLASS
1
RASTERVARIABLES
2
AcDbRasterVariables
3
ISM
90
0
280
0
281
0
0
ENDSEC
0
SECTION
2
TABLES
0
TABLE
2
VPORT
5
20b
100
AcDbSymbolTable
0
VPORT
5
1
100
AcDbSymbolTableRecord
100
AcDbViewportTableRecord
2
*Active
70
0
10
0
20
0
11
1
21
1
12
-1
22
1
13
0
23
0
14
0.5
24
0.5
15
10
25
10
16
0
26
0
36
1
17
0
27
0
37
0
0
ENDTAB
0
TABLE
2
LTYPE
5
20c
100
AcDbSymbolTable
0
LTYPE
5
14
100
AcDbSymbolTableRecord
100
AcDbLinetypeTableRecord
70
0
2
ByBlock
3

72
65
73
0
40
0
0
LTYPE
5
15
100
AcDbSymbolTableRecord
100
AcDbLinetypeTableRecord
70
0
2
ByLayer
3

72
65
73
0
40
0
0
LTYPE
5
16
100
AcDbSymbolTableRecord
100
AcDbLinetypeTableRecord
70
0
2
Continuous
3
Solid line
72
65
73
0
40
0
0
LTYPE
5
6E
100
AcDbSymbolTableRecord
100
AcDbLinetypeTableRecord
70
0
2
CENTER
3
____ _ ____ _ ____ _ ____
72
65
73
4
40
47.5
49
22
74
0
49
-8.5
74
0
49
8.5
74
0
49
-8.5
74
0
0
LTYPE
5
6F
100
AcDbSymbolTableRecord
100
AcDbLinetypeTableRecord
70
0
2
DASHED
3
__ __ __ __ __ __ __ __ __
72
65
73
2
40
25.72
49
12.86
74
0
49
-12.86
74
0
0
ENDTAB
0
TABLE
2
LAYER
5
20d
100
AcDbSymbolTable
0
LAYER
5
10
100
AcDbSymbolTableRecord
100
AcDbLayerTableRecord
2
0
70
0
62
7
6
Continuous
290
1
370
-3
390
0
0
LAYER
5
71
100
AcDbSymbolTableRecord
100
AcDbLayerTableRecord
2
81
70
0
62
-3
6
Continuous
290
1
370
-3
390
0
0
LAYER
5
73
100
AcDbSymbolTableRecord
100
AcDbLayerTableRecord
2
80
70
0
62
-6
6
Continuous
290
1
370
-3
390
0
0
LAYER
5
75
100
AcDbSymbolTableRecord
100
AcDbLayerTableRecord
2
1
70
0
62
4
6
Continuous
290
1
370
-3
390
0
0
LAYER
5
120
100
AcDbSymbolTableRecord
100
AcDbLayerTableRecord
2
Defpoints
70
0
62
7
6
Continuous
290
0
370
-3
390
0
0
LAYER
5
12D
100
AcDbSymbolTableRecord
100
AcDbLayerTableRecord
2
2
70
0
62
7
6
Continuous
290
1
370
-3
390
0
0
LAYER
5
1f8
100
AcDbSymbolTableRecord
100
AcDbLayerTableRecord
2
SK1
70
0
62
4
6
Continuous
290
1
370
-3
390
0
0
LAYER
5
1f9
100
AcDbSymbolTableRecord
100
AcDbLayerTableRecord
2
SK6
70
0
62
5
6
Continuous
290
1
370
-3
390
0
0
LAYER
5
1fa
100
AcDbSymbolTableRecord
100
AcDbLayerTableRecord
2
SK2
70
0
62
7
6
Continuous
290
1
370
-3
390
0
0
ENDTAB
0
TABLE
2
STYLE
5
20e
100
AcDbSymbolTable
0
STYLE
5
11
100
AcDbSymbolTableRecord
100
AcDbTextStyleTableRecord
2
Standard
3
txt
70
0
71
0
40
0
41
1
42
0
50
0
0
STYLE
5
119
100
AcDbSymbolTableRecord
100
AcDbTextStyleTableRecord
2
iso_b_vert
3
simplex.shx
70
0
71
0
40
0
41
1
42
0
50
0
0
STYLE
5
11A
100
AcDbSymbolTableRecord
100
AcDbTextStyleTableRecord
2
DWGDirectTextStyle
3
simplex
70
0
71
0
40
0
41
1
42
0
50
0
0
ENDTAB
0
TABLE
2
DIMSTYLE
5
20f
100
AcDbSymbolTable
100
AcDbDimStyleTable
0
DIMSTYLE
105
27
100
AcDbSymbolTableRecord
100
AcDbDimStyleTableRecord
2
Standard
70
0
3
<>
41
0.18
42
0.0625
44
0.18
140
0.18
147
0.09
73
0
74
0
77
1
271
2
275
0
278
52
280
0
340
11
0
ENDTAB
0
TABLE
2
VIEW
5
210
100
AcDbSymbolTable
0
ENDTAB
0
TABLE
2
UCS
5
211
100
AcDbSymbolTable
0
ENDTAB
0
TABLE
2
APPID
5
212
100
AcDbSymbolTable
0
APPID
5
12
100
AcDbSymbolTableRecord
100
AcDbRegAppTableRecord
2
ACAD
70
0
0
APPID
5
11C
100
AcDbSymbolTableRecord
100
AcDbRegAppTableRecord
2
ACAD_DSTYLE_DIMBREAK
70
0
0
APPID
5
1B7
100
AcDbSymbolTableRecord
100
AcDbRegAppTableRecord
2
ACAD_DSTYLE_DIM_LINETYPE
70
0
0
APPID
5
1B8
100
AcDbSymbolTableRecord
100
AcDbRegAppTableRecord
2
ACAD_DSTYLE_DIM_EXT1_LINETYPE
70
0
0
APPID
5
1B9
100
AcDbSymbolTableRecord
100
AcDbRegAppTableRecord
2
ACAD_DSTYLE_DIM_EXT2_LINETYPE
70
0
0
APPID
5
1F4
100
AcDbSymbolTableRecord
100
AcDbRegAppTableRecord
2
ACAD_MLEADERVER
70
0
0
ENDTAB
0
TABLE
2
BLOCK_RECORD
5
213
100
AcDbSymbolTable
0
BLOCK_RECORD
5
1F
100
AcDbSymbolTableRecord
100
AcDbBlockTableRecord
2
*Model_Space
340
0
70
0
0
BLOCK_RECORD
5
1B
100
AcDbSymbolTableRecord
100
AcDbBlockTableRecord
2
*Paper_Space
340
0
70
0
0
BLOCK_RECORD
5
23
100
AcDbSymbolTableRecord
100
AcDbBlockTableRecord
2
*Paper_Space0
340
0
70
0
0
BLOCK_RECORD
5
121
100
AcDbSymbolTableRecord
100
AcDbBlockTableRecord
2
*D1
340
0
70
0
0
BLOCK_RECORD
5
12E
100
AcDbSymbolTableRecord
100
AcDbBlockTableRecord
2
_U0
340
0
70
0
0
BLOCK_RECORD
5
13A
100
AcDbSymbolTableRecord
100
AcDbBlockTableRecord
2
*D3
340
0
70
0
0
BLOCK_RECORD
5
147
100
AcDbSymbolTableRecord
100
AcDbBlockTableRecord
2
_U1
340
0
70
0
0
BLOCK_RECORD
5
153
100
AcDbSymbolTableRecord
100
AcDbBlockTableRecord
2
*D5
340
0
70
0
0
BLOCK_RECORD
5
160
100
AcDbSymbolTableRecord
100
AcDbBlockTableRecord
2
_U2
340
0
70
0
0
BLOCK_RECORD
5
16C
100
AcDbSymbolTableRecord
100
AcDbBlockTableRecord
2
*D7
340
0
70
0
0
BLOCK_RECORD
5
178
100
AcDbSymbolTableRecord
100
AcDbBlockTableRecord
2
_U3
340
0
70
0
0
BLOCK_RECORD
5
184
100
AcDbSymbolTableRecord
100
AcDbBlockTableRecord
2
*D9
340
0
70
0
0
BLOCK_RECORD
5
190
100
AcDbSymbolTableRecord
100
AcDbBlockTableRecord
2
_U4
340
0
70
0
0
ENDTAB
0
ENDSEC
0
SECTION
2
BLOCKS
0
BLOCK
5
20
100
AcDbEntity
8
0
100
AcDbBlockBegin
2
*Model_Space
70
0
10
0
20
0
30
0
3
*Model_Space
0
ENDBLK
5
21
100
AcDbEntity
8
0
100
AcDbBlockEnd
0
BLOCK
5
1C
100
AcDbEntity
8
0
100
AcDbBlockBegin
2
*Paper_Space
70
0
10
0
20
0
30
0
3
*Paper_Space
0
ENDBLK
5
1D
100
AcDbEntity
8
0
100
AcDbBlockEnd
0
BLOCK
5
24
100
AcDbEntity
8
0
100
AcDbBlockBegin
2
*Paper_Space0
70
0
10
0
20
0
30
0
3
*Paper_Space0
0
ENDBLK
5
25
100
AcDbEntity
8
0
100
AcDbBlockEnd
0
BLOCK
5
122
100
AcDbEntity
8
0
100
AcDbBlockBegin
2
*D1
70
1
10
0
20
0
30
0
3
*D1
0
LINE
5
124
100
AcDbEntity
8
0
62
256
6
ByLayer
370
-2
48
1
60
0
100
AcDbLine
10
40.695468
20
-11.0625
30
0
11
74.207968
21
-11.0625
31
0
39
0
210
0
220
0
230
1
0
LINE
5
125
100
AcDbEntity
8
0
62
256
6
ByLayer
370
-2
48
1
60
0
100
AcDbLine
10
-84.304532
20
9.9375
30
0
11
74.207968
21
9.9375
31
0
39
0
210
0
220
0
230
1
0
LINE
5
126
100
AcDbEntity
8
0
62
256
6
ByLayer
370
-2
48
1
60
0
100
AcDbLine
10
72.207968
20
-7.5625
30
0
11
72.207968
21
6.4375
31
0
39
0
210
0
220
0
230
1
0
SOLID
5
127
100
AcDbEntity
8
0
62
256
6
ByLayer
370
-1
48
1
60
0
100
AcDbTrace
10
71.624634
20
-7.5625
30
0
11
72.791301
21
-7.5625
31
0
12
72.207968
22
-11.0625
32
0
13
72.207968
23
-11.0625
33
0
39
0
210
0
220
0
230
1
0
SOLID
5
128
100
AcDbEntity
8
0
62
256
6
ByLayer
370
-1
48
1
60
0
100
AcDbTrace
10
72.791301
20
6.4375
30
0
11
71.624634
21
6.4375
31
0
12
72.207968
22
9.9375
32
0
13
72.207968
23
9.9375
33
0
39
0
210
0
220
0
230
1
0
MTEXT
5
129
100
AcDbEntity
8
0
62
256
6
ByLayer
370
18
48
1
60
0
100
AcDbMText
10
65.207968
20
-0.5625
30
0
210
0
220
0
230
1
1
\A1;21
40
3.5
41
0
44
1
50
90
71
5
72
5
7
iso_b_vert
0
POINT
5
12A
100
AcDbEntity
8
Defpoints
62
0
6
ByLayer
370
-1
48
1
60
0
100
AcDbPoint
10
39.107968
20
-11.0625
30
0
39
0
210
0
220
0
230
1
50
360
0
POINT
5
12B
100
AcDbEntity
8
Defpoints
62
0
6
ByLayer
370
-1
48
1
60
0
100
AcDbPoint
10
-85.892032
20
9.9375
30
0
39
0
210
0
220
0
230
1
50
360
0
POINT
5
12C
100
AcDbEntity
8
Defpoints
62
0
6
ByLayer
370
-1
48
1
60
0
100
AcDbPoint
10
72.207968
20
9.9375
30
0
39
0
210
0
220
0
230
1
50
360
0
ENDBLK
5
123
100
AcDbEntity
8
0
100
AcDbBlockEnd
0
BLOCK
5
135
100
AcDbEntity
8
0
100
AcDbBlockBegin
2
_U0
70
0
10
0
20
0
30
0
3
_U0
0
MTEXT
5
12F
100
AcDbEntity
8
2
62
256
6
ByLayer
370
18
48
1
60
0
100
AcDbMText
10
71.518334
20
-2.058033
30
0
210
0
220
0
230
1
1
\W0.6351;21
40
3.5
41
0
44
1.084337
50
90
71
7
72
5
7
iso_b_vert
0
LINE
5
130
100
AcDbEntity
8
2
62
256
6
ByLayer
370
13
48
1
60
0
100
AcDbLine
10
40.695468
20
-11.0625
30
0
11
74.207968
21
-11.0625
31
0
39
0
210
0
220
0
230
1
0
LINE
5
131
100
AcDbEntity
8
2
62
256
6
ByLayer
370
13
48
1
60
0
100
AcDbLine
10
-84.304532
20
9.9375
30
0
11
74.207968
21
9.9375
31
0
39
0
210
0
220
0
230
1
0
LINE
5
132
100
AcDbEntity
8
2
62
256
6
ByLayer
370
13
48
1
60
0
100
AcDbLine
10
72.207968
20
-11.0625
30
0
11
72.207968
21
9.9375
31
0
39
0
210
0
220
0
230
1
0
SOLID
5
133
100
AcDbEntity
8
2
62
256
6
ByLayer
370
18
48
1
60
0
100
AcDbTrace
10
72.207968
20
-11.0625
30
0
11
71.747184
21
-7.562502
31
0
12
72.668751
22
-7.562498
32
0
13
72.668751
23
-7.562498
33
0
39
0
210
0
220
0
230
1
0
SOLID
5
134
100
AcDbEntity
8
2
62
256
6
ByLayer
370
18
48
1
60
0
100
AcDbTrace
10
72.207968
20
9.9375
30
0
11
72.668751
21
6.437502
31
0
12
71.747184
22
6.437498
32
0
13
71.747184
23
6.437498
33
0
39
0
210
0
220
0
230
1
0
ENDBLK
5
136
100
AcDbEntity
8
0
100
AcDbBlockEnd
0
BLOCK
5
13B
100
AcDbEntity
8
0
100
AcDbBlockBegin
2
*D3
70
1
10
0
20
0
30
0
3
*D3
0
LINE
5
13D
100
AcDbEntity
8
0
62
256
6
ByLayer
370
-2
48
1
60
0
100
AcDbLine
10
40.695468
20
-7.0625
30
0
11
62.207968
21
-7.0625
31
0
39
0
210
0
220
0
230
1
0
LINE
5
13E
100
AcDbEntity
8
0
62
256
6
ByLayer
370
-2
48
1
60
0
100
AcDbLine
10
40.695468
20
-11.0625
30
0
11
62.207968
21
-11.0625
31
0
39
0
210
0
220
0
230
1
0
LINE
5
13F
100
AcDbEntity
8
0
62
256
6
ByLayer
370
-2
48
1
60
0
100
AcDbLine
10
60.207968
20
-3.5625
30
0
11
60.207968
21
-0.0625
31
0
39
0
210
0
220
0
230
1
0
LINE
5
140
100
AcDbEntity
8
0
62
256
6
ByLayer
370
-2
48
1
60
0
100
AcDbLine
10
60.207968
20
-14.5625
30
0
11
60.207968
21
-18.0625
31
0
39
0
210
0
220
0
230
1
0
SOLID
5
141
100
AcDbEntity
8
0
62
256
6
ByLayer
370
-1
48
1
60
0
100
AcDbTrace
10
59.624634
20
-3.5625
30
0
11
60.791301
21
-3.5625
31
0
12
60.207968
22
-7.0625
32
0
13
60.207968
23
-7.0625
33
0
39
0
210
0
220
0
230
1
0
SOLID
5
142
100
AcDbEntity
8
0
62
256
6
ByLayer
370
-1
48
1
60
0
100
AcDbTrace
10
60.791301
20
-14.5625
30
0
11
59.624634
21
-14.5625
31
0
12
60.207968
22
-11.0625
32
0
13
60.207968
23
-11.0625
33
0
39
0
210
0
220
0
230
1
0
MTEXT
5
143
100
AcDbEntity
8
0
62
256
6
ByLayer
370
18
48
1
60
0
100
AcDbMText
10
53.207968
20
-9.0625
30
0
210
0
220
0
230
1
1
\A1;4
40
3.5
41
0
44
1
50
90
71
5
72
5
7
iso_b_vert
0
POINT
5
144
100
AcDbEntity
8
Defpoints
62
0
6
ByLayer
370
-1
48
1
60
0
100
AcDbPoint
10
39.107968
20
-7.0625
30
0
39
0
210
0
220
0
230
1
50
360
0
POINT
5
145
100
AcDbEntity
8
Defpoints
62
0
6
ByLayer
370
-1
48
1
60
0
100
AcDbPoint
10
39.107968
20
-11.0625
30
0
39
0
210
0
220
0
230
1
50
360
0
POINT
5
146
100
AcDbEntity
8
Defpoints
62
0
6
ByLayer
370
-1
48
1
60
0
100
AcDbPoint
10
60.207968
20
-11.0625
30
0
39
0
210
0
220
0
230
1
50
360
0
ENDBLK
5
13C
100
AcDbEntity
8
0
100
AcDbBlockEnd
0
BLOCK
5
14E
100
AcDbEntity
8
0
100
AcDbBlockBegin
2
_U1
70
0
10
0
20
0
30
0
3
_U1
0
MTEXT
5
148
100
AcDbEntity
8
2
62
256
6
ByLayer
370
18
48
1
60
0
100
AcDbMText
10
59.518334
20
-9.872
30
0
210
0
220
0
230
1
1
\W0.6380;4
40
3.5
41
0
44
1.084337
50
90
71
7
72
5
7
iso_b_vert
0
LINE
5
149
100
AcDbEntity
8
2
62
256
6
ByLayer
370
13
48
1
60
0
100
AcDbLine
10
40.695468
20
-7.0625
30
0
11
62.207968
21
-7.0625
31
0
39
0
210
0
220
0
230
1
0
LINE
5
14A
100
AcDbEntity
8
2
62
256
6
ByLayer
370
13
48
1
60
0
100
AcDbLine
10
40.695468
20
-11.0625
30
0
11
62.207968
21
-11.0625
31
0
39
0
210
0
220
0
230
1
0
LINE
5
14B
100
AcDbEntity
8
2
62
256
6
ByLayer
370
13
48
1
60
0
100
AcDbLine
10
60.207968
20
1.6875
30
0
11
60.207968
21
-19.8125
31
0
39
0
210
0
220
0
230
1
0
SOLID
5
14C
100
AcDbEntity
8
2
62
256
6
ByLayer
370
18
48
1
60
0
100
AcDbTrace
10
60.207968
20
-7.0625
30
0
11
59.747184
21
-3.562502
31
0
12
60.668751
22
-3.562498
32
0
13
60.668751
23
-3.562498
33
0
39
0
210
0
220
0
230
1
0
SOLID
5
14D
100
AcDbEntity
8
2
62
256
6
ByLayer
370
18
48
1
60
0
100
AcDbTrace
10
60.207968
20
-11.0625
30
0
11
60.668751
21
-14.562498
31
0
12
59.747184
22
-14.562502
32
0
13
59.747184
23
-14.562502
33
0
39
0
210
0
220
0
230
1
0
ENDBLK
5
14F
100
AcDbEntity
8
0
100
AcDbBlockEnd
0
BLOCK
5
154
100
AcDbEntity
8
0
100
AcDbBlockBegin
2
*D5
70
1
10
0
20
0
30
0
3
*D5
0
LINE
5
156
100
AcDbEntity
8
0
62
256
6
ByLayer
370
-2
48
1
60
0
100
AcDbLine
10
-87.479532
20
9.9375
30
0
11
-99.492032
21
9.9375
31
0
39
0
210
0
220
0
230
1
0
LINE
5
157
100
AcDbEntity
8
0
62
256
6
ByLayer
370
-2
48
1
60
0
100
AcDbLine
10
-87.479532
20
-10.0625
30
0
11
-99.492032
21
-10.0625
31
0
39
0
210
0
220
0
230
1
0
LINE
5
158
100
AcDbEntity
8
0
62
256
6
ByLayer
370
-2
48
1
60
0
100
AcDbLine
10
-97.492032
20
6.4375
30
0
11
-97.492032
21
-6.5625
31
0
39
0
210
0
220
0
230
1
0
SOLID
5
159
100
AcDbEntity
8
0
62
256
6
ByLayer
370
-1
48
1
60
0
100
AcDbTrace
10
-96.908699
20
6.4375
30
0
11
-98.075366
21
6.4375
31
0
12
-97.492032
22
9.9375
32
0
13
-97.492032
23
9.9375
33
0
39
0
210
0
220
0
230
1
0
SOLID
5
15A
100
AcDbEntity
8
0
62
256
6
ByLayer
370
-1
48
1
60
0
100
AcDbTrace
10
-98.075366
20
-6.5625
30
0
11
-96.908699
21
-6.5625
31
0
12
-97.492032
22
-10.0625
32
0
13
-97.492032
23
-10.0625
33
0
39
0
210
0
220
0
230
1
0
MTEXT
5
15B
100
AcDbEntity
8
0
62
256
6
ByLayer
370
18
48
1
60
0
100
AcDbMText
10
-104.492032
20
-0.0625
30
0
210
0
220
0
230
1
1
\A1;20
40
3.5
41
0
44
1
50
90
71
5
72
5
7
iso_b_vert
0
POINT
5
15C
100
AcDbEntity
8
Defpoints
62
0
6
ByLayer
370
-1
48
1
60
0
100
AcDbPoint
10
-85.892032
20
9.9375
30
0
39
0
210
0
220
0
230
1
50
360
0
POINT
5
15D
100
AcDbEntity
8
Defpoints
62
0
6
ByLayer
370
-1
48
1
60
0
100
AcDbPoint
10
-85.892032
20
-10.0625
30
0
39
0
210
0
220
0
230
1
50
360
0
POINT
5
15E
100
AcDbEntity
8
Defpoints
62
0
6
ByLayer
370
-1
48
1
60
0
100
AcDbPoint
10
-97.492032
20
-10.0625
30
0
39
0
210
0
220
0
230
1
50
360
0
ENDBLK
5
155
100
AcDbEntity
8
0
100
AcDbBlockEnd
0
BLOCK
5
167
100
AcDbEntity
8
0
100
AcDbBlockBegin
2
_U2
70
0
10
0
20
0
30
0
3
_U2
0
MTEXT
5
161
100
AcDbEntity
8
SK2
62
256
6
ByLayer
370
18
48
1
60
0
100
AcDbMText
10
-98.181666
20
-1.995466
30
0
210
0
220
0
230
1
1
\W0.6740;20
40
3.5
41
0
44
1.084337
50
90
71
7
72
5
7
iso_b_vert
0
LINE
5
162
100
AcDbEntity
8
SK2
62
256
6
ByLayer
370
13
48
1
60
0
100
AcDbLine
10
-87.479532
20
9.9375
30
0
11
-99.492032
21
9.9375
31
0
39
0
210
0
220
0
230
1
0
LINE
5
163
100
AcDbEntity
8
SK2
62
256
6
ByLayer
370
13
48
1
60
0
100
AcDbLine
10
-87.479532
20
-10.0625
30
0
11
-99.492032
21
-10.0625
31
0
39
0
210
0
220
0
230
1
0
LINE
5
164
100
AcDbEntity
8
SK2
62
256
6
ByLayer
370
13
48
1
60
0
100
AcDbLine
10
-97.492032
20
9.9375
30
0
11
-97.492032
21
-10.0625
31
0
39
0
210
0
220
0
230
1
0
SOLID
5
165
100
AcDbEntity
8
SK2
62
256
6
ByLayer
370
18
48
1
60
0
100
AcDbTrace
10
-97.492032
20
9.9375
30
0
11
-97.031249
21
6.437502
31
0
12
-97.952816
22
6.437498
32
0
13
-97.952816
23
6.437498
33
0
39
0
210
0
220
0
230
1
0
SOLID
5
166
100
AcDbEntity
8
SK2
62
256
6
ByLayer
370
18
48
1
60
0
100
AcDbTrace
10
-97.492032
20
-10.0625
30
0
11
-97.952816
21
-6.562502
31
0
12
-97.031249
22
-6.562498
32
0
13
-97.031249
23
-6.562498
33
0
39
0
210
0
220
0
230
1
0
ENDBLK
5
168
100
AcDbEntity
8
0
100
AcDbBlockEnd
0
BLOCK
5
16D
100
AcDbEntity
8
0
100
AcDbBlockBegin
2
*D7
70
1
10
0
20
0
30
0
3
*D7
0
LINE
5
16F
100
AcDbEntity
8
0
62
256
6
ByLayer
370
-2
48
1
60
0
100
AcDbLine
10
21.107968
20
-5.8
30
0
11
21.107968
21
18.1875
31
0
39
0
210
0
220
0
230
1
0
LINE
5
170
100
AcDbEntity
8
0
62
256
6
ByLayer
370
-2
48
1
60
0
100
AcDbLine
10
39.107968
20
-9.475
30
0
11
39.107968
21
18.1875
31
0
39
0
210
0
220
0
230
1
0
LINE
5
171
100
AcDbEntity
8
0
62
256
6
ByLayer
370
-2
48
1
60
0
100
AcDbLine
10
24.607968
20
16.1875
30
0
11
35.607968
21
16.1875
31
0
39
0
210
0
220
0
230
1
0
SOLID
5
172
100
AcDbEntity
8
0
62
256
6
ByLayer
370
-1
48
1
60
0
100
AcDbTrace
10
24.607968
20
16.770833
30
0
11
24.607968
21
15.604167
31
0
12
21.107968
22
16.1875
32
0
13
21.107968
23
16.1875
33
0
39
0
210
0
220
0
230
1
0
SOLID
5
173
100
AcDbEntity
8
0
62
256
6
ByLayer
370
-1
48
1
60
0
100
AcDbTrace
10
35.607968
20
15.604167
30
0
11
35.607968
21
16.770833
31
0
12
39.107968
22
16.1875
32
0
13
39.107968
23
16.1875
33
0
39
0
210
0
220
0
230
1
0
MTEXT
5
174
100
AcDbEntity
8
0
62
256
6
ByLayer
370
18
48
1
60
0
100
AcDbMText
10
30.107968
20
23.1875
30
0
210
0
220
0
230
1
1
\A1;18
40
3.5
41
0
44
1
50
0
71
5
72
5
7
iso_b_vert
0
POINT
5
175
100
AcDbEntity
8
Defpoints
62
0
6
ByLayer
370
-1
48
1
60
0
100
AcDbPoint
10
21.107968
20
-7.3875
30
0
39
0
210
0
220
0
230
1
50
360
0
POINT
5
176
100
AcDbEntity
8
Defpoints
62
0
6
ByLayer
370
-1
48
1
60
0
100
AcDbPoint
10
39.107968
20
-11.0625
30
0
39
0
210
0
220
0
230
1
50
360
0
POINT
5
177
100
AcDbEntity
8
Defpoints
62
0
6
ByLayer
370
-1
48
1
60
0
100
AcDbPoint
10
39.107968
20
16.1875
30
0
39
0
210
0
220
0
230
1
50
360
0
ENDBLK
5
16E
100
AcDbEntity
8
0
100
AcDbBlockEnd
0
BLOCK
5
17F
100
AcDbEntity
8
0
100
AcDbBlockBegin
2
_U3
70
0
10
0
20
0
30
0
3
_U3
0
MTEXT
5
179
100
AcDbEntity
8
2
62
256
6
ByLayer
370
18
48
1
60
0
100
AcDbMText
10
28.640435
20
17.220134
30
0
210
0
220
0
230
1
1
\W0.5321;18
40
3.5
41
0
44
1.084337
50
0
71
7
72
5
7
iso_b_vert
0
LINE
5
17A
100
AcDbEntity
8
2
62
256
6
ByLayer
370
13
48
1
60
0
100
AcDbLine
10
21.107968
20
-5.8
30
0
11
21.107968
21
18.1875
31
0
39
0
210
0
220
0
230
1
0
LINE
5
17B
100
AcDbEntity
8
2
62
256
6
ByLayer
370
13
48
1
60
0
100
AcDbLine
10
39.107968
20
-9.475
30
0
11
39.107968
21
18.1875
31
0
39
0
210
0
220
0
230
1
0
LINE
5
17C
100
AcDbEntity
8
2
62
256
6
ByLayer
370
13
48
1
60
0
100
AcDbLine
10
21.107968
20
16.1875
30
0
11
39.107968
21
16.1875
31
0
39
0
210
0
220
0
230
1
0
SOLID
5
17D
100
AcDbEntity
8
2
62
256
6
ByLayer
370
18
48
1
60
0
100
AcDbTrace
10
21.107968
20
16.1875
30
0
11
24.607966
21
16.648284
31
0
12
24.607969
22
15.726716
32
0
13
24.607969
23
15.726716
33
0
39
0
210
0
220
0
230
1
0
SOLID
5
17E
100
AcDbEntity
8
2
62
256
6
ByLayer
370
18
48
1
60
0
100
AcDbTrace
10
39.107968
20
16.1875
30
0
11
35.607969
21
15.726716
31
0
12
35.607966
22
16.648284
32
0
13
35.607966
23
16.648284
33
0
39
0
210
0
220
0
230
1
0
ENDBLK
5
180
100
AcDbEntity
8
0
100
AcDbBlockEnd
0
BLOCK
5
185
100
AcDbEntity
8
0
100
AcDbBlockBegin
2
*D9
70
1
10
0
20
0
30
0
3
*D9
0
LINE
5
187
100
AcDbEntity
8
0
62
256
6
ByLayer
370
-2
48
1
60
0
100
AcDbLine
10
-85.892032
20
11.525
30
0
11
-85.892032
21
34.1875
31
0
39
0
210
0
220
0
230
1
0
LINE
5
188
100
AcDbEntity
8
0
62
256
6
ByLayer
370
-2
48
1
60
0
100
AcDbLine
10
39.107968
20
-9.475
30
0
11
39.107968
21
34.1875
31
0
39
0
210
0
220
0
230
1
0
LINE
5
189
100
AcDbEntity
8
0
62
256
6
ByLayer
370
-2
48
1
60
0
100
AcDbLine
10
-82.392032
20
32.1875
30
0
11
35.607968
21
32.1875
31
0
39
0
210
0
220
0
230
1
0
SOLID
5
18A
100
AcDbEntity
8
0
62
256
6
ByLayer
370
-1
48
1
60
0
100
AcDbTrace
10
-82.392032
20
32.770833
30
0
11
-82.392032
21
31.604167
31
0
12
-85.892032
22
32.1875
32
0
13
-85.892032
23
32.1875
33
0
39
0
210
0
220
0
230
1
0
SOLID
5
18B
100
AcDbEntity
8
0
62
256
6
ByLayer
370
-1
48
1
60
0
100
AcDbTrace
10
35.607968
20
31.604167
30
0
11
35.607968
21
32.770833
31
0
12
39.107968
22
32.1875
32
0
13
39.107968
23
32.1875
33
0
39
0
210
0
220
0
230
1
0
MTEXT
5
18C
100
AcDbEntity
8
0
62
256
6
ByLayer
370
18
48
1
60
0
100
AcDbMText
10
-23.392032
20
39.1875
30
0
210
0
220
0
230
1
1
\A1;125
40
3.5
41
0
44
1
50
0
71
5
72
5
7
iso_b_vert
0
POINT
5
18D
100
AcDbEntity
8
Defpoints
62
0
6
ByLayer
370
-1
48
1
60
0
100
AcDbPoint
10
-85.892032
20
9.9375
30
0
39
0
210
0
220
0
230
1
50
360
0
POINT
5
18E
100
AcDbEntity
8
Defpoints
62
0
6
ByLayer
370
-1
48
1
60
0
100
AcDbPoint
10
39.107968
20
-11.0625
30
0
39
0
210
0
220
0
230
1
50
360
0
POINT
5
18F
100
AcDbEntity
8
Defpoints
62
0
6
ByLayer
370
-1
48
1
60
0
100
AcDbPoint
10
39.107968
20
32.1875
30
0
39
0
210
0
220
0
230
1
50
360
0
ENDBLK
5
186
100
AcDbEntity
8
0
100
AcDbBlockEnd
0
BLOCK
5
197
100
AcDbEntity
8
0
100
AcDbBlockBegin
2
_U4
70
0
10
0
20
0
30
0
3
_U4
0
MTEXT
5
191
100
AcDbEntity
8
SK2
62
256
6
ByLayer
370
18
48
1
60
0
100
AcDbMText
10
-26.167298
20
33.220134
30
0
210
0
220
0
230
1
1
\W0.6217;125
40
3.5
41
0
44
1.084337
50
0
71
7
72
5
7
iso_b_vert
0
LINE
5
192
100
AcDbEntity
8
SK2
62
256
6
ByLayer
370
13
48
1
60
0
100
AcDbLine
10
-85.892032
20
11.525
30
0
11
-85.892032
21
34.1875
31
0
39
0
210
0
220
0
230
1
0
LINE
5
193
100
AcDbEntity
8
SK2
62
256
6
ByLayer
370
13
48
1
60
0
100
AcDbLine
10
39.107968
20
-9.475
30
0
11
39.107968
21
34.1875
31
0
39
0
210
0
220
0
230
1
0
LINE
5
194
100
AcDbEntity
8
SK2
62
256
6
ByLayer
370
13
48
1
60
0
100
AcDbLine
10
-85.892032
20
32.1875
30
0
11
39.107968
21
32.1875
31
0
39
0
210
0
220
0
230
1
0
SOLID
5
195
100
AcDbEntity
8
SK2
62
256
6
ByLayer
370
18
48
1
60
0
100
AcDbTrace
10
-85.892032
20
32.1875
30
0
11
-82.392034
21
32.648284
31
0
12
-82.392031
22
31.726716
32
0
13
-82.392031
23
31.726716
33
0
39
0
210
0
220
0
230
1
0
SOLID
5
196
100
AcDbEntity
8
SK2
62
256
6
ByLayer
370
18
48
1
60
0
100
AcDbTrace
10
39.107968
20
32.1875
30
0
11
35.607969
21
31.726716
31
0
12
35.607966
22
32.648284
32
0
13
35.607966
23
32.648284
33
0
39
0
210
0
220
0
230
1
0
ENDBLK
5
198
100
AcDbEntity
8
0
100
AcDbBlockEnd
0
ENDSEC
0
SECTION
2
ENTITIES
0
ARC
5
C5
100
AcDbEntity
8
1
62
256
6
ByLayer
370
18
48
1
60
0
100
AcDbCircle
39
0
10
12.757968
20
1.0875
30
0
40
2.1768
210
0
220
0
230
1
100
AcDbArc
50
150
51
210
0
ARC
5
C6
100
AcDbEntity
8
1
62
256
6
ByLayer
370
18
48
1
60
0
100
AcDbCircle
39
0
10
12.757968
20
1.0875
30
0
40
2.1768
210
0
220
0
230
1
100
AcDbArc
50
210
51
270
0
ARC
5
C7
100
AcDbEntity
8
1
62
256
6
ByLayer
370
18
48
1
60
0
100
AcDbCircle
39
0
10
12.757968
20
1.0875
30
0
40
2.1768
210
0
220
0
230
1
100
AcDbArc
50
270
51
330
0
ARC
5
C8
100
AcDbEntity
8
1
62
256
6
ByLayer
370
18
48
1
60
0
100
AcDbCircle
39
0
10
12.757968
20
1.0875
30
0
40
2.1768
210
0
220
0
230
1
100
AcDbArc
50
330
51
30
0
ARC
5
C9
100
AcDbEntity
8
1
62
256
6
ByLayer
370
18
48
1
60
0
100
AcDbCircle
39
0
10
12.757968
20
1.0875
30
0
40
2.1768
210
0
220
0
230
1
100
AcDbArc
50
30
51
90
0
ARC
5
CA
100
AcDbEntity
8
1
62
256
6
ByLayer
370
18
48
1
60
0
100
AcDbCircle
39
0
10
12.757968
20
1.0875
30
0
40
2.1768
210
0
220
0
230
1
100
AcDbArc
50
90
51
150
0
ARC
5
CD
100
AcDbEntity
8
1
62
256
6
ByLayer
370
18
48
1
60
0
100
AcDbCircle
39
0
10
12.757968
20
1.0875
30
0
40
2.8067
210
0
220
0
230
1
100
AcDbArc
50
180
51
240
0
ARC
5
CE
100
AcDbEntity
8
1
62
256
6
ByLayer
370
18
48
1
60
0
100
AcDbCircle
39
0
10
12.757968
20
1.0875
30
0
40
2.8067
210
0
220
0
230
1
100
AcDbArc
50
360
51
60
0
ARC
5
CF
100
AcDbEntity
8
1
62
256
6
ByLayer
370
18
48
1
60
0
100
AcDbCircle
39
0
10
12.757968
20
1.0875
30
0
40
2.8067
210
0
220
0
230
1
100
AcDbArc
50
300
51
360
0
ARC
5
D0
100
AcDbEntity
8
1
62
256
6
ByLayer
370
18
48
1
60
0
100
AcDbCircle
39
0
10
12.757968
20
1.0875
30
0
40
2.8067
210
0
220
0
230
1
100
AcDbArc
50
240
51
300
0
ARC
5
D1
100
AcDbEntity
8
1
62
256
6
ByLayer
370
18
48
1
60
0
100
AcDbCircle
39
0
10
12.757968
20
1.0875
30
0
40
2.8067
210
0
220
0
230
1
100
AcDbArc
50
60
51
120
0
ARC
5
D2
100
AcDbEntity
8
1
62
256
6
ByLayer
370
18
48
1
60
0
100
AcDbCircle
39
0
10
12.757968
20
1.0875
30
0
40
2.8067
210
0
220
0
230
1
100
AcDbArc
50
120
51
180
0
ARC
5
D3
100
AcDbEntity
8
1
62
256
6
ByLayer
370
18
48
1
60
0
100
AcDbCircle
39
0
10
38.807968
20
-10.7625
30
0
40
0.3
210
0
220
0
230
1
100
AcDbArc
50
267.5
51
0
0
ARC
5
D4
100
AcDbEntity
8
1
62
256
6
ByLayer
370
18
48
1
60
0
100
AcDbCircle
39
0
10
38.807968
20
-7.3625
30
0
40
0.3
210
0
220
0
230
1
100
AcDbArc
50
0
51
92.5
0
ARC
5
D5
100
AcDbEntity
8
1
62
256
6
ByLayer
370
18
48
1
60
0
100
AcDbCircle
39
0
10
14.407968
20
-10.7625
30
0
40
0.3
210
0
220
0
230
1
100
AcDbArc
50
222.128033
51
272.5
0
ARC
5
D6
100
AcDbEntity
8
1
62
256
6
ByLayer
370
18
48
1
60
0
100
AcDbCircle
39
0
10
31.664407
20
-8.395201
30
0
40
0.0999999999929262
210
0
220
0
230
1
100
AcDbArc
50
190.000001
51
218.049181
0
ARC
5
D7
100
AcDbEntity
8
1
62
256
6
ByLayer
370
18
48
1
60
0
100
AcDbCircle
39
0
10
31.664407
20
-9.729799
30
0
40
0.0999999999929262
210
0
220
0
230
1
100
AcDbArc
50
141.950819
51
169.999999
0
CIRCLE
5
C4
100
AcDbEntity
8
1
62
256
6
ByLayer
370
18
48
1
60
0
100
AcDbCircle
10
12.757968
20
1.0875
30
0
40
5.75
39
0
210
0
220
0
230
1
0
CIRCLE
5
CB
100
AcDbEntity
8
1
62
256
6
ByLayer
370
18
48
1
60
0
100
AcDbCircle
10
12.757968
20
1.0875
30
0
40
5.35
39
0
210
0
220
0
230
1
0
CIRCLE
5
CC
100
AcDbEntity
8
1
62
256
6
ByLayer
370
13
48
1
60
0
100
AcDbCircle
10
12.757968
20
1.0875
30
0
40
4.55
39
0
210
0
220
0
230
1
0
ELLIPSE
5
D8
100
AcDbEntity
8
1
62
256
6
ByLayer
370
18
48
1
60
0
100
AcDbEllipse
10
32.35299
20
-122.262481
30
0
11
132.2971502008
21
1.54980206321707E-13
31
0
210
0
220
0
230
1
40
0.842989
41
1.58386631903366
42
1.60667042178136
0
ELLIPSE
5
D9
100
AcDbEntity
8
1
62
256
6
ByLayer
370
18
48
1
60
0
100
AcDbEllipse
10
47.178971
20
-122.2625
30
0
11
6.82871118789627E-15
21
111.525000120761
31
0
210
0
220
0
230
1
40
0.90566
41
0.0899297296771603
42
0.180307389565454
0
ELLIPSE
5
DA
100
AcDbEntity
8
1
62
256
6
ByLayer
370
18
48
1
60
0
100
AcDbEllipse
10
32.35299
20
-77.0625
30
0
11
82.6523627463276
21
9.68235537346063E-14
31
0
210
0
220
0
230
1
40
0.842989
41
1.59165615171352
42
1.6282373097193
0
ELLIPSE
5
DB
100
AcDbEntity
8
1
62
256
6
ByLayer
370
18
48
1
60
0
100
AcDbEllipse
10
-804.864767
20
-77.750461
30
0
11
5431.83946437625
21
12.265344306122
31
0
210
0
220
0
230
1
40
0.012755
41
1.41634293172174
42
1.4181140012356
0
ELLIPSE
5
DC
100
AcDbEntity
8
1
62
256
6
ByLayer
370
18
48
1
60
0
100
AcDbEllipse
10
33.32056
20
-122.262507
30
0
11
159.274211671791
21
1.86582629702572E-13
31
0
210
0
220
0
230
1
40
0.700208
41
1.60667041749714
42
1.63450226302238
0
ELLIPSE
5
DD
100
AcDbEntity
8
1
62
256
6
ByLayer
370
18
48
1
60
0
100
AcDbEllipse
10
33.32056
20
-77.0625
30
0
11
99.5062121686465
21
1.16567086054248E-13
31
0
210
0
220
0
230
1
40
0.700208
41
1.62823730992031
42
1.69383851131171
0
ELLIPSE
5
DE
100
AcDbEntity
8
1
62
256
6
ByLayer
370
18
48
1
60
0
100
AcDbEllipse
10
0.133975
20
-122.2625
30
0
11
6.82871119659146E-15
21
111.525000262769
31
0
210
0
220
0
230
1
40
0.267949
41
-0.0637059382347276
42
-0.0116437767841027
0
ELLIPSE
5
DF
100
AcDbEntity
8
1
62
256
6
ByLayer
370
18
48
1
60
0
100
AcDbEllipse
10
31.542486
20
-7.703751
30
0
11
0.099649544459793
21
0.00836478103021757
31
0
210
0
220
0
230
1
40
1
41
3.05784699619331
42
-3.0508053914039
0
ELLIPSE
5
E0
100
AcDbEntity
8
1
62
256
6
ByLayer
370
18
48
1
60
0
100
AcDbEllipse
10
31.542486
20
-10.421249
30
0
11
0.0996495444597931
21
-0.00836478103021748
31
0
210
0
220
0
230
1
40
1
41
3.05080539140391
42
-3.05784699619331
0
ELLIPSE
5
E1
100
AcDbEntity
8
SK1
62
256
6
ByLayer
370
18
48
1
60
0
100
AcDbEllipse
10
-2.415859
20
9.947099
30
0
11
2.99999999999989
21
3.51436609374744E-15
31
0
210
0
220
0
230
1
40
0.004363
41
-2.31838067646408
42
-1.13877025635186
0
POINT
5
70
100
AcDbEntity
8
81
62
256
6
ByLayer
370
18
48
1
60
0
100
AcDbPoint
10
39.107968
20
-11.0625
30
0
39
0
210
0
220
0
230
1
50
360
0
POINT
5
72
100
AcDbEntity
8
80
62
256
6
ByLayer
370
18
48
1
60
0
100
AcDbPoint
10
0
20
0
30
0
39
0
210
0
220
0
230
1
50
360
0
POINT
5
74
100
AcDbEntity
8
1
62
256
6
ByLayer
370
18
48
1
60
1
100
AcDbPoint
10
39.107968
20
-11.0625
30
0
39
0
210
0
220
0
230
1
50
360
0
POINT
5
76
100
AcDbEntity
8
1
62
256
6
ByLayer
370
18
48
1
60
1
100
AcDbPoint
10
-85.892032
20
9.9375
30
0
39
0
210
0
220
0
230
1
50
360
0
POINT
5
77
100
AcDbEntity
8
1
62
256
6
ByLayer
370
18
48
1
60
1
100
AcDbPoint
10
39.107968
20
-7.0625
30
0
39
0
210
0
220
0
230
1
50
360
0
POINT
5
78
100
AcDbEntity
8
1
62
256
6
ByLayer
370
18
48
1
60
1
100
AcDbPoint
10
39.107968
20
-11.0625
30
0
39
0
210
0
220
0
230
1
50
360
0
POINT
5
79
100
AcDbEntity
8
1
62
256
6
ByLayer
370
18
48
1
60
1
100
AcDbPoint
10
-85.892032
20
9.9375
30
0
39
0
210
0
220
0
230
1
50
360
0
POINT
5
7A
100
AcDbEntity
8
1
62
256
6
ByLayer
370
18
48
1
60
1
100
AcDbPoint
10
-85.892032
20
-10.0625
30
0
39
0
210
0
220
0
230
1
50
360
0
POINT
5
7B
100
AcDbEntity
8
1
62
256
6
ByLayer
370
18
48
1
60
1
100
AcDbPoint
10
21.107968
20
-7.3875
30
0
39
0
210
0
220
0
230
1
50
360
0
POINT
5
7C
100
AcDbEntity
8
1
62
256
6
ByLayer
370
18
48
1
60
1
100
AcDbPoint
10
39.107968
20
-11.0625
30
0
39
0
210
0
220
0
230
1
50
360
0
POINT
5
7D
100
AcDbEntity
8
1
62
256
6
ByLayer
370
18
48
1
60
1
100
AcDbPoint
10
-85.892032
20
9.9375
30
0
39
0
210
0
220
0
230
1
50
360
0
POINT
5
7E
100
AcDbEntity
8
1
62
256
6
ByLayer
370
18
48
1
60
1
100
AcDbPoint
10
39.107968
20
-11.0625
30
0
39
0
210
0
220
0
230
1
50
360
0
SPLINE
5
E2
100
AcDbEntity
8
1
62
256
6
ByLayer
370
18
48
1
60
0
100
AcDbSpline
70
4
71
3
72
12
73
8
40
0
40
0
40
0
40
0
40
0.249999999999988
40
0.249999999999988
40
0.499999999999975
40
0.499999999999975
40
1
40
1
40
1
40
1
41
1
10
1.705E-13
20
-10.5114903551089
30
0
41
1
10
0.0147915274332036
20
-10.5291898974074
30
0
41
1
10
0.0292589393058051
20
-10.5472826580989
30
0
41
1
10
0.0573428562884715
20
-10.5840118171728
30
0
41
1
10
0.0709657130409198
20
-10.6026523478153
30
0
41
1
10
0.110612838529619
20
-10.659440433553
30
0
41
1
10
0.135418898077262
20
-10.6984465372432
30
0
41
1
10
0.158657315593473
20
-10.7387828289606
30
0
0
SPLINE
5
E3
100
AcDbEntity
8
1
62
256
6
ByLayer
370
18
48
1
60
0
100
AcDbSpline
70
4
71
3
72
12
73
8
40
0
40
0
40
0
40
0
40
0.250000000000001
40
0.250000000000001
40
0.500000000000001
40
0.500000000000001
40
1
40
1
40
1
40
1
41
1
10
30.6239166931337
20
-10.7470254749212
30
0
41
1
10
30.6441712088435
20
-10.6493543669956
30
0
41
1
10
30.6629700369358
20
-10.5511701308071
30
0
41
1
10
30.6991262757028
20
-10.3542935603967
30
0
41
1
10
30.7164524512609
20
-10.2555778009099
30
0
41
1
10
30.7670730114961
20
-9.95904696157422
30
0
41
1
10
30.7990411967296
20
-9.76088045081025
30
0
41
1
10
30.8302153477877
20
-9.56250000000003
30
0
0
SPLINE
5
E4
100
AcDbEntity
8
1
62
256
6
ByLayer
370
18
48
1
60
0
100
AcDbSpline
70
4
71
3
72
8
73
4
40
0
40
0
40
0
40
0
40
1
40
1
40
1
40
1
41
1
10
31.0271257792801
20
-9.47842276238632
30
0
41
1
10
30.9616597633986
20
-9.50727114777891
30
0
41
1
10
30.8960855537291
20
-9.53559841319637
30
0
41
1
10
30.8302153477878
20
-9.5625
30
0
0
SPLINE
5
E5
100
AcDbEntity
8
1
62
256
6
ByLayer
370
18
48
1
60
0
100
AcDbSpline
70
4
71
3
72
20
73
16
40
0
40
0
40
0
40
0
40
0.124999999999987
40
0.124999999999987
40
0.249999999999973
40
0.249999999999973
40
0.37499999999996
40
0.37499999999996
40
0.499999999999947
40
0.499999999999947
40
0.624999999999933
40
0.624999999999933
40
0.74999999999992
40
0.74999999999992
40
1
40
1
40
1
40
1
41
1
10
31.1079675788694
20
-9.33746886927011
30
0
41
1
10
31.1079675788694
20
-9.34538931564535
30
0
41
1
10
31.1074607871041
20
-9.35324258806563
30
0
41
1
10
31.1054464872661
20
-9.36881649051398
30
0
41
1
10
31.1039382341003
20
-9.37648200965552
30
0
41
1
10
31.1000349899855
20
-9.39123081188072
30
0
41
1
10
31.0976335769425
20
-9.39836837399983
30
0
41
1
10
31.0919343358608
20
-9.41217148783312
30
0
41
1
10
31.0886149272943
20
-9.41885289917022
30
0
41
1
10
31.0813341354955
20
-9.43125461429878
30
0
41
1
10
31.0773490077085
20
-9.43704316449507
30
0
41
1
10
31.0687115475185
20
-9.44782227262405
30
0
41
1
10
31.0640159096368
20
-9.45284947792862
30
0
41
1
10
31.0492453454359
20
-9.46638771987281
30
0
41
1
10
31.0385771767409
20
-9.47337656669552
30
0
41
1
10
31.0271257792801
20
-9.47842276238632
30
0
0
SPLINE
5
E6
100
AcDbEntity
8
1
62
256
6
ByLayer
370
18
48
1
60
0
100
AcDbSpline
70
4
71
3
72
18
73
14
40
0
40
0
40
0
40
0
40
0.12499999999998
40
0.12499999999998
40
0.24999999999996
40
0.24999999999996
40
0.37499999999994
40
0.37499999999994
40
0.499999999999919
40
0.499999999999919
40
0.74999999999996
40
0.74999999999996
40
1
40
1
40
1
40
1
41
1
10
31.0271257792798
20
-8.64657723761357
30
0
41
1
10
31.032848956755
20
-8.64909922443758
30
0
41
1
10
31.0383871450719
20
-8.65212031649267
30
0
41
1
10
31.0490910285895
20
-8.65916749605589
30
0
41
1
10
31.0542858359853
20
-8.66322089784632
30
0
41
1
10
31.064136566465
20
-8.67227272904137
30
0
41
1
10
31.0687590323545
20
-8.67723115833661
30
0
41
1
10
31.0773940441612
20
-8.68801892913669
30
0
41
1
10
31.0814223162421
20
-8.69387466601697
30
0
41
1
10
31.0924216759353
20
-8.71267415121153
30
0
41
1
10
31.0981161574226
20
-8.72643489466333
30
0
41
1
10
31.105982063428
20
-8.75632593542105
30
0
41
1
10
31.1079675788578
20
-8.77170667076049
30
0
41
1
10
31.1079675788578
20
-8.78753113073145
30
0
0
SPLINE
5
E7
100
AcDbEntity
8
1
62
256
6
ByLayer
370
18
48
1
60
0
100
AcDbSpline
70
4
71
3
72
8
73
4
40
0
40
0
40
0
40
0
40
1
40
1
40
1
40
1
41
1
10
30.8302153477877
20
-8.56250000000003
30
0
41
1
10
30.8961025793964
20
-8.58940854013653
30
0
41
1
10
30.9616721404866
20
-8.61773430633343
30
0
41
1
10
31.0271257792798
20
-8.64657723761357
30
0
0
SPLINE
5
E8
100
AcDbEntity
8
1
62
256
6
ByLayer
370
18
48
1
60
0
100
AcDbSpline
70
4
71
3
72
12
73
8
40
0
40
0
40
0
40
0
40
0.500000000000007
40
0.500000000000007
40
0.750000000000004
40
0.750000000000004
40
1
40
1
40
1
40
1
41
1
10
30.8302153477898
20
-8.56249999999946
30
0
41
1
10
30.7997011014093
20
-8.36831893178649
30
0
41
1
10
30.7684191890733
20
-8.17432787741777
30
0
41
1
10
30.718989199736
20
-7.88406084176475
30
0
41
1
10
30.7020882787073
20
-7.78743771725576
30
0
41
1
10
30.6668810093505
20
-7.59463057629478
30
0
41
1
10
30.6486021494254
20
-7.49843797143757
30
0
41
1
10
30.6290014082552
20
-7.40265837172504
30
0
0
SPLINE
5
E9
100
AcDbEntity
8
1
62
256
6
ByLayer
370
18
48
1
60
0
100
AcDbSpline
70
4
71
2
72
6
73
3
40
0
40
0
40
0
40
1
40
1
40
1
41
0.49999957376334
10
31.9135689821388
20
-10.8311436279791
30
0
41
0.50000042623666
10
30.6786925450714
20
-10.8321762815759
30
0
41
0.49999957376334
10
29.4439384466574
20
-10.8332203178528
30
0
0
SPLINE
5
EA
100
AcDbEntity
8
1
62
256
6
ByLayer
370
18
48
1
60
0
100
AcDbSpline
70
4
71
3
72
10
73
6
40
0
40
0
40
0
40
0
40
0.5
40
0.5
40
1
40
1
40
1
40
1
41
1
10
0.158657315593473
20
-10.7387828289606
30
0
41
1
10
0.229997150325715
20
-10.739354834112
30
0
41
1
10
0.292551696461487
20
-10.7401373288022
30
0
41
1
10
0.400377291087324
20
-10.7422020371302
30
0
41
1
10
0.445650444598698
20
-10.7434839684643
30
0
41
1
10
0.481918108147113
20
-10.7450600570541
30
0
0
SPLINE
5
EB
100
AcDbEntity
8
1
62
256
6
ByLayer
370
18
48
1
60
0
100
AcDbSpline
70
4
71
3
72
16
73
12
40
0
40
0
40
0
40
0
40
0.0736557230111922
40
0.0736557230111922
40
0.205990619723879
40
0.205990619723879
40
0.470660413149253
40
0.470660413149253
40
0.735330206574626
40
0.735330206574626
40
1
40
1
40
1
40
1
41
1
10
0.157919125988741
20
-10.7375005622747
30
0
41
1
10
0.15793058075144
20
-10.7375200092324
30
0
41
1
10
0.15834382392319
20
-10.7382372629045
30
0
41
1
10
0.16062018222101
20
-10.7421942052448
30
0
41
1
10
0.163375386568532
20
-10.7469875088009
30
0
41
1
10
0.175239186326849
20
-10.7681122644262
30
0
41
1
10
0.188010194375835
20
-10.7911875403987
30
0
41
1
10
0.219993606596404
20
-10.8552981380591
30
0
41
1
10
0.239179295126974
20
-10.8963333714712
30
0
41
1
10
0.27895505315837
20
-10.9963731953242
30
0
41
1
10
0.299534432322218
20
-11.0553777200426
30
0
41
1
10
0.317758141296224
20
-11.123389527836
30
0
0
SPLINE
5
EC
100
AcDbEntity
8
1
62
256
6
ByLayer
370
18
48
1
60
0
100
AcDbSpline
70
4
71
3
72
8
73
4
40
0
40
0
40
0
40
0
40
1
40
1
40
1
40
1
41
1
10
30.6290014082556
20
-7.40265837172535
30
0
41
1
10
30.6243210484874
20
-7.40265654364254
30
0
41
1
10
30.6196406311061
20
-7.40265626659854
30
0
41
1
10
30.6149601561231
20
-7.40265754016119
30
0
0
SPLINE
5
ED
100
AcDbEntity
8
1
62
256
6
ByLayer
370
18
48
1
60
0
100
AcDbSpline
70
4
71
3
72
37
73
33
40
0
40
0
40
0
40
0
40
0.124999999999989
40
0.124999999999989
40
0.156249999999987
40
0.156249999999987
40
0.187499999999984
40
0.187499999999984
40
0.249999999999995
40
0.312500000000006
40
0.312500000000006
40
0.34375000000001
40
0.34375000000001
40
0.375000000000015
40
0.375000000000015
40
0.500000000000048
40
0.500000000000048
40
0.562500000000058
40
0.562500000000058
40
0.593750000000065
40
0.593750000000065
40
0.625000000000072
40
0.625000000000072
40
0.75000000000007
40
0.75000000000007
40
0.781250000000065
40
0.781250000000065
40
0.81250000000006
40
0.81250000000006
40
0.875000000000041
40
0.875000000000041
40
1
40
1
40
1
40
1
41
1
10
21.1079675788574
20
-7.40535437678273
30
0
41
1
10
21.0016254708364
20
-7.4053857724991
30
0
41
1
10
20.8965113547097
20
-7.39495815155027
30
0
41
1
10
20.7666378827746
20
-7.36898456759312
30
0
41
1
10
20.7406916919816
20
-7.36312246645315
30
0
41
1
10
20.6894095782233
20
-7.35019510939637
30
0
41
1
10
20.6640287471037
20
-7.34312340170698
30
0
41
1
10
20.5886518936131
20
-7.3201193267399
30
0
41
1
10
20.4901874840137
20
-7.28468520414327
30
0
41
1
10
20.3957316958243
20
-7.23988475779311
30
0
41
1
10
20.3264116648679
20
-7.20272864526265
30
0
41
1
10
20.3035590720799
20
-7.18974959529333
30
0
41
1
10
20.2583708445121
20
-7.16258359977786
30
0
41
1
10
20.2360145189921
20
-7.14837796060928
30
0
41
1
10
20.1267781193485
20
-7.07512153450975
30
0
41
1
10
20.0464585788894
20
-7.00888143066047
30
0
41
1
10
19.9362477758263
20
-6.89843155191463
30
0
41
1
10
19.9012347041825
20
-6.85975319847074
30
0
41
1
10
19.8513725595037
20
-6.79886567714448
30
0
41
1
10
19.8351929322495
20
-6.77807946029097
30
0
41
1
10
19.8040806745631
20
-6.73601087435426
30
0
41
1
10
19.7891002832698
20
-6.71467235115799
30
0
41
1
10
19.7170253370542
20
-6.60648589136949
30
0
41
1
10
19.6683318729455
20
-6.51519866507988
30
0
41
1
10
19.6186703670376
20
-6.39516853440966
30
0
41
1
10
19.6093033273997
20
-6.37086381376051
30
0
41
1
10
19.5917202865401
20
-6.32164614275766
30
0
41
1
10
19.5835080349049
20
-6.29672940703307
30
0
41
1
10
19.5608681666162
20
-6.22188749936825
30
0
41
1
10
19.5483303269958
20
-6.17159908113658
30
0
41
1
10
19.5181827301734
20
-6.01958325460529
30
0
41
1
10
19.5079675788577
20
-5.91671626498814
30
0
41
1
10
19.5079675788577
20
-5.81227502032971
30
0
0
SPLINE
5
EE
100
AcDbEntity
8
1
62
256
6
ByLayer
370
18
48
1
60
0
100
AcDbSpline
70
4
71
3
72
16
73
12
40
0
40
0
40
0
40
0
40
0.124999999999987
40
0.124999999999987
40
0.249999999999974
40
0.249999999999974
40
0.499999999999983
40
0.499999999999983
40
0.749999999999991
40
0.749999999999991
40
1
40
1
40
1
40
1
41
1
10
21.1079675788577
20
-7.91425305686923
30
0
41
1
10
21.0745455911282
20
-7.91714715007927
30
0
41
1
10
21.0410705066897
20
-7.91900378776725
30
0
41
1
10
20.974012435879
20
-7.92060876944581
30
0
41
1
10
20.9404654651865
20
-7.9203512101042
30
0
41
1
10
20.8404842911462
20
-7.9164027491785
30
0
41
1
10
20.7744438151982
20
-7.90955865833075
30
0
41
1
10
20.643612052384
20
-7.88729653529018
30
0
41
1
10
20.5788203320347
20
-7.87188147835377
30
0
41
1
10
20.4505725129643
20
-7.83188418421526
30
0
41
1
10
20.3871151895002
20
-7.80731035316657
30
0
41
1
10
20.3244127444814
20
-7.77755533409086
30
0
0
SPLINE
5
EF
100
AcDbEntity
8
1
62
256
6
ByLayer
370
18
48
1
60
0
100
AcDbSpline
70
4
71
3
72
29
73
25
40
0
40
0
40
0
40
0
40
0.124999999999993
40
0.249999999999987
40
0.249999999999987
40
0.281249999999991
40
0.281249999999991
40
0.312499999999996
40
0.374999999999991
40
0.374999999999991
40
0.499999999999987
40
0.499999999999987
40
0.562499999999983
40
0.562499999999983
40
0.624999999999978
40
0.624999999999978
40
0.74999999999997
40
0.874999999999961
40
0.874999999999961
40
0.906249999999965
40
0.906249999999965
40
0.93749999999997
40
0.93749999999997
40
1
40
1
40
1
40
1
41
1
10
19.5079675788577
20
-6.37080582734632
30
0
41
1
10
19.5079675788577
20
-6.44195981386562
30
0
41
1
10
19.51726540571
20
-6.58319511582042
30
0
41
1
10
19.5448027699802
20
-6.72232616000824
30
0
41
1
10
19.5679055739649
20
-6.80860332036929
30
0
41
1
10
19.5728321389711
20
-6.8258567820985
30
0
41
1
10
19.5832258468056
20
-6.86009835762863
30
0
41
1
10
19.5996246258345
20
-6.91106779952466
30
0
41
1
10
19.618412172353
20
-6.96087592268751
30
0
41
1
10
19.659117876573
20
-7.05897019693825
30
0
41
1
10
19.6904157641217
20
-7.12234359665558
30
0
41
1
10
19.7436352750501
20
-7.21435418205147
30
0
41
1
10
19.7624238888929
20
-7.24451450578428
30
0
41
1
10
19.8021460068744
20
-7.30379239739696
30
0
41
1
10
19.8231414729457
20
-7.33297821587664
30
0
41
1
10
19.8884697995585
20
-7.41769998148484
30
0
41
1
10
19.9822564475078
20
-7.52389465217871
30
0
41
1
10
20.0890892321846
20
-7.61687631534284
30
0
41
1
10
20.1600552256926
20
-7.67074068780565
30
0
41
1
10
20.1744590798832
20
-7.68130021235251
30
0
41
1
10
20.2036947421006
20
-7.701985833729
30
0
41
1
10
20.2185022965834
20
-7.712093361586
30
0
41
1
10
20.2632375025996
20
-7.74154387124372
30
0
41
1
10
20.2935738911576
20
-7.76008482680777
30
0
41
1
10
20.3244127444812
20
-7.77755533409155
30
0
0
SPLINE
5
F0
100
AcDbEntity
8
1
62
256
6
ByLayer
370
18
48
1
60
0
100
AcDbSpline
70
4
71
3
72
37
73
33
40
0
40
0
40
0
40
0
40
0.124999999999974
40
0.124999999999974
40
0.249999999999947
40
0.249999999999947
40
0.374999999999921
40
0.374999999999921
40
0.437499999999908
40
0.437499999999908
40
0.499999999999896
40
0.499999999999896
40
0.562499999999883
40
0.562499999999883
40
0.62499999999987
40
0.62499999999987
40
0.687499999999858
40
0.687499999999858
40
0.718749999999862
40
0.718749999999862
40
0.749999999999866
40
0.749999999999866
40
0.812499999999875
40
0.812499999999875
40
0.843749999999896
40
0.843749999999896
40
0.874999999999917
40
0.906249999999937
40
0.906249999999937
40
0.937499999999958
40
0.937499999999958
40
1
40
1
40
1
40
1
41
1
10
9.95126757885771
20
1.08749999999998
30
0
41
1
10
9.95126757885771
20
1.05105915125958
30
0
41
1
10
9.95269279243362
20
1.01458155559956
30
0
41
1
10
9.9584673030061
20
0.941952899775032
30
0
41
1
10
9.96282190846358
20
0.905721266721713
30
0
41
1
10
9.97470234576858
20
0.833920447836306
30
0
41
1
10
9.98224192061795
20
0.798250351438071
30
0
41
1
10
9.99628816746844
20
0.745648567493475
30
0
41
1
10
10.001428775853
20
0.728260043354709
30
0
41
1
10
10.0127437917753
20
0.693813600050561
30
0
41
1
10
10.0189191082059
20
0.676758780178062
30
0
41
1
10
10.032374261687
20
0.643269794811488
30
0
41
1
10
10.0396612168549
20
0.626807676454177
30
0
41
1
10
10.055564003273
20
0.594561744142823
30
0
41
1
10
10.0642051096388
20
0.578743865403169
30
0
41
1
10
10.0828329777416
20
0.548441335325265
30
0
41
1
10
10.0928396100797
20
0.533900605444359
30
0
41
1
10
10.109143757385
20
0.513246765159948
30
0
41
1
10
10.1147954240345
20
0.506556194632225
30
0
41
1
10
10.1265979560343
20
0.49362462188185
30
0
41
1
10
10.132779955872
20
0.487356558701606
30
0
41
1
10
10.1518851018806
20
0.46964017879796
30
0
41
1
10
10.1653876365583
20
0.459214971163249
30
0
41
1
10
10.1870689652934
20
0.446211438798628
30
0
41
1
10
10.194594045318
20
0.442296632124311
30
0
41
1
10
10.2098446095861
20
0.43564060808049
30
0
41
1
10
10.2252909056516
20
0.430138189253881
30
0
41
1
10
10.2411363642202
20
0.427037210180004
30
0
41
1
10
10.2571895432921
20
0.425206392034397
30
0
41
1
10
10.2652479815453
20
0.424944969701755
30
0
41
1
10
10.288932810844
20
0.426040491577339
30
0
41
1
10
10.3043082486897
20
0.429233217033868
30
0
41
1
10
10.3193109365589
20
0.434629241423607
30
0
0
SPLINE
5
F1
100
AcDbEntity
8
1
62
256
6
ByLayer
370
18
48
1
60
0
100
AcDbSpline
70
4
71
3
72
35
73
31
40
0
40
0
40
0
40
0
40
0.124999999999985
40
0.124999999999985
40
0.249999999999971
40
0.249999999999971
40
0.374999999999957
40
0.374999999999957
40
0.437499999999947
40
0.437499999999947
40
0.499999999999938
40
0.499999999999938
40
0.624999999999942
40
0.624999999999942
40
0.687499999999946
40
0.687499999999946
40
0.718749999999944
40
0.718749999999944
40
0.749999999999941
40
0.749999999999941
40
0.812499999999948
40
0.812499999999948
40
0.843749999999954
40
0.843749999999954
40
0.87499999999996
40
0.906249999999965
40
0.906249999999965
40
0.937499999999971
40
0.937499999999971
40
1
40
1
40
1
40
1
41
1
10
11.3546175788576
20
-1.34317350080178
30
0
41
1
10
11.3230772295705
20
-1.32496367165052
30
0
41
1
10
11.2921831527376
20
-1.30548128927967
30
0
41
1
10
11.2321791955767
20
-1.26417139612124
30
0
41
1
10
11.2030591854605
20
-1.2423480246963
30
0
41
1
10
11.1467682215716
20
-1.19612435383053
30
0
41
1
10
11.1196845176971
20
-1.17179407393172
30
0
41
1
10
11.0811899883867
20
-1.1333763415212
30
0
41
1
10
11.0687042516215
20
-1.12023842442599
30
0
41
1
10
11.0445178023306
20
-1.09321216698262
30
0
41
1
10
11.0328186258134
20
-1.07932264752463
30
0
41
1
10
10.9993393257998
20
-1.03665343228133
30
0
41
1
10
10.978983582928
20
-1.00669133952022
30
0
41
1
10
10.9535073986186
20
-0.959600606772284
30
0
41
1
10
10.9458246934893
20
-0.943453890284076
30
0
41
1
10
10.9360507586853
20
-0.918823233237077
30
0
41
1
10
10.9330830352456
20
-0.910543095682073
30
0
41
1
10
10.9278072746541
20
-0.893826567105691
30
0
41
1
10
10.925493745561
20
-0.885360692694235
30
0
41
1
10
10.9197679767506
20
-0.860023478954446
30
0
41
1
10
10.917528711352
20
-0.843161733796705
30
0
41
1
10
10.917155908337
20
-0.817949909236603
30
0
41
1
10
10.9175428656265
20
-0.809498304941485
30
0
41
1
10
10.9194273459545
20
-0.793016102604753
30
0
41
1
10
10.9224036977526
20
-0.776939378917263
30
0
41
1
10
10.9276483385167
20
-0.761713646017569
30
0
41
1
10
10.9340914036193
20
-0.746941071257311
30
0
41
1
10
10.937890380678
20
-0.739856649743729
30
0
41
1
10
10.9506635031599
20
-0.719956639869963
30
0
41
1
10
10.9610935829988
20
-0.708271347089635
30
0
41
1
10
10.9732365953931
20
-0.69800322405024
30
0
0
SPLINE
5
F2
100
AcDbEntity
8
1
62
256
6
ByLayer
370
18
48
1
60
0
100
AcDbSpline
70
4
71
3
72
50
73
46
40
0
40
0
40
0
40
0
40
0.0312499999999938
40
0.0312499999999938
40
0.0624999999999877
40
0.0624999999999877
40
0.0937499999999815
40
0.0937499999999815
40
0.124999999999975
40
0.124999999999975
40
0.156249999999969
40
0.156249999999969
40
0.187499999999963
40
0.187499999999963
40
0.218749999999957
40
0.218749999999957
40
0.249999999999951
40
0.249999999999951
40
0.312499999999956
40
0.312499999999956
40
0.374999999999962
40
0.374999999999962
40
0.437499999999968
40
0.437499999999968
40
0.499999999999973
40
0.499999999999973
40
0.624999999999984
40
0.624999999999984
40
0.687499999999988
40
0.687499999999988
40
0.749999999999992
40
0.749999999999992
40
0.812499999999996
40
0.812499999999996
40
0.843749999999997
40
0.843749999999997
40
0.874999999999998
40
0.874999999999998
40
0.906249999999998
40
0.906249999999998
40
0.937499999999999
40
0.937499999999999
40
0.968749999999999
40
0.968749999999999
40
1
40
1
40
1
40
1
41
1
10
10.3393109365589
20
0.43600103823448
30
0
41
1
10
10.3529788873809
20
0.436938520801902
30
0
41
1
10
10.3666735846415
20
0.436414880640768
30
0
41
1
10
10.3941149016213
20
0.433033410938236
30
0
41
1
10
10.4078478580987
20
0.430162439879155
30
0
41
1
10
10.4349312099281
20
0.422589802342514
30
0
41
1
10
10.4483783495692
20
0.417862681261653
30
0
41
1
10
10.4748128620199
20
0.406964209874758
30
0
41
1
10
10.4878227644788
20
0.400789315637269
30
0
41
1
10
10.5135042981908
20
0.387208630899096
30
0
41
1
10
10.5261508147335
20
0.379812145122599
30
0
41
1
10
10.5509611671208
20
0.364068752645238
30
0
41
1
10
10.5631506774451
20
0.355707511568767
30
0
41
1
10
10.5871579853917
20
0.338114794411069
30
0
41
1
10
10.5989794148383
20
0.328877488047084
30
0
41
1
10
10.6221386109027
20
0.30973764324554
30
0
41
1
10
10.6334976230793
20
0.29981984284845
30
0
41
1
10
10.6669812911105
20
0.269110136410376
30
0
41
1
10
10.6885695794959
20
0.247305068639179
30
0
41
1
10
10.7299856163855
20
0.201870307529219
30
0
41
1
10
10.7498488384949
20
0.178213671979307
30
0
41
1
10
10.7880475994718
20
0.12916604536764
30
0
41
1
10
10.8063397639499
20
0.10381855884188
30
0
41
1
10
10.8411126978036
20
0.051970101110868
30
0
41
1
10
10.8576420422001
20
0.0254054138957827
30
0
41
1
10
10.9046494268408
20
-0.0561510883697736
30
0
41
1
10
10.9320560119411
20
-0.112016127078789
30
0
41
1
10
10.9669236047856
20
-0.198219524775141
30
0
41
1
10
10.97751214734
20
-0.227454909571634
30
0
41
1
10
10.9960013967105
20
-0.285828429316581
30
0
41
1
10
11.0039542923881
20
-0.315068920242368
30
0
41
1
10
11.0169393902508
20
-0.373723230669839
30
0
41
1
10
11.0219807715168
20
-0.403135982949635
30
0
41
1
10
11.026816349157
20
-0.447466842202118
30
0
41
1
10
11.0279690577685
20
-0.462324412716697
30
0
41
1
10
11.0291879990698
20
-0.491705227622248
30
0
41
1
10
11.0292618764623
20
-0.506267377064205
30
0
41
1
10
11.0281858887306
20
-0.535113199249906
30
0
41
1
10
11.0270375256737
20
-0.549397165406617
30
0
41
1
10
11.0232815435844
20
-0.577648053509961
30
0
41
1
10
11.0206636874187
20
-0.591666621088109
30
0
41
1
10
11.0136414869944
20
-0.619093215687627
30
0
41
1
10
11.0092830999658
20
-0.632344302810566
30
0
41
1
10
10.9985254727176
20
-0.657750678430943
30
0
41
1
10
10.9921319965005
20
-0.669909077096122
30
0
41
1
10
10.9844246062806
20
-0.681368614379352
30
0
0
SPLINE
5
F3
100
AcDbEntity
8
1
62
256
6
ByLayer
370
18
48
1
60
0
100
AcDbSpline
70
4
71
3
72
8
73
4
40
0
40
0
40
0
40
0
40
1
40
1
40
1
40
1
41
1
10
10.3193109365589
20
0.434629241423607
30
0
41
1
10
10.3259773599545
20
0.43508649034132
30
0
41
1
10
10.3326440247208
20
0.435543755814564
30
0
41
1
10
10.3393109365589
20
0.43600103823448
30
0
0
SPLINE
5
F4
100
AcDbEntity
8
1
62
256
6
ByLayer
370
18
48
1
60
0
100
AcDbSpline
70
4
71
3
72
8
73
4
40
0
40
0
40
0
40
0
40
1
40
1
40
1
40
1
41
1
10
10.9732365953931
20
-0.69800322405024
30
0
41
1
10
10.9769657962695
20
-0.692458556496064
30
0
41
1
10
10.9806951321688
20
-0.68691368818665
30
0
41
1
10
10.9844246062802
20
-0.681368614379977
30
0
0
SPLINE
5
F5
100
AcDbEntity
8
1
62
256
6
ByLayer
370
18
48
1
60
0
100
AcDbSpline
70
4
71
3
72
35
73
31
40
0
40
0
40
0
40
0
40
0.124999999999989
40
0.124999999999989
40
0.249999999999978
40
0.249999999999978
40
0.374999999999968
40
0.374999999999968
40
0.437499999999979
40
0.437499999999979
40
0.49999999999999
40
0.49999999999999
40
0.625000000000017
40
0.625000000000017
40
0.687500000000033
40
0.687500000000033
40
0.718750000000034
40
0.718750000000034
40
0.750000000000035
40
0.750000000000035
40
0.812500000000023
40
0.812500000000023
40
0.843750000000014
40
0.843750000000014
40
0.875000000000006
40
0.906249999999997
40
0.906249999999997
40
0.937499999999989
40
0.937499999999989
40
1
40
1
40
1
40
1
41
1
10
14.1613175788577
20
3.51817350080179
30
0
41
1
10
14.1928579281448
20
3.49996367165051
30
0
41
1
10
14.2237520049778
20
3.48048128927968
30
0
41
1
10
14.2837559621386
20
3.43917139612125
30
0
41
1
10
14.3128759722548
20
3.41734802469628
30
0
41
1
10
14.3691669361437
20
3.37112435383051
30
0
41
1
10
14.3962506400183
20
3.34679407393173
30
0
41
1
10
14.4347451693287
20
3.30837634152121
30
0
41
1
10
14.4472309060939
20
3.29523842442598
30
0
41
1
10
14.4714173553848
20
3.26821216698264
30
0
41
1
10
14.4831165319019
20
3.25432264752465
30
0
41
1
10
14.5165958319156
20
3.21165343228131
30
0
41
1
10
14.5369515747873
20
3.18169133952023
30
0
41
1
10
14.5624277590968
20
3.13460060677227
30
0
41
1
10
14.570110464226
20
3.11845389028406
30
0
41
1
10
14.5798843990301
20
3.09382323323706
30
0
41
1
10
14.5828521224699
20
3.08554309568206
30
0
41
1
10
14.5881278830614
20
3.06882656710567
30
0
41
1
10
14.5904414121544
20
3.06036069269422
30
0
41
1
10
14.5961671809649
20
3.0350234789544
30
0
41
1
10
14.5984064463634
20
3.01816173379666
30
0
41
1
10
14.5987792493784
20
2.99294990923656
30
0
41
1
10
14.5983922920889
20
2.98449830494147
30
0
41
1
10
14.5965078117608
20
2.96801610260474
30
0
41
1
10
14.5935316337999
20
2.95193931510761
30
0
41
1
10
14.5882868191987
20
2.93671364601752
30
0
41
1
10
14.5818437540961
20
2.92194107125729
30
0
41
1
10
14.5780447770374
20
2.91485664974371
30
0
41
1
10
14.5652716545555
20
2.89495663986992
30
0
41
1
10
14.5548415747165
20
2.88327134708959
30
0
41
1
10
14.5426985623222
20
2.87300322405019
30
0
0
SPLINE
5
F6
100
AcDbEntity
8
1
62
256
6
ByLayer
370
18
48
1
60
0
100
AcDbSpline
70
4
71
3
72
52
73
48
40
0
40
0
40
0
40
0
40
0.0156249999999948
40
0.0156249999999948
40
0.0312499999999895
40
0.0312499999999895
40
0.0624999999999852
40
0.0624999999999852
40
0.093749999999981
40
0.093749999999981
40
0.124999999999977
40
0.124999999999977
40
0.187499999999971
40
0.187499999999971
40
0.218749999999969
40
0.218749999999969
40
0.249999999999967
40
0.249999999999967
40
0.312499999999963
40
0.312499999999963
40
0.374999999999959
40
0.374999999999959
40
0.437499999999955
40
0.437499999999955
40
0.499999999999951
40
0.499999999999951
40
0.562499999999948
40
0.562499999999948
40
0.624999999999946
40
0.624999999999946
40
0.687499999999943
40
0.687499999999943
40
0.749999999999941
40
0.749999999999941
40
0.812499999999938
40
0.812499999999938
40
0.843749999999948
40
0.843749999999948
40
0.874999999999959
40
0.874999999999959
40
0.906249999999969
40
0.906249999999969
40
0.937499999999979
40
0.937499999999979
40
0.96874999999999
40
0.96874999999999
40
1
40
1
40
1
40
1
41
1
10
14.5315105514348
20
2.85636861437934
30
0
41
1
10
14.5276830539133
20
2.85067779695643
30
0
41
1
10
14.5241632869442
20
2.84478413495711
30
0
41
1
10
14.5176748518947
20
2.83263226749676
30
0
41
1
10
14.5147023367997
20
2.82636065584612
30
0
41
1
10
14.5066237578486
20
2.80726953225508
30
0
41
1
10
14.5023097652093
20
2.79411337591736
30
0
41
1
10
14.495374563177
20
2.76711124226378
30
0
41
1
10
14.4927572063054
20
2.75326373536004
30
0
41
1
10
14.4889531072043
20
2.72497119072597
30
0
41
1
10
14.4877785207816
20
2.71057402892876
30
0
41
1
10
14.4861235340371
20
2.66716246759776
30
0
41
1
10
14.487481202677
20
2.63765665124413
30
0
41
1
10
14.4922808755457
20
2.5933917614735
30
0
41
1
10
14.4943456956012
20
2.57861298555554
30
0
41
1
10
14.4993129070483
20
2.54900327859133
30
0
41
1
10
14.502219810189
20
2.53415843044542
30
0
41
1
10
14.5120394806928
20
2.48980744429142
30
0
41
1
10
14.5200537688757
20
2.46039901803786
30
0
41
1
10
14.5386414674771
20
2.40181666214988
30
0
41
1
10
14.5492084648279
20
2.37269685952836
30
0
41
1
10
14.5724753530048
20
2.31524629000583
30
0
41
1
10
14.5852094898562
20
2.28682118898826
30
0
41
1
10
14.612734958033
20
2.23065368909087
30
0
41
1
10
14.6274608488297
20
2.20304243423144
30
0
41
1
10
14.6588077900865
20
2.14874841489066
30
0
41
1
10
14.675348984444
20
2.12220399484181
30
0
41
1
10
14.7101910806209
20
2.07033540013461
30
0
41
1
10
14.7284891606848
20
2.04502382061378
30
0
41
1
10
14.7666647843649
20
1.99608242545978
30
0
41
1
10
14.7866188616735
20
1.97235537377205
30
0
41
1
10
14.8280431298291
20
1.92699301108419
30
0
41
1
10
14.8495522035469
20
1.90530319841162
30
0
41
1
10
14.8942813283763
20
1.86435656373294
30
0
41
1
10
14.9173560962664
20
1.84522023299664
30
0
41
1
10
14.953313579924
20
1.81892256336488
30
0
41
1
10
14.9655465431318
20
1.81054876068148
30
0
41
1
10
14.9903722726926
20
1.79483487595849
30
0
41
1
10
15.0029765806863
20
1.78748337791518
30
0
41
1
10
15.0286428728806
20
1.7739503994913
30
0
41
1
10
15.0416805477242
20
1.76778423906322
30
0
41
1
10
15.0680605564997
20
1.75695190501082
30
0
41
1
10
15.0814681355579
20
1.75225877230827
30
0
41
1
10
15.1085474150522
20
1.74473129690381
30
0
41
1
10
15.1221102481508
20
1.74192141743805
30
0
41
1
10
15.1493065731478
20
1.7385891283615
30
0
41
1
10
15.1629398819193
20
1.73806035511927
30
0
41
1
10
15.1766242211565
20
1.7389989617655
30
0
0
SPLINE
5
F7
100
AcDbEntity
8
1
62
256
6
ByLayer
370
18
48
1
60
0
100
AcDbSpline
70
4
71
3
72
8
73
4
40
0
40
0
40
0
40
0
40
1
40
1
40
1
40
1
41
1
10
15.1766242211565
20
1.7389989617655
30
0
41
1
10
15.1832911329946
20
1.73945624418539
30
0
41
1
10
15.1899577977608
20
1.73991350965866
30
0
41
1
10
15.1966242211565
20
1.74037075857635
30
0
0
SPLINE
5
F8
100
AcDbEntity
8
1
62
256
6
ByLayer
370
18
48
1
60
0
100
AcDbSpline
70
4
71
3
72
35
73
31
40
0
40
0
40
0
40
0
40
0.125000000000012
40
0.125000000000012
40
0.250000000000023
40
0.250000000000023
40
0.375000000000035
40
0.375000000000035
40
0.500000000000047
40
0.500000000000047
40
0.562500000000064
40
0.562500000000064
40
0.625000000000082
40
0.625000000000082
40
0.687500000000099
40
0.687500000000099
40
0.718750000000106
40
0.718750000000106
40
0.750000000000112
40
0.750000000000112
40
0.812500000000088
40
0.812500000000088
40
0.843750000000072
40
0.843750000000072
40
0.875000000000057
40
0.906250000000041
40
0.906250000000041
40
0.937500000000026
40
0.937500000000026
40
1
40
1
40
1
40
1
41
1
10
15.5646675788577
20
1.08749999999998
30
0
41
1
10
15.5646675788577
20
1.12391884007568
30
0
41
1
10
15.563245488628
20
1.16037008570012
30
0
41
1
10
15.5574689494124
20
1.23304239996867
30
0
41
1
10
15.553127727082
20
1.26917100911328
30
0
41
1
10
15.5412544742722
20
1.34096879759747
30
0
41
1
10
15.5337178144865
20
1.37665246510389
30
0
41
1
10
15.5149596007097
20
1.44691037394321
30
0
41
1
10
15.5037432335019
20
1.48150834212046
30
0
41
1
10
15.4835133879764
20
1.53184311201582
30
0
41
1
10
15.4762097731642
20
1.54833395675382
30
0
41
1
10
15.4602728522884
20
1.58062594318198
30
0
41
1
10
15.4516551237323
20
1.59638569660939
30
0
41
1
10
15.4330542585175
20
1.62662888883494
30
0
41
1
10
15.4230530359845
20
1.64115951584148
30
0
41
1
10
15.4067311017672
20
1.66182646247873
30
0
41
1
10
15.4010691108822
20
1.66852609477945
30
0
41
1
10
15.389233127667
20
1.68148442414537
30
0
41
1
10
15.3830496568799
20
1.68774670277872
30
0
41
1
10
15.363967245
20
1.70542570968908
30
0
41
1
10
15.3504466409039
20
1.71586525414048
30
0
41
1
10
15.3286437928898
20
1.72891189981289
30
0
41
1
10
15.3211289837187
20
1.73280429797762
30
0
41
1
10
15.3059893305561
20
1.73939504545913
30
0
41
1
10
15.2906375389058
20
1.74485732018692
30
0
41
1
10
15.2748490625841
20
1.7479533965504
30
0
41
1
10
15.2588310512145
20
1.74978749349742
30
0
41
1
10
15.2507440081956
20
1.75005530384348
30
0
41
1
10
15.2270220282096
20
1.74896510930842
30
0
41
1
10
15.2116326007682
20
1.74576883011804
30
0
41
1
10
15.1966242211565
20
1.74037075857635
30
0
0
SPLINE
5
F9
100
AcDbEntity
8
1
62
256
6
ByLayer
370
18
48
1
60
0
100
AcDbSpline
70
4
71
3
72
8
73
4
40
0
40
0
40
0
40
0
40
1
40
1
40
1
40
1
41
1
10
14.5426985623222
20
2.87300322405019
30
0
41
1
10
14.5389693614458
20
2.86745855649605
30
0
41
1
10
14.5352400255466
20
2.86191368818663
30
0
41
1
10
14.5315105514352
20
2.85636861437993
30
0
0
SPLINE
5
FA
100
AcDbEntity
8
1
62
256
6
ByLayer
370
18
48
1
60
0
100
AcDbSpline
70
4
71
3
72
52
73
48
40
0
40
0
40
0
40
0
40
0.0156249999999816
40
0.0156249999999816
40
0.0312499999999631
40
0.0312499999999631
40
0.0624999999999537
40
0.0624999999999537
40
0.0937499999999444
40
0.0937499999999444
40
0.124999999999935
40
0.124999999999935
40
0.187499999999916
40
0.187499999999916
40
0.218749999999919
40
0.218749999999919
40
0.249999999999921
40
0.249999999999921
40
0.312499999999927
40
0.312499999999927
40
0.374999999999933
40
0.374999999999933
40
0.437499999999939
40
0.437499999999939
40
0.499999999999945
40
0.499999999999945
40
0.562499999999951
40
0.562499999999951
40
0.624999999999958
40
0.624999999999958
40
0.687499999999964
40
0.687499999999964
40
0.74999999999997
40
0.74999999999997
40
0.812499999999976
40
0.812499999999976
40
0.84374999999998
40
0.84374999999998
40
0.874999999999984
40
0.874999999999984
40
0.906249999999988
40
0.906249999999988
40
0.937499999999992
40
0.937499999999992
40
0.968749999999996
40
0.968749999999996
40
1
40
1
40
1
40
1
41
1
10
15.1766242211557
20
0.436001038234537
30
0
41
1
10
15.1697820799384
20
0.436470339609571
30
0
41
1
10
15.1629181354411
20
0.436571716220584
30
0
41
1
10
15.1491500919923
20
0.436114932074076
30
0
41
1
10
15.1422324594327
20
0.435553399834163
30
0
41
1
10
15.1216597719405
20
0.433004092636793
30
0
41
1
10
15.1081092100163
20
0.430162041685293
30
0
41
1
10
15.0812570752998
20
0.422667035998785
30
0
41
1
10
15.0679561041062
20
0.418009980088527
30
0
41
1
10
15.0415519921649
20
0.407158154231524
30
0
41
1
10
15.0284963910947
20
0.400976795013975
30
0
41
1
10
14.9900733827919
20
0.380704274912091
30
0
41
1
10
14.9651994305902
20
0.364775591203227
30
0
41
1
10
14.9292647479875
20
0.338486507683768
30
0
41
1
10
14.9174983626334
20
0.32930893310251
30
0
41
1
10
14.8943392099274
20
0.310202348321212
30
0
41
1
10
14.882936645888
20
0.3002624722821
30
0
41
1
10
14.8494374004476
20
0.269582895092015
30
0
41
1
10
14.8279761003182
20
0.247938104805598
30
0
41
1
10
14.7865361412064
20
0.202549507674917
30
0
41
1
10
14.7666011510583
20
0.178838318216634
30
0
41
1
10
14.7284809424784
20
0.12996331722718
30
0
41
1
10
14.7102311513177
20
0.104722680709841
30
0
41
1
10
14.6753514036279
20
0.0528011760689822
30
0
41
1
10
14.6588023008877
20
0.0262425531158215
30
0
41
1
10
14.6274557714934
20
-0.0280517040137624
30
0
41
1
10
14.6127382265811
20
-0.0556490085608061
30
0
41
1
10
14.5852397539945
20
-0.111757446324646
30
0
41
1
10
14.5724683231515
20
-0.140259838260903
30
0
41
1
10
14.5491716434915
20
-0.197791595750175
30
0
41
1
10
14.5386004526273
20
-0.226935859452368
30
0
41
1
10
14.5200276282418
20
-0.285491509352255
30
0
41
1
10
14.5119982363229
20
-0.314963819939948
30
0
41
1
10
14.4989019729065
20
-0.374173695670692
30
0
41
1
10
14.4938668082986
20
-0.403725196218005
30
0
41
1
10
14.489071100166
20
-0.448014125337551
30
0
41
1
10
14.4879356559197
20
-0.462795083580772
30
0
41
1
10
14.4867398973379
20
-0.492151738409376
30
0
41
1
10
14.4866754672734
20
-0.506743138350686
30
0
41
1
10
14.4877887102666
20
-0.535737288623977
30
0
41
1
10
14.4889674961139
20
-0.550111326458762
30
0
41
1
10
14.49277642403
20
-0.578373251236656
30
0
41
1
10
14.4954158414153
20
-0.592331121655519
30
0
41
1
10
14.5024364962358
20
-0.61954620331602
30
0
41
1
10
14.5067844857862
20
-0.632696901059603
30
0
41
1
10
14.5174968012917
20
-0.657915753934788
30
0
41
1
10
14.5238555246169
20
-0.669986932289731
30
0
41
1
10
14.5315105514352
20
-0.681368614379977
30
0
0
SPLINE
5
FB
100
AcDbEntity
8
1
62
256
6
ByLayer
370
18
48
1
60
0
100
AcDbSpline
70
4
71
3
72
8
73
4
40
0
40
0
40
0
40
0
40
1
40
1
40
1
40
1
41
1
10
14.5315105514352
20
-0.681368614379977
30
0
41
1
10
14.5352400255466
20
-0.68691368818665
30
0
41
1
10
14.5389693614458
20
-0.692458556496064
30
0
41
1
10
14.5426985623222
20
-0.69800322405024
30
0
0
SPLINE
5
FC
100
AcDbEntity
8
1
62
256
6
ByLayer
370
18
48
1
60
0
100
AcDbSpline
70
4
71
3
72
35
73
31
40
0
40
0
40
0
40
0
40
0.124999999999979
40
0.124999999999979
40
0.249999999999959
40
0.249999999999959
40
0.374999999999938
40
0.374999999999938
40
0.499999999999918
40
0.499999999999918
40
0.562499999999924
40
0.562499999999924
40
0.624999999999931
40
0.624999999999931
40
0.687499999999937
40
0.687499999999937
40
0.718749999999932
40
0.718749999999932
40
0.749999999999927
40
0.749999999999927
40
0.812499999999935
40
0.812499999999935
40
0.843749999999942
40
0.843749999999942
40
0.874999999999949
40
0.906249999999956
40
0.906249999999956
40
0.937499999999964
40
0.937499999999964
40
1
40
1
40
1
40
1
41
1
10
14.1613175788577
20
-1.34317350080178
30
0
41
1
10
14.1928572195396
20
-1.32496408076392
30
0
41
1
10
14.2237138791351
20
-1.30550689168626
30
0
41
1
10
14.2837616798357
20
-1.26416810484548
30
0
41
1
10
14.3128793619931
20
-1.24234419145145
30
0
41
1
10
14.3691214443511
20
-1.19616275865047
30
0
41
1
10
14.396256077019
20
-1.17179398606328
30
0
41
1
10
14.4477221040022
20
-1.12041994198322
30
0
41
1
10
14.4720766397591
20
-1.09340729895447
30
0
41
1
10
14.5055529064194
20
-1.05072035386706
30
0
41
1
10
14.5161825894863
20
-1.0361498155313
30
0
41
1
10
14.5361798096338
20
-1.00620204398064
30
0
41
1
10
14.5455192921813
20
-0.990858995414442
30
0
41
1
10
14.5624102323327
20
-0.959628577493277
30
0
41
1
10
14.5699935131868
20
-0.943701951207515
30
0
41
1
10
14.5797306468846
20
-0.919233268217766
30
0
41
1
10
14.5827017032106
20
-0.910980024125053
30
0
41
1
10
14.5880059540245
20
-0.894250597298935
30
0
41
1
10
14.5903375110131
20
-0.885764415197144
30
0
41
1
10
14.5961067741711
20
-0.860399058288493
30
0
41
1
10
14.598387382822
20
-0.843470099441021
30
0
41
1
10
14.5987846854014
20
-0.818064956349787
30
0
41
1
10
14.5983981965081
20
-0.809610741620588
30
0
41
1
10
14.5965361246757
20
-0.793204043636621
30
0
41
1
10
14.5935909018114
20
-0.777177793865093
30
0
41
1
10
14.5883777401493
20
-0.761956604946562
30
0
41
1
10
14.5819571090136
20
-0.747167551708884
30
0
41
1
10
14.5781455180672
20
-0.740030061840002
30
0
41
1
10
14.5653403919118
20
-0.720031321811518
30
0
41
1
10
14.5548776192147
20
-0.708301826292796
30
0
41
1
10
14.5426985623222
20
-0.69800322405024
30
0
0
SPLINE
5
FD
100
AcDbEntity
8
1
62
256
6
ByLayer
370
18
48
1
60
0
100
AcDbSpline
70
4
71
3
72
35
73
31
40
0
40
0
40
0
40
0
40
0.125000000000032
40
0.125000000000032
40
0.250000000000065
40
0.250000000000065
40
0.375000000000097
40
0.375000000000097
40
0.437500000000113
40
0.437500000000113
40
0.500000000000129
40
0.500000000000129
40
0.625000000000155
40
0.625000000000155
40
0.687500000000171
40
0.687500000000171
40
0.718750000000176
40
0.718750000000176
40
0.75000000000018
40
0.75000000000018
40
0.812500000000163
40
0.812500000000163
40
0.843750000000135
40
0.843750000000135
40
0.875000000000107
40
0.906250000000079
40
0.906250000000079
40
0.93750000000005
40
0.93750000000005
40
1
40
1
40
1
40
1
41
1
10
15.5646675788577
20
1.08749999999998
30
0
41
1
10
15.5646675788577
20
1.05108034169743
30
0
41
1
10
15.5632423792148
20
1.01458409514817
30
0
41
1
10
15.5574689408924
20
0.941964197340099
30
0
41
1
10
15.5531293519002
20
0.905833843108553
30
0
41
1
10
15.5412439606187
20
0.833972602944357
30
0
41
1
10
15.5337151720825
20
0.798352287411007
30
0
41
1
10
15.5196917045144
20
0.745806180916247
30
0
41
1
10
15.5145568029397
20
0.728424257145036
30
0
41
1
10
15.50324460207
20
0.693965048910087
30
0
41
1
10
15.4970655136316
20
0.676888505113851
30
0
41
1
10
15.4768525392782
20
0.626559973179496
30
0
41
1
10
15.4610824772324
20
0.593950336359029
30
0
41
1
10
15.4330387985445
20
0.548341947181598
30
0
41
1
10
15.4228966844427
20
0.533615171125774
30
0
41
1
10
15.4064528771301
20
0.512835366767064
30
0
41
1
10
15.4007659293805
20
0.50612517409931
30
0
41
1
10
15.388926871266
20
0.493197967114639
30
0
41
1
10
15.382751973507
20
0.486961454941906
30
0
41
1
10
15.3636721871524
20
0.469334186825932
30
0
41
1
10
15.350189120193
20
0.458964053526103
30
0
41
1
10
15.3285414411557
20
0.446035284364484
30
0
41
1
10
15.3210286584887
20
0.442144597059809
30
0
41
1
10
15.3058124123906
20
0.43553550372846
30
0
41
1
10
15.2904014170265
20
0.430074555700258
30
0
41
1
10
15.2745931935042
20
0.427003863837967
30
0
41
1
10
15.2585782359312
20
0.425197434515013
30
0
41
1
10
15.2505434584
20
0.424945234399445
30
0
41
1
10
15.2269229830728
20
0.426057078017522
30
0
41
1
10
15.2115881827549
20
0.429247145731409
30
0
41
1
10
15.1966242211565
20
0.434629241423607
30
0
0
SPLINE
5
FE
100
AcDbEntity
8
1
62
256
6
ByLayer
370
18
48
1
60
0
100
AcDbSpline
70
4
71
3
72
8
73
4
40
0
40
0
40
0
40
0
40
1
40
1
40
1
40
1
41
1
10
15.1966242211565
20
0.434629241423607
30
0
41
1
10
15.1899577977608
20
0.43508649034132
30
0
41
1
10
15.1832911329946
20
0.435543755814564
30
0
41
1
10
15.1766242211565
20
0.43600103823448
30
0
0
SPLINE
5
FF
100
AcDbEntity
8
1
62
256
6
ByLayer
370
18
48
1
60
0
100
AcDbSpline
70
4
71
3
72
52
73
48
40
0
40
0
40
0
40
0
40
0.0156250000000003
40
0.0156250000000003
40
0.0312500000000004
40
0.0312500000000004
40
0.0625000000000122
40
0.0625000000000122
40
0.093750000000024
40
0.093750000000024
40
0.125000000000036
40
0.125000000000036
40
0.187500000000078
40
0.187500000000078
40
0.218750000000089
40
0.218750000000089
40
0.250000000000098
40
0.250000000000098
40
0.312500000000091
40
0.312500000000091
40
0.375000000000084
40
0.375000000000084
40
0.437500000000077
40
0.437500000000077
40
0.500000000000069
40
0.500000000000069
40
0.562500000000062
40
0.562500000000062
40
0.625000000000055
40
0.625000000000055
40
0.687500000000047
40
0.687500000000047
40
0.75000000000004
40
0.75000000000004
40
0.812500000000033
40
0.812500000000033
40
0.843750000000027
40
0.843750000000027
40
0.875000000000022
40
0.875000000000022
40
0.906250000000016
40
0.906250000000016
40
0.937500000000011
40
0.937500000000011
40
0.968750000000005
40
0.968750000000005
40
1
40
1
40
1
40
1
41
1
10
13.4030812485786
20
-1.33286757614482
30
0
41
1
10
13.4000666048829
20
-1.32670745734689
30
0
41
1
10
13.3967224273547
20
-1.32071241873655
30
0
41
1
10
13.3894428189553
20
-1.30901733542271
30
0
41
1
10
13.3854977014908
20
-1.30330725601198
30
0
41
1
10
13.3730035929496
20
-1.28676543961828
30
0
41
1
10
13.3637670236647
20
-1.27645133423212
30
0
41
1
10
13.3438500909804
20
-1.25694420626502
30
0
41
1
10
13.3331664766584
20
-1.24775375527153
30
0
41
1
10
13.3105664638182
20
-1.23031303649447
30
0
41
1
10
13.2986854491708
20
-1.22209723391481
30
0
41
1
10
13.2619174276125
20
-1.19895819268567
30
0
41
1
10
13.2356858067708
20
-1.18538106004092
30
0
41
1
10
13.1949514512994
20
-1.16740525378975
30
0
41
1
10
13.1811202458899
20
-1.16180405245305
30
0
41
1
10
13.1529938817367
20
-1.15130093027014
30
0
41
1
10
13.1386844145567
20
-1.14639595816331
30
0
41
1
10
13.0953654986125
20
-1.13272454919939
30
0
41
1
10
13.0658899103002
20
-1.12496091323226
30
0
41
1
10
13.005862252587
20
-1.11176715447499
30
0
41
1
10
12.9753602650882
20
-1.10635854131172
30
0
41
1
10
12.9139731683313
20
-1.09778297277867
30
0
41
1
10
12.8829892403192
20
-1.09459850827844
30
0
41
1
10
12.8205840244527
20
-1.09035251302188
30
0
41
1
10
12.7893090309156
20
-1.08929988111564
30
0
41
1
10
12.7266155602646
20
-1.08930011890445
30
0
41
1
10
12.6953568209948
20
-1.09035300340261
30
0
41
1
10
12.6330162522313
20
-1.09459284645928
30
0
41
1
10
12.6019467413244
20
-1.09778365887467
30
0
41
1
10
12.5404744379843
20
-1.10637402120997
30
0
41
1
10
12.5099491698116
20
-1.11179123322441
30
0
41
1
10
12.4499520772704
20
-1.12498452043644
30
0
41
1
10
12.4204136116337
20
-1.13276701835159
30
0
41
1
10
12.3625882233877
20
-1.15103025940366
30
0
41
1
10
12.3344782908899
20
-1.16144542921464
30
0
41
1
10
12.2937250990997
20
-1.17943668870245
30
0
41
1
10
12.2803566916457
20
-1.18584384426225
30
0
41
1
10
12.2543352035031
20
-1.19948661436789
30
0
41
1
10
12.2416664654448
20
-1.20672651626589
30
0
41
1
10
12.2171134162436
20
-1.22218768811527
30
0
41
1
10
12.2052545272473
20
-1.230395565522
30
0
41
1
10
12.1826834463879
20
-1.2478251562475
30
0
41
1
10
12.1719152847151
20
-1.25708989396381
30
0
41
1
10
12.1518566600413
20
-1.27677750021985
30
0
41
1
10
12.1426418164931
20
-1.28711831849768
30
0
41
1
10
12.1261578070016
20
-1.30900488229633
30
0
41
1
10
12.1188832215552
20
-1.32054728740906
30
0
41
1
10
12.1128539091364
20
-1.33286757614547
30
0
0
SPLINE
5
100
100
AcDbEntity
8
1
62
256
6
ByLayer
370
18
48
1
60
0
100
AcDbSpline
70
4
71
3
72
8
73
4
40
0
40
0
40
0
40
0
40
1
40
1
40
1
40
1
41
1
10
12.1128539091364
20
-1.33286757614547
30
0
41
1
10
12.1099164714097
20
-1.33886993237206
30
0
41
1
10
12.1069791425427
20
-1.34487206615475
30
0
41
1
10
12.1040419200235
20
-1.35087398262661
30
0
0
SPLINE
5
101
100
AcDbEntity
8
1
62
256
6
ByLayer
370
18
48
1
60
0
100
AcDbSpline
70
4
71
3
72
35
73
31
40
0
40
0
40
0
40
0
40
0.124999999999986
40
0.124999999999986
40
0.249999999999972
40
0.249999999999972
40
0.374999999999959
40
0.374999999999959
40
0.499999999999945
40
0.499999999999945
40
0.562499999999961
40
0.562499999999961
40
0.624999999999978
40
0.624999999999978
40
0.687499999999994
40
0.687499999999994
40
0.718749999999979
40
0.718749999999979
40
0.749999999999964
40
0.749999999999964
40
0.812499999999973
40
0.812499999999973
40
0.84374999999998
40
0.84374999999998
40
0.874999999999987
40
0.906249999999994
40
0.906249999999994
40
0.937500000000001
40
0.937500000000001
40
1
40
1
40
1
40
1
41
1
10
11.3546175788576
20
-1.34317350080178
30
0
41
1
10
11.3861572195396
20
-1.36138292083965
30
0
41
1
10
11.4184359693648
20
-1.37837697738644
30
0
41
1
10
11.4842603092809
20
-1.40971050481414
30
0
41
1
10
11.5177192137688
20
-1.42401520056475
30
0
41
1
10
11.5858345489366
20
-1.44963155624799
30
0
41
1
10
11.6205058413902
20
-1.46094645116722
30
0
41
1
10
11.6907300821502
20
-1.47983031592648
30
0
41
1
10
11.7263009851149
20
-1.48741564107496
30
0
41
1
10
11.7800070973007
20
-1.49506346588291
30
0
41
1
10
11.7979403951798
20
-1.49698377228518
30
0
41
1
10
11.8338745362031
20
-1.49932798716267
30
0
41
1
10
11.8518317473067
20
-1.49974469202385
30
0
41
1
10
11.8873235526729
20
-1.49875746632827
30
0
41
1
10
11.90490805606
20
-1.49736146704902
30
0
41
1
10
11.9309671239752
20
-1.49355973069655
30
0
41
1
10
11.9396001711862
20
-1.49200611890453
30
0
41
1
10
11.9567404052152
20
-1.48823502144432
30
0
41
1
10
11.9652554329908
20
-1.48601111797589
30
0
41
1
10
11.9901071080288
20
-1.4783247679776
30
0
41
1
10
12.0059083207758
20
-1.47183535358155
30
0
41
1
10
12.0281084713693
20
-1.45947685616269
30
0
41
1
10
12.0352367916472
20
-1.45491503959826
30
0
41
1
10
12.0485143729773
20
-1.44509908909578
30
0
41
1
10
12.0609207374792
20
-1.4345351848969
30
0
41
1
10
12.0714962564229
20
-1.42241000149698
30
0
41
1
10
12.0810936366568
20
-1.40945504520636
30
0
41
1
10
12.0853690887293
20
-1.40258536568351
30
0
41
1
10
12.0962859425599
20
-1.38149643111996
30
0
41
1
10
12.1012125973042
20
-1.36657065641086
30
0
41
1
10
12.1040419200235
20
-1.35087398262661
30
0
0
SPLINE
5
102
100
AcDbEntity
8
1
62
256
6
ByLayer
370
18
48
1
60
0
100
AcDbSpline
70
4
71
3
72
35
73
31
40
0
40
0
40
0
40
0
40
0.124999999999945
40
0.124999999999945
40
0.249999999999889
40
0.249999999999889
40
0.374999999999834
40
0.374999999999834
40
0.437499999999806
40
0.437499999999806
40
0.499999999999778
40
0.499999999999778
40
0.624999999999771
40
0.624999999999771
40
0.687499999999745
40
0.687499999999745
40
0.718749999999756
40
0.718749999999756
40
0.749999999999767
40
0.749999999999767
40
0.812499999999827
40
0.812499999999827
40
0.843749999999859
40
0.843749999999859
40
0.874999999999892
40
0.906249999999924
40
0.906249999999924
40
0.937499999999956
40
0.937499999999956
40
1
40
1
40
1
40
1
41
1
10
14.1613175788577
20
-1.34317350080178
30
0
41
1
10
14.1297772295706
20
-1.36138332995307
30
0
41
1
10
14.0974579530947
20
-1.37839719413148
30
0
41
1
10
14.0316805576114
20
-1.40970719878115
30
0
41
1
10
13.9982209585031
20
-1.42401418158772
30
0
41
1
10
13.9300446033327
20
-1.44965175088615
30
0
41
1
10
13.8954321109219
20
-1.46094178652072
30
0
41
1
10
13.8429141140434
20
-1.47507016060496
30
0
41
1
10
13.8252934757036
20
-1.47931416728093
30
0
41
1
10
13.7897948255429
20
-1.48674711807254
30
0
41
1
10
13.7719165605873
20
-1.48993414241076
30
0
41
1
10
13.7182242862203
20
-1.49759345910184
30
0
41
1
10
13.6820984813028
20
-1.50024100316117
30
0
41
1
10
13.6285786183055
20
-1.49875865959066
30
0
41
1
10
13.6107537990744
20
-1.49733871915828
30
0
41
1
10
13.5845360569578
20
-1.49348786646999
30
0
41
1
10
13.5758813857683
20
-1.49191792158274
30
0
41
1
10
13.5587665670624
20
-1.48812859999106
30
0
41
1
10
13.5502781402103
20
-1.48589923775231
30
0
41
1
10
13.5254725850453
20
-1.47818929212846
30
0
41
1
10
13.5097502526872
20
-1.47169768027058
30
0
41
1
10
13.4877297706349
20
-1.4594146248721
30
0
41
1
10
13.4806039452574
20
-1.45485370788168
30
0
41
1
10
13.4672721794875
20
-1.4449805988763
30
0
41
1
10
13.4548373620843
20
-1.43436475940737
30
0
41
1
10
13.4442739531633
20
-1.42220978217955
30
0
41
1
10
13.4347020606929
20
-1.4092436367423
30
0
41
1
10
13.4304662602204
20
-1.40241141534429
30
0
41
1
10
13.419618907375
20
-1.38139956185242
30
0
41
1
10
13.4147141868961
20
-1.3665242013582
30
0
41
1
10
13.4118932376919
20
-1.35087398262661
30
0
0
SPLINE
5
103
100
AcDbEntity
8
1
62
256
6
ByLayer
370
18
48
1
60
0
100
AcDbSpline
70
4
71
3
72
8
73
4
40
0
40
0
40
0
40
0
40
1
40
1
40
1
40
1
41
1
10
13.4118932376919
20
-1.35087398262661
30
0
41
1
10
13.4089560151727
20
-1.34487206615475
30
0
41
1
10
13.4060186863057
20
-1.33886993237206
30
0
41
1
10
13.403081248579
20
-1.33286757614547
30
0
0
SPLINE
5
104
100
AcDbEntity
8
1
62
256
6
ByLayer
370
18
48
1
60
0
100
AcDbSpline
70
4
71
3
72
35
73
31
40
0
40
0
40
0
40
0
40
0.124999999999998
40
0.124999999999998
40
0.249999999999996
40
0.249999999999996
40
0.374999999999995
40
0.374999999999995
40
0.499999999999993
40
0.499999999999993
40
0.562499999999992
40
0.562499999999992
40
0.624999999999991
40
0.624999999999991
40
0.68749999999999
40
0.68749999999999
40
0.718750000000012
40
0.718750000000012
40
0.750000000000035
40
0.750000000000035
40
0.812500000000033
40
0.812500000000033
40
0.843750000000031
40
0.843750000000031
40
0.875000000000028
40
0.906250000000026
40
0.906250000000026
40
0.937500000000024
40
0.937500000000024
40
1
40
1
40
1
40
1
41
1
10
14.1613175788577
20
3.51817350080179
30
0
41
1
10
14.1297779381757
20
3.53638292083963
30
0
41
1
10
14.0974991883505
20
3.55337697738642
30
0
41
1
10
14.0316748484344
20
3.58471050481413
30
0
41
1
10
13.9982159439465
20
3.59901520056474
30
0
41
1
10
13.9301006087787
20
3.62463155624798
30
0
41
1
10
13.8954293163252
20
3.63594645116717
30
0
41
1
10
13.8252050755651
20
3.65483031592646
30
0
41
1
10
13.7896341726004
20
3.66241564107494
30
0
41
1
10
13.7359280604147
20
3.67006346588289
30
0
41
1
10
13.7179947625356
20
3.67198377228513
30
0
41
1
10
13.6820606215123
20
3.67432798716263
30
0
41
1
10
13.6641034104087
20
3.67474469202381
30
0
41
1
10
13.6286116050424
20
3.67375746632823
30
0
41
1
10
13.6110271016553
20
3.67236146704897
30
0
41
1
10
13.5849680337402
20
3.6685597306965
30
0
41
1
10
13.5763349865292
20
3.66700611890448
30
0
41
1
10
13.5591947525001
20
3.66323502144428
30
0
41
1
10
13.5506797247246
20
3.66101111797585
30
0
41
1
10
13.5258280496865
20
3.65332476797755
30
0
41
1
10
13.5100268369396
20
3.64683535358151
30
0
41
1
10
13.4878266863461
20
3.63447685616262
30
0
41
1
10
13.4806983660683
20
3.62991503959819
30
0
41
1
10
13.467420784738
20
3.62009908909573
30
0
41
1
10
13.4550144202362
20
3.60953518489686
30
0
41
1
10
13.4444389012925
20
3.59741000149694
30
0
41
1
10
13.4348415210586
20
3.58445504520628
30
0
41
1
10
13.4305660689861
20
3.57758536568346
30
0
41
1
10
13.4196492151555
20
3.55649643111991
30
0
41
1
10
13.4147225604112
20
3.54157065641081
30
0
41
1
10
13.4118932376919
20
3.52587398262656
30
0
0
SPLINE
5
105
100
AcDbEntity
8
1
62
256
6
ByLayer
370
18
48
1
60
0
100
AcDbSpline
70
4
71
3
72
52
73
48
40
0
40
0
40
0
40
0
40
0.0156249999999996
40
0.0156249999999996
40
0.0312499999999992
40
0.0312499999999992
40
0.0624999999999882
40
0.0624999999999882
40
0.0937499999999774
40
0.0937499999999774
40
0.124999999999966
40
0.124999999999966
40
0.187499999999969
40
0.187499999999969
40
0.218749999999958
40
0.218749999999958
40
0.249999999999947
40
0.249999999999947
40
0.312499999999952
40
0.312499999999952
40
0.374999999999957
40
0.374999999999957
40
0.437499999999962
40
0.437499999999962
40
0.499999999999967
40
0.499999999999967
40
0.562499999999972
40
0.562499999999972
40
0.624999999999977
40
0.624999999999977
40
0.687499999999982
40
0.687499999999982
40
0.749999999999987
40
0.749999999999987
40
0.812499999999992
40
0.812499999999992
40
0.843749999999993
40
0.843749999999993
40
0.874999999999994
40
0.874999999999994
40
0.906249999999996
40
0.906249999999996
40
0.937499999999997
40
0.937499999999997
40
0.968749999999999
40
0.968749999999999
40
1
40
1
40
1
40
1
41
1
10
12.1128539091367
20
3.50786757614478
30
0
41
1
10
12.1158685528325
20
3.50170745734684
30
0
41
1
10
12.1192127303607
20
3.4957124187365
30
0
41
1
10
12.12649233876
20
3.48401733542266
30
0
41
1
10
12.1304374562247
20
3.47830725601193
30
0
41
1
10
12.1429315647657
20
3.46176543961826
30
0
41
1
10
12.1521681340507
20
3.45145133423208
30
0
41
1
10
12.172085066735
20
3.431944206265
30
0
41
1
10
12.1827686810569
20
3.42275375527151
30
0
41
1
10
12.2053686938972
20
3.40531303649442
30
0
41
1
10
12.2172497085446
20
3.39709723391476
30
0
41
1
10
12.2540177301029
20
3.37395819268565
30
0
41
1
10
12.2802493509445
20
3.36038106004088
30
0
41
1
10
12.3209837064159
20
3.34240525378971
30
0
41
1
10
12.3348149118255
20
3.336804052453
30
0
41
1
10
12.3629412759787
20
3.32630093027009
30
0
41
1
10
12.3772507431587
20
3.32139595816329
30
0
41
1
10
12.4205696591028
20
3.30772454919938
30
0
41
1
10
12.4500452474152
20
3.29996091323224
30
0
41
1
10
12.5100729051284
20
3.28676715447494
30
0
41
1
10
12.5405748926272
20
3.28135854131168
30
0
41
1
10
12.601961989384
20
3.27278297277863
30
0
41
1
10
12.6329459173961
20
3.26959850827839
30
0
41
1
10
12.6953511332627
20
3.26535251302187
30
0
41
1
10
12.7266261267998
20
3.26429988111559
30
0
41
1
10
12.7893195974508
20
3.2643001189044
30
0
41
1
10
12.8205783367206
20
3.26535300340259
30
0
41
1
10
12.8829189054841
20
3.26959284645923
30
0
41
1
10
12.913988416391
20
3.27278365887466
30
0
41
1
10
12.9754607197311
20
3.28137402120993
30
0
41
1
10
13.0059859879038
20
3.28679123322439
30
0
41
1
10
13.065983080445
20
3.29998452043642
30
0
41
1
10
13.0955215460816
20
3.30776701835154
30
0
41
1
10
13.1533469343276
20
3.32603025940361
30
0
41
1
10
13.1814568668254
20
3.33644542921459
30
0
41
1
10
13.2222100586157
20
3.35443668870243
30
0
41
1
10
13.2355784660697
20
3.36084384426223
30
0
41
1
10
13.2615999542124
20
3.37448661436787
30
0
41
1
10
13.2742686922705
20
3.38172651626587
30
0
41
1
10
13.2988217414717
20
3.39718768811522
30
0
41
1
10
13.310680630468
20
3.40539556552196
30
0
41
1
10
13.3332517113274
20
3.42282515624746
30
0
41
1
10
13.3440198730002
20
3.43208989396376
30
0
41
1
10
13.364078497674
20
3.45177750021983
30
0
41
1
10
13.3732933412223
20
3.46211831849763
30
0
41
1
10
13.3897773507138
20
3.48400488229629
30
0
41
1
10
13.3970519361602
20
3.49554728740901
30
0
41
1
10
13.403081248579
20
3.50786757614546
30
0
0
SPLINE
5
106
100
AcDbEntity
8
1
62
256
6
ByLayer
370
18
48
1
60
0
100
AcDbSpline
70
4
71
3
72
8
73
4
40
0
40
0
40
0
40
0
40
1
40
1
40
1
40
1
41
1
10
13.403081248579
20
3.50786757614546
30
0
41
1
10
13.4060186863057
20
3.51386993237205
30
0
41
1
10
13.4089560151727
20
3.51987206615473
30
0
41
1
10
13.4118932376919
20
3.52587398262656
30
0
0
SPLINE
5
107
100
AcDbEntity
8
1
62
256
6
ByLayer
370
18
48
1
60
0
100
AcDbSpline
70
4
71
3
72
35
73
31
40
0
40
0
40
0
40
0
40
0.125000000000029
40
0.125000000000029
40
0.250000000000058
40
0.250000000000058
40
0.375000000000087
40
0.375000000000087
40
0.437500000000101
40
0.437500000000101
40
0.500000000000115
40
0.500000000000115
40
0.625000000000145
40
0.625000000000145
40
0.687500000000135
40
0.687500000000135
40
0.718750000000109
40
0.718750000000109
40
0.750000000000082
40
0.750000000000082
40
0.81250000000007
40
0.81250000000007
40
0.843750000000063
40
0.843750000000063
40
0.875000000000055
40
0.906250000000048
40
0.906250000000048
40
0.93750000000004
40
0.93750000000004
40
1
40
1
40
1
40
1
41
1
10
11.3546175788577
20
3.51817350080176
30
0
41
1
10
11.3861579281448
20
3.53638332995303
30
0
41
1
10
11.4184772046207
20
3.55339719413143
30
0
41
1
10
11.484254600104
20
3.5847071987811
30
0
41
1
10
11.5177141992123
20
3.59901418158768
30
0
41
1
10
11.5858905543826
20
3.6246517508861
30
0
41
1
10
11.6205030467935
20
3.63594178652068
30
0
41
1
10
11.673021043672
20
3.65007016060491
30
0
41
1
10
11.6906416820118
20
3.65431416728092
30
0
41
1
10
11.7261403321725
20
3.6617471180725
30
0
41
1
10
11.744018597128
20
3.66493414241074
30
0
41
1
10
11.7977108714951
20
3.67259345910179
30
0
41
1
10
11.8338366764127
20
3.67524100316115
30
0
41
1
10
11.8873565394099
20
3.67375865959062
30
0
41
1
10
11.9051813586411
20
3.67233871915823
30
0
41
1
10
11.9313991007576
20
3.66848786646997
30
0
41
1
10
11.940053771947
20
3.66691792158269
30
0
41
1
10
11.957168590653
20
3.66312859999101
30
0
41
1
10
11.965657017505
20
3.66089923775229
30
0
41
1
10
11.9904625726701
20
3.65318929212844
30
0
41
1
10
12.0061849050281
20
3.64669768027054
30
0
41
1
10
12.0282053870804
20
3.63441462487208
30
0
41
1
10
12.0353312124579
20
3.62985370788164
30
0
41
1
10
12.0486629782279
20
3.61998059887625
30
0
41
1
10
12.0610977956312
20
3.60936475940733
30
0
41
1
10
12.0716612045522
20
3.59720978217953
30
0
41
1
10
12.0812330970226
20
3.58424363674226
30
0
41
1
10
12.0854688974951
20
3.57741141534424
30
0
41
1
10
12.0963162503403
20
3.55639956185237
30
0
41
1
10
12.1012209708193
20
3.54152420135819
30
0
41
1
10
12.1040419200235
20
3.52587398262656
30
0
0
SPLINE
5
108
100
AcDbEntity
8
1
62
256
6
ByLayer
370
18
48
1
60
0
100
AcDbSpline
70
4
71
3
72
8
73
4
40
0
40
0
40
0
40
0
40
1
40
1
40
1
40
1
41
1
10
12.1040419200235
20
3.52587398262656
30
0
41
1
10
12.1069791425427
20
3.51987206615473
30
0
41
1
10
12.1099164714097
20
3.51386993237205
30
0
41
1
10
12.1128539091364
20
3.50786757614546
30
0
0
SPLINE
5
109
100
AcDbEntity
8
1
62
256
6
ByLayer
370
18
48
1
60
0
100
AcDbSpline
70
4
71
3
72
39
73
35
40
0
40
0
40
0
40
0
40
0.12500000000003
40
0.12500000000003
40
0.25000000000006
40
0.25000000000006
40
0.37500000000009
40
0.37500000000009
40
0.437500000000112
40
0.437500000000112
40
0.500000000000133
40
0.500000000000133
40
0.562500000000154
40
0.562500000000154
40
0.625000000000175
40
0.625000000000175
40
0.687500000000196
40
0.687500000000196
40
0.71875000000019
40
0.71875000000019
40
0.750000000000184
40
0.750000000000184
40
0.812500000000169
40
0.812500000000169
40
0.843750000000141
40
0.843750000000141
40
0.875000000000112
40
0.875000000000112
40
0.906250000000084
40
0.906250000000084
40
0.937500000000056
40
0.968750000000028
40
0.968750000000028
40
1
40
1
40
1
40
1
41
1
10
9.95126757885771
20
1.08749999999998
30
0
41
1
10
9.95126757885771
20
1.1239248722859
30
0
41
1
10
9.9526914338976
20
1.16038509469857
30
0
41
1
10
9.95846109795636
20
1.23298529795451
30
0
41
1
10
9.96281115483617
20
1.2691964159942
30
0
41
1
10
9.97468212369483
20
1.34097461901541
30
0
41
1
10
9.98221214838861
20
1.37661874246371
30
0
41
1
10
9.99624848681083
20
1.42921248199573
30
0
41
1
10
10.0013836854569
20
1.44659147396194
30
0
41
1
10
10.012680293879
20
1.48100419869797
30
0
41
1
10
10.0188510187317
20
1.4980607524457
30
0
41
1
10
10.0323114855813
20
1.5315848504292
30
0
41
1
10
10.039602955431
20
1.54806693333032
30
0
41
1
10
10.055520775735
20
1.58035781174883
30
0
41
1
10
10.0641093892996
20
1.59608402379436
30
0
41
1
10
10.0826687223087
20
1.62630763675574
30
0
41
1
10
10.0926510104768
20
1.64083823488835
30
0
41
1
10
10.1089517349516
20
1.66152081568632
30
0
41
1
10
10.1146078797633
20
1.66822827372223
30
0
41
1
10
10.1264359213047
20
1.68120759716257
30
0
41
1
10
10.1326026628056
20
1.68746783306759
30
0
41
1
10
10.1516418126009
20
1.70515610276951
30
0
41
1
10
10.1651411149191
20
1.71561835172165
30
0
41
1
10
10.1869349752724
20
1.72871744606749
30
0
41
1
10
10.1944268987453
20
1.73261868685745
30
0
41
1
10
10.2095826763995
20
1.73925647600481
30
0
41
1
10
10.217287944512
20
1.74201927561137
30
0
41
1
10
10.2329662055803
20
1.74635809607841
30
0
41
1
10
10.241004459205
20
1.74793951792634
30
0
41
1
10
10.2570178734334
20
1.74978210350667
30
0
41
1
10
10.2729113102512
20
1.75032315766151
30
0
41
1
10
10.2885714406616
20
1.74838363920574
30
0
41
1
10
10.3041173891928
20
1.74524189284369
30
0
41
1
10
10.3118091263682
20
1.7430689384698
30
0
41
1
10
10.3193109365589
20
1.74037075857635
30
0
0
SPLINE
5
10A
100
AcDbEntity
8
1
62
256
6
ByLayer
370
18
48
1
60
0
100
AcDbSpline
70
4
71
3
72
8
73
4
40
0
40
0
40
0
40
0
40
1
40
1
40
1
40
1
41
1
10
10.9844246062802
20
2.85636861437993
30
0
41
1
10
10.9806951321688
20
2.86191368818663
30
0
41
1
10
10.9769657962695
20
2.86745855649605
30
0
41
1
10
10.9732365953931
20
2.87300322405019
30
0
0
SPLINE
5
10B
100
AcDbEntity
8
1
62
256
6
ByLayer
370
18
48
1
60
0
100
AcDbSpline
70
4
71
3
72
35
73
31
40
0
40
0
40
0
40
0
40
0.125000000000001
40
0.125000000000001
40
0.250000000000002
40
0.250000000000002
40
0.375000000000002
40
0.375000000000002
40
0.500000000000003
40
0.500000000000003
40
0.562500000000003
40
0.562500000000003
40
0.625000000000003
40
0.625000000000003
40
0.687500000000003
40
0.687500000000003
40
0.718749999999993
40
0.718749999999993
40
0.749999999999983
40
0.749999999999983
40
0.81249999999998
40
0.81249999999998
40
0.843749999999979
40
0.843749999999979
40
0.874999999999979
40
0.906249999999979
40
0.906249999999979
40
0.937499999999978
40
0.937499999999978
40
1
40
1
40
1
40
1
41
1
10
11.3546175788577
20
3.51817350080176
30
0
41
1
10
11.3230779381757
20
3.4999640807639
30
0
41
1
10
11.2922212785803
20
3.48050689168625
30
0
41
1
10
11.2321734778797
20
3.43916810484544
30
0
41
1
10
11.2030557957223
20
3.41734419145143
30
0
41
1
10
11.1468137133643
20
3.37116275865046
30
0
41
1
10
11.1196790806964
20
3.34679398606326
30
0
41
1
10
11.0682130537132
20
3.2954199419832
30
0
41
1
10
11.0438585179563
20
3.26840729895446
30
0
41
1
10
11.010382251296
20
3.22572035386705
30
0
41
1
10
10.9997525682291
20
3.21114981553129
30
0
41
1
10
10.9797553480816
20
3.18120204398062
30
0
41
1
10
10.9704158655341
20
3.1658589954144
30
0
41
1
10
10.9535249253826
20
3.13462857749326
30
0
41
1
10
10.9459416445285
20
3.11870195120747
30
0
41
1
10
10.9362045108307
20
3.09423326821775
30
0
41
1
10
10.9332334545047
20
3.08598002412504
30
0
41
1
10
10.9279292036909
20
3.06925059729892
30
0
41
1
10
10.9255976467023
20
3.0607644151971
30
0
41
1
10
10.9198283835442
20
3.03539905828848
30
0
41
1
10
10.9175477748934
20
3.018470099441
30
0
41
1
10
10.917150472314
20
2.99306495634974
30
0
41
1
10
10.9175369612073
20
2.98461074162057
30
0
41
1
10
10.9193990330396
20
2.96820404363657
30
0
41
1
10
10.922344460188
20
2.95217786470991
30
0
41
1
10
10.9275574175661
20
2.93695660494652
30
0
41
1
10
10.9339780487018
20
2.92216755170884
30
0
41
1
10
10.9377896396481
20
2.91503006183998
30
0
41
1
10
10.9505947658036
20
2.89503132181147
30
0
41
1
10
10.9610575385008
20
2.88330182629275
30
0
41
1
10
10.9732365953931
20
2.87300322405019
30
0
0
SPLINE
5
10C
100
AcDbEntity
8
1
62
256
6
ByLayer
370
18
48
1
60
0
100
AcDbSpline
70
4
71
3
72
8
73
4
40
0
40
0
40
0
40
0
40
1
40
1
40
1
40
1
41
1
10
10.3393109365589
20
1.7389989617655
30
0
41
1
10
10.3326440247208
20
1.73945624418539
30
0
41
1
10
10.3259773599545
20
1.73991350965866
30
0
41
1
10
10.3193109365589
20
1.74037075857635
30
0
0
SPLINE
5
10D
100
AcDbEntity
8
1
62
256
6
ByLayer
370
18
48
1
60
0
100
AcDbSpline
70
4
71
3
72
50
73
46
40
0
40
0
40
0
40
0
40
0.0312500000000101
40
0.0312500000000101
40
0.0468750000000089
40
0.0468750000000089
40
0.0625000000000075
40
0.0625000000000075
40
0.125000000000009
40
0.125000000000009
40
0.156250000000009
40
0.156250000000009
40
0.187500000000009
40
0.187500000000009
40
0.250000000000014
40
0.250000000000014
40
0.281250000000013
40
0.281250000000013
40
0.312500000000012
40
0.312500000000012
40
0.37500000000001
40
0.37500000000001
40
0.500000000000004
40
0.500000000000004
40
0.562500000000002
40
0.562500000000002
40
0.625
40
0.625
40
0.687499999999998
40
0.687499999999998
40
0.749999999999996
40
0.749999999999996
40
0.812499999999994
40
0.812499999999994
40
0.843749999999995
40
0.843749999999995
40
0.874999999999996
40
0.874999999999996
40
0.906249999999997
40
0.906249999999997
40
0.937499999999998
40
0.937499999999998
40
0.968749999999999
40
0.968749999999999
40
1
40
1
40
1
40
1
41
1
10
10.9844246062802
20
2.85636861437993
30
0
41
1
10
10.9921227509315
20
2.84492282363539
30
0
41
1
10
10.9985261886693
20
2.83275405452204
30
0
41
1
10
11.0066138770056
20
2.81364568520564
30
0
41
1
10
11.0090542187987
20
2.80713218716099
30
0
41
1
10
11.0134704196556
20
2.7938415482212
30
0
41
1
10
11.0154503578249
20
2.78704493715645
30
0
41
1
10
11.0241950899266
20
2.75280640596651
30
0
41
1
10
11.0276646064673
20
2.72447052693048
30
0
41
1
10
11.029267335373
20
2.68092734754876
30
0
41
1
10
11.0291792981549
20
2.66618949864147
30
0
41
1
10
11.0279329323937
20
2.63677099963647
30
0
41
1
10
11.0267788556846
20
2.622054512425
30
0
41
1
10
11.0219367556457
20
2.57787223400848
30
0
41
1
10
11.0168819282326
20
2.54837341384163
30
0
41
1
10
11.0070329087388
20
2.50402167291466
30
0
41
1
10
11.0033590575834
20
2.48918796128922
30
0
41
1
10
10.9953323332963
20
2.45963480876603
30
0
41
1
10
10.9909940172227
20
2.44496210736008
30
0
41
1
10
10.9770841565476
20
2.40122586506465
30
0
41
1
10
10.9666231923879
20
2.37244221932201
30
0
41
1
10
10.9320494534015
20
2.28707002010384
30
0
41
1
10
10.9048008526593
20
2.23144031339109
30
0
41
1
10
10.857785723331
20
2.14983070867066
30
0
41
1
10
10.8412337213783
20
2.12321612064917
30
0
41
1
10
10.8063740796255
20
2.07122686486136
30
0
41
1
10
10.7880619945995
20
2.04585308614443
30
0
41
1
10
10.7498543880364
20
1.99679280601995
30
0
41
1
10
10.7298814914412
20
1.97300756761339
30
0
41
1
10
10.688412077502
20
1.92753009279826
30
0
41
1
10
10.6668807246331
20
1.90578734689336
30
0
41
1
10
10.6220936168185
20
1.8647312790097
30
0
41
1
10
10.5989882641337
20
1.84554371366593
30
0
41
1
10
10.5629822644285
20
1.81917453180967
30
0
41
1
10
10.5507321909666
20
1.81077740056753
30
0
41
1
10
10.5258698256436
20
1.79501828074632
30
0
41
1
10
10.5132467977204
20
1.7876453785716
30
0
41
1
10
10.4875421036864
20
1.77407229692761
30
0
41
1
10
10.4744831751114
20
1.76788670539588
30
0
41
1
10
10.4480608095869
20
1.75701988985756
30
0
41
1
10
10.4346324458856
20
1.75231156771949
30
0
41
1
10
10.4075061827005
20
1.74475748061357
30
0
41
1
10
10.393919815633
20
1.74193710516698
30
0
41
1
10
10.3666762240668
20
1.73859092752375
30
0
41
1
10
10.3530191840608
20
1.73805871525522
30
0
41
1
10
10.3393109365589
20
1.7389989617655
30
0
0
SPLINE
5
10E
100
AcDbEntity
8
1
62
256
6
ByLayer
370
18
48
1
60
0
100
AcDbSpline
70
4
71
3
72
18
73
14
40
0
40
0
40
0
40
0
40
0.106502320877089
40
0.209819720887999
40
0.309970050664476
40
0.406972922399936
40
0.500849920825595
40
0.591624858696165
40
0.679324076625394
40
0.763976789997701
40
0.845615488385875
40
0.924276395492115
40
1
40
1
40
1
40
1
41
1
10
31.6980862172677
20
-8.57941464817705
30
0
41
1
10
31.6965091061935
20
-8.57873569634947
30
0
41
1
10
31.693402047092
20
-8.57739809655081
30
0
41
1
10
31.6888919111762
20
-8.57509503761136
30
0
41
1
10
31.68458290232
20
-8.57263365252132
30
0
41
1
10
31.6804802013747
20
-8.57000984205968
30
0
41
1
10
31.6765824890681
20
-8.56724753416279
30
0
41
1
10
31.6728900240872
20
-8.56436296082438
30
0
41
1
10
31.6694029509026
20
-8.5613731471596
30
0
41
1
10
31.6661204155716
20
-8.55829564552997
30
0
41
1
10
31.6630454487202
20
-8.55514158474932
30
0
41
1
10
31.6601672624499
20
-8.55194200741789
30
0
41
1
10
31.6583711657764
20
-8.54970812316171
30
0
41
1
10
31.6574902036077
20
-8.54861243185067
30
0
0
SPLINE
5
10F
100
AcDbEntity
8
1
62
256
6
ByLayer
370
18
48
1
60
0
100
AcDbSpline
70
4
71
3
72
16
73
12
40
0
40
0
40
0
40
0
40
0.117319552192547
40
0.233085853411068
40
0.347299362420276
40
0.459960556948122
40
0.571069934744699
40
0.680628014713015
40
0.788635338118837
40
0.895092469888339
40
1
40
1
40
1
40
1
41
1
10
31.8569129943077
20
-8.63476747629801
30
0
41
1
10
31.8506453455703
20
-8.63294467312991
30
0
41
1
10
31.8381930285647
20
-8.62932319977705
30
0
41
1
10
31.8196868348827
20
-8.62360859123589
30
0
41
1
10
31.8014648755764
20
-8.61774311018644
30
0
41
1
10
31.7835304222354
20
-8.61171332661246
30
0
41
1
10
31.7658826942356
20
-8.60553373093168
30
0
41
1
10
31.7485216077426
20
-8.59921307982265
30
0
41
1
10
31.7314482369927
20
-8.59275505505067
30
0
41
1
10
31.7146584541165
20
-8.58618794394448
30
0
41
1
10
31.7035832305375
20
-8.58166135132129
30
0
41
1
10
31.6980862172677
20
-8.57941464817
30
0
0
SPLINE
5
110
100
AcDbEntity
8
1
62
256
6
ByLayer
370
18
48
1
60
0
100
AcDbSpline
70
4
71
2
72
10
73
7
40
0
40
0
40
0
40
0.5
40
0.5
40
0.75
40
0.75
40
1
40
1
40
1
41
1
10
31.8569129943012
20
-8.634767476262
30
0
41
1
10
31.9245068205236
20
-8.65426216351506
30
0
41
1
10
31.9722030616268
20
-8.70598571100984
30
0
41
1
10
31.9981900515786
20
-8.73416695292599
30
0
41
1
10
32.0148269535881
20
-8.77002235389625
30
0
41
1
10
32.03279281501
20
-8.80874189222669
30
0
41
1
10
32.0369137759407
20
-8.85176441302801
30
0
0
SPLINE
5
111
100
AcDbEntity
8
1
62
256
6
ByLayer
370
18
48
1
60
0
100
AcDbSpline
70
4
71
2
72
6
73
3
40
0
40
0
40
0
40
1
40
1
40
1
41
1
10
32.0369137759782
20
-8.851764412942
30
0
41
1
10
32.0458050681508
20
-8.94698344596011
30
0
41
1
10
32.0458285383892
20
-9.04249999930241
30
0
0
SPLINE
5
112
100
AcDbEntity
8
1
62
256
6
ByLayer
370
18
48
1
60
0
100
AcDbSpline
70
4
71
3
72
17
73
13
40
0
40
0
40
0
40
0
40
0.100317411816991
40
0.200541310293676
40
0.300680278273645
40
0.400742920447688
40
0.500737861201936
40
0.600673742442858
40
0.700559221399286
40
0.800402968404953
40
0.900213664663601
40
1
40
1
40
1
40
1
41
1
10
32.0369137759777
20
-9.273235587058
30
0
41
1
10
32.0374907017394
20
-9.26689122982458
30
0
41
1
10
32.0386440154674
20
-9.25420842940619
30
0
41
1
10
32.0401494039791
20
-9.23515394721224
30
0
41
1
10
32.041489205109
20
-9.21609147902046
30
0
41
1
10
32.042647382609
20
-9.19701969571693
30
0
41
1
10
32.0436283058491
20
-9.17794107066632
30
0
41
1
10
32.0444305147006
20
-9.15885705875121
30
0
41
1
10
32.0450554832194
20
-9.13976938648048
30
0
41
1
10
32.0454987763668
20
-9.12067970633095
30
0
41
1
10
32.0457766520423
20
-9.10158968965649
30
0
41
1
10
32.0458112443466
20
-9.08886271257251
30
0
41
1
10
32.0458285383877
20
-9.08250000069762
30
0
0
SPLINE
5
113
100
AcDbEntity
8
1
62
256
6
ByLayer
370
18
48
1
60
0
100
AcDbSpline
70
4
71
3
72
38
73
34
40
0
40
0
40
0
40
0
40
0.0320161803202388
40
0.0634137556518515
40
0.0941938978135382
40
0.124357850632132
40
0.153906935795984
40
0.182842559298691
40
0.211166218540729
40
0.238879510169531
40
0.265984138747567
40
0.292481926351483
40
0.318374823219176
40
0.343664919578707
40
0.368354458810697
40
0.392445852120248
40
0.4159416949162
40
0.438844785127734
40
0.461158143719652
40
0.482885037706391
40
0.504029006008712
40
0.551366811163482
40
0.597409666800783
40
0.642207857911409
40
0.685815975457805
40
0.728293199080102
40
0.769703557232102
40
0.810116149643934
40
0.849605314211507
40
0.88825071811131
40
0.926137351649954
40
0.963355403684987
40
1
40
1
40
1
40
1
41
1
10
31.8569129942977
20
-9.490232523738
30
0
41
1
10
31.8595412022225
20
-9.48945143928526
30
0
41
1
10
31.8647468367947
20
-9.48790436220938
30
0
41
1
10
31.8724183692601
20
-9.48526828413807
30
0
41
1
10
31.8798924884198
20
-9.48244410005714
30
0
41
1
10
31.8871650942036
20
-9.47942108985504
30
0
41
1
10
31.8942372552931
20
-9.47621836590821
30
0
41
1
10
31.9011086967219
20
-9.47284705982665
30
0
41
1
10
31.9077794928939
20
-9.46932012129659
30
0
41
1
10
31.9142496277211
20
-9.46564974374522
30
0
41
1
10
31.9205191088601
20
-9.46184800726505
30
0
41
1
10
31.9265879381035
20
-9.45792668894052
30
0
41
1
10
31.9324561190213
20
-9.45389729182733
30
0
41
1
10
31.9381236552255
20
-9.44977101981556
30
0
41
1
10
31.9435905500458
20
-9.44555876867724
30
0
41
1
10
31.9488568095158
20
-9.44127111610777
30
0
41
1
10
31.9539224312742
20
-9.43691831100242
30
0
41
1
10
31.9587874446605
20
-9.43251027651783
30
0
41
1
10
31.9634517667685
20
-9.42805657013267
30
0
41
1
10
31.9679157190759
20
-9.42356650518886
30
0
41
1
10
31.9739771356576
20
-9.41714196950699
30
0
41
1
10
31.9814263980611
20
-9.40855318319043
30
0
41
1
10
31.9899703211373
20
-9.39747991636784
30
0
41
1
10
31.9978165015013
20
-9.3860305586926
30
0
41
1
10
32.0049651843956
20
-9.37425061917168
30
0
41
1
10
32.0114161979483
20
-9.36218461861725
30
0
41
1
10
32.0171693145935
20
-9.34987665255625
30
0
41
1
10
32.0222247334685
20
-9.33737016537097
30
0
41
1
10
32.0265808749649
20
-9.32470745282956
30
0
41
1
10
32.0302424590416
20
-9.3119310234884
30
0
41
1
10
32.0331912788525
20
-9.29907808836438
30
0
41
1
10
32.0354922122894
20
-9.28620005833645
30
0
41
1
10
32.0364423803637
20
-9.27753465189781
30
0
41
1
10
32.0369137759377
20
-9.27323558697202
30
0
0
SPLINE
5
114
100
AcDbEntity
8
1
62
256
6
ByLayer
370
18
48
1
60
0
100
AcDbSpline
70
4
71
2
72
6
73
3
40
0
40
0
40
0
40
1
40
1
40
1
41
1
10
31.8569129943097
20
-9.49023252370202
30
0
41
1
10
31.7759142978734
20
-9.51348475667197
30
0
41
1
10
31.6980862172702
20
-9.54558535183
30
0
0
SPLINE
5
115
100
AcDbEntity
8
1
62
256
6
ByLayer
370
18
48
1
60
0
100
AcDbSpline
70
4
71
2
72
6
73
3
40
0
40
0
40
0
40
1
40
1
40
1
41
1
10
31.6980862172692
20
-9.54558535182301
30
0
41
1
10
31.6737873382768
20
-9.55575467086325
30
0
41
1
10
31.6574902036082
20
-9.57638756814902
30
0
0
SPLINE
5
116
100
AcDbEntity
8
SK1
62
256
6
ByLayer
370
18
48
1
60
0
100
AcDbSpline
70
4
71
3
72
25
73
21
40
0
40
0
40
0
40
0
40
0.124999999999974
40
0.156249999999968
40
0.156249999999968
40
0.187499999999961
40
0.187499999999961
40
0.249999999999948
40
0.249999999999948
40
0.374999999999941
40
0.374999999999941
40
0.437499999999938
40
0.437499999999938
40
0.499999999999934
40
0.499999999999934
40
0.624999999999946
40
0.624999999999946
40
0.749999999999958
40
0.749999999999958
40
1
40
1
40
1
40
1
41
1
10
-1.15972464815167
20
9.93521204285381
30
0
41
1
10
-1.11496398279098
20
9.88811904274442
30
0
41
1
10
-1.05622122516854
20
9.83347913834481
30
0
41
1
10
-0.994434394973837
20
9.78396503049245
30
0
41
1
10
-0.969483266380081
20
9.76456956910667
30
0
41
1
10
-0.956875942421163
20
9.75506746659357
30
0
41
1
10
-0.918985282883312
20
9.72736827473824
30
0
41
1
10
-0.893552862133731
20
9.70991232669306
30
0
41
1
10
-0.816873736856053
20
9.66039423463178
30
0
41
1
10
-0.765247634340312
20
9.63117591417503
30
0
41
1
10
-0.6875214151259
20
9.59245600489049
30
0
41
1
10
-0.661564108570417
20
9.58040229614994
30
0
41
1
10
-0.60962491162644
20
9.55791956776991
30
0
41
1
10
-0.583615297039472
20
9.54748037846542
30
0
41
1
10
-0.505828308954563
20
9.51855336767673
30
0
41
1
10
-0.455200620874024
20
9.50277172053401
30
0
41
1
10
-0.356584787025042
20
9.47690851383234
30
0
41
1
10
-0.308595839943791
20
9.46683174430913
30
0
41
1
10
-0.168834530567892
20
9.443631891043
30
0
41
1
10
-0.081255457485355
20
9.43749999999997
30
0
41
1
10
0
20
9.43749999999997
30
0
0
SPLINE
5
117
100
AcDbEntity
8
SK1
62
256
6
ByLayer
370
18
48
1
60
0
100
AcDbSpline
70
4
71
3
72
26
73
22
40
0
40
0
40
0
40
0
40
0.12499999999999
40
0.12499999999999
40
0.24999999999998
40
0.24999999999998
40
0.37499999999997
40
0.37499999999997
40
0.437499999999965
40
0.437499999999965
40
0.49999999999996
40
0.49999999999996
40
0.624999999999964
40
0.624999999999964
40
0.749999999999968
40
0.749999999999968
40
0.812499999999981
40
0.812499999999981
40
0.874999999999994
40
0.874999999999994
40
1
40
1
40
1
40
1
41
1
10
1.705E-13
20
-10.5114903551089
30
0
41
1
10
-0.0346247765710928
20
-10.4700583461243
30
0
41
1
10
-0.0711572466567532
20
-10.430587745735
30
0
41
1
10
-0.148194753929943
20
-10.3553333982738
30
0
41
1
10
-0.188699322251779
20
-10.3195519676671
30
0
41
1
10
-0.273950821075402
20
-10.2516981980431
30
0
41
1
10
-0.318696444120974
20
-10.2196259483104
30
0
41
1
10
-0.389302647539637
20
-10.1744771038324
30
0
41
1
10
-0.413420542254869
20
-10.1599224277671
30
0
41
1
10
-0.462889913686439
20
-10.1318546577555
30
0
41
1
10
-0.488277150298814
20
-10.118323740836
30
0
41
1
10
-0.566180091253358
20
-10.0795125216883
30
0
41
1
10
-0.619895856035669
20
-10.0562658333454
30
0
41
1
10
-0.731084633046663
20
-10.0153768558119
30
0
41
1
10
-0.788556483499917
20
-9.9977322812511
30
0
41
1
10
-0.877812840841983
20
-9.97593003424876
30
0
41
1
10
-0.908074038302289
20
-9.96944234170729
30
0
41
1
10
-0.969667574983362
20
-9.95813693270597
30
0
41
1
10
-1.00106290790944
20
-9.95331172763488
30
0
41
1
10
-1.09650467696935
20
-9.94160177309951
30
0
41
1
10
-1.1614387408182
20
-9.9375
30
0
41
1
10
-1.2277231807663
20
-9.9375
30
0
0
LINE
5
7F
100
AcDbEntity
8
80
62
256
6
ByLayer
370
18
48
1
60
0
100
AcDbLine
10
0
20
0
30
0
11
-5
21
0
31
0
39
0
210
0
220
0
230
1
0
LINE
5
80
100
AcDbEntity
8
81
62
256
6
ByLayer
370
18
48
1
60
0
100
AcDbLine
10
39.107968
20
-11.0625
30
0
11
44.107968
21
-11.0625
31
0
39
0
210
0
220
0
230
1
0
LINE
5
81
100
AcDbEntity
8
1
62
256
6
ByLayer
370
18
48
1
60
0
100
AcDbLine
10
0
20
9.4375
30
0
11
0
21
-10.51149
31
0
39
0
210
0
220
0
230
1
0
LINE
5
82
100
AcDbEntity
8
1
62
256
6
ByLayer
370
18
48
1
60
0
100
AcDbLine
10
29.443938
20
-10.83322
30
0
11
29.443816
21
-10.764462
31
0
39
0
210
0
220
0
230
1
0
LINE
5
83
100
AcDbEntity
8
1
62
256
6
ByLayer
370
18
48
1
60
0
100
AcDbLine
10
31.913569
20
-10.831144
30
0
11
31.913268
21
-10.662493
31
0
39
0
210
0
220
0
230
1
0
LINE
5
84
100
AcDbEntity
8
1
62
256
6
ByLayer
370
18
48
1
60
0
100
AcDbLine
10
0
20
9.4375
30
0
11
0.481918
21
9.4375
31
0
39
0
210
0
220
0
230
1
0
LINE
5
85
100
AcDbEntity
8
1
62
256
6
ByLayer
370
18
48
1
60
0
100
AcDbLine
10
31.107968
20
-8.787531
30
0
11
31.107968
21
-9.337469
31
0
39
0
210
0
220
0
230
1
0
LINE
5
86
100
AcDbEntity
8
1
62
256
6
ByLayer
370
18
48
1
60
0
100
AcDbLine
10
38.107968
20
-11.032218
30
0
11
38.107968
21
-11.188167
31
0
39
0
210
0
220
0
230
1
0
LINE
5
87
100
AcDbEntity
8
1
62
256
6
ByLayer
370
18
48
1
60
0
100
AcDbLine
10
34.986571
20
-10.831144
30
0
11
31.913569
21
-10.831144
31
0
39
0
210
0
220
0
230
1
0
LINE
5
88
100
AcDbEntity
8
1
62
256
6
ByLayer
370
18
48
1
60
0
100
AcDbLine
10
29.443938
20
-10.83322
30
0
11
26.723024
21
-10.83322
31
0
39
0
210
0
220
0
230
1
0
LINE
5
89
100
AcDbEntity
8
1
62
256
6
ByLayer
370
18
48
1
60
0
100
AcDbLine
10
0.317758
20
-11.12339
30
0
11
0.698805
21
-12.545475
31
0
39
0
210
0
220
0
230
1
0
LINE
5
8A
100
AcDbEntity
8
1
62
256
6
ByLayer
370
18
48
1
60
0
100
AcDbLine
10
29.065764
20
-12.545475
30
0
11
0.698805
21
-12.545475
31
0
39
0
210
0
220
0
230
1
0
LINE
5
8B
100
AcDbEntity
8
1
62
256
6
ByLayer
370
13
48
1
60
0
100
AcDbLine
10
21.107968
20
-7.405354
30
0
11
21.107968
21
-7.914253
31
0
39
0
210
0
220
0
230
1
0
LINE
5
8C
100
AcDbEntity
8
1
62
256
6
ByLayer
370
18
48
1
60
0
100
AcDbLine
10
20.324413
20
-10.963733
30
0
11
23.180709
21
-10.963733
31
0
39
0
210
0
220
0
230
1
0
LINE
5
8D
100
AcDbEntity
8
1
62
256
6
ByLayer
370
18
48
1
60
0
100
AcDbLine
10
27.607968
20
-7.502414
30
0
11
27.607968
21
-10.809256
31
0
39
0
210
0
220
0
230
1
0
LINE
5
8E
100
AcDbEntity
8
1
62
256
6
ByLayer
370
18
48
1
60
0
100
AcDbLine
10
0.481918
20
9.4375
30
0
11
2.572312
21
9.4375
31
0
39
0
210
0
220
0
230
1
0
LINE
5
8F
100
AcDbEntity
8
1
62
256
6
ByLayer
370
13
48
1
60
0
100
AcDbLine
10
0.481918
20
-10.74506
30
0
11
0.481918
21
9.4375
31
0
39
0
210
0
220
0
230
1
0
LINE
5
90
100
AcDbEntity
8
1
62
256
6
ByLayer
370
18
48
1
60
0
100
AcDbLine
10
2.036414
20
-10.963733
30
0
11
2.572312
21
-10.963733
31
0
39
0
210
0
220
0
230
1
0
LINE
5
91
100
AcDbEntity
8
1
62
256
6
ByLayer
370
18
48
1
60
0
100
AcDbLine
10
14.54945
20
9.4375
30
0
11
19.507968
21
4.858853
31
0
39
0
210
0
220
0
230
1
0
LINE
5
92
100
AcDbEntity
8
1
62
256
6
ByLayer
370
18
48
1
60
0
100
AcDbLine
10
2.572312
20
9.4375
30
0
11
14.54945
21
9.4375
31
0
39
0
210
0
220
0
230
1
0
LINE
5
93
100
AcDbEntity
8
1
62
256
6
ByLayer
370
18
48
1
60
0
100
AcDbLine
10
2.572312
20
9.4375
30
0
11
2.572312
21
-10.963733
31
0
39
0
210
0
220
0
230
1
0
LINE
5
94
100
AcDbEntity
8
1
62
256
6
ByLayer
370
18
48
1
60
0
100
AcDbLine
10
20.324413
20
-10.963733
30
0
11
2.572312
21
-10.963733
31
0
39
0
210
0
220
0
230
1
0
LINE
5
95
100
AcDbEntity
8
1
62
256
6
ByLayer
370
18
48
1
60
0
100
AcDbLine
10
20.324413
20
-10.963733
30
0
11
20.324413
21
-7.777555
31
0
39
0
210
0
220
0
230
1
0
LINE
5
96
100
AcDbEntity
8
1
62
256
6
ByLayer
370
18
48
1
60
0
100
AcDbLine
10
19.507968
20
-6.370806
30
0
11
19.507968
21
4.858853
31
0
39
0
210
0
220
0
230
1
0
LINE
5
97
100
AcDbEntity
8
1
62
256
6
ByLayer
370
18
48
1
60
0
100
AcDbLine
10
32.737968
20
-10.6625
30
0
11
34.694457
21
-10.6625
31
0
39
0
210
0
220
0
230
1
0
LINE
5
98
100
AcDbEntity
8
1
62
256
6
ByLayer
370
18
48
1
60
0
100
AcDbLine
10
32.737968
20
-7.4625
30
0
11
34.694457
21
-7.4625
31
0
39
0
210
0
220
0
230
1
0
LINE
5
99
100
AcDbEntity
8
1
62
256
6
ByLayer
370
18
48
1
60
0
100
AcDbLine
10
35.107968
20
-10.90124
30
0
11
34.694457
21
-10.6625
31
0
39
0
210
0
220
0
230
1
0
LINE
5
9A
100
AcDbEntity
8
1
62
256
6
ByLayer
370
18
48
1
60
0
100
AcDbLine
10
38.794882
20
-11.062214
30
0
11
35.107968
21
-10.90124
31
0
39
0
210
0
220
0
230
1
0
LINE
5
9B
100
AcDbEntity
8
1
62
256
6
ByLayer
370
18
48
1
60
0
100
AcDbLine
10
39.107968
20
-10.7625
30
0
11
39.107968
21
-7.3625
31
0
39
0
210
0
220
0
230
1
0
LINE
5
9C
100
AcDbEntity
8
1
62
256
6
ByLayer
370
18
48
1
60
0
100
AcDbLine
10
38.794882
20
-7.062786
30
0
11
35.107968
21
-7.22376
31
0
39
0
210
0
220
0
230
1
0
LINE
5
9D
100
AcDbEntity
8
1
62
256
6
ByLayer
370
18
48
1
60
0
100
AcDbLine
10
35.107968
20
-7.22376
30
0
11
34.694457
21
-7.4625
31
0
39
0
210
0
220
0
230
1
0
LINE
5
9E
100
AcDbEntity
8
1
62
256
6
ByLayer
370
18
48
1
60
0
100
AcDbLine
10
14.421053
20
-11.062214
30
0
11
16.676638
21
-10.963733
31
0
39
0
210
0
220
0
230
1
0
LINE
5
9F
100
AcDbEntity
8
1
62
256
6
ByLayer
370
13
48
1
60
0
100
AcDbLine
10
31.107967
20
-9.0425
30
0
11
32.045829
21
-9.0425
31
0
39
0
210
0
220
0
230
1
0
LINE
5
A0
100
AcDbEntity
8
1
62
256
6
ByLayer
370
13
48
1
60
0
100
AcDbLine
10
31.107967
20
-9.0825
30
0
11
32.045829
21
-9.0825
31
0
39
0
210
0
220
0
230
1
0
LINE
5
A1
100
AcDbEntity
8
1
62
256
6
ByLayer
370
13
48
1
60
0
100
AcDbLine
10
31.107885
20
-8.851764
30
0
11
32.036914
21
-8.851764
31
0
39
0
210
0
220
0
230
1
0
LINE
5
A2
100
AcDbEntity
8
1
62
256
6
ByLayer
370
13
48
1
60
0
100
AcDbLine
10
31.107885
20
-9.273236
30
0
11
32.036914
21
-9.273236
31
0
39
0
210
0
220
0
230
1
0
LINE
5
A3
100
AcDbEntity
8
1
62
256
6
ByLayer
370
13
48
1
60
0
100
AcDbLine
10
30.999449
20
-9.490233
30
0
11
31.856913
21
-9.490233
31
0
39
0
210
0
220
0
230
1
0
LINE
5
A4
100
AcDbEntity
8
1
62
256
6
ByLayer
370
13
48
1
60
0
100
AcDbLine
10
30.999449
20
-8.634767
30
0
11
31.856913
21
-8.634767
31
0
39
0
210
0
220
0
230
1
0
LINE
5
A5
100
AcDbEntity
8
1
62
256
6
ByLayer
370
13
48
1
60
0
100
AcDbLine
10
31.698086
20
-9.545585
30
0
11
30.869828
21
-9.545585
31
0
39
0
210
0
220
0
230
1
0
LINE
5
A6
100
AcDbEntity
8
1
62
256
6
ByLayer
370
13
48
1
60
0
100
AcDbLine
10
31.698086
20
-8.579415
30
0
11
30.869828
21
-8.579415
31
0
39
0
210
0
220
0
230
1
0
LINE
5
A7
100
AcDbEntity
8
1
62
256
6
ByLayer
370
13
48
1
60
0
100
AcDbLine
10
30.827869
20
-9.576388
30
0
11
31.65749
21
-9.576388
31
0
39
0
210
0
220
0
230
1
0
LINE
5
A8
100
AcDbEntity
8
1
62
256
6
ByLayer
370
13
48
1
60
0
100
AcDbLine
10
30.827948
20
-8.548612
30
0
11
31.65749
21
-8.548612
31
0
39
0
210
0
220
0
230
1
0
LINE
5
A9
100
AcDbEntity
8
1
62
256
6
ByLayer
370
13
48
1
60
0
100
AcDbLine
10
30.813028
20
-8.456835
30
0
11
31.585659
21
-8.456835
31
0
39
0
210
0
220
0
230
1
0
LINE
5
AA
100
AcDbEntity
8
1
62
256
6
ByLayer
370
13
48
1
60
0
100
AcDbLine
10
30.812872
20
-9.668165
30
0
11
31.585659
21
-9.668165
31
0
39
0
210
0
220
0
230
1
0
LINE
5
AB
100
AcDbEntity
8
1
62
256
6
ByLayer
370
13
48
1
60
0
100
AcDbLine
10
30.805499
20
-9.712434
30
0
11
31.565926
21
-9.712434
31
0
39
0
210
0
220
0
230
1
0
LINE
5
AC
100
AcDbEntity
8
1
62
256
6
ByLayer
370
13
48
1
60
0
100
AcDbLine
10
30.805809
20
-8.412566
30
0
11
31.565926
21
-8.412566
31
0
39
0
210
0
220
0
230
1
0
LINE
5
AD
100
AcDbEntity
8
1
62
256
6
ByLayer
370
18
48
1
60
0
100
AcDbLine
10
30.639654
20
-10.6625
30
0
11
31.442486
21
-10.6625
31
0
39
0
210
0
220
0
230
1
0
LINE
5
AE
100
AcDbEntity
8
1
62
256
6
ByLayer
370
13
48
1
60
0
100
AcDbLine
10
30.687014
20
-7.721116
30
0
11
31.444005
21
-7.721116
31
0
39
0
210
0
220
0
230
1
0
LINE
5
AF
100
AcDbEntity
8
1
62
256
6
ByLayer
370
18
48
1
60
0
100
AcDbLine
10
32.737968
20
-10.6625
30
0
11
31.442486
21
-10.6625
31
0
39
0
210
0
220
0
230
1
0
LINE
5
B0
100
AcDbEntity
8
1
62
256
6
ByLayer
370
18
48
1
60
0
100
AcDbLine
10
32.737968
20
-7.4625
30
0
11
31.442486
21
-7.4625
31
0
39
0
210
0
220
0
230
1
0
LINE
5
B1
100
AcDbEntity
8
1
62
256
6
ByLayer
370
18
48
1
60
0
100
AcDbLine
10
31.444005
20
-7.721116
30
0
11
31.565926
21
-8.412566
31
0
39
0
210
0
220
0
230
1
0
LINE
5
B2
100
AcDbEntity
8
1
62
256
6
ByLayer
370
18
48
1
60
0
100
AcDbLine
10
31.585659
20
-8.456835
30
0
11
31.65749
21
-8.548612
31
0
39
0
210
0
220
0
230
1
0
LINE
5
B3
100
AcDbEntity
8
1
62
256
6
ByLayer
370
18
48
1
60
0
100
AcDbLine
10
32.045829
20
-9.0825
30
0
11
32.045829
21
-9.0425
31
0
39
0
210
0
220
0
230
1
0
LINE
5
B4
100
AcDbEntity
8
1
62
256
6
ByLayer
370
18
48
1
60
0
100
AcDbLine
10
31.585659
20
-9.668165
30
0
11
31.65749
21
-9.576388
31
0
39
0
210
0
220
0
230
1
0
LINE
5
B5
100
AcDbEntity
8
1
62
256
6
ByLayer
370
18
48
1
60
0
100
AcDbLine
10
31.444005
20
-10.403884
30
0
11
31.565926
21
-9.712434
31
0
39
0
210
0
220
0
230
1
0
LINE
5
B6
100
AcDbEntity
8
1
62
256
6
ByLayer
370
18
48
1
60
0
100
AcDbLine
10
31.442486
20
-10.6625
30
0
11
31.442486
21
-10.421249
31
0
39
0
210
0
220
0
230
1
0
LINE
5
B7
100
AcDbEntity
8
1
62
256
6
ByLayer
370
18
48
1
60
0
100
AcDbLine
10
32.737968
20
-10.6625
30
0
11
32.737968
21
-7.4625
31
0
39
0
210
0
220
0
230
1
0
LINE
5
B8
100
AcDbEntity
8
1
62
256
6
ByLayer
370
13
48
1
60
0
100
AcDbLine
10
30.684826
20
-10.421249
30
0
11
31.442486
21
-10.421249
31
0
39
0
210
0
220
0
230
1
0
LINE
5
B9
100
AcDbEntity
8
1
62
256
6
ByLayer
370
13
48
1
60
0
100
AcDbLine
10
30.688072
20
-10.403884
30
0
11
31.444005
21
-10.403884
31
0
39
0
210
0
220
0
230
1
0
LINE
5
BA
100
AcDbEntity
8
1
62
256
6
ByLayer
370
13
48
1
60
0
100
AcDbLine
10
30.68392
20
-7.703751
30
0
11
31.442486
21
-7.703751
31
0
39
0
210
0
220
0
230
1
0
LINE
5
BB
100
AcDbEntity
8
1
62
256
6
ByLayer
370
18
48
1
60
0
100
AcDbLine
10
31.442486
20
-7.4625
30
0
11
31.442486
21
-7.703751
31
0
39
0
210
0
220
0
230
1
0
LINE
5
BC
100
AcDbEntity
8
1
62
256
6
ByLayer
370
18
48
1
60
0
100
AcDbLine
10
30.639805
20
-7.4625
30
0
11
31.442486
21
-7.4625
31
0
39
0
210
0
220
0
230
1
0
LINE
5
BD
100
AcDbEntity
8
SK1
62
256
6
ByLayer
370
18
48
1
60
0
100
AcDbLine
10
-85.892032
20
-9.9375
30
0
11
-85.892032
21
9.9375
31
0
39
0
210
0
220
0
230
1
0
LINE
5
BF
100
AcDbEntity
8
SK1
62
256
6
ByLayer
370
18
48
1
60
0
100
AcDbLine
10
-4.455467
20
9.9375
30
0
11
-85.892032
21
9.9375
31
0
39
0
210
0
220
0
230
1
0
LINE
5
C0
100
AcDbEntity
8
SK1
62
256
6
ByLayer
370
18
48
1
60
0
100
AcDbLine
10
-4.455467
20
-9.9375
30
0
11
-85.892032
21
-9.9375
31
0
39
0
210
0
220
0
230
1
0
LINE
5
C1
100
AcDbEntity
8
SK1
62
256
6
ByLayer
370
18
48
1
60
0
100
AcDbLine
10
0
20
9.4375
30
0
11
0
21
-10.51149
31
0
39
0
210
0
220
0
230
1
0
LINE
5
C2
100
AcDbEntity
8
SK1
62
256
6
ByLayer
370
18
48
1
60
0
100
AcDbLine
10
-4.455467
20
9.9375
30
0
11
-4.455467
21
-9.9375
31
0
39
0
210
0
220
0
230
1
0
LINE
5
C3
100
AcDbEntity
8
SK1
62
256
6
ByLayer
370
18
48
1
60
0
100
AcDbLine
10
-1.227723
20
-9.9375
30
0
11
-4.455467
21
-9.9375
31
0
39
0
210
0
220
0
230
1
0
MTEXT
5
118
100
AcDbEntity
8
SK6
62
256
6
ByLayer
370
18
48
1
60
0
100
AcDbMText
10
-55.706532
20
-55.438362
30
0
210
0
220
0
230
1
1
\W0.7596;C2A-RS20-LFH18B-132DB
40
3.5
41
0
44
1.084337
50
0
71
7
72
5
7
iso_b_vert
0
DIMENSION
5
11D
100
AcDbEntity
8
2
62
256
6
ByLayer
370
18
48
1
60
0
100
AcDbDimension
2
_U0
10
72.207968
20
9.9375
30
0
11
72.207968
21
-0.5625
31
0
70
32
71
1
72
1
41
1
210
0
220
0
230
1
3
Standard
100
AcDbAlignedDimension
13
39.107968
23
-11.0625
33
0
14
-85.892032
24
9.9375
34
0
50
90
100
AcDbRotatedDimension
1001
ACAD
1000
DSTYLE
1002
{
1070
   371
1070
    13
1070
   372
1070
    13
1070
   170
1070
     0
1070
   144
1040
1.0
1070
   277
1070
     2
1070
   284
1070
     8
1070
   278
1070
    46
1070
   146
1040
1.0
1070
   345
1005
16
1070
   347
1005
16
1070
   346
1005
16
1070
   344
1005
0
1070
   343
1005
0
1070
   172
1070
     1
1070
    76
1070
     0
1070
    75
1070
     0
1070
   282
1070
     0
1070
   281
1070
     0
1070
    71
1070
     0
1070
    74
1070
     0
1070
   279
1070
     0
1070
   173
1070
     1
1070
   340
1005
119
1070
   271
1070
     2
1070
   272
1070
     2
1070
    77
1070
     1
1070
    73
1070
     0
1070
   171
1070
     3
1070
   274
1070
     4
1070
   177
1070
     2
1070
   176
1070
     2
1070
   178
1070
     2
1070
    78
1070
     8
1070
    48
1040
-0.1
1070
    41
1040
3.5
1070
   147
1040
1.75
1070
    42
1040
1.5875
1070
    44
1040
2.0
1070
   140
1040
3.5
1002
}
1001
ACAD_DSTYLE_DIM_LINETYPE
1070
   380
1005
16
1001
ACAD_DSTYLE_DIM_EXT1_LINETYPE
1070
   381
1005
16
1001
ACAD_DSTYLE_DIM_EXT2_LINETYPE
1070
   382
1005
16
0
DIMENSION
5
137
100
AcDbEntity
8
2
62
256
6
ByLayer
370
18
48
1
60
0
100
AcDbDimension
2
_U1
10
60.207968
20
-11.0625
30
0
11
60.207968
21
-9.0625
31
0
70
32
71
1
72
1
41
1
210
0
220
0
230
1
3
Standard
100
AcDbAlignedDimension
13
39.107968
23
-7.0625
33
0
14
39.107968
24
-11.0625
34
0
50
90
100
AcDbRotatedDimension
1001
ACAD
1000
DSTYLE
1002
{
1070
   371
1070
    13
1070
   372
1070
    13
1070
   170
1070
     0
1070
   144
1040
1.0
1070
   277
1070
     2
1070
   284
1070
     8
1070
   278
1070
    46
1070
   146
1040
1.0
1070
   345
1005
16
1070
   347
1005
16
1070
   346
1005
16
1070
   344
1005
0
1070
   343
1005
0
1070
   172
1070
     1
1070
    76
1070
     0
1070
    75
1070
     0
1070
   282
1070
     0
1070
   281
1070
     0
1070
    71
1070
     0
1070
    74
1070
     0
1070
   279
1070
     0
1070
   173
1070
     1
1070
   340
1005
119
1070
   271
1070
     2
1070
   272
1070
     2
1070
    77
1070
     1
1070
    73
1070
     0
1070
   171
1070
     3
1070
   274
1070
     4
1070
   177
1070
     2
1070
   176
1070
     2
1070
   178
1070
     2
1070
    78
1070
     8
1070
    48
1040
-0.1
1070
    41
1040
3.5
1070
   147
1040
1.75
1070
    42
1040
1.5875
1070
    44
1040
2.0
1070
   140
1040
3.5
1002
}
1001
ACAD_DSTYLE_DIM_LINETYPE
1070
   380
1005
16
1001
ACAD_DSTYLE_DIM_EXT1_LINETYPE
1070
   381
1005
16
1001
ACAD_DSTYLE_DIM_EXT2_LINETYPE
1070
   382
1005
16
0
DIMENSION
5
150
100
AcDbEntity
8
SK2
62
256
6
ByLayer
370
18
48
1
60
0
100
AcDbDimension
2
_U2
10
-97.492032
20
-10.0625
30
0
11
-97.492032
21
-0.0625
31
0
70
32
71
1
72
1
41
1
210
0
220
0
230
1
3
Standard
100
AcDbAlignedDimension
13
-85.892032
23
9.9375
33
0
14
-85.892032
24
-10.0625
34
0
50
90
100
AcDbRotatedDimension
1001
ACAD
1000
DSTYLE
1002
{
1070
   371
1070
    13
1070
   372
1070
    13
1070
   170
1070
     0
1070
   144
1040
1.0
1070
   277
1070
     2
1070
   284
1070
     8
1070
   278
1070
    46
1070
   146
1040
1.0
1070
   345
1005
16
1070
   347
1005
16
1070
   346
1005
16
1070
   344
1005
0
1070
   343
1005
0
1070
   172
1070
     1
1070
    76
1070
     0
1070
    75
1070
     0
1070
   282
1070
     0
1070
   281
1070
     0
1070
    71
1070
     0
1070
    74
1070
     0
1070
   279
1070
     0
1070
   173
1070
     1
1070
   340
1005
119
1070
   271
1070
     2
1070
   272
1070
     2
1070
    77
1070
     1
1070
    73
1070
     0
1070
   171
1070
     3
1070
   274
1070
     4
1070
   177
1070
     2
1070
   176
1070
     2
1070
   178
1070
     2
1070
    78
1070
     8
1070
    48
1040
-0.1
1070
    41
1040
3.5
1070
   147
1040
1.75
1070
    42
1040
1.5875
1070
    44
1040
2.0
1070
   140
1040
3.5
1002
}
1001
ACAD_DSTYLE_DIM_LINETYPE
1070
   380
1005
16
1001
ACAD_DSTYLE_DIM_EXT1_LINETYPE
1070
   381
1005
16
1001
ACAD_DSTYLE_DIM_EXT2_LINETYPE
1070
   382
1005
16
0
DIMENSION
5
169
100
AcDbEntity
8
2
62
256
6
ByLayer
370
18
48
1
60
0
100
AcDbDimension
2
_U3
10
39.107968
20
16.1875
30
0
11
30.107968
21
16.1875
31
0
70
32
71
1
72
1
41
1
210
0
220
0
230
1
3
Standard
100
AcDbAlignedDimension
13
21.107968
23
-7.3875
33
0
14
39.107968
24
-11.0625
34
0
50
0
100
AcDbRotatedDimension
1001
ACAD
1000
DSTYLE
1002
{
1070
   371
1070
    13
1070
   372
1070
    13
1070
   170
1070
     0
1070
   144
1040
1.0
1070
   277
1070
     2
1070
   284
1070
     8
1070
   278
1070
    46
1070
   146
1040
1.0
1070
   345
1005
16
1070
   347
1005
16
1070
   346
1005
16
1070
   344
1005
0
1070
   343
1005
0
1070
   172
1070
     1
1070
    76
1070
     0
1070
    75
1070
     0
1070
   282
1070
     0
1070
   281
1070
     0
1070
    71
1070
     0
1070
    74
1070
     0
1070
   279
1070
     0
1070
   173
1070
     1
1070
   340
1005
119
1070
   271
1070
     1
1070
   272
1070
     2
1070
    77
1070
     1
1070
    73
1070
     1
1070
   171
1070
     3
1070
   274
1070
     4
1070
   177
1070
     2
1070
   176
1070
     2
1070
   178
1070
     2
1070
    78
1070
     8
1070
    48
1040
-0.1
1070
    41
1040
3.5
1070
   147
1040
1.75
1070
    42
1040
1.5875
1070
    44
1040
2.0
1070
   140
1040
3.5
1002
}
1001
ACAD_DSTYLE_DIM_LINETYPE
1070
   380
1005
16
1001
ACAD_DSTYLE_DIM_EXT1_LINETYPE
1070
   381
1005
16
1001
ACAD_DSTYLE_DIM_EXT2_LINETYPE
1070
   382
1005
16
0
DIMENSION
5
181
100
AcDbEntity
8
SK2
62
256
6
ByLayer
370
18
48
1
60
0
100
AcDbDimension
2
_U4
10
39.107968
20
32.1875
30
0
11
-23.392032
21
32.1875
31
0
70
32
71
1
72
1
41
1
210
0
220
0
230
1
3
Standard
100
AcDbAlignedDimension
13
-85.892032
23
9.9375
33
0
14
39.107968
24
-11.0625
34
0
50
0
100
AcDbRotatedDimension
1001
ACAD
1000
DSTYLE
1002
{
1070
   371
1070
    13
1070
   372
1070
    13
1070
   170
1070
     0
1070
   144
1040
1.0
1070
   277
1070
     2
1070
   284
1070
     8
1070
   278
1070
    46
1070
   146
1040
1.0
1070
   345
1005
16
1070
   347
1005
16
1070
   346
1005
16
1070
   344
1005
0
1070
   343
1005
0
1070
   172
1070
     1
1070
    76
1070
     0
1070
    75
1070
     0
1070
   282
1070
     0
1070
   281
1070
     0
1070
    71
1070
     0
1070
    74
1070
     0
1070
   279
1070
     0
1070
   173
1070
     1
1070
   340
1005
119
1070
   271
1070
     1
1070
   272
1070
     2
1070
    77
1070
     1
1070
    73
1070
     1
1070
   171
1070
     3
1070
   274
1070
     4
1070
   177
1070
     2
1070
   176
1070
     2
1070
   178
1070
     2
1070
    78
1070
     8
1070
    48
1040
-0.1
1070
    41
1040
3.5
1070
   147
1040
1.75
1070
    42
1040
1.5875
1070
    44
1040
2.0
1070
   140
1040
3.5
1002
}
1001
ACAD_DSTYLE_DIM_LINETYPE
1070
   380
1005
16
1001
ACAD_DSTYLE_DIM_EXT1_LINETYPE
1070
   381
1005
16
1001
ACAD_DSTYLE_DIM_EXT2_LINETYPE
1070
   382
1005
16
0
ENDSEC
0
SECTION
2
OBJECTS
0
DICTIONARY
5
208
330
0
100
AcDbDictionary
280
0
281
1
3
ACAD_GROUP
350
209
3
ACAD_MLINESTYLE
350
20a
0
DICTIONARY
5
209
330
0
100
AcDbDictionary
280
0
281
1
0
DICTIONARY
5
20a
330
0
100
AcDbDictionary
280
0
281
1
3
Standard
350
18
0
MLINESTYLE
5
18
330
20a
100
AcDbMlineStyle
2
Standard
70
0
3

62
256
51
90
52
90
71
2
49
-0.5
62
256
6
ByLayer
49
0.5
62
256
6
ByLayer
0
RASTERVARIABLES
5
1f7
330

100
AcDbRasterVariables
90
0
70
1
71
1
72
1
0
ENDSEC
0
EOF
