0
SECTION
2
HEADER
9
$ACADVER
1
AC1015
9
$DWGCODEPAGE
3
ANSI_1252
9
$HANDSEED
5
21b
9
$ANGBASE
50
0
9
$ANGDIR
70
0
9
$ATTMODE
70
1
9
$AUNITS
70
0
9
$AUPREC
70
0
9
$CECOLOR
62
256
9
$CELTSCALE
40
1
9
$CELTYPE
6
ByLayer
9
$CELWEIGHT
370
18
9
$CLAYER
8
0
9
$CMLJUST
70
0
9
$CMLSCALE
40
1
9
$CMLSTYLE
2
Standard
9
$DIMSTYLE
2
Standard
9
$TEXTSIZE
40
0.2
9
$TEXTSTYLE
7
Standard
9
$LUNITS
70
2
9
$LUPREC
70
4
9
$EXTNAMES
290
1
9
$INSUNITS
70
4
9
$LTSCALE
40
1
9
$LWDISPLAY
290
1
9
$PDMODE
70
0
9
$PDSIZE
40
0
9
$PLINEGEN
70
0
0
ENDSEC
0
SECTION
2
CLASSES
0
CLASS
1
RASTERVARIABLES
2
AcDbRasterVariables
3
ISM
90
0
280
0
281
0
0
ENDSEC
0
SECTION
2
TABLES
0
TABLE
2
VPORT
5
211
100
AcDbSymbolTable
0
VPORT
5
1
100
AcDbSymbolTableRecord
100
AcDbViewportTableRecord
2
*Active
70
0
10
0
20
0
11
1
21
1
12
-1
22
1
13
0
23
0
14
0.5
24
0.5
15
10
25
10
16
0
26
0
36
1
17
0
27
0
37
0
0
ENDTAB
0
TABLE
2
LTYPE
5
212
100
AcDbSymbolTable
0
LTYPE
5
14
100
AcDbSymbolTableRecord
100
AcDbLinetypeTableRecord
70
0
2
ByBlock
3

72
65
73
0
40
0
0
LTYPE
5
15
100
AcDbSymbolTableRecord
100
AcDbLinetypeTableRecord
70
0
2
ByLayer
3

72
65
73
0
40
0
0
LTYPE
5
16
100
AcDbSymbolTableRecord
100
AcDbLinetypeTableRecord
70
0
2
Continuous
3
Solid line
72
65
73
0
40
0
0
LTYPE
5
6E
100
AcDbSymbolTableRecord
100
AcDbLinetypeTableRecord
70
0
2
CENTER
3
____ _ ____ _ ____ _ ____
72
65
73
4
40
47.5
49
22
74
0
49
-8.5
74
0
49
8.5
74
0
49
-8.5
74
0
0
LTYPE
5
6F
100
AcDbSymbolTableRecord
100
AcDbLinetypeTableRecord
70
0
2
DASHED
3
__ __ __ __ __ __ __ __ __
72
65
73
2
40
25.72
49
12.86
74
0
49
-12.86
74
0
0
ENDTAB
0
TABLE
2
LAYER
5
213
100
AcDbSymbolTable
0
LAYER
5
10
100
AcDbSymbolTableRecord
100
AcDbLayerTableRecord
2
0
70
0
62
7
6
Continuous
290
1
370
-3
390
0
0
LAYER
5
71
100
AcDbSymbolTableRecord
100
AcDbLayerTableRecord
2
81
70
0
62
-3
6
Continuous
290
1
370
-3
390
0
0
LAYER
5
73
100
AcDbSymbolTableRecord
100
AcDbLayerTableRecord
2
80
70
0
62
-6
6
Continuous
290
1
370
-3
390
0
0
LAYER
5
75
100
AcDbSymbolTableRecord
100
AcDbLayerTableRecord
2
1
70
0
62
4
6
Continuous
290
1
370
-3
390
0
0
LAYER
5
125
100
AcDbSymbolTableRecord
100
AcDbLayerTableRecord
2
Defpoints
70
0
62
7
6
Continuous
290
0
370
-3
390
0
0
LAYER
5
132
100
AcDbSymbolTableRecord
100
AcDbLayerTableRecord
2
2
70
0
62
7
6
Continuous
290
1
370
-3
390
0
0
LAYER
5
1fe
100
AcDbSymbolTableRecord
100
AcDbLayerTableRecord
2
SK1
70
0
62
4
6
Continuous
290
1
370
-3
390
0
0
LAYER
5
1ff
100
AcDbSymbolTableRecord
100
AcDbLayerTableRecord
2
SK6
70
0
62
5
6
Continuous
290
1
370
-3
390
0
0
LAYER
5
200
100
AcDbSymbolTableRecord
100
AcDbLayerTableRecord
2
SK2
70
0
62
7
6
Continuous
290
1
370
-3
390
0
0
ENDTAB
0
TABLE
2
STYLE
5
214
100
AcDbSymbolTable
0
STYLE
5
11
100
AcDbSymbolTableRecord
100
AcDbTextStyleTableRecord
2
Standard
3
txt
70
0
71
0
40
0
41
1
42
0
50
0
0
STYLE
5
11E
100
AcDbSymbolTableRecord
100
AcDbTextStyleTableRecord
2
iso_b_vert
3
simplex.shx
70
0
71
0
40
0
41
1
42
0
50
0
0
STYLE
5
11F
100
AcDbSymbolTableRecord
100
AcDbTextStyleTableRecord
2
DWGDirectTextStyle
3
simplex
70
0
71
0
40
0
41
1
42
0
50
0
0
ENDTAB
0
TABLE
2
DIMSTYLE
5
215
100
AcDbSymbolTable
100
AcDbDimStyleTable
0
DIMSTYLE
105
27
100
AcDbSymbolTableRecord
100
AcDbDimStyleTableRecord
2
Standard
70
0
3
<>
41
0.18
42
0.0625
44
0.18
140
0.18
147
0.09
73
0
74
0
77
1
271
2
275
0
278
52
280
0
340
11
0
ENDTAB
0
TABLE
2
VIEW
5
216
100
AcDbSymbolTable
0
ENDTAB
0
TABLE
2
UCS
5
217
100
AcDbSymbolTable
0
ENDTAB
0
TABLE
2
APPID
5
218
100
AcDbSymbolTable
0
APPID
5
12
100
AcDbSymbolTableRecord
100
AcDbRegAppTableRecord
2
ACAD
70
0
0
APPID
5
121
100
AcDbSymbolTableRecord
100
AcDbRegAppTableRecord
2
ACAD_DSTYLE_DIMBREAK
70
0
0
APPID
5
1BD
100
AcDbSymbolTableRecord
100
AcDbRegAppTableRecord
2
ACAD_DSTYLE_DIM_LINETYPE
70
0
0
APPID
5
1BE
100
AcDbSymbolTableRecord
100
AcDbRegAppTableRecord
2
ACAD_DSTYLE_DIM_EXT1_LINETYPE
70
0
0
APPID
5
1BF
100
AcDbSymbolTableRecord
100
AcDbRegAppTableRecord
2
ACAD_DSTYLE_DIM_EXT2_LINETYPE
70
0
0
APPID
5
1FA
100
AcDbSymbolTableRecord
100
AcDbRegAppTableRecord
2
ACAD_MLEADERVER
70
0
0
ENDTAB
0
TABLE
2
BLOCK_RECORD
5
219
100
AcDbSymbolTable
0
BLOCK_RECORD
5
1F
100
AcDbSymbolTableRecord
100
AcDbBlockTableRecord
2
*Model_Space
340
0
70
0
0
BLOCK_RECORD
5
1B
100
AcDbSymbolTableRecord
100
AcDbBlockTableRecord
2
*Paper_Space
340
0
70
0
0
BLOCK_RECORD
5
23
100
AcDbSymbolTableRecord
100
AcDbBlockTableRecord
2
*Paper_Space0
340
0
70
0
0
BLOCK_RECORD
5
126
100
AcDbSymbolTableRecord
100
AcDbBlockTableRecord
2
*D1
340
0
70
0
0
BLOCK_RECORD
5
133
100
AcDbSymbolTableRecord
100
AcDbBlockTableRecord
2
_U0
340
0
70
0
0
BLOCK_RECORD
5
13F
100
AcDbSymbolTableRecord
100
AcDbBlockTableRecord
2
*D3
340
0
70
0
0
BLOCK_RECORD
5
14C
100
AcDbSymbolTableRecord
100
AcDbBlockTableRecord
2
_U1
340
0
70
0
0
BLOCK_RECORD
5
158
100
AcDbSymbolTableRecord
100
AcDbBlockTableRecord
2
*D5
340
0
70
0
0
BLOCK_RECORD
5
165
100
AcDbSymbolTableRecord
100
AcDbBlockTableRecord
2
_U2
340
0
70
0
0
BLOCK_RECORD
5
171
100
AcDbSymbolTableRecord
100
AcDbBlockTableRecord
2
*D7
340
0
70
0
0
BLOCK_RECORD
5
17E
100
AcDbSymbolTableRecord
100
AcDbBlockTableRecord
2
_U3
340
0
70
0
0
BLOCK_RECORD
5
18A
100
AcDbSymbolTableRecord
100
AcDbBlockTableRecord
2
*D9
340
0
70
0
0
BLOCK_RECORD
5
196
100
AcDbSymbolTableRecord
100
AcDbBlockTableRecord
2
_U4
340
0
70
0
0
ENDTAB
0
ENDSEC
0
SECTION
2
BLOCKS
0
BLOCK
5
20
100
AcDbEntity
8
0
100
AcDbBlockBegin
2
*Model_Space
70
0
10
0
20
0
30
0
3
*Model_Space
0
ENDBLK
5
21
100
AcDbEntity
8
0
100
AcDbBlockEnd
0
BLOCK
5
1C
100
AcDbEntity
8
0
100
AcDbBlockBegin
2
*Paper_Space
70
0
10
0
20
0
30
0
3
*Paper_Space
0
ENDBLK
5
1D
100
AcDbEntity
8
0
100
AcDbBlockEnd
0
BLOCK
5
24
100
AcDbEntity
8
0
100
AcDbBlockBegin
2
*Paper_Space0
70
0
10
0
20
0
30
0
3
*Paper_Space0
0
ENDBLK
5
25
100
AcDbEntity
8
0
100
AcDbBlockEnd
0
BLOCK
5
127
100
AcDbEntity
8
0
100
AcDbBlockBegin
2
*D1
70
1
10
0
20
0
30
0
3
*D1
0
LINE
5
129
100
AcDbEntity
8
0
62
256
6
ByLayer
370
-2
48
1
60
0
100
AcDbLine
10
35.375852
20
-11.0625
30
0
11
68.888352
21
-11.0625
31
0
39
0
210
0
220
0
230
1
0
LINE
5
12A
100
AcDbEntity
8
0
62
256
6
ByLayer
370
-2
48
1
60
0
100
AcDbLine
10
-89.624148
20
9.9375
30
0
11
68.888352
21
9.9375
31
0
39
0
210
0
220
0
230
1
0
LINE
5
12B
100
AcDbEntity
8
0
62
256
6
ByLayer
370
-2
48
1
60
0
100
AcDbLine
10
66.888352
20
-7.5625
30
0
11
66.888352
21
6.4375
31
0
39
0
210
0
220
0
230
1
0
SOLID
5
12C
100
AcDbEntity
8
0
62
256
6
ByLayer
370
-1
48
1
60
0
100
AcDbTrace
10
66.305019
20
-7.5625
30
0
11
67.471686
21
-7.5625
31
0
12
66.888352
22
-11.0625
32
0
13
66.888352
23
-11.0625
33
0
39
0
210
0
220
0
230
1
0
SOLID
5
12D
100
AcDbEntity
8
0
62
256
6
ByLayer
370
-1
48
1
60
0
100
AcDbTrace
10
67.471686
20
6.4375
30
0
11
66.305019
21
6.4375
31
0
12
66.888352
22
9.9375
32
0
13
66.888352
23
9.9375
33
0
39
0
210
0
220
0
230
1
0
MTEXT
5
12E
100
AcDbEntity
8
0
62
256
6
ByLayer
370
18
48
1
60
0
100
AcDbMText
10
59.888352
20
-0.5625
30
0
210
0
220
0
230
1
1
\A1;21
40
3.5
41
0
44
1
50
90
71
5
72
5
7
iso_b_vert
0
POINT
5
12F
100
AcDbEntity
8
Defpoints
62
0
6
ByLayer
370
-1
48
1
60
0
100
AcDbPoint
10
33.788352
20
-11.0625
30
0
39
0
210
0
220
0
230
1
50
360
0
POINT
5
130
100
AcDbEntity
8
Defpoints
62
0
6
ByLayer
370
-1
48
1
60
0
100
AcDbPoint
10
-91.211648
20
9.9375
30
0
39
0
210
0
220
0
230
1
50
360
0
POINT
5
131
100
AcDbEntity
8
Defpoints
62
0
6
ByLayer
370
-1
48
1
60
0
100
AcDbPoint
10
66.888352
20
9.9375
30
0
39
0
210
0
220
0
230
1
50
360
0
ENDBLK
5
128
100
AcDbEntity
8
0
100
AcDbBlockEnd
0
BLOCK
5
13A
100
AcDbEntity
8
0
100
AcDbBlockBegin
2
_U0
70
0
10
0
20
0
30
0
3
_U0
0
MTEXT
5
134
100
AcDbEntity
8
2
62
256
6
ByLayer
370
18
48
1
60
0
100
AcDbMText
10
66.198719
20
-2.058033
30
0
210
0
220
0
230
1
1
\W0.6351;21
40
3.5
41
0
44
1.084337
50
90
71
7
72
5
7
iso_b_vert
0
LINE
5
135
100
AcDbEntity
8
2
62
256
6
ByLayer
370
13
48
1
60
0
100
AcDbLine
10
35.375852
20
-11.0625
30
0
11
68.888352
21
-11.0625
31
0
39
0
210
0
220
0
230
1
0
LINE
5
136
100
AcDbEntity
8
2
62
256
6
ByLayer
370
13
48
1
60
0
100
AcDbLine
10
-89.624148
20
9.9375
30
0
11
68.888352
21
9.9375
31
0
39
0
210
0
220
0
230
1
0
LINE
5
137
100
AcDbEntity
8
2
62
256
6
ByLayer
370
13
48
1
60
0
100
AcDbLine
10
66.888352
20
-11.0625
30
0
11
66.888352
21
9.9375
31
0
39
0
210
0
220
0
230
1
0
SOLID
5
138
100
AcDbEntity
8
2
62
256
6
ByLayer
370
18
48
1
60
0
100
AcDbTrace
10
66.888352
20
-11.0625
30
0
11
66.427569
21
-7.562502
31
0
12
67.349136
22
-7.562498
32
0
13
67.349136
23
-7.562498
33
0
39
0
210
0
220
0
230
1
0
SOLID
5
139
100
AcDbEntity
8
2
62
256
6
ByLayer
370
18
48
1
60
0
100
AcDbTrace
10
66.888352
20
9.9375
30
0
11
67.349136
21
6.437502
31
0
12
66.427569
22
6.437498
32
0
13
66.427569
23
6.437498
33
0
39
0
210
0
220
0
230
1
0
ENDBLK
5
13B
100
AcDbEntity
8
0
100
AcDbBlockEnd
0
BLOCK
5
140
100
AcDbEntity
8
0
100
AcDbBlockBegin
2
*D3
70
1
10
0
20
0
30
0
3
*D3
0
LINE
5
142
100
AcDbEntity
8
0
62
256
6
ByLayer
370
-2
48
1
60
0
100
AcDbLine
10
35.375852
20
-8.0625
30
0
11
56.888352
21
-8.0625
31
0
39
0
210
0
220
0
230
1
0
LINE
5
143
100
AcDbEntity
8
0
62
256
6
ByLayer
370
-2
48
1
60
0
100
AcDbLine
10
35.375852
20
-11.0625
30
0
11
56.888352
21
-11.0625
31
0
39
0
210
0
220
0
230
1
0
LINE
5
144
100
AcDbEntity
8
0
62
256
6
ByLayer
370
-2
48
1
60
0
100
AcDbLine
10
54.888352
20
-4.5625
30
0
11
54.888352
21
-1.0625
31
0
39
0
210
0
220
0
230
1
0
LINE
5
145
100
AcDbEntity
8
0
62
256
6
ByLayer
370
-2
48
1
60
0
100
AcDbLine
10
54.888352
20
-14.5625
30
0
11
54.888352
21
-18.0625
31
0
39
0
210
0
220
0
230
1
0
SOLID
5
146
100
AcDbEntity
8
0
62
256
6
ByLayer
370
-1
48
1
60
0
100
AcDbTrace
10
54.305019
20
-4.5625
30
0
11
55.471686
21
-4.5625
31
0
12
54.888352
22
-8.0625
32
0
13
54.888352
23
-8.0625
33
0
39
0
210
0
220
0
230
1
0
SOLID
5
147
100
AcDbEntity
8
0
62
256
6
ByLayer
370
-1
48
1
60
0
100
AcDbTrace
10
55.471686
20
-14.5625
30
0
11
54.305019
21
-14.5625
31
0
12
54.888352
22
-11.0625
32
0
13
54.888352
23
-11.0625
33
0
39
0
210
0
220
0
230
1
0
MTEXT
5
148
100
AcDbEntity
8
0
62
256
6
ByLayer
370
18
48
1
60
0
100
AcDbMText
10
47.888352
20
-9.5625
30
0
210
0
220
0
230
1
1
\A1;3
40
3.5
41
0
44
1
50
90
71
5
72
5
7
iso_b_vert
0
POINT
5
149
100
AcDbEntity
8
Defpoints
62
0
6
ByLayer
370
-1
48
1
60
0
100
AcDbPoint
10
33.788352
20
-8.0625
30
0
39
0
210
0
220
0
230
1
50
360
0
POINT
5
14A
100
AcDbEntity
8
Defpoints
62
0
6
ByLayer
370
-1
48
1
60
0
100
AcDbPoint
10
33.788352
20
-11.0625
30
0
39
0
210
0
220
0
230
1
50
360
0
POINT
5
14B
100
AcDbEntity
8
Defpoints
62
0
6
ByLayer
370
-1
48
1
60
0
100
AcDbPoint
10
54.888352
20
-11.0625
30
0
39
0
210
0
220
0
230
1
50
360
0
ENDBLK
5
141
100
AcDbEntity
8
0
100
AcDbBlockEnd
0
BLOCK
5
153
100
AcDbEntity
8
0
100
AcDbBlockBegin
2
_U1
70
0
10
0
20
0
30
0
3
_U1
0
MTEXT
5
14D
100
AcDbEntity
8
2
62
256
6
ByLayer
370
18
48
1
60
0
100
AcDbMText
10
54.198719
20
-10.187733
30
0
210
0
220
0
230
1
1
\W0.5404;3
40
3.5
41
0
44
1.084337
50
90
71
7
72
5
7
iso_b_vert
0
LINE
5
14E
100
AcDbEntity
8
2
62
256
6
ByLayer
370
13
48
1
60
0
100
AcDbLine
10
35.375852
20
-8.0625
30
0
11
56.888352
21
-8.0625
31
0
39
0
210
0
220
0
230
1
0
LINE
5
14F
100
AcDbEntity
8
2
62
256
6
ByLayer
370
13
48
1
60
0
100
AcDbLine
10
35.375852
20
-11.0625
30
0
11
56.888352
21
-11.0625
31
0
39
0
210
0
220
0
230
1
0
LINE
5
150
100
AcDbEntity
8
2
62
256
6
ByLayer
370
13
48
1
60
0
100
AcDbLine
10
54.888352
20
0.6875
30
0
11
54.888352
21
-19.8125
31
0
39
0
210
0
220
0
230
1
0
SOLID
5
151
100
AcDbEntity
8
2
62
256
6
ByLayer
370
18
48
1
60
0
100
AcDbTrace
10
54.888352
20
-8.0625
30
0
11
54.427569
21
-4.562502
31
0
12
55.349136
22
-4.562498
32
0
13
55.349136
23
-4.562498
33
0
39
0
210
0
220
0
230
1
0
SOLID
5
152
100
AcDbEntity
8
2
62
256
6
ByLayer
370
18
48
1
60
0
100
AcDbTrace
10
54.888352
20
-11.0625
30
0
11
55.349136
21
-14.562498
31
0
12
54.427569
22
-14.562502
32
0
13
54.427569
23
-14.562502
33
0
39
0
210
0
220
0
230
1
0
ENDBLK
5
154
100
AcDbEntity
8
0
100
AcDbBlockEnd
0
BLOCK
5
159
100
AcDbEntity
8
0
100
AcDbBlockBegin
2
*D5
70
1
10
0
20
0
30
0
3
*D5
0
LINE
5
15B
100
AcDbEntity
8
0
62
256
6
ByLayer
370
-2
48
1
60
0
100
AcDbLine
10
-92.799148
20
9.9375
30
0
11
-104.811648
21
9.9375
31
0
39
0
210
0
220
0
230
1
0
LINE
5
15C
100
AcDbEntity
8
0
62
256
6
ByLayer
370
-2
48
1
60
0
100
AcDbLine
10
-92.799148
20
-10.0625
30
0
11
-104.811648
21
-10.0625
31
0
39
0
210
0
220
0
230
1
0
LINE
5
15D
100
AcDbEntity
8
0
62
256
6
ByLayer
370
-2
48
1
60
0
100
AcDbLine
10
-102.811648
20
6.4375
30
0
11
-102.811648
21
-6.5625
31
0
39
0
210
0
220
0
230
1
0
SOLID
5
15E
100
AcDbEntity
8
0
62
256
6
ByLayer
370
-1
48
1
60
0
100
AcDbTrace
10
-102.228314
20
6.4375
30
0
11
-103.394981
21
6.4375
31
0
12
-102.811648
22
9.9375
32
0
13
-102.811648
23
9.9375
33
0
39
0
210
0
220
0
230
1
0
SOLID
5
15F
100
AcDbEntity
8
0
62
256
6
ByLayer
370
-1
48
1
60
0
100
AcDbTrace
10
-103.394981
20
-6.5625
30
0
11
-102.228314
21
-6.5625
31
0
12
-102.811648
22
-10.0625
32
0
13
-102.811648
23
-10.0625
33
0
39
0
210
0
220
0
230
1
0
MTEXT
5
160
100
AcDbEntity
8
0
62
256
6
ByLayer
370
18
48
1
60
0
100
AcDbMText
10
-109.811648
20
-0.0625
30
0
210
0
220
0
230
1
1
\A1;20
40
3.5
41
0
44
1
50
90
71
5
72
5
7
iso_b_vert
0
POINT
5
161
100
AcDbEntity
8
Defpoints
62
0
6
ByLayer
370
-1
48
1
60
0
100
AcDbPoint
10
-91.211648
20
9.9375
30
0
39
0
210
0
220
0
230
1
50
360
0
POINT
5
162
100
AcDbEntity
8
Defpoints
62
0
6
ByLayer
370
-1
48
1
60
0
100
AcDbPoint
10
-91.211648
20
-10.0625
30
0
39
0
210
0
220
0
230
1
50
360
0
POINT
5
163
100
AcDbEntity
8
Defpoints
62
0
6
ByLayer
370
-1
48
1
60
0
100
AcDbPoint
10
-102.811648
20
-10.0625
30
0
39
0
210
0
220
0
230
1
50
360
0
ENDBLK
5
15A
100
AcDbEntity
8
0
100
AcDbBlockEnd
0
BLOCK
5
16C
100
AcDbEntity
8
0
100
AcDbBlockBegin
2
_U2
70
0
10
0
20
0
30
0
3
_U2
0
MTEXT
5
166
100
AcDbEntity
8
SK2
62
256
6
ByLayer
370
18
48
1
60
0
100
AcDbMText
10
-103.501281
20
-1.995466
30
0
210
0
220
0
230
1
1
\W0.6740;20
40
3.5
41
0
44
1.084337
50
90
71
7
72
5
7
iso_b_vert
0
LINE
5
167
100
AcDbEntity
8
SK2
62
256
6
ByLayer
370
13
48
1
60
0
100
AcDbLine
10
-92.799148
20
9.9375
30
0
11
-104.811648
21
9.9375
31
0
39
0
210
0
220
0
230
1
0
LINE
5
168
100
AcDbEntity
8
SK2
62
256
6
ByLayer
370
13
48
1
60
0
100
AcDbLine
10
-92.799148
20
-10.0625
30
0
11
-104.811648
21
-10.0625
31
0
39
0
210
0
220
0
230
1
0
LINE
5
169
100
AcDbEntity
8
SK2
62
256
6
ByLayer
370
13
48
1
60
0
100
AcDbLine
10
-102.811648
20
9.9375
30
0
11
-102.811648
21
-10.0625
31
0
39
0
210
0
220
0
230
1
0
SOLID
5
16A
100
AcDbEntity
8
SK2
62
256
6
ByLayer
370
18
48
1
60
0
100
AcDbTrace
10
-102.811648
20
9.9375
30
0
11
-102.350864
21
6.437502
31
0
12
-103.272431
22
6.437498
32
0
13
-103.272431
23
6.437498
33
0
39
0
210
0
220
0
230
1
0
SOLID
5
16B
100
AcDbEntity
8
SK2
62
256
6
ByLayer
370
18
48
1
60
0
100
AcDbTrace
10
-102.811648
20
-10.0625
30
0
11
-103.272431
21
-6.562502
31
0
12
-102.350864
22
-6.562498
32
0
13
-102.350864
23
-6.562498
33
0
39
0
210
0
220
0
230
1
0
ENDBLK
5
16D
100
AcDbEntity
8
0
100
AcDbBlockEnd
0
BLOCK
5
172
100
AcDbEntity
8
0
100
AcDbBlockBegin
2
*D7
70
1
10
0
20
0
30
0
3
*D7
0
LINE
5
174
100
AcDbEntity
8
0
62
256
6
ByLayer
370
-2
48
1
60
0
100
AcDbLine
10
18.788352
20
-6.800514
30
0
11
18.788352
21
18.1875
31
0
39
0
210
0
220
0
230
1
0
LINE
5
175
100
AcDbEntity
8
0
62
256
6
ByLayer
370
-2
48
1
60
0
100
AcDbLine
10
33.788352
20
-9.475
30
0
11
33.788352
21
18.1875
31
0
39
0
210
0
220
0
230
1
0
LINE
5
176
100
AcDbEntity
8
0
62
256
6
ByLayer
370
-2
48
1
60
0
100
AcDbLine
10
15.288352
20
16.1875
30
0
11
11.788352
21
16.1875
31
0
39
0
210
0
220
0
230
1
0
LINE
5
177
100
AcDbEntity
8
0
62
256
6
ByLayer
370
-2
48
1
60
0
100
AcDbLine
10
37.288352
20
16.1875
30
0
11
40.788352
21
16.1875
31
0
39
0
210
0
220
0
230
1
0
SOLID
5
178
100
AcDbEntity
8
0
62
256
6
ByLayer
370
-1
48
1
60
0
100
AcDbTrace
10
15.288352
20
15.604167
30
0
11
15.288352
21
16.770833
31
0
12
18.788352
22
16.1875
32
0
13
18.788352
23
16.1875
33
0
39
0
210
0
220
0
230
1
0
SOLID
5
179
100
AcDbEntity
8
0
62
256
6
ByLayer
370
-1
48
1
60
0
100
AcDbTrace
10
37.288352
20
16.770833
30
0
11
37.288352
21
15.604167
31
0
12
33.788352
22
16.1875
32
0
13
33.788352
23
16.1875
33
0
39
0
210
0
220
0
230
1
0
MTEXT
5
17A
100
AcDbEntity
8
0
62
256
6
ByLayer
370
18
48
1
60
0
100
AcDbMText
10
26.288352
20
23.1875
30
0
210
0
220
0
230
1
1
\A1;15
40
3.5
41
0
44
1
50
0
71
5
72
5
7
iso_b_vert
0
POINT
5
17B
100
AcDbEntity
8
Defpoints
62
0
6
ByLayer
370
-1
48
1
60
0
100
AcDbPoint
10
18.788352
20
-8.388014
30
0
39
0
210
0
220
0
230
1
50
360
0
POINT
5
17C
100
AcDbEntity
8
Defpoints
62
0
6
ByLayer
370
-1
48
1
60
0
100
AcDbPoint
10
33.788352
20
-11.0625
30
0
39
0
210
0
220
0
230
1
50
360
0
POINT
5
17D
100
AcDbEntity
8
Defpoints
62
0
6
ByLayer
370
-1
48
1
60
0
100
AcDbPoint
10
33.788352
20
16.1875
30
0
39
0
210
0
220
0
230
1
50
360
0
ENDBLK
5
173
100
AcDbEntity
8
0
100
AcDbBlockEnd
0
BLOCK
5
185
100
AcDbEntity
8
0
100
AcDbBlockBegin
2
_U3
70
0
10
0
20
0
30
0
3
_U3
0
MTEXT
5
17F
100
AcDbEntity
8
2
62
256
6
ByLayer
370
18
48
1
60
0
100
AcDbMText
10
24.820819
20
17.220134
30
0
210
0
220
0
230
1
1
\W0.5321;15
40
3.5
41
0
44
1.084337
50
0
71
7
72
5
7
iso_b_vert
0
LINE
5
180
100
AcDbEntity
8
2
62
256
6
ByLayer
370
13
48
1
60
0
100
AcDbLine
10
18.788352
20
-6.800514
30
0
11
18.788352
21
18.1875
31
0
39
0
210
0
220
0
230
1
0
LINE
5
181
100
AcDbEntity
8
2
62
256
6
ByLayer
370
13
48
1
60
0
100
AcDbLine
10
33.788352
20
-9.475
30
0
11
33.788352
21
18.1875
31
0
39
0
210
0
220
0
230
1
0
LINE
5
182
100
AcDbEntity
8
2
62
256
6
ByLayer
370
13
48
1
60
0
100
AcDbLine
10
18.788352
20
16.1875
30
0
11
33.788352
21
16.1875
31
0
39
0
210
0
220
0
230
1
0
SOLID
5
183
100
AcDbEntity
8
2
62
256
6
ByLayer
370
18
48
1
60
0
100
AcDbTrace
10
18.788352
20
16.1875
30
0
11
22.288351
21
16.648284
31
0
12
22.288354
22
15.726716
32
0
13
22.288354
23
15.726716
33
0
39
0
210
0
220
0
230
1
0
SOLID
5
184
100
AcDbEntity
8
2
62
256
6
ByLayer
370
18
48
1
60
0
100
AcDbTrace
10
33.788352
20
16.1875
30
0
11
30.288354
21
15.726716
31
0
12
30.288351
22
16.648284
32
0
13
30.288351
23
16.648284
33
0
39
0
210
0
220
0
230
1
0
ENDBLK
5
186
100
AcDbEntity
8
0
100
AcDbBlockEnd
0
BLOCK
5
18B
100
AcDbEntity
8
0
100
AcDbBlockBegin
2
*D9
70
1
10
0
20
0
30
0
3
*D9
0
LINE
5
18D
100
AcDbEntity
8
0
62
256
6
ByLayer
370
-2
48
1
60
0
100
AcDbLine
10
-91.211648
20
11.525
30
0
11
-91.211648
21
34.1875
31
0
39
0
210
0
220
0
230
1
0
LINE
5
18E
100
AcDbEntity
8
0
62
256
6
ByLayer
370
-2
48
1
60
0
100
AcDbLine
10
33.788352
20
-9.475
30
0
11
33.788352
21
34.1875
31
0
39
0
210
0
220
0
230
1
0
LINE
5
18F
100
AcDbEntity
8
0
62
256
6
ByLayer
370
-2
48
1
60
0
100
AcDbLine
10
-87.711648
20
32.1875
30
0
11
30.288352
21
32.1875
31
0
39
0
210
0
220
0
230
1
0
SOLID
5
190
100
AcDbEntity
8
0
62
256
6
ByLayer
370
-1
48
1
60
0
100
AcDbTrace
10
-87.711648
20
32.770833
30
0
11
-87.711648
21
31.604167
31
0
12
-91.211648
22
32.1875
32
0
13
-91.211648
23
32.1875
33
0
39
0
210
0
220
0
230
1
0
SOLID
5
191
100
AcDbEntity
8
0
62
256
6
ByLayer
370
-1
48
1
60
0
100
AcDbTrace
10
30.288352
20
31.604167
30
0
11
30.288352
21
32.770833
31
0
12
33.788352
22
32.1875
32
0
13
33.788352
23
32.1875
33
0
39
0
210
0
220
0
230
1
0
MTEXT
5
192
100
AcDbEntity
8
0
62
256
6
ByLayer
370
18
48
1
60
0
100
AcDbMText
10
-28.711648
20
39.1875
30
0
210
0
220
0
230
1
1
\A1;125
40
3.5
41
0
44
1
50
0
71
5
72
5
7
iso_b_vert
0
POINT
5
193
100
AcDbEntity
8
Defpoints
62
0
6
ByLayer
370
-1
48
1
60
0
100
AcDbPoint
10
-91.211648
20
9.9375
30
0
39
0
210
0
220
0
230
1
50
360
0
POINT
5
194
100
AcDbEntity
8
Defpoints
62
0
6
ByLayer
370
-1
48
1
60
0
100
AcDbPoint
10
33.788352
20
-11.0625
30
0
39
0
210
0
220
0
230
1
50
360
0
POINT
5
195
100
AcDbEntity
8
Defpoints
62
0
6
ByLayer
370
-1
48
1
60
0
100
AcDbPoint
10
33.788352
20
32.1875
30
0
39
0
210
0
220
0
230
1
50
360
0
ENDBLK
5
18C
100
AcDbEntity
8
0
100
AcDbBlockEnd
0
BLOCK
5
19D
100
AcDbEntity
8
0
100
AcDbBlockBegin
2
_U4
70
0
10
0
20
0
30
0
3
_U4
0
MTEXT
5
197
100
AcDbEntity
8
SK2
62
256
6
ByLayer
370
18
48
1
60
0
100
AcDbMText
10
-31.486914
20
33.220134
30
0
210
0
220
0
230
1
1
\W0.6217;125
40
3.5
41
0
44
1.084337
50
0
71
7
72
5
7
iso_b_vert
0
LINE
5
198
100
AcDbEntity
8
SK2
62
256
6
ByLayer
370
13
48
1
60
0
100
AcDbLine
10
-91.211648
20
11.525
30
0
11
-91.211648
21
34.1875
31
0
39
0
210
0
220
0
230
1
0
LINE
5
199
100
AcDbEntity
8
SK2
62
256
6
ByLayer
370
13
48
1
60
0
100
AcDbLine
10
33.788352
20
-9.475
30
0
11
33.788352
21
34.1875
31
0
39
0
210
0
220
0
230
1
0
LINE
5
19A
100
AcDbEntity
8
SK2
62
256
6
ByLayer
370
13
48
1
60
0
100
AcDbLine
10
-91.211648
20
32.1875
30
0
11
33.788352
21
32.1875
31
0
39
0
210
0
220
0
230
1
0
SOLID
5
19B
100
AcDbEntity
8
SK2
62
256
6
ByLayer
370
18
48
1
60
0
100
AcDbTrace
10
-91.211648
20
32.1875
30
0
11
-87.711649
21
32.648284
31
0
12
-87.711646
22
31.726716
32
0
13
-87.711646
23
31.726716
33
0
39
0
210
0
220
0
230
1
0
SOLID
5
19C
100
AcDbEntity
8
SK2
62
256
6
ByLayer
370
18
48
1
60
0
100
AcDbTrace
10
33.788352
20
32.1875
30
0
11
30.288354
21
31.726716
31
0
12
30.288351
22
32.648284
32
0
13
30.288351
23
32.648284
33
0
39
0
210
0
220
0
230
1
0
ENDBLK
5
19E
100
AcDbEntity
8
0
100
AcDbBlockEnd
0
ENDSEC
0
SECTION
2
ENTITIES
0
ARC
5
C8
100
AcDbEntity
8
1
62
256
6
ByLayer
370
18
48
1
60
0
100
AcDbCircle
39
0
10
18.788352
20
-6.788014
30
0
40
1.6
210
0
220
0
230
1
100
AcDbArc
50
180
51
199.105194
0
ARC
5
CA
100
AcDbEntity
8
1
62
256
6
ByLayer
370
18
48
1
60
0
100
AcDbCircle
39
0
10
11.638352
20
-1.761215
30
0
40
1.416
210
0
220
0
230
1
100
AcDbArc
50
276.192438
51
330.190711
0
ARC
5
CB
100
AcDbEntity
8
1
62
256
6
ByLayer
370
18
48
1
60
0
100
AcDbCircle
39
0
10
11.638352
20
-1.761215
30
0
40
1.416
210
0
220
0
230
1
100
AcDbArc
50
330.190711
51
29.809289
0
ARC
5
CC
100
AcDbEntity
8
1
62
256
6
ByLayer
370
18
48
1
60
0
100
AcDbCircle
39
0
10
11.638352
20
-1.761215
30
0
40
1.416
210
0
220
0
230
1
100
AcDbArc
50
29.809289
51
83.807562
0
ARC
5
CD
100
AcDbEntity
8
1
62
256
6
ByLayer
370
18
48
1
60
0
100
AcDbCircle
39
0
10
11.638352
20
-1.761215
30
0
40
1.416
210
0
220
0
230
1
100
AcDbArc
50
150.190711
51
209.809289
0
ARC
5
CE
100
AcDbEntity
8
1
62
256
6
ByLayer
370
18
48
1
60
0
100
AcDbCircle
39
0
10
11.638352
20
-1.761215
30
0
40
1.416
210
0
220
0
230
1
100
AcDbArc
50
209.809289
51
263.807562
0
ARC
5
CF
100
AcDbEntity
8
1
62
256
6
ByLayer
370
18
48
1
60
0
100
AcDbCircle
39
0
10
11.638352
20
-1.761215
30
0
40
1.416
210
0
220
0
230
1
100
AcDbArc
50
96.192438
51
150.190711
0
ARC
5
D0
100
AcDbEntity
8
1
62
256
6
ByLayer
370
18
48
1
60
0
100
AcDbCircle
39
0
10
11.638352
20
-1.761215
30
0
40
1.416
210
0
220
0
230
1
100
AcDbArc
50
83.807562
51
96.192438
0
ARC
5
D1
100
AcDbEntity
8
1
62
256
6
ByLayer
370
18
48
1
60
0
100
AcDbCircle
39
0
10
11.638352
20
-1.761215
30
0
40
1.416
210
0
220
0
230
1
100
AcDbArc
50
263.807562
51
276.192438
0
ARC
5
D4
100
AcDbEntity
8
1
62
256
6
ByLayer
370
18
48
1
60
0
100
AcDbCircle
39
0
10
11.638352
20
-1.761215
30
0
40
1.9685
210
0
220
0
230
1
100
AcDbArc
50
300.381422
51
0
0
ARC
5
D5
100
AcDbEntity
8
1
62
256
6
ByLayer
370
18
48
1
60
0
100
AcDbCircle
39
0
10
11.638352
20
-1.761215
30
0
40
1.9685
210
0
220
0
230
1
100
AcDbArc
50
239.618578
51
300.381422
0
ARC
5
D6
100
AcDbEntity
8
1
62
256
6
ByLayer
370
18
48
1
60
0
100
AcDbCircle
39
0
10
11.638352
20
-1.761215
30
0
40
1.9685
210
0
220
0
230
1
100
AcDbArc
50
180
51
239.618578
0
ARC
5
D7
100
AcDbEntity
8
1
62
256
6
ByLayer
370
18
48
1
60
0
100
AcDbCircle
39
0
10
11.638352
20
-1.761215
30
0
40
1.9685
210
0
220
0
230
1
100
AcDbArc
50
120.381422
51
180
0
ARC
5
D8
100
AcDbEntity
8
1
62
256
6
ByLayer
370
18
48
1
60
0
100
AcDbCircle
39
0
10
11.638352
20
-1.761215
30
0
40
1.9685
210
0
220
0
230
1
100
AcDbArc
50
59.618578
51
120.381422
0
ARC
5
D9
100
AcDbEntity
8
1
62
256
6
ByLayer
370
18
48
1
60
0
100
AcDbCircle
39
0
10
11.638352
20
-1.761215
30
0
40
1.9685
210
0
220
0
230
1
100
AcDbArc
50
0
51
59.618578
0
CIRCLE
5
C9
100
AcDbEntity
8
1
62
256
6
ByLayer
370
18
48
1
60
0
100
AcDbCircle
10
11.638352
20
-1.761215
30
0
40
4.54999999999999
39
0
210
0
220
0
230
1
0
CIRCLE
5
D2
100
AcDbEntity
8
1
62
256
6
ByLayer
370
18
48
1
60
0
100
AcDbCircle
10
11.638352
20
-1.761215
30
0
40
4.25
39
0
210
0
220
0
230
1
0
CIRCLE
5
D3
100
AcDbEntity
8
1
62
256
6
ByLayer
370
18
48
1
60
0
100
AcDbCircle
10
11.638352
20
-1.761215
30
0
40
3.75
39
0
210
0
220
0
230
1
0
ELLIPSE
5
DA
100
AcDbEntity
8
1
62
256
6
ByLayer
370
18
48
1
60
0
100
AcDbEllipse
10
323.001023
20
-45.847884
30
0
11
682.534259496947
21
-10.7663494951396
31
0
210
0
220
0
230
1
40
0.048962
41
2.01753135516692
42
2.01902323570786
0
ELLIPSE
5
DB
100
AcDbEntity
8
1
62
256
6
ByLayer
370
18
48
1
60
0
100
AcDbEllipse
10
28.498222
20
-45.763014
30
0
11
39.4252354365558
21
4.61849035520824E-14
31
0
210
0
220
0
230
1
40
0.88839
41
1.61002432865411
42
1.68416121052717
0
ELLIPSE
5
DC
100
AcDbEntity
8
1
62
256
6
ByLayer
370
18
48
1
60
0
100
AcDbEllipse
10
40.625233
20
-45.763014
30
0
11
2.14459187712517E-15
21
35.0249999998977
31
0
210
0
220
0
230
1
40
0.754717
41
0.293081952662361
42
0.580422083806465
0
ELLIPSE
5
DD
100
AcDbEntity
8
1
62
256
6
ByLayer
370
18
48
1
60
0
100
AcDbEllipse
10
0.144349
20
-45.763014
30
0
11
2.14459187744724E-15
21
35.0250000051576
31
0
210
0
220
0
230
1
40
0.267949
41
-0.153664417051511
42
-0.0370832414330782
0
ELLIPSE
5
DE
100
AcDbEntity
8
1
62
256
6
ByLayer
370
18
48
1
60
0
100
AcDbEllipse
10
29.694887
20
-45.763013
30
0
11
50.0037423134386
21
5.85771521822799E-14
31
0
210
0
220
0
230
1
40
0.700448
41
1.68416121210554
42
1.72446074600244
0
ELLIPSE
5
DF
100
AcDbEntity
8
1
62
256
6
ByLayer
370
18
48
1
60
0
100
AcDbEllipse
10
28.498222
20
-38.063014
30
0
11
33.4031080963653
21
3.91302501732171E-14
31
0
210
0
220
0
230
1
40
0.88839
41
1.61351613927177
42
1.70471285813799
0
ELLIPSE
5
E0
100
AcDbEntity
8
1
62
256
6
ByLayer
370
18
48
1
60
0
100
AcDbEllipse
10
-606.697329
20
-38.061742
30
0
11
2401.08997842184
21
9.0483429650172
31
0
210
0
220
0
230
1
40
0.01177
41
1.30364754104291
42
1.30721117428254
0
ELLIPSE
5
E1
100
AcDbEntity
8
1
62
256
6
ByLayer
370
18
48
1
60
0
100
AcDbEllipse
10
29.694887
20
-38.063014
30
0
11
42.365769434025
21
4.96296078781549E-14
31
0
210
0
220
0
230
1
40
0.700448
41
1.7047128580997
42
1.82146511562097
0
ELLIPSE
5
E2
100
AcDbEntity
8
1
62
256
6
ByLayer
370
18
48
1
60
0
100
AcDbEllipse
10
30.016413
20
-7.593801
30
0
11
0.897816657937047
21
-0.0200227355029292
31
0
210
0
220
0
230
1
40
0.890478
41
-1.55093986673025
42
-1.27529610588753
0
ELLIPSE
5
E3
100
AcDbEntity
8
1
62
256
6
ByLayer
370
18
48
1
60
0
100
AcDbEllipse
10
28.411532
20
-8.510639
30
0
11
0.850691972612104
21
-0.00405244723226046
31
0
210
0
220
0
230
1
40
0.176263
41
-3.1407529900292
42
-2.80477710893187
0
ELLIPSE
5
E4
100
AcDbEntity
8
1
62
256
6
ByLayer
370
18
48
1
60
0
100
AcDbEllipse
10
29.883359
20
-9.108732
30
0
11
1.13425596407467
21
-0.00540326296127554
31
0
210
0
220
0
230
1
40
0.176263
41
-2.80477710902343
42
-1.98633858752794
0
ELLIPSE
5
E5
100
AcDbEntity
8
1
62
256
6
ByLayer
370
18
48
1
60
0
100
AcDbEllipse
10
34.012151
20
-7.482148
30
0
11
11.3425593995578
21
-0.05403265538549
31
0
210
0
220
0
230
1
40
0.176263
41
-1.98633858108115
42
-1.91902250593971
0
ELLIPSE
5
E6
100
AcDbEntity
8
1
62
256
6
ByLayer
370
18
48
1
60
0
100
AcDbEllipse
10
29.778723
20
-9.542036
30
0
11
1.19096876227636
21
-0.00567342610953692
31
0
210
0
220
0
230
1
40
0.176263
41
0.000839663557943447
42
1.22257013995328
0
ELLIPSE
5
E7
100
AcDbEntity
8
1
62
256
6
ByLayer
370
18
48
1
60
0
100
AcDbEllipse
10
29.778723
20
-9.542036
30
0
11
1.19096876227358
21
-0.00567342610943059
31
0
210
0
220
0
230
1
40
0.176263
41
-1.22089081283891
42
0.000839663558114645
0
ELLIPSE
5
E8
100
AcDbEntity
8
1
62
256
6
ByLayer
370
18
48
1
60
0
100
AcDbEllipse
10
34.012151
20
-11.641004
30
0
11
11.3425596287623
21
-0.0540326283231979
31
0
210
0
220
0
230
1
40
0.176263
41
1.92070184044346
42
1.98801791439781
0
ELLIPSE
5
E9
100
AcDbEntity
8
1
62
256
6
ByLayer
370
18
48
1
60
0
100
AcDbEllipse
10
29.883359
20
-9.976306
30
0
11
1.13425596406341
21
-0.00540326296049554
31
0
210
0
220
0
230
1
40
0.176263
41
1.98801791463758
42
2.80645643613826
0
ELLIPSE
5
EA
100
AcDbEntity
8
1
62
256
6
ByLayer
370
18
48
1
60
0
100
AcDbEllipse
10
28.411532
20
-10.560812
30
0
11
0.850691973026621
21
-0.00405244722148009
31
0
210
0
220
0
230
1
40
0.176263
41
2.80645643613363
42
-3.14075299003203
0
ELLIPSE
5
EB
100
AcDbEntity
8
1
62
256
6
ByLayer
370
18
48
1
60
0
100
AcDbEllipse
10
30.016413
20
-11.492465
30
0
11
0.897816657469041
21
-0.0200227351705022
31
0
210
0
220
0
230
1
40
0.890478
41
1.31500902548047
42
1.59065278646669
0
ELLIPSE
5
EC
100
AcDbEntity
8
1
62
256
6
ByLayer
370
18
48
1
60
0
100
AcDbEllipse
10
29.35985
20
-8.790359
30
0
11
0.0186163199791429
21
-0.125398860678402
31
0
210
0
220
0
230
1
40
0.98447
41
0
42
6.28318530717959
0
ELLIPSE
5
ED
100
AcDbEntity
8
SK1
62
256
6
ByLayer
370
18
48
1
60
0
100
AcDbEllipse
10
-2.405485
20
9.947099
30
0
11
2.99999999999989
21
3.51436609374744E-15
31
0
210
0
220
0
230
1
40
0.004363
41
-2.31838067646405
42
-1.14212025808413
0
POINT
5
70
100
AcDbEntity
8
81
62
256
6
ByLayer
370
18
48
1
60
0
100
AcDbPoint
10
33.788352
20
-11.0625
30
0
39
0
210
0
220
0
230
1
50
360
0
POINT
5
72
100
AcDbEntity
8
80
62
256
6
ByLayer
370
18
48
1
60
0
100
AcDbPoint
10
0
20
0
30
0
39
0
210
0
220
0
230
1
50
360
0
POINT
5
74
100
AcDbEntity
8
1
62
256
6
ByLayer
370
18
48
1
60
1
100
AcDbPoint
10
33.788352
20
-11.0625
30
0
39
0
210
0
220
0
230
1
50
360
0
POINT
5
76
100
AcDbEntity
8
1
62
256
6
ByLayer
370
18
48
1
60
1
100
AcDbPoint
10
-91.211648
20
9.9375
30
0
39
0
210
0
220
0
230
1
50
360
0
POINT
5
77
100
AcDbEntity
8
1
62
256
6
ByLayer
370
18
48
1
60
1
100
AcDbPoint
10
33.788352
20
-8.0625
30
0
39
0
210
0
220
0
230
1
50
360
0
POINT
5
78
100
AcDbEntity
8
1
62
256
6
ByLayer
370
18
48
1
60
1
100
AcDbPoint
10
33.788352
20
-11.0625
30
0
39
0
210
0
220
0
230
1
50
360
0
POINT
5
79
100
AcDbEntity
8
1
62
256
6
ByLayer
370
18
48
1
60
1
100
AcDbPoint
10
-91.211648
20
9.9375
30
0
39
0
210
0
220
0
230
1
50
360
0
POINT
5
7A
100
AcDbEntity
8
1
62
256
6
ByLayer
370
18
48
1
60
1
100
AcDbPoint
10
-91.211648
20
-10.0625
30
0
39
0
210
0
220
0
230
1
50
360
0
POINT
5
7B
100
AcDbEntity
8
1
62
256
6
ByLayer
370
18
48
1
60
1
100
AcDbPoint
10
18.788352
20
-8.388014
30
0
39
0
210
0
220
0
230
1
50
360
0
POINT
5
7C
100
AcDbEntity
8
1
62
256
6
ByLayer
370
18
48
1
60
1
100
AcDbPoint
10
33.788352
20
-11.0625
30
0
39
0
210
0
220
0
230
1
50
360
0
POINT
5
7D
100
AcDbEntity
8
1
62
256
6
ByLayer
370
18
48
1
60
1
100
AcDbPoint
10
-91.211648
20
9.9375
30
0
39
0
210
0
220
0
230
1
50
360
0
POINT
5
7E
100
AcDbEntity
8
1
62
256
6
ByLayer
370
18
48
1
60
1
100
AcDbPoint
10
33.788352
20
-11.0625
30
0
39
0
210
0
220
0
230
1
50
360
0
SPLINE
5
EE
100
AcDbEntity
8
1
62
256
6
ByLayer
370
18
48
1
60
0
100
AcDbSpline
70
4
71
3
72
12
73
8
40
0
40
0
40
0
40
0
40
0.249999999999983
40
0.249999999999983
40
0.499999999999967
40
0.499999999999967
40
1
40
1
40
1
40
1
41
1
10
1.137E-13
20
-10.511490355109
30
0
41
1
10
0.0149817418328269
20
-10.5294175079655
30
0
41
1
10
0.0296315648366203
20
-10.5477490895491
30
0
41
1
10
0.0580444691074149
20
-10.584951118542
30
0
41
1
10
0.071823032316729
20
-10.6038371809589
30
0
41
1
10
0.111911286492443
20
-10.6613915749032
30
0
41
1
10
0.136976999211129
20
-10.7009477542557
30
0
41
1
10
0.160439251780758
20
-10.741883848288
30
0
0
SPLINE
5
EF
100
AcDbEntity
8
1
62
256
6
ByLayer
370
18
48
1
60
0
100
AcDbSpline
70
4
71
3
72
12
73
8
40
0
40
0
40
0
40
0
40
0.25
40
0.25
40
0.5
40
0.5
40
1
40
1
40
1
40
1
41
1
10
27.0716819636546
20
-8.41508807070875
30
0
41
1
10
27.0964586967533
20
-8.48606081951155
30
0
41
1
10
27.1200028870599
20
-8.55770652637088
30
0
41
1
10
27.1657366830647
20
-8.70173753195709
30
0
41
1
10
27.1879070567257
20
-8.77413333121538
30
0
41
1
10
27.2531151075046
20
-8.99203219442396
30
0
41
1
10
27.2948844062288
20
-9.13822778236948
30
0
41
1
10
27.3358547736638
20
-9.28485958011728
30
0
0
SPLINE
5
F0
100
AcDbEntity
8
1
62
256
6
ByLayer
370
18
48
1
60
0
100
AcDbSpline
70
4
71
3
72
12
73
8
40
0
40
0
40
0
40
0
40
0.500000000000004
40
0.500000000000004
40
0.750000000000002
40
0.750000000000002
40
1
40
1
40
1
40
1
41
1
10
27.3249830168689
20
-9.78477806319617
30
0
41
1
10
27.2821435762765
20
-9.91480403796359
30
0
41
1
10
27.2382677575891
20
-10.0441510841641
30
0
41
1
10
27.1692789642156
20
-10.2360916765016
30
0
41
1
10
27.1457432871937
20
-10.2997185061942
30
0
41
1
10
27.0969827893252
20
-10.4258656118978
30
0
41
1
10
27.0717791942367
20
-10.4883997928474
30
0
41
1
10
27.0451188903896
20
-10.5499796877168
30
0
0
SPLINE
5
F1
100
AcDbEntity
8
1
62
256
6
ByLayer
370
18
48
1
60
0
100
AcDbSpline
70
4
71
3
72
8
73
4
40
0
40
0
40
0
40
0
40
1
40
1
40
1
40
1
41
1
10
27.4572289727134
20
-9.72573224644285
30
0
41
1
10
27.4132486937542
20
-9.74582076097744
30
0
41
1
10
27.3691842697596
20
-9.76557290193267
30
0
41
1
10
27.3249830168691
20
-9.78477806319574
30
0
0
SPLINE
5
F2
100
AcDbEntity
8
1
62
256
6
ByLayer
370
18
48
1
60
0
100
AcDbSpline
70
4
71
3
72
20
73
16
40
0
40
0
40
0
40
0
40
0.125000000000021
40
0.125000000000021
40
0.250000000000042
40
0.250000000000042
40
0.375000000000063
40
0.375000000000063
40
0.500000000000084
40
0.500000000000084
40
0.625000000000105
40
0.625000000000105
40
0.750000000000126
40
0.750000000000126
40
1
40
1
40
1
40
1
41
1
10
27.5374016468973
20
-9.58846962365212
30
0
41
1
10
27.5372502575256
20
-9.59623965124302
30
0
41
1
10
27.5366091453833
20
-9.60395037661974
30
0
41
1
10
27.5343470177781
20
-9.61925316751083
30
0
41
1
10
27.5327382550146
20
-9.6267277252289
30
0
41
1
10
27.5286747204638
20
-9.64111148653129
30
0
41
1
10
27.5262139595607
20
-9.648059888375
30
0
41
1
10
27.5204435564471
20
-9.66147490260173
30
0
41
1
10
27.5171150306577
20
-9.66795176414593
30
0
41
1
10
27.5098790324651
20
-9.67994947569281
30
0
41
1
10
27.5059459666353
20
-9.68553880054083
30
0
41
1
10
27.4974799078994
20
-9.69593765134164
30
0
41
1
10
27.4929197773653
20
-9.70077098137685
30
0
41
1
10
27.4785104814588
20
-9.71392196620459
30
0
41
1
10
27.4681938781903
20
-9.72072389569439
30
0
41
1
10
27.4572289727134
20
-9.72573224644287
30
0
0
SPLINE
5
F3
100
AcDbEntity
8
1
62
256
6
ByLayer
370
18
48
1
60
0
100
AcDbSpline
70
4
71
2
72
6
73
3
40
0
40
0
40
0
40
1
40
1
40
1
41
0.500000084239631
10
27.53930226223
20
-9.4908424466252
30
0
41
0.499999915760369
10
27.538352342855
20
-9.53967535401469
30
0
41
0.500000084239631
10
27.5374016468974
20
-9.58846962365191
30
0
0
SPLINE
5
F4
100
AcDbEntity
8
1
62
256
6
ByLayer
370
18
48
1
60
0
100
AcDbSpline
70
4
71
3
72
16
73
12
40
0
40
0
40
0
40
0
40
0.250000000000002
40
0.250000000000002
40
0.500000000000004
40
0.500000000000004
40
0.750000000000006
40
0.750000000000006
40
0.875000000000003
40
0.875000000000003
40
1
40
1
40
1
40
1
41
1
10
27.4648048843476
20
-9.34998168478106
30
0
41
1
10
27.4755351856236
20
-9.35550357702314
30
0
41
1
10
27.4855899795289
20
-9.36282076874431
30
0
41
1
10
27.5040921106375
20
-9.38133419509273
30
0
41
1
10
27.5121688730581
20
-9.39214612175886
30
0
41
1
10
27.5257712380129
20
-9.4171486582961
30
0
41
1
10
27.5309846059323
20
-9.43077952490651
30
0
41
1
10
27.5362313516719
20
-9.45286878492533
30
0
41
1
10
27.5375106116072
20
-9.46037921421492
30
0
41
1
10
27.5391173020486
20
-9.47549304698009
30
0
41
1
10
27.5394523356647
20
-9.48312755804193
30
0
41
1
10
27.53930226223
20
-9.49084244662512
30
0
0
SPLINE
5
F5
100
AcDbEntity
8
1
62
256
6
ByLayer
370
18
48
1
60
0
100
AcDbSpline
70
4
71
3
72
8
73
4
40
0
40
0
40
0
40
0
40
1
40
1
40
1
40
1
41
1
10
27.3358547736638
20
-9.28485958011728
30
0
41
1
10
27.3789571442571
20
-9.30614447721658
30
0
41
1
10
27.4219229198512
20
-9.32791430931906
30
0
41
1
10
27.4648048843476
20
-9.34998168478103
30
0
0
SPLINE
5
F6
100
AcDbEntity
8
1
62
256
6
ByLayer
370
18
48
1
60
0
100
AcDbSpline
70
4
71
3
72
30
73
26
40
0
40
0
40
0
40
0
40
0.0218955263425534
40
0.0218955263425534
40
0.0663548205997284
40
0.0663548205997284
40
0.110814114856903
40
0.110814114856903
40
0.288651291885569
40
0.288651291885569
40
0.377569880399891
40
0.377569880399891
40
0.422029174657042
40
0.422029174657042
40
0.466488468914193
40
0.466488468914193
40
0.644325645942777
40
0.644325645942777
40
0.688784940199936
40
0.688784940199936
40
0.733244234457096
40
0.733244234457096
40
0.822162822971388
40
0.822162822971388
40
1
40
1
40
1
40
1
41
1
10
16.6997243934398
20
-11.151294282453
30
0
41
1
10
16.6950438986641
20
-11.1527312013501
30
0
41
1
10
16.6902476077198
20
-11.1541644373161
30
0
41
1
10
16.6753602783798
20
-11.1584963019561
30
0
41
1
10
16.6649055712793
20
-11.1613829383963
30
0
41
1
10
16.6430193540905
20
-11.1671215591369
30
0
41
1
10
16.6315562248169
20
-11.1699806430699
30
0
41
1
10
16.5723234224641
20
-11.1840452926576
30
0
41
1
10
16.5186614313401
20
-11.1946298142226
30
0
41
1
10
16.4289749594617
20
-11.2093977659578
30
0
41
1
10
16.3975362006816
20
-11.2141343452904
30
0
41
1
10
16.3479881583675
20
-11.2209336866137
30
0
41
1
10
16.3310523723132
20
-11.2231510841642
30
0
41
1
10
16.2967491874101
20
-11.2274320627362
30
0
41
1
10
16.2793386424424
20
-11.229501855257
30
0
41
1
10
16.1910107963289
20
-11.2394959543336
30
0
41
1
10
16.1163047511779
20
-11.2463647406393
30
0
41
1
10
16.0178084102557
20
-11.2534305334133
30
0
41
1
10
15.9978511484216
20
-11.254767102143
30
0
41
1
10
15.9574095517451
20
-11.2572817764345
30
0
41
1
10
15.9369784439061
20
-11.2584560402287
30
0
41
1
10
15.8755588717142
20
-11.2617013279614
30
0
41
1
10
15.8342512688248
20
-11.2635076598305
30
0
41
1
10
15.7092682040294
20
-11.2678620457976
30
0
41
1
10
15.6245429677509
20
-11.2693540383651
30
0
41
1
10
15.538352336587
20
-11.2693540383651
30
0
0
SPLINE
5
F7
100
AcDbEntity
8
1
62
256
6
ByLayer
370
18
48
1
60
0
100
AcDbSpline
70
4
71
3
72
29
73
25
40
0
40
0
40
0
40
0
40
0.17806653977552
40
0.17806653977552
40
0.222583174719379
40
0.222583174719379
40
0.267099809663238
40
0.267099809663238
40
0.356133079550954
40
0.44516634943867
40
0.44516634943867
40
0.489682984382542
40
0.489682984382542
40
0.534199619326414
40
0.534199619326414
40
0.712266159101908
40
0.712266159101908
40
0.801299428989667
40
0.801299428989667
40
0.845816063933546
40
0.845816063933546
40
0.890332698877425
40
0.890332698877425
40
1
40
1
40
1
40
1
41
1
10
15.338352336587
20
-11.2693540383651
30
0
41
1
10
15.2521491307647
20
-11.2693540383651
30
0
41
1
10
15.1668740586697
20
-11.267861266884
30
0
41
1
10
15.0614332360236
20
-11.2641639855017
30
0
41
1
10
15.040414041118
20
-11.2633321217525
30
0
41
1
10
14.9988803683903
20
-11.2615017171688
30
0
41
1
10
14.9783165586311
20
-11.2605015627482
30
0
41
1
10
14.9172235672805
20
-11.2572529354194
30
0
41
1
10
14.8373592646851
20
-11.2522606497503
30
0
41
1
10
14.7606388538145
20
-11.2459931253244
30
0
41
1
10
14.7042959930827
20
-11.240820177793
30
0
41
1
10
14.6857149697262
20
-11.2390170276366
30
0
41
1
10
14.6489603912693
20
-11.2352525899115
30
0
41
1
10
14.6308449983495
20
-11.2332967540614
30
0
41
1
10
14.5422498025062
20
-11.2232363248963
30
0
41
1
10
14.4769868419559
20
-11.2142277433021
30
0
41
1
10
14.3873057221336
20
-11.1994419121158
30
0
41
1
10
14.3587907444621
20
-11.194299540521
30
0
41
1
10
14.3181521645735
20
-11.1862725036557
30
0
41
1
10
14.3050279623097
20
-11.1835570291794
30
0
41
1
10
14.2797472528279
20
-11.1780792333766
30
0
41
1
10
14.2675681523652
20
-11.1753124719665
30
0
41
1
10
14.226958062996
20
-11.1656393600813
30
0
41
1
10
14.200803624671
20
-11.1586025720405
30
0
41
1
10
14.177395032534
20
-11.1514257926467
30
0
0
SPLINE
5
F8
100
AcDbEntity
8
1
62
256
6
ByLayer
370
18
48
1
60
0
100
AcDbSpline
70
4
71
3
72
10
73
6
40
0
40
0
40
0
40
0
40
0.5
40
0.5
40
1
40
1
40
1
40
1
41
1
10
0.160439251780758
20
-10.741883848288
30
0
41
1
10
0.233944206867932
20
-10.7436877684566
30
0
41
1
10
0.298280034636804
20
-10.7461842672801
30
0
41
1
10
0.408962590071724
20
-10.752827611313
30
0
41
1
10
0.455311301547624
20
-10.7569734668751
30
0
41
1
10
0.492292335192531
20
-10.762093861367
30
0
0
SPLINE
5
F9
100
AcDbEntity
8
1
62
256
6
ByLayer
370
18
48
1
60
0
100
AcDbSpline
70
4
71
3
72
14
73
10
40
0
40
0
40
0
40
0
40
0.174477733017734
40
0.174477733017734
40
0.449651822011822
40
0.449651822011822
40
0.724825911005911
40
0.724825911005911
40
1
40
1
40
1
40
1
41
1
10
0.158235664438592
20
-10.7380134748594
30
0
41
1
10
0.158261431060964
20
-10.7380397077878
30
0
41
1
10
0.160524615325045
20
-10.741981780057
30
0
41
1
10
0.171955835683775
20
-10.7621932367517
30
0
41
1
10
0.184332657052551
20
-10.7842637724009
30
0
41
1
10
0.216427298168526
20
-10.847792889787
30
0
41
1
10
0.236113944009674
20
-10.8892512249401
30
0
41
1
10
0.27730053617384
20
-10.9916527560877
30
0
41
1
10
0.298788985231368
20
-11.0525956736254
30
0
41
1
10
0.317758141296196
20
-11.123389527836
30
0
0
SPLINE
5
FA
100
AcDbEntity
8
1
62
256
6
ByLayer
370
18
48
1
60
0
100
AcDbSpline
70
4
71
3
72
32
73
28
40
0
40
0
40
0
40
0
40
0.124999999999958
40
0.124999999999958
40
0.187499999999936
40
0.187499999999936
40
0.218749999999925
40
0.218749999999925
40
0.249999999999914
40
0.249999999999914
40
0.374999999999929
40
0.374999999999929
40
0.437499999999927
40
0.437499999999927
40
0.468749999999925
40
0.468749999999925
40
0.499999999999923
40
0.499999999999923
40
0.624999999999934
40
0.624999999999934
40
0.687499999999934
40
0.718749999999937
40
0.718749999999937
40
0.749999999999939
40
0.749999999999939
40
0.874999999999969
40
1
40
1
40
1
40
1
41
1
10
18.7883523365863
20
-8.41978295382361
30
0
41
1
10
18.6994892355029
20
-8.41983557478136
30
0
41
1
10
18.6117107088526
20
-8.41263548529599
30
0
41
1
10
18.4816185372337
20
-8.39129895691872
30
0
41
1
10
18.438518460603
20
-8.38242150344644
30
0
41
1
10
18.3742701889733
20
-8.366418137251
30
0
41
1
10
18.3528911465936
20
-8.36062464586738
30
0
41
1
10
18.3106327699706
20
-8.34824085828609
30
0
41
1
10
18.2897123979489
20
-8.34164170328063
30
0
41
1
10
18.1861340940198
20
-8.30664965328057
30
0
41
1
10
18.1065262849473
20
-8.27230800432355
30
0
41
1
10
17.991861797978
20
-8.21153686006977
30
0
41
1
10
17.9544355314179
20
-8.18972885076363
30
0
41
1
10
17.8995082628832
20
-8.15465277761817
30
0
41
1
10
17.8813727682144
20
-8.14254609127903
30
0
41
1
10
17.8456427642123
20
-8.11762255790731
30
0
41
1
10
17.8281118937616
20
-8.10485202152867
30
0
41
1
10
17.742091002779
20
-8.0394898642983
30
0
41
1
10
17.678468622339
20
-7.98240007578212
30
0
41
1
10
17.5905297008939
20
-7.88983961622071
30
0
41
1
10
17.5484435479772
20
-7.8418190288715
30
0
41
1
10
17.5092115801571
20
-7.79116089994835
30
0
41
1
10
17.4837003993775
20
-7.75679419096761
30
0
41
1
10
17.4712531375082
20
-7.7392911209005
30
0
41
1
10
17.4111743394151
20
-7.65106353186022
30
0
41
1
10
17.3279015744486
20
-7.50426088628865
30
0
41
1
10
17.2692459007685
20
-7.34665919173287
30
0
41
1
10
17.2462890355133
20
-7.26506352058973
30
0
0
SPLINE
5
FB
100
AcDbEntity
8
1
62
256
6
ByLayer
370
18
48
1
60
0
100
AcDbSpline
70
4
71
3
72
10
73
6
40
0
40
0
40
0
40
0
40
0.5
40
0.5
40
1
40
1
40
1
40
1
41
1
10
17.2798425212405
20
-7.32793992515565
30
0
41
1
10
17.2790780969476
20
-7.3174608799288
30
0
41
1
10
17.2754867698163
20
-7.30698034366637
30
0
41
1
10
17.2636970262742
20
-7.28602037165371
30
0
41
1
10
17.2555087042658
20
-7.27554165966404
30
0
41
1
10
17.2462890355133
20
-7.26506352058973
30
0
0
SPLINE
5
FC
100
AcDbEntity
8
1
62
256
6
ByLayer
370
18
48
1
60
0
100
AcDbSpline
70
4
71
3
72
8
73
4
40
0
40
0
40
0
40
0
40
1
40
1
40
1
40
1
41
1
10
27.0716819636546
20
-8.41508807070875
30
0
41
1
10
27.0629847094919
20
-8.41507744958574
30
0
41
1
10
27.0542704358154
20
-8.41507448784469
30
0
41
1
10
27.0455389575914
20
-8.41507926497945
30
0
0
SPLINE
5
FD
100
AcDbEntity
8
1
62
256
6
ByLayer
370
18
48
1
60
0
100
AcDbSpline
70
4
71
3
72
39
73
35
40
0
40
0
40
0
40
0
40
0.0625000000000013
40
0.0625000000000013
40
0.0937499999999999
40
0.0937499999999999
40
0.124999999999999
40
0.124999999999999
40
0.249999999999986
40
0.249999999999986
40
0.28124999999998
40
0.28124999999998
40
0.312499999999974
40
0.312499999999974
40
0.374999999999954
40
0.374999999999954
40
0.499999999999902
40
0.499999999999902
40
0.531249999999898
40
0.531249999999898
40
0.562499999999894
40
0.562499999999894
40
0.624999999999897
40
0.624999999999897
40
0.749999999999917
40
0.749999999999917
40
0.812499999999934
40
0.812499999999934
40
0.874999999999951
40
0.937499999999967
40
0.937499999999967
40
0.968749999999984
40
0.968749999999984
40
1
40
1
40
1
40
1
41
1
10
17.188352336587
20
-7.66659671330748
30
0
41
1
10
17.188352336587
20
-7.71952268459142
30
0
41
1
10
17.1908269485211
20
-7.77254363069426
30
0
41
1
10
17.1983412083031
20
-7.85222098252044
30
0
41
1
10
17.2014907477618
20
-7.87887020280232
30
0
41
1
10
17.209038767652
20
-7.93188252935462
30
0
41
1
10
17.2134268877164
20
-7.95819928258419
30
0
41
1
10
17.238382667572
20
-8.08885307660177
30
0
41
1
10
17.2679117819291
20
-8.19042613504632
30
0
41
1
10
17.3167599809552
20
-8.31371078778847
30
0
41
1
10
17.3271317125071
20
-8.33818201511818
30
0
41
1
10
17.3491005006021
20
-8.38674654266595
30
0
41
1
10
17.3607116692161
20
-8.41086735955085
30
0
41
1
10
17.3973388521651
20
-8.48247260001096
30
0
41
1
10
17.4238530018889
20
-8.52864600604528
30
0
41
1
10
17.5095122530204
20
-8.662603719559
30
0
41
1
10
17.574715641568
20
-8.74586916848136
30
0
41
1
10
17.6666627054943
20
-8.84216170476662
30
0
41
1
10
17.6855789763087
20
-8.86102723016953
30
0
41
1
10
17.7244933507892
20
-8.89795134503348
30
0
41
1
10
17.7443592824661
20
-8.91588279928735
30
0
41
1
10
17.8050031889923
20
-8.96796339552134
30
0
41
1
10
17.8468936981156
20
-9.00046846034553
30
0
41
1
10
17.9768883358145
20
-9.09142953643891
30
0
41
1
10
18.069270442751
20
-9.1433998523475
30
0
41
1
10
18.2169565406557
20
-9.20753951615362
30
0
41
1
10
18.2668919297661
20
-9.22623780032217
30
0
41
1
10
18.3679659331278
20
-9.2583646407445
30
0
41
1
10
18.4702996338397
20
-9.28524499203286
30
0
41
1
10
18.5751481726272
20
-9.30165134285156
30
0
41
1
10
18.6547543802317
20
-9.30991699006503
30
0
41
1
10
18.6815204173371
20
-9.31200078928796
30
0
41
1
10
18.7350485431296
20
-9.31476934041746
30
0
41
1
10
18.7617373193161
20
-9.31545438343289
30
0
41
1
10
18.788352336587
20
-9.31545438343289
30
0
0
SPLINE
5
FE
100
AcDbEntity
8
1
62
256
6
ByLayer
370
18
48
1
60
0
100
AcDbSpline
70
4
71
3
72
34
73
30
40
0
40
0
40
0
40
0
40
0.124999999999992
40
0.124999999999992
40
0.187499999999989
40
0.187499999999989
40
0.218749999999986
40
0.218749999999986
40
0.249999999999983
40
0.249999999999983
40
0.374999999999979
40
0.374999999999979
40
0.406249999999978
40
0.406249999999978
40
0.437499999999977
40
0.49999999999998
40
0.562499999999982
40
0.562499999999982
40
0.624999999999984
40
0.624999999999984
40
0.687499999999987
40
0.687499999999987
40
0.749999999999989
40
0.749999999999989
40
0.874999999999994
40
0.874999999999994
40
0.937499999999997
40
0.937499999999997
40
1
40
1
40
1
40
1
41
1
10
12.7858033701719
20
-0.433062190180664
30
0
41
1
10
12.7726867983657
20
-0.482053987491554
30
0
41
1
10
12.7640545206964
20
-0.532159626578277
30
0
41
1
10
12.7581443761873
20
-0.609316900619945
30
0
41
1
10
12.7573558129513
20
-0.635372478276679
30
0
41
1
10
12.7580828459469
20
-0.67504242276857
30
0
41
1
10
12.7586465357403
20
-0.688394336689612
30
0
41
1
10
12.7604364596991
20
-0.715168264058605
30
0
41
1
10
12.7616582381141
20
-0.728546718099352
30
0
41
1
10
12.7694190525325
20
-0.795409070064693
30
0
41
1
10
12.7808421848666
20
-0.848803964659083
30
0
41
1
10
12.8025849863232
20
-0.915625903609651
30
0
41
1
10
12.8073214816333
20
-0.929010721383207
30
0
41
1
10
12.8174169850338
20
-0.955362365152666
30
0
41
1
10
12.8335426219176
20
-0.994420521119139
30
0
41
1
10
12.8652769769181
20
-1.05720059477935
30
0
41
1
10
12.8958831402297
20
-1.10493921073655
30
0
41
1
10
12.9292020290362
20
-1.15138425970758
30
0
41
1
10
12.946816656536
20
-1.17340092342363
30
0
41
1
10
12.9837983553617
20
-1.21516374518379
30
0
41
1
10
13.0031718869164
20
-1.23491751949106
30
0
41
1
10
13.0436372416891
20
-1.27227483348798
30
0
41
1
10
13.0648118594785
20
-1.2899213875578
30
0
41
1
10
13.1293365424571
20
-1.33858757103442
30
0
41
1
10
13.174125491418
20
-1.36585437653335
30
0
41
1
10
13.2439215416155
20
-1.40000697088121
30
0
41
1
10
13.2677031818496
20
-1.41028040211154
30
0
41
1
10
13.3157434915903
20
-1.42843390935599
30
0
41
1
10
13.3399815768142
20
-1.43631659468357
30
0
41
1
10
13.3644477767313
20
-1.44305255861241
30
0
0
SPLINE
5
FF
100
AcDbEntity
8
1
62
256
6
ByLayer
370
18
48
1
60
0
100
AcDbSpline
70
4
71
3
72
26
73
22
40
0
40
0
40
0
40
0
40
0.124999999999998
40
0.124999999999998
40
0.249999999999997
40
0.249999999999997
40
0.312499999999994
40
0.312499999999994
40
0.374999999999991
40
0.374999999999991
40
0.500000000000035
40
0.500000000000035
40
0.562500000000058
40
0.562500000000058
40
0.62500000000008
40
0.62500000000008
40
0.750000000000054
40
0.750000000000054
40
0.875000000000027
40
0.875000000000027
40
1
40
1
40
1
40
1
41
1
10
13.606852336587
20
-1.76121452815926
30
0
41
1
10
13.606852336587
20
-1.74247244427957
30
0
41
1
10
13.6052151320916
20
-1.72342450403826
30
0
41
1
10
13.59883761727
20
-1.6865439823049
30
0
41
1
10
13.5941251282526
20
-1.66856769067991
30
0
41
1
10
13.5848177226902
20
-1.64228729759844
30
0
41
1
10
13.5813198616824
20
-1.63360091759631
30
0
41
1
10
13.5736864668231
20
-1.61673198054328
30
0
41
1
10
13.5695514358519
20
-1.60853713264342
30
0
41
1
10
13.5562346660027
20
-1.58464127633974
30
0
41
1
10
13.5461468990804
20
-1.56962459123471
30
0
41
1
10
13.5292570436732
20
-1.54843898875086
30
0
41
1
10
13.5233449539714
20
-1.54162260959018
30
0
41
1
10
13.5111497084299
20
-1.52865493864852
30
0
41
1
10
13.5048436333724
20
-1.52247414538806
30
0
41
1
10
13.4853286893628
20
-1.50480544595791
30
0
41
1
10
13.4715264642491
20
-1.49418625718818
30
0
41
1
10
13.4423978698269
20
-1.47521314721311
30
0
41
1
10
13.4273296307732
20
-1.46703336935468
30
0
41
1
10
13.396470084287
20
-1.45319250833532
30
0
41
1
10
13.3806472260751
20
-1.44751254450384
30
0
41
1
10
13.3644477767313
20
-1.44305255861241
30
0
0
SPLINE
5
100
100
AcDbEntity
8
1
62
256
6
ByLayer
370
18
48
1
60
0
100
AcDbSpline
70
4
71
3
72
24
73
20
40
0
40
0
40
0
40
0
40
0.0625000000000069
40
0.0625000000000069
40
0.125000000000014
40
0.125000000000014
40
0.249999999999948
40
0.249999999999948
40
0.31249999999995
40
0.31249999999995
40
0.374999999999953
40
0.374999999999953
40
0.499999999999962
40
0.499999999999962
40
0.624999999999971
40
0.624999999999971
40
0.74999999999998
40
0.74999999999998
40
1
40
1
40
1
40
1
41
1
10
12.6339292261822
20
-0.0630334698194872
30
0
41
1
10
12.6420309464002
20
-0.0677831903368258
30
0
41
1
10
12.6500021458144
20
-0.0729247391727768
30
0
41
1
10
12.6654454022879
20
-0.0838592065732371
30
0
41
1
10
12.6728700317238
20
-0.0896137003843194
30
0
41
1
10
12.6942850882147
20
-0.107707471754225
30
0
41
1
10
12.7074225761121
20
-0.12087142282337
30
0
41
1
10
12.7254328145633
20
-0.142254155319478
30
0
41
1
10
12.7311576910429
20
-0.149671407238714
30
0
41
1
10
12.7418232500856
20
-0.164757509319031
30
0
41
1
10
12.7467948711017
20
-0.172460359642457
30
0
41
1
10
12.7606675669472
20
-0.196027966608966
30
0
41
1
10
12.7685330543155
20
-0.212348972092883
30
0
41
1
10
12.781542664147
20
-0.246176878117666
30
0
41
1
10
12.7865173974888
20
-0.263241133263279
30
0
41
1
10
12.7936763290704
20
-0.297611530399621
30
0
41
1
10
12.7958616435056
20
-0.314977469411218
30
0
41
1
10
12.7982915466331
20
-0.367045084029229
30
0
41
1
10
12.7944916283559
20
-0.400610617450781
30
0
41
1
10
12.7858033701719
20
-0.433062190180664
30
0
0
SPLINE
5
101
100
AcDbEntity
8
1
62
256
6
ByLayer
370
18
48
1
60
0
100
AcDbSpline
70
4
71
3
72
17
73
13
40
0
40
0
40
0
40
0
40
0.25000000000004
40
0.25000000000004
40
0.50000000000008
40
0.50000000000008
40
0.562500000000077
40
0.562500000000077
40
0.625000000000075
40
0.750000000000073
40
0.750000000000073
40
1
40
1
40
1
40
1
41
1
10
11.0462346324198
20
-0.117631900070478
30
0
41
1
10
11.0744000177776
20
-0.146589924528115
30
0
41
1
10
11.1046265787224
20
-0.173445469255569
30
0
41
1
10
11.169430659974
20
-0.222934266526096
30
0
41
1
10
11.2040016414533
20
-0.245571820346015
30
0
41
1
10
11.2503638247304
20
-0.271004005546701
30
0
41
1
10
11.2598176267757
20
-0.275956976122188
30
0
41
1
10
11.2789270604733
20
-0.285498169803645
30
0
41
1
10
11.3078902996388
20
-0.299264416631701
30
0
41
1
10
11.3377660598436
20
-0.311391494707578
30
0
41
1
10
11.3988029486652
20
-0.333405451832306
30
0
41
1
10
11.44119413932
20
-0.345119026123598
30
0
41
1
10
11.4856110432106
20
-0.353476591859419
30
0
0
SPLINE
5
102
100
AcDbEntity
8
1
62
256
6
ByLayer
370
18
48
1
60
0
100
AcDbSpline
70
4
71
3
72
18
73
14
40
0
40
0
40
0
40
0
40
0.250000000000032
40
0.250000000000032
40
0.375000000000049
40
0.375000000000049
40
0.437500000000057
40
0.437500000000057
40
0.500000000000065
40
0.500000000000065
40
0.750000000000032
40
0.750000000000032
40
1
40
1
40
1
40
1
41
1
10
11.7910936299635
20
-0.353476591859419
30
0
41
1
10
11.8355186194444
20
-0.345117504724158
30
0
41
1
10
11.8778810642698
20
-0.333408604296352
30
0
41
1
10
11.9388399345267
20
-0.311429228574696
30
0
41
1
10
11.9587251494399
20
-0.303360545928541
30
0
41
1
10
11.9879374828305
20
-0.290173621912402
30
0
41
1
10
11.9975721800442
20
-0.285597053712195
30
0
41
1
10
12.0166402121965
20
-0.276083819154309
30
0
41
1
10
12.0260943664118
20
-0.271135404015212
30
0
41
1
10
12.0725611284647
20
-0.245664675015661
30
0
41
1
10
12.1071856804421
20
-0.222997530691941
30
0
41
1
10
12.1720593118967
20
-0.17346399869956
30
0
41
1
10
12.2023015361112
20
-0.146593131597314
30
0
41
1
10
12.2304700407542
20
-0.117631900070506
30
0
0
SPLINE
5
103
100
AcDbEntity
8
1
62
256
6
ByLayer
370
18
48
1
60
0
100
AcDbSpline
70
4
71
3
72
24
73
20
40
0
40
0
40
0
40
0
40
0.125000000000065
40
0.125000000000065
40
0.187500000000055
40
0.187500000000055
40
0.250000000000044
40
0.250000000000044
40
0.375000000000112
40
0.375000000000112
40
0.500000000000181
40
0.500000000000181
40
0.625000000000249
40
0.625000000000249
40
0.687500000000245
40
0.687500000000245
40
0.750000000000242
40
0.750000000000242
40
1
40
1
40
1
40
1
41
1
10
12.6339292261822
20
-0.0630334698194872
30
0
41
1
10
12.617303179161
20
-0.0532862711339419
30
0
41
1
10
12.5999905854067
20
-0.0450787914693933
30
0
41
1
10
12.5730048927998
20
-0.0350487646615818
30
0
41
1
10
12.5638049654687
20
-0.0320785868635198
30
0
41
1
10
12.5452078017597
20
-0.0269659786040961
30
0
41
1
10
12.5359014160238
20
-0.0248449388931817
30
0
41
1
10
12.5079613024688
20
-0.0197181835462175
30
0
41
1
10
12.4893066768308
20
-0.0179404543323471
30
0
41
1
10
12.4519523946451
20
-0.0175330247008958
30
0
41
1
10
12.4331134141606
20
-0.018954050154889
30
0
41
1
10
12.3969372316665
20
-0.0247272332561579
30
0
41
1
10
12.3794218630341
20
-0.0290559035278477
30
0
41
1
10
12.3539634597686
20
-0.0375624317680092
30
0
41
1
10
12.345613838774
20
-0.0407353887604813
30
0
41
1
10
12.3291883957359
20
-0.0477515436892872
30
0
41
1
10
12.3210855919958
20
-0.0516116767319375
30
0
41
1
10
12.2819364650664
20
-0.0722298868521705
30
0
41
1
10
12.25442735091
20
-0.0930003757857207
30
0
41
1
10
12.2304700407542
20
-0.117631900070506
30
0
0
SPLINE
5
104
100
AcDbEntity
8
1
62
256
6
ByLayer
370
18
48
1
60
0
100
AcDbSpline
70
4
71
3
72
24
73
20
40
0
40
0
40
0
40
0
40
0.249999999999805
40
0.249999999999805
40
0.312499999999795
40
0.312499999999795
40
0.374999999999785
40
0.374999999999785
40
0.499999999999845
40
0.499999999999845
40
0.624999999999905
40
0.624999999999905
40
0.749999999999965
40
0.749999999999965
40
0.812499999999954
40
0.812499999999954
40
0.874999999999942
40
0.874999999999942
40
1
40
1
40
1
40
1
41
1
10
11.0462346324198
20
-0.117631900070506
30
0
41
1
10
11.0222773222641
20
-0.0930003757857207
30
0
41
1
10
10.9947682081076
20
-0.0722298868521705
30
0
41
1
10
10.9556190811783
20
-0.0516116767319659
30
0
41
1
10
10.9475162774381
20
-0.0477515436892872
30
0
41
1
10
10.9310908344001
20
-0.0407353887604813
30
0
41
1
10
10.9227412134055
20
-0.0375624317680092
30
0
41
1
10
10.89728281014
20
-0.0290559035278193
30
0
41
1
10
10.8797674415075
20
-0.0247272332561579
30
0
41
1
10
10.8435912590134
20
-0.018954050154889
30
0
41
1
10
10.8247522785289
20
-0.0175330247008958
30
0
41
1
10
10.7873979963432
20
-0.0179404543323471
30
0
41
1
10
10.7687433707052
20
-0.0197181835462175
30
0
41
1
10
10.7408032571502
20
-0.0248449388931817
30
0
41
1
10
10.7314968714144
20
-0.0269659786041245
30
0
41
1
10
10.7128997077055
20
-0.0320785868635198
30
0
41
1
10
10.7036997803743
20
-0.0350487646615818
30
0
41
1
10
10.6767140877673
20
-0.0450787914693933
30
0
41
1
10
10.659401494013
20
-0.0532862711339419
30
0
41
1
10
10.6427754469918
20
-0.0630334698194872
30
0
0
SPLINE
5
105
100
AcDbEntity
8
1
62
256
6
ByLayer
370
18
48
1
60
0
100
AcDbSpline
70
4
71
3
72
18
73
14
40
0
40
0
40
0
40
0
40
0.250000000000143
40
0.250000000000143
40
0.37500000000018
40
0.37500000000018
40
0.437500000000167
40
0.437500000000167
40
0.500000000000155
40
0.500000000000155
40
0.750000000000077
40
0.750000000000077
40
1
40
1
40
1
40
1
41
1
10
11.4856110432106
20
-3.16895246445907
30
0
41
1
10
11.4411860537294
20
-3.17731155159441
30
0
41
1
10
11.3988236089038
20
-3.18902045202231
30
0
41
1
10
11.3378647386472
20
-3.21099982774393
30
0
41
1
10
11.317979523734
20
-3.21906851039003
30
0
41
1
10
11.2887671903436
20
-3.23225543440611
30
0
41
1
10
11.2791324931299
20
-3.23683200260626
30
0
41
1
10
11.2600644609778
20
-3.24634523716406
30
0
41
1
10
11.2506103067625
20
-3.25129365230313
30
0
41
1
10
11.2041435447094
20
-3.27676438130277
30
0
41
1
10
11.169518992732
20
-3.29943152562655
30
0
41
1
10
11.1046453612773
20
-3.34896505761901
30
0
41
1
10
11.0744031370628
20
-3.37583592472123
30
0
41
1
10
11.0462346324198
20
-3.40479715624801
30
0
0
SPLINE
5
106
100
AcDbEntity
8
1
62
256
6
ByLayer
370
18
48
1
60
0
100
AcDbSpline
70
4
71
3
72
24
73
20
40
0
40
0
40
0
40
0
40
0.124999999999994
40
0.124999999999994
40
0.187499999999949
40
0.187499999999949
40
0.249999999999903
40
0.249999999999903
40
0.374999999999901
40
0.374999999999901
40
0.499999999999898
40
0.499999999999898
40
0.624999999999896
40
0.624999999999896
40
0.687499999999939
40
0.687499999999939
40
0.749999999999982
40
0.749999999999982
40
1
40
1
40
1
40
1
41
1
10
10.6427754469918
20
-3.45939558649903
30
0
41
1
10
10.659401494013
20
-3.46914278518457
30
0
41
1
10
10.6767140877674
20
-3.47735026484909
30
0
41
1
10
10.7036997803743
20
-3.48738029165693
30
0
41
1
10
10.7128997077055
20
-3.490350469455
30
0
41
1
10
10.7314968714144
20
-3.49546307771439
30
0
41
1
10
10.7408032571502
20
-3.49758411742533
30
0
41
1
10
10.7687433707052
20
-3.5027108727723
30
0
41
1
10
10.7873979963433
20
-3.50448860198617
30
0
41
1
10
10.8247522785289
20
-3.50489603161759
30
0
41
1
10
10.8435912590134
20
-3.50347500616363
30
0
41
1
10
10.8797674415075
20
-3.49770182306233
30
0
41
1
10
10.89728281014
20
-3.49337315279067
30
0
41
1
10
10.9227412134055
20
-3.48486662455048
30
0
41
1
10
10.9310908344001
20
-3.481693667558
30
0
41
1
10
10.9475162774381
20
-3.47467751262923
30
0
41
1
10
10.9556190811783
20
-3.47081737958655
30
0
41
1
10
10.9947682081076
20
-3.45019916946632
30
0
41
1
10
11.0222773222641
20
-3.42942868053279
30
0
41
1
10
11.0462346324198
20
-3.40479715624801
30
0
0
SPLINE
5
107
100
AcDbEntity
8
1
62
256
6
ByLayer
370
18
48
1
60
0
100
AcDbSpline
70
4
71
3
72
24
73
20
40
0
40
0
40
0
40
0
40
0.249999999999767
40
0.249999999999767
40
0.312499999999765
40
0.312499999999765
40
0.374999999999764
40
0.374999999999764
40
0.49999999999983
40
0.49999999999983
40
0.624999999999895
40
0.624999999999895
40
0.749999999999961
40
0.749999999999961
40
0.81249999999995
40
0.81249999999995
40
0.874999999999939
40
0.874999999999939
40
1
40
1
40
1
40
1
41
1
10
12.2304700407542
20
-3.40479715624801
30
0
41
1
10
12.2544273509099
20
-3.42942868053279
30
0
41
1
10
12.2819364650664
20
-3.45019916946632
30
0
41
1
10
12.3210855919958
20
-3.47081737958655
30
0
41
1
10
12.3291883957359
20
-3.47467751262923
30
0
41
1
10
12.345613838774
20
-3.481693667558
30
0
41
1
10
12.3539634597686
20
-3.48486662455048
30
0
41
1
10
12.3794218630341
20
-3.49337315279067
30
0
41
1
10
12.3969372316665
20
-3.49770182306233
30
0
41
1
10
12.4331134141607
20
-3.50347500616363
30
0
41
1
10
12.4519523946451
20
-3.50489603161759
30
0
41
1
10
12.4893066768308
20
-3.50448860198614
30
0
41
1
10
12.5079613024688
20
-3.5027108727723
30
0
41
1
10
12.5359014160238
20
-3.49758411742533
30
0
41
1
10
12.5452078017597
20
-3.49546307771439
30
0
41
1
10
12.5638049654687
20
-3.49035046945497
30
0
41
1
10
12.5730048927998
20
-3.48738029165693
30
0
41
1
10
12.5999905854067
20
-3.47735026484909
30
0
41
1
10
12.617303179161
20
-3.46914278518457
30
0
41
1
10
12.6339292261822
20
-3.45939558649903
30
0
0
SPLINE
5
108
100
AcDbEntity
8
1
62
256
6
ByLayer
370
18
48
1
60
0
100
AcDbSpline
70
4
71
3
72
17
73
13
40
0
40
0
40
0
40
0
40
0.250000000000037
40
0.250000000000037
40
0.500000000000074
40
0.500000000000074
40
0.562500000000051
40
0.562500000000051
40
0.625000000000028
40
0.750000000000042
40
0.750000000000042
40
1
40
1
40
1
40
1
41
1
10
12.2304700407542
20
-3.40479715624801
30
0
41
1
10
12.2023046553964
20
-3.37583913179034
30
0
41
1
10
12.1720780944515
20
-3.34898358706286
30
0
41
1
10
12.1072740131998
20
-3.29949478979225
30
0
41
1
10
12.0727030317206
20
-3.27685723597233
30
0
41
1
10
12.0263408484433
20
-3.25142505077162
30
0
41
1
10
12.016887046398
20
-3.2464720801961
30
0
41
1
10
11.9977776127003
20
-3.23693088651464
30
0
41
1
10
11.9688143735347
20
-3.22316463968661
30
0
41
1
10
11.93893861333
20
-3.21103756161077
30
0
41
1
10
11.8779017245086
20
-3.18902360448607
30
0
41
1
10
11.8355105338538
20
-3.17731003019486
30
0
41
1
10
11.7910936299635
20
-3.16895246445907
30
0
0
SPLINE
5
109
100
AcDbEntity
8
1
62
256
6
ByLayer
370
18
48
1
60
0
100
AcDbSpline
70
4
71
3
72
26
73
22
40
0
40
0
40
0
40
0
40
0.250000000000242
40
0.250000000000242
40
0.31250000000028
40
0.31250000000028
40
0.375000000000319
40
0.375000000000319
40
0.500000000000323
40
0.500000000000323
40
0.562500000000296
40
0.562500000000296
40
0.62500000000027
40
0.62500000000027
40
0.750000000000189
40
0.750000000000189
40
0.812500000000138
40
0.812500000000138
40
0.875000000000088
40
0.875000000000088
40
1
40
1
40
1
40
1
41
1
10
13.3644477767314
20
-2.07937649770608
30
0
41
1
10
13.3969293699361
20
-2.07043375870617
30
0
41
1
10
13.4278160263189
20
-2.0567021604183
30
0
41
1
10
13.4641508539088
20
-2.03304986698828
30
0
41
1
10
13.4713297940112
20
-2.02796403493238
30
0
41
1
10
13.4852117311476
20
-2.01726753733558
30
0
41
1
10
13.491933931034
20
-2.0116479272304
30
0
41
1
10
13.5114390628961
20
-1.99397403150857
30
0
41
1
10
13.5235651452234
20
-1.98111031227606
30
0
41
1
10
13.5403417433362
20
-1.9600955830272
30
0
41
1
10
13.5456974537802
20
-1.95280283876832
30
0
41
1
10
13.5559039026234
20
-1.93760614160308
30
0
41
1
10
13.5607144494913
20
-1.92975569887051
30
0
41
1
10
13.5740768295256
20
-1.90575830099735
30
0
41
1
10
13.5816492406318
20
-1.88904802780883
30
0
41
1
10
13.5909363164384
20
-1.86288503857261
30
0
41
1
10
13.5936850681697
20
-1.85398019825573
30
0
41
1
10
13.598454030691
20
-1.8357852979025
30
0
41
1
10
13.6004668620916
20
-1.82649912710917
30
0
41
1
10
13.6052559203004
20
-1.79869580501182
30
0
41
1
10
13.606852336587
20
-1.78002348144926
30
0
41
1
10
13.606852336587
20
-1.76121452815926
30
0
0
SPLINE
5
10A
100
AcDbEntity
8
1
62
256
6
ByLayer
370
18
48
1
60
0
100
AcDbSpline
70
4
71
3
72
34
73
30
40
0
40
0
40
0
40
0
40
0.125000000000057
40
0.125000000000057
40
0.187500000000072
40
0.187500000000072
40
0.218750000000068
40
0.218750000000068
40
0.250000000000064
40
0.250000000000064
40
0.375000000000058
40
0.375000000000058
40
0.406250000000047
40
0.406250000000047
40
0.437500000000036
40
0.500000000000032
40
0.562500000000028
40
0.562500000000028
40
0.625000000000024
40
0.625000000000024
40
0.68750000000002
40
0.68750000000002
40
0.750000000000016
40
0.750000000000016
40
0.875000000000011
40
0.875000000000011
40
0.937500000000006
40
0.937500000000006
40
1
40
1
40
1
40
1
41
1
10
13.3644477767313
20
-2.07937649770608
30
0
41
1
10
13.3155498891714
20
-2.0928389237435
30
0
41
1
10
13.2679590632828
20
-2.11073318023381
30
0
41
1
10
13.1984081230776
20
-2.14465723565485
30
0
41
1
10
13.1755317374838
20
-2.15715467438284
30
0
41
1
10
13.1416770591568
20
-2.17784510633143
30
0
41
1
10
13.1304437478296
20
-2.1850841746197
30
0
41
1
10
13.1082517403123
20
-2.20016932394259
30
0
41
1
10
13.0973283662331
20
-2.20798953211872
30
0
41
1
10
13.0435727714116
20
-2.24850051865036
30
0
41
1
10
13.0032874814413
20
-2.28535968518173
30
0
41
1
10
12.9566381921069
20
-2.33791218592751
30
0
41
1
10
12.9474869105144
20
-2.34876768036006
30
0
41
1
10
12.9298597779979
20
-2.37080429571944
30
0
41
1
10
12.9043207853525
20
-2.40446934268974
30
0
41
1
10
12.866211333733
20
-2.46359697199023
30
0
41
1
10
12.8405077455047
20
-2.51414439593575
30
0
41
1
10
12.8172917992897
20
-2.56637763454759
30
0
41
1
10
12.807207185442
20
-2.5927083944643
30
0
41
1
10
12.7898829749097
20
-2.64573339807333
30
0
41
1
10
12.7826400764712
20
-2.67243706380398
30
0
41
1
10
12.7708782720071
20
-2.72623923825961
30
0
41
1
10
12.7663641324259
20
-2.75343092523627
30
0
41
1
10
12.7570145220517
20
-2.8337080490536
30
0
41
1
10
12.756144249733
20
-2.88613677486569
30
0
41
1
10
12.7619812045397
20
-2.9636210870454
30
0
41
1
10
12.7651462059809
20
-2.98933280869593
30
0
41
1
10
12.7737821622169
20
-3.0399573228816
30
0
41
1
10
12.7792404556561
20
-3.06485367911924
30
0
41
1
10
12.7858033701719
20
-3.08936686613782
30
0
0
SPLINE
5
10B
100
AcDbEntity
8
1
62
256
6
ByLayer
370
18
48
1
60
0
100
AcDbSpline
70
4
71
3
72
24
73
20
40
0
40
0
40
0
40
0
40
0.0625000000000014
40
0.0625000000000014
40
0.125000000000003
40
0.125000000000003
40
0.249999999999944
40
0.249999999999944
40
0.312499999999943
40
0.312499999999943
40
0.374999999999941
40
0.374999999999941
40
0.499999999999952
40
0.499999999999952
40
0.624999999999964
40
0.624999999999964
40
0.749999999999976
40
0.749999999999976
40
1
40
1
40
1
40
1
41
1
10
12.6339292261822
20
-3.45939558649903
30
0
41
1
10
12.6420309464001
20
-3.45464586598166
30
0
41
1
10
12.6500021458144
20
-3.44950431714571
30
0
41
1
10
12.665445402288
20
-3.43856984974528
30
0
41
1
10
12.6728700317238
20
-3.4328153559342
30
0
41
1
10
12.6942850882147
20
-3.41472158456429
30
0
41
1
10
12.7074225761121
20
-3.40155763349512
30
0
41
1
10
12.7254328145633
20
-3.38017490099904
30
0
41
1
10
12.7311576910428
20
-3.37275764907977
30
0
41
1
10
12.7418232500856
20
-3.35767154699945
30
0
41
1
10
12.7467948711017
20
-3.34996869667603
30
0
41
1
10
12.7606675669473
20
-3.32640108970952
30
0
41
1
10
12.7685330543155
20
-3.31008008422563
30
0
41
1
10
12.781542664147
20
-3.27625217820085
30
0
41
1
10
12.7865173974889
20
-3.25918792305524
30
0
41
1
10
12.7936763290703
20
-3.22481752591889
30
0
41
1
10
12.7958616435056
20
-3.20745158690727
30
0
41
1
10
12.7982915466331
20
-3.15538397228929
30
0
41
1
10
12.7944916283559
20
-3.12181843886771
30
0
41
1
10
12.7858033701719
20
-3.08936686613782
30
0
0
SPLINE
5
10C
100
AcDbEntity
8
1
62
256
6
ByLayer
370
18
48
1
60
0
100
AcDbSpline
70
4
71
3
72
34
73
30
40
0
40
0
40
0
40
0
40
0.125000000000007
40
0.125000000000007
40
0.187500000000008
40
0.187500000000008
40
0.21875000000001
40
0.21875000000001
40
0.250000000000012
40
0.250000000000012
40
0.375000000000009
40
0.375000000000009
40
0.40625000000001
40
0.40625000000001
40
0.437500000000011
40
0.500000000000009
40
0.562500000000008
40
0.562500000000008
40
0.625000000000006
40
0.625000000000006
40
0.687500000000005
40
0.687500000000005
40
0.750000000000003
40
0.750000000000003
40
0.875
40
0.875
40
0.9375
40
0.9375
40
1
40
1
40
1
40
1
41
1
10
10.4909013030022
20
-3.08936686613782
30
0
41
1
10
10.5040178748083
20
-3.04037506882693
30
0
41
1
10
10.5126501524777
20
-2.99026942974021
30
0
41
1
10
10.5185602969868
20
-2.91311215569857
30
0
41
1
10
10.5193488602227
20
-2.88705657804184
30
0
41
1
10
10.5186218272271
20
-2.84738663354992
30
0
41
1
10
10.5180581374337
20
-2.8340347196289
30
0
41
1
10
10.5162682134749
20
-2.80726079225988
30
0
41
1
10
10.5150464350599
20
-2.79388233821913
30
0
41
1
10
10.5072856206415
20
-2.72701998625379
30
0
41
1
10
10.4958624883075
20
-2.67362509165943
30
0
41
1
10
10.4741196868508
20
-2.60680315270886
30
0
41
1
10
10.4693831915407
20
-2.59341833493528
30
0
41
1
10
10.4592876881402
20
-2.56706669116585
30
0
41
1
10
10.4431620512565
20
-2.52800853519938
30
0
41
1
10
10.4114276962559
20
-2.46522846153917
30
0
41
1
10
10.3808215329444
20
-2.41748984558197
30
0
41
1
10
10.3475026441379
20
-2.3710447966109
30
0
41
1
10
10.3298880166381
20
-2.34902813289489
30
0
41
1
10
10.2929063178124
20
-2.30726531113473
30
0
41
1
10
10.2735327862576
20
-2.28751153682745
30
0
41
1
10
10.2330674314849
20
-2.2501542228305
30
0
41
1
10
10.2118928136956
20
-2.23250766876072
30
0
41
1
10
10.147368130717
20
-2.18384148528409
30
0
41
1
10
10.1025791817561
20
-2.15657467978514
30
0
41
1
10
10.0327831315586
20
-2.12242208543728
30
0
41
1
10
10.0090014913244
20
-2.11214865420698
30
0
41
1
10
9.96096118158374
20
-2.09399514696253
30
0
41
1
10
9.9367230963598
20
-2.08611246163491
30
0
41
1
10
9.9122568964427
20
-2.07937649770608
30
0
0
SPLINE
5
10D
100
AcDbEntity
8
1
62
256
6
ByLayer
370
18
48
1
60
0
100
AcDbSpline
70
4
71
3
72
26
73
22
40
0
40
0
40
0
40
0
40
0.124999999999998
40
0.124999999999998
40
0.249999999999997
40
0.249999999999997
40
0.312499999999994
40
0.312499999999994
40
0.374999999999991
40
0.374999999999991
40
0.500000000000035
40
0.500000000000035
40
0.562500000000058
40
0.562500000000058
40
0.62500000000008
40
0.62500000000008
40
0.750000000000054
40
0.750000000000054
40
0.875000000000027
40
0.875000000000027
40
1
40
1
40
1
40
1
41
1
10
9.66985233658704
20
-1.76121452815926
30
0
41
1
10
9.66985233658704
20
-1.77995661203892
30
0
41
1
10
9.67148954108245
20
-1.79900455228025
30
0
41
1
10
9.67786705590407
20
-1.83588507401359
30
0
41
1
10
9.68257954492151
20
-1.85386136563858
30
0
41
1
10
9.69188695048388
20
-1.88014175872007
30
0
41
1
10
9.69538481149172
20
-1.8888281387222
30
0
41
1
10
9.70301820635095
20
-1.90569707577524
30
0
41
1
10
9.70715323732216
20
-1.9138919236751
30
0
41
1
10
9.72047000717129
20
-1.93778777997875
30
0
41
1
10
9.73055777409365
20
-1.9528044650838
30
0
41
1
10
9.74744762950081
20
-1.97399006756765
30
0
41
1
10
9.75335971920259
20
-1.98080644672834
30
0
41
1
10
9.76555496474415
20
-1.99377411766997
30
0
41
1
10
9.77186103980171
20
-1.99995491093046
30
0
41
1
10
9.79137598381118
20
-2.01762361036057
30
0
41
1
10
9.80517820892499
20
-2.02824279913031
30
0
41
1
10
9.83430680334712
20
-2.04721590910538
30
0
41
1
10
9.84937504240082
20
-2.05539568696383
30
0
41
1
10
9.88023458888716
20
-2.06923654798319
30
0
41
1
10
9.89605744709891
20
-2.07491651181468
30
0
41
1
10
9.9122568964427
20
-2.07937649770608
30
0
0
SPLINE
5
10E
100
AcDbEntity
8
1
62
256
6
ByLayer
370
18
48
1
60
0
100
AcDbSpline
70
4
71
3
72
24
73
20
40
0
40
0
40
0
40
0
40
0.0625000000000071
40
0.0625000000000071
40
0.125000000000014
40
0.125000000000014
40
0.249999999999949
40
0.249999999999949
40
0.312499999999951
40
0.312499999999951
40
0.374999999999954
40
0.374999999999954
40
0.499999999999963
40
0.499999999999963
40
0.624999999999973
40
0.624999999999973
40
0.749999999999982
40
0.749999999999982
40
1
40
1
40
1
40
1
41
1
10
10.6427754469918
20
-3.45939558649903
30
0
41
1
10
10.6346737267739
20
-3.45464586598166
30
0
41
1
10
10.6267025273597
20
-3.44950431714574
30
0
41
1
10
10.6112592708861
20
-3.43856984974528
30
0
41
1
10
10.6038346414503
20
-3.4328153559342
30
0
41
1
10
10.5824195849593
20
-3.41472158456429
30
0
41
1
10
10.5692820970619
20
-3.40155763349512
30
0
41
1
10
10.5512718586108
20
-3.38017490099904
30
0
41
1
10
10.5455469821312
20
-3.3727576490798
30
0
41
1
10
10.5348814230885
20
-3.35767154699945
30
0
41
1
10
10.5299098020723
20
-3.34996869667606
30
0
41
1
10
10.5160371062268
20
-3.32640108970952
30
0
41
1
10
10.5081716188586
20
-3.3100800842256
30
0
41
1
10
10.4951620090271
20
-3.27625217820085
30
0
41
1
10
10.4901872756852
20
-3.25918792305521
30
0
41
1
10
10.4830283441037
20
-3.22481752591889
30
0
41
1
10
10.4808430296684
20
-3.20745158690727
30
0
41
1
10
10.4784131265409
20
-3.15538397228929
30
0
41
1
10
10.4822130448182
20
-3.12181843886771
30
0
41
1
10
10.4909013030022
20
-3.08936686613782
30
0
0
SPLINE
5
10F
100
AcDbEntity
8
1
62
256
6
ByLayer
370
18
48
1
60
0
100
AcDbSpline
70
4
71
3
72
34
73
30
40
0
40
0
40
0
40
0
40
0.125000000000057
40
0.125000000000057
40
0.187500000000072
40
0.187500000000072
40
0.218750000000068
40
0.218750000000068
40
0.250000000000064
40
0.250000000000064
40
0.375000000000058
40
0.375000000000058
40
0.406250000000047
40
0.406250000000047
40
0.437500000000036
40
0.500000000000032
40
0.562500000000028
40
0.562500000000028
40
0.625000000000024
40
0.625000000000024
40
0.68750000000002
40
0.68750000000002
40
0.750000000000016
40
0.750000000000016
40
0.875000000000011
40
0.875000000000011
40
0.937500000000006
40
0.937500000000006
40
1
40
1
40
1
40
1
41
1
10
9.9122568964427
20
-1.44305255861241
30
0
41
1
10
9.96115478400262
20
-1.42959013257502
30
0
41
1
10
10.0087456098913
20
-1.41169587608468
30
0
41
1
10
10.0782965500964
20
-1.37777182066364
30
0
41
1
10
10.1011729356903
20
-1.36527438193568
30
0
41
1
10
10.1350276140173
20
-1.34458394998708
30
0
41
1
10
10.1462609253446
20
-1.33734488169881
30
0
41
1
10
10.1684529328618
20
-1.32225973237593
30
0
41
1
10
10.179376306941
20
-1.3144395241998
30
0
41
1
10
10.2331319017625
20
-1.27392853766816
30
0
41
1
10
10.2734171917327
20
-1.23706937113676
30
0
41
1
10
10.3200664810672
20
-1.18451687039101
30
0
41
1
10
10.3292177626597
20
-1.17366137595843
30
0
41
1
10
10.3468448951762
20
-1.15162476059908
30
0
41
1
10
10.3723838878216
20
-1.11795971362878
30
0
41
1
10
10.4104933394411
20
-1.05883208432829
30
0
41
1
10
10.4361969276694
20
-1.00828466038277
30
0
41
1
10
10.4594128738844
20
-0.956051421770894
30
0
41
1
10
10.469497487732
20
-0.929720661854191
30
0
41
1
10
10.4868216982644
20
-0.876695658245154
30
0
41
1
10
10.4940645967029
20
-0.849991992514504
30
0
41
1
10
10.505826401167
20
-0.796189818058906
30
0
41
1
10
10.5103405407482
20
-0.768998131082213
30
0
41
1
10
10.5196901511224
20
-0.688721007264917
30
0
41
1
10
10.520560423441
20
-0.636292281452796
30
0
41
1
10
10.5147234686343
20
-0.55880796927309
30
0
41
1
10
10.5115584671931
20
-0.533096247622581
30
0
41
1
10
10.5029225109571
20
-0.48247173343691
30
0
41
1
10
10.497464217518
20
-0.457575377199276
30
0
41
1
10
10.4909013030022
20
-0.433062190180664
30
0
0
SPLINE
5
110
100
AcDbEntity
8
1
62
256
6
ByLayer
370
18
48
1
60
0
100
AcDbSpline
70
4
71
3
72
24
73
20
40
0
40
0
40
0
40
0
40
0.0625000000000014
40
0.0625000000000014
40
0.125000000000003
40
0.125000000000003
40
0.249999999999944
40
0.249999999999944
40
0.312499999999943
40
0.312499999999943
40
0.374999999999941
40
0.374999999999941
40
0.499999999999952
40
0.499999999999952
40
0.624999999999964
40
0.624999999999964
40
0.749999999999976
40
0.749999999999976
40
1
40
1
40
1
40
1
41
1
10
10.6427754469918
20
-0.0630334698194872
30
0
41
1
10
10.6346737267739
20
-0.0677831903368258
30
0
41
1
10
10.6267025273597
20
-0.0729247391727768
30
0
41
1
10
10.6112592708861
20
-0.0838592065732371
30
0
41
1
10
10.6038346414503
20
-0.0896137003843194
30
0
41
1
10
10.5824195849594
20
-0.107707471754225
30
0
41
1
10
10.5692820970619
20
-0.12087142282337
30
0
41
1
10
10.5512718586108
20
-0.142254155319478
30
0
41
1
10
10.5455469821312
20
-0.149671407238714
30
0
41
1
10
10.5348814230885
20
-0.164757509319031
30
0
41
1
10
10.5299098020723
20
-0.172460359642457
30
0
41
1
10
10.5160371062268
20
-0.196027966608966
30
0
41
1
10
10.5081716188586
20
-0.212348972092883
30
0
41
1
10
10.4951620090271
20
-0.246176878117666
30
0
41
1
10
10.4901872756852
20
-0.263241133263279
30
0
41
1
10
10.4830283441037
20
-0.297611530399621
30
0
41
1
10
10.4808430296684
20
-0.314977469411218
30
0
41
1
10
10.478413126541
20
-0.367045084029229
30
0
41
1
10
10.4822130448182
20
-0.400610617450809
30
0
41
1
10
10.4909013030022
20
-0.433062190180664
30
0
0
SPLINE
5
111
100
AcDbEntity
8
1
62
256
6
ByLayer
370
18
48
1
60
0
100
AcDbSpline
70
4
71
3
72
26
73
22
40
0
40
0
40
0
40
0
40
0.250000000000242
40
0.250000000000242
40
0.31250000000028
40
0.31250000000028
40
0.375000000000319
40
0.375000000000319
40
0.500000000000323
40
0.500000000000323
40
0.562500000000296
40
0.562500000000296
40
0.62500000000027
40
0.62500000000027
40
0.750000000000189
40
0.750000000000189
40
0.812500000000138
40
0.812500000000138
40
0.875000000000088
40
0.875000000000088
40
1
40
1
40
1
40
1
41
1
10
9.91225689644267
20
-1.44305255861241
30
0
41
1
10
9.87977530323798
20
-1.45199529761231
30
0
41
1
10
9.84888864685513
20
-1.46572689590019
30
0
41
1
10
9.81255381926525
20
-1.48937918933024
30
0
41
1
10
9.80537487916286
20
-1.49446502138611
30
0
41
1
10
9.79149294202654
20
-1.50516151898293
30
0
41
1
10
9.78477074214013
20
-1.51078112908812
30
0
41
1
10
9.76526561027802
20
-1.52845502480994
30
0
41
1
10
9.75313952795057
20
-1.54131874404243
30
0
41
1
10
9.73636292983781
20
-1.56233347329132
30
0
41
1
10
9.7310072193938
20
-1.56962621755017
30
0
41
1
10
9.72080077055062
20
-1.5848229147154
30
0
41
1
10
9.71599022368275
20
-1.59267335744798
30
0
41
1
10
9.70262784364849
20
-1.61667075532114
30
0
41
1
10
9.69505543254229
20
-1.63338102850966
30
0
41
1
10
9.68576835673568
20
-1.65954401774587
30
0
41
1
10
9.68301960500435
20
-1.66844885806279
30
0
41
1
10
9.67825064248319
20
-1.68664375841598
30
0
41
1
10
9.6762378110825
20
-1.69592992920934
30
0
41
1
10
9.67144875287357
20
-1.7237332513067
30
0
41
1
10
9.66985233658698
20
-1.74240557486922
30
0
41
1
10
9.66985233658704
20
-1.76121452815926
30
0
0
SPLINE
5
112
100
AcDbEntity
8
1
62
256
6
ByLayer
370
18
48
1
60
0
100
AcDbSpline
70
4
71
2
72
6
73
3
40
0
40
0
40
0
40
1
40
1
40
1
41
1.03186391735993
10
33.7883423346376
20
-10.8657209398979
30
0
41
0.729637973226922
10
33.7883423346377
20
-11.0656524048931
30
0
41
1.03186391735993
10
33.5883423346377
20
-11.0656524048931
30
0
0
SPLINE
5
113
100
AcDbEntity
8
1
62
256
6
ByLayer
370
18
48
1
60
0
100
AcDbSpline
70
4
71
2
72
6
73
3
40
0
40
0
40
0
40
1
40
1
40
1
41
1.03186391735993
10
33.5883423346377
20
-11.0656524048931
30
0
41
1.03138264657361
10
33.4661312814433
20
-11.0656524048931
30
0
41
1.03186391735993
10
33.3441481764983
20
-11.0581941552125
30
0
0
SPLINE
5
114
100
AcDbEntity
8
1
62
256
6
ByLayer
370
18
48
1
60
0
100
AcDbSpline
70
4
71
2
72
6
73
3
40
0
40
0
40
0
40
1
40
1
40
1
41
1.03186391735993
10
33.5883423346377
20
-8.06037988489421
30
0
41
0.729637973226922
10
33.7883423346376
20
-8.0603798848942
30
0
41
1.03186391735993
10
33.7883423346376
20
-8.26031134988929
30
0
0
SPLINE
5
115
100
AcDbEntity
8
1
62
256
6
ByLayer
370
18
48
1
60
0
100
AcDbSpline
70
4
71
2
72
6
73
3
40
0
40
0
40
0
40
1
40
1
40
1
41
1.03186391735993
10
33.3441481764983
20
-8.06783813457478
30
0
41
1.03138264657361
10
33.4661312814433
20
-8.06037988489423
30
0
41
1.03186391735993
10
33.5883423346377
20
-8.06037988489421
30
0
0
SPLINE
5
116
100
AcDbEntity
8
1
62
256
6
ByLayer
370
18
48
1
60
0
100
AcDbSpline
70
4
71
3
72
8
73
4
40
0
40
0
40
0
40
0
40
1
40
1
40
1
40
1
41
1
10
31.2080217529783
20
-8.13024429878544
30
0
41
1
10
31.2208172061491
20
-8.12708028596143
30
0
41
1
10
31.2339134786689
20
-8.12524013647598
30
0
41
1
10
31.2470853473641
20
-8.1247400667805
30
0
0
SPLINE
5
117
100
AcDbEntity
8
1
62
256
6
ByLayer
370
18
48
1
60
0
100
AcDbSpline
70
4
71
3
72
8
73
4
40
0
40
0
40
0
40
0
40
1
40
1
40
1
40
1
41
1
10
31.247085347371
20
-10.9728866670347
30
0
41
1
10
31.2339134636189
20
-10.9722650017806
30
0
41
1
10
31.2208172209433
20
-10.9703039598106
30
0
41
1
10
31.2080217529807
20
-10.9670218231884
30
0
0
SPLINE
5
118
100
AcDbEntity
8
1
62
256
6
ByLayer
370
18
48
1
60
0
100
AcDbSpline
70
4
71
3
72
8
73
4
40
0
40
0
40
0
40
0
40
1
40
1
40
1
40
1
41
1
10
25.8781153365873
20
-10.8328119507214
30
0
41
1
10
25.9815276757931
20
-10.8328120801402
30
0
41
1
10
26.0849400082227
20
-10.8328122191655
30
0
41
1
10
26.1883523365871
20
-10.8328123677973
30
0
0
SPLINE
5
119
100
AcDbEntity
8
1
62
256
6
ByLayer
370
18
48
1
60
0
100
AcDbSpline
70
4
71
3
72
8
73
4
40
0
40
0
40
0
40
0
40
1
40
1
40
1
40
1
41
1
10
26.1883523365871
20
-10.8328123677973
30
0
41
1
10
27.2966856730364
20
-10.8328139607753
30
0
41
1
10
28.4050190079733
20
-10.8328166571129
30
0
41
1
10
29.5133523365871
20
-10.8328204570263
30
0
0
SPLINE
5
11A
100
AcDbEntity
8
1
62
256
6
ByLayer
370
18
48
1
60
0
100
AcDbSpline
70
4
71
3
72
8
73
4
40
0
40
0
40
0
40
0
40
1
40
1
40
1
40
1
41
1
10
30.6849083365786
20
-10.8328248846776
30
0
41
1
10
30.2943898618117
20
-10.8328232718014
30
0
41
1
10
29.9038712009107
20
-10.8328217959176
30
0
41
1
10
29.5133523365871
20
-10.8328204570263
30
0
0
SPLINE
5
11B
100
AcDbEntity
8
SK1
62
256
6
ByLayer
370
18
48
1
60
0
100
AcDbSpline
70
4
71
3
72
25
73
21
40
0
40
0
40
0
40
0
40
0.124999999999915
40
0.156249999999903
40
0.156249999999903
40
0.187499999999892
40
0.187499999999892
40
0.249999999999887
40
0.249999999999887
40
0.3749999999999
40
0.3749999999999
40
0.437499999999908
40
0.437499999999908
40
0.499999999999917
40
0.499999999999917
40
0.624999999999933
40
0.624999999999933
40
0.749999999999949
40
0.749999999999949
40
1
40
1
40
1
40
1
41
1
10
-1.15848405595546
20
9.93519374837726
30
0
41
1
10
-1.11383617417914
20
9.88832509390085
30
0
41
1
10
-1.05524278752154
20
9.83391988721991
30
0
41
1
10
-0.993603233313536
20
9.78459215107216
30
0
41
1
10
-0.96871061501696
20
9.76526750358701
30
0
41
1
10
-0.956144378282204
20
9.75580812954377
30
0
41
1
10
-0.918381612120356
20
9.72823331859018
30
0
41
1
10
-0.893030229723763
20
9.7108484014349
30
0
41
1
10
-0.816579180083295
20
9.66151358173022
30
0
41
1
10
-0.765085003106151
20
9.63237785175312
30
0
41
1
10
-0.687518866931867
20
9.59374146850817
30
0
41
1
10
-0.661608641518228
20
9.58170882576582
30
0
41
1
10
-0.609749971182623
20
9.55925739853109
30
0
41
1
10
-0.583755571150277
20
9.54882175628438
30
0
41
1
10
-0.50611706125693
20
9.51993877701003
30
0
41
1
10
-0.455558887983443
20
9.5041647854878
30
0
41
1
10
-0.357024620187019
20
9.47829581407834
30
0
41
1
10
-0.309047731970907
20
9.46820550987962
30
0
41
1
10
-0.169237832182347
20
9.44495793212434
30
0
41
1
10
-0.0815137724967201
20
9.43878547184073
30
0
41
1
10
-2.84E-14
20
9.43878547184073
30
0
0
SPLINE
5
11C
100
AcDbEntity
8
SK1
62
256
6
ByLayer
370
18
48
1
60
0
100
AcDbSpline
70
4
71
3
72
26
73
22
40
0
40
0
40
0
40
0
40
0.125000000000005
40
0.125000000000005
40
0.25000000000001
40
0.25000000000001
40
0.375000000000015
40
0.375000000000015
40
0.437500000000018
40
0.437500000000018
40
0.50000000000002
40
0.50000000000002
40
0.625000000000012
40
0.625000000000012
40
0.750000000000003
40
0.750000000000003
40
0.812499999999997
40
0.812499999999997
40
0.874999999999991
40
0.874999999999991
40
1
40
1
40
1
40
1
41
1
10
1.137E-13
20
-10.511490355109
30
0
41
1
10
-0.0347034533464239
20
-10.4699642014921
30
0
41
1
10
-0.0713091607816523
20
-10.4304250537795
30
0
41
1
10
-0.148478126233272
20
-10.3550709600858
30
0
41
1
10
-0.189040949335976
20
-10.3192584124188
30
0
41
1
10
-0.27439051618893
20
-10.2513700787824
30
0
41
1
10
-0.319175977737188
20
-10.2192944327844
30
0
41
1
10
-0.389825365306819
20
-10.1741554964937
30
0
41
1
10
-0.413954888566877
20
-10.1596066351099
30
0
41
1
10
-0.463441439316455
20
-10.1315546318994
30
0
41
1
10
-0.488830338906382
20
-10.1180355871387
30
0
41
1
10
-0.566756087861734
20
-10.0792510820771
30
0
41
1
10
-0.620472932967033
20
-10.0560300956677
30
0
41
1
10
-0.731633084274506
20
-10.0151989269342
30
0
41
1
10
-0.789075248673896
20
-9.99758651674023
30
0
41
1
10
-0.878261206954562
20
-9.97583015175323
30
0
41
1
10
-0.908494615316783
20
-9.9693573519487
30
0
41
1
10
-0.970023286550855
20
-9.95807953471606
30
0
41
1
10
-1.00137942517293
20
-9.95326725665433
30
0
41
1
10
-1.09670794283366
20
-9.94158818208265
30
0
41
1
10
-1.16154936189432
20
-9.9375
30
0
41
1
10
-1.2277231807663
20
-9.9375
30
0
0
LINE
5
7F
100
AcDbEntity
8
80
62
256
6
ByLayer
370
18
48
1
60
0
100
AcDbLine
10
0
20
0
30
0
11
-5
21
0
31
0
39
0
210
0
220
0
230
1
0
LINE
5
80
100
AcDbEntity
8
81
62
256
6
ByLayer
370
18
48
1
60
0
100
AcDbLine
10
33.788352
20
-11.0625
30
0
11
38.788352
21
-11.0625
31
0
39
0
210
0
220
0
230
1
0
LINE
5
81
100
AcDbEntity
8
1
62
256
6
ByLayer
370
18
48
1
60
0
100
AcDbLine
10
0
20
9.438785
30
0
11
0
21
-10.51149
31
0
39
0
210
0
220
0
230
1
0
LINE
5
82
100
AcDbEntity
8
1
62
256
6
ByLayer
370
13
48
1
60
0
100
AcDbLine
10
15.538352
20
-11.269354
30
0
11
15.538352
21
-11.150717
31
0
39
0
210
0
220
0
230
1
0
LINE
5
83
100
AcDbEntity
8
1
62
256
6
ByLayer
370
13
48
1
60
0
100
AcDbLine
10
15.338352
20
-11.269354
30
0
11
15.338352
21
-11.150717
31
0
39
0
210
0
220
0
230
1
0
LINE
5
84
100
AcDbEntity
8
1
62
256
6
ByLayer
370
18
48
1
60
0
100
AcDbLine
10
27.687399
20
-11.064869
30
0
11
27.685214
21
-10.832802
31
0
39
0
210
0
220
0
230
1
0
LINE
5
85
100
AcDbEntity
8
1
62
256
6
ByLayer
370
18
48
1
60
0
100
AcDbLine
10
32.988352
20
-11.057777
30
0
11
32.988352
21
-11.036437
31
0
39
0
210
0
220
0
230
1
0
LINE
5
86
100
AcDbEntity
8
1
62
256
6
ByLayer
370
18
48
1
60
0
100
AcDbLine
10
28.605741
20
-11.057777
30
0
11
28.603622
21
-10.832813
31
0
39
0
210
0
220
0
230
1
0
LINE
5
87
100
AcDbEntity
8
1
62
256
6
ByLayer
370
18
48
1
60
0
100
AcDbLine
10
0
20
9.438785
30
0
11
0.492292
21
9.438785
31
0
39
0
210
0
220
0
230
1
0
LINE
5
88
100
AcDbEntity
8
1
62
256
6
ByLayer
370
18
48
1
60
0
100
AcDbLine
10
27.045119
20
-10.54998
30
0
11
26.952046
21
-10.764959
31
0
39
0
210
0
220
0
230
1
0
LINE
5
89
100
AcDbEntity
8
1
62
256
6
ByLayer
370
18
48
1
60
0
100
AcDbLine
10
32.988352
20
-11.057777
30
0
11
32.988352
21
-12.231549
31
0
39
0
210
0
220
0
230
1
0
LINE
5
8A
100
AcDbEntity
8
1
62
256
6
ByLayer
370
18
48
1
60
0
100
AcDbLine
10
32.988352
20
-11.057777
30
0
11
28.605741
21
-11.057777
31
0
39
0
210
0
220
0
230
1
0
LINE
5
8B
100
AcDbEntity
8
1
62
256
6
ByLayer
370
18
48
1
60
0
100
AcDbLine
10
27.687399
20
-11.064869
30
0
11
22.879519
21
-11.064869
31
0
39
0
210
0
220
0
230
1
0
LINE
5
8C
100
AcDbEntity
8
1
62
256
6
ByLayer
370
18
48
1
60
0
100
AcDbLine
10
15.538352
20
-11.269354
30
0
11
15.338352
21
-11.269354
31
0
39
0
210
0
220
0
230
1
0
LINE
5
8D
100
AcDbEntity
8
1
62
256
6
ByLayer
370
18
48
1
60
0
100
AcDbLine
10
0.317758
20
-11.12339
30
0
11
1.751454
21
-16.474014
31
0
39
0
210
0
220
0
230
1
0
LINE
5
8E
100
AcDbEntity
8
1
62
256
6
ByLayer
370
18
48
1
60
0
100
AcDbLine
10
1.751454
20
-16.474014
30
0
11
26.129458
21
-16.474014
31
0
39
0
210
0
220
0
230
1
0
LINE
5
8F
100
AcDbEntity
8
1
62
256
6
ByLayer
370
18
48
1
60
0
100
AcDbLine
10
1.580808
20
-11.150719
30
0
11
2.116707
21
-11.150719
31
0
39
0
210
0
220
0
230
1
0
LINE
5
90
100
AcDbEntity
8
1
62
256
6
ByLayer
370
18
48
1
60
0
100
AcDbLine
10
0.492292
20
9.438785
30
0
11
2.116707
21
9.438785
31
0
39
0
210
0
220
0
230
1
0
LINE
5
91
100
AcDbEntity
8
1
62
256
6
ByLayer
370
13
48
1
60
0
100
AcDbLine
10
0.492292
20
-10.762094
30
0
11
0.492292
21
9.438785
31
0
39
0
210
0
220
0
230
1
0
LINE
5
92
100
AcDbEntity
8
1
62
256
6
ByLayer
370
18
48
1
60
0
100
AcDbLine
10
19.185977
20
-11.150719
30
0
11
22.041294
21
-11.150719
31
0
39
0
210
0
220
0
230
1
0
LINE
5
93
100
AcDbEntity
8
1
62
256
6
ByLayer
370
18
48
1
60
0
100
AcDbLine
10
24.038352
20
-8.653707
30
0
11
24.038352
21
-10.962837
31
0
39
0
210
0
220
0
230
1
0
LINE
5
94
100
AcDbEntity
8
1
62
256
6
ByLayer
370
13
48
1
60
0
100
AcDbLine
10
18.788352
20
-8.419783
30
0
11
18.788352
21
-9.315454
31
0
39
0
210
0
220
0
230
1
0
LINE
5
95
100
AcDbEntity
8
1
62
256
6
ByLayer
370
18
48
1
60
0
100
AcDbLine
10
8.624702
20
9.438785
30
0
11
17.188352
21
1.476038
31
0
39
0
210
0
220
0
230
1
0
LINE
5
96
100
AcDbEntity
8
1
62
256
6
ByLayer
370
18
48
1
60
0
100
AcDbLine
10
2.116707
20
9.438785
30
0
11
8.624702
21
9.438785
31
0
39
0
210
0
220
0
230
1
0
LINE
5
97
100
AcDbEntity
8
1
62
256
6
ByLayer
370
18
48
1
60
0
100
AcDbLine
10
2.116707
20
9.438785
30
0
11
2.116707
21
-11.150719
31
0
39
0
210
0
220
0
230
1
0
LINE
5
98
100
AcDbEntity
8
1
62
256
6
ByLayer
370
18
48
1
60
0
100
AcDbLine
10
19.185977
20
-11.150719
30
0
11
2.116707
21
-11.150719
31
0
39
0
210
0
220
0
230
1
0
LINE
5
99
100
AcDbEntity
8
1
62
256
6
ByLayer
370
18
48
1
60
0
100
AcDbLine
10
19.185977
20
-11.150719
30
0
11
19.185977
21
-9.315454
31
0
39
0
210
0
220
0
230
1
0
LINE
5
9A
100
AcDbEntity
8
1
62
256
6
ByLayer
370
18
48
1
60
0
100
AcDbLine
10
18.788352
20
-9.315454
30
0
11
19.185977
21
-9.315454
31
0
39
0
210
0
220
0
230
1
0
LINE
5
9B
100
AcDbEntity
8
1
62
256
6
ByLayer
370
18
48
1
60
0
100
AcDbLine
10
17.188352
20
-7.666597
30
0
11
17.188352
21
1.476038
31
0
39
0
210
0
220
0
230
1
0
LINE
5
9C
100
AcDbEntity
8
1
62
256
6
ByLayer
370
18
48
1
60
0
100
AcDbLine
10
33.344148
20
-11.058194
30
0
11
32.397363
21
-11.000306
31
0
39
0
210
0
220
0
230
1
0
LINE
5
9D
100
AcDbEntity
8
1
62
256
6
ByLayer
370
18
48
1
60
0
100
AcDbLine
10
32.397363
20
-8.125726
30
0
11
33.344148
21
-8.067838
31
0
39
0
210
0
220
0
230
1
0
LINE
5
9E
100
AcDbEntity
8
1
62
256
6
ByLayer
370
18
48
1
60
0
100
AcDbLine
10
33.788342
20
-8.260311
30
0
11
33.788342
21
-10.865721
31
0
39
0
210
0
220
0
230
1
0
LINE
5
9F
100
AcDbEntity
8
1
62
256
6
ByLayer
370
18
48
1
60
0
100
AcDbLine
10
32.397363
20
-11.000306
30
0
11
31.639925
21
-10.991427
31
0
39
0
210
0
220
0
230
1
0
LINE
5
A0
100
AcDbEntity
8
1
62
256
6
ByLayer
370
18
48
1
60
0
100
AcDbLine
10
32.397363
20
-11.000306
30
0
11
32.397363
21
-8.125726
31
0
39
0
210
0
220
0
230
1
0
LINE
5
A1
100
AcDbEntity
8
1
62
256
6
ByLayer
370
18
48
1
60
0
100
AcDbLine
10
31.639925
20
-8.109826
30
0
11
32.397363
21
-8.125726
31
0
39
0
210
0
220
0
230
1
0
LINE
5
A2
100
AcDbEntity
8
1
62
256
6
ByLayer
370
13
48
1
60
0
100
AcDbLine
10
27.458037
20
-9.346648
30
0
11
30.186059
21
-9.346648
31
0
39
0
210
0
220
0
230
1
0
LINE
5
A3
100
AcDbEntity
8
1
62
256
6
ByLayer
370
13
48
1
60
0
100
AcDbLine
10
30.969692
20
-9.547533
30
0
11
27.538134
21
-9.547533
31
0
39
0
210
0
220
0
230
1
0
LINE
5
A4
100
AcDbEntity
8
1
62
256
6
ByLayer
370
13
48
1
60
0
100
AcDbLine
10
30.186059
20
-9.741184
30
0
11
27.422449
21
-9.741184
31
0
39
0
210
0
220
0
230
1
0
LINE
5
A5
100
AcDbEntity
8
1
62
256
6
ByLayer
370
13
48
1
60
0
100
AcDbLine
10
27.450863
20
-9.342983
30
0
11
30.132766
21
-9.342983
31
0
39
0
210
0
220
0
230
1
0
LINE
5
A6
100
AcDbEntity
8
1
62
256
6
ByLayer
370
13
48
1
60
0
100
AcDbLine
10
27.415374
20
-9.744357
30
0
11
30.132766
21
-9.744357
31
0
39
0
210
0
220
0
230
1
0
LINE
5
A7
100
AcDbEntity
8
1
62
256
6
ByLayer
370
13
48
1
60
0
100
AcDbLine
10
27.344827
20
-9.289463
30
0
11
29.424604
21
-9.289463
31
0
39
0
210
0
220
0
230
1
0
LINE
5
A8
100
AcDbEntity
8
1
62
256
6
ByLayer
370
13
48
1
60
0
100
AcDbLine
10
27.322458
20
-9.79134
30
0
11
29.424604
21
-9.79134
31
0
39
0
210
0
220
0
230
1
0
LINE
5
A9
100
AcDbEntity
8
1
62
256
6
ByLayer
370
13
48
1
60
0
100
AcDbLine
10
27.300873
20
-9.169704
30
0
11
28.81252
21
-9.169704
31
0
39
0
210
0
220
0
230
1
0
LINE
5
AA
100
AcDbEntity
8
1
62
256
6
ByLayer
370
18
48
1
60
0
100
AcDbLine
10
27.560839
20
-8.382193
30
0
11
20.015865
21
-8.382193
31
0
39
0
210
0
220
0
230
1
0
LINE
5
AB
100
AcDbEntity
8
1
62
256
6
ByLayer
370
13
48
1
60
0
100
AcDbLine
10
27.608402
20
-8.556368
30
0
11
27.114542
21
-8.556368
31
0
39
0
210
0
220
0
230
1
0
LINE
5
AC
100
AcDbEntity
8
1
62
256
6
ByLayer
370
13
48
1
60
0
100
AcDbLine
10
27.099417
20
-8.506712
30
0
11
27.560839
21
-8.506712
31
0
39
0
210
0
220
0
230
1
0
LINE
5
AD
100
AcDbEntity
8
1
62
256
6
ByLayer
370
13
48
1
60
0
100
AcDbLine
10
27.280777
20
-9.905448
30
0
11
28.81252
21
-9.905448
31
0
39
0
210
0
220
0
230
1
0
LINE
5
AE
100
AcDbEntity
8
1
62
256
6
ByLayer
370
13
48
1
60
0
100
AcDbLine
10
27.060583
20
-10.507668
30
0
11
27.608402
21
-10.507668
31
0
39
0
210
0
220
0
230
1
0
LINE
5
AF
100
AcDbEntity
8
1
62
256
6
ByLayer
370
18
48
1
60
0
100
AcDbLine
10
30.260817
20
-8.364466
30
0
11
31.208022
21
-8.130244
31
0
39
0
210
0
220
0
230
1
0
LINE
5
B0
100
AcDbEntity
8
1
62
256
6
ByLayer
370
18
48
1
60
0
100
AcDbLine
10
30.016413
20
-8.393527
30
0
11
27.560839
21
-8.382193
31
0
39
0
210
0
220
0
230
1
0
LINE
5
B1
100
AcDbEntity
8
1
62
256
6
ByLayer
370
18
48
1
60
0
100
AcDbLine
10
27.560839
20
-8.506712
30
0
11
27.560839
21
-8.382193
31
0
39
0
210
0
220
0
230
1
0
LINE
5
B2
100
AcDbEntity
8
1
62
256
6
ByLayer
370
18
48
1
60
0
100
AcDbLine
10
28.81252
20
-9.169704
30
0
11
27.608402
21
-8.556368
31
0
39
0
210
0
220
0
230
1
0
LINE
5
B3
100
AcDbEntity
8
1
62
256
6
ByLayer
370
18
48
1
60
0
100
AcDbLine
10
30.186059
20
-9.346648
30
0
11
30.132766
21
-9.342983
31
0
39
0
210
0
220
0
230
1
0
LINE
5
B4
100
AcDbEntity
8
1
62
256
6
ByLayer
370
18
48
1
60
0
100
AcDbLine
10
30.132766
20
-9.744357
30
0
11
30.186059
21
-9.741184
31
0
39
0
210
0
220
0
230
1
0
LINE
5
B5
100
AcDbEntity
8
1
62
256
6
ByLayer
370
18
48
1
60
0
100
AcDbLine
10
27.608402
20
-10.507668
30
0
11
28.81252
21
-9.905448
31
0
39
0
210
0
220
0
230
1
0
LINE
5
B6
100
AcDbEntity
8
1
62
256
6
ByLayer
370
18
48
1
60
0
100
AcDbLine
10
31.208022
20
-10.967022
30
0
11
30.260817
21
-10.724056
31
0
39
0
210
0
220
0
230
1
0
LINE
5
B7
100
AcDbEntity
8
1
62
256
6
ByLayer
370
18
48
1
60
0
100
AcDbLine
10
31.639925
20
-10.991427
30
0
11
31.247085
21
-10.972887
31
0
39
0
210
0
220
0
230
1
0
LINE
5
B8
100
AcDbEntity
8
1
62
256
6
ByLayer
370
18
48
1
60
0
100
AcDbLine
10
31.639925
20
-10.991427
30
0
11
31.639925
21
-8.109826
31
0
39
0
210
0
220
0
230
1
0
LINE
5
B9
100
AcDbEntity
8
1
62
256
6
ByLayer
370
18
48
1
60
0
100
AcDbLine
10
31.247085
20
-8.12474
30
0
11
31.639925
21
-8.109826
31
0
39
0
210
0
220
0
230
1
0
LINE
5
BA
100
AcDbEntity
8
1
62
256
6
ByLayer
370
18
48
1
60
0
100
AcDbLine
10
27.560839
20
-10.681405
30
0
11
27.560839
21
-10.556885
31
0
39
0
210
0
220
0
230
1
0
LINE
5
BB
100
AcDbEntity
8
1
62
256
6
ByLayer
370
13
48
1
60
0
100
AcDbLine
10
27.560839
20
-10.556885
30
0
11
27.042122
21
-10.556885
31
0
39
0
210
0
220
0
230
1
0
LINE
5
BC
100
AcDbEntity
8
1
62
256
6
ByLayer
370
18
48
1
60
0
100
AcDbLine
10
20.015865
20
-8.41906
30
0
11
20.015865
21
-8.382193
31
0
39
0
210
0
220
0
230
1
0
LINE
5
BD
100
AcDbEntity
8
1
62
256
6
ByLayer
370
18
48
1
60
0
100
AcDbLine
10
18.55476
20
-8.388937
30
0
11
20.015865
21
-8.382193
31
0
39
0
210
0
220
0
230
1
0
LINE
5
BE
100
AcDbEntity
8
1
62
256
6
ByLayer
370
18
48
1
60
0
100
AcDbLine
10
27.560839
20
-10.681405
30
0
11
30.016413
21
-10.692739
31
0
39
0
210
0
220
0
230
1
0
LINE
5
BF
100
AcDbEntity
8
1
62
256
6
ByLayer
370
18
48
1
60
0
100
AcDbLine
10
26.988129
20
-10.681405
30
0
11
27.560839
21
-10.681405
31
0
39
0
210
0
220
0
230
1
0
LINE
5
C0
100
AcDbEntity
8
1
62
256
6
ByLayer
370
13
48
1
60
0
100
AcDbLine
10
30.162307
20
-10.704037
30
0
11
30.016413
21
-10.692739
31
0
39
0
210
0
220
0
230
1
0
LINE
5
C1
100
AcDbEntity
8
SK1
62
256
6
ByLayer
370
18
48
1
60
0
100
AcDbLine
10
-4.445093
20
9.9375
30
0
11
-91.211648
21
9.9375
31
0
39
0
210
0
220
0
230
1
0
LINE
5
C3
100
AcDbEntity
8
SK1
62
256
6
ByLayer
370
18
48
1
60
0
100
AcDbLine
10
-91.211648
20
-9.9375
30
0
11
-91.211648
21
9.9375
31
0
39
0
210
0
220
0
230
1
0
LINE
5
C4
100
AcDbEntity
8
SK1
62
256
6
ByLayer
370
18
48
1
60
0
100
AcDbLine
10
-4.445093
20
-9.9375
30
0
11
-91.211648
21
-9.9375
31
0
39
0
210
0
220
0
230
1
0
LINE
5
C5
100
AcDbEntity
8
SK1
62
256
6
ByLayer
370
18
48
1
60
0
100
AcDbLine
10
0
20
9.438785
30
0
11
0
21
-10.51149
31
0
39
0
210
0
220
0
230
1
0
LINE
5
C6
100
AcDbEntity
8
SK1
62
256
6
ByLayer
370
18
48
1
60
0
100
AcDbLine
10
-4.445093
20
9.9375
30
0
11
-4.445093
21
-9.9375
31
0
39
0
210
0
220
0
230
1
0
LINE
5
C7
100
AcDbEntity
8
SK1
62
256
6
ByLayer
370
18
48
1
60
0
100
AcDbLine
10
-1.227723
20
-9.9375
30
0
11
-4.445093
21
-9.9375
31
0
39
0
210
0
220
0
230
1
0
MTEXT
5
11D
100
AcDbEntity
8
SK6
62
256
6
ByLayer
370
18
48
1
60
0
100
AcDbMText
10
-61.026148
20
-57.402163
30
0
210
0
220
0
230
1
1
\W0.7787;C2A-RS20-LFG15B-054DB
40
3.5
41
0
44
1.084337
50
0
71
7
72
5
7
iso_b_vert
0
DIMENSION
5
122
100
AcDbEntity
8
2
62
256
6
ByLayer
370
18
48
1
60
0
100
AcDbDimension
2
_U0
10
66.888352
20
9.9375
30
0
11
66.888352
21
-0.5625
31
0
70
32
71
1
72
1
41
1
210
0
220
0
230
1
3
Standard
100
AcDbAlignedDimension
13
33.788352
23
-11.0625
33
0
14
-91.211648
24
9.9375
34
0
50
90
100
AcDbRotatedDimension
1001
ACAD
1000
DSTYLE
1002
{
1070
   371
1070
    13
1070
   372
1070
    13
1070
   170
1070
     0
1070
   144
1040
1.0
1070
   277
1070
     2
1070
   284
1070
     8
1070
   278
1070
    46
1070
   146
1040
1.0
1070
   345
1005
16
1070
   347
1005
16
1070
   346
1005
16
1070
   344
1005
0
1070
   343
1005
0
1070
   172
1070
     1
1070
    76
1070
     0
1070
    75
1070
     0
1070
   282
1070
     0
1070
   281
1070
     0
1070
    71
1070
     0
1070
    74
1070
     0
1070
   279
1070
     0
1070
   173
1070
     1
1070
   340
1005
11E
1070
   271
1070
     2
1070
   272
1070
     2
1070
    77
1070
     1
1070
    73
1070
     0
1070
   171
1070
     3
1070
   274
1070
     4
1070
   177
1070
     2
1070
   176
1070
     2
1070
   178
1070
     2
1070
    78
1070
     8
1070
    48
1040
-0.1
1070
    41
1040
3.5
1070
   147
1040
1.75
1070
    42
1040
1.5875
1070
    44
1040
2.0
1070
   140
1040
3.5
1002
}
1001
ACAD_DSTYLE_DIM_LINETYPE
1070
   380
1005
16
1001
ACAD_DSTYLE_DIM_EXT1_LINETYPE
1070
   381
1005
16
1001
ACAD_DSTYLE_DIM_EXT2_LINETYPE
1070
   382
1005
16
0
DIMENSION
5
13C
100
AcDbEntity
8
2
62
256
6
ByLayer
370
18
48
1
60
0
100
AcDbDimension
2
_U1
10
54.888352
20
-11.0625
30
0
11
54.888352
21
-9.5625
31
0
70
32
71
1
72
1
41
1
210
0
220
0
230
1
3
Standard
100
AcDbAlignedDimension
13
33.788352
23
-8.0625
33
0
14
33.788352
24
-11.0625
34
0
50
90
100
AcDbRotatedDimension
1001
ACAD
1000
DSTYLE
1002
{
1070
   371
1070
    13
1070
   372
1070
    13
1070
   170
1070
     0
1070
   144
1040
1.0
1070
   277
1070
     2
1070
   284
1070
     8
1070
   278
1070
    46
1070
   146
1040
1.0
1070
   345
1005
16
1070
   347
1005
16
1070
   346
1005
16
1070
   344
1005
0
1070
   343
1005
0
1070
   172
1070
     1
1070
    76
1070
     0
1070
    75
1070
     0
1070
   282
1070
     0
1070
   281
1070
     0
1070
    71
1070
     0
1070
    74
1070
     0
1070
   279
1070
     0
1070
   173
1070
     1
1070
   340
1005
11E
1070
   271
1070
     2
1070
   272
1070
     2
1070
    77
1070
     1
1070
    73
1070
     0
1070
   171
1070
     3
1070
   274
1070
     4
1070
   177
1070
     2
1070
   176
1070
     2
1070
   178
1070
     2
1070
    78
1070
     8
1070
    48
1040
-0.1
1070
    41
1040
3.5
1070
   147
1040
1.75
1070
    42
1040
1.5875
1070
    44
1040
2.0
1070
   140
1040
3.5
1002
}
1001
ACAD_DSTYLE_DIM_LINETYPE
1070
   380
1005
16
1001
ACAD_DSTYLE_DIM_EXT1_LINETYPE
1070
   381
1005
16
1001
ACAD_DSTYLE_DIM_EXT2_LINETYPE
1070
   382
1005
16
0
DIMENSION
5
155
100
AcDbEntity
8
SK2
62
256
6
ByLayer
370
18
48
1
60
0
100
AcDbDimension
2
_U2
10
-102.811648
20
-10.0625
30
0
11
-102.811648
21
-0.0625
31
0
70
32
71
1
72
1
41
1
210
0
220
0
230
1
3
Standard
100
AcDbAlignedDimension
13
-91.211648
23
9.9375
33
0
14
-91.211648
24
-10.0625
34
0
50
90
100
AcDbRotatedDimension
1001
ACAD
1000
DSTYLE
1002
{
1070
   371
1070
    13
1070
   372
1070
    13
1070
   170
1070
     0
1070
   144
1040
1.0
1070
   277
1070
     2
1070
   284
1070
     8
1070
   278
1070
    46
1070
   146
1040
1.0
1070
   345
1005
16
1070
   347
1005
16
1070
   346
1005
16
1070
   344
1005
0
1070
   343
1005
0
1070
   172
1070
     1
1070
    76
1070
     0
1070
    75
1070
     0
1070
   282
1070
     0
1070
   281
1070
     0
1070
    71
1070
     0
1070
    74
1070
     0
1070
   279
1070
     0
1070
   173
1070
     1
1070
   340
1005
11E
1070
   271
1070
     2
1070
   272
1070
     2
1070
    77
1070
     1
1070
    73
1070
     0
1070
   171
1070
     3
1070
   274
1070
     4
1070
   177
1070
     2
1070
   176
1070
     2
1070
   178
1070
     2
1070
    78
1070
     8
1070
    48
1040
-0.1
1070
    41
1040
3.5
1070
   147
1040
1.75
1070
    42
1040
1.5875
1070
    44
1040
2.0
1070
   140
1040
3.5
1002
}
1001
ACAD_DSTYLE_DIM_LINETYPE
1070
   380
1005
16
1001
ACAD_DSTYLE_DIM_EXT1_LINETYPE
1070
   381
1005
16
1001
ACAD_DSTYLE_DIM_EXT2_LINETYPE
1070
   382
1005
16
0
DIMENSION
5
16E
100
AcDbEntity
8
2
62
256
6
ByLayer
370
18
48
1
60
0
100
AcDbDimension
2
_U3
10
33.788352
20
16.1875
30
0
11
26.288352
21
16.1875
31
0
70
32
71
1
72
1
41
1
210
0
220
0
230
1
3
Standard
100
AcDbAlignedDimension
13
18.788352
23
-8.388014
33
0
14
33.788352
24
-11.0625
34
0
50
0
100
AcDbRotatedDimension
1001
ACAD
1000
DSTYLE
1002
{
1070
   371
1070
    13
1070
   372
1070
    13
1070
   170
1070
     0
1070
   144
1040
1.0
1070
   277
1070
     2
1070
   284
1070
     8
1070
   278
1070
    46
1070
   146
1040
1.0
1070
   345
1005
16
1070
   347
1005
16
1070
   346
1005
16
1070
   344
1005
0
1070
   343
1005
0
1070
   172
1070
     1
1070
    76
1070
     0
1070
    75
1070
     0
1070
   282
1070
     0
1070
   281
1070
     0
1070
    71
1070
     0
1070
    74
1070
     0
1070
   279
1070
     0
1070
   173
1070
     1
1070
   340
1005
11E
1070
   271
1070
     1
1070
   272
1070
     2
1070
    77
1070
     1
1070
    73
1070
     1
1070
   171
1070
     3
1070
   274
1070
     4
1070
   177
1070
     2
1070
   176
1070
     2
1070
   178
1070
     2
1070
    78
1070
     8
1070
    48
1040
-0.1
1070
    41
1040
3.5
1070
   147
1040
1.75
1070
    42
1040
1.5875
1070
    44
1040
2.0
1070
   140
1040
3.5
1002
}
1001
ACAD_DSTYLE_DIM_LINETYPE
1070
   380
1005
16
1001
ACAD_DSTYLE_DIM_EXT1_LINETYPE
1070
   381
1005
16
1001
ACAD_DSTYLE_DIM_EXT2_LINETYPE
1070
   382
1005
16
0
DIMENSION
5
187
100
AcDbEntity
8
SK2
62
256
6
ByLayer
370
18
48
1
60
0
100
AcDbDimension
2
_U4
10
33.788352
20
32.1875
30
0
11
-28.711648
21
32.1875
31
0
70
32
71
1
72
1
41
1
210
0
220
0
230
1
3
Standard
100
AcDbAlignedDimension
13
-91.211648
23
9.9375
33
0
14
33.788352
24
-11.0625
34
0
50
0
100
AcDbRotatedDimension
1001
ACAD
1000
DSTYLE
1002
{
1070
   371
1070
    13
1070
   372
1070
    13
1070
   170
1070
     0
1070
   144
1040
1.0
1070
   277
1070
     2
1070
   284
1070
     8
1070
   278
1070
    46
1070
   146
1040
1.0
1070
   345
1005
16
1070
   347
1005
16
1070
   346
1005
16
1070
   344
1005
0
1070
   343
1005
0
1070
   172
1070
     1
1070
    76
1070
     0
1070
    75
1070
     0
1070
   282
1070
     0
1070
   281
1070
     0
1070
    71
1070
     0
1070
    74
1070
     0
1070
   279
1070
     0
1070
   173
1070
     1
1070
   340
1005
11E
1070
   271
1070
     1
1070
   272
1070
     2
1070
    77
1070
     1
1070
    73
1070
     1
1070
   171
1070
     3
1070
   274
1070
     4
1070
   177
1070
     2
1070
   176
1070
     2
1070
   178
1070
     2
1070
    78
1070
     8
1070
    48
1040
-0.1
1070
    41
1040
3.5
1070
   147
1040
1.75
1070
    42
1040
1.5875
1070
    44
1040
2.0
1070
   140
1040
3.5
1002
}
1001
ACAD_DSTYLE_DIM_LINETYPE
1070
   380
1005
16
1001
ACAD_DSTYLE_DIM_EXT1_LINETYPE
1070
   381
1005
16
1001
ACAD_DSTYLE_DIM_EXT2_LINETYPE
1070
   382
1005
16
0
ENDSEC
0
SECTION
2
OBJECTS
0
DICTIONARY
5
20e
330
0
100
AcDbDictionary
280
0
281
1
3
ACAD_GROUP
350
20f
3
ACAD_MLINESTYLE
350
210
0
DICTIONARY
5
20f
330
0
100
AcDbDictionary
280
0
281
1
0
DICTIONARY
5
210
330
0
100
AcDbDictionary
280
0
281
1
3
Standard
350
18
0
MLINESTYLE
5
18
330
210
100
AcDbMlineStyle
2
Standard
70
0
3

62
256
51
90
52
90
71
2
49
-0.5
62
256
6
ByLayer
49
0.5
62
256
6
ByLayer
0
RASTERVARIABLES
5
1fd
330

100
AcDbRasterVariables
90
0
70
1
71
1
72
1
0
ENDSEC
0
EOF
