0
SECTION
2
HEADER
9
$ACADVER
1
AC1015
9
$DWGCODEPAGE
3
ANSI_1252
9
$HANDSEED
5
220
9
$ANGBASE
50
0
9
$ANGDIR
70
0
9
$ATTMODE
70
1
9
$AUNITS
70
0
9
$AUPREC
70
0
9
$CECOLOR
62
256
9
$CELTSCALE
40
1
9
$CELTYPE
6
ByLayer
9
$CELWEIGHT
370
18
9
$CLAYER
8
0
9
$CMLJUST
70
0
9
$CMLSCALE
40
1
9
$CMLSTYLE
2
Standard
9
$DIMSTYLE
2
Standard
9
$TEXTSIZE
40
0.2
9
$TEXTSTYLE
7
Standard
9
$LUNITS
70
2
9
$LUPREC
70
4
9
$EXTNAMES
290
1
9
$INSUNITS
70
4
9
$LTSCALE
40
1
9
$LWDISPLAY
290
1
9
$PDMODE
70
0
9
$PDSIZE
40
0
9
$PLINEGEN
70
0
0
ENDSEC
0
SECTION
2
CLASSES
0
CLASS
1
RASTERVARIABLES
2
AcDbRasterVariables
3
ISM
90
0
280
0
281
0
0
ENDSEC
0
SECTION
2
TABLES
0
TABLE
2
VPORT
5
216
100
AcDbSymbolTable
0
VPORT
5
1
100
AcDbSymbolTableRecord
100
AcDbViewportTableRecord
2
*Active
70
0
10
0
20
0
11
1
21
1
12
-1
22
1
13
0
23
0
14
0.5
24
0.5
15
10
25
10
16
0
26
0
36
1
17
0
27
0
37
0
0
ENDTAB
0
TABLE
2
LTYPE
5
217
100
AcDbSymbolTable
0
LTYPE
5
14
100
AcDbSymbolTableRecord
100
AcDbLinetypeTableRecord
70
0
2
ByBlock
3

72
65
73
0
40
0
0
LTYPE
5
15
100
AcDbSymbolTableRecord
100
AcDbLinetypeTableRecord
70
0
2
ByLayer
3

72
65
73
0
40
0
0
LTYPE
5
16
100
AcDbSymbolTableRecord
100
AcDbLinetypeTableRecord
70
0
2
Continuous
3
Solid line
72
65
73
0
40
0
0
LTYPE
5
6E
100
AcDbSymbolTableRecord
100
AcDbLinetypeTableRecord
70
0
2
CENTER
3
____ _ ____ _ ____ _ ____
72
65
73
4
40
47.5
49
22
74
0
49
-8.5
74
0
49
8.5
74
0
49
-8.5
74
0
0
LTYPE
5
6F
100
AcDbSymbolTableRecord
100
AcDbLinetypeTableRecord
70
0
2
DASHED
3
__ __ __ __ __ __ __ __ __
72
65
73
2
40
25.72
49
12.86
74
0
49
-12.86
74
0
0
ENDTAB
0
TABLE
2
LAYER
5
218
100
AcDbSymbolTable
0
LAYER
5
10
100
AcDbSymbolTableRecord
100
AcDbLayerTableRecord
2
0
70
0
62
7
6
Continuous
290
1
370
-3
390
0
0
LAYER
5
71
100
AcDbSymbolTableRecord
100
AcDbLayerTableRecord
2
81
70
0
62
-3
6
Continuous
290
1
370
-3
390
0
0
LAYER
5
73
100
AcDbSymbolTableRecord
100
AcDbLayerTableRecord
2
80
70
0
62
-6
6
Continuous
290
1
370
-3
390
0
0
LAYER
5
75
100
AcDbSymbolTableRecord
100
AcDbLayerTableRecord
2
1
70
0
62
4
6
Continuous
290
1
370
-3
390
0
0
LAYER
5
12B
100
AcDbSymbolTableRecord
100
AcDbLayerTableRecord
2
Defpoints
70
0
62
7
6
Continuous
290
0
370
-3
390
0
0
LAYER
5
138
100
AcDbSymbolTableRecord
100
AcDbLayerTableRecord
2
2
70
0
62
7
6
Continuous
290
1
370
-3
390
0
0
LAYER
5
203
100
AcDbSymbolTableRecord
100
AcDbLayerTableRecord
2
SK1
70
0
62
4
6
Continuous
290
1
370
-3
390
0
0
LAYER
5
204
100
AcDbSymbolTableRecord
100
AcDbLayerTableRecord
2
SK6
70
0
62
5
6
Continuous
290
1
370
-3
390
0
0
LAYER
5
205
100
AcDbSymbolTableRecord
100
AcDbLayerTableRecord
2
SK2
70
0
62
7
6
Continuous
290
1
370
-3
390
0
0
ENDTAB
0
TABLE
2
STYLE
5
219
100
AcDbSymbolTable
0
STYLE
5
11
100
AcDbSymbolTableRecord
100
AcDbTextStyleTableRecord
2
Standard
3
txt
70
0
71
0
40
0
41
1
42
0
50
0
0
STYLE
5
124
100
AcDbSymbolTableRecord
100
AcDbTextStyleTableRecord
2
iso_b_vert
3
simplex.shx
70
0
71
0
40
0
41
1
42
0
50
0
0
STYLE
5
125
100
AcDbSymbolTableRecord
100
AcDbTextStyleTableRecord
2
DWGDirectTextStyle
3
simplex
70
0
71
0
40
0
41
1
42
0
50
0
0
ENDTAB
0
TABLE
2
DIMSTYLE
5
21a
100
AcDbSymbolTable
100
AcDbDimStyleTable
0
DIMSTYLE
105
27
100
AcDbSymbolTableRecord
100
AcDbDimStyleTableRecord
2
Standard
70
0
3
<>
41
0.18
42
0.0625
44
0.18
140
0.18
147
0.09
73
0
74
0
77
1
271
2
275
0
278
52
280
0
340
11
0
ENDTAB
0
TABLE
2
VIEW
5
21b
100
AcDbSymbolTable
0
ENDTAB
0
TABLE
2
UCS
5
21c
100
AcDbSymbolTable
0
ENDTAB
0
TABLE
2
APPID
5
21d
100
AcDbSymbolTable
0
APPID
5
12
100
AcDbSymbolTableRecord
100
AcDbRegAppTableRecord
2
ACAD
70
0
0
APPID
5
127
100
AcDbSymbolTableRecord
100
AcDbRegAppTableRecord
2
ACAD_DSTYLE_DIMBREAK
70
0
0
APPID
5
1C2
100
AcDbSymbolTableRecord
100
AcDbRegAppTableRecord
2
ACAD_DSTYLE_DIM_LINETYPE
70
0
0
APPID
5
1C3
100
AcDbSymbolTableRecord
100
AcDbRegAppTableRecord
2
ACAD_DSTYLE_DIM_EXT1_LINETYPE
70
0
0
APPID
5
1C4
100
AcDbSymbolTableRecord
100
AcDbRegAppTableRecord
2
ACAD_DSTYLE_DIM_EXT2_LINETYPE
70
0
0
APPID
5
1FF
100
AcDbSymbolTableRecord
100
AcDbRegAppTableRecord
2
ACAD_MLEADERVER
70
0
0
ENDTAB
0
TABLE
2
BLOCK_RECORD
5
21e
100
AcDbSymbolTable
0
BLOCK_RECORD
5
1F
100
AcDbSymbolTableRecord
100
AcDbBlockTableRecord
2
*Model_Space
340
0
70
0
0
BLOCK_RECORD
5
1B
100
AcDbSymbolTableRecord
100
AcDbBlockTableRecord
2
*Paper_Space
340
0
70
0
0
BLOCK_RECORD
5
23
100
AcDbSymbolTableRecord
100
AcDbBlockTableRecord
2
*Paper_Space0
340
0
70
0
0
BLOCK_RECORD
5
12C
100
AcDbSymbolTableRecord
100
AcDbBlockTableRecord
2
*D1
340
0
70
0
0
BLOCK_RECORD
5
139
100
AcDbSymbolTableRecord
100
AcDbBlockTableRecord
2
_U0
340
0
70
0
0
BLOCK_RECORD
5
145
100
AcDbSymbolTableRecord
100
AcDbBlockTableRecord
2
*D3
340
0
70
0
0
BLOCK_RECORD
5
152
100
AcDbSymbolTableRecord
100
AcDbBlockTableRecord
2
_U1
340
0
70
0
0
BLOCK_RECORD
5
15E
100
AcDbSymbolTableRecord
100
AcDbBlockTableRecord
2
*D5
340
0
70
0
0
BLOCK_RECORD
5
16B
100
AcDbSymbolTableRecord
100
AcDbBlockTableRecord
2
_U2
340
0
70
0
0
BLOCK_RECORD
5
177
100
AcDbSymbolTableRecord
100
AcDbBlockTableRecord
2
*D7
340
0
70
0
0
BLOCK_RECORD
5
183
100
AcDbSymbolTableRecord
100
AcDbBlockTableRecord
2
_U3
340
0
70
0
0
BLOCK_RECORD
5
18F
100
AcDbSymbolTableRecord
100
AcDbBlockTableRecord
2
*D9
340
0
70
0
0
BLOCK_RECORD
5
19B
100
AcDbSymbolTableRecord
100
AcDbBlockTableRecord
2
_U4
340
0
70
0
0
ENDTAB
0
ENDSEC
0
SECTION
2
BLOCKS
0
BLOCK
5
20
100
AcDbEntity
8
0
100
AcDbBlockBegin
2
*Model_Space
70
0
10
0
20
0
30
0
3
*Model_Space
0
ENDBLK
5
21
100
AcDbEntity
8
0
100
AcDbBlockEnd
0
BLOCK
5
1C
100
AcDbEntity
8
0
100
AcDbBlockBegin
2
*Paper_Space
70
0
10
0
20
0
30
0
3
*Paper_Space
0
ENDBLK
5
1D
100
AcDbEntity
8
0
100
AcDbBlockEnd
0
BLOCK
5
24
100
AcDbEntity
8
0
100
AcDbBlockBegin
2
*Paper_Space0
70
0
10
0
20
0
30
0
3
*Paper_Space0
0
ENDBLK
5
25
100
AcDbEntity
8
0
100
AcDbBlockEnd
0
BLOCK
5
12D
100
AcDbEntity
8
0
100
AcDbBlockBegin
2
*D1
70
1
10
0
20
0
30
0
3
*D1
0
LINE
5
12F
100
AcDbEntity
8
0
62
256
6
ByLayer
370
-2
48
1
60
0
100
AcDbLine
10
40.695468
20
13.5625
30
0
11
68.857968
21
13.5625
31
0
39
0
210
0
220
0
230
1
0
LINE
5
130
100
AcDbEntity
8
0
62
256
6
ByLayer
370
-2
48
1
60
0
100
AcDbLine
10
-109.304532
20
-12.4375
30
0
11
68.857968
21
-12.4375
31
0
39
0
210
0
220
0
230
1
0
LINE
5
131
100
AcDbEntity
8
0
62
256
6
ByLayer
370
-2
48
1
60
0
100
AcDbLine
10
66.857968
20
10.0625
30
0
11
66.857968
21
-8.9375
31
0
39
0
210
0
220
0
230
1
0
SOLID
5
132
100
AcDbEntity
8
0
62
256
6
ByLayer
370
-1
48
1
60
0
100
AcDbTrace
10
67.441301
20
10.0625
30
0
11
66.274634
21
10.0625
31
0
12
66.857968
22
13.5625
32
0
13
66.857968
23
13.5625
33
0
39
0
210
0
220
0
230
1
0
SOLID
5
133
100
AcDbEntity
8
0
62
256
6
ByLayer
370
-1
48
1
60
0
100
AcDbTrace
10
66.274634
20
-8.9375
30
0
11
67.441301
21
-8.9375
31
0
12
66.857968
22
-12.4375
32
0
13
66.857968
23
-12.4375
33
0
39
0
210
0
220
0
230
1
0
MTEXT
5
134
100
AcDbEntity
8
0
62
256
6
ByLayer
370
18
48
1
60
0
100
AcDbMText
10
59.857968
20
0.5625
30
0
210
0
220
0
230
1
1
\A1;26
40
3.5
41
0
44
1
50
90
71
5
72
5
7
iso_b_vert
0
POINT
5
135
100
AcDbEntity
8
Defpoints
62
0
6
ByLayer
370
-1
48
1
60
0
100
AcDbPoint
10
39.107968
20
13.5625
30
0
39
0
210
0
220
0
230
1
50
360
0
POINT
5
136
100
AcDbEntity
8
Defpoints
62
0
6
ByLayer
370
-1
48
1
60
0
100
AcDbPoint
10
-110.892032
20
-12.4375
30
0
39
0
210
0
220
0
230
1
50
360
0
POINT
5
137
100
AcDbEntity
8
Defpoints
62
0
6
ByLayer
370
-1
48
1
60
0
100
AcDbPoint
10
66.857968
20
-12.4375
30
0
39
0
210
0
220
0
230
1
50
360
0
ENDBLK
5
12E
100
AcDbEntity
8
0
100
AcDbBlockEnd
0
BLOCK
5
140
100
AcDbEntity
8
0
100
AcDbBlockBegin
2
_U0
70
0
10
0
20
0
30
0
3
_U0
0
MTEXT
5
13A
100
AcDbEntity
8
2
62
256
6
ByLayer
370
18
48
1
60
0
100
AcDbMText
10
66.168334
20
-1.370466
30
0
210
0
220
0
230
1
1
\W0.6740;26
40
3.5
41
0
44
1.084337
50
90
71
7
72
5
7
iso_b_vert
0
LINE
5
13B
100
AcDbEntity
8
2
62
256
6
ByLayer
370
13
48
1
60
0
100
AcDbLine
10
40.695468
20
13.5625
30
0
11
68.857968
21
13.5625
31
0
39
0
210
0
220
0
230
1
0
LINE
5
13C
100
AcDbEntity
8
2
62
256
6
ByLayer
370
13
48
1
60
0
100
AcDbLine
10
-109.304532
20
-12.4375
30
0
11
68.857968
21
-12.4375
31
0
39
0
210
0
220
0
230
1
0
LINE
5
13D
100
AcDbEntity
8
2
62
256
6
ByLayer
370
13
48
1
60
0
100
AcDbLine
10
66.857968
20
13.5625
30
0
11
66.857968
21
-12.4375
31
0
39
0
210
0
220
0
230
1
0
SOLID
5
13E
100
AcDbEntity
8
2
62
256
6
ByLayer
370
18
48
1
60
0
100
AcDbTrace
10
66.857968
20
13.5625
30
0
11
67.318751
21
10.062502
31
0
12
66.397184
22
10.062498
32
0
13
66.397184
23
10.062498
33
0
39
0
210
0
220
0
230
1
0
SOLID
5
13F
100
AcDbEntity
8
2
62
256
6
ByLayer
370
18
48
1
60
0
100
AcDbTrace
10
66.857968
20
-12.4375
30
0
11
66.397184
21
-8.937502
31
0
12
67.318751
22
-8.937498
32
0
13
67.318751
23
-8.937498
33
0
39
0
210
0
220
0
230
1
0
ENDBLK
5
141
100
AcDbEntity
8
0
100
AcDbBlockEnd
0
BLOCK
5
146
100
AcDbEntity
8
0
100
AcDbBlockBegin
2
*D3
70
1
10
0
20
0
30
0
3
*D3
0
LINE
5
148
100
AcDbEntity
8
0
62
256
6
ByLayer
370
-2
48
1
60
0
100
AcDbLine
10
40.695468
20
7.5625
30
0
11
61.207968
21
7.5625
31
0
39
0
210
0
220
0
230
1
0
LINE
5
149
100
AcDbEntity
8
0
62
256
6
ByLayer
370
-2
48
1
60
0
100
AcDbLine
10
40.695468
20
13.5625
30
0
11
61.207968
21
13.5625
31
0
39
0
210
0
220
0
230
1
0
LINE
5
14A
100
AcDbEntity
8
0
62
256
6
ByLayer
370
-2
48
1
60
0
100
AcDbLine
10
59.207968
20
4.0625
30
0
11
59.207968
21
0.5625
31
0
39
0
210
0
220
0
230
1
0
LINE
5
14B
100
AcDbEntity
8
0
62
256
6
ByLayer
370
-2
48
1
60
0
100
AcDbLine
10
59.207968
20
17.0625
30
0
11
59.207968
21
20.5625
31
0
39
0
210
0
220
0
230
1
0
SOLID
5
14C
100
AcDbEntity
8
0
62
256
6
ByLayer
370
-1
48
1
60
0
100
AcDbTrace
10
59.791301
20
4.0625
30
0
11
58.624634
21
4.0625
31
0
12
59.207968
22
7.5625
32
0
13
59.207968
23
7.5625
33
0
39
0
210
0
220
0
230
1
0
SOLID
5
14D
100
AcDbEntity
8
0
62
256
6
ByLayer
370
-1
48
1
60
0
100
AcDbTrace
10
58.624634
20
17.0625
30
0
11
59.791301
21
17.0625
31
0
12
59.207968
22
13.5625
32
0
13
59.207968
23
13.5625
33
0
39
0
210
0
220
0
230
1
0
MTEXT
5
14E
100
AcDbEntity
8
0
62
256
6
ByLayer
370
18
48
1
60
0
100
AcDbMText
10
52.207968
20
10.5625
30
0
210
0
220
0
230
1
1
\A1;6
40
3.5
41
0
44
1
50
90
71
5
72
5
7
iso_b_vert
0
POINT
5
14F
100
AcDbEntity
8
Defpoints
62
0
6
ByLayer
370
-1
48
1
60
0
100
AcDbPoint
10
39.107968
20
7.5625
30
0
39
0
210
0
220
0
230
1
50
360
0
POINT
5
150
100
AcDbEntity
8
Defpoints
62
0
6
ByLayer
370
-1
48
1
60
0
100
AcDbPoint
10
39.107968
20
13.5625
30
0
39
0
210
0
220
0
230
1
50
360
0
POINT
5
151
100
AcDbEntity
8
Defpoints
62
0
6
ByLayer
370
-1
48
1
60
0
100
AcDbPoint
10
59.207968
20
13.5625
30
0
39
0
210
0
220
0
230
1
50
360
0
ENDBLK
5
147
100
AcDbEntity
8
0
100
AcDbBlockEnd
0
BLOCK
5
159
100
AcDbEntity
8
0
100
AcDbBlockBegin
2
_U1
70
0
10
0
20
0
30
0
3
_U1
0
MTEXT
5
153
100
AcDbEntity
8
2
62
256
6
ByLayer
370
18
48
1
60
0
100
AcDbMText
10
58.518334
20
9.937267
30
0
210
0
220
0
230
1
1
\W0.5404;6
40
3.5
41
0
44
1.084337
50
90
71
7
72
5
7
iso_b_vert
0
LINE
5
154
100
AcDbEntity
8
2
62
256
6
ByLayer
370
13
48
1
60
0
100
AcDbLine
10
40.695468
20
7.5625
30
0
11
61.207968
21
7.5625
31
0
39
0
210
0
220
0
230
1
0
LINE
5
155
100
AcDbEntity
8
2
62
256
6
ByLayer
370
13
48
1
60
0
100
AcDbLine
10
40.695468
20
13.5625
30
0
11
61.207968
21
13.5625
31
0
39
0
210
0
220
0
230
1
0
LINE
5
156
100
AcDbEntity
8
2
62
256
6
ByLayer
370
13
48
1
60
0
100
AcDbLine
10
59.207968
20
-1.1875
30
0
11
59.207968
21
22.3125
31
0
39
0
210
0
220
0
230
1
0
SOLID
5
157
100
AcDbEntity
8
2
62
256
6
ByLayer
370
18
48
1
60
0
100
AcDbTrace
10
59.207968
20
7.5625
30
0
11
59.668751
21
4.062502
31
0
12
58.747184
22
4.062498
32
0
13
58.747184
23
4.062498
33
0
39
0
210
0
220
0
230
1
0
SOLID
5
158
100
AcDbEntity
8
2
62
256
6
ByLayer
370
18
48
1
60
0
100
AcDbTrace
10
59.207968
20
13.5625
30
0
11
58.747184
21
17.062498
31
0
12
59.668751
22
17.062502
32
0
13
59.668751
23
17.062502
33
0
39
0
210
0
220
0
230
1
0
ENDBLK
5
15A
100
AcDbEntity
8
0
100
AcDbBlockEnd
0
BLOCK
5
15F
100
AcDbEntity
8
0
100
AcDbBlockBegin
2
*D5
70
1
10
0
20
0
30
0
3
*D5
0
LINE
5
161
100
AcDbEntity
8
0
62
256
6
ByLayer
370
-2
48
1
60
0
100
AcDbLine
10
-112.479532
20
-12.4375
30
0
11
-124.492032
21
-12.4375
31
0
39
0
210
0
220
0
230
1
0
LINE
5
162
100
AcDbEntity
8
0
62
256
6
ByLayer
370
-2
48
1
60
0
100
AcDbLine
10
-112.479532
20
12.5625
30
0
11
-124.492032
21
12.5625
31
0
39
0
210
0
220
0
230
1
0
LINE
5
163
100
AcDbEntity
8
0
62
256
6
ByLayer
370
-2
48
1
60
0
100
AcDbLine
10
-122.492032
20
-8.9375
30
0
11
-122.492032
21
9.0625
31
0
39
0
210
0
220
0
230
1
0
SOLID
5
164
100
AcDbEntity
8
0
62
256
6
ByLayer
370
-1
48
1
60
0
100
AcDbTrace
10
-123.075366
20
-8.9375
30
0
11
-121.908699
21
-8.9375
31
0
12
-122.492032
22
-12.4375
32
0
13
-122.492032
23
-12.4375
33
0
39
0
210
0
220
0
230
1
0
SOLID
5
165
100
AcDbEntity
8
0
62
256
6
ByLayer
370
-1
48
1
60
0
100
AcDbTrace
10
-121.908699
20
9.0625
30
0
11
-123.075366
21
9.0625
31
0
12
-122.492032
22
12.5625
32
0
13
-122.492032
23
12.5625
33
0
39
0
210
0
220
0
230
1
0
MTEXT
5
166
100
AcDbEntity
8
0
62
256
6
ByLayer
370
18
48
1
60
0
100
AcDbMText
10
-129.492032
20
0.0625
30
0
210
0
220
0
230
1
1
\A1;25
40
3.5
41
0
44
1
50
90
71
5
72
5
7
iso_b_vert
0
POINT
5
167
100
AcDbEntity
8
Defpoints
62
0
6
ByLayer
370
-1
48
1
60
0
100
AcDbPoint
10
-110.892032
20
-12.4375
30
0
39
0
210
0
220
0
230
1
50
360
0
POINT
5
168
100
AcDbEntity
8
Defpoints
62
0
6
ByLayer
370
-1
48
1
60
0
100
AcDbPoint
10
-110.892032
20
12.5625
30
0
39
0
210
0
220
0
230
1
50
360
0
POINT
5
169
100
AcDbEntity
8
Defpoints
62
0
6
ByLayer
370
-1
48
1
60
0
100
AcDbPoint
10
-122.492032
20
12.5625
30
0
39
0
210
0
220
0
230
1
50
360
0
ENDBLK
5
160
100
AcDbEntity
8
0
100
AcDbBlockEnd
0
BLOCK
5
172
100
AcDbEntity
8
0
100
AcDbBlockBegin
2
_U2
70
0
10
0
20
0
30
0
3
_U2
0
MTEXT
5
16C
100
AcDbEntity
8
SK2
62
256
6
ByLayer
370
18
48
1
60
0
100
AcDbMText
10
-123.181666
20
-1.870466
30
0
210
0
220
0
230
1
1
\W0.6740;25
40
3.5
41
0
44
1.084337
50
90
71
7
72
5
7
iso_b_vert
0
LINE
5
16D
100
AcDbEntity
8
SK2
62
256
6
ByLayer
370
13
48
1
60
0
100
AcDbLine
10
-112.479532
20
-12.4375
30
0
11
-124.492032
21
-12.4375
31
0
39
0
210
0
220
0
230
1
0
LINE
5
16E
100
AcDbEntity
8
SK2
62
256
6
ByLayer
370
13
48
1
60
0
100
AcDbLine
10
-112.479532
20
12.5625
30
0
11
-124.492032
21
12.5625
31
0
39
0
210
0
220
0
230
1
0
LINE
5
16F
100
AcDbEntity
8
SK2
62
256
6
ByLayer
370
13
48
1
60
0
100
AcDbLine
10
-122.492032
20
-12.4375
30
0
11
-122.492032
21
12.5625
31
0
39
0
210
0
220
0
230
1
0
SOLID
5
170
100
AcDbEntity
8
SK2
62
256
6
ByLayer
370
18
48
1
60
0
100
AcDbTrace
10
-122.492032
20
-12.4375
30
0
11
-122.952816
21
-8.937502
31
0
12
-122.031249
22
-8.937498
32
0
13
-122.031249
23
-8.937498
33
0
39
0
210
0
220
0
230
1
0
SOLID
5
171
100
AcDbEntity
8
SK2
62
256
6
ByLayer
370
18
48
1
60
0
100
AcDbTrace
10
-122.492032
20
12.5625
30
0
11
-122.031249
21
9.062502
31
0
12
-122.952816
22
9.062498
32
0
13
-122.952816
23
9.062498
33
0
39
0
210
0
220
0
230
1
0
ENDBLK
5
173
100
AcDbEntity
8
0
100
AcDbBlockEnd
0
BLOCK
5
178
100
AcDbEntity
8
0
100
AcDbBlockBegin
2
*D7
70
1
10
0
20
0
30
0
3
*D7
0
LINE
5
17A
100
AcDbEntity
8
0
62
256
6
ByLayer
370
-2
48
1
60
0
100
AcDbLine
10
21.107968
20
6.3
30
0
11
21.107968
21
-26.1875
31
0
39
0
210
0
220
0
230
1
0
LINE
5
17B
100
AcDbEntity
8
0
62
256
6
ByLayer
370
-2
48
1
60
0
100
AcDbLine
10
39.107968
20
11.975
30
0
11
39.107968
21
-26.1875
31
0
39
0
210
0
220
0
230
1
0
LINE
5
17C
100
AcDbEntity
8
0
62
256
6
ByLayer
370
-2
48
1
60
0
100
AcDbLine
10
24.607968
20
-24.1875
30
0
11
35.607968
21
-24.1875
31
0
39
0
210
0
220
0
230
1
0
SOLID
5
17D
100
AcDbEntity
8
0
62
256
6
ByLayer
370
-1
48
1
60
0
100
AcDbTrace
10
24.607968
20
-23.604167
30
0
11
24.607968
21
-24.770833
31
0
12
21.107968
22
-24.1875
32
0
13
21.107968
23
-24.1875
33
0
39
0
210
0
220
0
230
1
0
SOLID
5
17E
100
AcDbEntity
8
0
62
256
6
ByLayer
370
-1
48
1
60
0
100
AcDbTrace
10
35.607968
20
-24.770833
30
0
11
35.607968
21
-23.604167
31
0
12
39.107968
22
-24.1875
32
0
13
39.107968
23
-24.1875
33
0
39
0
210
0
220
0
230
1
0
MTEXT
5
17F
100
AcDbEntity
8
0
62
256
6
ByLayer
370
18
48
1
60
0
100
AcDbMText
10
30.107968
20
-17.1875
30
0
210
0
220
0
230
1
1
\A1;18
40
3.5
41
0
44
1
50
0
71
5
72
5
7
iso_b_vert
0
POINT
5
180
100
AcDbEntity
8
Defpoints
62
0
6
ByLayer
370
-1
48
1
60
0
100
AcDbPoint
10
21.107968
20
7.8875
30
0
39
0
210
0
220
0
230
1
50
360
0
POINT
5
181
100
AcDbEntity
8
Defpoints
62
0
6
ByLayer
370
-1
48
1
60
0
100
AcDbPoint
10
39.107968
20
13.5625
30
0
39
0
210
0
220
0
230
1
50
360
0
POINT
5
182
100
AcDbEntity
8
Defpoints
62
0
6
ByLayer
370
-1
48
1
60
0
100
AcDbPoint
10
39.107968
20
-24.1875
30
0
39
0
210
0
220
0
230
1
50
360
0
ENDBLK
5
179
100
AcDbEntity
8
0
100
AcDbBlockEnd
0
BLOCK
5
18A
100
AcDbEntity
8
0
100
AcDbBlockBegin
2
_U3
70
0
10
0
20
0
30
0
3
_U3
0
MTEXT
5
184
100
AcDbEntity
8
2
62
256
6
ByLayer
370
18
48
1
60
0
100
AcDbMText
10
28.640435
20
-23.154866
30
0
210
0
220
0
230
1
1
\W0.5321;18
40
3.5
41
0
44
1.084337
50
0
71
7
72
5
7
iso_b_vert
0
LINE
5
185
100
AcDbEntity
8
2
62
256
6
ByLayer
370
13
48
1
60
0
100
AcDbLine
10
21.107968
20
6.3
30
0
11
21.107968
21
-26.1875
31
0
39
0
210
0
220
0
230
1
0
LINE
5
186
100
AcDbEntity
8
2
62
256
6
ByLayer
370
13
48
1
60
0
100
AcDbLine
10
39.107968
20
11.975
30
0
11
39.107968
21
-26.1875
31
0
39
0
210
0
220
0
230
1
0
LINE
5
187
100
AcDbEntity
8
2
62
256
6
ByLayer
370
13
48
1
60
0
100
AcDbLine
10
21.107968
20
-24.1875
30
0
11
39.107968
21
-24.1875
31
0
39
0
210
0
220
0
230
1
0
SOLID
5
188
100
AcDbEntity
8
2
62
256
6
ByLayer
370
18
48
1
60
0
100
AcDbTrace
10
21.107968
20
-24.1875
30
0
11
24.607966
21
-23.726716
31
0
12
24.607969
22
-24.648284
32
0
13
24.607969
23
-24.648284
33
0
39
0
210
0
220
0
230
1
0
SOLID
5
189
100
AcDbEntity
8
2
62
256
6
ByLayer
370
18
48
1
60
0
100
AcDbTrace
10
39.107968
20
-24.1875
30
0
11
35.607969
21
-24.648284
31
0
12
35.607966
22
-23.726716
32
0
13
35.607966
23
-23.726716
33
0
39
0
210
0
220
0
230
1
0
ENDBLK
5
18B
100
AcDbEntity
8
0
100
AcDbBlockEnd
0
BLOCK
5
190
100
AcDbEntity
8
0
100
AcDbBlockBegin
2
*D9
70
1
10
0
20
0
30
0
3
*D9
0
LINE
5
192
100
AcDbEntity
8
0
62
256
6
ByLayer
370
-2
48
1
60
0
100
AcDbLine
10
-110.892032
20
-14.025
30
0
11
-110.892032
21
-32.1875
31
0
39
0
210
0
220
0
230
1
0
LINE
5
193
100
AcDbEntity
8
0
62
256
6
ByLayer
370
-2
48
1
60
0
100
AcDbLine
10
39.107968
20
11.975
30
0
11
39.107968
21
-32.1875
31
0
39
0
210
0
220
0
230
1
0
LINE
5
194
100
AcDbEntity
8
0
62
256
6
ByLayer
370
-2
48
1
60
0
100
AcDbLine
10
-107.392032
20
-30.1875
30
0
11
35.607968
21
-30.1875
31
0
39
0
210
0
220
0
230
1
0
SOLID
5
195
100
AcDbEntity
8
0
62
256
6
ByLayer
370
-1
48
1
60
0
100
AcDbTrace
10
-107.392032
20
-29.604167
30
0
11
-107.392032
21
-30.770833
31
0
12
-110.892032
22
-30.1875
32
0
13
-110.892032
23
-30.1875
33
0
39
0
210
0
220
0
230
1
0
SOLID
5
196
100
AcDbEntity
8
0
62
256
6
ByLayer
370
-1
48
1
60
0
100
AcDbTrace
10
35.607968
20
-30.770833
30
0
11
35.607968
21
-29.604167
31
0
12
39.107968
22
-30.1875
32
0
13
39.107968
23
-30.1875
33
0
39
0
210
0
220
0
230
1
0
MTEXT
5
197
100
AcDbEntity
8
0
62
256
6
ByLayer
370
18
48
1
60
0
100
AcDbMText
10
-35.892032
20
-23.1875
30
0
210
0
220
0
230
1
1
\A1;150
40
3.5
41
0
44
1
50
0
71
5
72
5
7
iso_b_vert
0
POINT
5
198
100
AcDbEntity
8
Defpoints
62
0
6
ByLayer
370
-1
48
1
60
0
100
AcDbPoint
10
-110.892032
20
-12.4375
30
0
39
0
210
0
220
0
230
1
50
360
0
POINT
5
199
100
AcDbEntity
8
Defpoints
62
0
6
ByLayer
370
-1
48
1
60
0
100
AcDbPoint
10
39.107968
20
13.5625
30
0
39
0
210
0
220
0
230
1
50
360
0
POINT
5
19A
100
AcDbEntity
8
Defpoints
62
0
6
ByLayer
370
-1
48
1
60
0
100
AcDbPoint
10
39.107968
20
-30.1875
30
0
39
0
210
0
220
0
230
1
50
360
0
ENDBLK
5
191
100
AcDbEntity
8
0
100
AcDbBlockEnd
0
BLOCK
5
1A2
100
AcDbEntity
8
0
100
AcDbBlockBegin
2
_U4
70
0
10
0
20
0
30
0
3
_U4
0
MTEXT
5
19C
100
AcDbEntity
8
SK2
62
256
6
ByLayer
370
18
48
1
60
0
100
AcDbMText
10
-38.667298
20
-29.154866
30
0
210
0
220
0
230
1
1
\W0.6217;150
40
3.5
41
0
44
1.084337
50
0
71
7
72
5
7
iso_b_vert
0
LINE
5
19D
100
AcDbEntity
8
SK2
62
256
6
ByLayer
370
13
48
1
60
0
100
AcDbLine
10
-110.892032
20
-14.025
30
0
11
-110.892032
21
-32.1875
31
0
39
0
210
0
220
0
230
1
0
LINE
5
19E
100
AcDbEntity
8
SK2
62
256
6
ByLayer
370
13
48
1
60
0
100
AcDbLine
10
39.107968
20
11.975
30
0
11
39.107968
21
-32.1875
31
0
39
0
210
0
220
0
230
1
0
LINE
5
19F
100
AcDbEntity
8
SK2
62
256
6
ByLayer
370
13
48
1
60
0
100
AcDbLine
10
-110.892032
20
-30.1875
30
0
11
39.107968
21
-30.1875
31
0
39
0
210
0
220
0
230
1
0
SOLID
5
1A0
100
AcDbEntity
8
SK2
62
256
6
ByLayer
370
18
48
1
60
0
100
AcDbTrace
10
-110.892032
20
-30.1875
30
0
11
-107.392034
21
-29.726716
31
0
12
-107.392031
22
-30.648284
32
0
13
-107.392031
23
-30.648284
33
0
39
0
210
0
220
0
230
1
0
SOLID
5
1A1
100
AcDbEntity
8
SK2
62
256
6
ByLayer
370
18
48
1
60
0
100
AcDbTrace
10
39.107968
20
-30.1875
30
0
11
35.607969
21
-30.648284
31
0
12
35.607966
22
-29.726716
32
0
13
35.607966
23
-29.726716
33
0
39
0
210
0
220
0
230
1
0
ENDBLK
5
1A3
100
AcDbEntity
8
0
100
AcDbBlockEnd
0
ENDSEC
0
SECTION
2
ENTITIES
0
ARC
5
CE
100
AcDbEntity
8
1
62
256
6
ByLayer
370
18
48
1
60
0
100
AcDbCircle
39
0
10
21.107968
20
6.2875
30
0
40
1.6
210
0
220
0
230
1
100
AcDbArc
50
175.551791
51
180
0
ARC
5
D0
100
AcDbEntity
8
1
62
256
6
ByLayer
370
18
48
1
60
0
100
AcDbCircle
39
0
10
38.707968
20
7.945626
30
0
40
0.4
210
0
220
0
230
1
100
AcDbArc
50
266.667001
51
0
0
ARC
5
D1
100
AcDbEntity
8
1
62
256
6
ByLayer
370
18
48
1
60
0
100
AcDbCircle
39
0
10
38.707968
20
13.179374
30
0
40
0.4
210
0
220
0
230
1
100
AcDbArc
50
0
51
93.332999
0
ARC
5
D2
100
AcDbEntity
8
1
62
256
6
ByLayer
370
18
48
1
60
0
100
AcDbCircle
39
0
10
14.507968
20
13.179374
30
0
40
0.4
210
0
220
0
230
1
100
AcDbArc
50
86.667001
51
152.007395
0
ARC
5
D3
100
AcDbEntity
8
1
62
256
6
ByLayer
370
18
48
1
60
0
100
AcDbCircle
39
0
10
12.757968
20
-0.3375
30
0
40
2.1768
210
0
220
0
230
1
100
AcDbArc
50
150
51
210
0
ARC
5
D4
100
AcDbEntity
8
1
62
256
6
ByLayer
370
18
48
1
60
0
100
AcDbCircle
39
0
10
12.757968
20
-0.3375
30
0
40
2.1768
210
0
220
0
230
1
100
AcDbArc
50
210
51
270
0
ARC
5
D5
100
AcDbEntity
8
1
62
256
6
ByLayer
370
18
48
1
60
0
100
AcDbCircle
39
0
10
12.757968
20
-0.3375
30
0
40
2.1768
210
0
220
0
230
1
100
AcDbArc
50
270
51
330
0
ARC
5
D6
100
AcDbEntity
8
1
62
256
6
ByLayer
370
18
48
1
60
0
100
AcDbCircle
39
0
10
12.757968
20
-0.3375
30
0
40
2.1768
210
0
220
0
230
1
100
AcDbArc
50
330
51
30
0
ARC
5
D7
100
AcDbEntity
8
1
62
256
6
ByLayer
370
18
48
1
60
0
100
AcDbCircle
39
0
10
12.757968
20
-0.3375
30
0
40
2.1768
210
0
220
0
230
1
100
AcDbArc
50
90
51
150
0
ARC
5
D8
100
AcDbEntity
8
1
62
256
6
ByLayer
370
18
48
1
60
0
100
AcDbCircle
39
0
10
12.757968
20
-0.3375
30
0
40
2.1768
210
0
220
0
230
1
100
AcDbArc
50
30
51
90
0
ARC
5
DB
100
AcDbEntity
8
1
62
256
6
ByLayer
370
18
48
1
60
0
100
AcDbCircle
39
0
10
12.757968
20
-0.3375
30
0
40
2.8067
210
0
220
0
230
1
100
AcDbArc
50
180
51
240
0
ARC
5
DC
100
AcDbEntity
8
1
62
256
6
ByLayer
370
18
48
1
60
0
100
AcDbCircle
39
0
10
12.757968
20
-0.3375
30
0
40
2.8067
210
0
220
0
230
1
100
AcDbArc
50
360
51
60
0
ARC
5
DD
100
AcDbEntity
8
1
62
256
6
ByLayer
370
18
48
1
60
0
100
AcDbCircle
39
0
10
12.757968
20
-0.3375
30
0
40
2.8067
210
0
220
0
230
1
100
AcDbArc
50
240
51
300
0
ARC
5
DE
100
AcDbEntity
8
1
62
256
6
ByLayer
370
18
48
1
60
0
100
AcDbCircle
39
0
10
12.757968
20
-0.3375
30
0
40
2.8067
210
0
220
0
230
1
100
AcDbArc
50
60
51
120
0
ARC
5
DF
100
AcDbEntity
8
1
62
256
6
ByLayer
370
18
48
1
60
0
100
AcDbCircle
39
0
10
12.757968
20
-0.3375
30
0
40
2.8067
210
0
220
0
230
1
100
AcDbArc
50
300
51
360
0
ARC
5
E0
100
AcDbEntity
8
1
62
256
6
ByLayer
370
18
48
1
60
0
100
AcDbCircle
39
0
10
12.757968
20
-0.3375
30
0
40
2.8067
210
0
220
0
230
1
100
AcDbArc
50
120
51
180
0
CIRCLE
5
CF
100
AcDbEntity
8
1
62
256
6
ByLayer
370
18
48
1
60
0
100
AcDbCircle
10
12.757968
20
-0.3375
30
0
40
5.75
39
0
210
0
220
0
230
1
0
CIRCLE
5
D9
100
AcDbEntity
8
1
62
256
6
ByLayer
370
13
48
1
60
0
100
AcDbCircle
10
12.757968
20
-0.3375
30
0
40
4.55
39
0
210
0
220
0
230
1
0
CIRCLE
5
DA
100
AcDbEntity
8
1
62
256
6
ByLayer
370
18
48
1
60
0
100
AcDbCircle
10
12.757968
20
-0.3375
30
0
40
5.35
39
0
210
0
220
0
230
1
0
ELLIPSE
5
E1
100
AcDbEntity
8
1
62
256
6
ByLayer
370
18
48
1
60
0
100
AcDbEllipse
10
47.526508
20
207.7625
30
0
11
1.19108275622729E-14
21
194.525000218976
31
0
210
0
220
0
230
1
40
0.723618
41
3.01271802510966
42
3.07463143072828
0
ELLIPSE
5
E2
100
AcDbEntity
8
1
62
256
6
ByLayer
370
18
48
1
60
0
100
AcDbEllipse
10
32.35299
20
207.762296
30
0
11
230.756259776188
21
2.70320658425814E-13
31
0
210
0
220
0
230
1
40
0.842988
41
-1.59136069662796
42
-1.57920741613935
0
ELLIPSE
5
E3
100
AcDbEntity
8
1
62
256
6
ByLayer
370
18
48
1
60
0
100
AcDbEllipse
10
32.35299
20
97.562489
30
0
11
106.377468897144
21
1.2461645661027E-13
31
0
210
0
220
0
230
1
40
0.842989
41
-1.61541665440989
42
-1.58899921059774
0
ELLIPSE
5
E4
100
AcDbEntity
8
1
62
256
6
ByLayer
370
18
48
1
60
0
100
AcDbEllipse
10
-1056.058314
20
97.842916
30
0
11
6967.09940491878
21
-15.6429932671277
31
0
210
0
220
0
230
1
40
0.012715
41
-1.41553754787306
42
-1.41418504184669
0
ELLIPSE
5
E5
100
AcDbEntity
8
1
62
256
6
ByLayer
370
18
48
1
60
0
100
AcDbEllipse
10
33.32056
20
207.762503
30
0
11
277.810493137965
21
3.25442592523785E-13
31
0
210
0
220
0
230
1
40
0.700208
41
-1.60730359997379
42
-1.59136068567886
0
ELLIPSE
5
E6
100
AcDbEntity
8
1
62
256
6
ByLayer
370
18
48
1
60
0
100
AcDbEllipse
10
33.32056
20
97.5625
30
0
11
128.069172812149
21
1.50027319528438E-13
31
0
210
0
220
0
230
1
40
0.700208
41
-1.66630078673812
42
-1.61541665146159
0
ELLIPSE
5
E7
100
AcDbEntity
8
1
62
256
6
ByLayer
370
18
48
1
60
0
100
AcDbEllipse
10
0.133975
20
207.762496
30
0
11
1.19108272816023E-14
21
194.524995635126
31
0
210
0
220
0
230
1
40
0.267949
41
-3.13491714903444
42
-3.10508537972194
0
ELLIPSE
5
E8
100
AcDbEntity
8
1
62
256
6
ByLayer
370
18
48
1
60
0
100
AcDbEllipse
10
32.152599
20
12.921249
30
0
11
0.433147600073204
21
2.63780935280373E-10
31
0
210
0
220
0
230
1
40
0.230868
41
3.14159265345326
42
-2.96704007998518
0
ELLIPSE
5
E9
100
AcDbEntity
8
1
62
256
6
ByLayer
370
18
48
1
60
0
100
AcDbEllipse
10
33.444454
20
11.229799
30
0
11
0.433147587378111
21
5.07413064890066E-16
31
0
210
0
220
0
230
1
40
0.230868
41
-2.96705972839974
42
-2.47750918243452
0
ELLIPSE
5
EA
100
AcDbEntity
8
1
62
256
6
ByLayer
370
18
48
1
60
0
100
AcDbEllipse
10
33.444454
20
9.895201
30
0
11
0.433147587378111
21
5.07413064890066E-16
31
0
210
0
220
0
230
1
40
0.230868
41
2.47750918243452
42
2.96705972839972
0
ELLIPSE
5
EB
100
AcDbEntity
8
1
62
256
6
ByLayer
370
18
48
1
60
0
100
AcDbEllipse
10
32.152599
20
8.203751
30
0
11
0.433147600073204
21
-2.63780822488617E-10
31
0
210
0
220
0
230
1
40
0.230868
41
2.96704007998516
42
-3.14159265345326
0
ELLIPSE
5
EC
100
AcDbEntity
8
SK1
62
256
6
ByLayer
370
18
48
1
60
0
100
AcDbEllipse
10
-2.415859
20
-12.447099
30
0
11
2.99999999999971
21
3.51436609374723E-15
31
0
210
0
220
0
230
1
40
0.004363
41
1.13877025635166
42
2.31838067646398
0
POINT
5
70
100
AcDbEntity
8
81
62
256
6
ByLayer
370
18
48
1
60
0
100
AcDbPoint
10
39.107968
20
13.5625
30
0
39
0
210
0
220
0
230
1
50
360
0
POINT
5
72
100
AcDbEntity
8
80
62
256
6
ByLayer
370
18
48
1
60
0
100
AcDbPoint
10
0
20
0
30
0
39
0
210
0
220
0
230
1
50
360
0
POINT
5
74
100
AcDbEntity
8
1
62
256
6
ByLayer
370
18
48
1
60
1
100
AcDbPoint
10
39.107968
20
13.5625
30
0
39
0
210
0
220
0
230
1
50
360
0
POINT
5
76
100
AcDbEntity
8
1
62
256
6
ByLayer
370
18
48
1
60
1
100
AcDbPoint
10
-110.892032
20
-12.4375
30
0
39
0
210
0
220
0
230
1
50
360
0
POINT
5
77
100
AcDbEntity
8
1
62
256
6
ByLayer
370
18
48
1
60
1
100
AcDbPoint
10
39.107968
20
7.5625
30
0
39
0
210
0
220
0
230
1
50
360
0
POINT
5
78
100
AcDbEntity
8
1
62
256
6
ByLayer
370
18
48
1
60
1
100
AcDbPoint
10
39.107968
20
13.5625
30
0
39
0
210
0
220
0
230
1
50
360
0
POINT
5
79
100
AcDbEntity
8
1
62
256
6
ByLayer
370
18
48
1
60
1
100
AcDbPoint
10
-110.892032
20
-12.4375
30
0
39
0
210
0
220
0
230
1
50
360
0
POINT
5
7A
100
AcDbEntity
8
1
62
256
6
ByLayer
370
18
48
1
60
1
100
AcDbPoint
10
-110.892032
20
12.5625
30
0
39
0
210
0
220
0
230
1
50
360
0
POINT
5
7B
100
AcDbEntity
8
1
62
256
6
ByLayer
370
18
48
1
60
1
100
AcDbPoint
10
21.107968
20
7.8875
30
0
39
0
210
0
220
0
230
1
50
360
0
POINT
5
7C
100
AcDbEntity
8
1
62
256
6
ByLayer
370
18
48
1
60
1
100
AcDbPoint
10
39.107968
20
13.5625
30
0
39
0
210
0
220
0
230
1
50
360
0
POINT
5
7D
100
AcDbEntity
8
1
62
256
6
ByLayer
370
18
48
1
60
1
100
AcDbPoint
10
-110.892032
20
-12.4375
30
0
39
0
210
0
220
0
230
1
50
360
0
POINT
5
7E
100
AcDbEntity
8
1
62
256
6
ByLayer
370
18
48
1
60
1
100
AcDbPoint
10
39.107968
20
13.5625
30
0
39
0
210
0
220
0
230
1
50
360
0
SPLINE
5
ED
100
AcDbEntity
8
1
62
256
6
ByLayer
370
18
48
1
60
0
100
AcDbSpline
70
4
71
3
72
12
73
8
40
0
40
0
40
0
40
0
40
0.499999999999991
40
0.499999999999991
40
0.749999999999996
40
0.749999999999996
40
1
40
1
40
1
40
1
41
1
10
0.158340989981923
20
13.2382340151314
30
0
41
1
10
0.135141047344092
20
13.1980013393232
30
0
41
1
10
0.11038040311675
20
13.1590917602197
30
0
41
1
10
0.0708121338228409
20
13.1024403249025
30
0
41
1
10
0.0572173590838361
20
13.0838439669712
30
0
41
1
10
0.0291933404829763
20
13.047200611485
30
0
41
1
10
0.0147579802291204
20
13.0291497548217
30
0
41
1
10
1.421E-13
20
13.0114903551089
30
0
0
SPLINE
5
EE
100
AcDbEntity
8
1
62
256
6
ByLayer
370
18
48
1
60
0
100
AcDbSpline
70
4
71
3
72
14
73
10
40
0
40
0
40
0
40
0
40
0.25
40
0.25
40
0.5
40
0.5
40
0.75
40
0.75
40
1
40
1
40
1
40
1
41
1
10
30.8302153477876
20
10.0625
30
0
41
1
10
30.8140716677007
20
9.95976775470507
30
0
41
1
10
30.7976978874053
20
9.85709576150288
30
0
41
1
10
30.764286725201
20
9.65194371553943
30
0
41
1
10
30.7472535845295
20
9.54946397899829
30
0
41
1
10
30.7121683847097
20
9.34480401795156
30
0
41
1
10
30.6941280919911
20
9.24262033469299
30
0
41
1
10
30.6563123871607
20
9.03876300813806
30
0
41
1
10
30.6365888830852
20
8.93709719205231
30
0
41
1
10
30.6151139307407
20
8.83603216671258
30
0
0
SPLINE
5
EF
100
AcDbEntity
8
1
62
256
6
ByLayer
370
18
48
1
60
0
100
AcDbSpline
70
4
71
3
72
8
73
4
40
0
40
0
40
0
40
0
40
1
40
1
40
1
40
1
41
1
10
31.0271257792801
20
10.1465772376137
30
0
41
1
10
30.9616721404867
20
10.1177343063335
30
0
41
1
10
30.8961025793965
20
10.0894085401366
30
0
41
1
10
30.8302153477876
20
10.0625
30
0
0
SPLINE
5
F0
100
AcDbEntity
8
1
62
256
6
ByLayer
370
18
48
1
60
0
100
AcDbSpline
70
4
71
3
72
18
73
14
40
0
40
0
40
0
40
0
40
0.249999999999898
40
0.249999999999898
40
0.499999999999796
40
0.499999999999796
40
0.624999999999847
40
0.624999999999847
40
0.749999999999898
40
0.749999999999898
40
0.874999999999949
40
0.874999999999949
40
1
40
1
40
1
40
1
41
1
10
31.1079675788577
20
10.2875311307315
30
0
41
1
10
31.1079675788577
20
10.2717066707605
30
0
41
1
10
31.105982063428
20
10.2563259354211
30
0
41
1
10
31.0981161574226
20
10.2264348946635
30
0
41
1
10
31.0924216759353
20
10.2126741512117
30
0
41
1
10
31.0814223162421
20
10.1938746660172
30
0
41
1
10
31.0773940441613
20
10.1880189291369
30
0
41
1
10
31.0687590323546
20
10.1772311583368
30
0
41
1
10
31.0641365664652
20
10.1722727290416
30
0
41
1
10
31.0542858359855
20
10.1632208978465
30
0
41
1
10
31.0490910285897
20
10.1591674960561
30
0
41
1
10
31.0383871450721
20
10.1521203164928
30
0
41
1
10
31.0328489567552
20
10.1490992244377
30
0
41
1
10
31.0271257792801
20
10.1465772376137
30
0
0
SPLINE
5
F1
100
AcDbEntity
8
1
62
256
6
ByLayer
370
18
48
1
60
0
100
AcDbSpline
70
4
71
3
72
20
73
16
40
0
40
0
40
0
40
0
40
0.249999999999795
40
0.249999999999795
40
0.374999999999829
40
0.374999999999829
40
0.499999999999863
40
0.499999999999863
40
0.624999999999897
40
0.624999999999897
40
0.749999999999932
40
0.749999999999932
40
0.874999999999966
40
0.874999999999966
40
1
40
1
40
1
40
1
41
1
10
31.0271257792798
20
10.9784227623865
30
0
41
1
10
31.0385771767406
20
10.9733765666957
30
0
41
1
10
31.0492453454356
20
10.966387719873
30
0
41
1
10
31.0640159096367
20
10.9528494779288
30
0
41
1
10
31.0687115475183
20
10.9478222726242
30
0
41
1
10
31.0773490077084
20
10.9370431644952
30
0
41
1
10
31.0813341354953
20
10.931254614299
30
0
41
1
10
31.0886149272941
20
10.9188528991704
30
0
41
1
10
31.0919343358607
20
10.9121714878333
30
0
41
1
10
31.0976335769425
20
10.898368374
30
0
41
1
10
31.1000349899855
20
10.8912308118808
30
0
41
1
10
31.1039382341003
20
10.8764820096556
30
0
41
1
10
31.1054464872661
20
10.8688164905141
30
0
41
1
10
31.1074607871041
20
10.8532425880656
30
0
41
1
10
31.1079675788694
20
10.8453893156454
30
0
41
1
10
31.1079675788694
20
10.8374688692701
30
0
0
SPLINE
5
F2
100
AcDbEntity
8
1
62
256
6
ByLayer
370
18
48
1
60
0
100
AcDbSpline
70
4
71
3
72
8
73
4
40
0
40
0
40
0
40
0
40
1
40
1
40
1
40
1
41
1
10
30.8302153477876
20
11.0625
30
0
41
1
10
30.8960855537288
20
11.0355984131964
30
0
41
1
10
30.9616597633984
20
11.007271147779
30
0
41
1
10
31.0271257792798
20
10.9784227623865
30
0
0
SPLINE
5
F3
100
AcDbEntity
8
1
62
256
6
ByLayer
370
18
48
1
60
0
100
AcDbSpline
70
4
71
3
72
14
73
10
40
0
40
0
40
0
40
0
40
0.25
40
0.25
40
0.5
40
0.5
40
0.75
40
0.75
40
1
40
1
40
1
40
1
41
1
10
30.6151139307407
20
12.2889678332876
30
0
41
1
10
30.6365899524695
20
12.1878977752314
30
0
41
1
10
30.6563123127477
20
12.0862375522201
30
0
41
1
10
30.6941299414352
20
11.8823695360838
30
0
41
1
10
30.7121714447689
20
11.7801785045656
30
0
41
1
10
30.7472566807087
20
11.575517587678
30
0
41
1
10
30.7642892919157
20
11.4730406740385
30
0
41
1
10
30.7976987899579
20
11.2678985468226
30
0
41
1
10
30.8140716772203
20
11.1652321847161
30
0
41
1
10
30.8302153477876
20
11.0625
30
0
0
SPLINE
5
F4
100
AcDbEntity
8
1
62
256
6
ByLayer
370
18
48
1
60
0
100
AcDbSpline
70
4
71
3
72
16
73
12
40
0
40
0
40
0
40
0
40
0.0876792200791508
40
0.0876792200791508
40
0.218010760067844
40
0.218010760067844
40
0.478673840045229
40
0.478673840045229
40
0.739336920022614
40
0.739336920022614
40
1
40
1
40
1
40
1
41
1
10
0.157918683973946
20
13.2375003690043
30
0
41
1
10
0.157907728603391
20
13.2374801687079
30
0
41
1
10
0.158468398010484
20
13.2384517957039
30
0
41
1
10
0.161272858746742
20
13.2433329343829
30
0
41
1
10
0.164202297454636
20
13.248441437865
30
0
41
1
10
0.176461820471644
20
13.2703335983013
30
0
41
1
10
0.189323486522426
20
13.2936833493147
30
0
41
1
10
0.221207983274638
20
13.3578802909112
30
0
41
1
10
0.240205815653297
20
13.3987274344104
30
0
41
1
10
0.279494321592892
20
13.4979248618943
30
0
41
1
10
0.299774887887082
20
13.5562751124278
30
0
41
1
10
0.317758141296167
20
13.6233895278359
30
0
0
SPLINE
5
F5
100
AcDbEntity
8
1
62
256
6
ByLayer
370
18
48
1
60
0
100
AcDbSpline
70
4
71
3
72
10
73
6
40
0
40
0
40
0
40
0
40
0.5
40
0.5
40
1
40
1
40
1
40
1
41
1
10
0.481918108147198
20
13.2418342304512
30
0
41
1
10
0.445622862521958
20
13.2409299818821
30
0
41
1
10
0.400308932844638
20
13.2401946258396
30
0
41
1
10
0.292377677306632
20
13.2390104701889
30
0
41
1
10
0.229758237546406
20
13.2385618329412
30
0
41
1
10
0.158340989981923
20
13.2382340151314
30
0
0
SPLINE
5
F6
100
AcDbEntity
8
1
62
256
6
ByLayer
370
18
48
1
60
0
100
AcDbSpline
70
4
71
2
72
6
73
3
40
0
40
0
40
0
40
1
40
1
40
1
41
0.500004911547677
10
29.4456576260094
20
13.2964714751437
30
0
41
0.499995088452323
10
30.6804414846148
20
13.2958530802635
30
0
41
0.500004911547677
10
31.9152896720753
20
13.2952411691177
30
0
0
SPLINE
5
F7
100
AcDbEntity
8
1
62
256
6
ByLayer
370
18
48
1
60
0
100
AcDbSpline
70
4
71
3
72
16
73
12
40
0
40
0
40
0
40
0
40
0.250000000000017
40
0.250000000000017
40
0.500000000000035
40
0.500000000000035
40
0.750000000000052
40
0.750000000000052
40
0.875000000000026
40
0.875000000000026
40
1
40
1
40
1
40
1
41
1
10
20.3244127444816
20
8.14436248758142
30
0
41
1
10
20.3869013056532
20
8.17518980333358
30
0
41
1
10
20.4501998805366
20
8.20092629056626
30
0
41
1
10
20.5782365472855
20
8.24335209212285
30
0
41
1
10
20.6429758643832
20
8.26003370602689
30
0
41
1
10
20.7738095679697
20
8.28488050281246
30
0
41
1
10
20.8399043660628
20
8.29304309881684
30
0
41
1
10
20.9400508185205
20
8.2989753816241
30
0
41
1
10
20.9736686346985
20
8.2998964113371
30
0
41
1
10
21.0408776218768
20
8.29960873796136
30
0
41
1
10
21.0744422630906
20
8.29840542652229
30
0
41
1
10
21.1079675788577
20
8.29615664872222
30
0
0
SPLINE
5
F8
100
AcDbEntity
8
1
62
256
6
ByLayer
370
18
48
1
60
0
100
AcDbSpline
70
4
71
3
72
32
73
28
40
0
40
0
40
0
40
0
40
0.0624999999999953
40
0.0624999999999953
40
0.124999999999991
40
0.124999999999991
40
0.249999999999981
40
0.249999999999981
40
0.31249999999998
40
0.31249999999998
40
0.374999999999979
40
0.374999999999979
40
0.499999999999982
40
0.624999999999985
40
0.624999999999985
40
0.656249999999985
40
0.656249999999985
40
0.687499999999986
40
0.687499999999986
40
0.749999999999983
40
0.749999999999983
40
0.875000000000008
40
0.875000000000008
40
0.937500000000002
40
0.968750000000001
40
0.968750000000001
40
1
40
1
40
1
40
1
41
1
10
19.5079675788577
20
6.74226202960051
30
0
41
1
10
19.5079675788577
20
6.77792414034133
30
0
41
1
10
19.50915723795
20
6.81373025462634
30
0
41
1
10
19.5138625521222
20
6.88467858751352
30
0
41
1
10
19.5173743097334
20
6.91992136623779
30
0
41
1
10
19.5313206544729
20
7.02496876048048
30
0
41
1
10
19.5451518186194
20
7.09409532763925
30
0
41
1
10
19.5727049707121
20
7.1964264362341
30
0
41
1
10
19.5830273757736
20
7.23030962608189
30
0
41
1
10
19.6059945259588
20
7.29761240408044
30
0
41
1
10
19.6186903569506
20
7.33114093612048
30
0
41
1
10
19.659795222476
20
7.42968665862324
30
0
41
1
10
19.7227549906034
20
7.55625287509193
30
0
41
1
10
19.8015775297336
20
7.67342572797205
30
0
41
1
10
19.8559235913786
20
7.74364939803053
30
0
41
1
10
19.8670479569025
20
7.75754303947906
30
0
41
1
10
19.8898145025203
20
7.78502369117479
30
0
41
1
10
19.9014612880984
20
7.79861380237057
30
0
41
1
10
19.9369155965185
20
7.83861594318887
30
0
41
1
10
19.9613213123969
20
7.86436581991691
30
0
41
1
10
20.0367968393288
20
7.93892064186059
30
0
41
1
10
20.0901154291114
20
7.98504223470098
30
0
41
1
10
20.1745767043481
20
8.04887482384152
30
0
41
1
10
20.2179318070066
20
8.07944935192424
30
0
41
1
10
20.2630037639368
20
8.10797524581801
30
0
41
1
10
20.2934390970264
20
8.12653028943242
30
0
41
1
10
20.3088787543432
20
8.1355922017064
30
0
41
1
10
20.3244127444814
20
8.1443624875821
30
0
0
SPLINE
5
F9
100
AcDbEntity
8
1
62
256
6
ByLayer
370
18
48
1
60
0
100
AcDbSpline
70
4
71
3
72
9
73
5
40
0
40
0
40
0
40
0
40
0.5
40
1
40
1
40
1
40
1
41
1
10
19.5112365361353
20
6.41250000000002
30
0
41
1
10
19.5119371405567
20
6.41250000000002
30
0
41
1
10
19.513030381532
20
6.41250000000002
30
0
41
1
10
19.5128811924527
20
6.41250000000002
30
0
41
1
10
19.5125159067597
20
6.41250000000002
30
0
0
SPLINE
5
FA
100
AcDbEntity
8
1
62
256
6
ByLayer
370
18
48
1
60
0
100
AcDbSpline
70
4
71
3
72
36
73
32
40
0
40
0
40
0
40
0
40
0.125000000000014
40
0.125000000000014
40
0.187500000000021
40
0.187500000000021
40
0.21875000000003
40
0.21875000000003
40
0.25000000000004
40
0.25000000000004
40
0.375000000000087
40
0.375000000000087
40
0.43750000000012
40
0.43750000000012
40
0.468750000000126
40
0.468750000000126
40
0.500000000000131
40
0.500000000000131
40
0.625000000000106
40
0.625000000000106
40
0.656250000000099
40
0.656250000000099
40
0.687500000000092
40
0.687500000000092
40
0.75000000000008
40
0.75000000000008
40
0.875000000000057
40
0.875000000000057
40
0.937500000000029
40
0.937500000000029
40
1
40
1
40
1
40
1
41
1
10
19.5112365361353
20
6.41250000000002
30
0
41
1
10
19.5176768555469
20
6.51272432117503
30
0
41
1
10
19.5334366885964
20
6.61076482741711
30
0
41
1
10
19.5704871065865
20
6.75468310326823
30
0
41
1
10
19.5850875625855
20
6.80212855162677
30
0
41
1
10
19.6104275869687
20
6.87249079338503
30
0
41
1
10
19.6194484180359
20
6.89581033357646
30
0
41
1
10
19.6386609539233
20
6.9421750464671
30
0
41
1
10
19.6488461606633
20
6.96519467637938
30
0
41
1
10
19.7021636351336
20
7.07840298376669
30
0
41
1
10
19.7527910753801
20
7.16392620593234
30
0
41
1
10
19.8404703334111
20
7.28478638345067
30
0
41
1
10
19.8716658282881
20
7.32382761718702
30
0
41
1
10
19.9215038573919
20
7.38046356000592
30
0
41
1
10
19.9386683277109
20
7.39906278624801
30
0
41
1
10
19.9736942851393
20
7.43525525706701
30
0
41
1
10
19.9915793439515
20
7.45287974516802
30
0
41
1
10
20.0828351967271
20
7.53868128447121
30
0
41
1
10
20.1616496253412
20
7.59995654219253
30
0
41
1
10
20.267445291081
20
7.66732356250782
30
0
41
1
10
20.2889713123315
20
7.6803318020113
30
0
41
1
10
20.3327699102017
20
7.7054017496454
30
0
41
1
10
20.355095793894
20
7.71749025697702
30
0
41
1
10
20.4228296763736
20
7.75210413783961
30
0
41
1
10
20.4687595718543
20
7.77287738135993
30
0
41
1
10
20.6088038223639
20
7.82848947819792
30
0
41
1
10
20.7051529427578
20
7.85667960161612
30
0
41
1
10
20.8542546154902
20
7.88534463954355
30
0
41
1
10
20.9048647031168
20
7.89261270477002
30
0
41
1
10
21.006138295337
20
7.90224989583052
30
0
41
1
10
21.0569598129394
20
7.90466262854591
30
0
41
1
10
21.1079675788577
20
7.90464961267932
30
0
0
SPLINE
5
FB
100
AcDbEntity
8
1
62
256
6
ByLayer
370
18
48
1
60
0
100
AcDbSpline
70
4
71
3
72
19
73
15
40
0
40
0
40
0
40
0
40
0.105598795309804
40
0.207133056768055
40
0.304606247524509
40
0.398022283830687
40
0.487385615464933
40
0.572701326119433
40
0.65397525896564
40
0.73121417467848
40
0.804425952125347
40
0.873619846082834
40
0.938806822394095
40
1
40
1
40
1
40
1
41
1
10
33.5903344094777
20
11.045585351822
30
0
41
1
10
33.5840761970285
20
11.0462049490853
30
0
41
1
10
33.5718006528737
20
11.047420295101
30
0
41
1
10
33.5537803793113
20
11.0495082121237
30
0
41
1
10
33.5365066980787
20
11.0517307140948
30
0
41
1
10
33.5199815978415
20
11.0540935121281
30
0
41
1
10
33.5042045496442
20
11.0565773874631
30
0
41
1
10
33.489175669928
20
11.0591698932994
30
0
41
1
10
33.4748948450178
20
11.0618571633471
30
0
41
1
10
33.461362220515
20
11.0646269601486
30
0
41
1
10
33.4485771361836
20
11.0674646761752
30
0
41
1
10
33.4365416220808
20
11.0703656318826
30
0
41
1
10
33.4252484391685
20
11.0732934196336
30
0
41
1
10
33.4180023208297
20
11.0753781454489
30
0
41
1
10
33.4144937556577
20
11.0763875681559
30
0
0
SPLINE
5
FC
100
AcDbEntity
8
1
62
256
6
ByLayer
370
18
48
1
60
0
100
AcDbSpline
70
4
71
3
72
16
73
12
40
0
40
0
40
0
40
0
40
0.118227901208881
40
0.234676362797913
40
0.349345481218934
40
0.46223535748397
40
0.573346097457506
40
0.682677812172248
40
0.790230618171239
40
0.896004637878218
40
1
40
1
40
1
40
1
41
1
10
34.2782562832494
20
10.9902346738549
30
0
41
1
10
34.2511197056845
20
10.9920566837591
30
0
41
1
10
34.1972549812279
20
10.9956732806277
30
0
41
1
10
34.1170922922537
20
11.0013878609321
30
0
41
1
10
34.0381709830422
20
11.0072527074665
30
0
41
1
10
33.9604925316279
20
11.0132819529497
30
0
41
1
10
33.8840565884171
20
11.0194609754792
30
0
41
1
10
33.8088631066358
20
11.0257809223075
30
0
41
1
10
33.7349125996956
20
11.0322385791177
30
0
41
1
10
33.6622031062715
20
11.0388039893532
30
0
41
1
10
33.6141548395487
20
11.0433377116472
30
0
41
1
10
33.5903344094477
20
11.04558535183
30
0
0
SPLINE
5
FD
100
AcDbEntity
8
1
62
256
6
ByLayer
370
18
48
1
60
0
100
AcDbSpline
70
4
71
2
72
10
73
7
40
0
40
0
40
0
40
0.5
40
0.5
40
0.75
40
0.75
40
1
40
1
40
1
41
1
10
34.2782887623582
20
10.990232523738
30
0
41
1
10
34.5084766281546
20
10.9749656263186
30
0
41
1
10
34.6893670747101
20
10.9387583567371
30
0
41
1
10
34.8056843988321
20
10.9154761282298
30
0
41
1
10
34.8895082914304
20
10.8855189485083
30
0
41
1
10
35.0326093111201
20
10.8343771698065
30
0
41
1
10
35.0579578053785
20
10.773235586972
30
0
0
SPLINE
5
FE
100
AcDbEntity
8
1
62
256
6
ByLayer
370
18
48
1
60
0
100
AcDbSpline
70
4
71
2
72
6
73
3
40
0
40
0
40
0
40
1
40
1
40
1
41
1
10
35.0579578055285
20
10.773235587058
30
0
41
1
10
35.096459487415
20
10.6780912650914
30
0
41
1
10
35.0965718838384
20
10.5825000006976
30
0
0
SPLINE
5
FF
100
AcDbEntity
8
1
62
256
6
ByLayer
370
18
48
1
60
0
100
AcDbSpline
70
4
71
3
72
24
73
20
40
0
40
0
40
0
40
0
40
0.061588375904784
40
0.122688254024825
40
0.183326299851782
40
0.243529792547988
40
0.303326606004168
40
0.362745186445417
40
0.421814526539195
40
0.48056413600027
40
0.53902400873085
40
0.597224586585104
40
0.655196719894233
40
0.712971624940738
40
0.770580838619262
40
0.828056170570644
40
0.885429653119947
40
0.942733489390611
40
1
40
1
40
1
40
1
41
1
10
35.0579578055278
20
10.351764412942
30
0
41
1
10
35.0594436198264
20
10.3554901798058
30
0
41
1
10
35.0624034634566
20
10.3629121620338
30
0
41
1
10
35.0665335510314
20
10.3741216503168
30
0
41
1
10
35.0704126002712
20
10.3853285131277
30
0
41
1
10
35.0740202244668
20
10.39654112012
30
0
41
1
10
35.0773618148129
20
10.4077568203017
30
0
41
1
10
35.0804359314506
20
10.4189758821521
30
0
41
1
10
35.0832429457918
20
10.4301977990063
30
0
41
1
10
35.0857827497321
20
10.4414222688591
30
0
41
1
10
35.0880553599418
20
10.4526489343787
30
0
41
1
10
35.0900607713689
20
10.4638774519818
30
0
41
1
10
35.0917989449761
20
10.4751074735421
30
0
41
1
10
35.0932700015628
20
10.4863386513105
30
0
41
1
10
35.0944734630586
20
10.4975706367791
30
0
41
1
10
35.0954110833721
20
10.5088030808113
30
0
41
1
10
35.0960763156915
20
10.5200356348018
30
0
41
1
10
35.09649352601
20
10.531267946552
30
0
41
1
10
35.0965457702353
20
10.5387567949783
30
0
41
1
10
35.0965718838377
20
10.5424999993024
30
0
0
SPLINE
5
100
100
AcDbEntity
8
1
62
256
6
ByLayer
370
18
48
1
60
0
100
AcDbSpline
70
4
71
3
72
43
73
39
40
0
40
0
40
0
40
0
40
0.0409973406366473
40
0.0809092982715883
40
0.119736159842855
40
0.157478237047535
40
0.194135869264771
40
0.229709426921876
40
0.264199315386297
40
0.297605979485302
40
0.329929908777826
40
0.361171643733669
40
0.391331783012882
40
0.420410992088532
40
0.448410013519453
40
0.475329679265292
40
0.501170925548102
40
0.572592867093697
40
0.638080914696121
40
0.697670982799365
40
0.751410812475215
40
0.772779913618555
40
0.793234602755298
40
0.812782181749349
40
0.831431018019209
40
0.849190749344517
40
0.866072536338505
40
0.882089374987189
40
0.897256484840484
40
0.911591792130986
40
0.925116531009039
40
0.937855989439944
40
0.949840427402951
40
0.961106190504011
40
0.971697025976483
40
0.981665570834281
40
0.991074911407364
40
1
40
1
40
1
40
1
41
1
10
34.2782887623577
20
10.134767476262
30
0
41
1
10
34.2895631222299
20
10.1355405333594
30
0
41
1
10
34.3118133592345
20
10.1370661812744
30
0
41
1
10
34.3447150641194
20
10.1396689404714
30
0
41
1
10
34.3767019659088
20
10.1424480523694
30
0
41
1
10
34.407772359178
20
10.14541298977
30
0
41
1
10
34.4379266866725
20
10.1485435105337
30
0
41
1
10
34.4671648399147
20
10.1518273427029
30
0
41
1
10
34.4954868525875
20
10.1552505360394
30
0
41
1
10
34.5228927230565
20
10.1587999639445
30
0
41
1
10
34.5493824591063
20
10.1624627077348
30
0
41
1
10
34.5749560699526
20
10.1662262288779
30
0
41
1
10
34.5996135570684
20
10.1700783622644
30
0
41
1
10
34.6233549575164
20
10.1740072610155
30
0
41
1
10
34.6461801897487
20
10.1780016729279
30
0
41
1
10
34.6680895995151
20
10.1820499937755
30
0
41
1
10
34.7017162773129
20
10.1886073663191
30
0
41
1
10
34.7456278445157
20
10.1980375625419
30
0
41
1
10
34.7982823644368
20
10.2110901785153
30
0
41
1
10
34.845773612152
20
10.2246596087783
30
0
41
1
10
34.8811320206566
20
10.23632203962
30
0
41
1
10
34.9059166189132
20
10.245472103705
30
0
41
1
10
34.9217060220041
20
10.2516993032897
30
0
41
1
10
34.9366569560854
20
10.2580079877224
30
0
41
1
10
34.9507695474202
20
10.2643921260808
30
0
41
1
10
34.9640439541749
20
10.2708455162314
30
0
41
1
10
34.976480361927
20
10.277362070018
30
0
41
1
10
34.988078987632
20
10.2839357642014
30
0
41
1
10
34.9988400883375
20
10.2905606767799
30
0
41
1
10
35.0087639371236
20
10.2972310216471
30
0
41
1
10
35.0178508966876
20
10.303941151275
30
0
41
1
10
35.026101124226
20
10.3106857216071
30
0
41
1
10
35.0335154735876
20
10.3174593379339
30
0
41
1
10
35.0400922106459
20
10.3242580006681
30
0
41
1
10
35.0458378226846
20
10.331074412401
30
0
41
1
10
35.0507295801995
20
10.3379140966517
30
0
41
1
10
35.0548425446086
20
10.3447401833556
30
0
41
1
10
35.0569378321485
20
10.349464597137
30
0
41
1
10
35.0579578053777
20
10.351764413028
30
0
0
SPLINE
5
101
100
AcDbEntity
8
1
62
256
6
ByLayer
370
18
48
1
60
0
100
AcDbSpline
70
4
71
2
72
6
73
3
40
0
40
0
40
0
40
1
40
1
40
1
41
1
10
34.2782562832499
20
10.1347653261426
30
0
41
1
10
33.9275203628027
20
10.1115374694324
30
0
41
1
10
33.5903344094485
20
10.07941464817
30
0
0
SPLINE
5
102
100
AcDbEntity
8
1
62
256
6
ByLayer
370
18
48
1
60
0
100
AcDbSpline
70
4
71
2
72
6
73
3
40
0
40
0
40
0
40
1
40
1
40
1
41
1
10
33.5903344094781
20
10.079414648178
30
0
41
1
10
33.484958330586
20
10.0693233680093
30
0
41
1
10
33.4144937556582
20
10.048612431844
30
0
0
SPLINE
5
103
100
AcDbEntity
8
SK1
62
256
6
ByLayer
370
18
48
1
60
0
100
AcDbSpline
70
4
71
3
72
26
73
22
40
0
40
0
40
0
40
0
40
0.124999999999986
40
0.124999999999986
40
0.249999999999972
40
0.249999999999972
40
0.374999999999958
40
0.374999999999958
40
0.43749999999995
40
0.43749999999995
40
0.499999999999941
40
0.499999999999941
40
0.624999999999943
40
0.624999999999943
40
0.749999999999946
40
0.749999999999946
40
0.812499999999959
40
0.812499999999959
40
0.874999999999972
40
0.874999999999972
40
1
40
1
40
1
40
1
41
1
10
1.421E-13
20
13.0114903551089
30
0
41
1
10
-0.0346247765711212
20
12.9700583461243
30
0
41
1
10
-0.0711572466567816
20
12.930587745735
30
0
41
1
10
-0.148194753929971
20
12.8553333982738
30
0
41
1
10
-0.188699322251807
20
12.8195519676671
30
0
41
1
10
-0.273950821075488
20
12.7516981980431
30
0
41
1
10
-0.318696444120974
20
12.7196259483104
30
0
41
1
10
-0.389302647539637
20
12.6744771038324
30
0
41
1
10
-0.413420542254954
20
12.6599224277671
30
0
41
1
10
-0.462889913686467
20
12.6318546577555
30
0
41
1
10
-0.488277150298814
20
12.618323740836
30
0
41
1
10
-0.566180091253386
20
12.5795125216883
30
0
41
1
10
-0.619895856035697
20
12.5562658333454
30
0
41
1
10
-0.731084633046663
20
12.5153768558119
30
0
41
1
10
-0.788556483499946
20
12.4977322812511
30
0
41
1
10
-0.877812840841955
20
12.4759300342488
30
0
41
1
10
-0.908074038302317
20
12.4694423417073
30
0
41
1
10
-0.969667574983418
20
12.458136932706
30
0
41
1
10
-1.0010629079095
20
12.4533117276349
30
0
41
1
10
-1.09650467696932
20
12.4416017730995
30
0
41
1
10
-1.16143874081823
20
12.4375
30
0
41
1
10
-1.22772318076633
20
12.4375
30
0
0
SPLINE
5
104
100
AcDbEntity
8
SK1
62
256
6
ByLayer
370
18
48
1
60
0
100
AcDbSpline
70
4
71
3
72
25
73
21
40
0
40
0
40
0
40
0
40
0.24999999999999
40
0.24999999999999
40
0.374999999999991
40
0.374999999999991
40
0.499999999999992
40
0.499999999999992
40
0.562499999999994
40
0.562499999999994
40
0.624999999999997
40
0.624999999999997
40
0.750000000000002
40
0.750000000000002
40
0.812500000000015
40
0.812500000000015
40
0.843750000000013
40
0.843750000000013
40
0.87500000000001
40
1
40
1
40
1
40
1
41
1
10
5.68E-14
20
-11.9375
30
0
41
1
10
-0.081272231008569
20
-11.9375
30
0
41
1
10
-0.168870683598044
20
-11.9436343924784
30
0
41
1
10
-0.30866431707463
20
-11.9668448627978
30
0
41
1
10
-0.356664583664127
20
-11.9769263241741
30
0
41
1
10
-0.455304042223105
20
-12.0028019671426
30
0
41
1
10
-0.505944036579052
20
-12.0185913520974
30
0
41
1
10
-0.583750127344757
20
-12.047533053712
30
0
41
1
10
-0.609764340888745
20
-12.057976889984
30
0
41
1
10
-0.661714167173983
20
-12.080470300422
30
0
41
1
10
-0.687676717244443
20
-12.0925297570093
30
0
41
1
10
-0.765418377766736
20
-12.1312682306066
30
0
41
1
10
-0.817054393593281
20
-12.1605006787313
30
0
41
1
10
-0.893747449239044
20
-12.2100431268042
30
0
41
1
10
-0.919184355821727
20
-12.2275077230267
30
0
41
1
10
-0.957081448607511
20
-12.2552207744954
30
0
41
1
10
-0.969691387769075
20
-12.2647280993606
30
0
41
1
10
-0.99463998354824
20
-12.2841281470777
30
0
41
1
10
-1.05640650843455
20
-12.3336428911563
30
0
41
1
10
-1.11506300800917
20
-12.3882232278493
30
0
41
1
10
-1.15972464815158
20
-12.4352120428538
30
0
0
SPLINE
5
105
100
AcDbEntity
8
1
62
256
6
ByLayer
370
18
48
1
60
0
100
AcDbSpline
70
4
71
3
72
37
73
33
40
0
40
0
40
0
40
0
40
0.124999999999986
40
0.124999999999986
40
0.249999999999972
40
0.249999999999972
40
0.374999999999958
40
0.374999999999958
40
0.43749999999995
40
0.43749999999995
40
0.499999999999942
40
0.499999999999942
40
0.562499999999934
40
0.562499999999934
40
0.624999999999926
40
0.624999999999926
40
0.687499999999918
40
0.687499999999918
40
0.718749999999927
40
0.718749999999927
40
0.749999999999935
40
0.749999999999935
40
0.81249999999998
40
0.81249999999998
40
0.843749999999986
40
0.843749999999986
40
0.874999999999991
40
0.906249999999996
40
0.906249999999996
40
0.937500000000001
40
0.937500000000001
40
1
40
1
40
1
40
1
41
1
10
9.95126757885774
20
-0.337499999999977
30
0
41
1
10
9.95126757885774
20
-0.373940848740375
30
0
41
1
10
9.95269279243362
20
-0.410418444400392
30
0
41
1
10
9.95846730300613
20
-0.483047100224951
30
0
41
1
10
9.96282190846367
20
-0.519278733278242
30
0
41
1
10
9.97470234576861
20
-0.591079552163649
30
0
41
1
10
9.98224192061798
20
-0.626749648561884
30
0
41
1
10
9.99628816746852
20
-0.679351432506508
30
0
41
1
10
10.001428775853
20
-0.696739956645246
30
0
41
1
10
10.0127437917754
20
-0.731186399949422
30
0
41
1
10
10.0189191082059
20
-0.748241219821892
30
0
41
1
10
10.032374261687
20
-0.781730205188467
30
0
41
1
10
10.039661216855
20
-0.798192323545777
30
0
41
1
10
10.055564003273
20
-0.830438255857132
30
0
41
1
10
10.0642051096389
20
-0.846256134596786
30
0
41
1
10
10.0828329777417
20
-0.87655866467469
30
0
41
1
10
10.0928396100797
20
-0.891099394555596
30
0
41
1
10
10.1091437573851
20
-0.911753234840006
30
0
41
1
10
10.1147954240346
20
-0.918443805367758
30
0
41
1
10
10.1265979560343
20
-0.931375378118133
30
0
41
1
10
10.132779955872
20
-0.937643441298377
30
0
41
1
10
10.1518851018807
20
-0.955359821201995
30
0
41
1
10
10.1653876365584
20
-0.965785028836706
30
0
41
1
10
10.1870689652934
20
-0.978788561201327
30
0
41
1
10
10.194594045318
20
-0.982703367875672
30
0
41
1
10
10.2098446095861
20
-0.989359391919493
30
0
41
1
10
10.2252909056517
20
-0.994861810746073
30
0
41
1
10
10.2411363642203
20
-0.997962789819951
30
0
41
1
10
10.2571895432921
20
-0.999793607965557
30
0
41
1
10
10.2652479815454
20
-1.00005503029823
30
0
41
1
10
10.2889328108441
20
-0.998959508422615
30
0
41
1
10
10.3043082486898
20
-0.995766782966086
30
0
41
1
10
10.3193109365589
20
-0.990370758576347
30
0
0
SPLINE
5
106
100
AcDbEntity
8
1
62
256
6
ByLayer
370
18
48
1
60
0
100
AcDbSpline
70
4
71
3
72
35
73
31
40
0
40
0
40
0
40
0
40
0.125000000000013
40
0.125000000000013
40
0.250000000000026
40
0.250000000000026
40
0.375000000000039
40
0.375000000000039
40
0.437500000000042
40
0.437500000000042
40
0.500000000000046
40
0.500000000000046
40
0.625000000000057
40
0.625000000000057
40
0.687500000000066
40
0.687500000000066
40
0.718750000000061
40
0.718750000000061
40
0.750000000000056
40
0.750000000000056
40
0.812500000000043
40
0.812500000000043
40
0.84375000000004
40
0.84375000000004
40
0.875000000000038
40
0.906250000000035
40
0.906250000000035
40
0.937500000000032
40
0.937500000000032
40
1
40
1
40
1
40
1
41
1
10
11.3546175788577
20
-2.76817350080174
30
0
41
1
10
11.3230772295705
20
-2.74996367165048
30
0
41
1
10
11.2921831527376
20
-2.73048128927965
30
0
41
1
10
11.2321791955767
20
-2.6891713961212
30
0
41
1
10
11.2030591854606
20
-2.66734802469625
30
0
41
1
10
11.1467682215717
20
-2.62112435383048
30
0
41
1
10
11.1196845176971
20
-2.5967940739317
30
0
41
1
10
11.0811899883867
20
-2.55837634152115
30
0
41
1
10
11.0687042516215
20
-2.54523842442595
30
0
41
1
10
11.0445178023307
20
-2.51821216698261
30
0
41
1
10
11.0328186258135
20
-2.50432264752462
30
0
41
1
10
10.9993393257999
20
-2.46165343228128
30
0
41
1
10
10.9789835829281
20
-2.4316913395202
30
0
41
1
10
10.9535073986186
20
-2.38460060677224
30
0
41
1
10
10.9458246934894
20
-2.36845389028403
30
0
41
1
10
10.9360507586854
20
-2.34382323323703
30
0
41
1
10
10.9330830352457
20
-2.33554309568203
30
0
41
1
10
10.9278072746541
20
-2.31882656710565
30
0
41
1
10
10.9254937455611
20
-2.31036069269419
30
0
41
1
10
10.9197679767506
20
-2.2850234789544
30
0
41
1
10
10.9175287113521
20
-2.26816173379666
30
0
41
1
10
10.917155908337
20
-2.24294990923656
30
0
41
1
10
10.9175428656265
20
-2.23449830494147
30
0
41
1
10
10.9194273459546
20
-2.21801610260474
30
0
41
1
10
10.9224035239156
20
-2.20193931510761
30
0
41
1
10
10.9276483385167
20
-2.18671364601752
30
0
41
1
10
10.9340914036194
20
-2.17194107125729
30
0
41
1
10
10.937890380678
20
-2.16485664974371
30
0
41
1
10
10.95066350316
20
-2.14495663986992
30
0
41
1
10
10.9610935829989
20
-2.13327134708959
30
0
41
1
10
10.9732365953932
20
-2.12300322405019
30
0
0
SPLINE
5
107
100
AcDbEntity
8
1
62
256
6
ByLayer
370
18
48
1
60
0
100
AcDbSpline
70
4
71
3
72
50
73
46
40
0
40
0
40
0
40
0
40
0.0312499999999938
40
0.0312499999999938
40
0.0624999999999877
40
0.0624999999999877
40
0.0937499999999815
40
0.0937499999999815
40
0.124999999999975
40
0.124999999999975
40
0.156249999999969
40
0.156249999999969
40
0.187499999999963
40
0.187499999999963
40
0.218749999999957
40
0.218749999999957
40
0.249999999999951
40
0.249999999999951
40
0.312499999999955
40
0.312499999999955
40
0.374999999999961
40
0.374999999999961
40
0.437499999999966
40
0.437499999999966
40
0.499999999999971
40
0.499999999999971
40
0.624999999999978
40
0.624999999999978
40
0.687499999999982
40
0.687499999999982
40
0.749999999999987
40
0.749999999999987
40
0.812499999999991
40
0.812499999999991
40
0.843749999999993
40
0.843749999999993
40
0.874999999999994
40
0.874999999999994
40
0.906249999999996
40
0.906249999999996
40
0.937499999999997
40
0.937499999999997
40
0.968749999999999
40
0.968749999999999
40
1
40
1
40
1
40
1
41
1
10
10.339310936559
20
-0.988998961765503
30
0
41
1
10
10.3529788873809
20
-0.988061479198052
30
0
41
1
10
10.3666735846415
20
-0.988585119359186
30
0
41
1
10
10.3941149016213
20
-0.991966589061718
30
0
41
1
10
10.4078478580987
20
-0.9948375601208
30
0
41
1
10
10.4349312099281
20
-1.00241019765744
30
0
41
1
10
10.4483783495692
20
-1.0071373187383
30
0
41
1
10
10.4748128620199
20
-1.0180357901252
30
0
41
1
10
10.4878227644788
20
-1.02421068436269
30
0
41
1
10
10.5135042981909
20
-1.03779136910086
30
0
41
1
10
10.5261508147335
20
-1.04518785487735
30
0
41
1
10
10.550961167121
20
-1.06093124735472
30
0
41
1
10
10.5631506774453
20
-1.06929248843119
30
0
41
1
10
10.5871579853918
20
-1.08688520558888
30
0
41
1
10
10.5989794148383
20
-1.0961225119529
30
0
41
1
10
10.6221386109027
20
-1.11526235675441
30
0
41
1
10
10.6334976230793
20
-1.1251801571515
30
0
41
1
10
10.6669812911105
20
-1.15588986358961
30
0
41
1
10
10.688569579496
20
-1.1776949313608
30
0
41
1
10
10.7299856163856
20
-1.22312969247074
30
0
41
1
10
10.749848838495
20
-1.24678632802065
30
0
41
1
10
10.7880475994718
20
-1.29583395463231
30
0
41
1
10
10.8063397639499
20
-1.32118144115807
30
0
41
1
10
10.8411126978036
20
-1.37302989888909
30
0
41
1
10
10.8576420422002
20
-1.39959458610417
30
0
41
1
10
10.9046494268408
20
-1.48115108836976
30
0
41
1
10
10.9320560119412
20
-1.53701612707874
30
0
41
1
10
10.9669236047856
20
-1.62321952477509
30
0
41
1
10
10.9775121473401
20
-1.65245490957162
30
0
41
1
10
10.9960013967105
20
-1.71082842931654
30
0
41
1
10
11.0039542923882
20
-1.74006892024232
30
0
41
1
10
11.0169393902509
20
-1.79872323066979
30
0
41
1
10
11.0219807715168
20
-1.82813598294959
30
0
41
1
10
11.026816349157
20
-1.87246684220207
30
0
41
1
10
11.0279690577686
20
-1.88732441271668
30
0
41
1
10
11.0291879990699
20
-1.9167052276222
30
0
41
1
10
11.0292618764624
20
-1.93126737706419
30
0
41
1
10
11.0281858887306
20
-1.96011319924986
30
0
41
1
10
11.0270375256738
20
-1.97439716540657
30
0
41
1
10
11.0232815435845
20
-2.00264805350991
30
0
41
1
10
11.0206636874187
20
-2.01666662108806
30
0
41
1
10
11.0136414869944
20
-2.04409321568758
30
0
41
1
10
11.0092830999659
20
-2.05734430281052
30
0
41
1
10
10.9985254727176
20
-2.0827506784309
30
0
41
1
10
10.9921319965006
20
-2.09490907709608
30
0
41
1
10
10.9844246062806
20
-2.10636861437934
30
0
0
SPLINE
5
108
100
AcDbEntity
8
1
62
256
6
ByLayer
370
18
48
1
60
0
100
AcDbSpline
70
4
71
3
72
8
73
4
40
0
40
0
40
0
40
0
40
1
40
1
40
1
40
1
41
1
10
10.3193109365589
20
-0.990370758576347
30
0
41
1
10
10.3259773599546
20
-0.989913509658663
30
0
41
1
10
10.3326440247208
20
-0.989456244185391
30
0
41
1
10
10.339310936559
20
-0.988998961765503
30
0
0
SPLINE
5
109
100
AcDbEntity
8
1
62
256
6
ByLayer
370
18
48
1
60
0
100
AcDbSpline
70
4
71
3
72
8
73
4
40
0
40
0
40
0
40
0
40
1
40
1
40
1
40
1
41
1
10
10.9732365953932
20
-2.12300322405019
30
0
41
1
10
10.9769657962696
20
-2.11745855649605
30
0
41
1
10
10.9806951321688
20
-2.11191368818663
30
0
41
1
10
10.9844246062802
20
-2.10636861437993
30
0
0
SPLINE
5
10A
100
AcDbEntity
8
1
62
256
6
ByLayer
370
18
48
1
60
0
100
AcDbSpline
70
4
71
3
72
35
73
31
40
0
40
0
40
0
40
0
40
0.125000000000079
40
0.125000000000079
40
0.250000000000157
40
0.250000000000157
40
0.375000000000236
40
0.375000000000236
40
0.437500000000241
40
0.437500000000241
40
0.500000000000245
40
0.500000000000245
40
0.625000000000255
40
0.625000000000255
40
0.687500000000237
40
0.687500000000237
40
0.718750000000211
40
0.718750000000211
40
0.750000000000185
40
0.750000000000185
40
0.812500000000133
40
0.812500000000133
40
0.843750000000108
40
0.843750000000108
40
0.875000000000083
40
0.906250000000059
40
0.906250000000059
40
0.937500000000034
40
0.937500000000034
40
1
40
1
40
1
40
1
41
1
10
14.1613175788577
20
2.09317350080184
30
0
41
1
10
14.1928579281449
20
2.07496367165055
30
0
41
1
10
14.2237520049779
20
2.05548128927973
30
0
41
1
10
14.2837559621387
20
2.0141713961213
30
0
41
1
10
14.3128759722548
20
1.99234802469633
30
0
41
1
10
14.3691669361438
20
1.94612435383056
30
0
41
1
10
14.3962506400184
20
1.92179407393178
30
0
41
1
10
14.4347451693287
20
1.88337634152126
30
0
41
1
10
14.4472309060939
20
1.87023842442602
30
0
41
1
10
14.4714173553848
20
1.84321216698268
30
0
41
1
10
14.483116531902
20
1.82932264752469
30
0
41
1
10
14.5165958319156
20
1.78665343228135
30
0
41
1
10
14.5369515747875
20
1.75669133952027
30
0
41
1
10
14.5624277590969
20
1.70960060677231
30
0
41
1
10
14.5701104642261
20
1.6934538902841
30
0
41
1
10
14.5798843990301
20
1.66882323323708
30
0
41
1
10
14.5828521224699
20
1.6605430956821
30
0
41
1
10
14.5881278830613
20
1.64382656710572
30
0
41
1
10
14.5904414121544
20
1.63536069269426
30
0
41
1
10
14.5961671809649
20
1.61002347895445
30
0
41
1
10
14.5984064463634
20
1.59316173379671
30
0
41
1
10
14.5987792493784
20
1.5679499092366
30
0
41
1
10
14.598392292089
20
1.55949830494151
30
0
41
1
10
14.5965078117609
20
1.54301610260478
30
0
41
1
10
14.5935316338
20
1.52693931510763
30
0
41
1
10
14.5882868191988
20
1.51171364601757
30
0
41
1
10
14.5818437540961
20
1.49694107125734
30
0
41
1
10
14.5780447770374
20
1.48985664974373
30
0
41
1
10
14.5652716545555
20
1.46995663986996
30
0
41
1
10
14.5548415747166
20
1.45827134708963
30
0
41
1
10
14.5426985623223
20
1.44800322405024
30
0
0
SPLINE
5
10B
100
AcDbEntity
8
1
62
256
6
ByLayer
370
18
48
1
60
0
100
AcDbSpline
70
4
71
3
72
52
73
48
40
0
40
0
40
0
40
0
40
0.0156249999999978
40
0.0156249999999978
40
0.0312499999999957
40
0.0312499999999957
40
0.062499999999998
40
0.062499999999998
40
0.0937500000000003
40
0.0937500000000003
40
0.125000000000003
40
0.125000000000003
40
0.187499999999997
40
0.187499999999997
40
0.218749999999997
40
0.218749999999997
40
0.249999999999997
40
0.249999999999997
40
0.312499999999996
40
0.312499999999996
40
0.374999999999996
40
0.374999999999996
40
0.437499999999996
40
0.437499999999996
40
0.499999999999996
40
0.499999999999996
40
0.562499999999995
40
0.562499999999995
40
0.624999999999995
40
0.624999999999995
40
0.687499999999995
40
0.687499999999995
40
0.749999999999995
40
0.749999999999995
40
0.812499999999995
40
0.812499999999995
40
0.843749999999996
40
0.843749999999996
40
0.874999999999996
40
0.874999999999996
40
0.906249999999997
40
0.906249999999997
40
0.937499999999998
40
0.937499999999998
40
0.968749999999999
40
0.968749999999999
40
1
40
1
40
1
40
1
41
1
10
14.5315105514348
20
1.43136861437938
30
0
41
1
10
14.5276830539134
20
1.42567779695648
30
0
41
1
10
14.5241632869443
20
1.41978413495713
30
0
41
1
10
14.5176748518947
20
1.40763226749678
30
0
41
1
10
14.5147023367997
20
1.40136065584616
30
0
41
1
10
14.5066237578486
20
1.38226953225509
30
0
41
1
10
14.5023097652094
20
1.36911337591741
30
0
41
1
10
14.4953745631771
20
1.34211124226383
30
0
41
1
10
14.4927572063055
20
1.32826373536008
30
0
41
1
10
14.4889531072044
20
1.29997119072601
30
0
41
1
10
14.4877785207817
20
1.28557402892881
30
0
41
1
10
14.4861235340372
20
1.24216246759781
30
0
41
1
10
14.487481202677
20
1.21265665124417
30
0
41
1
10
14.4922808755458
20
1.16839176147354
30
0
41
1
10
14.4943456956013
20
1.15361298555558
30
0
41
1
10
14.4993129070484
20
1.12400327859137
30
0
41
1
10
14.5022198101891
20
1.10915843044546
30
0
41
1
10
14.5120394806928
20
1.06480744429146
30
0
41
1
10
14.5200537688757
20
1.03539901803791
30
0
41
1
10
14.5386414674771
20
0.976816662149929
30
0
41
1
10
14.5492084648279
20
0.947696859528406
30
0
41
1
10
14.5724753530048
20
0.890246290005877
30
0
41
1
10
14.5852094898562
20
0.861821188988301
30
0
41
1
10
14.612734958033
20
0.805653689090889
30
0
41
1
10
14.6274608488298
20
0.778042434231452
30
0
41
1
10
14.6588077900865
20
0.723748414890736
30
0
41
1
10
14.6753489844441
20
0.697203994841857
30
0
41
1
10
14.7101910806209
20
0.645335400134655
30
0
41
1
10
14.7284891606848
20
0.620023820613824
30
0
41
1
10
14.7666647843649
20
0.571082425459821
30
0
41
1
10
14.7866188616736
20
0.547355373772092
30
0
41
1
10
14.8280431298292
20
0.501993011084238
30
0
41
1
10
14.8495522035469
20
0.480303198411662
30
0
41
1
10
14.8942813283764
20
0.439356563733014
30
0
41
1
10
14.9173560962664
20
0.420220232996684
30
0
41
1
10
14.953313579924
20
0.393922563364924
30
0
41
1
10
14.9655465431317
20
0.385548760681502
30
0
41
1
10
14.9903722726927
20
0.369834875958531
30
0
41
1
10
15.0029765806863
20
0.362483377915225
30
0
41
1
10
15.0286428728807
20
0.348950399491343
30
0
41
1
10
15.0416805477243
20
0.342784239063263
30
0
41
1
10
15.0680605564998
20
0.331951905010868
30
0
41
1
10
15.0814681355579
20
0.327258772308312
30
0
41
1
10
15.1085474150522
20
0.319731296903853
30
0
41
1
10
15.1221102481509
20
0.316921417438095
30
0
41
1
10
15.1493065731479
20
0.313589128361542
30
0
41
1
10
15.1629398819194
20
0.313060355119319
30
0
41
1
10
15.1766242211565
20
0.31399896176552
30
0
0
SPLINE
5
10C
100
AcDbEntity
8
1
62
256
6
ByLayer
370
18
48
1
60
0
100
AcDbSpline
70
4
71
3
72
8
73
4
40
0
40
0
40
0
40
0
40
1
40
1
40
1
40
1
41
1
10
15.1766242211565
20
0.31399896176552
30
0
41
1
10
15.1832911329946
20
0.314456244185436
30
0
41
1
10
15.1899577977609
20
0.314913509658709
30
0
41
1
10
15.1966242211565
20
0.315370758576393
30
0
0
SPLINE
5
10D
100
AcDbEntity
8
1
62
256
6
ByLayer
370
18
48
1
60
0
100
AcDbSpline
70
4
71
3
72
35
73
31
40
0
40
0
40
0
40
0
40
0.125000000000078
40
0.125000000000078
40
0.250000000000156
40
0.250000000000156
40
0.375000000000234
40
0.375000000000234
40
0.500000000000312
40
0.500000000000312
40
0.562500000000349
40
0.562500000000349
40
0.625000000000385
40
0.625000000000385
40
0.687500000000421
40
0.687500000000421
40
0.718750000000408
40
0.718750000000408
40
0.750000000000394
40
0.750000000000394
40
0.812500000000301
40
0.812500000000301
40
0.843750000000252
40
0.843750000000252
40
0.875000000000204
40
0.906250000000156
40
0.906250000000156
40
0.937500000000108
40
0.937500000000108
40
1
40
1
40
1
40
1
41
1
10
15.5646675788577
20
-0.337499999999977
30
0
41
1
10
15.5646675788577
20
-0.30108115992428
30
0
41
1
10
15.563245488628
20
-0.264629914299832
30
0
41
1
10
15.5574689494126
20
-0.191957600031316
30
0
41
1
10
15.553127727082
20
-0.155828990886676
30
0
41
1
10
15.5412544742722
20
-0.0840312024024854
30
0
41
1
10
15.5337178144866
20
-0.0483475348960667
30
0
41
1
10
15.5149596007097
20
0.0219103739432569
30
0
41
1
10
15.5037432335019
20
0.0565083421205088
30
0
41
1
10
15.4835133879764
20
0.106843112015866
30
0
41
1
10
15.4762097731643
20
0.123333956753868
30
0
41
1
10
15.4602728522884
20
0.155625943182031
30
0
41
1
10
15.4516551237323
20
0.171385696609434
30
0
41
1
10
15.4330542585176
20
0.201628888834989
30
0
41
1
10
15.4230530359845
20
0.216159515841525
30
0
41
1
10
15.4067311017672
20
0.236826462478803
30
0
41
1
10
15.4010691108822
20
0.243526094779497
30
0
41
1
10
15.389233127667
20
0.256484424145413
30
0
41
1
10
15.38304965688
20
0.262746702778742
30
0
41
1
10
15.3639672450001
20
0.280425709689126
30
0
41
1
10
15.350446640904
20
0.290865254140527
30
0
41
1
10
15.3286437928898
20
0.303911899812931
30
0
41
1
10
15.3211289837187
20
0.307804297977668
30
0
41
1
10
15.3059893305561
20
0.314395045459179
30
0
41
1
10
15.2906375389059
20
0.319857320186969
30
0
41
1
10
15.2748490625842
20
0.322953396550446
30
0
41
1
10
15.2588310512146
20
0.324787493497467
30
0
41
1
10
15.2507440081957
20
0.325055303843499
30
0
41
1
10
15.2270220282096
20
0.32396510930846
30
0
41
1
10
15.2116326007683
20
0.320768830118084
30
0
41
1
10
15.1966242211565
20
0.315370758576393
30
0
0
SPLINE
5
10E
100
AcDbEntity
8
1
62
256
6
ByLayer
370
18
48
1
60
0
100
AcDbSpline
70
4
71
3
72
8
73
4
40
0
40
0
40
0
40
0
40
1
40
1
40
1
40
1
41
1
10
14.5426985623223
20
1.44800322405024
30
0
41
1
10
14.5389693614459
20
1.44245855649609
30
0
41
1
10
14.5352400255467
20
1.43691368818668
30
0
41
1
10
14.5315105514353
20
1.43136861437998
30
0
0
SPLINE
5
10F
100
AcDbEntity
8
1
62
256
6
ByLayer
370
18
48
1
60
0
100
AcDbSpline
70
4
71
3
72
35
73
31
40
0
40
0
40
0
40
0
40
0.124999999999984
40
0.124999999999984
40
0.249999999999969
40
0.249999999999969
40
0.374999999999953
40
0.374999999999953
40
0.437499999999946
40
0.437499999999946
40
0.499999999999939
40
0.499999999999939
40
0.624999999999971
40
0.624999999999971
40
0.687499999999964
40
0.687499999999964
40
0.71874999999998
40
0.71874999999998
40
0.749999999999996
40
0.749999999999996
40
0.812499999999984
40
0.812499999999984
40
0.843749999999983
40
0.843749999999983
40
0.874999999999981
40
0.90624999999998
40
0.90624999999998
40
0.937499999999979
40
0.937499999999979
40
1
40
1
40
1
40
1
41
1
10
14.1613175788577
20
-2.76817350080176
30
0
41
1
10
14.1297772295706
20
-2.78638332995303
30
0
41
1
10
14.0974579530947
20
-2.80339719413143
30
0
41
1
10
14.0316805576115
20
-2.8347071987811
30
0
41
1
10
13.9982209585031
20
-2.84901418158768
30
0
41
1
10
13.9300446033327
20
-2.8746517508861
30
0
41
1
10
13.895432110922
20
-2.88594178652068
30
0
41
1
10
13.8429141140435
20
-2.90007016060491
30
0
41
1
10
13.8252934757036
20
-2.90431416728092
30
0
41
1
10
13.789794825543
20
-2.9117471180725
30
0
41
1
10
13.7719165605874
20
-2.91493414241074
30
0
41
1
10
13.7182242862203
20
-2.92259345910179
30
0
41
1
10
13.6820984813028
20
-2.92524100316112
30
0
41
1
10
13.6285786183055
20
-2.92375865959062
30
0
41
1
10
13.6107537990744
20
-2.92233871915823
30
0
41
1
10
13.5845360569578
20
-2.91848786646995
30
0
41
1
10
13.5758813857684
20
-2.91691792158269
30
0
41
1
10
13.5587665670625
20
-2.91312859999101
30
0
41
1
10
13.5502781402104
20
-2.91089923775226
30
0
41
1
10
13.5254725850453
20
-2.90318929212842
30
0
41
1
10
13.5097502526873
20
-2.89669768027054
30
0
41
1
10
13.487729770635
20
-2.88441462487205
30
0
41
1
10
13.4806039452575
20
-2.87985370788164
30
0
41
1
10
13.4672721794875
20
-2.86998059887625
30
0
41
1
10
13.4548373620843
20
-2.8593647594073
30
0
41
1
10
13.4442739531633
20
-2.84720978217951
30
0
41
1
10
13.4347020606929
20
-2.83424363674226
30
0
41
1
10
13.4304662602204
20
-2.82741141534424
30
0
41
1
10
13.419618907375
20
-2.80639956185237
30
0
41
1
10
13.4147141868962
20
-2.79152420135819
30
0
41
1
10
13.4118932376919
20
-2.77587398262656
30
0
0
SPLINE
5
110
100
AcDbEntity
8
1
62
256
6
ByLayer
370
18
48
1
60
0
100
AcDbSpline
70
4
71
3
72
52
73
48
40
0
40
0
40
0
40
0
40
0.0156250000000041
40
0.0156250000000041
40
0.0312500000000081
40
0.0312500000000081
40
0.0625000000000081
40
0.0625000000000081
40
0.0937500000000081
40
0.0937500000000081
40
0.125000000000008
40
0.125000000000008
40
0.187500000000008
40
0.187500000000008
40
0.218750000000019
40
0.218750000000019
40
0.250000000000031
40
0.250000000000031
40
0.312500000000028
40
0.312500000000028
40
0.375000000000025
40
0.375000000000025
40
0.437500000000022
40
0.437500000000022
40
0.500000000000019
40
0.500000000000019
40
0.562500000000016
40
0.562500000000016
40
0.625000000000013
40
0.625000000000013
40
0.68750000000001
40
0.68750000000001
40
0.750000000000008
40
0.750000000000008
40
0.812500000000005
40
0.812500000000005
40
0.843750000000004
40
0.843750000000004
40
0.875000000000003
40
0.875000000000003
40
0.906250000000002
40
0.906250000000002
40
0.937500000000002
40
0.937500000000002
40
0.968750000000001
40
0.968750000000001
40
1
40
1
40
1
40
1
41
1
10
13.4030812485787
20
-2.75786757614478
30
0
41
1
10
13.4000666048829
20
-2.75170745734684
30
0
41
1
10
13.3967224273547
20
-2.7457124187365
30
0
41
1
10
13.3894428189554
20
-2.73401733542266
30
0
41
1
10
13.3854977014908
20
-2.72830725601193
30
0
41
1
10
13.3730035929497
20
-2.71176543961826
30
0
41
1
10
13.3637670236647
20
-2.70145133423208
30
0
41
1
10
13.3438500909804
20
-2.68194420626497
30
0
41
1
10
13.3331664766585
20
-2.67275375527151
30
0
41
1
10
13.3105664638183
20
-2.65531303649442
30
0
41
1
10
13.2986854491709
20
-2.64709723391476
30
0
41
1
10
13.2619174276125
20
-2.62395819268565
30
0
41
1
10
13.2356858067709
20
-2.61038106004088
30
0
41
1
10
13.1949514512995
20
-2.59240525378971
30
0
41
1
10
13.18112024589
20
-2.586804052453
30
0
41
1
10
13.1529938817368
20
-2.57630093027009
30
0
41
1
10
13.1386844145568
20
-2.57139595816327
30
0
41
1
10
13.0953654986126
20
-2.55772454919938
30
0
41
1
10
13.0658899103003
20
-2.54996091323221
30
0
41
1
10
13.005862252587
20
-2.53676715447494
30
0
41
1
10
12.9753602650882
20
-2.53135854131168
30
0
41
1
10
12.9139731683313
20
-2.52278297277863
30
0
41
1
10
12.8829892403193
20
-2.51959850827839
30
0
41
1
10
12.8205840244527
20
-2.51535251302184
30
0
41
1
10
12.7893090309156
20
-2.51429988111559
30
0
41
1
10
12.7266155602646
20
-2.5143001189044
30
0
41
1
10
12.6953568209948
20
-2.51535300340259
30
0
41
1
10
12.6330162522314
20
-2.51959284645923
30
0
41
1
10
12.6019467413244
20
-2.52278365887466
30
0
41
1
10
12.5404744379844
20
-2.53137402120993
30
0
41
1
10
12.5099491698116
20
-2.53679123322439
30
0
41
1
10
12.4499520772704
20
-2.5499845204364
30
0
41
1
10
12.4204136116338
20
-2.55776701835154
30
0
41
1
10
12.3625882233879
20
-2.57603025940361
30
0
41
1
10
12.33447829089
20
-2.58644542921459
30
0
41
1
10
12.2937250990998
20
-2.60443668870243
30
0
41
1
10
12.2803566916458
20
-2.61084384426221
30
0
41
1
10
12.2543352035031
20
-2.62448661436784
30
0
41
1
10
12.2416664654449
20
-2.63172651626587
30
0
41
1
10
12.2171134162437
20
-2.64718768811522
30
0
41
1
10
12.2052545272475
20
-2.65539556552196
30
0
41
1
10
12.182683446388
20
-2.67282515624746
30
0
41
1
10
12.1719152847152
20
-2.68208989396376
30
0
41
1
10
12.1518566600414
20
-2.70177750021983
30
0
41
1
10
12.1426418164932
20
-2.71211831849763
30
0
41
1
10
12.1261578070017
20
-2.73400488229629
30
0
41
1
10
12.1188832215553
20
-2.74554728740901
30
0
41
1
10
12.1128539091365
20
-2.75786757614546
30
0
0
SPLINE
5
111
100
AcDbEntity
8
1
62
256
6
ByLayer
370
18
48
1
60
0
100
AcDbSpline
70
4
71
3
72
8
73
4
40
0
40
0
40
0
40
0
40
1
40
1
40
1
40
1
41
1
10
12.1128539091365
20
-2.75786757614546
30
0
41
1
10
12.1099164714097
20
-2.76386993237205
30
0
41
1
10
12.1069791425427
20
-2.7698720661547
30
0
41
1
10
12.1040419200235
20
-2.77587398262656
30
0
0
SPLINE
5
112
100
AcDbEntity
8
1
62
256
6
ByLayer
370
18
48
1
60
0
100
AcDbSpline
70
4
71
3
72
35
73
31
40
0
40
0
40
0
40
0
40
0.125000000000024
40
0.125000000000024
40
0.250000000000048
40
0.250000000000048
40
0.375000000000072
40
0.375000000000072
40
0.500000000000095
40
0.500000000000095
40
0.562500000000084
40
0.562500000000084
40
0.625000000000073
40
0.625000000000073
40
0.687500000000061
40
0.687500000000061
40
0.718750000000076
40
0.718750000000076
40
0.750000000000091
40
0.750000000000091
40
0.812500000000077
40
0.812500000000077
40
0.84375000000007
40
0.84375000000007
40
0.875000000000063
40
0.906250000000056
40
0.906250000000056
40
0.937500000000049
40
0.937500000000049
40
1
40
1
40
1
40
1
41
1
10
11.3546175788577
20
-2.76817350080174
30
0
41
1
10
11.3861572195397
20
-2.7863829208396
30
0
41
1
10
11.4184359693649
20
-2.80337697738639
30
0
41
1
10
11.484260309281
20
-2.83471050481413
30
0
41
1
10
11.5177192137689
20
-2.84901520056474
30
0
41
1
10
11.5858345489367
20
-2.87463155624795
30
0
41
1
10
11.6205058413902
20
-2.88594645116717
30
0
41
1
10
11.6907300821503
20
-2.90483031592643
30
0
41
1
10
11.726300985115
20
-2.91241564107492
30
0
41
1
10
11.7800070973007
20
-2.92006346588286
30
0
41
1
10
11.7979403951798
20
-2.92198377228513
30
0
41
1
10
11.8338745362031
20
-2.92432798716263
30
0
41
1
10
11.8518317473067
20
-2.92474469202381
30
0
41
1
10
11.8873235526729
20
-2.92375746632823
30
0
41
1
10
11.9049080560601
20
-2.92236146704897
30
0
41
1
10
11.9309671239753
20
-2.9185597306965
30
0
41
1
10
11.9396001711861
20
-2.91700611890448
30
0
41
1
10
11.9567404052152
20
-2.91323502144428
30
0
41
1
10
11.9652554329909
20
-2.91101111797585
30
0
41
1
10
11.9901071080289
20
-2.90332476797758
30
0
41
1
10
12.0059083207758
20
-2.89683535358151
30
0
41
1
10
12.0281084713693
20
-2.88447685616265
30
0
41
1
10
12.0352367916471
20
-2.87991503959822
30
0
41
1
10
12.0485143729773
20
-2.87009908909573
30
0
41
1
10
12.0609207374793
20
-2.85953518489686
30
0
41
1
10
12.0714962564229
20
-2.84741000149694
30
0
41
1
10
12.0810936366569
20
-2.83445504520628
30
0
41
1
10
12.0853690887293
20
-2.82758536568346
30
0
41
1
10
12.0962859425599
20
-2.80649643111991
30
0
41
1
10
12.1012125973042
20
-2.79157065641081
30
0
41
1
10
12.1040419200235
20
-2.77587398262656
30
0
0
SPLINE
5
113
100
AcDbEntity
8
1
62
256
6
ByLayer
370
18
48
1
60
0
100
AcDbSpline
70
4
71
3
72
8
73
4
40
0
40
0
40
0
40
0
40
1
40
1
40
1
40
1
41
1
10
13.4118932376919
20
-2.77587398262656
30
0
41
1
10
13.4089560151727
20
-2.76987206615473
30
0
41
1
10
13.4060186863058
20
-2.76386993237202
30
0
41
1
10
13.403081248579
20
-2.75786757614546
30
0
0
SPLINE
5
114
100
AcDbEntity
8
1
62
256
6
ByLayer
370
18
48
1
60
0
100
AcDbSpline
70
4
71
3
72
52
73
48
40
0
40
0
40
0
40
0
40
0.0156249999999899
40
0.0156249999999899
40
0.0312499999999799
40
0.0312499999999799
40
0.0624999999999811
40
0.0624999999999811
40
0.0937499999999825
40
0.0937499999999825
40
0.124999999999984
40
0.124999999999984
40
0.187499999999986
40
0.187499999999986
40
0.218749999999999
40
0.218749999999999
40
0.250000000000011
40
0.250000000000011
40
0.31250000000001
40
0.31250000000001
40
0.375000000000009
40
0.375000000000009
40
0.437500000000008
40
0.437500000000008
40
0.500000000000006
40
0.500000000000006
40
0.562500000000005
40
0.562500000000005
40
0.625000000000004
40
0.625000000000004
40
0.687500000000002
40
0.687500000000002
40
0.750000000000001
40
0.750000000000001
40
0.8125
40
0.8125
40
0.84375
40
0.84375
40
0.875
40
0.875
40
0.90625
40
0.90625
40
0.9375
40
0.9375
40
0.96875
40
0.96875
40
1
40
1
40
1
40
1
41
1
10
12.1128539091368
20
2.08286757614482
30
0
41
1
10
12.1158685528326
20
2.07670745734689
30
0
41
1
10
12.1192127303607
20
2.07071241873655
30
0
41
1
10
12.1264923387601
20
2.05901733542271
30
0
41
1
10
12.1304374562247
20
2.05330725601198
30
0
41
1
10
12.1429315647658
20
2.03676543961831
30
0
41
1
10
12.1521681340508
20
2.02645133423212
30
0
41
1
10
12.1720850667351
20
2.00694420626502
30
0
41
1
10
12.182768681057
20
1.99775375527156
30
0
41
1
10
12.2053686938972
20
1.98031303649447
30
0
41
1
10
12.2172497085446
20
1.97209723391481
30
0
41
1
10
12.254017730103
20
1.94895819268569
30
0
41
1
10
12.2802493509446
20
1.93538106004092
30
0
41
1
10
12.320983706416
20
1.91740525378975
30
0
41
1
10
12.3348149118255
20
1.91180405245305
30
0
41
1
10
12.3629412759787
20
1.90130093027014
30
0
41
1
10
12.3772507431587
20
1.89639595816334
30
0
41
1
10
12.4205696591029
20
1.88272454919942
30
0
41
1
10
12.4500452474152
20
1.87496091323226
30
0
41
1
10
12.5100729051284
20
1.86176715447499
30
0
41
1
10
12.5405748926273
20
1.85635854131172
30
0
41
1
10
12.6019619893841
20
1.84778297277867
30
0
41
1
10
12.6329459173962
20
1.84459850827844
30
0
41
1
10
12.6953511332628
20
1.84035251302191
30
0
41
1
10
12.7266261267999
20
1.83929988111564
30
0
41
1
10
12.7893195974508
20
1.83930011890445
30
0
41
1
10
12.8205783367206
20
1.84035300340264
30
0
41
1
10
12.8829189054841
20
1.84459284645928
30
0
41
1
10
12.913988416391
20
1.84778365887467
30
0
41
1
10
12.975460719731
20
1.85637402120997
30
0
41
1
10
13.0059859879039
20
1.86179123322444
30
0
41
1
10
13.0659830804451
20
1.87498452043644
30
0
41
1
10
13.0955215460817
20
1.88276701835159
30
0
41
1
10
13.1533469343276
20
1.90103025940366
30
0
41
1
10
13.1814568668255
20
1.91144542921464
30
0
41
1
10
13.2222100586157
20
1.92943668870245
30
0
41
1
10
13.2355784660698
20
1.93584384426225
30
0
41
1
10
13.2615999542124
20
1.94948661436789
30
0
41
1
10
13.2742686922707
20
1.95672651626592
30
0
41
1
10
13.2988217414718
20
1.97218768811527
30
0
41
1
10
13.3106806304681
20
1.980395565522
30
0
41
1
10
13.3332517113275
20
1.9978251562475
30
0
41
1
10
13.3440198730003
20
2.00708989396384
30
0
41
1
10
13.3640784976741
20
2.02677750021985
30
0
41
1
10
13.3732933412223
20
2.03711831849768
30
0
41
1
10
13.3897773507138
20
2.05900488229633
30
0
41
1
10
13.3970519361602
20
2.07054728740906
30
0
41
1
10
13.403081248579
20
2.0828675761455
30
0
0
SPLINE
5
115
100
AcDbEntity
8
1
62
256
6
ByLayer
370
18
48
1
60
0
100
AcDbSpline
70
4
71
3
72
8
73
4
40
0
40
0
40
0
40
0
40
1
40
1
40
1
40
1
41
1
10
13.403081248579
20
2.0828675761455
30
0
41
1
10
13.4060186863058
20
2.08886993237206
30
0
41
1
10
13.4089560151727
20
2.09487206615475
30
0
41
1
10
13.411893237692
20
2.10087398262661
30
0
0
SPLINE
5
116
100
AcDbEntity
8
1
62
256
6
ByLayer
370
18
48
1
60
0
100
AcDbSpline
70
4
71
3
72
35
73
31
40
0
40
0
40
0
40
0
40
0.124999999999946
40
0.124999999999946
40
0.249999999999891
40
0.249999999999891
40
0.374999999999837
40
0.374999999999837
40
0.499999999999782
40
0.499999999999782
40
0.562499999999755
40
0.562499999999755
40
0.624999999999727
40
0.624999999999727
40
0.687499999999699
40
0.687499999999699
40
0.718749999999711
40
0.718749999999711
40
0.749999999999723
40
0.749999999999723
40
0.812499999999791
40
0.812499999999791
40
0.843749999999824
40
0.843749999999824
40
0.874999999999858
40
0.906249999999892
40
0.906249999999892
40
0.937499999999925
40
0.937499999999925
40
1
40
1
40
1
40
1
41
1
10
14.1613175788577
20
2.09317350080184
30
0
41
1
10
14.1297779381758
20
2.11138292083967
30
0
41
1
10
14.0974991883506
20
2.12837697738647
30
0
41
1
10
14.0316748484345
20
2.1597105048142
30
0
41
1
10
13.9982159439466
20
2.17401520056478
30
0
41
1
10
13.9301006087788
20
2.19963155624802
30
0
41
1
10
13.8954293163253
20
2.21094645116722
30
0
41
1
10
13.8252050755652
20
2.22983031592651
30
0
41
1
10
13.7896341726004
20
2.23741564107499
30
0
41
1
10
13.7359280604147
20
2.24506346588294
30
0
41
1
10
13.7179947625356
20
2.24698377228518
30
0
41
1
10
13.6820606215123
20
2.24932798716267
30
0
41
1
10
13.6641034104088
20
2.24974469202385
30
0
41
1
10
13.6286116050425
20
2.24875746632827
30
0
41
1
10
13.6110271016554
20
2.24736146704902
30
0
41
1
10
13.5849680337402
20
2.24355973069655
30
0
41
1
10
13.5763349865293
20
2.24200611890453
30
0
41
1
10
13.5591947525002
20
2.23823502144433
30
0
41
1
10
13.5506797247246
20
2.23601111797586
30
0
41
1
10
13.5258280496867
20
2.2283247679776
30
0
41
1
10
13.5100268369397
20
2.22183535358155
30
0
41
1
10
13.4878266863462
20
2.2094768561627
30
0
41
1
10
13.4806983660683
20
2.20491503959823
30
0
41
1
10
13.4674207847381
20
2.19509908909578
30
0
41
1
10
13.4550144202363
20
2.1845351848969
30
0
41
1
10
13.4444389012926
20
2.17241000149698
30
0
41
1
10
13.4348415210587
20
2.15945504520633
30
0
41
1
10
13.4305660689862
20
2.15258536568351
30
0
41
1
10
13.4196492151555
20
2.13149643111996
30
0
41
1
10
13.4147225604113
20
2.11657065641086
30
0
41
1
10
13.411893237692
20
2.10087398262661
30
0
0
SPLINE
5
117
100
AcDbEntity
8
1
62
256
6
ByLayer
370
18
48
1
60
0
100
AcDbSpline
70
4
71
3
72
35
73
31
40
0
40
0
40
0
40
0
40
0.124999999999988
40
0.124999999999988
40
0.249999999999976
40
0.249999999999976
40
0.374999999999964
40
0.374999999999964
40
0.437499999999957
40
0.437499999999957
40
0.49999999999995
40
0.49999999999995
40
0.624999999999982
40
0.624999999999982
40
0.687499999999974
40
0.687499999999974
40
0.71874999999999
40
0.71874999999999
40
0.750000000000006
40
0.750000000000006
40
0.812499999999994
40
0.812499999999994
40
0.843749999999992
40
0.843749999999992
40
0.874999999999991
40
0.90624999999999
40
0.90624999999999
40
0.937499999999988
40
0.937499999999988
40
1
40
1
40
1
40
1
41
1
10
11.3546175788577
20
2.09317350080181
30
0
41
1
10
11.3861579281449
20
2.11138332995307
30
0
41
1
10
11.4184772046208
20
2.12839719413148
30
0
41
1
10
11.484254600104
20
2.15970719878115
30
0
41
1
10
11.5177141992123
20
2.17401418158772
30
0
41
1
10
11.5858905543827
20
2.19965175088615
30
0
41
1
10
11.6205030467935
20
2.21094178652072
30
0
41
1
10
11.673021043672
20
2.22507016060496
30
0
41
1
10
11.6906416820119
20
2.22931416728096
30
0
41
1
10
11.7261403321725
20
2.23674711807254
30
0
41
1
10
11.744018597128
20
2.23993414241079
30
0
41
1
10
11.7977108714951
20
2.24759345910184
30
0
41
1
10
11.8338366764127
20
2.25024100316119
30
0
41
1
10
11.88735653941
20
2.24875865959066
30
0
41
1
10
11.9051813586411
20
2.24733871915828
30
0
41
1
10
11.9313991007577
20
2.24348786646999
30
0
41
1
10
11.940053771947
20
2.24191792158274
30
0
41
1
10
11.957168590653
20
2.23812859999106
30
0
41
1
10
11.9656570175051
20
2.23589923775231
30
0
41
1
10
11.9904625726702
20
2.22818929212849
30
0
41
1
10
12.0061849050282
20
2.22169768027058
30
0
41
1
10
12.0282053870805
20
2.20941462487212
30
0
41
1
10
12.035331212458
20
2.20485370788168
30
0
41
1
10
12.0486629782279
20
2.1949805988763
30
0
41
1
10
12.0610977956312
20
2.18436475940737
30
0
41
1
10
12.0716612045522
20
2.17220978217955
30
0
41
1
10
12.0812330970226
20
2.1592436367423
30
0
41
1
10
12.0854688974951
20
2.15241141534429
30
0
41
1
10
12.0963162503404
20
2.13139956185242
30
0
41
1
10
12.1012209708193
20
2.11652420135823
30
0
41
1
10
12.1040419200235
20
2.10087398262661
30
0
0
SPLINE
5
118
100
AcDbEntity
8
1
62
256
6
ByLayer
370
18
48
1
60
0
100
AcDbSpline
70
4
71
3
72
8
73
4
40
0
40
0
40
0
40
0
40
1
40
1
40
1
40
1
41
1
10
12.1040419200235
20
2.10087398262661
30
0
41
1
10
12.1069791425427
20
2.09487206615478
30
0
41
1
10
12.1099164714097
20
2.08886993237206
30
0
41
1
10
12.1128539091365
20
2.0828675761455
30
0
0
SPLINE
5
119
100
AcDbEntity
8
1
62
256
6
ByLayer
370
18
48
1
60
0
100
AcDbSpline
70
4
71
3
72
35
73
31
40
0
40
0
40
0
40
0
40
0.125000000000045
40
0.125000000000045
40
0.250000000000091
40
0.250000000000091
40
0.375000000000136
40
0.375000000000136
40
0.500000000000181
40
0.500000000000181
40
0.562500000000173
40
0.562500000000173
40
0.625000000000164
40
0.625000000000164
40
0.687500000000155
40
0.687500000000155
40
0.718750000000151
40
0.718750000000151
40
0.750000000000147
40
0.750000000000147
40
0.812500000000113
40
0.812500000000113
40
0.843750000000096
40
0.843750000000096
40
0.875000000000079
40
0.906250000000062
40
0.906250000000062
40
0.937500000000046
40
0.937500000000046
40
1
40
1
40
1
40
1
41
1
10
14.1613175788577
20
-2.76817350080176
30
0
41
1
10
14.1928572195397
20
-2.7499640807639
30
0
41
1
10
14.2237138791352
20
-2.73050689168625
30
0
41
1
10
14.2837616798358
20
-2.68916810484544
30
0
41
1
10
14.3128793619931
20
-2.66734419145141
30
0
41
1
10
14.3691214443511
20
-2.62116275865046
30
0
41
1
10
14.3962560770191
20
-2.59679398606323
30
0
41
1
10
14.4477221040022
20
-2.5454199419832
30
0
41
1
10
14.4720766397591
20
-2.51840729895443
30
0
41
1
10
14.5055529064194
20
-2.47572035386702
30
0
41
1
10
14.5161825894863
20
-2.46114981553129
30
0
41
1
10
14.5361798096338
20
-2.43120204398059
30
0
41
1
10
14.5455192921813
20
-2.4158589954144
30
0
41
1
10
14.5624102323328
20
-2.38462857749326
30
0
41
1
10
14.5699935131868
20
-2.36870195120747
30
0
41
1
10
14.5797306468848
20
-2.34423326821775
30
0
41
1
10
14.5827017032107
20
-2.33598002412501
30
0
41
1
10
14.5880059540245
20
-2.31925059729889
30
0
41
1
10
14.5903375110131
20
-2.3107644151971
30
0
41
1
10
14.5961067741711
20
-2.28539905828848
30
0
41
1
10
14.598387382822
20
-2.268470099441
30
0
41
1
10
14.5987846854014
20
-2.24306495634974
30
0
41
1
10
14.5983981965081
20
-2.23461074162057
30
0
41
1
10
14.5965361246758
20
-2.2182040436366
30
0
41
1
10
14.5935909018114
20
-2.20217779386505
30
0
41
1
10
14.5883777401493
20
-2.18695660494652
30
0
41
1
10
14.5819571090137
20
-2.17216755170884
30
0
41
1
10
14.5781455180673
20
-2.16503006183998
30
0
41
1
10
14.5653403919118
20
-2.14503132181147
30
0
41
1
10
14.5548776192147
20
-2.13330182629275
30
0
41
1
10
14.5426985623223
20
-2.12300322405019
30
0
0
SPLINE
5
11A
100
AcDbEntity
8
1
62
256
6
ByLayer
370
18
48
1
60
0
100
AcDbSpline
70
4
71
3
72
52
73
48
40
0
40
0
40
0
40
0
40
0.0156249999999866
40
0.0156249999999866
40
0.0312499999999732
40
0.0312499999999732
40
0.0624999999999535
40
0.0624999999999535
40
0.0937499999999336
40
0.0937499999999336
40
0.124999999999914
40
0.124999999999914
40
0.187499999999925
40
0.187499999999925
40
0.218749999999929
40
0.218749999999929
40
0.249999999999934
40
0.249999999999934
40
0.312499999999942
40
0.312499999999942
40
0.374999999999949
40
0.374999999999949
40
0.437499999999957
40
0.437499999999957
40
0.499999999999965
40
0.499999999999965
40
0.562499999999972
40
0.562499999999972
40
0.62499999999998
40
0.62499999999998
40
0.687499999999988
40
0.687499999999988
40
0.749999999999996
40
0.749999999999996
40
0.812500000000004
40
0.812500000000004
40
0.843750000000003
40
0.843750000000003
40
0.875000000000002
40
0.875000000000002
40
0.906250000000002
40
0.906250000000002
40
0.937500000000001
40
0.937500000000001
40
0.968750000000001
40
0.968750000000001
40
1
40
1
40
1
40
1
41
1
10
15.1766242211558
20
-0.988998961765446
30
0
41
1
10
15.1697820799384
20
-0.988529660390384
30
0
41
1
10
15.1629181354412
20
-0.988428283779371
30
0
41
1
10
15.1491500919924
20
-0.988885067925878
30
0
41
1
10
15.1422324594327
20
-0.98944660016582
30
0
41
1
10
15.1216597719405
20
-0.991995907363162
30
0
41
1
10
15.1081092100163
20
-0.99483795831469
30
0
41
1
10
15.0812570752998
20
-1.0023329640012
30
0
41
1
10
15.0679561041062
20
-1.00699001991146
30
0
41
1
10
15.041551992165
20
-1.01784184576843
30
0
41
1
10
15.0284963910948
20
-1.02402320498598
30
0
41
1
10
14.990073382792
20
-1.04429572508786
30
0
41
1
10
14.9651994305902
20
-1.06022440879673
30
0
41
1
10
14.9292647479875
20
-1.08651349231619
30
0
41
1
10
14.9174983626335
20
-1.09569106689744
30
0
41
1
10
14.8943392099274
20
-1.11479765167874
30
0
41
1
10
14.8829366458881
20
-1.12473752771786
30
0
41
1
10
14.8494374004477
20
-1.15541710490794
30
0
41
1
10
14.8279761003182
20
-1.17706189519436
30
0
41
1
10
14.7865361412064
20
-1.22245049232504
30
0
41
1
10
14.7666011510584
20
-1.24616168178329
30
0
41
1
10
14.7284809424785
20
-1.29503668277278
30
0
41
1
10
14.7102311513177
20
-1.32027731929011
30
0
41
1
10
14.675351403628
20
-1.37219882393097
30
0
41
1
10
14.6588023008877
20
-1.39875744688416
30
0
41
1
10
14.6274557714934
20
-1.45305170401374
30
0
41
1
10
14.6127382265812
20
-1.48064900856076
30
0
41
1
10
14.5852397539946
20
-1.53675744632457
30
0
41
1
10
14.5724683231516
20
-1.56525983826086
30
0
41
1
10
14.5491716434917
20
-1.62279159575013
30
0
41
1
10
14.5386004526275
20
-1.65193585945232
30
0
41
1
10
14.5200276282419
20
-1.71049150935221
30
0
41
1
10
14.511998236323
20
-1.7399638199399
30
0
41
1
10
14.4989019729065
20
-1.79917369567065
30
0
41
1
10
14.4938668082986
20
-1.82872519621796
30
0
41
1
10
14.4890711001661
20
-1.87301412533753
30
0
41
1
10
14.4879356559198
20
-1.88779508358073
30
0
41
1
10
14.486739897338
20
-1.91715173840936
30
0
41
1
10
14.4866754672734
20
-1.93174313835064
30
0
41
1
10
14.4877887102666
20
-1.96073728862393
30
0
41
1
10
14.4889674961139
20
-1.97511132645872
30
0
41
1
10
14.49277642403
20
-2.00337325123661
30
0
41
1
10
14.4954158414154
20
-2.01733112165547
30
0
41
1
10
14.5024364962359
20
-2.04454620331597
30
0
41
1
10
14.5067844857863
20
-2.05769690105956
30
0
41
1
10
14.5174968012917
20
-2.08291575393474
30
0
41
1
10
14.5238555246169
20
-2.09498693228971
30
0
41
1
10
14.5315105514353
20
-2.10636861437993
30
0
0
SPLINE
5
11B
100
AcDbEntity
8
1
62
256
6
ByLayer
370
18
48
1
60
0
100
AcDbSpline
70
4
71
3
72
8
73
4
40
0
40
0
40
0
40
0
40
1
40
1
40
1
40
1
41
1
10
14.5315105514353
20
-2.10636861437993
30
0
41
1
10
14.5352400255467
20
-2.11191368818663
30
0
41
1
10
14.5389693614459
20
-2.11745855649605
30
0
41
1
10
14.5426985623223
20
-2.12300322405019
30
0
0
SPLINE
5
11C
100
AcDbEntity
8
1
62
256
6
ByLayer
370
18
48
1
60
0
100
AcDbSpline
70
4
71
3
72
35
73
31
40
0
40
0
40
0
40
0
40
0.125000000000006
40
0.125000000000006
40
0.250000000000011
40
0.250000000000011
40
0.375000000000017
40
0.375000000000017
40
0.437500000000007
40
0.437500000000007
40
0.499999999999996
40
0.499999999999996
40
0.624999999999935
40
0.624999999999935
40
0.687499999999904
40
0.687499999999904
40
0.718749999999857
40
0.718749999999857
40
0.74999999999981
40
0.74999999999981
40
0.812499999999787
40
0.812499999999787
40
0.843749999999808
40
0.843749999999808
40
0.87499999999983
40
0.906249999999852
40
0.906249999999852
40
0.937499999999873
40
0.937499999999873
40
1
40
1
40
1
40
1
41
1
10
15.5646675788577
20
-0.337499999999977
30
0
41
1
10
15.5646675788577
20
-0.373919658302526
30
0
41
1
10
15.5632423792148
20
-0.410415904851789
30
0
41
1
10
15.5574689408925
20
-0.483035802659856
30
0
41
1
10
15.5531293519003
20
-0.519166156891401
30
0
41
1
10
15.5412439606187
20
-0.591027397055598
30
0
41
1
10
15.5337151720826
20
-0.626647712588948
30
0
41
1
10
15.5196917045145
20
-0.679193819083707
30
0
41
1
10
15.5145568029397
20
-0.696575742854947
30
0
41
1
10
15.50324460207
20
-0.731034951089867
30
0
41
1
10
15.4970655136316
20
-0.748111494886103
30
0
41
1
10
15.4768525392782
20
-0.798440026820487
30
0
41
1
10
15.4610824772324
20
-0.831049663640925
30
0
41
1
10
15.4330387985446
20
-0.876658052818357
30
0
41
1
10
15.4228966844427
20
-0.89138482887418
30
0
41
1
10
15.4064528771302
20
-0.912164633232891
30
0
41
1
10
15.4007659293805
20
-0.918874825900645
30
0
41
1
10
15.3889268712661
20
-0.931802032885344
30
0
41
1
10
15.382751973507
20
-0.938038545058049
30
0
41
1
10
15.3636721871525
20
-0.955665813174022
30
0
41
1
10
15.350189120193
20
-0.966035946473852
30
0
41
1
10
15.3285414411557
20
-0.978964715635499
30
0
41
1
10
15.3210286584887
20
-0.982855402940174
30
0
41
1
10
15.3058124123908
20
-0.989464496271495
30
0
41
1
10
15.2904014170265
20
-0.994925444299696
30
0
41
1
10
15.2745931935043
20
-0.997996136161987
30
0
41
1
10
15.2585782359312
20
-0.99980256548497
30
0
41
1
10
15.2505434584
20
-1.00005476560054
30
0
41
1
10
15.2269229830729
20
-0.998942921982433
30
0
41
1
10
15.2115881827549
20
-0.995752854268574
30
0
41
1
10
15.1966242211565
20
-0.990370758576347
30
0
0
SPLINE
5
11D
100
AcDbEntity
8
1
62
256
6
ByLayer
370
18
48
1
60
0
100
AcDbSpline
70
4
71
3
72
8
73
4
40
0
40
0
40
0
40
0
40
1
40
1
40
1
40
1
41
1
10
15.1966242211565
20
-0.990370758576347
30
0
41
1
10
15.1899577977609
20
-0.989913509658663
30
0
41
1
10
15.1832911329946
20
-0.989456244185391
30
0
41
1
10
15.1766242211565
20
-0.988998961765503
30
0
0
SPLINE
5
11E
100
AcDbEntity
8
1
62
256
6
ByLayer
370
18
48
1
60
0
100
AcDbSpline
70
4
71
3
72
39
73
35
40
0
40
0
40
0
40
0
40
0.124999999999978
40
0.124999999999978
40
0.249999999999956
40
0.249999999999956
40
0.374999999999934
40
0.374999999999934
40
0.437499999999918
40
0.437499999999918
40
0.499999999999902
40
0.499999999999902
40
0.562499999999886
40
0.562499999999886
40
0.62499999999987
40
0.62499999999987
40
0.687499999999854
40
0.687499999999854
40
0.718749999999861
40
0.718749999999861
40
0.749999999999868
40
0.749999999999868
40
0.81249999999987
40
0.81249999999987
40
0.843749999999892
40
0.843749999999892
40
0.874999999999914
40
0.874999999999914
40
0.906249999999935
40
0.906249999999935
40
0.937499999999957
40
0.968749999999978
40
0.968749999999978
40
1
40
1
40
1
40
1
41
1
10
9.95126757885774
20
-0.337499999999977
30
0
41
1
10
9.95126757885777
20
-0.301075127714086
30
0
41
1
10
9.95269143389763
20
-0.264614905301386
30
0
41
1
10
9.95846109795639
20
-0.192014702045469
30
0
41
1
10
9.9628111548362
20
-0.155803584005753
30
0
41
1
10
9.97468212369492
20
-0.0840253809845422
30
0
41
1
10
9.9822121483887
20
-0.0483812575362492
30
0
41
1
10
9.99624848681088
20
0.0042124819957792
30
0
41
1
10
10.001383685457
20
0.0215914739619905
30
0
41
1
10
10.0126802938791
20
0.0560041986980195
30
0
41
1
10
10.0188510187317
20
0.0730607524457412
30
0
41
1
10
10.0323114855814
20
0.106584850429243
30
0
41
1
10
10.0396029554311
20
0.123066933330364
30
0
41
1
10
10.0555207757351
20
0.155357811748843
30
0
41
1
10
10.0641093892997
20
0.171084023794407
30
0
41
1
10
10.0826687223087
20
0.201307636755786
30
0
41
1
10
10.0926510104768
20
0.215838234888395
30
0
41
1
10
10.1089517349517
20
0.236520815686362
30
0
41
1
10
10.1146078797634
20
0.243228273722281
30
0
41
1
10
10.1264359213047
20
0.256207597162586
30
0
41
1
10
10.1326026628057
20
0.262467833067603
30
0
41
1
10
10.1516418126009
20
0.280156102769553
30
0
41
1
10
10.1651411149192
20
0.290618351721662
30
0
41
1
10
10.1869349752724
20
0.303717446067537
30
0
41
1
10
10.1944268987453
20
0.307618686857495
30
0
41
1
10
10.2095826763995
20
0.314256476004857
30
0
41
1
10
10.217287944512
20
0.317019275611386
30
0
41
1
10
10.2329662055803
20
0.321358096078455
30
0
41
1
10
10.241004459205
20
0.322939517926386
30
0
41
1
10
10.2570178734335
20
0.32478210350672
30
0
41
1
10
10.2729113054233
20
0.325323045641255
30
0
41
1
10
10.2885714406617
20
0.323383639205787
30
0
41
1
10
10.3041173891928
20
0.32024189284374
30
0
41
1
10
10.3118091263683
20
0.31806893846985
30
0
41
1
10
10.3193109365589
20
0.315370758576393
30
0
0
SPLINE
5
11F
100
AcDbEntity
8
1
62
256
6
ByLayer
370
18
48
1
60
0
100
AcDbSpline
70
4
71
3
72
8
73
4
40
0
40
0
40
0
40
0
40
1
40
1
40
1
40
1
41
1
10
10.9844246062802
20
1.43136861437998
30
0
41
1
10
10.9806951321688
20
1.43691368818668
30
0
41
1
10
10.9769657962696
20
1.44245855649609
30
0
41
1
10
10.9732365953932
20
1.44800322405024
30
0
0
SPLINE
5
120
100
AcDbEntity
8
1
62
256
6
ByLayer
370
18
48
1
60
0
100
AcDbSpline
70
4
71
3
72
35
73
31
40
0
40
0
40
0
40
0
40
0.124999999999983
40
0.124999999999983
40
0.249999999999966
40
0.249999999999966
40
0.374999999999949
40
0.374999999999949
40
0.499999999999933
40
0.499999999999933
40
0.562499999999922
40
0.562499999999922
40
0.624999999999911
40
0.624999999999911
40
0.6874999999999
40
0.6874999999999
40
0.718749999999909
40
0.718749999999909
40
0.749999999999918
40
0.749999999999918
40
0.812499999999941
40
0.812499999999941
40
0.843749999999953
40
0.843749999999953
40
0.874999999999964
40
0.906249999999976
40
0.906249999999976
40
0.937499999999988
40
0.937499999999988
40
1
40
1
40
1
40
1
41
1
10
11.3546175788577
20
2.09317350080181
30
0
41
1
10
11.3230779381758
20
2.07496408076395
30
0
41
1
10
11.2922212785803
20
2.05550689168629
30
0
41
1
10
11.2321734778797
20
2.01416810484548
30
0
41
1
10
11.2030557957223
20
1.99234419145148
30
0
41
1
10
11.1468137133644
20
1.9461627586505
30
0
41
1
10
11.1196790806964
20
1.92179398606328
30
0
41
1
10
11.0682130537132
20
1.87041994198324
30
0
41
1
10
11.0438585179563
20
1.84340729895447
30
0
41
1
10
11.010382251296
20
1.80072035386706
30
0
41
1
10
10.9997525682291
20
1.7861498155313
30
0
41
1
10
10.9797553480816
20
1.75620204398064
30
0
41
1
10
10.9704158655341
20
1.74085899541444
30
0
41
1
10
10.9535249253826
20
1.70962857749331
30
0
41
1
10
10.9459416445286
20
1.69370195120752
30
0
41
1
10
10.9362045108308
20
1.6692332682178
30
0
41
1
10
10.9332334545048
20
1.66098002412505
30
0
41
1
10
10.927929203691
20
1.64425059729893
30
0
41
1
10
10.9255976467024
20
1.63576441519714
30
0
41
1
10
10.9198283835443
20
1.61039905828852
30
0
41
1
10
10.9175477748935
20
1.59347009944105
30
0
41
1
10
10.9171504723141
20
1.56806495634979
30
0
41
1
10
10.9175369612074
20
1.55961074162062
30
0
41
1
10
10.9193990330397
20
1.54320404363662
30
0
41
1
10
10.9223444601881
20
1.52717786470995
30
0
41
1
10
10.9275574175662
20
1.51195660494656
30
0
41
1
10
10.9339780487018
20
1.49716755170888
30
0
41
1
10
10.9377896396482
20
1.49003006184003
30
0
41
1
10
10.9505947658037
20
1.47003132181152
30
0
41
1
10
10.9610575385008
20
1.4583018262928
30
0
41
1
10
10.9732365953932
20
1.44800322405024
30
0
0
SPLINE
5
121
100
AcDbEntity
8
1
62
256
6
ByLayer
370
18
48
1
60
0
100
AcDbSpline
70
4
71
3
72
8
73
4
40
0
40
0
40
0
40
0
40
1
40
1
40
1
40
1
41
1
10
10.339310936559
20
0.31399896176552
30
0
41
1
10
10.3326440247208
20
0.314456244185436
30
0
41
1
10
10.3259773599546
20
0.314913509658709
30
0
41
1
10
10.3193109365589
20
0.315370758576393
30
0
0
SPLINE
5
122
100
AcDbEntity
8
1
62
256
6
ByLayer
370
18
48
1
60
0
100
AcDbSpline
70
4
71
3
72
50
73
46
40
0
40
0
40
0
40
0
40
0.0312499999999838
40
0.0312499999999838
40
0.046874999999982
40
0.046874999999982
40
0.0624999999999801
40
0.0624999999999801
40
0.124999999999976
40
0.124999999999976
40
0.156249999999975
40
0.156249999999975
40
0.187499999999975
40
0.187499999999975
40
0.249999999999972
40
0.249999999999972
40
0.281249999999972
40
0.281249999999972
40
0.312499999999972
40
0.312499999999972
40
0.374999999999973
40
0.374999999999973
40
0.499999999999968
40
0.499999999999968
40
0.562499999999973
40
0.562499999999973
40
0.624999999999978
40
0.624999999999978
40
0.687499999999982
40
0.687499999999982
40
0.749999999999987
40
0.749999999999987
40
0.812499999999992
40
0.812499999999992
40
0.843749999999993
40
0.843749999999993
40
0.874999999999994
40
0.874999999999994
40
0.906249999999996
40
0.906249999999996
40
0.937499999999997
40
0.937499999999997
40
0.968749999999999
40
0.968749999999999
40
1
40
1
40
1
40
1
41
1
10
10.9844246062802
20
1.43136861437998
30
0
41
1
10
10.9921227509316
20
1.4199228236354
30
0
41
1
10
10.9985261886694
20
1.40775405452209
30
0
41
1
10
11.0066138770057
20
1.38864568520569
30
0
41
1
10
11.0090542187987
20
1.38213218716103
30
0
41
1
10
11.0134704196557
20
1.36884154822124
30
0
41
1
10
11.0154503578249
20
1.3620449371565
30
0
41
1
10
11.0241950899266
20
1.32780640596656
30
0
41
1
10
11.0276646064673
20
1.29947052693052
30
0
41
1
10
11.0292673353731
20
1.25592734754878
30
0
41
1
10
11.029179298155
20
1.24118949864149
30
0
41
1
10
11.0279329323938
20
1.21177099963651
30
0
41
1
10
11.0267788556846
20
1.19705451242504
30
0
41
1
10
11.0219367556458
20
1.15287223400853
30
0
41
1
10
11.0168819282327
20
1.12337341384168
30
0
41
1
10
11.0070329087388
20
1.07902167291471
30
0
41
1
10
11.0033590575834
20
1.06418796128924
30
0
41
1
10
10.9953323332964
20
1.03463480876604
30
0
41
1
10
10.9909940172227
20
1.01996210736013
30
0
41
1
10
10.9770841565477
20
0.976225865064691
30
0
41
1
10
10.9666231923879
20
0.947442219322056
30
0
41
1
10
10.9320494534016
20
0.862070020103886
30
0
41
1
10
10.9048008526593
20
0.806440313391136
30
0
41
1
10
10.857785723331
20
0.724830708670709
30
0
41
1
10
10.8412337213783
20
0.698216120649221
30
0
41
1
10
10.8063740796256
20
0.646226864861404
30
0
41
1
10
10.7880619945996
20
0.620853086144479
30
0
41
1
10
10.7498543880364
20
0.571792806019999
30
0
41
1
10
10.7298814914412
20
0.548007567613411
30
0
41
1
10
10.688412077502
20
0.50253009279831
30
0
41
1
10
10.6668807246332
20
0.480787346893408
30
0
41
1
10
10.6220936168186
20
0.439731279009749
30
0
41
1
10
10.5989882641337
20
0.420543713665978
30
0
41
1
10
10.5629822644285
20
0.394174531809711
30
0
41
1
10
10.5507321909666
20
0.385777400567548
30
0
41
1
10
10.5258698256437
20
0.370018280746365
30
0
41
1
10
10.5132467977204
20
0.362645378571642
30
0
41
1
10
10.4875421036864
20
0.349072296927659
30
0
41
1
10
10.4744831751114
20
0.342886705395927
30
0
41
1
10
10.4480608095869
20
0.332019889857577
30
0
41
1
10
10.4346324458857
20
0.327311567719534
30
0
41
1
10
10.4075061827005
20
0.319757480613617
30
0
41
1
10
10.393919815633
20
0.316937105167
30
0
41
1
10
10.3666762240669
20
0.313590927523791
30
0
41
1
10
10.3530191840608
20
0.313058715255266
30
0
41
1
10
10.339310936559
20
0.313998961765549
30
0
0
LINE
5
7F
100
AcDbEntity
8
81
62
256
6
ByLayer
370
18
48
1
60
0
100
AcDbLine
10
39.107968
20
13.5625
30
0
11
44.107968
21
13.5625
31
0
39
0
210
0
220
0
230
1
0
LINE
5
80
100
AcDbEntity
8
80
62
256
6
ByLayer
370
18
48
1
60
0
100
AcDbLine
10
0
20
0
30
0
11
-5
21
0
31
0
39
0
210
0
220
0
230
1
0
LINE
5
81
100
AcDbEntity
8
1
62
256
6
ByLayer
370
18
48
1
60
0
100
AcDbLine
10
0
20
13.01149
30
0
11
0
21
-11.9375
31
0
39
0
210
0
220
0
230
1
0
LINE
5
82
100
AcDbEntity
8
1
62
256
6
ByLayer
370
18
48
1
60
0
100
AcDbLine
10
29.44558
20
13.252909
30
0
11
29.445658
21
13.296471
31
0
39
0
210
0
220
0
230
1
0
LINE
5
83
100
AcDbEntity
8
1
62
256
6
ByLayer
370
18
48
1
60
0
100
AcDbLine
10
31.915053
20
13.162498
30
0
11
31.91529
21
13.295241
31
0
39
0
210
0
220
0
230
1
0
LINE
5
84
100
AcDbEntity
8
1
62
256
6
ByLayer
370
18
48
1
60
0
100
AcDbLine
10
0.481918
20
-11.9375
30
0
11
0
21
-11.9375
31
0
39
0
210
0
220
0
230
1
0
LINE
5
85
100
AcDbEntity
8
1
62
256
6
ByLayer
370
18
48
1
60
0
100
AcDbLine
10
30.615114
20
8.836032
30
0
11
30.41672
21
7.902356
31
0
39
0
210
0
220
0
230
1
0
LINE
5
86
100
AcDbEntity
8
1
62
256
6
ByLayer
370
18
48
1
60
0
100
AcDbLine
10
31.107968
20
10.837469
30
0
11
31.107968
21
10.287531
31
0
39
0
210
0
220
0
230
1
0
LINE
5
87
100
AcDbEntity
8
1
62
256
6
ByLayer
370
18
48
1
60
0
100
AcDbLine
10
30.412102
20
13.244381
30
0
11
30.615114
21
12.288968
31
0
39
0
210
0
220
0
230
1
0
LINE
5
88
100
AcDbEntity
8
1
62
256
6
ByLayer
370
18
48
1
60
0
100
AcDbLine
10
38.107968
20
13.673443
30
0
11
38.107968
21
13.545103
31
0
39
0
210
0
220
0
230
1
0
LINE
5
89
100
AcDbEntity
8
1
62
256
6
ByLayer
370
18
48
1
60
0
100
AcDbLine
10
0.646606
20
14.850666
30
0
11
29.436056
21
14.850666
31
0
39
0
210
0
220
0
230
1
0
LINE
5
8A
100
AcDbEntity
8
1
62
256
6
ByLayer
370
18
48
1
60
0
100
AcDbLine
10
0.646606
20
14.850666
30
0
11
0.317758
21
13.62339
31
0
39
0
210
0
220
0
230
1
0
LINE
5
8B
100
AcDbEntity
8
1
62
256
6
ByLayer
370
18
48
1
60
0
100
AcDbLine
10
26.480471
20
13.296471
30
0
11
29.445658
21
13.296471
31
0
39
0
210
0
220
0
230
1
0
LINE
5
8C
100
AcDbEntity
8
1
62
256
6
ByLayer
370
18
48
1
60
0
100
AcDbLine
10
31.91529
20
13.295241
30
0
11
33.391566
21
13.295241
31
0
39
0
210
0
220
0
230
1
0
LINE
5
8D
100
AcDbEntity
8
1
62
256
6
ByLayer
370
18
48
1
60
0
100
AcDbLine
10
23.180709
20
13.367115
30
0
11
20.324413
21
13.367115
31
0
39
0
210
0
220
0
230
1
0
LINE
5
8E
100
AcDbEntity
8
1
62
256
6
ByLayer
370
18
48
1
60
0
100
AcDbLine
10
27.607968
20
13.27863
30
0
11
27.607968
21
7.976755
31
0
39
0
210
0
220
0
230
1
0
LINE
5
8F
100
AcDbEntity
8
1
62
256
6
ByLayer
370
18
48
1
60
0
100
AcDbLine
10
19.507968
20
-4.641249
30
0
11
8.745502
21
-11.9375
31
0
39
0
210
0
220
0
230
1
0
LINE
5
90
100
AcDbEntity
8
1
62
256
6
ByLayer
370
18
48
1
60
0
100
AcDbLine
10
8.745502
20
-11.9375
30
0
11
2.572312
21
-11.9375
31
0
39
0
210
0
220
0
230
1
0
LINE
5
91
100
AcDbEntity
8
1
62
256
6
ByLayer
370
18
48
1
60
0
100
AcDbLine
10
2.572312
20
13.367115
30
0
11
20.324413
21
13.367115
31
0
39
0
210
0
220
0
230
1
0
LINE
5
92
100
AcDbEntity
8
1
62
256
6
ByLayer
370
18
48
1
60
0
100
AcDbLine
10
19.507968
20
-4.641249
30
0
11
19.507968
21
6.742262
31
0
39
0
210
0
220
0
230
1
0
LINE
5
93
100
AcDbEntity
8
1
62
256
6
ByLayer
370
18
48
1
60
0
100
AcDbLine
10
20.324413
20
8.144362
30
0
11
20.324413
21
13.367115
31
0
39
0
210
0
220
0
230
1
0
LINE
5
94
100
AcDbEntity
8
1
62
256
6
ByLayer
370
13
48
1
60
0
100
AcDbLine
10
21.107968
20
8.296157
30
0
11
21.107968
21
7.90465
31
0
39
0
210
0
220
0
230
1
0
LINE
5
95
100
AcDbEntity
8
1
62
256
6
ByLayer
370
18
48
1
60
0
100
AcDbLine
10
2.572312
20
-11.9375
30
0
11
0.481918
21
-11.9375
31
0
39
0
210
0
220
0
230
1
0
LINE
5
96
100
AcDbEntity
8
1
62
256
6
ByLayer
370
18
48
1
60
0
100
AcDbLine
10
2.572312
20
13.367115
30
0
11
2.572312
21
-11.9375
31
0
39
0
210
0
220
0
230
1
0
LINE
5
97
100
AcDbEntity
8
1
62
256
6
ByLayer
370
18
48
1
60
0
100
AcDbLine
10
2.572312
20
13.367115
30
0
11
2.036414
21
13.367115
31
0
39
0
210
0
220
0
230
1
0
LINE
5
98
100
AcDbEntity
8
1
62
256
6
ByLayer
370
13
48
1
60
0
100
AcDbLine
10
0.481918
20
-11.9375
30
0
11
0.481918
21
13.241834
31
0
39
0
210
0
220
0
230
1
0
LINE
5
99
100
AcDbEntity
8
1
62
256
6
ByLayer
370
18
48
1
60
0
100
AcDbLine
10
38.684712
20
13.578697
30
0
11
36.67665
21
13.461753
31
0
39
0
210
0
220
0
230
1
0
LINE
5
9A
100
AcDbEntity
8
1
62
256
6
ByLayer
370
18
48
1
60
0
100
AcDbLine
10
38.684712
20
7.546303
30
0
11
36.67665
21
7.663247
31
0
39
0
210
0
220
0
230
1
0
LINE
5
9B
100
AcDbEntity
8
1
62
256
6
ByLayer
370
18
48
1
60
0
100
AcDbLine
10
39.107968
20
13.179374
30
0
11
39.107968
21
7.945626
31
0
39
0
210
0
220
0
230
1
0
LINE
5
9C
100
AcDbEntity
8
1
62
256
6
ByLayer
370
18
48
1
60
0
100
AcDbLine
10
14.531223
20
13.578697
30
0
11
16.539285
21
13.461753
31
0
39
0
210
0
220
0
230
1
0
LINE
5
9D
100
AcDbEntity
8
1
62
256
6
ByLayer
370
18
48
1
60
0
100
AcDbLine
10
16.539285
20
13.461753
30
0
11
16.964894
21
13.483578
31
0
39
0
210
0
220
0
230
1
0
LINE
5
9E
100
AcDbEntity
8
1
62
256
6
ByLayer
370
18
48
1
60
0
100
AcDbLine
10
16.539285
20
13.461753
30
0
11
16.539285
21
13.367074
31
0
39
0
210
0
220
0
230
1
0
LINE
5
9F
100
AcDbEntity
8
1
62
256
6
ByLayer
370
18
48
1
60
0
100
AcDbLine
10
36.67665
20
13.461753
30
0
11
36.251041
21
13.483578
31
0
39
0
210
0
220
0
230
1
0
LINE
5
A0
100
AcDbEntity
8
1
62
256
6
ByLayer
370
18
48
1
60
0
100
AcDbLine
10
36.67665
20
7.663247
30
0
11
36.251041
21
7.641422
31
0
39
0
210
0
220
0
230
1
0
LINE
5
A1
100
AcDbEntity
8
1
62
256
6
ByLayer
370
18
48
1
60
0
100
AcDbLine
10
36.67665
20
13.461753
30
0
11
36.67665
21
7.663247
31
0
39
0
210
0
220
0
230
1
0
LINE
5
A2
100
AcDbEntity
8
1
62
256
6
ByLayer
370
13
48
1
60
0
100
AcDbLine
10
31.107856
20
10.5425
30
0
11
35.096572
21
10.5425
31
0
39
0
210
0
220
0
230
1
0
LINE
5
A3
100
AcDbEntity
8
1
62
256
6
ByLayer
370
13
48
1
60
0
100
AcDbLine
10
31.107856
20
10.5825
30
0
11
35.096572
21
10.5825
31
0
39
0
210
0
220
0
230
1
0
LINE
5
A4
100
AcDbEntity
8
1
62
256
6
ByLayer
370
13
48
1
60
0
100
AcDbLine
10
31.107851
20
10.773236
30
0
11
35.057958
21
10.773236
31
0
39
0
210
0
220
0
230
1
0
LINE
5
A5
100
AcDbEntity
8
1
62
256
6
ByLayer
370
13
48
1
60
0
100
AcDbLine
10
31.107851
20
10.351764
30
0
11
35.057958
21
10.351764
31
0
39
0
210
0
220
0
230
1
0
LINE
5
A6
100
AcDbEntity
8
1
62
256
6
ByLayer
370
13
48
1
60
0
100
AcDbLine
10
34.278254
20
10.134767
30
0
11
30.999446
21
10.134767
31
0
39
0
210
0
220
0
230
1
0
LINE
5
A7
100
AcDbEntity
8
1
62
256
6
ByLayer
370
13
48
1
60
0
100
AcDbLine
10
34.278254
20
10.990233
30
0
11
30.999446
21
10.990233
31
0
39
0
210
0
220
0
230
1
0
LINE
5
A8
100
AcDbEntity
8
1
62
256
6
ByLayer
370
13
48
1
60
0
100
AcDbLine
10
33.590334
20
11.045585
30
0
11
30.86983
21
11.045585
31
0
39
0
210
0
220
0
230
1
0
LINE
5
A9
100
AcDbEntity
8
1
62
256
6
ByLayer
370
13
48
1
60
0
100
AcDbLine
10
33.590334
20
10.079415
30
0
11
30.86983
21
10.079415
31
0
39
0
210
0
220
0
230
1
0
LINE
5
AA
100
AcDbEntity
8
1
62
256
6
ByLayer
370
13
48
1
60
0
100
AcDbLine
10
30.827801
20
11.076388
30
0
11
33.414494
21
11.076388
31
0
39
0
210
0
220
0
230
1
0
LINE
5
AB
100
AcDbEntity
8
1
62
256
6
ByLayer
370
13
48
1
60
0
100
AcDbLine
10
30.828014
20
10.048612
30
0
11
33.414494
21
10.048612
31
0
39
0
210
0
220
0
230
1
0
LINE
5
AC
100
AcDbEntity
8
1
62
256
6
ByLayer
370
13
48
1
60
0
100
AcDbLine
10
33.103358
20
9.956835
30
0
11
30.813327
21
9.956835
31
0
39
0
210
0
220
0
230
1
0
LINE
5
AD
100
AcDbEntity
8
1
62
256
6
ByLayer
370
13
48
1
60
0
100
AcDbLine
10
33.103358
20
11.168165
30
0
11
30.812312
21
11.168165
31
0
39
0
210
0
220
0
230
1
0
LINE
5
AE
100
AcDbEntity
8
1
62
256
6
ByLayer
370
13
48
1
60
0
100
AcDbLine
10
33.017887
20
9.912566
30
0
11
30.806265
21
9.912566
31
0
39
0
210
0
220
0
230
1
0
LINE
5
AF
100
AcDbEntity
8
1
62
256
6
ByLayer
370
13
48
1
60
0
100
AcDbLine
10
33.017887
20
11.212434
30
0
11
30.804862
21
11.212434
31
0
39
0
210
0
220
0
230
1
0
LINE
5
B0
100
AcDbEntity
8
1
62
256
6
ByLayer
370
18
48
1
60
0
100
AcDbLine
10
31.719451
20
7.9625
30
0
11
30.429441
21
7.9625
31
0
39
0
210
0
220
0
230
1
0
LINE
5
B1
100
AcDbEntity
8
1
62
256
6
ByLayer
370
18
48
1
60
0
100
AcDbLine
10
31.719451
20
13.1625
30
0
11
30.429441
21
13.1625
31
0
39
0
210
0
220
0
230
1
0
LINE
5
B2
100
AcDbEntity
8
1
62
256
6
ByLayer
370
13
48
1
60
0
100
AcDbLine
10
31.726036
20
12.903884
30
0
11
30.484425
21
12.903884
31
0
39
0
210
0
220
0
230
1
0
LINE
5
B3
100
AcDbEntity
8
1
62
256
6
ByLayer
370
13
48
1
60
0
100
AcDbLine
10
31.719451
20
12.921249
30
0
11
30.480715
21
12.921249
31
0
39
0
210
0
220
0
230
1
0
LINE
5
B4
100
AcDbEntity
8
1
62
256
6
ByLayer
370
18
48
1
60
0
100
AcDbLine
10
19.640456
20
13.395409
30
0
11
19.69241
21
13.367114
31
0
39
0
210
0
220
0
230
1
0
LINE
5
B5
100
AcDbEntity
8
1
62
256
6
ByLayer
370
18
48
1
60
0
100
AcDbLine
10
19.640456
20
13.395409
30
0
11
16.964894
21
13.483578
31
0
39
0
210
0
220
0
230
1
0
LINE
5
B6
100
AcDbEntity
8
1
62
256
6
ByLayer
370
18
48
1
60
0
100
AcDbLine
10
16.964894
20
13.3671
30
0
11
16.964894
21
13.483578
31
0
39
0
210
0
220
0
230
1
0
LINE
5
B7
100
AcDbEntity
8
1
62
256
6
ByLayer
370
13
48
1
60
0
100
AcDbLine
10
31.719451
20
8.203751
30
0
11
30.480715
21
8.203751
31
0
39
0
210
0
220
0
230
1
0
LINE
5
B8
100
AcDbEntity
8
1
62
256
6
ByLayer
370
13
48
1
60
0
100
AcDbLine
10
31.726036
20
8.221116
30
0
11
30.484425
21
8.221116
31
0
39
0
210
0
220
0
230
1
0
LINE
5
B9
100
AcDbEntity
8
1
62
256
6
ByLayer
370
18
48
1
60
0
100
AcDbLine
10
33.017887
20
11.212434
30
0
11
31.726033
21
12.903882
31
0
39
0
210
0
220
0
230
1
0
LINE
5
BA
100
AcDbEntity
8
1
62
256
6
ByLayer
370
18
48
1
60
0
100
AcDbLine
10
33.414494
20
11.076388
30
0
11
33.103358
21
11.168165
31
0
39
0
210
0
220
0
230
1
0
LINE
5
BB
100
AcDbEntity
8
1
62
256
6
ByLayer
370
18
48
1
60
0
100
AcDbLine
10
35.096572
20
10.5825
30
0
11
35.096572
21
10.5425
31
0
39
0
210
0
220
0
230
1
0
LINE
5
BC
100
AcDbEntity
8
1
62
256
6
ByLayer
370
18
48
1
60
0
100
AcDbLine
10
33.414494
20
10.048612
30
0
11
33.103358
21
9.956835
31
0
39
0
210
0
220
0
230
1
0
LINE
5
BD
100
AcDbEntity
8
1
62
256
6
ByLayer
370
18
48
1
60
0
100
AcDbLine
10
33.017887
20
9.912566
30
0
11
31.726033
21
8.221118
31
0
39
0
210
0
220
0
230
1
0
LINE
5
BE
100
AcDbEntity
8
1
62
256
6
ByLayer
370
18
48
1
60
0
100
AcDbLine
10
31.719451
20
8.203751
30
0
11
31.719451
21
7.9625
31
0
39
0
210
0
220
0
230
1
0
LINE
5
BF
100
AcDbEntity
8
1
62
256
6
ByLayer
370
18
48
1
60
0
100
AcDbLine
10
33.147823
20
7.9625
30
0
11
31.719451
21
7.9625
31
0
39
0
210
0
220
0
230
1
0
LINE
5
C0
100
AcDbEntity
8
1
62
256
6
ByLayer
370
18
48
1
60
0
100
AcDbLine
10
33.575479
20
7.729591
30
0
11
33.147823
21
7.9625
31
0
39
0
210
0
220
0
230
1
0
LINE
5
C1
100
AcDbEntity
8
1
62
256
6
ByLayer
370
18
48
1
60
0
100
AcDbLine
10
33.575479
20
7.729591
30
0
11
36.251041
21
7.641422
31
0
39
0
210
0
220
0
230
1
0
LINE
5
C2
100
AcDbEntity
8
1
62
256
6
ByLayer
370
18
48
1
60
0
100
AcDbLine
10
36.251041
20
7.641422
30
0
11
36.251041
21
13.483578
31
0
39
0
210
0
220
0
230
1
0
LINE
5
C3
100
AcDbEntity
8
1
62
256
6
ByLayer
370
18
48
1
60
0
100
AcDbLine
10
33.575479
20
13.395409
30
0
11
36.251041
21
13.483578
31
0
39
0
210
0
220
0
230
1
0
LINE
5
C4
100
AcDbEntity
8
1
62
256
6
ByLayer
370
18
48
1
60
0
100
AcDbLine
10
33.575479
20
13.395409
30
0
11
33.147823
21
13.1625
31
0
39
0
210
0
220
0
230
1
0
LINE
5
C5
100
AcDbEntity
8
1
62
256
6
ByLayer
370
18
48
1
60
0
100
AcDbLine
10
33.147823
20
13.1625
30
0
11
31.719451
21
13.1625
31
0
39
0
210
0
220
0
230
1
0
LINE
5
C6
100
AcDbEntity
8
1
62
256
6
ByLayer
370
18
48
1
60
0
100
AcDbLine
10
31.719451
20
12.921249
30
0
11
31.719451
21
13.1625
31
0
39
0
210
0
220
0
230
1
0
LINE
5
C7
100
AcDbEntity
8
SK1
62
256
6
ByLayer
370
18
48
1
60
0
100
AcDbLine
10
-110.892032
20
12.4375
30
0
11
-4.455467
21
12.4375
31
0
39
0
210
0
220
0
230
1
0
LINE
5
C9
100
AcDbEntity
8
SK1
62
256
6
ByLayer
370
18
48
1
60
0
100
AcDbLine
10
-110.892032
20
-12.4375
30
0
11
-110.892032
21
12.4375
31
0
39
0
210
0
220
0
230
1
0
LINE
5
CA
100
AcDbEntity
8
SK1
62
256
6
ByLayer
370
18
48
1
60
0
100
AcDbLine
10
-110.892032
20
-12.4375
30
0
11
-4.455467
21
-12.4375
31
0
39
0
210
0
220
0
230
1
0
LINE
5
CB
100
AcDbEntity
8
SK1
62
256
6
ByLayer
370
18
48
1
60
0
100
AcDbLine
10
0
20
13.01149
30
0
11
0
21
-11.9375
31
0
39
0
210
0
220
0
230
1
0
LINE
5
CC
100
AcDbEntity
8
SK1
62
256
6
ByLayer
370
18
48
1
60
0
100
AcDbLine
10
-4.455467
20
12.4375
30
0
11
-1.227723
21
12.4375
31
0
39
0
210
0
220
0
230
1
0
LINE
5
CD
100
AcDbEntity
8
SK1
62
256
6
ByLayer
370
18
48
1
60
0
100
AcDbLine
10
-4.455467
20
12.4375
30
0
11
-4.455467
21
-12.4375
31
0
39
0
210
0
220
0
230
1
0
MTEXT
5
123
100
AcDbEntity
8
SK6
62
256
6
ByLayer
370
18
48
1
60
0
100
AcDbMText
10
-68.206532
20
-53.093775
30
0
210
0
220
0
230
1
1
\W0.7596;C2A-RS25-RFK18B-168DB
40
3.5
41
0
44
1.084337
50
0
71
7
72
5
7
iso_b_vert
0
DIMENSION
5
128
100
AcDbEntity
8
2
62
256
6
ByLayer
370
18
48
1
60
0
100
AcDbDimension
2
_U0
10
66.857968
20
-12.4375
30
0
11
66.857968
21
0.5625
31
0
70
32
71
1
72
1
41
1
210
0
220
0
230
1
3
Standard
100
AcDbAlignedDimension
13
39.107968
23
13.5625
33
0
14
-110.892032
24
-12.4375
34
0
50
90
100
AcDbRotatedDimension
1001
ACAD
1000
DSTYLE
1002
{
1070
   371
1070
    13
1070
   372
1070
    13
1070
   170
1070
     0
1070
   144
1040
1.0
1070
   277
1070
     2
1070
   284
1070
     8
1070
   278
1070
    46
1070
   146
1040
1.0
1070
   345
1005
16
1070
   347
1005
16
1070
   346
1005
16
1070
   344
1005
0
1070
   343
1005
0
1070
   172
1070
     1
1070
    76
1070
     0
1070
    75
1070
     0
1070
   282
1070
     0
1070
   281
1070
     0
1070
    71
1070
     0
1070
    74
1070
     0
1070
   279
1070
     0
1070
   173
1070
     1
1070
   340
1005
124
1070
   271
1070
     2
1070
   272
1070
     2
1070
    77
1070
     1
1070
    73
1070
     0
1070
   171
1070
     3
1070
   274
1070
     4
1070
   177
1070
     2
1070
   176
1070
     2
1070
   178
1070
     2
1070
    78
1070
     8
1070
    48
1040
-0.1
1070
    41
1040
3.5
1070
   147
1040
1.75
1070
    42
1040
1.5875
1070
    44
1040
2.0
1070
   140
1040
3.5
1002
}
1001
ACAD_DSTYLE_DIM_LINETYPE
1070
   380
1005
16
1001
ACAD_DSTYLE_DIM_EXT1_LINETYPE
1070
   381
1005
16
1001
ACAD_DSTYLE_DIM_EXT2_LINETYPE
1070
   382
1005
16
0
DIMENSION
5
142
100
AcDbEntity
8
2
62
256
6
ByLayer
370
18
48
1
60
0
100
AcDbDimension
2
_U1
10
59.207968
20
13.5625
30
0
11
59.207968
21
10.5625
31
0
70
32
71
1
72
1
41
1
210
0
220
0
230
1
3
Standard
100
AcDbAlignedDimension
13
39.107968
23
7.5625
33
0
14
39.107968
24
13.5625
34
0
50
90
100
AcDbRotatedDimension
1001
ACAD
1000
DSTYLE
1002
{
1070
   371
1070
    13
1070
   372
1070
    13
1070
   170
1070
     0
1070
   144
1040
1.0
1070
   277
1070
     2
1070
   284
1070
     8
1070
   278
1070
    46
1070
   146
1040
1.0
1070
   345
1005
16
1070
   347
1005
16
1070
   346
1005
16
1070
   344
1005
0
1070
   343
1005
0
1070
   172
1070
     1
1070
    76
1070
     0
1070
    75
1070
     0
1070
   282
1070
     0
1070
   281
1070
     0
1070
    71
1070
     0
1070
    74
1070
     0
1070
   279
1070
     0
1070
   173
1070
     1
1070
   340
1005
124
1070
   271
1070
     2
1070
   272
1070
     2
1070
    77
1070
     1
1070
    73
1070
     0
1070
   171
1070
     3
1070
   274
1070
     4
1070
   177
1070
     2
1070
   176
1070
     2
1070
   178
1070
     2
1070
    78
1070
     8
1070
    48
1040
-0.1
1070
    41
1040
3.5
1070
   147
1040
1.75
1070
    42
1040
1.5875
1070
    44
1040
2.0
1070
   140
1040
3.5
1002
}
1001
ACAD_DSTYLE_DIM_LINETYPE
1070
   380
1005
16
1001
ACAD_DSTYLE_DIM_EXT1_LINETYPE
1070
   381
1005
16
1001
ACAD_DSTYLE_DIM_EXT2_LINETYPE
1070
   382
1005
16
0
DIMENSION
5
15B
100
AcDbEntity
8
SK2
62
256
6
ByLayer
370
18
48
1
60
0
100
AcDbDimension
2
_U2
10
-122.492032
20
12.5625
30
0
11
-122.492032
21
0.0625
31
0
70
32
71
1
72
1
41
1
210
0
220
0
230
1
3
Standard
100
AcDbAlignedDimension
13
-110.892032
23
-12.4375
33
0
14
-110.892032
24
12.5625
34
0
50
90
100
AcDbRotatedDimension
1001
ACAD
1000
DSTYLE
1002
{
1070
   371
1070
    13
1070
   372
1070
    13
1070
   170
1070
     0
1070
   144
1040
1.0
1070
   277
1070
     2
1070
   284
1070
     8
1070
   278
1070
    46
1070
   146
1040
1.0
1070
   345
1005
16
1070
   347
1005
16
1070
   346
1005
16
1070
   344
1005
0
1070
   343
1005
0
1070
   172
1070
     1
1070
    76
1070
     0
1070
    75
1070
     0
1070
   282
1070
     0
1070
   281
1070
     0
1070
    71
1070
     0
1070
    74
1070
     0
1070
   279
1070
     0
1070
   173
1070
     1
1070
   340
1005
124
1070
   271
1070
     2
1070
   272
1070
     2
1070
    77
1070
     1
1070
    73
1070
     0
1070
   171
1070
     3
1070
   274
1070
     4
1070
   177
1070
     2
1070
   176
1070
     2
1070
   178
1070
     2
1070
    78
1070
     8
1070
    48
1040
-0.1
1070
    41
1040
3.5
1070
   147
1040
1.75
1070
    42
1040
1.5875
1070
    44
1040
2.0
1070
   140
1040
3.5
1002
}
1001
ACAD_DSTYLE_DIM_LINETYPE
1070
   380
1005
16
1001
ACAD_DSTYLE_DIM_EXT1_LINETYPE
1070
   381
1005
16
1001
ACAD_DSTYLE_DIM_EXT2_LINETYPE
1070
   382
1005
16
0
DIMENSION
5
174
100
AcDbEntity
8
2
62
256
6
ByLayer
370
18
48
1
60
0
100
AcDbDimension
2
_U3
10
39.107968
20
-24.1875
30
0
11
30.107968
21
-24.1875
31
0
70
32
71
1
72
1
41
1
210
0
220
0
230
1
3
Standard
100
AcDbAlignedDimension
13
21.107968
23
7.8875
33
0
14
39.107968
24
13.5625
34
0
50
0
100
AcDbRotatedDimension
1001
ACAD
1000
DSTYLE
1002
{
1070
   371
1070
    13
1070
   372
1070
    13
1070
   170
1070
     0
1070
   144
1040
1.0
1070
   277
1070
     2
1070
   284
1070
     8
1070
   278
1070
    46
1070
   146
1040
1.0
1070
   345
1005
16
1070
   347
1005
16
1070
   346
1005
16
1070
   344
1005
0
1070
   343
1005
0
1070
   172
1070
     1
1070
    76
1070
     0
1070
    75
1070
     0
1070
   282
1070
     0
1070
   281
1070
     0
1070
    71
1070
     0
1070
    74
1070
     0
1070
   279
1070
     0
1070
   173
1070
     1
1070
   340
1005
124
1070
   271
1070
     1
1070
   272
1070
     2
1070
    77
1070
     1
1070
    73
1070
     1
1070
   171
1070
     3
1070
   274
1070
     4
1070
   177
1070
     2
1070
   176
1070
     2
1070
   178
1070
     2
1070
    78
1070
     8
1070
    48
1040
-0.1
1070
    41
1040
3.5
1070
   147
1040
1.75
1070
    42
1040
1.5875
1070
    44
1040
2.0
1070
   140
1040
3.5
1002
}
1001
ACAD_DSTYLE_DIM_LINETYPE
1070
   380
1005
16
1001
ACAD_DSTYLE_DIM_EXT1_LINETYPE
1070
   381
1005
16
1001
ACAD_DSTYLE_DIM_EXT2_LINETYPE
1070
   382
1005
16
0
DIMENSION
5
18C
100
AcDbEntity
8
SK2
62
256
6
ByLayer
370
18
48
1
60
0
100
AcDbDimension
2
_U4
10
39.107968
20
-30.1875
30
0
11
-35.892032
21
-30.1875
31
0
70
32
71
1
72
1
41
1
210
0
220
0
230
1
3
Standard
100
AcDbAlignedDimension
13
-110.892032
23
-12.4375
33
0
14
39.107968
24
13.5625
34
0
50
0
100
AcDbRotatedDimension
1001
ACAD
1000
DSTYLE
1002
{
1070
   371
1070
    13
1070
   372
1070
    13
1070
   170
1070
     0
1070
   144
1040
1.0
1070
   277
1070
     2
1070
   284
1070
     8
1070
   278
1070
    46
1070
   146
1040
1.0
1070
   345
1005
16
1070
   347
1005
16
1070
   346
1005
16
1070
   344
1005
0
1070
   343
1005
0
1070
   172
1070
     1
1070
    76
1070
     0
1070
    75
1070
     0
1070
   282
1070
     0
1070
   281
1070
     0
1070
    71
1070
     0
1070
    74
1070
     0
1070
   279
1070
     0
1070
   173
1070
     1
1070
   340
1005
124
1070
   271
1070
     1
1070
   272
1070
     2
1070
    77
1070
     1
1070
    73
1070
     1
1070
   171
1070
     3
1070
   274
1070
     4
1070
   177
1070
     2
1070
   176
1070
     2
1070
   178
1070
     2
1070
    78
1070
     8
1070
    48
1040
-0.1
1070
    41
1040
3.5
1070
   147
1040
1.75
1070
    42
1040
1.5875
1070
    44
1040
2.0
1070
   140
1040
3.5
1002
}
1001
ACAD_DSTYLE_DIM_LINETYPE
1070
   380
1005
16
1001
ACAD_DSTYLE_DIM_EXT1_LINETYPE
1070
   381
1005
16
1001
ACAD_DSTYLE_DIM_EXT2_LINETYPE
1070
   382
1005
16
0
ENDSEC
0
SECTION
2
OBJECTS
0
DICTIONARY
5
213
330
0
100
AcDbDictionary
280
0
281
1
3
ACAD_GROUP
350
214
3
ACAD_MLINESTYLE
350
215
0
DICTIONARY
5
214
330
0
100
AcDbDictionary
280
0
281
1
0
DICTIONARY
5
215
330
0
100
AcDbDictionary
280
0
281
1
3
Standard
350
18
0
MLINESTYLE
5
18
330
215
100
AcDbMlineStyle
2
Standard
70
0
3

62
256
51
90
52
90
71
2
49
-0.5
62
256
6
ByLayer
49
0.5
62
256
6
ByLayer
0
RASTERVARIABLES
5
202
330

100
AcDbRasterVariables
90
0
70
1
71
1
72
1
0
ENDSEC
0
EOF
