0
SECTION
2
HEADER
9
$ACADVER
1
AC1015
9
$DWGCODEPAGE
3
ANSI_1252
9
$HANDSEED
5
204
9
$ANGBASE
50
0
9
$ANGDIR
70
0
9
$ATTMODE
70
1
9
$AUNITS
70
0
9
$AUPREC
70
0
9
$CECOLOR
62
256
9
$CELTSCALE
40
1
9
$CELTYPE
6
ByLayer
9
$CELWEIGHT
370
18
9
$CLAYER
8
0
9
$CMLJUST
70
0
9
$CMLSCALE
40
1
9
$CMLSTYLE
2
Standard
9
$DIMSTYLE
2
Standard
9
$TEXTSIZE
40
0.2
9
$TEXTSTYLE
7
Standard
9
$LUNITS
70
2
9
$LUPREC
70
4
9
$EXTNAMES
290
1
9
$INSUNITS
70
4
9
$LTSCALE
40
1
9
$LWDISPLAY
290
1
9
$PDMODE
70
0
9
$PDSIZE
40
0
9
$PLINEGEN
70
0
0
ENDSEC
0
SECTION
2
CLASSES
0
CLASS
1
RASTERVARIABLES
2
AcDbRasterVariables
3
ISM
90
0
280
0
281
0
0
ENDSEC
0
SECTION
2
TABLES
0
TABLE
2
VPORT
5
1fa
100
AcDbSymbolTable
0
VPORT
5
1
100
AcDbSymbolTableRecord
100
AcDbViewportTableRecord
2
*Active
70
0
10
0
20
0
11
1
21
1
12
-1
22
1
13
0
23
0
14
0.5
24
0.5
15
10
25
10
16
0
26
0
36
1
17
0
27
0
37
0
0
ENDTAB
0
TABLE
2
LTYPE
5
1fb
100
AcDbSymbolTable
0
LTYPE
5
14
100
AcDbSymbolTableRecord
100
AcDbLinetypeTableRecord
70
0
2
ByBlock
3

72
65
73
0
40
0
0
LTYPE
5
15
100
AcDbSymbolTableRecord
100
AcDbLinetypeTableRecord
70
0
2
ByLayer
3

72
65
73
0
40
0
0
LTYPE
5
16
100
AcDbSymbolTableRecord
100
AcDbLinetypeTableRecord
70
0
2
Continuous
3
Solid line
72
65
73
0
40
0
0
LTYPE
5
6E
100
AcDbSymbolTableRecord
100
AcDbLinetypeTableRecord
70
0
2
CENTER
3
____ _ ____ _ ____ _ ____
72
65
73
4
40
47.5
49
22
74
0
49
-8.5
74
0
49
8.5
74
0
49
-8.5
74
0
0
LTYPE
5
6F
100
AcDbSymbolTableRecord
100
AcDbLinetypeTableRecord
70
0
2
DASHED
3
__ __ __ __ __ __ __ __ __
72
65
73
2
40
25.72
49
12.86
74
0
49
-12.86
74
0
0
ENDTAB
0
TABLE
2
LAYER
5
1fc
100
AcDbSymbolTable
0
LAYER
5
10
100
AcDbSymbolTableRecord
100
AcDbLayerTableRecord
2
0
70
0
62
7
6
Continuous
290
1
370
-3
390
0
0
LAYER
5
71
100
AcDbSymbolTableRecord
100
AcDbLayerTableRecord
2
81
70
0
62
-3
6
Continuous
290
1
370
-3
390
0
0
LAYER
5
73
100
AcDbSymbolTableRecord
100
AcDbLayerTableRecord
2
80
70
0
62
-6
6
Continuous
290
1
370
-3
390
0
0
LAYER
5
75
100
AcDbSymbolTableRecord
100
AcDbLayerTableRecord
2
1
70
0
62
4
6
Continuous
290
1
370
-3
390
0
0
LAYER
5
79
100
AcDbSymbolTableRecord
100
AcDbLayerTableRecord
2
4
70
0
62
-2
6
CENTER
290
1
370
-3
390
0
0
LAYER
5
C9
100
AcDbSymbolTableRecord
100
AcDbLayerTableRecord
2
2
70
0
62
7
6
Continuous
290
1
370
-3
390
0
0
LAYER
5
171
100
AcDbSymbolTableRecord
100
AcDbLayerTableRecord
2
Defpoints
70
0
62
7
6
Continuous
290
0
370
-3
390
0
0
LAYER
5
1e6
100
AcDbSymbolTableRecord
100
AcDbLayerTableRecord
2
SK4
70
0
62
2
6
CENTER
290
1
370
-3
390
0
0
LAYER
5
1e7
100
AcDbSymbolTableRecord
100
AcDbLayerTableRecord
2
SK1
70
0
62
4
6
Continuous
290
1
370
-3
390
0
0
LAYER
5
1e8
100
AcDbSymbolTableRecord
100
AcDbLayerTableRecord
2
SK2
70
0
62
7
6
Continuous
290
1
370
-3
390
0
0
LAYER
5
1e9
100
AcDbSymbolTableRecord
100
AcDbLayerTableRecord
2
SK6
70
0
62
5
6
Continuous
290
1
370
-3
390
0
0
ENDTAB
0
TABLE
2
STYLE
5
1fd
100
AcDbSymbolTable
0
STYLE
5
11
100
AcDbSymbolTableRecord
100
AcDbTextStyleTableRecord
2
Standard
3
txt
70
0
71
0
40
0
41
1
42
0
50
0
0
STYLE
5
14D
100
AcDbSymbolTableRecord
100
AcDbTextStyleTableRecord
2
iso_b_vert
3
simplex.shx
70
0
71
0
40
0
41
1
42
0
50
0
0
STYLE
5
14E
100
AcDbSymbolTableRecord
100
AcDbTextStyleTableRecord
2
DWGDirectTextStyle
3
simplex
70
0
71
0
40
0
41
1
42
0
50
0
0
ENDTAB
0
TABLE
2
DIMSTYLE
5
1fe
100
AcDbSymbolTable
100
AcDbDimStyleTable
0
DIMSTYLE
105
27
100
AcDbSymbolTableRecord
100
AcDbDimStyleTableRecord
2
Standard
70
0
3
<>
41
0.18
42
0.0625
44
0.18
140
0.18
147
0.09
73
0
74
0
77
1
271
2
275
0
278
52
280
0
340
11
0
ENDTAB
0
TABLE
2
VIEW
5
1ff
100
AcDbSymbolTable
0
ENDTAB
0
TABLE
2
UCS
5
200
100
AcDbSymbolTable
0
ENDTAB
0
TABLE
2
APPID
5
201
100
AcDbSymbolTable
0
APPID
5
12
100
AcDbSymbolTableRecord
100
AcDbRegAppTableRecord
2
ACAD
70
0
0
APPID
5
16D
100
AcDbSymbolTableRecord
100
AcDbRegAppTableRecord
2
ACAD_DSTYLE_DIMBREAK
70
0
0
APPID
5
1A5
100
AcDbSymbolTableRecord
100
AcDbRegAppTableRecord
2
ACAD_DSTYLE_DIM_LINETYPE
70
0
0
APPID
5
1A6
100
AcDbSymbolTableRecord
100
AcDbRegAppTableRecord
2
ACAD_DSTYLE_DIM_EXT1_LINETYPE
70
0
0
APPID
5
1A7
100
AcDbSymbolTableRecord
100
AcDbRegAppTableRecord
2
ACAD_DSTYLE_DIM_EXT2_LINETYPE
70
0
0
APPID
5
1E2
100
AcDbSymbolTableRecord
100
AcDbRegAppTableRecord
2
ACAD_MLEADERVER
70
0
0
ENDTAB
0
TABLE
2
BLOCK_RECORD
5
202
100
AcDbSymbolTable
0
BLOCK_RECORD
5
1F
100
AcDbSymbolTableRecord
100
AcDbBlockTableRecord
2
*Model_Space
340
0
70
0
0
BLOCK_RECORD
5
1B
100
AcDbSymbolTableRecord
100
AcDbBlockTableRecord
2
*Paper_Space
340
0
70
0
0
BLOCK_RECORD
5
23
100
AcDbSymbolTableRecord
100
AcDbBlockTableRecord
2
*Paper_Space0
340
0
70
0
0
BLOCK_RECORD
5
172
100
AcDbSymbolTableRecord
100
AcDbBlockTableRecord
2
*D1
340
0
70
0
0
BLOCK_RECORD
5
17E
100
AcDbSymbolTableRecord
100
AcDbBlockTableRecord
2
_U0
340
0
70
0
0
ENDTAB
0
ENDSEC
0
SECTION
2
BLOCKS
0
BLOCK
5
20
100
AcDbEntity
8
0
100
AcDbBlockBegin
2
*Model_Space
70
0
10
0
20
0
30
0
3
*Model_Space
0
ENDBLK
5
21
100
AcDbEntity
8
0
100
AcDbBlockEnd
0
BLOCK
5
1C
100
AcDbEntity
8
0
100
AcDbBlockBegin
2
*Paper_Space
70
0
10
0
20
0
30
0
3
*Paper_Space
0
ENDBLK
5
1D
100
AcDbEntity
8
0
100
AcDbBlockEnd
0
BLOCK
5
24
100
AcDbEntity
8
0
100
AcDbBlockBegin
2
*Paper_Space0
70
0
10
0
20
0
30
0
3
*Paper_Space0
0
ENDBLK
5
25
100
AcDbEntity
8
0
100
AcDbBlockEnd
0
BLOCK
5
173
100
AcDbEntity
8
0
100
AcDbBlockBegin
2
*D1
70
1
10
0
20
0
30
0
3
*D1
0
LINE
5
175
100
AcDbEntity
8
0
62
256
6
ByLayer
370
-2
48
1
60
0
100
AcDbLine
10
97
20
-14.0876
30
0
11
97
21
-30.420614
31
0
39
0
210
0
220
0
230
1
0
LINE
5
176
100
AcDbEntity
8
0
62
256
6
ByLayer
370
-2
48
1
60
0
100
AcDbLine
10
22
20
-14.0876
30
0
11
22
21
-30.420614
31
0
39
0
210
0
220
0
230
1
0
LINE
5
177
100
AcDbEntity
8
0
62
256
6
ByLayer
370
-2
48
1
60
0
100
AcDbLine
10
93.5
20
-28.420614
30
0
11
25.5
21
-28.420614
31
0
39
0
210
0
220
0
230
1
0
SOLID
5
178
100
AcDbEntity
8
0
62
256
6
ByLayer
370
-1
48
1
60
0
100
AcDbTrace
10
93.5
20
-29.003948
30
0
11
93.5
21
-27.837281
31
0
12
97
22
-28.420614
32
0
13
97
23
-28.420614
33
0
39
0
210
0
220
0
230
1
0
SOLID
5
179
100
AcDbEntity
8
0
62
256
6
ByLayer
370
-1
48
1
60
0
100
AcDbTrace
10
25.5
20
-27.837281
30
0
11
25.5
21
-29.003948
31
0
12
22
22
-28.420614
32
0
13
22
23
-28.420614
33
0
39
0
210
0
220
0
230
1
0
MTEXT
5
17A
100
AcDbEntity
8
0
62
256
6
ByLayer
370
18
48
1
60
0
100
AcDbMText
10
59.5
20
-21.420614
30
0
210
0
220
0
230
1
1
\A1;75
40
3.5
41
0
44
1
50
0
71
5
72
5
7
iso_b_vert
0
POINT
5
17B
100
AcDbEntity
8
Defpoints
62
0
6
ByLayer
370
-1
48
1
60
0
100
AcDbPoint
10
97
20
-12.5001
30
0
39
0
210
0
220
0
230
1
50
360
0
POINT
5
17C
100
AcDbEntity
8
Defpoints
62
0
6
ByLayer
370
-1
48
1
60
0
100
AcDbPoint
10
22
20
-12.5001
30
0
39
0
210
0
220
0
230
1
50
360
0
POINT
5
17D
100
AcDbEntity
8
Defpoints
62
0
6
ByLayer
370
-1
48
1
60
0
100
AcDbPoint
10
22
20
-28.420614
30
0
39
0
210
0
220
0
230
1
50
360
0
ENDBLK
5
174
100
AcDbEntity
8
0
100
AcDbBlockEnd
0
BLOCK
5
185
100
AcDbEntity
8
0
100
AcDbBlockBegin
2
_U0
70
0
10
0
20
0
30
0
3
_U0
0
MTEXT
5
17F
100
AcDbEntity
8
2
62
256
6
ByLayer
370
18
48
1
60
0
100
AcDbMText
10
57.595034
20
-27.387981
30
0
210
0
220
0
230
1
1
\W0.6740;75
40
3.5
41
0
44
1.084337
50
0
71
7
72
5
7
iso_b_vert
0
LINE
5
180
100
AcDbEntity
8
2
62
256
6
ByLayer
370
13
48
1
60
0
100
AcDbLine
10
97
20
-14.0876
30
0
11
97
21
-30.420614
31
0
39
0
210
0
220
0
230
1
0
LINE
5
181
100
AcDbEntity
8
2
62
256
6
ByLayer
370
13
48
1
60
0
100
AcDbLine
10
22
20
-14.0876
30
0
11
22
21
-30.420614
31
0
39
0
210
0
220
0
230
1
0
LINE
5
182
100
AcDbEntity
8
2
62
256
6
ByLayer
370
13
48
1
60
0
100
AcDbLine
10
97
20
-28.420614
30
0
11
22
21
-28.420614
31
0
39
0
210
0
220
0
230
1
0
SOLID
5
183
100
AcDbEntity
8
2
62
256
6
ByLayer
370
18
48
1
60
0
100
AcDbTrace
10
97
20
-28.420614
30
0
11
93.500002
21
-28.881398
31
0
12
93.499998
22
-27.95983
32
0
13
93.499998
23
-27.95983
33
0
39
0
210
0
220
0
230
1
0
SOLID
5
184
100
AcDbEntity
8
2
62
256
6
ByLayer
370
18
48
1
60
0
100
AcDbTrace
10
22
20
-28.420614
30
0
11
25.499998
21
-27.95983
31
0
12
25.500002
22
-28.881398
32
0
13
25.500002
23
-28.881398
33
0
39
0
210
0
220
0
230
1
0
ENDBLK
5
186
100
AcDbEntity
8
0
100
AcDbBlockEnd
0
ENDSEC
0
SECTION
2
ENTITIES
0
ELLIPSE
5
DB
100
AcDbEntity
8
1
62
256
6
ByLayer
370
18
48
1
60
0
100
AcDbEllipse
10
34.587285
20
0
30
0
11
24.9905668108295
21
-9.82499527848687
31
0
210
0
220
0
230
1
40
0.30923
41
-2.5329331375462
42
-2.11046711123065
0
ELLIPSE
5
DC
100
AcDbEntity
8
1
62
256
6
ByLayer
370
18
48
1
60
0
100
AcDbEllipse
10
34.918017
20
-1.4E-05
30
0
11
74.3873992985314
21
-5.3570733939564
31
0
210
0
220
0
230
1
40
0.151825
41
1.75626276678356
42
1.77545731387223
0
ELLIPSE
5
DD
100
AcDbEntity
8
1
62
256
6
ByLayer
370
18
48
1
60
0
100
AcDbEllipse
10
33.649167
20
0
30
0
11
23.1555860132943
21
11.3403099980087
31
0
210
0
220
0
230
1
40
0.227076
41
-2.76389121563486
42
-2.34559663023961
0
ELLIPSE
5
DE
100
AcDbEntity
8
1
62
256
6
ByLayer
370
18
48
1
60
0
100
AcDbEllipse
10
33.378436
20
1E-06
30
0
11
65.5155309304584
21
-9.81345560866347
31
0
210
0
220
0
230
1
40
0.118178
41
-1.74783591608779
42
-1.72762945680025
0
POINT
5
70
100
AcDbEntity
8
81
62
256
6
ByLayer
370
18
48
1
60
0
100
AcDbPoint
10
97
20
0
30
0
39
0
210
0
220
0
230
1
50
360
0
POINT
5
72
100
AcDbEntity
8
80
62
256
6
ByLayer
370
18
48
1
60
0
100
AcDbPoint
10
0
20
0
30
0
39
0
210
0
220
0
230
1
50
360
0
POINT
5
74
100
AcDbEntity
8
1
62
256
6
ByLayer
370
18
48
1
60
1
100
AcDbPoint
10
97
20
-12.5001
30
0
39
0
210
0
220
0
230
1
50
360
0
POINT
5
76
100
AcDbEntity
8
1
62
256
6
ByLayer
370
18
48
1
60
1
100
AcDbPoint
10
22
20
-12.5001
30
0
39
0
210
0
220
0
230
1
50
360
0
SPLINE
5
DF
100
AcDbEntity
8
1
62
256
6
ByLayer
370
18
48
1
60
0
100
AcDbSpline
70
4
71
3
72
9
73
5
40
0
40
0
40
0
40
0
40
0.5
40
1
40
1
40
1
40
1
41
1
10
19.2902087428835
20
-11.6905942905812
30
0
41
1
10
19.4328380492678
20
-11.5990509110069
30
0
41
1
10
19.7207384263646
20
-11.4215145190783
30
0
41
1
10
20.0139102166255
20
-11.255053406848
30
0
41
1
10
20.1618361652164
20
-11.1746383133848
30
0
0
SPLINE
5
E0
100
AcDbEntity
8
1
62
256
6
ByLayer
370
18
48
1
60
0
100
AcDbSpline
70
4
71
3
72
14
73
10
40
0
40
0
40
0
40
0
40
0.249999999999999
40
0.249999999999999
40
0.499999999999999
40
0.499999999999999
40
0.75
40
0.75
40
1
40
1
40
1
40
1
41
1
10
88.0250910664821
20
-3.7641562628543
30
0
41
1
10
88.0562457631258
20
-3.82485771926392
30
0
41
1
10
88.0860893430007
20
-3.8866684997187
30
0
41
1
10
88.1426121195744
20
-4.01296741662821
30
0
41
1
10
88.1693418584565
20
-4.07761171132211
30
0
41
1
10
88.2182569043912
20
-4.20853576934172
30
0
41
1
10
88.2405225402722
20
-4.27496049526667
30
0
41
1
10
88.2796709718953
20
-4.41017413988391
30
0
41
1
10
88.2965651512291
20
-4.4789580587983
30
0
41
1
10
88.3100025968374
20
-4.54926020687458
30
0
0
SPLINE
5
E1
100
AcDbEntity
8
1
62
256
6
ByLayer
370
18
48
1
60
0
100
AcDbSpline
70
4
71
3
72
22
73
18
40
0
40
0
40
0
40
0
40
0.250000000000002
40
0.250000000000002
40
0.375000000000003
40
0.375000000000003
40
0.437500000000004
40
0.437500000000004
40
0.500000000000006
40
0.500000000000006
40
0.750000000000015
40
0.750000000000015
40
0.875000000000016
40
0.875000000000016
40
0.937500000000008
40
0.937500000000008
40
1
40
1
40
1
40
1
41
1
10
88.0250910664809
20
-3.76415626285521
30
0
41
1
10
87.9933681589733
20
-3.70234771086427
30
0
41
1
10
87.969016105604
20
-3.63863915141141
30
0
41
1
10
87.9420235831957
20
-3.54126537910284
30
0
41
1
10
87.9346251594149
20
-3.50850213957131
30
0
41
1
10
87.9258217541966
20
-3.45900204218162
30
0
41
1
10
87.9232702395007
20
-3.44244263773084
30
0
41
1
10
87.9189228537582
20
-3.40922037301564
30
0
41
1
10
87.9171311380476
20
-3.39257186662635
30
0
41
1
10
87.9100899981698
20
-3.30994004834062
30
0
41
1
10
87.9104364898726
20
-3.24512601195897
30
0
41
1
10
87.9188038597542
20
-3.15026456284315
30
0
41
1
10
87.9229131202168
20
-3.11903713153882
30
0
41
1
10
87.931017961715
20
-3.07284168748947
30
0
41
1
10
87.9340480908957
20
-3.0575340441639
30
0
41
1
10
87.9407219446945
20
-3.02729645835862
30
0
41
1
10
87.9443674443968
20
-3.01235198740423
30
0
41
1
10
87.9483170041547
20
-2.99758430674899
30
0
0
SPLINE
5
E2
100
AcDbEntity
8
1
62
256
6
ByLayer
370
18
48
1
60
0
100
AcDbSpline
70
4
71
3
72
8
73
4
40
0
40
0
40
0
40
0
40
1
40
1
40
1
40
1
41
1
10
89.0895304093717
20
6.79288714823267
30
0
41
1
10
89.1181800044367
20
6.78213679804131
30
0
41
1
10
89.1497948518096
20
6.76813365889439
30
0
41
1
10
89.1842520468315
20
6.75101255327269
30
0
0
SPLINE
5
E3
100
AcDbEntity
8
1
62
256
6
ByLayer
370
13
48
1
60
0
100
AcDbSpline
70
4
71
3
72
8
73
4
40
0
40
0
40
0
40
0
40
1
40
1
40
1
40
1
41
1
10
23.7248802992577
20
-7.16514352205058
30
0
41
1
10
23.1499201995051
20
-7.16120364676055
30
0
41
1
10
22.5749600997525
20
-7.14666918250637
30
0
41
1
10
22
20
-7.12150679734523
30
0
0
SPLINE
5
E4
100
AcDbEntity
8
1
62
256
6
ByLayer
370
18
48
1
60
0
100
AcDbSpline
70
4
71
3
72
17
73
13
40
0
40
0
40
0
40
0
40
0.249999999999998
40
0.249999999999998
40
0.499999999999997
40
0.499999999999997
40
0.562499999999996
40
0.562499999999996
40
0.624999999999996
40
0.749999999999998
40
0.749999999999998
40
1
40
1
40
1
40
1
41
1
10
89.1800198465796
20
-6.75839981656083
30
0
41
1
10
89.1461333982997
20
-6.9007223325529
30
0
41
1
10
89.1167243962385
20
-7.04328873474773
30
0
41
1
10
89.0675653393587
20
-7.32894766136207
30
0
41
1
10
89.0478131248923
20
-7.47204006814567
30
0
41
1
10
89.0297391660015
20
-7.65126596655423
30
0
41
1
10
89.0264613787489
20
-7.68708249761639
30
0
41
1
10
89.0206080881781
20
-7.75840180740286
30
0
41
1
10
89.0128700651028
20
-7.86502274877299
30
0
41
1
10
89.0082677922621
20
-7.97056617991643
30
0
41
1
10
89.003282686792
20
-8.18020315313734
30
0
41
1
10
89.0055807939426
20
-8.31802946505164
30
0
41
1
10
89.0136545975963
20
-8.45387112526512
30
0
0
SPLINE
5
E5
100
AcDbEntity
8
1
62
256
6
ByLayer
370
18
48
1
60
0
100
AcDbSpline
70
4
71
3
72
16
73
12
40
0
40
0
40
0
40
0
40
0.25
40
0.25
40
0.5
40
0.5
40
0.625
40
0.625
40
0.750000000000001
40
0.750000000000001
40
1
40
1
40
1
40
1
41
1
10
88.3100025912986
20
-4.5492602099452
30
0
41
1
10
88.3486401233888
20
-4.75134933596885
30
0
41
1
10
88.3969645571902
20
-4.94895225366099
30
0
41
1
10
88.5112625527059
20
-5.33598440457661
30
0
41
1
10
88.5772430461253
20
-5.52541042794255
30
0
41
1
10
88.6886018335522
20
-5.80381229675064
30
0
41
1
10
88.7277952879381
20
-5.89566663009393
30
0
41
1
10
88.810195825166
20
-6.07745959004515
30
0
41
1
10
88.8529993813359
20
-6.16651322766455
30
0
41
1
10
88.9858588621948
20
-6.42856061001459
30
0
41
1
10
89.0803501934705
20
-6.59645623301768
30
0
41
1
10
89.1800198465781
20
-6.75839981655665
30
0
0
SPLINE
5
E6
100
AcDbEntity
8
1
62
256
6
ByLayer
370
13
48
1
60
0
100
AcDbSpline
70
4
71
3
72
47
73
43
40
0
40
0
40
0
40
0
40
0.0234521495200331
40
0.183936142544163
40
0.344420135568294
40
0.504904128592424
40
0.625267123360522
40
0.705509119872587
40
0.74563011812862
40
0.775720866820644
40
0.805811615512669
40
0.825872114640685
40
0.840917488986697
40
0.848440176159703
40
0.853455300941707
40
0.855962863332709
40
0.858470425723711
40
0.860351097516963
40
0.862231769310214
40
0.863485550505715
40
0.864425886402341
40
0.865209499649529
40
0.865601306273123
40
0.86583639024728
40
0.866149835546155
40
0.866620003494468
40
0.867560339391094
40
0.868500675287719
40
0.86975445648322
40
0.872262018874222
40
0.876023362460726
40
0.881038487242729
40
0.888561174415736
40
0.896083861588742
40
0.903606548761748
40
0.911129235934754
40
0.91865192310776
40
0.926174610280766
40
0.936204859844774
40
0.956265358972791
40
0.986356107664815
40
1
40
1
40
1
40
1
41
1
10
88.3100025900005
20
-4.54926021018494
30
0
41
1
10
88.0816683933336
20
-4.48639594738918
30
0
41
1
10
86.2908341966668
20
-3.98354370127282
30
0
41
1
10
82.9375
20
-2.90303800109649
30
0
41
1
10
78.25
20
-1.19988554134602
30
0
41
1
10
73.953125
20
0.423032189085518
30
0
41
1
10
70.4375000000001
20
1.69149302344141
30
0
41
1
10
68.0937499999999
20
2.47989806673058
30
0
41
1
10
66.6289062500001
20
2.94431911738184
30
0
41
1
10
65.6523437499999
20
3.24128636329141
30
0
41
1
10
64.8710937500001
20
3.46946549133281
30
0
41
1
10
64.2363281249999
20
3.64804072071033
30
0
41
1
10
63.8212890625003
20
3.76155170555916
30
0
41
1
10
63.5527343749999
20
3.83361057327733
30
0
41
1
10
63.4062499999999
20
3.87248892515362
30
0
41
1
10
63.3085937500001
20
3.89823580960174
30
0
41
1
10
63.2414550781251
20
3.91585763012139
30
0
41
1
10
63.180419921875
20
3.93181424333457
30
0
41
1
10
63.131591796875
20
3.94453605138867
30
0
41
1
10
63.0919189453125
20
3.95484299234221
30
0
41
1
10
63.0629272460937
20
3.96235985348653
30
0
41
1
10
63.0423278808596
20
3.96769231991371
30
0
41
1
10
63.0285949707031
20
3.9712434468899
30
0
41
1
10
63.0194396972657
20
3.97360949493583
30
0
41
1
10
63.009521484375
20
3.97617141459855
30
0
41
1
10
62.9927368164063
20
3.98050382887922
30
0
41
1
10
62.9698486328125
20
3.98640394865407
30
0
41
1
10
62.9393310546876
20
3.99425703476319
30
0
41
1
10
62.8935546874999
20
4.00601258435009
30
0
41
1
10
62.8203125000002
20
4.02475529251902
30
0
41
1
10
62.7104492187499
20
4.05270330951322
30
0
41
1
10
62.5517578125001
20
4.09273503896904
30
0
41
1
10
62.3564453124999
20
4.14140696814547
30
0
41
1
10
62.1367187500001
20
4.19534732363681
30
0
41
1
10
61.9169921875001
20
4.24846397634829
30
0
41
1
10
61.6972656249999
20
4.30074901060027
30
0
41
1
10
61.4775390625001
20
4.3521947553989
30
0
41
1
10
61.2333984375
20
4.40841585468286
30
0
41
1
10
60.8671875
20
4.49108692032956
30
0
41
1
10
60.2812500000001
20
4.61875580027424
30
0
41
1
10
59.6601294470141
20
4.74577753869468
30
0
41
1
10
59.2343213940281
20
4.82776059390133
30
0
41
1
10
59.1014820910422
20
4.85283288939866
30
0
0
SPLINE
5
E7
100
AcDbEntity
8
1
62
256
6
ByLayer
370
13
48
1
60
0
100
AcDbSpline
70
4
71
3
72
20
73
16
40
0
40
0
40
0
40
0
40
0.00724053573718
40
0.121124919978812
40
0.235009304220444
40
0.348893688462076
40
0.462778072703708
40
0.538700995531463
40
0.614623918359218
40
0.690546841186973
40
0.766469764014728
40
0.842392686842482
40
0.918315609670237
40
0.994238532497992
40
1
40
1
40
1
40
1
41
1
10
57.3797662320148
20
-6.281619905561
30
0
41
1
10
57.3052608213432
20
-6.27739651286976
30
0
41
1
10
56.0588804106715
20
-6.20446642536601
30
0
41
1
10
53.640625
20
-5.98900780096317
30
0
41
1
10
50.125
20
-5.48438936862692
30
0
41
1
10
46.609375
20
-4.79413785582409
30
0
41
0.999999999999999
10
43.484375
20
-4.0348926154791
30
0
41
1
10
40.75
20
-3.2810240616846
30
0
41
1
10
38.40625
20
-2.57665597081436
30
0
41
1
10
36.0625
20
-1.82595228490129
30
0
41
1
10
33.7187499999999
20
-1.03940718457227
30
0
41
1
10
31.3750000000001
20
-0.22581131527366
30
0
41
1
10
29.0312500000001
20
0.606490222780707
30
0
41
1
10
27.4094642623295
20
1.18669356245786
30
0
41
1
10
26.568928524659
20
1.48629202661198
30
0
41
1
10
26.5096427869886
20
1.50741741345954
30
0
0
SPLINE
5
E8
100
AcDbEntity
8
1
62
256
6
ByLayer
370
18
48
1
60
0
100
AcDbSpline
70
4
71
3
72
17
73
13
40
0
40
0
40
0
40
0
40
0.25
40
0.5
40
0.5
40
0.625
40
0.625
40
0.6875
40
0.6875
40
0.75
40
0.75
40
1
40
1
40
1
40
1
41
1
10
96.9674265735719
20
11.25556743567
30
0
41
1
10
96.9427128121632
20
11.0536116783525
30
0
41
1
10
96.8964988225893
20
10.6478779795143
30
0
41
1
10
96.8566439251623
20
10.2385384560669
30
0
41
1
10
96.8291748085706
20
9.93016042390673
30
0
41
1
10
96.8204227652866
20
9.8271384780785
30
0
41
1
10
96.8079120664993
20
9.67225549143896
30
0
41
1
10
96.8038447727662
20
9.62056945915066
30
0
41
1
10
96.7959184374353
20
9.51707930842954
30
0
41
1
10
96.7920763623999
20
9.46549631457626
30
0
41
1
10
96.7734715063249
20
9.20849213066529
30
0
41
1
10
96.7605118794324
20
9.00567776701507
30
0
41
1
10
96.7494022525747
20
8.80554475878512
30
0
0
SPLINE
5
E9
100
AcDbEntity
8
1
62
256
6
ByLayer
370
18
48
1
60
0
100
AcDbSpline
70
4
71
3
72
8
73
4
40
0
40
0
40
0
40
0
40
1
40
1
40
1
40
1
41
1
10
96.8454422288394
20
11.6365090833038
30
0
41
1
10
96.8907348714281
20
11.5109754984929
30
0
41
1
10
96.9316480745575
20
11.3840736072511
30
0
41
1
10
96.9674265735719
20
11.2555674356701
30
0
0
SPLINE
5
EA
100
AcDbEntity
8
1
62
256
6
ByLayer
370
18
48
1
60
0
100
AcDbSpline
70
4
71
3
72
42
73
38
40
0
40
0
40
0
40
0
40
0.0346338346414941
40
0.0346338346414941
40
0.0519507519622412
40
0.0519507519622412
40
0.0692676692829882
40
0.0692676692829882
40
0.138535338565969
40
0.138535338565969
40
0.17316917320746
40
0.17316917320746
40
0.190486090528205
40
0.190486090528205
40
0.20780300784895
40
0.20780300784895
40
0.277070677131931
40
0.277070677131931
40
0.346338346414911
40
0.346338346414911
40
0.415606015697892
40
0.415606015697892
40
0.484873684980873
40
0.484873684980873
40
0.519507519622363
40
0.519507519622363
40
0.554141354263853
40
0.554141354263853
40
0.623409023546823
40
0.623409023546823
40
0.692676692829793
40
0.692676692829793
40
0.831212031395733
40
0.831212031395733
40
0.969747369961672
40
0.969747369961672
40
1
40
1
40
1
40
1
41
1
10
96.7494022525748
20
8.80554475878517
30
0
41
1
10
96.7056127310236
20
8.7318626314752
30
0
41
1
10
96.6582015161223
20
8.66005871194292
30
0
41
1
10
96.5818457413339
20
8.55506974991556
30
0
41
1
10
96.5555047632428
20
8.52051557562521
30
0
41
1
10
96.5016744722456
20
8.45296814438603
30
0
41
1
10
96.4741208328682
20
8.41988308010073
30
0
41
1
10
96.3333546559696
20
8.25769124767612
30
0
41
1
10
96.2112032075207
20
8.13822559457543
30
0
41
1
10
96.0166666938304
20
7.97122487129928
30
0
41
1
10
95.9499252918564
20
7.91760279486101
30
0
41
1
10
95.8472620073961
20
7.83992127203837
30
0
41
1
10
95.8126152335152
20
7.81448654975611
30
0
41
1
10
95.7425138180434
20
7.76448843566916
30
0
41
1
10
95.7070288140407
20
7.73990618902204
30
0
41
1
10
95.5286242458872
20
7.61968137123887
30
0
41
1
10
95.3821293727015
20
7.5315335740008
30
0
41
1
10
95.0834274458703
20
7.36740395638264
30
0
41
1
10
94.9312095875393
20
7.29144514815238
30
0
41
1
10
94.6222732380062
20
7.14911311739675
30
0
41
1
10
94.4655491240493
20
7.0827518703866
30
0
41
1
10
94.1484635579466
20
6.95777629062098
30
0
41
1
10
93.9880989219076
20
6.89916873901916
30
0
41
1
10
93.7453027656889
20
6.8160478312505
30
0
41
1
10
93.6640918550012
20
6.78917651973936
30
0
41
1
10
93.5014147768513
20
6.73702514416024
30
0
41
1
10
93.4199077868095
20
6.71173120873067
30
0
41
1
10
93.1749289964281
20
6.63797406858089
30
0
41
1
10
93.0110010462275
20
6.59162777798088
30
0
41
1
10
92.6821325422505
20
6.50363451818825
30
0
41
1
10
92.517191421627
20
6.4619901796373
30
0
41
1
10
92.02108391209
20
6.34301667545225
30
0
41
1
10
91.6886446538077
20
6.2715946806172
30
0
41
1
10
91.0212477422548
20
6.14043813484625
30
0
41
1
10
90.6862845271892
20
6.08072939525746
30
0
41
1
10
90.2769872719989
20
6.01348814942972
30
0
41
1
10
90.2035802900826
20
6.00165332332011
30
0
41
1
10
90.1301287994511
20
5.99002505460689
30
0
0
SPLINE
5
EB
100
AcDbEntity
8
1
62
256
6
ByLayer
370
18
48
1
60
0
100
AcDbSpline
70
4
71
3
72
22
73
18
40
0
40
0
40
0
40
0
40
0.0322042464037853
40
0.0755383846245114
40
0.133317235585479
40
0.219985512026932
40
0.306653788468384
40
0.393322064909836
40
0.479990341351288
40
0.537769192312256
40
0.595548043273224
40
0.653326894234192
40
0.71110574519516
40
0.768884596156128
40
0.826663447117096
40
0.884442298078064
40
1
40
1
40
1
40
1
41
1
10
62.5641503944634
20
-8.92603920358306
30
0
41
1
10
62.1287044296424
20
-8.99992441258013
30
0
41
1
10
61.1073209648212
20
-9.15438852139181
30
0
41
1
10
59.3046874999999
20
-9.34596729852768
30
0
41
1
10
56.765625
20
-9.46725689913174
30
0
41
1
10
53.640625
20
-9.34224047982871
30
0
41
1
10
50.125
20
-8.84241381123371
30
0
41
1
10
46.609375
20
-8.00004795750413
30
0
41
0.999999999999999
10
43.484375
20
-6.97650146787584
30
0
41
1
10
40.75
20
-5.90908509192064
30
0
41
1
10
38.40625
20
-4.89300322985201
30
0
41
1
10
36.0625
20
-3.79215605694225
30
0
41
1
10
33.7187499999999
20
-2.6261351184279
30
0
41
1
10
31.3750000000001
20
-1.41520579816839
30
0
41
1
10
29.0312500000001
20
-0.179903396370918
30
0
41
1
10
25.90625
20
1.47145553480863
30
0
41
1
10
23.5625
20
2.68300507529986
30
0
41
1
10
22
20
3.45097576134921
30
0
0
SPLINE
5
EC
100
AcDbEntity
8
1
62
256
6
ByLayer
370
18
48
1
60
0
100
AcDbSpline
70
4
71
3
72
29
73
25
40
0
40
0
40
0
40
0
40
0.125
40
0.125
40
0.249999999999999
40
0.249999999999999
40
0.312499999999999
40
0.312499999999999
40
0.343749999999998
40
0.343749999999998
40
0.374999999999998
40
0.374999999999998
40
0.500000000000003
40
0.500000000000003
40
0.625000000000008
40
0.625000000000008
40
0.750000000000013
40
0.750000000000013
40
0.812500000000016
40
0.843750000000013
40
0.843750000000013
40
0.875000000000011
40
0.875000000000011
40
1
40
1
40
1
40
1
41
1
10
93.5543105774166
20
-10.2703521339412
30
0
41
1
10
93.6096214691834
20
-10.2853831172231
30
0
41
1
10
93.6674255775451
20
-10.2920881350726
30
0
41
1
10
93.7876057312961
20
-10.2902304279997
30
0
41
1
10
93.8499836342618
20
-10.2816614997984
30
0
41
1
10
93.9468064126729
20
-10.2579351210034
30
0
41
1
10
93.9796245483709
20
-10.2482100820707
30
0
41
1
10
94.0296555727195
20
-10.2309382064639
30
0
41
1
10
94.0464666150279
20
-10.2247333144737
30
0
41
1
10
94.080355512856
20
-10.2114325218339
30
0
41
1
10
94.0974475123616
20
-10.2043300226983
30
0
41
1
10
94.1832969126864
20
-10.1667212908447
30
0
41
1
10
94.2533477769291
20
-10.129901227826
30
0
41
1
10
94.3960335495116
20
-10.0435738624986
30
0
41
1
10
94.4686656777604
20
-9.99408020998803
30
0
41
1
10
94.6163768718068
20
-9.88307883668978
30
0
41
1
10
94.6914563677703
20
-9.82156900385638
30
0
41
1
10
94.8058637967222
20
-9.72052455494986
30
0
41
1
10
94.8635152906876
20
-9.66780380550358
30
0
41
1
10
94.9218358790952
20
-9.61179791037893
30
0
41
1
10
94.9608650976658
20
-9.57372993386471
30
0
41
1
10
94.9804606904319
20
-9.55432382687002
30
0
41
1
10
95.0786277471883
20
-9.455650420919
30
0
41
1
10
95.1578885720493
20
-9.37134741815052
30
0
41
1
10
95.2378674896049
20
-9.28174716890649
30
0
0
SPLINE
5
ED
100
AcDbEntity
8
1
62
256
6
ByLayer
370
18
48
1
60
0
100
AcDbSpline
70
4
71
3
72
8
73
4
40
0
40
0
40
0
40
0
40
1
40
1
40
1
40
1
41
1
10
92.5100620889905
20
-10.3816853564711
30
0
41
1
10
92.8596799081203
20
-10.3466500420367
30
0
41
1
10
93.2078057253671
20
-10.3095971000339
30
0
41
1
10
93.5543105774165
20
-10.2703521339412
30
0
0
SPLINE
5
EE
100
AcDbEntity
8
1
62
256
6
ByLayer
370
18
48
1
60
0
100
AcDbSpline
70
4
71
3
72
32
73
28
40
0
40
0
40
0
40
0
40
0.0625000000000013
40
0.0625000000000013
40
0.125000000000003
40
0.125000000000003
40
0.187500000000004
40
0.187500000000004
40
0.250000000000005
40
0.250000000000005
40
0.281250000000006
40
0.281250000000006
40
0.312500000000006
40
0.312500000000006
40
0.375000000000008
40
0.375000000000008
40
0.500000000000003
40
0.500000000000003
40
0.624999999999998
40
0.624999999999998
40
0.687499999999995
40
0.687499999999995
40
0.749999999999993
40
0.749999999999993
40
0.874999999999997
40
0.874999999999997
40
1
40
1
40
1
40
1
41
1
10
89.0136546001054
20
-8.45387112557307
30
0
41
1
10
89.0535847359395
20
-8.54972697212489
30
0
41
1
10
89.097540325275
20
-8.64001085773484
30
0
41
1
10
89.1922633965814
20
-8.81114973191077
30
0
41
1
10
89.2430372155499
20
-8.89199594803895
30
0
41
1
10
89.3505534342293
20
-9.04542677858757
30
0
41
1
10
89.4072992657314
20
-9.11800664278496
30
0
41
1
10
89.5261510231611
20
-9.25574702524614
30
0
41
1
10
89.5882589459615
20
-9.32090477947509
30
0
41
1
10
89.6851031403781
20
-9.41354442349714
30
0
41
1
10
89.7179993238371
20
-9.44357333009722
30
0
41
1
10
89.7849756016145
20
-9.50199239525975
30
0
41
1
10
89.8191041570589
20
-9.53041785948685
30
0
41
1
10
89.9225116214587
20
-9.61278435180316
30
0
41
1
10
89.9929843310127
20
-9.66399009671102
30
0
41
1
10
90.2084957617948
20
-9.80772287626735
30
0
41
1
10
90.3575974040897
20
-9.89043881953862
30
0
41
1
10
90.6646941040641
20
-10.0343949969638
30
0
41
1
10
90.8227055326212
20
-10.0955956989256
30
0
41
1
10
91.0655326918831
20
-10.1733667962966
30
0
41
1
10
91.1474479742259
20
-10.1969411584194
30
0
41
1
10
91.313121143784
20
-10.2396403832832
30
0
41
1
10
91.3970033648748
20
-10.2587840085091
30
0
41
1
10
91.6495863630432
20
-10.3095281286119
30
0
41
1
10
91.8196469821322
20
-10.3346073247663
30
0
41
1
10
92.1627115926235
20
-10.3693614938299
30
0
41
1
10
92.335719039919
20
-10.3790183802223
30
0
41
1
10
92.5100620889951
20
-10.381685356469
30
0
0
SPLINE
5
EF
100
AcDbEntity
8
1
62
256
6
ByLayer
370
18
48
1
60
0
100
AcDbSpline
70
4
71
3
72
54
73
50
40
0
40
0
40
0
40
0
40
0.0327636188861529
40
0.143359489013623
40
0.253955359141094
40
0.364551229268565
40
0.447498131864168
40
0.502796066927903
40
0.530445034459771
40
0.551181760108671
40
0.571918485757572
40
0.585742969523506
40
0.596111332347956
40
0.601295513760182
40
0.604751634701665
40
0.606479695172407
40
0.608207755643148
40
0.609503800996205
40
0.610799846349261
40
0.611663876584632
40
0.61231189926116
40
0.612851918158267
40
0.61312192760682
40
0.613283933275952
40
0.613499940834795
40
0.613823952173059
40
0.614471974849587
40
0.615119997526115
40
0.615984027761486
40
0.617712088232228
40
0.620304178938341
40
0.623760299879824
40
0.628944481292049
40
0.634128662704274
40
0.6393128441165
40
0.644497025528725
40
0.64968120694095
40
0.654865388353175
40
0.661777630236142
40
0.675602114002076
40
0.696338839650977
40
0.723987807182844
40
0.751636774714712
40
0.77928574224658
40
0.820759193544381
40
0.862232644842183
40
0.917530579905918
40
0.972828514969653
40
1
40
1
40
1
40
1
41
1
10
89.0136545976068
20
-8.45387112526686
30
0
41
1
10
88.5507697317379
20
-8.37773389051151
30
0
41
1
10
86.5253848658689
20
-8.01255975211467
30
0
41
1
10
82.9375
20
-7.12322894722593
30
0
41
1
10
78.25
20
-5.54037462770802
30
0
41
1
10
73.953125
20
-3.79043896842822
30
0
41
1
10
70.4375000000001
20
-2.21744921398536
30
0
41
1
10
68.0937499999999
20
-1.13135473355072
30
0
41
1
10
66.6289062500001
20
-0.445985061927075
30
0
41
1
10
65.6523437499999
20
0.0119183534290812
30
0
41
1
10
64.8710937500001
20
0.378363662234875
30
0
41
1
10
64.2363281249999
20
0.675328012462984
30
0
41
1
10
63.8212890625003
20
0.869562321594458
30
0
41
1
10
63.5527343749999
20
0.994477806423419
30
0
41
1
10
63.4062499999999
20
1.06285170150898
30
0
41
1
10
63.3085937500001
20
1.10819402589098
30
0
41
1
10
63.2414550781251
20
1.13975623056695
30
0
41
1
10
63.1804199218749
20
1.16722863405224
30
0
41
1
10
63.131591796875
20
1.19148644397904
30
0
41
1
10
63.0919189453125
20
1.20729493930762
30
0
41
1
10
63.0629272460937
20
1.22695031883936
30
0
41
1
10
63.0423278808595
20
1.22832678005523
30
0
41
1
10
63.0285949707031
20
1.24072694786372
30
0
41
1
10
63.0194396972657
20
1.24007798813542
30
0
41
1
10
63.0095214843749
20
1.24758042635722
30
0
41
1
10
62.9927368164064
20
1.25254085053265
30
0
41
1
10
62.9698486328123
20
1.2653754481955
30
0
41
1
10
62.9393310546876
20
1.27819515254043
30
0
41
1
10
62.8935546874999
20
1.30011280513122
30
0
41
1
10
62.8203125000002
20
1.33345104090412
30
0
41
1
10
62.7104492187499
20
1.38511364887509
30
0
41
1
10
62.5517578125
20
1.45844276331548
30
0
41
1
10
62.3564453124999
20
1.54926002387361
30
0
41
1
10
62.1367187500001
20
1.64943865147737
30
0
41
1
10
61.9169921874999
20
1.75242143496274
30
0
41
1
10
61.697265625
20
1.85163536580117
30
0
41
1
10
61.4775390625
20
1.95420278662161
30
0
41
1
10
61.2333984375001
20
2.0662584924186
30
0
41
1
10
60.8671874999999
20
2.23554118007163
30
0
41
1
10
60.2812500000003
20
2.49797023459567
30
0
41
1
10
59.4023437499999
20
2.89320425199756
30
0
41
1
10
58.3281250000001
20
3.36606425121988
30
0
41
1
10
57.1562500000001
20
3.86988657042727
30
0
41
1
10
55.7890625000001
20
4.44080732169147
30
0
41
1
10
54.2265625000001
20
5.06660477731984
30
0
41
1
10
52.2734375000001
20
5.8019534200015
30
0
41
1
10
50.125
20
6.54235717558703
30
0
41
1
10
48.1786208794597
20
7.13298705052213
30
0
41
1
10
47.0134917589195
20
7.44663426036888
30
0
41
1
10
46.6296126383793
20
7.54547438787168
30
0
0
SPLINE
5
F0
100
AcDbEntity
8
1
62
256
6
ByLayer
370
18
48
1
60
0
100
AcDbSpline
70
4
71
3
72
8
73
4
40
0
40
0
40
0
40
0
40
1
40
1
40
1
40
1
41
1
10
92.3585120064315
20
4.01264754427493
30
0
41
1
10
92.6669083622298
20
3.8780813324039
30
0
41
1
10
92.9734948147432
20
3.74003348589906
30
0
41
1
10
93.2781249969477
20
3.59822244468776
30
0
0
SPLINE
5
F1
100
AcDbEntity
8
1
62
256
6
ByLayer
370
18
48
1
60
0
100
AcDbSpline
70
4
71
3
72
25
73
21
40
0
40
0
40
0
40
0
40
0.125000000000008
40
0.125000000000008
40
0.250000000000016
40
0.250000000000016
40
0.375000000000024
40
0.375000000000024
40
0.500000000000032
40
0.500000000000032
40
0.531250000000036
40
0.531250000000036
40
0.56250000000004
40
0.625000000000039
40
0.625000000000039
40
0.750000000000026
40
0.750000000000026
40
0.875000000000013
40
0.875000000000013
40
1
40
1
40
1
40
1
41
1
10
89.1842520627501
20
6.75101254376352
30
0
41
1
10
89.2889807251545
20
6.67450689853456
30
0
41
1
10
89.3994404621288
20
6.590406443712
30
0
41
1
10
89.6293873709275
20
6.4102424115766
30
0
41
1
10
89.748894832125
20
6.3141519418765
30
0
41
1
10
89.9954862230308
20
6.11193068675274
30
0
41
1
10
90.1225797187498
20
6.00578722447742
30
0
41
1
10
90.3833871904276
20
5.78472685729253
30
0
41
1
10
90.5171058082495
20
5.66980380099869
30
0
41
1
10
90.6879853251841
20
5.52120534523192
30
0
41
1
10
90.7222969208619
20
5.49128230400231
30
0
41
1
10
90.7910710461826
20
5.43114051531131
30
0
41
1
10
90.8945116287993
20
5.34043809181756
30
0
41
1
10
90.9987604004511
20
5.24831902384886
30
0
41
1
10
91.2082677191273
20
5.06231089024766
30
0
41
1
10
91.3492828453949
20
4.93595035563069
30
0
41
1
10
91.6337216844254
20
4.67900736478586
30
0
41
1
10
91.7771463849709
20
4.54842317711089
30
0
41
1
10
92.0662064436276
20
4.28337982240276
30
0
41
1
10
92.2118424089242
20
4.14891959105705
30
0
41
1
10
92.3585120064353
20
4.01264754427848
30
0
0
SPLINE
5
F2
100
AcDbEntity
8
1
62
256
6
ByLayer
370
18
48
1
60
0
100
AcDbSpline
70
4
71
3
72
9
73
5
40
0
40
0
40
0
40
0
40
0.645258699018119
40
1
40
1
40
1
40
1
41
1
10
89.1842520381402
20
6.75101255647678
30
0
41
1
10
88.2738763587601
20
7.11180939698676
30
0
41
1
10
86.8630070736729
20
7.62374099774405
30
0
41
1
10
85.4521377885855
20
8.0515961197249
30
0
41
1
10
84.9516441828783
20
8.19215359565999
30
0
0
SPLINE
5
F3
100
AcDbEntity
8
1
62
256
6
ByLayer
370
18
48
1
60
0
100
AcDbSpline
70
4
71
3
72
10
73
6
40
0
40
0
40
0
40
0
40
0.171859728482845
40
0.585929864241422
40
1
40
1
40
1
40
1
41
1
10
27.6602729769589
20
-9.2261330640894
30
0
41
1
10
27.3360153179726
20
-9.26373558803124
30
0
41
1
10
26.2305076589864
20
-9.37405614695825
30
0
41
1
10
24.34375
20
-9.45673666521273
30
0
41
1
10
22.78125
20
-9.39607841390318
30
0
41
1
10
22
20
-9.33601941805154
30
0
0
SPLINE
5
F4
100
AcDbEntity
8
1
62
256
6
ByLayer
370
18
48
1
60
0
100
AcDbSpline
70
4
71
3
72
8
73
4
40
0
40
0
40
0
40
0
40
1
40
1
40
1
40
1
41
1
10
47.8224544374145
20
-10.988689788414
30
0
41
1
10
47.8087318863795
20
-10.9889587191702
30
0
41
1
10
47.7950093353444
20
-10.9892179233151
30
0
41
1
10
47.7812867843094
20
-10.9894673995384
30
0
0
SPLINE
5
F5
100
AcDbEntity
8
1
62
256
6
ByLayer
370
13
48
1
60
0
100
AcDbSpline
70
4
71
3
72
17
73
13
40
0
40
0
40
0
40
0
40
0.0454559074007178
40
0.181819349200615
40
0.272728310400547
40
0.363637271600479
40
0.45454623280041
40
0.545455194000342
40
0.636364155200274
40
0.727273116400205
40
0.818182077600137
40
1
40
1
40
1
40
1
41
1
10
47.7812867847593
20
-10.9894673995303
30
0
41
1
10
47.3906495231728
20
-10.9965691919422
30
0
41
1
10
45.8281372615864
20
-10.9934439881819
30
0
41
0.999999999999999
10
43.484375
20
-10.7988455810114
30
0
41
1
10
40.75
20
-10.301642659807
30
0
41
1
10
38.4062499999999
20
-9.69910186162283
30
0
41
1
10
36.0624999999999
20
-8.92919714663998
30
0
41
1
10
33.7187499999999
20
-8.00434611352648
30
0
41
1
10
31.375
20
-6.94359513617829
30
0
41
1
10
29.03125
20
-5.76364172140916
30
0
41
1
10
25.90625
20
-4.05585954729463
30
0
41
1
10
23.5624999999999
20
-2.65816654316279
30
0
41
1
10
22
20
-1.70817044517207
30
0
0
SPLINE
5
F6
100
AcDbEntity
8
1
62
256
6
ByLayer
370
18
48
1
60
0
100
AcDbSpline
70
4
71
3
72
22
73
18
40
0
40
0
40
0
40
0
40
0.249999999999967
40
0.249999999999967
40
0.374999999999973
40
0.374999999999973
40
0.499999999999978
40
0.499999999999978
40
0.624999999999983
40
0.624999999999983
40
0.749999999999989
40
0.749999999999989
40
0.874999999999994
40
0.874999999999994
40
0.937499999999997
40
0.937499999999997
40
1
40
1
40
1
40
1
41
1
10
95.2378674906112
20
-9.28174716899656
30
0
41
1
10
95.2643442341289
20
-9.25208529878643
30
0
41
1
10
95.2902774142345
20
-9.22596224904223
30
0
41
1
10
95.3282754388146
20
-9.1926484285037
30
0
41
1
10
95.3407990682011
20
-9.18252725679517
30
0
41
1
10
95.3653082112581
20
-9.16460161677418
30
0
41
1
10
95.3773187479378
20
-9.15677251959175
30
0
41
1
10
95.4007979315223
20
-9.14363180504708
30
0
41
1
10
95.4122755054445
20
-9.13832599225353
30
0
41
1
10
95.4342877059444
20
-9.13070105043047
30
0
41
1
10
95.4448636875075
20
-9.12835332820308
30
0
41
1
10
95.465032851934
20
-9.12700475786599
30
0
41
1
10
95.4746277170136
20
-9.12799818104943
30
0
41
1
10
95.4881289604912
20
-9.13252275822791
30
0
41
1
10
95.4924830491658
20
-9.1345452845101
30
0
41
1
10
95.5007657008213
20
-9.13967327303476
30
0
41
1
10
95.5047060788285
20
-9.14278100590775
30
0
41
1
10
95.5084255966562
20
-9.14648635799156
30
0
0
SPLINE
5
F7
100
AcDbEntity
8
1
62
256
6
ByLayer
370
13
48
1
60
0
100
AcDbSpline
70
4
71
3
72
55
73
51
40
0
40
0
40
0
40
0
40
0.043419973898526
40
0.144656728745596
40
0.245893483592666
40
0.321821049727968
40
0.372439427151503
40
0.397748615863271
40
0.416730507397096
40
0.435712398930922
40
0.448366993286806
40
0.457857939053719
40
0.462603411937175
40
0.465767060526146
40
0.467348884820631
40
0.468930709115117
40
0.470117077335981
40
0.471303445556845
40
0.472094357704088
40
0.47268754181452
40
0.473181861906546
40
0.47342902195256
40
0.473577317980168
40
0.473775046016979
40
0.474071638072194
40
0.474664822182627
40
0.475258006293058
40
0.476048918440301
40
0.477630742734787
40
0.480003479176515
40
0.483167127765486
40
0.487912600648942
40
0.492658073532399
40
0.497403546415855
40
0.502149019299312
40
0.506894492182768
40
0.511639965066224
40
0.517967262244166
40
0.53062185660005
40
0.549603748133875
40
0.574912936845643
40
0.60022212555741
40
0.625531314269178
40
0.663495097336829
40
0.70145888040448
40
0.752077257828015
40
0.80269563525155
40
0.878623201386853
40
0.954550767522155
40
1
40
1
40
1
40
1
41
1
10
84.947946976069
20
-10.9887909059256
30
0
41
1
10
84.2777979840461
20
-11.0006888204708
30
0
41
1
10
82.045148992023
20
-10.9739729458887
30
0
41
1
10
78.2499999999999
20
-10.5513014433278
30
0
41
1
10
73.9531249999999
20
-9.49936598177061
30
0
41
0.999999999999999
10
70.4375
20
-8.27754717384895
30
0
41
1
10
68.0937499999998
20
-7.31203796398625
30
0
41
1
10
66.6289062500001
20
-6.65844546424952
30
0
41
1
10
65.6523437499999
20
-6.20470304572163
30
0
41
1
10
64.8710937500001
20
-5.83016487313552
30
0
41
1
10
64.2363281249998
20
-5.51861292947069
30
0
41
0.999999999999996
10
63.8212890625003
20
-5.31177345612326
30
0
41
1
10
63.5527343749998
20
-5.1766904514265
30
0
41
0.999999999999999
10
63.4062499999999
20
-5.10264007044069
30
0
41
1
10
63.30859375
20
-5.05312798980489
30
0
41
1
10
63.241455078125
20
-5.01902243899877
30
0
41
1
10
63.1804199218749
20
-4.98796532341214
30
0
41
0.999999999999999
10
63.131591796875
20
-4.9630841459227
30
0
41
1
10
63.0919189453124
20
-4.94284431173364
30
0
41
1
10
63.0629272460937
20
-4.92804150020006
30
0
41
0.999999999999999
10
63.0423278808594
20
-4.91751694381384
30
0
41
1
10
63.0285949707031
20
-4.91049750401621
30
0
41
0.999999999999999
10
63.0194396972657
20
-4.90581678776246
30
0
41
1
10
63.0095214843749
20
-4.90074497966847
30
0
41
1
10
62.9927368164062
20
-4.89215942713551
30
0
41
1
10
62.9698486328124
20
-4.88044574675965
30
0
41
1
10
62.9393310546875
20
-4.86481668067097
30
0
41
1
10
62.8935546874999
20
-4.84135419694209
30
0
41
0.999999999999999
10
62.8203125
20
-4.80376264537282
30
0
41
1
10
62.71044921875
20
-4.74724747493164
30
0
41
0.999999999999999
10
62.5517578125
20
-4.66535926406508
30
0
41
1
10
62.3564453124999
20
-4.56413292443909
30
0
41
0.999999999999999
10
62.1367187500001
20
-4.44967399552587
30
0
41
1
10
61.9169921875
20
-4.33465159042746
30
0
41
1
10
61.6972656249999
20
-4.21908150075123
30
0
41
1
10
61.4775390625
20
-4.10297943470664
30
0
41
1
10
61.2333984375
20
-3.97340354969543
30
0
41
1
10
60.8671874999999
20
-3.7780653281398
30
0
41
1
10
60.28125
20
-3.46297029045081
30
0
41
1
10
59.4023437499999
20
-2.98409114961268
30
0
41
1
10
58.3281249999999
20
-2.38897636462181
30
0
41
1
10
57.1562500000001
20
-1.73100180548036
30
0
41
1
10
55.7890625
20
-0.956272825598433
30
0
41
1
10
54.2265625
20
-0.0640218167079638
30
0
41
1
10
52.2734375
20
1.05210799821521
30
0
41
1
10
50.125
20
2.26812052607195
30
0
41
0.999999999999999
10
47.3906249999999
20
3.77704859988078
30
0
41
1
10
44.265625
20
5.41321491585807
30
0
41
1
10
41.2204061920171
20
6.85209473755788
30
0
41
1
10
39.3470623840342
20
7.63671662269084
30
0
41
1
10
38.6455935760512
20
7.91478383354715
30
0
0
SPLINE
5
F8
100
AcDbEntity
8
1
62
256
6
ByLayer
370
13
48
1
60
0
100
AcDbSpline
70
4
71
3
72
13
73
9
40
0
40
0
40
0
40
0
40
0.191351320584107
40
0.350488756000442
40
0.589194909124943
40
0.748332344541278
40
0.987038497665779
40
1
40
1
40
1
40
1
41
1
10
95.1306908074972
20
-0.996754560959545
30
0
41
1
10
94.1912938716648
20
-0.376705700552293
30
0
41
1
10
92.4706469358324
20
0.767760363838846
30
0
41
1
10
89.5781249999999
20
2.66824905051351
30
0
41
1
10
86.84375
20
4.39439944703295
30
0
41
1
10
83.71875
20
6.21407876975982
30
0
41
1
10
81.7019933744675
20
7.25901655133833
30
0
41
1
10
80.466486748935
20
7.83472037224021
30
0
41
1
10
80.4028551234026
20
7.86419759517381
30
0
0
SPLINE
5
F9
100
AcDbEntity
8
1
62
256
6
ByLayer
370
18
48
1
60
0
100
AcDbSpline
70
4
71
3
72
8
73
4
40
0
40
0
40
0
40
0
40
1
40
1
40
1
40
1
41
1
10
96.5606852967685
20
12.4962849321237
30
0
41
1
10
96.6485388900576
20
12.2073118210388
30
0
41
1
10
96.7429580531403
20
11.9205514250395
30
0
41
1
10
96.8454422286126
20
11.6365090832295
30
0
0
SPLINE
5
FA
100
AcDbEntity
8
1
62
256
6
ByLayer
370
13
48
1
60
0
100
AcDbSpline
70
4
71
3
72
12
73
8
40
0
40
0
40
0
40
0
40
0.348601363617171
40
0.528845100408138
40
0.799210705594589
40
0.979454442385556
40
1
40
1
40
1
40
1
41
1
10
96.845442228807
20
11.6365090833054
30
0
41
1
10
95.3344614858713
20
11.6147086362819
30
0
41
1
10
93.0422307429357
20
11.3878722937227
30
0
41
1
10
89.578125
20
10.6324860168361
30
0
41
1
10
86.84375
20
9.76789093753143
30
0
41
1
10
84.8015721587083
20
8.93753239427849
30
0
41
1
10
83.9312693174165
20
8.55334552334699
30
0
41
1
10
83.8422164761247
20
8.5137211050644
30
0
0
SPLINE
5
FB
100
AcDbEntity
8
1
62
256
6
ByLayer
370
13
48
1
60
0
100
AcDbSpline
70
4
71
3
72
19
73
15
40
0
40
0
40
0
40
0
40
0.14576513279636
40
0.21864769919454
40
0.29153026559272
40
0.3644128319909
40
0.43729539838908
40
0.51017796478726
40
0.58306053118544
40
0.65594309758362
40
0.76526694718089
40
0.874590796778159
40
0.983914646375429
40
1
40
1
40
1
40
1
41
1
10
22
20
3.74796292710241
30
0
41
1
10
23.5625
20
3.42145426360918
30
0
41
1
10
25.90625
20
2.87589241991088
30
0
41
1
10
29.0312500000001
20
2.06791470011223
30
0
41
1
10
31.3750000000001
20
1.43145345689001
30
0
41
1
10
33.7187499999999
20
0.774923038319087
30
0
41
1
10
36.0625
20
0.106332193897572
30
0
41
1
10
38.40625
20
-0.564567305390142
30
0
41
1
10
40.75
20
-1.22693669875366
30
0
41
0.999999999999999
10
43.484375
20
-1.97718141054637
30
0
41
1
10
46.609375
20
-2.78956125644359
30
0
41
1
10
50.125
20
-3.61134433019149
30
0
41
1
10
52.6411737103636
20
-4.11229628091564
30
0
41
1
10
53.9854724207272
20
-4.34878917469834
30
0
41
1
10
54.1578961310908
20
-4.37859924496757
30
0
0
SPLINE
5
FC
100
AcDbEntity
8
1
62
256
6
ByLayer
370
18
48
1
60
0
100
AcDbSpline
70
4
71
3
72
30
73
26
40
0
40
0
40
0
40
0
40
0.124999999999992
40
0.124999999999992
40
0.18749999999999
40
0.18749999999999
40
0.218749999999989
40
0.218749999999989
40
0.249999999999987
40
0.249999999999987
40
0.374999999999983
40
0.374999999999983
40
0.499999999999979
40
0.499999999999979
40
0.624999999999975
40
0.624999999999975
40
0.687499999999976
40
0.687499999999976
40
0.71874999999998
40
0.71874999999998
40
0.749999999999983
40
0.749999999999983
40
0.874999999999992
40
0.874999999999992
40
1
40
1
40
1
40
1
41
1
10
93.2781249969476
20
3.59822244468765
30
0
41
1
10
93.3331751991212
20
3.43010531617705
30
0
41
1
10
93.3922453328398
20
3.25654412919161
30
0
41
1
10
93.4864631386195
20
2.98860138571922
30
0
41
1
10
93.5188070542185
20
2.89801686257888
30
0
41
1
10
93.5686980618736
20
2.76027777966263
30
0
41
1
10
93.5855683520938
20
2.71402524914069
30
0
41
1
10
93.6197176468805
20
2.62102967340667
30
0
41
1
10
93.6369541995584
20
2.57440179292891
30
0
41
1
10
93.7239233004103
20
2.34063056006119
30
0
41
1
10
93.7960065009461
20
2.15159843360382
30
0
41
1
10
93.9447414682685
20
1.76986328932276
30
0
41
1
10
94.021395230411
20
1.57715866820936
30
0
41
1
10
94.1790037944434
20
1.18829349499543
30
0
41
1
10
94.2599596095263
20
0.992132128783311
30
0
41
1
10
94.3845157688839
20
0.695381168481532
30
0
41
1
10
94.4265558248273
20
0.596045282590438
30
0
41
1
10
94.4903927088148
20
0.446417286668975
30
0
41
1
10
94.511799397075
20
0.396441838616624
30
0
41
1
10
94.5547298964619
20
0.296610628002583
30
0
41
1
10
94.5762711387089
20
0.246713912118992
30
0
41
1
10
94.6843520324956
20
-0.0026765326819316
30
0
41
1
10
94.7720132284209
20
-0.201891479984454
30
0
41
1
10
94.9496354169681
20
-0.599749715504913
30
0
41
1
10
95.03959668703
20
-0.798392934720596
30
0
41
1
10
95.1306908054112
20
-0.996754562548631
30
0
0
SPLINE
5
FD
100
AcDbEntity
8
1
62
256
6
ByLayer
370
18
48
1
60
0
100
AcDbSpline
70
4
71
3
72
24
73
20
40
0
40
0
40
0
40
0
40
0.250000000000045
40
0.250000000000045
40
0.375000000000067
40
0.375000000000067
40
0.50000000000009
40
0.50000000000009
40
0.562500000000083
40
0.562500000000083
40
0.625000000000075
40
0.625000000000075
40
0.750000000000059
40
0.750000000000059
40
0.875000000000044
40
0.875000000000044
40
0.937500000000022
40
0.937500000000022
40
1
40
1
40
1
40
1
41
1
10
95.1306908068118
20
-0.99675456197528
30
0
41
1
10
95.1581956459107
20
-1.0566476140595
30
0
41
1
10
95.1851717233419
20
-1.11676146993537
30
0
41
1
10
95.2247428329157
20
-1.20730516120602
30
0
41
1
10
95.2377497225235
20
-1.23747360778148
30
0
41
1
10
95.2632631638847
20
-1.29754835439499
30
0
41
1
10
95.2757848955318
20
-1.32748871111244
30
0
41
1
10
95.2941700858225
20
-1.37223517432292
30
0
41
1
10
95.3002421878575
20
-1.38714871898733
30
0
41
1
10
95.3121639944918
20
-1.41671982102346
30
0
41
1
10
95.3180196388423
20
-1.43139133047759
30
0
41
1
10
95.3352529627485
20
-1.47504441401856
30
0
41
1
10
95.3462993566707
20
-1.50366706066353
30
0
41
1
10
95.3673666079886
20
-1.55980124871652
30
0
41
1
10
95.3773895160329
20
-1.58731501187532
30
0
41
1
10
95.3914780114274
20
-1.62756086872528
30
0
41
1
10
95.3960156199732
20
-1.64080436811324
30
0
41
1
10
95.4047272253429
20
-1.6668974161343
30
0
41
1
10
95.4088882786257
20
-1.67971061149143
30
0
41
1
10
95.4127891690725
20
-1.69213419307877
30
0
0
SPLINE
5
FE
100
AcDbEntity
8
1
62
256
6
ByLayer
370
18
48
1
60
0
100
AcDbSpline
70
4
71
3
72
17
73
13
40
0
40
0
40
0
40
0
40
0.25
40
0.5
40
0.5
40
0.625000000000001
40
0.625000000000001
40
0.687500000000003
40
0.687500000000003
40
0.750000000000004
40
0.750000000000004
40
1
40
1
40
1
40
1
41
1
10
96.9681307843775
20
-5.7745373311368
30
0
41
1
10
96.9426270741746
20
-5.62989715810062
30
0
41
1
10
96.8950068883051
20
-5.3589204806342
30
0
41
1
10
96.8540943560228
20
-5.1241900881698
30
0
41
1
10
96.8259703543711
20
-4.96197796653186
30
0
41
1
10
96.8170231488315
20
-4.9102171427368
30
0
41
1
10
96.8042561206578
20
-4.83610875214819
30
0
41
1
10
96.8001032355559
20
-4.81195872836889
30
0
41
1
10
96.7920560697045
20
-4.76507230358476
30
0
41
1
10
96.7881611554567
20
-4.7423324081428
30
0
41
1
10
96.7693209611581
20
-4.63210050410334
30
0
41
1
10
96.7562741535922
20
-4.55498575204157
30
0
41
1
10
96.7451769516902
20
-4.48852775601642
30
0
0
SPLINE
5
FF
100
AcDbEntity
8
1
62
256
6
ByLayer
370
13
48
1
60
0
100
AcDbSpline
70
4
71
3
72
49
73
45
40
0
40
0
40
0
40
0
40
0.0034558203849586
40
0.0413819917695822
40
0.0793081631542055
40
0.107752791692673
40
0.126715877384985
40
0.136197420231141
40
0.143308577365758
40
0.150419734500374
40
0.157530891634992
40
0.164642048769608
40
0.171753205904225
40
0.178864363038842
40
0.18360513446192
40
0.187160713029228
40
0.189531098740767
40
0.190716291596537
40
0.191605186238364
40
0.192494080880191
40
0.192938528201105
40
0.193234826415047
40
0.193457050075504
40
0.193827422842932
40
0.194568168377788
40
0.195457063019615
40
0.196642255875384
40
0.198420045159038
40
0.200197834442693
40
0.202568220154232
40
0.204938605865771
40
0.209679377288849
40
0.216790534423465
40
0.231012848692699
40
0.249975934385011
40
0.278420562923478
40
0.306865191461946
40
0.344791362846569
40
0.420643705615816
40
0.534422219769687
40
0.68612690530818
40
0.837831590846674
40
0.989536276385168
40
1
40
1
40
1
40
1
41
1
10
57.0494691316506
20
5.27897166541345
30
0
41
1
10
57.0850627544338
20
5.27565588600453
30
0
41
1
10
57.5112813772169
20
5.23551350836249
30
0
41
1
10
58.328125
20
5.14856424496517
30
0
41
1
10
59.40234375
20
5.01075796534127
30
0
41
1
10
60.2812500000001
20
4.8818239101696
30
0
41
1
10
60.8671875
20
4.7883242738124
30
0
41
1
10
61.2333984375
20
4.72710227976682
30
0
41
1
10
61.4775390625
20
4.685213822923
30
0
41
1
10
61.697265625
20
4.6466913336873
30
0
41
1
10
61.9169921875001
20
4.60735165052978
30
0
41
0.999999999999999
10
62.1367187500001
20
4.56720065030433
30
0
41
1
10
62.3564453125
20
4.52624444030778
30
0
41
0.999999999999999
10
62.5517578125
20
4.48912879130882
30
0
41
1
10
62.71044921875
20
4.45849546281363
30
0
41
0.999999999999999
10
62.8203125000001
20
4.43705799379294
30
0
41
1
10
62.8935546875
20
4.42265740791439
30
0
41
1
10
62.9393310546876
20
4.41361631094677
30
0
41
1
10
62.9698486328125
20
4.40757309706237
30
0
41
1
10
62.9927368164062
20
4.40303053082943
30
0
41
1
10
63.009521484375
20
4.39969373627269
30
0
41
0.999999999999999
10
63.0194396972657
20
4.39772016349099
30
0
41
1
10
63.0285949707031
20
4.39589722164081
30
0
41
0.999999999999999
10
63.0423278808595
20
4.39316078254743
30
0
41
1
10
63.0629272460937
20
4.38905042762709
30
0
41
1
10
63.0919189453125
20
4.38325373675735
30
0
41
0.999999999999999
10
63.131591796875
20
4.37530098800537
30
0
41
1
10
63.180419921875
20
4.36547711604748
30
0
41
1
10
63.2414550781251
20
4.35314359290473
30
0
41
1
10
63.3085937500001
20
4.33950798847235
30
0
41
0.999999999999999
10
63.4062499999999
20
4.31956049949725
30
0
41
1
10
63.5527343749999
20
4.28938386751516
30
0
41
0.999999999999996
10
63.8212890625003
20
4.23328485594725
30
0
41
1
10
64.2363281249999
20
4.14445217336501
30
0
41
1
10
64.8710937500001
20
4.00362412125907
30
0
41
1
10
65.6523437499999
20
3.82184398179663
30
0
41
1
10
66.6289062500001
20
3.58262861517946
30
0
41
1
10
68.0937499999999
20
3.20411896952376
30
0
41
0.999999999999999
10
70.4375000000001
20
2.54996065780407
30
0
41
1
10
73.953125
20
1.47047107313639
30
0
41
1
10
78.25
20
0.0446396628873345
30
0
41
1
10
82.9375
20
-1.50783925182398
30
0
41
1
10
86.1702723347182
20
-2.50047549067003
30
0
41
1
10
87.8405446694364
20
-2.96763609730766
30
0
41
1
10
87.9483170041547
20
-2.99758430674899
30
0
0
SPLINE
5
100
100
AcDbEntity
8
1
62
256
6
ByLayer
370
18
48
1
60
0
100
AcDbSpline
70
4
71
3
72
33
73
29
40
0
40
0
40
0
40
0
40
0.125000000000021
40
0.125000000000021
40
0.187500000000032
40
0.187500000000032
40
0.218750000000037
40
0.218750000000037
40
0.250000000000042
40
0.250000000000042
40
0.375000000000015
40
0.375000000000015
40
0.437500000000002
40
0.437500000000002
40
0.499999999999989
40
0.562499999999975
40
0.562499999999975
40
0.624999999999962
40
0.624999999999962
40
0.749999999999975
40
0.749999999999975
40
0.812499999999981
40
0.812499999999981
40
0.843750000000005
40
0.843750000000005
40
0.875000000000029
40
0.875000000000029
40
1
40
1
40
1
40
1
41
1
10
87.9483170041561
20
-2.99758430674916
30
0
41
1
10
87.9662104267347
20
-2.93068113045655
30
0
41
1
10
87.9923437164699
20
-2.86772282300478
30
0
41
1
10
88.0426517923365
20
-2.77897365992823
30
0
41
1
10
88.0612916413548
20
-2.75034476465359
30
0
41
1
10
88.0920564546279
20
-2.70885572571413
30
0
41
1
10
88.1028087524292
20
-2.69523731359644
30
0
41
1
10
88.1250263662213
20
-2.66876387031661
30
0
41
1
10
88.1365077475539
20
-2.65588279916236
30
0
41
1
10
88.195723425198
20
-2.5932052035507
30
0
41
1
10
88.2488266229949
20
-2.54855096786173
30
0
41
1
10
88.3367900682448
20
-2.48937416772597
30
0
41
1
10
88.3676470239147
20
-2.47089674289498
30
0
41
1
10
88.4310333405053
20
-2.43716107181842
30
0
41
1
10
88.4962716553725
20
-2.40648690975831
30
0
41
1
10
88.5651093232232
20
-2.381593476772
30
0
41
1
10
88.6357407394662
20
-2.35948321706957
30
0
41
1
10
88.671984087006
20
-2.3498131305013
30
0
41
1
10
88.7832690663701
20
-2.32493907908503
30
0
41
1
10
88.8590783738292
20
-2.31422358277706
30
0
41
1
10
88.9751518348166
20
-2.30576267278766
30
0
41
1
10
89.0142382340131
20
-2.30421904075021
30
0
41
1
10
89.0734675697537
20
-2.30372882754807
30
0
41
1
10
89.0933107338767
20
-2.30386997262795
30
0
41
1
10
89.1331994350345
20
-2.30475026610066
30
0
41
1
10
89.1532514132143
20
-2.30549084165145
30
0
41
1
10
89.2533879388163
20
-2.31062336836334
30
0
41
1
10
89.3336067004817
20
-2.31928199654726
30
0
41
1
10
89.4139957750313
20
-2.3319190770265
30
0
0
SPLINE
5
101
100
AcDbEntity
8
1
62
256
6
ByLayer
370
18
48
1
60
0
100
AcDbSpline
70
4
71
3
72
10
73
6
40
0
40
0
40
0
40
0
40
0.46709303269545
40
0.46709303269545
40
1
40
1
40
1
40
1
41
1
10
91.2978932675899
20
-2.65294880196592
30
0
41
1
10
91.0063608102777
20
-2.5987553010888
30
0
41
1
10
90.7137362974484
20
-2.54681867476575
30
0
41
1
10
90.0853895187207
20
-2.43948512522283
30
0
41
1
10
89.7498970857727
20
-2.38472242027564
30
0
41
1
10
89.4139957750362
20
-2.33191907702727
30
0
0
SPLINE
5
102
100
AcDbEntity
8
1
62
256
6
ByLayer
370
18
48
1
60
0
100
AcDbSpline
70
4
71
3
72
8
73
4
40
0
40
0
40
0
40
0
40
1
40
1
40
1
40
1
41
1
10
96.5606852967907
20
12.4962849321313
30
0
41
1
10
96.6335738282429
20
12.4957035866592
30
0
41
1
10
96.7064641086894
20
12.4953416333296
30
0
41
1
10
96.7793561388743
20
12.495199165488
30
0
0
SPLINE
5
103
100
AcDbEntity
8
1
62
256
6
ByLayer
370
18
48
1
60
0
100
AcDbSpline
70
4
71
3
72
9
73
5
40
0
40
0
40
0
40
0
40
0.499794942978159
40
1
40
1
40
1
40
1
41
1
10
18.7329785040337
20
-4.02670026327723
30
0
41
1
10
18.7429518272924
20
-4.01299701664661
30
0
41
1
10
18.7629066575659
20
-3.98557927898611
30
0
41
1
10
18.7829047061798
20
-3.95824427718625
30
0
41
1
10
18.792907831227
20
-3.94457117105225
30
0
0
SPLINE
5
104
100
AcDbEntity
8
1
62
256
6
ByLayer
370
18
48
1
60
0
100
AcDbSpline
70
4
71
3
72
8
73
4
40
0
40
0
40
0
40
0
40
1
40
1
40
1
40
1
41
1
10
96.77935613939
20
12.4951991653317
30
0
41
1
10
96.8528870466899
20
12.4896827896412
30
0
41
1
10
96.926435035863
20
12.4843967971181
30
0
41
1
10
97.0000000000001
20
12.4793397317258
30
0
0
SPLINE
5
105
100
AcDbEntity
8
1
62
256
6
ByLayer
370
18
48
1
60
0
100
AcDbSpline
70
4
71
3
72
8
73
4
40
0
40
0
40
0
40
0
40
1
40
1
40
1
40
1
41
1
10
18.7883176717339
20
-3.94201890148085
30
0
41
0.999999918609417
10
18.7898475999091
20
-3.94286911276839
30
0
41
0.999999918609417
10
18.7913776531976
20
-3.94371986936116
30
0
41
1
10
18.7929078312259
20
-3.94457117105159
30
0
0
SPLINE
5
106
100
AcDbEntity
8
1
62
256
6
ByLayer
370
18
48
1
60
0
100
AcDbSpline
70
4
71
3
72
19
73
15
40
0
40
0
40
0
40
0
40
0.08356029760324
40
0.167077334540055
40
0.250551727921967
40
0.333984086489105
40
0.41737501062343
40
0.500725092363554
40
0.584034915421591
40
0.667305055201395
40
0.750536078818736
40
0.833728545123027
40
0.916883004720647
40
1
40
1
40
1
40
1
41
1
10
19.2149454556455
20
-3.29175731978452
30
0
41
1
10
19.2030335149277
20
-3.30975657782716
30
0
41
1
10
19.1792158005176
20
-3.34574577537339
30
0
41
1
10
19.1436013858844
20
-3.39984404857145
30
0
41
1
10
19.1080809586779
20
-3.4540068598458
30
0
41
1
10
19.0726618806279
20
-3.50824245280918
30
0
41
1
10
19.037342174319
20
-3.56254728001056
30
0
41
1
10
19.0021223760698
20
-3.61692097552316
30
0
41
1
10
18.9670023029774
20
-3.67136228555708
30
0
41
1
10
18.9319821399876
20
-3.72587038366768
30
0
41
1
10
18.8970613229081
20
-3.78044367700107
30
0
41
1
10
18.862241917659
20
-3.835083264509
30
0
41
1
10
18.8275162280056
20
-3.88978030562296
30
0
41
1
10
18.8044422304723
20
-3.92631029288947
30
0
41
1
10
18.7929078312245
20
-3.9445711710506
30
0
0
SPLINE
5
107
100
AcDbEntity
8
1
62
256
6
ByLayer
370
18
48
1
60
0
100
AcDbSpline
70
4
71
3
72
8
73
4
40
0
40
0
40
0
40
0
40
1
40
1
40
1
40
1
41
1
10
19.0005010537399
20
-3.17547455098017
30
0
41
0.999834091666419
10
19.0716771788221
20
-3.21305857560846
30
0
41
0.999834091666419
10
19.1431705074626
20
-3.25182593037018
30
0
41
1
10
19.2149454556441
20
-3.2917573197837
30
0
0
SPLINE
5
108
100
AcDbEntity
8
1
62
256
6
ByLayer
370
18
48
1
60
0
100
AcDbSpline
70
4
71
3
72
12
73
8
40
0
40
0
40
0
40
0
40
0.250000000000008
40
0.250000000000008
40
0.500000000000016
40
0.500000000000016
40
1
40
1
40
1
40
1
41
1
10
19.1394009697528
20
-1.58093159817787
30
0
41
1
10
19.21365837192
20
-1.58815364655985
30
0
41
1
10
19.2887511198671
20
-1.59677225587748
30
0
41
1
10
19.4395209155308
20
-1.61671088358168
30
0
41
1
10
19.515247601113
20
-1.62803110590215
30
0
41
1
10
19.7434528041534
20
-1.66604364074917
30
0
41
1
10
19.8969546998598
20
-1.69678083300036
30
0
41
1
10
20.0518419417273
20
-1.73299357508802
30
0
0
SPLINE
5
109
100
AcDbEntity
8
1
62
256
6
ByLayer
370
18
48
1
60
0
100
AcDbSpline
70
4
71
3
72
16
73
12
40
0
40
0
40
0
40
0
40
0.250000000000002
40
0.250000000000002
40
0.500000000000004
40
0.500000000000004
40
0.750000000000006
40
0.750000000000006
40
0.875000000000003
40
0.875000000000003
40
1
40
1
40
1
40
1
41
1
10
18.7329662747451
20
-4.02671708067786
30
0
41
1
10
19.004984035879
20
-4.20708276699605
30
0
41
1
10
19.2769174705583
20
-4.38603034740575
30
0
41
1
10
19.8208947613875
20
-4.74071561987264
30
0
41
1
10
20.0929271815962
20
-4.91646905324569
30
0
41
1
10
20.6372290831127
20
-5.26459547354352
30
0
41
1
10
20.9095229521701
20
-5.43693637595771
30
0
41
1
10
21.3183181163884
20
-5.69267593018168
30
0
41
1
10
21.454663810064
20
-5.77747716282806
30
0
41
1
10
21.7273363153755
20
-5.9460680827984
30
0
41
1
10
21.8636632841487
20
-6.02985517041745
30
0
41
1
10
22.0000000000001
20
-6.11310990005416
30
0
0
SPLINE
5
10A
100
AcDbEntity
8
1
62
256
6
ByLayer
370
18
48
1
60
0
100
AcDbSpline
70
4
71
3
72
8
73
4
40
0
40
0
40
0
40
0
40
1
40
1
40
1
40
1
41
1
10
18.732990394857
20
-4.02668350349165
30
0
41
1
10
18.7507112629689
20
-3.99807276755874
30
0
41
1
10
18.7691642160871
20
-3.96985640357767
30
0
41
1
10
18.7883176717699
20
-3.94201890150086
30
0
0
SPLINE
5
10B
100
AcDbEntity
8
1
62
256
6
ByLayer
370
18
48
1
60
0
100
AcDbSpline
70
4
71
3
72
18
73
14
40
0
40
0
40
0
40
0
40
0.249999999999995
40
0.249999999999995
40
0.374999999999999
40
0.374999999999999
40
0.500000000000003
40
0.500000000000003
40
0.625000000000006
40
0.625000000000006
40
0.75000000000001
40
0.75000000000001
40
1
40
1
40
1
40
1
41
1
10
18.7883176717668
20
-3.9420189014989
30
0
41
1
10
18.793018175753
20
-3.87625657731974
30
0
41
1
10
18.8014254796126
20
-3.81086179552409
30
0
41
1
10
18.8190447865439
20
-3.71325232615837
30
0
41
1
10
18.8257553497996
20
-3.68079666505326
30
0
41
1
10
18.840787247801
20
-3.61603942122045
30
0
41
1
10
18.8491101079413
20
-3.58374077381521
30
0
41
1
10
18.8672331151509
20
-3.5195573874222
30
0
41
1
10
18.8770408403469
20
-3.48763807751473
30
0
41
1
10
18.8980877108502
20
-3.42412990704011
30
0
41
1
10
18.9093356438482
20
-3.39251918958854
30
0
41
1
10
18.945074349013
20
-3.2983709070989
30
0
41
1
10
18.9715532880145
20
-3.23650337756982
30
0
41
1
10
19.0005010537464
20
-3.17547455098361
30
0
0
SPLINE
5
10C
100
AcDbEntity
8
1
62
256
6
ByLayer
370
18
48
1
60
0
100
AcDbSpline
70
4
71
3
72
18
73
14
40
0
40
0
40
0
40
0
40
0.250000000000003
40
0.250000000000003
40
0.500000000000006
40
0.500000000000006
40
0.625000000000007
40
0.625000000000007
40
0.687500000000007
40
0.687500000000007
40
0.750000000000007
40
0.750000000000007
40
1
40
1
40
1
40
1
41
1
10
19.0005010537437
20
-3.17547455098182
30
0
41
1
10
18.9769072608335
20
-3.04304467531088
30
0
41
1
10
18.9636025240729
20
-2.91030508394954
30
0
41
1
10
18.9547089219396
20
-2.64417066184592
30
0
41
1
10
18.9591403591592
20
-2.51077612280545
30
0
41
1
10
18.9779769817542
20
-2.31017951853266
30
0
41
1
10
18.9862961036148
20
-2.24322995918385
30
0
41
1
10
19.0017624185817
20
-2.1426786933518
30
0
41
1
10
19.007416219089
20
-2.10914045537211
30
0
41
1
10
19.0197132664409
20
-2.04202159039204
30
0
41
1
10
19.0263560151947
20
-2.00845419138426
30
0
41
1
10
19.0617841499504
20
-1.84157346457479
30
0
41
1
10
19.0973299998527
20
-1.71025922442883
30
0
41
1
10
19.139400969768
20
-1.58093159816835
30
0
0
SPLINE
5
10D
100
AcDbEntity
8
1
62
256
6
ByLayer
370
18
48
1
60
0
100
AcDbSpline
70
4
71
3
72
41
73
37
40
0
40
0
40
0
40
0
40
0.124999999999959
40
0.124999999999959
40
0.249999999999919
40
0.249999999999919
40
0.374999999999878
40
0.374999999999878
40
0.437499999999857
40
0.437499999999857
40
0.499999999999836
40
0.499999999999836
40
0.562499999999815
40
0.562499999999815
40
0.593749999999811
40
0.593749999999811
40
0.624999999999808
40
0.624999999999808
40
0.656249999999804
40
0.656249999999804
40
0.687499999999801
40
0.687499999999801
40
0.703124999999799
40
0.703124999999799
40
0.718749999999798
40
0.749999999999792
40
0.749999999999792
40
0.812499999999784
40
0.812499999999784
40
0.843749999999803
40
0.843749999999803
40
0.874999999999821
40
0.874999999999821
40
0.937499999999911
40
0.937499999999911
40
1
40
1
40
1
40
1
41
1
10
12.3475067321309
20
3.64204374914388
30
0
41
1
10
12.3249882346399
20
3.66487038334361
30
0
41
1
10
12.3029830047189
20
3.68808227123
30
0
41
1
10
12.2603425553183
20
3.73554253227889
30
0
41
1
10
12.2397000137933
20
3.75978520749604
30
0
41
1
10
12.2003834435429
20
3.80977125820681
30
0
41
1
10
12.1816513591441
20
3.83556722026546
30
0
41
1
10
12.1562812821975
20
3.87559303614148
30
0
41
1
10
12.148274491627
20
3.88917176350628
30
0
41
1
10
12.133487486979
20
3.91697803367589
30
0
41
1
10
12.1266780008938
20
3.93126629822157
30
0
41
1
10
12.115026572754
20
3.9603703719423
30
0
41
1
10
12.1101571161287
20
3.97519138864365
30
0
41
1
10
12.1050821203764
20
3.9980551782337
30
0
41
1
10
12.1037669218367
20
4.00581805232258
30
0
41
1
10
12.1021538527599
20
4.02130700883637
30
0
41
1
10
12.1018460138947
20
4.02905803136073
30
0
41
1
10
12.1024790160134
20
4.04457772206987
30
0
41
1
10
12.1034405943836
20
4.05242058074674
30
0
41
1
10
12.1068563629201
20
4.06763819684642
30
0
41
1
10
12.1092972256159
20
4.07502955233727
30
0
41
1
10
12.1141967318149
20
4.08575040120471
30
0
41
1
10
12.1160501832014
20
4.08928310773388
30
0
41
1
10
12.1201090724562
20
4.09607800701988
30
0
41
1
10
12.1267265712407
20
4.1058890496405
30
0
41
1
10
12.1348679781272
20
4.11461219800788
30
0
41
1
10
12.1530162226952
20
4.13070537496378
30
0
41
1
10
12.1667972697397
20
4.13901759147035
30
0
41
1
10
12.189079375402
20
4.149176083463
30
0
41
1
10
12.1967088731155
20
4.15213061984085
30
0
41
1
10
12.2121130637973
20
4.15730890526319
30
0
41
1
10
12.2199181064619
20
4.15954503159546
30
0
41
1
10
12.2435790438396
20
4.16541088450691
30
0
41
1
10
12.2597027580166
20
4.16821211398658
30
0
41
1
10
12.292290975662
20
4.17226016664603
30
0
41
1
10
12.3086599767665
20
4.17349221003948
30
0
41
1
10
12.3250828220257
20
4.17415503800163
30
0
0
SPLINE
5
10E
100
AcDbEntity
8
1
62
256
6
ByLayer
370
18
48
1
60
0
100
AcDbSpline
70
4
71
3
72
59
73
55
40
0
40
0
40
0
40
0
40
0.062500000000015
40
0.062500000000015
40
0.12500000000003
40
0.12500000000003
40
0.140625000000037
40
0.140625000000037
40
0.156250000000044
40
0.156250000000044
40
0.187500000000058
40
0.187500000000058
40
0.250000000000087
40
0.250000000000087
40
0.281250000000098
40
0.281250000000098
40
0.289062500000097
40
0.289062500000097
40
0.296875000000096
40
0.296875000000096
40
0.312500000000094
40
0.312500000000094
40
0.375000000000087
40
0.375000000000087
40
0.382812500000086
40
0.382812500000086
40
0.390625000000086
40
0.390625000000086
40
0.406250000000085
40
0.437500000000082
40
0.46875000000008
40
0.46875000000008
40
0.484375000000079
40
0.484375000000079
40
0.500000000000078
40
0.500000000000078
40
0.562500000000069
40
0.562500000000069
40
0.62500000000006
40
0.62500000000006
40
0.640625000000057
40
0.640625000000057
40
0.656250000000055
40
0.68750000000005
40
0.68750000000005
40
0.75000000000004
40
0.75000000000004
40
0.81250000000003
40
0.81250000000003
40
0.87500000000002
40
0.87500000000002
40
0.93750000000001
40
0.93750000000001
40
1
40
1
40
1
40
1
41
1
10
12.3250828220257
20
4.17415503800163
30
0
41
1
10
12.4540834148874
20
4.17936151706962
30
0
41
1
10
12.5825266675096
20
4.18843183374887
30
0
41
1
10
12.8379839526273
20
4.21645703432424
30
0
41
1
10
12.9650010504331
20
4.23539176739692
30
0
41
1
10
13.1225846423482
20
4.2672390962706
30
0
41
1
10
13.1540414285631
20
4.27402111318492
30
0
41
1
10
13.2168251771683
20
4.28847747492023
30
0
41
1
10
13.2481420581842
20
4.29615139625997
30
0
41
1
10
13.3413071059585
20
4.32046244666145
30
0
41
1
10
13.4025549575074
20
4.33842767882817
30
0
41
1
10
13.5833914247118
20
4.39822488761806
30
0
41
1
10
13.7000995725597
20
4.44590985686156
30
0
41
1
10
13.8677108405789
20
4.53240373317834
30
0
41
1
10
13.9223334831004
20
4.56374033619704
30
0
41
1
10
13.9888190750074
20
4.60648544044449
30
0
41
1
10
14.0020263678071
20
4.61521352009928
30
0
41
1
10
14.0282546691703
20
4.63304031358547
30
0
41
1
10
14.0412976829895
20
4.64215531039835
30
0
41
1
10
14.0799005702407
20
4.66990340745451
30
0
41
1
10
14.1049726298463
20
4.68896195411776
30
0
41
1
10
14.2269880417544
20
4.78706104539833
30
0
41
1
10
14.3138861251021
20
4.8745351556118
30
0
41
1
10
14.3992748452196
20
4.98303518587903
30
0
41
1
10
14.4085908206031
20
4.99523067409899
30
0
41
1
10
14.4268786224574
20
5.01990102483265
30
0
41
1
10
14.4358597351831
20
5.03239016646518
30
0
41
1
10
14.4621306204228
20
5.07004771573671
30
0
41
1
10
14.5121259100808
20
5.14630802687816
30
0
41
1
10
14.5833747528862
20
5.27781415157543
30
0
41
1
10
14.6287120165343
20
5.38711649117442
30
0
41
1
10
14.6587356668011
20
5.47043313827356
30
0
41
1
10
14.6680983920772
20
5.49849296486926
30
0
41
1
10
14.6854394086063
20
5.55464259891374
30
0
41
1
10
14.6934231496623
20
5.58273499312949
30
0
41
1
10
14.7301789690779
20
5.72325206266248
30
0
41
1
10
14.7495644633383
20
5.83583014464227
30
0
41
1
10
14.773339098689
20
6.06069681602281
30
0
41
1
10
14.7776912035542
20
6.17298980287998
30
0
41
1
10
14.7756839514542
20
6.31293059812126
30
0
41
1
10
14.7749066595219
20
6.34086075241302
30
0
41
1
10
14.7726553113526
20
6.39642256553626
30
0
41
1
10
14.7682310048669
20
6.47940214402587
30
0
41
1
10
14.7608812231563
20
6.56133140861451
30
0
41
1
10
14.7427445096881
20
6.72387399612037
30
0
41
1
10
14.7260925452069
20
6.83048505002756
30
0
41
1
10
14.6854231620719
20
7.04053041088329
30
0
41
1
10
14.6613955924424
20
7.14396297067282
30
0
41
1
10
14.6071066604115
20
7.34786455786596
30
0
41
1
10
14.5768398495241
20
7.44833263829622
30
0
41
1
10
14.510836523565
20
7.64645146755916
30
0
41
1
10
14.4750534589404
20
7.74419612871785
30
0
41
1
10
14.3989340721088
20
7.93602302188813
30
0
41
1
10
14.3585663834477
20
8.03021176935493
30
0
41
1
10
14.3161024530476
20
8.12276628100696
30
0
0
SPLINE
5
10F
100
AcDbEntity
8
1
62
256
6
ByLayer
370
18
48
1
60
0
100
AcDbSpline
70
4
71
3
72
11
73
7
40
0
40
0
40
0
40
0
40
0.25
40
0.5
40
0.75
40
1
40
1
40
1
40
1
41
1
10
14.3161024530476
20
8.12276628100696
30
0
41
1
10
14.016696686201
20
8.30140434317326
30
0
41
1
10
13.4168440276031
20
8.64788002325844
30
0
41
1
10
12.5103711431268
20
9.13282275054826
30
0
41
1
10
11.5935735010932
20
9.58105539490435
30
0
41
1
10
10.9730583273037
20
9.85443530240349
30
0
41
1
10
10.6598683492203
20
9.98461311811573
30
0
0
SPLINE
5
110
100
AcDbEntity
8
1
62
256
6
ByLayer
370
18
48
1
60
0
100
AcDbSpline
70
4
71
3
72
44
73
40
40
0
40
0
40
0
40
0
40
0.124999999999998
40
0.124999999999998
40
0.249999999999996
40
0.249999999999996
40
0.374999999999994
40
0.374999999999994
40
0.406249999999994
40
0.406249999999994
40
0.437499999999993
40
0.437499999999993
40
0.499999999999992
40
0.499999999999992
40
0.562499999999991
40
0.562499999999991
40
0.62499999999999
40
0.62499999999999
40
0.687499999999989
40
0.687499999999989
40
0.71874999999999
40
0.71874999999999
40
0.734374999999991
40
0.734374999999991
40
0.749999999999991
40
0.749999999999991
40
0.812499999999995
40
0.812499999999995
40
0.843749999999995
40
0.843749999999995
40
0.859374999999996
40
0.859374999999996
40
0.874999999999996
40
0.874999999999996
40
0.937500000000001
40
0.937500000000001
40
0.968750000000001
40
0.968750000000001
40
1
40
1
40
1
40
1
41
1
10
10.6598683492203
20
9.98461311811573
30
0
41
1
10
10.5464898508805
20
10.031739036234
30
0
41
1
10
10.4359259221253
20
10.0801849807619
30
0
41
1
10
10.2214887627407
20
10.1800966901161
30
0
41
1
10
10.1176017936046
20
10.2315563156755
30
0
41
1
10
9.91822950420232
20
10.3381703460026
30
0
41
1
10
9.82270946025807
20
10.3933089662933
30
0
41
1
10
9.71045293606375
20
10.4653360488985
30
0
41
1
10
9.68835189166379
20
10.4799084738611
30
0
41
1
10
9.64519935888302
20
10.5092233864178
30
0
41
1
10
9.62411673323882
20
10.5239852250028
30
0
41
1
10
9.562466470613
20
10.5686088219209
30
0
41
1
10
9.52348740251799
20
10.5988064537825
30
0
41
1
10
9.45057351798647
20
10.6602755762586
30
0
41
1
10
9.41663233000679
20
10.6915454795731
30
0
41
1
10
9.35495057134671
20
10.7554226730654
30
0
41
1
10
9.32772970515595
20
10.7875036407754
30
0
41
1
10
9.2816631811605
20
10.851985960453
30
0
41
1
10
9.26280435548142
20
10.8843926050947
30
0
41
1
10
9.24195208453989
20
10.9333360206654
30
0
41
1
10
9.236244874189
20
10.9497064492661
30
0
41
1
10
9.22974631133496
20
10.974361271582
30
0
41
1
10
9.22792424703385
20
10.9825961137599
30
0
41
1
10
9.22500693747895
20
10.9991020073378
30
0
41
1
10
9.22391238727701
20
11.0073871252559
30
0
41
1
10
9.2203841822213
20
11.0484601847166
30
0
41
1
10
9.22369595626802
20
11.0805101700153
30
0
41
1
10
9.23825768819194
20
11.1273960168688
30
0
41
1
10
9.24471281493385
20
11.1428263475936
30
0
41
1
10
9.25686904575227
20
11.1656764374413
30
0
41
1
10
9.26134605825729
20
11.1732624854839
30
0
41
1
10
9.27107516981951
20
11.1882405251266
30
0
41
1
10
9.27631688518869
20
11.1956206957051
30
0
41
1
10
9.30435673306789
20
11.2319979324499
30
0
41
1
10
9.33263118377437
20
11.2594295470537
30
0
41
1
10
9.38298672872006
20
11.2983973547341
30
0
41
1
10
9.40109938797269
20
11.3110222744011
30
0
41
1
10
9.43987981660106
20
11.3355865001261
30
0
41
1
10
9.46041129254678
20
11.3474393264943
30
0
41
1
10
9.48197846446845
20
11.3588887596264
30
0
0
SPLINE
5
111
100
AcDbEntity
8
1
62
256
6
ByLayer
370
18
48
1
60
0
100
AcDbSpline
70
4
71
3
72
50
73
46
40
0
40
0
40
0
40
0
40
0.0312500000000014
40
0.0312500000000014
40
0.0625000000000027
40
0.0625000000000027
40
0.0937500000000041
40
0.0937500000000041
40
0.125000000000005
40
0.125000000000005
40
0.156250000000007
40
0.156250000000007
40
0.187500000000008
40
0.187500000000008
40
0.250000000000011
40
0.250000000000011
40
0.281250000000012
40
0.281250000000012
40
0.312500000000014
40
0.312500000000014
40
0.375000000000013
40
0.375000000000013
40
0.437500000000012
40
0.437500000000012
40
0.468750000000012
40
0.468750000000012
40
0.500000000000012
40
0.500000000000012
40
0.562500000000011
40
0.562500000000011
40
0.625000000000011
40
0.625000000000011
40
0.65625000000001
40
0.65625000000001
40
0.68750000000001
40
0.68750000000001
40
0.750000000000009
40
0.750000000000009
40
0.812500000000009
40
0.812500000000009
40
0.843750000000009
40
0.843750000000009
40
0.875000000000008
40
0.875000000000008
40
1
40
1
40
1
40
1
41
1
10
9.48197846446843
20
11.3588887596264
30
0
41
1
10
9.55897388905927
20
11.3997635654902
30
0
41
1
10
9.64037543478327
20
11.4373604038384
30
0
41
1
10
9.8103622214725
20
11.5074015425346
30
0
41
1
10
9.89895571721087
20
11.5398387350095
30
0
41
1
10
10.082212416371
20
11.6005253286107
30
0
41
1
10
10.176880118685
20
11.6287708632376
30
0
41
1
10
10.3714758064857
20
11.6817809392196
30
0
41
1
10
10.4714064275335
20
11.7065432187652
30
0
41
1
10
10.6759221886872
20
11.753122273114
30
0
41
1
10
10.7805107281514
20
11.7749379879272
30
0
41
1
10
10.993871963818
20
11.8160392086215
30
0
41
1
10
11.1019124014497
20
11.8351848161217
30
0
41
1
10
11.4296248737132
20
11.8890824835247
30
0
41
1
10
11.6528633451732
20
11.9203281100563
30
0
41
1
10
11.9935506900667
20
11.9620199769777
30
0
41
1
10
12.1080919324165
20
11.9750449550639
30
0
41
1
10
12.3389807653252
20
11.9995691829301
30
0
41
1
10
12.4550693931259
20
12.0110403110326
30
0
41
1
10
12.8047486733008
20
12.0433505487064
30
0
41
1
10
13.0399103347902
20
12.0621182533103
30
0
41
1
10
13.513800859768
20
12.0953185053693
30
0
41
1
10
13.7525324939654
20
12.1097450626817
30
0
41
1
10
14.1130606484508
20
12.1287361863147
30
0
41
1
10
14.2336430003016
20
12.1346226005557
30
0
41
1
10
14.4755909382306
20
12.1455838028317
30
0
41
1
10
14.5968950272808
20
12.1506552779912
30
0
41
1
10
14.9611013193972
20
12.1647187283235
30
0
41
1
10
15.2045556713231
20
12.1725771488648
30
0
41
1
10
15.6926884415886
20
12.1856823723006
30
0
41
1
10
15.9373671708435
20
12.1909278014828
30
0
41
1
10
16.3052697228973
20
12.1970339343661
30
0
41
1
10
16.4280515277802
20
12.1987745429048
30
0
41
1
10
16.6739069736016
20
12.201687202343
30
0
41
1
10
16.7969852887038
20
12.2028589741408
30
0
41
1
10
17.1660375324144
20
12.205539292535
30
0
41
1
10
17.4120352898892
20
12.2062188548432
30
0
41
1
10
17.9039579676203
20
12.205424773021
30
0
41
1
10
18.1498828802688
20
12.203950826324
30
0
41
1
10
18.5187158554786
20
12.200095856011
30
0
41
1
10
18.6416956609155
20
12.1985353626563
30
0
41
1
10
18.887356280509
20
12.1948557800631
30
0
41
1
10
19.0100432656309
20
12.1927368701295
30
0
41
1
10
19.6227631302153
20
12.1807079085948
30
0
41
1
10
20.110655568897
20
12.1665476233258
30
0
41
1
10
20.5962414945401
20
12.1469250042121
30
0
0
SPLINE
5
112
100
AcDbEntity
8
1
62
256
6
ByLayer
370
18
48
1
60
0
100
AcDbSpline
70
4
71
3
72
8
73
4
40
0
40
0
40
0
40
0
40
1
40
1
40
1
40
1
41
1
10
96.9999323522819
20
-6.83425907126207
30
0
41
1
10
96.9515620691787
20
-7.07043999119009
30
0
41
1
10
96.9032071583758
20
-7.30522819735239
30
0
41
1
10
96.854871244612
20
-7.53860880991732
30
0
0
SPLINE
5
113
100
AcDbEntity
8
1
62
256
6
ByLayer
370
18
48
1
60
0
100
AcDbSpline
70
4
71
3
72
8
73
4
40
0
40
0
40
0
40
0
40
1
40
1
40
1
40
1
41
1
10
96.9999323476197
20
-6.39183339285191
30
0
41
1
10
96.9506579676723
20
-6.10963762015376
30
0
41
1
10
96.9014011627034
20
-5.82635036224289
30
0
41
1
10
96.8521669549602
20
-5.54200277819385
30
0
0
SPLINE
5
114
100
AcDbEntity
8
1
62
256
6
ByLayer
370
13
48
1
60
0
100
AcDbSpline
70
4
71
3
72
16
73
12
40
0
40
0
40
0
40
0
40
0.037778117271537
40
0.144691659796922
40
0.251605202322306
40
0.358518744847691
40
0.465432287373076
40
0.572345829898461
40
0.679259372423846
40
0.78617291494923
40
1
40
1
40
1
40
1
41
1
10
43.9219188199991
20
2.1696528125519
30
0
41
1
10
43.6458625466661
20
2.33368570162216
30
0
41
0.999999999999999
10
42.5885562733331
20
2.95937453796165
30
0
41
1
10
40.75
20
4.02636910174021
30
0
41
1
10
38.40625
20
5.32576573255281
30
0
41
1
10
36.0625
20
6.54682455388374
30
0
41
1
10
33.7187499999999
20
7.67205631340047
30
0
41
1
10
31.3750000000001
20
8.683880434222
30
0
41
1
10
29.0312500000001
20
9.56451177258041
30
0
41
1
10
25.9062500000001
20
10.5508235422864
30
0
41
1
10
23.5625
20
11.0646170778621
30
0
41
1
10
22
20
11.2934433384787
30
0
0
SPLINE
5
115
100
AcDbEntity
8
1
62
256
6
ByLayer
370
13
48
1
60
0
100
AcDbSpline
70
4
71
3
72
53
73
49
40
0
40
0
40
0
40
0
40
0.0506737556249606
40
0.175524092233564
40
0.300374428842167
40
0.39401218129862
40
0.456437349602922
40
0.487649933755072
40
0.511059371869186
40
0.534468809983299
40
0.550075102059374
40
0.561779821116431
40
0.567632180644959
40
0.571533753663978
40
0.573484540173487
40
0.575435326682997
40
0.576898416565129
40
0.578361506447261
40
0.579336899702016
40
0.580068444643082
40
0.580678065427303
40
0.580982875819414
40
0.581165762054681
40
0.581409610368369
40
0.581775382838902
40
0.582506927779968
40
0.583238472721034
40
0.584213865975789
40
0.586164652485299
40
0.589090832249563
40
0.592992405268582
40
0.59884476479711
40
0.604697124325638
40
0.610549483854166
40
0.616401843382695
40
0.622254202911223
40
0.628106562439751
40
0.635909708477789
40
0.651516000553864
40
0.674925438667978
40
0.706138022820128
40
0.737350606972279
40
0.76856319112443
40
0.815382067352656
40
0.862200943580883
40
0.924626111885184
40
0.987051280189486
40
1
40
1
40
1
40
1
41
1
10
84.8400437651535
20
2.16982883322055
30
0
41
1
10
84.2058625101023
20
2.60686387228617
30
0
41
1
10
82.0091812550512
20
4.10459008651935
30
0
41
1
10
78.25
20
6.51414916432694
30
0
41
1
10
73.953125
20
8.78378480543622
30
0
41
0.999999999999999
10
70.4375000000001
20
10.1844379767979
30
0
41
1
10
68.0937499999999
20
10.8567856619457
30
0
41
1
10
66.6289062500001
20
11.1734251551914
30
0
41
1
10
65.65234375
20
11.3440441139864
30
0
41
1
10
64.8710937500001
20
11.4525471502342
30
0
41
1
10
64.2363281249999
20
11.5216165775393
30
0
41
0.999999999999996
10
63.8212890625004
20
11.557995714307
30
0
41
1
10
63.5527343749999
20
11.5778682818864
30
0
41
0.999999999999999
10
63.40625
20
11.5875945294509
30
0
41
1
10
63.3085937500001
20
11.5936327817326
30
0
41
1
10
63.2414550781251
20
11.5975795702952
30
0
41
1
10
63.180419921875
20
11.6010047753591
30
0
41
0.999999999999999
10
63.131591796875
20
11.6036332609599
30
0
41
1
10
63.0919189453125
20
11.6056932527331
30
0
41
1
10
63.0629272460938
20
11.6071599193363
30
0
41
0.999999999999999
10
63.0423278808595
20
11.6081804074581
30
0
41
1
10
63.0285949707031
20
11.6088509049021
30
0
41
0.999999999999999
10
63.0194396972657
20
11.6092944084497
30
0
41
1
10
63.009521484375
20
11.6097715576916
30
0
41
1
10
62.9927368164062
20
11.6105710310736
30
0
41
1
10
62.9698486328125
20
11.6116415588359
30
0
41
1
10
62.9393310546875
20
11.6130339637324
30
0
41
1
10
62.8935546875
20
11.6150613664154
30
0
41
0.999999999999999
10
62.8203125000001
20
11.6181372797148
30
0
41
1
10
62.71044921875
20
11.6223310449033
30
0
41
0.999999999999999
10
62.5517578125001
20
11.6275383164484
30
0
41
1
10
62.3564453125
20
11.6324500881635
30
0
41
0.999999999999999
10
62.1367187500001
20
11.6359505885486
30
0
41
1
10
61.9169921875001
20
11.6374217581555
30
0
41
1
10
61.6972656249999
20
11.6368594794924
30
0
41
1
10
61.4775390625
20
11.6342596016611
30
0
41
1
10
61.2333984375
20
11.6291022055768
30
0
41
1
10
60.8671875
20
11.6173877992225
30
0
41
1
10
60.2812500000001
20
11.5877026593932
30
0
41
1
10
59.40234375
20
11.5156671976514
30
0
41
1
10
58.328125
20
11.3801563183563
30
0
41
1
10
57.1562500000001
20
11.1749533499316
30
0
41
1
10
55.7890625000001
20
10.8707011090954
30
0
41
1
10
54.2265625
20
10.4332861034123
30
0
41
1
10
52.2734375
20
9.75847037084447
30
0
41
1
10
50.125
20
8.85999394705723
30
0
41
1
10
48.4004469751262
20
8.00534819299495
30
0
41
1
10
47.4571439502524
20
7.5006996935222
30
0
41
1
10
47.2950909253787
20
7.4129488884181
30
0
0
SPLINE
5
116
100
AcDbEntity
8
1
62
256
6
ByLayer
370
18
48
1
60
0
100
AcDbSpline
70
4
71
3
72
37
73
33
40
0
40
0
40
0
40
0
40
0.0318110237076868
40
0.0844877643323242
40
0.137164504956962
40
0.189841245581599
40
0.216179615893918
40
0.242517986206236
40
0.268856356518555
40
0.295194726830874
40
0.321533097143192
40
0.347871467455511
40
0.400548208080148
40
0.426886578392467
40
0.453224948704786
40
0.505901689329423
40
0.532240059641742
40
0.55857842995406
40
0.611255170578698
40
0.637593540891016
40
0.663931911203335
40
0.716608651827972
40
0.742947022140291
40
0.76928539245261
40
0.821962133077247
40
0.848300503389566
40
0.874638873701884
40
0.900977244014203
40
0.927315614326522
40
0.95365398463884
40
0.979992354951159
40
1
40
1
40
1
40
1
41
1
10
19.2149454556422
20
-3.29175731978228
30
0
41
1
10
19.5097747739773
20
-3.489398291649
30
0
41
1
10
20.2923535117532
20
-4.0104309108614
30
0
41
1
10
21.561455541843
20
-4.83719401591665
30
0
41
1
10
23.0229353275948
20
-5.7569558632396
30
0
41
1
10
24.2414157533949
20
-6.49155885432072
30
0
41
1
10
25.2172684431662
20
-7.05764493960018
30
0
41
1
10
25.9498169414469
20
-7.47068478547348
30
0
41
1
10
26.6829789537324
20
-7.87141579375788
30
0
41
1
10
27.4167637963531
20
-8.25931033013049
30
0
41
1
10
28.1511457997726
20
-8.63358259857102
30
0
41
1
10
29.1310895730277
20
-9.11342036158354
30
0
41
1
10
30.1121498676911
20
-9.56319977171299
30
0
41
1
10
31.0942987628066
20
-9.9807070858873
30
0
41
1
10
32.0771302101231
20
-10.3757271275678
30
0
41
1
10
33.0609549511749
20
-10.7360285009989
30
0
41
1
10
34.0457478203263
20
-11.0598051954185
30
0
41
1
10
35.0310820578124
20
-11.3583205881102
30
0
41
1
10
36.0170077770491
20
-11.6183305534001
30
0
41
1
10
37.0031297866897
20
-11.8385047451728
30
0
41
1
10
37.9892246167739
20
-12.0313431994219
30
0
41
1
10
38.9750572928062
20
-12.1830475321423
30
0
41
1
10
39.9601814456517
20
-12.2929672887604
30
0
41
1
10
40.9447983532743
20
-12.3746025469975
30
0
41
1
10
41.92867170066
20
-12.4139775168793
30
0
41
1
10
42.9118382700051
20
-12.4110228279785
30
0
41
1
10
43.6488658467562
20
-12.3875304006824
30
0
41
1
10
44.385541505717
20
-12.3430088689177
30
0
41
1
10
45.1218772057309
20
-12.2775775365323
30
0
41
1
10
45.8578776730217
20
-12.1912574118847
30
0
41
1
10
46.5346068356311
20
-12.0928226130682
30
0
41
1
10
46.9659388896505
20
-12.0194836251817
30
0
41
1
10
47.1521138469375
20
-11.9858796446508
30
0
0
SPLINE
5
117
100
AcDbEntity
8
1
62
256
6
ByLayer
370
18
48
1
60
0
100
AcDbSpline
70
4
71
3
72
10
73
6
40
0
40
0
40
0
40
0
40
0.5
40
0.5
40
1
40
1
40
1
40
1
41
1
10
22.0000000000001
20
-2.86770953581365
30
0
41
1
10
21.6724002635176
20
-2.68486036225716
30
0
41
1
10
21.346180736284
20
-2.49905568460105
30
0
41
1
10
20.696760606214
20
-2.12098177078786
30
0
41
1
10
20.3735632531199
20
-1.92870557581193
30
0
41
1
10
20.0520527864076
20
-1.7328171752076
30
0
0
SPLINE
5
118
100
AcDbEntity
8
1
62
256
6
ByLayer
370
18
48
1
60
0
100
AcDbSpline
70
4
71
3
72
33
73
29
40
0
40
0
40
0
40
0
40
0.0383401833716787
40
0.0766880467127622
40
0.11504386227868
40
0.153407899053746
40
0.191780422753123
40
0.230161695825467
40
0.268551977456292
40
0.306951523571967
40
0.345360586844348
40
0.383779416696149
40
0.422208259306838
40
0.460647357619229
40
0.499096951346698
40
0.537557276980944
40
0.576028567800412
40
0.614511053879277
40
0.653004962097003
40
0.691510516148449
40
0.730027936554579
40
0.768557440673682
40
0.807099242713127
40
0.845653553741649
40
0.884220581702157
40
0.922800531425028
40
0.961393604641902
40
1
40
1
40
1
40
1
41
1
10
20.0519906237746
20
-1.73292694699995
30
0
41
1
10
20.0408490197775
20
-1.75262537951207
30
0
41
1
10
20.0185635799948
20
-1.7920261903536
30
0
41
1
10
19.985263142035
20
-1.85121214596018
30
0
41
1
10
19.9520520569259
20
-1.91046641761449
30
0
41
1
10
19.9189397193559
20
-1.969793968294
30
0
41
1
10
19.88592359837
20
-2.02919249088635
30
0
41
1
10
19.8530043601407
20
-2.08866163744193
30
0
41
1
10
19.8201818145324
20
-2.14820054538552
30
0
41
1
10
19.7874560015651
20
-2.20780850055522
30
0
41
1
10
19.7548269001904
20
-2.2674847594522
30
0
41
1
10
19.7222945063432
20
-2.32722859685606
30
0
41
1
10
19.6898588120116
20
-2.38703929303256
30
0
41
1
10
19.6575198108395
20
-2.4469161371332
30
0
41
1
10
19.6252774966145
20
-2.50685842625396
30
0
41
1
10
19.5931318636721
20
-2.56686546566033
30
0
41
1
10
19.5610829067516
20
-2.62693656868817
30
0
41
1
10
19.5291306211303
20
-2.68707105677464
30
0
41
1
10
19.4972750021924
20
-2.74726825929349
30
0
41
1
10
19.4655160469791
20
-2.80752751404108
30
0
41
1
10
19.4338537483824
20
-2.86784816531477
30
0
41
1
10
19.4022881167871
20
-2.92822957097405
30
0
41
1
10
19.3708190992408
20
-2.98867107596365
30
0
41
1
10
19.3394468812246
20
-3.04917211106073
30
0
41
1
10
19.3081707598551
20
-3.10973182405291
30
0
41
1
10
19.2769933512079
20
-3.17035045676943
30
0
41
1
10
19.2459048804257
20
-3.23102420322547
30
0
41
1
10
19.2252664510795
20
-3.27151061871311
30
0
41
1
10
19.2149454556424
20
-3.29175731978242
30
0
0
SPLINE
5
119
100
AcDbEntity
8
1
62
256
6
ByLayer
370
13
48
1
60
0
100
AcDbSpline
70
4
71
3
72
18
73
14
40
0
40
0
40
0
40
0
40
0.044232111434577
40
0.163703097505255
40
0.283174083575933
40
0.362821407623051
40
0.44246873167017
40
0.522116055717288
40
0.601763379764407
40
0.681410703811526
40
0.761058027858644
40
0.840705351905763
40
1
40
1
40
1
40
1
41
1
10
51.426600680438
20
-10.8319986773662
30
0
41
1
10
50.9927337869587
20
-10.9067810657602
30
0
41
1
10
49.3869918934794
20
-11.1480814594202
30
0
41
1
10
46.6093750000001
20
-11.3331821159588
30
0
41
1
10
43.4843750000001
20
-11.152130721516
30
0
41
1
10
40.7500000000001
20
-10.7144985191553
30
0
41
1
10
38.4062500000001
20
-10.1558584806408
30
0
41
1
10
36.0625000000001
20
-9.42203488270007
30
0
41
1
10
33.7187500000001
20
-8.52477763034236
30
0
41
1
10
31.3750000000001
20
-7.48264524894586
30
0
41
1
10
29.0312500000001
20
-6.31204236004999
30
0
41
1
10
25.9062500000001
20
-4.60414243752098
30
0
41
1
10
23.5625000000001
20
-3.19220126631279
30
0
41
1
10
22.0000000000001
20
-2.22664805268477
30
0
0
SPLINE
5
11A
100
AcDbEntity
8
1
62
256
6
ByLayer
370
18
48
1
60
0
100
AcDbSpline
70
4
71
3
72
79
73
75
40
0
40
0
40
0
40
0
40
0.0240501842496349
40
0.0240501842496349
40
0.0589055348121468
40
0.0589055348121468
40
0.0937608853746587
40
0.0937608853746587
40
0.128616235937171
40
0.128616235937171
40
0.146043911218427
40
0.154757748859056
40
0.154757748859056
40
0.163471586499684
40
0.163471586499684
40
0.198326937062198
40
0.198326937062198
40
0.233182287624712
40
0.233182287624712
40
0.268037638187225
40
0.268037638187225
40
0.302892988749739
40
0.302892988749739
40
0.337748339312253
40
0.337748339312253
40
0.372603689874766
40
0.372603689874766
40
0.40745904043728
40
0.40745904043728
40
0.442314390999793
40
0.442314390999793
40
0.459742066281051
40
0.459742066281051
40
0.477169741562308
40
0.477169741562308
40
0.485883579202936
40
0.485883579202936
40
0.494597416843565
40
0.494597416843565
40
0.512025092124821
40
0.512025092124821
40
0.546880442687334
40
0.546880442687334
40
0.581735793249847
40
0.581735793249847
40
0.61659114381236
40
0.61659114381236
40
0.634018819093616
40
0.634018819093616
40
0.651446494374873
40
0.651446494374873
40
0.686301844937386
40
0.686301844937386
40
0.721157195499899
40
0.721157195499899
40
0.756012546062412
40
0.756012546062412
40
0.790867896624924
40
0.790867896624924
40
0.808295571906181
40
0.808295571906181
40
0.817009409546809
40
0.817009409546809
40
0.825723247187437
40
0.825723247187437
40
0.860578597749949
40
0.860578597749949
40
0.895433948312462
40
0.895433948312462
40
0.930289298874975
40
0.930289298874975
40
0.965144649437487
40
0.965144649437487
40
1
40
1
40
1
40
1
41
1
10
55.0466756581247
20
-10.4266119362456
30
0
41
1
10
54.7833060428575
20
-10.5149711378251
30
0
41
1
10
54.5199331455841
20
-10.5999238411131
30
0
41
1
10
53.8746912679688
20
-10.799439999344
30
0
41
1
10
53.4927430931812
20
-10.9101056574532
30
0
41
1
10
52.7279029017076
20
-11.1167279124861
30
0
41
1
10
52.3450248036404
20
-11.2126825264322
30
0
41
1
10
51.5779681543204
20
-11.3891520976769
30
0
41
1
10
51.1937941462165
20
-11.4696273450577
30
0
41
1
10
50.6161344699913
20
-11.578547013308
30
0
41
1
10
50.3269556297869
20
-11.6300568203158
30
0
41
1
10
50.037177461581
20
-11.6770920422776
30
0
41
1
10
49.8438506698355
20
-11.7074486801656
30
0
41
1
10
49.7470906564478
20
-11.7221306875267
30
0
41
1
10
49.2632021397175
20
-11.7929821301692
30
0
41
1
10
48.8772415641978
20
-11.8412869662489
30
0
41
1
10
48.1072821115392
20
-11.9208129010643
30
0
41
1
10
47.7232657521023
20
-11.9520571437102
30
0
41
1
10
46.9563750289823
20
-11.9982920777566
30
0
41
1
10
46.5735414338972
20
-12.0131781352554
30
0
41
1
10
45.8087203561879
20
-12.0262380677313
30
0
41
1
10
45.4267353618895
20
-12.0244207077935
30
0
41
1
10
44.6631262418264
20
-12.0042809236569
30
0
41
1
10
44.2814893356829
20
-11.9860010993012
30
0
41
1
10
43.5180628305453
20
-11.9332098865153
30
0
41
1
10
43.1362837762189
20
-11.8986779045367
30
0
41
1
10
42.3722191823607
20
-11.81285882085
30
0
41
1
10
41.9898991267267
20
-11.7616866672707
30
0
41
1
10
41.2240461479342
20
-11.6432447120813
30
0
41
1
10
40.8405193953212
20
-11.5759348861353
30
0
41
1
10
40.2639353587425
20
-11.4627531652644
30
0
41
1
10
40.0715298826958
20
-11.4229780405936
30
0
41
1
10
39.6862526441914
20
-11.3392559264791
30
0
41
1
10
39.4933786382528
20
-11.2953204428632
30
0
41
1
10
39.203658198585
20
-11.2264097726259
30
0
41
1
10
39.1070163520562
20
-11.20293987296
30
0
41
1
10
38.9135892295176
20
-11.155000462103
30
0
41
1
10
38.8167556248966
20
-11.1305177072231
30
0
41
1
10
38.5264842249523
20
-11.0556790503313
30
0
41
1
10
38.3332540676016
20
-11.003929741147
30
0
41
1
10
37.7543493102613
20
-10.8431527141499
30
0
41
1
10
37.3694498362344
20
-10.7286291268456
30
0
41
1
10
36.6014361926871
20
-10.4847770127919
30
0
41
1
10
36.2182902111121
20
-10.3555219852379
30
0
41
1
10
35.4529093497596
20
-10.0837486944193
30
0
41
1
10
35.0707166058985
20
-9.94111000370845
30
0
41
1
10
34.4978355776835
20
-9.7171771082044
30
0
41
1
10
34.3069434980681
20
-9.64086861315678
30
0
41
1
10
33.9252424857457
20
-9.48492369614905
30
0
41
1
10
33.734435484476
20
-9.40527717698163
30
0
41
1
10
33.161982523211
20
-9.16162836543975
30
0
41
1
10
32.7802861795018
20
-8.9930118725496
30
0
41
1
10
32.0164043884125
20
-8.64366819139991
30
0
41
1
10
31.6342272484066
20
-8.46290966166728
30
0
41
1
10
30.8690197858118
20
-8.08930752259522
30
0
41
1
10
30.4859944476193
20
-7.89642571357618
30
0
41
1
10
29.7185064363905
20
-7.49960734631736
30
0
41
1
10
29.3340634697314
20
-7.29559477136732
30
0
41
1
10
28.7560382334616
20
-6.98118275126063
30
0
41
1
10
28.5631357791885
20
-6.87497852726378
30
0
41
1
10
28.273391518075
20
-6.71359742876552
30
0
41
1
10
28.176745030974
20
-6.65945750232279
30
0
41
1
10
27.9833129458805
20
-6.55049216246832
30
0
41
1
10
27.8865131163291
20
-6.49565989223225
30
0
41
1
10
27.4028976492369
20
-6.22028632010912
30
0
41
1
10
27.0166044716665
20
-5.99585757078751
30
0
41
1
10
26.2446678763088
20
-5.53953151914726
30
0
41
1
10
25.8590528688184
20
-5.30756639103291
30
0
41
1
10
25.0881142752894
20
-4.83645251526647
30
0
41
1
10
24.7027913693923
20
-4.59729373924216
30
0
41
1
10
23.931748226999
20
-4.11293639115044
30
0
41
1
10
23.5460404790385
20
-3.86770897138925
30
0
41
1
10
22.7737872744187
20
-3.37168940498293
30
0
41
1
10
22.3872445594485
20
-3.12088348354635
30
0
41
1
10
22.0000000000001
20
-2.86770953581365
30
0
0
SPLINE
5
11B
100
AcDbEntity
8
1
62
256
6
ByLayer
370
18
48
1
60
0
100
AcDbSpline
70
4
71
3
72
8
73
4
40
0
40
0
40
0
40
0
40
1
40
1
40
1
40
1
41
1
10
95.4127891705153
20
-1.69213419374702
30
0
41
1
10
95.4942804680006
20
-1.95166856616206
30
0
41
1
10
95.5781465656999
20
-2.21462858681377
30
0
41
1
10
95.6645634099264
20
-2.48126805532729
30
0
0
SPLINE
5
11C
100
AcDbEntity
8
1
62
256
6
ByLayer
370
18
48
1
60
0
100
AcDbSpline
70
4
71
3
72
12
73
8
40
0
40
0
40
0
40
0
40
0.252832419051351
40
0.443968132362594
40
0.730671702329459
40
0.921807415640702
40
1
40
1
40
1
40
1
41
1
10
95.4127891709028
20
-1.692134193193
30
0
41
1
10
94.3793594472686
20
-0.998573961626903
30
0
41
1
10
92.5646797236344
20
0.236571342080481
30
0
41
1
10
89.5781250000001
20
2.25753560402023
30
0
41
1
10
86.8437500000002
20
4.04958671292889
30
0
41
1
10
84.5710198593783
20
5.43586585332648
30
0
41
1
10
83.4701647187565
20
6.06929898855137
30
0
41
1
10
83.1505595781346
20
6.24971648149781
30
0
0
SPLINE
5
11D
100
AcDbEntity
8
1
62
256
6
ByLayer
370
18
48
1
60
0
100
AcDbSpline
70
4
71
3
72
36
73
32
40
0
40
0
40
0
40
0
40
0.0043306819392975
40
0.0270534773903924
40
0.0497762728414869
40
0.0952218637436766
40
0.117944659194771
40
0.140667454645866
40
0.186113045548055
40
0.20883584099915
40
0.231558636450245
40
0.254281431901339
40
0.277004227352434
40
0.299727022803529
40
0.322449818254624
40
0.367895409156813
40
0.390618204607908
40
0.413341000059002
40
0.458786590961192
40
0.549677772765571
40
0.59512336366776
40
0.64056895456995
40
0.686014545472139
40
0.731460136374329
40
0.776905727276518
40
0.822351318178707
40
0.845074113629802
40
0.867796909080897
40
0.913242499983086
40
0.958688090885276
40
1
40
1
40
1
40
1
41
1
10
64.0000011088259
20
12.3940091293125
30
0
41
1
10
64.0464800130016
20
12.3921551303505
30
0
41
1
10
64.3368437804123
20
12.3796612816916
30
0
41
1
10
64.8712434645379
20
12.3461972315869
30
0
41
1
10
65.8475645312771
20
12.2532762698358
30
0
41
1
10
66.8246488517643
20
12.1119899748449
30
0
41
1
10
67.8022778143315
20
11.923590581993
30
0
41
1
10
68.7802121638811
20
11.7043536143777
30
0
41
1
10
69.7585131738638
20
11.4386301290101
30
0
41
1
10
70.7369735700537
20
11.1285317387652
30
0
41
1
10
71.4708598687903
20
10.8743231358253
30
0
41
1
10
72.2047272254336
20
10.598654140234
30
0
41
1
10
72.9385114705439
20
10.3022064678963
30
0
41
1
10
73.6721301309493
20
9.9857737243031
30
0
41
1
10
74.6499885036039
20
9.53814523930978
30
0
41
1
10
75.6272880131601
20
9.05276056622876
30
0
41
1
10
76.6037553417077
20
8.5331909636447
30
0
41
1
10
77.5795441131
20
7.99197113853762
30
0
41
1
10
79.285958843185
20
6.98971783182807
30
0
41
1
10
81.2373539212418
20
5.73042023783336
30
0
41
1
10
83.1981304245092
20
4.38075000920375
30
0
41
1
10
84.6752328408846
20
3.32905878383917
30
0
41
1
10
86.1610688414044
20
2.24461139956318
30
0
41
1
10
87.6576277612373
20
1.13412261800482
30
0
41
1
10
89.1673692659093
20
0.0046089518840517
30
0
41
1
10
90.4381387131266
20
-0.946246479919694
30
0
41
1
10
91.4637178583047
20
-1.70869446051904
30
0
41
1
10
92.4954440244084
20
-2.47098948996305
30
0
41
1
10
93.7975668200676
20
-3.42054588797814
30
0
41
1
10
95.3351264508457
20
-4.51131725092529
30
0
41
1
10
96.3600899322497
20
-5.21256640057652
30
0
41
1
10
96.8521669484855
20
-5.54200278107001
30
0
0
SPLINE
5
11E
100
AcDbEntity
8
1
62
256
6
ByLayer
370
18
48
1
60
0
100
AcDbSpline
70
4
71
3
72
8
73
4
40
0
40
0
40
0
40
0
40
1
40
1
40
1
40
1
41
1
10
96.8521669506208
20
-5.54200277898471
30
0
41
1
10
96.8132606465686
20
-5.29592867355976
30
0
41
1
10
96.7744234448544
20
-5.04949507246164
30
0
41
1
10
96.7356549499671
20
-4.80270398951634
30
0
0
SPLINE
5
11F
100
AcDbEntity
8
1
62
256
6
ByLayer
370
18
48
1
60
0
100
AcDbSpline
70
4
71
3
72
8
73
4
40
0
40
0
40
0
40
0
40
1
40
1
40
1
40
1
41
1
10
96.7356549499669
20
-4.80270398951634
30
0
41
1
10
96.4517428855182
20
-4.19639339886169
30
0
41
1
10
96.1708676872054
20
-3.58273183590327
30
0
41
1
10
95.8929879174676
20
-2.96181960350248
30
0
0
SPLINE
5
120
100
AcDbEntity
8
1
62
256
6
ByLayer
370
18
48
1
60
0
100
AcDbSpline
70
4
71
3
72
8
73
4
40
0
40
0
40
0
40
0
40
1
40
1
40
1
40
1
41
1
10
95.8929879174674
20
-2.96181960350253
30
0
41
1
10
95.8167572593095
20
-2.8020897175831
30
0
41
1
10
95.7406157252482
20
-2.64190602882619
30
0
41
1
10
95.6645634099261
20
-2.48126805532934
30
0
0
SPLINE
5
121
100
AcDbEntity
8
1
62
256
6
ByLayer
370
18
48
1
60
0
100
AcDbSpline
70
4
71
3
72
63
73
59
40
0
40
0
40
0
40
0
40
0.0816493173763693
40
0.0816493173763693
40
0.102061646720461
40
0.112267811392507
40
0.112267811392507
40
0.122473976064554
40
0.122473976064554
40
0.163298634752737
40
0.163298634752737
40
0.244947952129102
40
0.244947952129102
40
0.285772610817285
40
0.285772610817285
40
0.326597269505468
40
0.326597269505468
40
0.408246586881831
40
0.408246586881831
40
0.449071245570014
40
0.449071245570014
40
0.469483574914104
40
0.469483574914104
40
0.489895904258194
40
0.489895904258194
40
0.57154522163456
40
0.57154522163456
40
0.653194539010925
40
0.653194539010925
40
0.673606868355017
40
0.673606868355017
40
0.694019197699109
40
0.694019197699109
40
0.734843856387291
40
0.734843856387291
40
0.755256185731382
40
0.755256185731382
40
0.775668515075473
40
0.775668515075473
40
0.796080844419564
40
0.796080844419564
40
0.806287009091609
40
0.806287009091609
40
0.816493173763654
40
0.816493173763654
40
0.857317832451834
40
0.857317832451834
40
0.877730161795924
40
0.877730161795924
40
0.898142491140014
40
0.898142491140014
40
0.938967149828194
40
0.938967149828194
40
0.959379479172284
40
0.959379479172284
40
0.979791808516374
40
0.979791808516374
40
1
40
1
40
1
40
1
41
1
10
95.6645634099124
20
-2.48126805532439
30
0
41
1
10
94.8925861681693
20
-1.93374459154876
30
0
41
1
10
94.1217874448625
20
-1.37894644070536
30
0
41
1
10
93.156505916499
20
-0.680864644001105
30
0
41
1
10
92.866788041977
20
-0.47109463734904
30
0
41
1
10
92.5767783253829
20
-0.260929782817953
30
0
41
1
10
92.3833632629949
20
-0.120746052026533
30
0
41
1
10
92.2865831044289
20
-0.0505919715914729
30
0
41
1
10
91.8028931146529
20
0.300021246087511
30
0
41
1
10
91.4172634570916
20
0.579549025747951
30
0
41
1
10
90.2633221195202
20
1.4139370711712
30
0
41
1
10
89.4978312162623
20
1.96450272975616
30
0
41
1
10
88.3517830229634
20
2.77702872943348
30
0
41
1
10
87.9701236242605
20
3.04564770111563
30
0
41
1
10
87.2068476022058
20
3.57759277601602
30
0
41
1
10
86.8252344164659
20
3.84092173550039
30
0
41
1
10
85.6795627421333
20
4.62171067575994
30
0
41
1
10
84.9147038550323
20
5.1300061818128
30
0
41
1
10
83.7617879336147
20
5.86866688941552
30
0
41
1
10
83.3765454751283
20
6.11091596378606
30
0
41
1
10
82.7968374343786
20
6.46768042094476
30
0
41
1
10
82.6031279354966
20
6.58559622875137
30
0
41
1
10
82.2166782630194
20
6.81811434411418
30
0
41
1
10
82.0237676360726
20
6.93282375344396
30
0
41
1
10
81.0605512176994
20
7.49849862988171
30
0
41
1
10
80.2942459070678
20
7.92591427513378
30
0
41
1
10
78.7653051306483
20
8.72594903648482
30
0
41
1
10
78.0026269736303
20
9.09852967593022
30
0
41
1
10
77.0484306071559
20
9.5265690916751
30
0
41
1
10
76.8575459578799
20
9.61029919590703
30
0
41
1
10
76.475561511208
20
9.77403020697636
30
0
41
1
10
76.2844597871164
20
9.85403772912304
30
0
41
1
10
75.7107316771614
20
10.0883402592622
30
0
41
1
10
75.3276760190904
20
10.2369156684952
30
0
41
1
10
74.7519511344678
20
10.4476833223285
30
0
41
1
10
74.5598524717741
20
10.5159209779002
30
0
41
1
10
74.1752171393825
20
10.6482259028838
30
0
41
1
10
73.9826781355843
20
10.71229740254
30
0
41
1
10
73.5970511894454
20
10.8363282683964
30
0
41
1
10
73.4039634654404
20
10.8963004753315
30
0
41
1
10
73.1138578679169
20
10.9831104883438
30
0
41
1
10
73.0170783296623
20
11.0115201666848
30
0
41
1
10
72.8237905376605
20
11.067146653327
30
0
41
1
10
72.7272273621421
20
11.0943800502676
30
0
41
1
10
72.2447935697148
20
11.2276226151423
30
0
41
1
10
71.860081054305
20
11.3248391698408
30
0
41
1
10
71.2843554528501
20
11.4562264700854
30
0
41
1
10
71.0926664254595
20
11.4976159892397
30
0
41
1
10
70.7095700791135
20
11.5757582082399
30
0
41
1
10
70.518158402998
20
11.6125294457575
30
0
41
1
10
69.9442539195031
20
11.7159223380567
30
0
41
1
10
69.562110829156
20
11.7755868110884
30
0
41
1
10
68.989297680303
20
11.8508238565056
30
0
41
1
10
68.7984259259554
20
11.8735259616566
30
0
41
1
10
68.4167590354217
20
11.9140997254836
30
0
41
1
10
68.2259673404192
20
11.9319573672053
30
0
41
1
10
67.8462406404261
20
11.9628396172722
30
0
41
1
10
67.6572957188393
20
11.9759517588806
30
0
41
1
10
67.4682903714238
20
11.9867728676703
30
0
0
SPLINE
5
122
100
AcDbEntity
8
1
62
256
6
ByLayer
370
18
48
1
60
0
100
AcDbSpline
70
4
71
3
72
8
73
4
40
0
40
0
40
0
40
0
40
1
40
1
40
1
40
1
41
1
10
22.659916514907
20
-10.4401010358196
30
0
41
1
10
22.4399899902137
20
-10.5192599205002
30
0
41
1
10
22.2200330258593
20
-10.5957104829339
30
0
41
1
10
22.0000000000001
20
-10.6694219032716
30
0
0
SPLINE
5
123
100
AcDbEntity
8
1
62
256
6
ByLayer
370
18
48
1
60
0
100
AcDbSpline
70
4
71
3
72
10
73
6
40
0
40
0
40
0
40
0
40
0.5
40
0.5
40
1
40
1
40
1
40
1
41
1
10
22
20
-10.6694219032717
30
0
41
1
10
21.6905290879754
20
-10.7605443523444
30
0
41
1
10
21.3825412234033
20
-10.8483861358843
30
0
41
1
10
20.7698096664402
20
-11.0168932341052
30
0
41
1
10
20.4650682150838
20
-11.0975535913689
30
0
41
1
10
20.1621321674121
20
-11.1742201953435
30
0
0
SPLINE
5
124
100
AcDbEntity
8
1
62
256
6
ByLayer
370
18
48
1
60
0
100
AcDbSpline
70
4
71
3
72
70
73
66
40
0
40
0
40
0
40
0
40
0.0046285650813657
40
0.0274750786720392
40
0.0503215922627127
40
0.0731681058533861
40
0.0960146194440596
40
0.118861133034733
40
0.13028438983007
40
0.141707646625407
40
0.16455416021608
40
0.175977417011417
40
0.187400673806754
40
0.210247187397427
40
0.221670444192764
40
0.233093700988101
40
0.255940214578774
40
0.267363471374111
40
0.278786728169448
40
0.301633241760121
40
0.313056498555458
40
0.324479755350794
40
0.347326268941468
40
0.358749525736805
40
0.370172782532141
40
0.381596039327478
40
0.393019296122815
40
0.404442552918152
40
0.415865809713488
40
0.427289066508825
40
0.438712323304162
40
0.450135580099499
40
0.461558836894835
40
0.472982093690172
40
0.484405350485509
40
0.495828607280845
40
0.507251864076182
40
0.530098377666856
40
0.552944891257529
40
0.564368148052866
40
0.575791404848203
40
0.598637918438876
40
0.610061175234213
40
0.62148443202955
40
0.644330945620223
40
0.65575420241556
40
0.667177459210897
40
0.69002397280157
40
0.701447229596907
40
0.712870486392244
40
0.735716999982917
40
0.747140256778254
40
0.758563513573591
40
0.781410027164264
40
0.792833283959601
40
0.804256540754938
40
0.827103054345611
40
0.849949567936285
40
0.872796081526958
40
0.884219338322295
40
0.895642595117632
40
0.918489108708305
40
0.964182135889652
40
0.987028649480326
40
1
40
1
40
1
40
1
41
1
10
19.7273773644311
20
12.3940694592068
30
0
41
1
10
19.8265384031426
20
12.3906927466805
30
0
41
1
10
20.4150865970204
20
12.3677288709787
30
0
41
1
10
21.4923634913889
20
12.29398980744
30
0
41
1
10
22.9592173195601
20
12.1226048683706
30
0
41
1
10
24.4266843978971
20
11.8802664887742
30
0
41
1
10
25.8959217350889
20
11.5685412766312
30
0
41
1
10
27.1220253992385
20
11.2520769552284
30
0
41
1
10
28.1038615990798
20
10.966203367183
30
0
41
1
10
29.0863036986487
20
10.6586020904275
30
0
41
1
10
30.0696188876435
20
10.3191109529009
30
0
41
1
10
31.053763801463
20
9.94941334201604
30
0
41
1
10
32.0384305612471
20
9.5598954728672
30
0
41
1
10
33.0238475991879
20
9.14160089814109
30
0
41
1
10
34.0099792671768
20
8.69648980318502
30
0
41
1
10
34.9965141733759
20
8.23392253864446
30
0
41
1
10
35.9834892651841
20
7.74645320373858
30
0
41
1
10
36.9706114205709
20
7.23650606234372
30
0
41
1
10
37.9577178635255
20
6.71215512041735
30
0
41
1
10
38.9446372675462
20
6.16766565125175
30
0
41
1
10
39.9310398173969
20
5.6057540627894
30
0
41
1
10
40.9170666506473
20
5.03293178469298
30
0
41
1
10
41.9025446876388
20
4.44516597251558
30
0
41
1
10
42.8875006008457
20
3.8451044888844
30
0
41
1
10
43.6259611696327
20
3.38951673912536
30
0
41
1
10
44.3641628265819
20
2.92910141059212
30
0
41
1
10
45.1021147737892
20
2.46455907223776
30
0
41
1
10
45.8398209456765
20
1.99657523683899
30
0
41
1
10
46.577284363431
20
1.52576001860339
30
0
41
1
10
47.3144977406358
20
1.05287745472549
30
0
41
1
10
48.0514674490234
20
0.578629856686945
30
0
41
1
10
48.7881933418421
20
0.10369070986593
30
0
41
1
10
49.5246819520062
20
-0.371254059084777
30
0
41
1
10
50.260924986904
20
-0.845530847676571
30
0
41
1
10
50.9969329970626
20
-1.31836332977912
30
0
41
1
10
51.7327074862096
20
-1.78914143865222
30
0
41
1
10
52.7134713458944
20
-2.41320494662026
30
0
41
1
10
53.9389818241468
20
-3.18479423378886
30
0
41
1
10
55.1641226076752
20
-3.94060229929062
30
0
41
1
10
56.1441118463065
20
-4.53322985161105
30
0
41
1
10
57.12405461887
20
-5.11710246306265
30
0
41
1
10
58.1039955486332
20
-5.68641271325865
30
0
41
1
10
59.084012745993
20
-6.23876376402092
30
0
41
1
10
60.0641111681826
20
-6.77913238463609
30
0
41
1
10
61.0443774571763
20
-7.30010411268304
30
0
41
1
10
62.0248333943644
20
-7.79950085297992
30
0
41
1
10
63.0054281996594
20
-8.28391467752812
30
0
41
1
10
63.986252830999
20
-8.74446260411253
30
0
41
1
10
64.9673315529417
20
-9.17927185824172
30
0
41
1
10
65.9485943809091
20
-9.59641152117561
30
0
41
1
10
66.9301349304281
20
-9.98571328298328
30
0
41
1
10
67.9118949674075
20
-10.3456647627782
30
0
41
1
10
68.8937882968045
20
-10.6856233161069
30
0
41
1
10
69.8758520560334
20
-10.9943997524829
30
0
41
1
10
70.8580298725541
20
-11.2708951775826
30
0
41
1
10
71.8402666754504
20
-11.5255210584311
30
0
41
1
10
73.0681583600448
20
-11.8014995770489
30
0
41
1
10
74.5416963695063
20
-12.063855243011
30
0
41
1
10
75.7695891265685
20
-12.223433958934
30
0
41
1
10
76.7517644744469
20
-12.3154087485165
30
0
41
1
10
77.7338115854228
20
-12.3834077744718
30
0
41
1
10
79.4524150351911
20
-12.4384220621936
30
0
41
1
10
81.4184805457615
20
-12.3558161868038
30
0
41
1
10
83.1774083391809
20
-12.1529280454827
30
0
41
1
10
83.9518987817376
20
-12.0339573098127
30
0
41
1
10
84.2326175915983
20
-11.9870000510634
30
0
0
SPLINE
5
125
100
AcDbEntity
8
1
62
256
6
ByLayer
370
18
48
1
60
0
100
AcDbSpline
70
4
71
3
72
8
73
4
40
0
40
0
40
0
40
0
40
1
40
1
40
1
40
1
41
1
10
96.854871245929
20
-7.53860881001043
30
0
41
1
10
96.8150519753488
20
-7.70165932818429
30
0
41
1
10
96.7752958007436
20
-7.86349560582727
30
0
41
1
10
96.7356023906174
20
-8.02412407321265
30
0
0
SPLINE
5
126
100
AcDbEntity
8
1
62
256
6
ByLayer
370
18
48
1
60
0
100
AcDbSpline
70
4
71
3
72
8
73
4
40
0
40
0
40
0
40
0
40
1
40
1
40
1
40
1
41
1
10
96.7356023906174
20
-8.02412407321265
30
0
41
1
10
96.4572797775229
20
-8.42545935205206
30
0
41
1
10
96.1815485025749
20
-8.80926577721158
30
0
41
1
10
95.9083676913887
20
-9.1758198394719
30
0
0
SPLINE
5
127
100
AcDbEntity
8
1
62
256
6
ByLayer
370
18
48
1
60
0
100
AcDbSpline
70
4
71
3
72
8
73
4
40
0
40
0
40
0
40
0
40
1
40
1
40
1
40
1
41
1
10
95.9083676913888
20
-9.17581983947193
30
0
41
1
10
95.8567152069959
20
-9.24103377609234
30
0
41
1
10
95.8050988494122
20
-9.30566514290902
30
0
41
1
10
95.7535186176207
20
-9.36971395632244
30
0
0
SPLINE
5
128
100
AcDbEntity
8
1
62
256
6
ByLayer
370
18
48
1
60
0
100
AcDbSpline
70
4
71
3
72
8
73
4
40
0
40
0
40
0
40
0
40
1
40
1
40
1
40
1
41
1
10
95.5084255942257
20
-9.14648636069762
30
0
41
1
10
95.5881814466162
20
-9.22593501349229
30
0
41
1
10
95.6698399740582
20
-9.30044580976588
30
0
41
1
10
95.753518617621
20
-9.36971395631787
30
0
0
SPLINE
5
129
100
AcDbEntity
8
1
62
256
6
ByLayer
370
13
48
1
60
0
100
AcDbSpline
70
4
71
3
72
8
73
4
40
0
40
0
40
0
40
0
40
1
40
1
40
1
40
1
41
1
10
95.5084255929003
20
-9.14648636024546
30
0
41
1
10
95.4437228191471
20
-9.16856265393471
30
0
41
1
10
95.3790200453939
20
-9.1904839620164
30
0
41
1
10
95.3143172716407
20
-9.21224924840379
30
0
0
SPLINE
5
12A
100
AcDbEntity
8
1
62
256
6
ByLayer
370
13
48
1
60
0
100
AcDbSpline
70
4
71
3
72
55
73
51
40
0
40
0
40
0
40
0
40
0.0263681970371076
40
0.126315906705257
40
0.226263616373407
40
0.326211326041556
40
0.401172108292669
40
0.451145963126743
40
0.476132890543781
40
0.494873086106559
40
0.513613281669337
40
0.526106745377856
40
0.535476843159245
40
0.540161892049939
40
0.543285257977069
40
0.544846940940634
40
0.546408623904199
40
0.547579886126872
40
0.548751148349546
40
0.549531989831328
40
0.550117620942665
40
0.550605646868779
40
0.550849659831836
40
0.55099606760967
40
0.551191277980116
40
0.551484093535784
40
0.552069724647121
40
0.552655355758458
40
0.55343619724024
40
0.554997880203805
40
0.557340404649152
40
0.560463770576282
40
0.565148819466976
40
0.569833868357671
40
0.574518917248366
40
0.57920396613906
40
0.583889015029755
40
0.588574063920449
40
0.594820795774708
40
0.607314259483227
40
0.626054455046005
40
0.651041382463043
40
0.67602830988008
40
0.701015237297117
40
0.738495628422673
40
0.775976019548229
40
0.825949874382304
40
0.875923729216379
40
0.950884511467491
40
1
40
1
40
1
40
1
41
1
10
88.8616558875819
20
-10.8297567556697
30
0
41
1
10
88.449437258388
20
-10.8958332775009
30
0
41
1
10
86.474718629194
20
-11.1766961732195
30
0
41
1
10
82.9375000000001
20
-11.3668410280534
30
0
41
1
10
78.25
20
-10.9492055095917
30
0
41
1
10
73.9531250000001
20
-9.97155644800716
30
0
41
1
10
70.4375000000001
20
-8.79192867855872
30
0
41
1
10
68.09375
20
-7.84497566672582
30
0
41
1
10
66.6289062500002
20
-7.1992610500117
30
0
41
1
10
65.65234375
20
-6.74930766736219
30
0
41
1
10
64.8710937500002
20
-6.37679150765084
30
0
41
1
10
64.2363281250001
20
-6.06619663916047
30
0
41
1
10
63.8212890625006
20
-5.8596686464987
30
0
41
1
10
63.5527343750001
20
-5.72465638879871
30
0
41
1
10
63.4062500000001
20
-5.6506049578779
30
0
41
1
10
63.3085937500001
20
-5.60107632151138
30
0
41
1
10
63.2414550781252
20
-5.56695212149396
30
0
41
1
10
63.180419921875
20
-5.5358722715122
30
0
41
1
10
63.1315917968751
20
-5.51096894277555
30
0
41
1
10
63.0919189453126
20
-5.49070842699436
30
0
41
1
10
63.0629272460939
20
-5.47588912920065
30
0
41
1
10
63.0423278808596
20
-5.46535209251803
30
0
41
1
10
63.0285949707032
20
-5.45832398417591
30
0
41
1
10
63.0194396972658
20
-5.45363736503685
30
0
41
1
10
63.0095214843751
20
-5.44855904474611
30
0
41
1
10
62.9927368164064
20
-5.43996218773989
30
0
41
1
10
62.9698486328125
20
-5.42823239549992
30
0
41
1
10
62.9393310546877
20
-5.41258060842185
30
0
41
1
10
62.8935546875001
20
-5.38908187587541
30
0
41
1
10
62.8203125000002
20
-5.35142638169918
30
0
41
1
10
62.7104492187501
20
-5.29480043712223
30
0
41
1
10
62.5517578125002
20
-5.21272217206544
30
0
41
1
10
62.3564453125001
20
-5.11120909925466
30
0
41
1
10
62.1367187500002
20
-4.99635631151213
30
0
41
1
10
61.9169921875001
20
-4.8808687914316
30
0
41
1
10
61.6972656250001
20
-4.76476236151453
30
0
41
1
10
61.4775390625001
20
-4.6480527640241
30
0
41
1
10
61.2333984375001
20
-4.51772278182884
30
0
41
1
10
60.8671875
20
-4.32111513583524
30
0
41
1
10
60.2812500000002
20
-4.00360994001034
30
0
41
1
10
59.40234375
20
-3.52017188162304
30
0
41
1
10
58.3281250000001
20
-2.91789627467625
30
0
41
1
10
57.1562500000002
20
-2.25015968905899
30
0
41
1
10
55.7890625000001
20
-1.46179203626417
30
0
41
1
10
54.2265625000002
20
-0.550809357738103
30
0
41
1
10
52.2734375000001
20
0.593247418031808
30
0
41
1
10
50.1250000000001
20
1.84545460047659
30
0
41
1
10
47.3906250000001
20
3.40774566002659
30
0
41
1
10
44.6696689902967
20
4.89357311827737
30
0
41
1
10
42.7299629805932
20
5.87535547649424
30
0
41
1
10
41.9621319708897
20
6.24907009403026
30
0
0
SPLINE
5
12B
100
AcDbEntity
8
1
62
256
6
ByLayer
370
18
48
1
60
0
100
AcDbSpline
70
4
71
3
72
8
73
4
40
0
40
0
40
0
40
0
40
1
40
1
40
1
40
1
41
1
10
95.7535186176098
20
-9.36971395632474
30
0
41
1
10
95.4301856553848
20
-9.49623409576387
30
0
41
1
10
95.1069913523691
20
-9.61875177236723
30
0
41
1
10
94.7838231299948
20
-9.73715792443699
30
0
0
SPLINE
5
12C
100
AcDbEntity
8
1
62
256
6
ByLayer
370
18
48
1
60
0
100
AcDbSpline
70
4
71
3
72
138
73
134
40
0
40
0
40
0
40
0
40
0.0061653103047781
40
0.0061653103047781
40
0.0145193895727641
40
0.0145193895727641
40
0.02287346884075
40
0.02287346884075
40
0.0562897859126939
40
0.0562897859126939
40
0.0729979444486658
40
0.0729979444486658
40
0.0897061029846377
40
0.123122420056582
40
0.123122420056582
40
0.139830578592555
40
0.139830578592555
40
0.156538737128527
40
0.156538737128527
40
0.173246895664499
40
0.173246895664499
40
0.181600974932486
40
0.185778014566478
40
0.185778014566478
40
0.189955054200471
40
0.189955054200471
40
0.223371371272409
40
0.223371371272409
40
0.240079529808377
40
0.240079529808377
40
0.256787688344346
40
0.256787688344346
40
0.273495846880314
40
0.273495846880314
40
0.290204005416283
40
0.290204005416283
40
0.306912163952251
40
0.306912163952251
40
0.32362032248822
40
0.32362032248822
40
0.340328481024188
40
0.340328481024188
40
0.357036639560157
40
0.357036639560157
40
0.365390718828141
40
0.365390718828141
40
0.369567758462132
40
0.369567758462132
40
0.373744798096124
40
0.390452956632093
40
0.390452956632093
40
0.407161115168061
40
0.407161115168061
40
0.423869273704029
40
0.423869273704029
40
0.440577432239998
40
0.440577432239998
40
0.457285590775966
40
0.457285590775966
40
0.473993749311935
40
0.473993749311935
40
0.490701907847903
40
0.490701907847903
40
0.507410066383871
40
0.507410066383871
40
0.52411822491984
40
0.52411822491984
40
0.540826383455808
40
0.540826383455808
40
0.545003423089801
40
0.545003423089801
40
0.549180462723793
40
0.549180462723793
40
0.557534541991777
40
0.557534541991777
40
0.574242700527747
40
0.574242700527747
40
0.590950859063716
40
0.590950859063716
40
0.624367176135654
40
0.624367176135654
40
0.641075334671623
40
0.641075334671623
40
0.657783493207592
40
0.657783493207592
40
0.674491651743561
40
0.674491651743561
40
0.69119981027953
40
0.69119981027953
40
0.707907968815499
40
0.707907968815499
40
0.724616127351469
40
0.724616127351469
40
0.728793166985461
40
0.728793166985461
40
0.732970206619453
40
0.741324285887438
40
0.741324285887438
40
0.758032444423407
40
0.758032444423407
40
0.774740602959377
40
0.774740602959377
40
0.791448761495346
40
0.791448761495346
40
0.808156920031315
40
0.808156920031315
40
0.824865078567284
40
0.824865078567284
40
0.841573237103253
40
0.841573237103253
40
0.858281395639222
40
0.858281395639222
40
0.874989554175192
40
0.874989554175192
40
0.891697712711161
40
0.891697712711161
40
0.900051791979145
40
0.900051791979145
40
0.904228831613137
40
0.904228831613137
40
0.908405871247129
40
0.908405871247129
40
0.925114029783098
40
0.925114029783098
40
0.941822188319066
40
0.941822188319066
40
0.958530346855035
40
0.958530346855035
40
0.975238505391003
40
0.975238505391003
40
0.991946663926971
40
0.991946663926971
40
1
40
1
40
1
40
1
41
1
10
92.701412358197
20
-10.441902521107
30
0
41
1
10
92.5585880533005
20
-10.4861444415412
30
0
41
1
10
92.4157207608749
20
-10.529536605282
30
0
41
1
10
92.0791413913557
20
-10.629698753685
30
0
41
1
10
91.8853176234604
20
-10.6857652409304
30
0
41
1
10
91.4983908962212
20
-10.7944069584853
30
0
41
1
10
91.3051809516825
20
-10.8470122131342
30
0
41
1
10
90.3402259659805
20
-11.1015346645767
30
0
41
1
10
89.5717007802277
20
-11.2781099531016
30
0
41
1
10
88.4219815371051
20
-11.5013918689303
30
0
41
1
10
88.0392547741932
20
-11.5688689513639
30
0
41
1
10
87.2743169278871
20
-11.6901571889033
30
0
41
1
10
86.1277215169097
20
-11.8515194299803
30
0
41
1
10
84.9822003493712
20
-11.9499908621414
30
0
41
1
10
83.8349990609494
20
-12.0059297417748
30
0
41
1
10
83.4523311515497
20
-12.0174299448154
30
0
41
1
10
82.6860556146245
20
-12.0258992653366
30
0
41
1
10
82.3024316637006
20
-12.0229157943513
30
0
41
1
10
81.5338108625531
20
-12.0027955194633
30
0
41
1
10
81.148816558573
20
-11.985662635362
30
0
41
1
10
80.5700567796231
20
-11.9491923431397
30
0
41
1
10
80.2803594241946
20
-11.9282636932
30
0
41
1
10
79.9901367130961
20
-11.9032577935381
30
0
41
1
10
79.7965324261118
20
-11.8856765865871
30
0
41
1
10
79.6996259948644
20
-11.8764262431956
30
0
41
1
10
78.8280875199864
20
-11.7891769189061
30
0
41
1
10
78.0575733585712
20
-11.6832546436426
30
0
41
1
10
76.9060996059296
20
-11.4822879841732
30
0
41
1
10
76.5229339708097
20
-11.4084330144291
30
0
41
1
10
75.7573468383476
20
-11.2478283641056
30
0
41
1
10
75.3749385658072
20
-11.1610464312757
30
0
41
1
10
74.6105745188649
20
-10.9745254479481
30
0
41
1
10
74.2286318628386
20
-10.8747331085696
30
0
41
1
10
73.4647754416995
20
-10.6624854989959
30
0
41
1
10
73.0828387702357
20
-10.5500953511961
30
0
41
1
10
72.3186156056975
20
-10.3131094057877
30
0
41
1
10
71.9363460217913
20
-10.1884606749277
30
0
41
1
10
71.1712527886403
20
-9.92660660863314
30
0
41
1
10
70.7884048400576
20
-9.7894956870193
30
0
41
1
10
70.021632691116
20
-9.50381783772059
30
0
41
1
10
69.6377295982049
20
-9.35515527679391
30
0
41
1
10
68.8685831428753
20
-9.04608010945327
30
0
41
1
10
68.4833513348198
20
-8.88557540337851
30
0
41
1
10
67.9041799529072
20
-8.63627868236367
30
0
41
1
10
67.7108975917598
20
-8.55179406977834
30
0
41
1
10
67.4205998571958
20
-8.42300992930709
30
0
41
1
10
67.3237290448537
20
-8.37971812171602
30
0
41
1
10
67.1301279915303
20
-8.29256619628552
30
0
41
1
10
66.6464449403236
20
-8.0732523741907
30
0
41
1
10
66.1642998562896
20
-7.84683987253391
30
0
41
1
10
65.3945236892133
20
-7.47582764060647
30
0
41
1
10
65.0104572116129
20
-7.28595458976315
30
0
41
1
10
64.2432979472334
20
-6.89874149412054
30
0
41
1
10
63.8602516681599
20
-6.70128663510772
30
0
41
1
10
63.094915347916
20
-6.29902726792639
30
0
41
1
10
62.7126386061599
20
-6.09418308479889
30
0
41
1
10
61.9484224947988
20
-5.67777600318684
30
0
41
1
10
61.5664264126495
20
-5.46637990320883
30
0
41
1
10
60.8023668073954
20
-5.03754010244845
30
0
41
1
10
60.4202984589526
20
-4.82009531146025
30
0
41
1
10
59.6559436546636
20
-4.37924509148775
30
0
41
1
10
59.2736804890636
20
-4.15577453189078
30
0
41
1
10
58.5083899508737
20
-3.70392696389715
30
0
41
1
10
58.1253683255039
20
-3.47550233578374
30
0
41
1
10
57.3581811375307
20
-3.01408342336401
30
0
41
1
10
56.9740153625954
20
-2.78108898089928
30
0
41
1
10
56.2041724438335
20
-2.31104745097963
30
0
41
1
10
55.8184738441976
20
-2.074120249289
30
0
41
1
10
55.3351687852081
20
-1.77583653334489
30
0
41
1
10
55.2384490112939
20
-1.71607080423792
30
0
41
1
10
55.0448854408387
20
-1.59633047379009
30
0
41
1
10
54.9480026308092
20
-1.53633167885215
30
0
41
1
10
54.6576189847098
20
-1.35632187695771
30
0
41
1
10
54.4642897588763
20
-1.23624004881043
30
0
41
1
10
53.8850042301269
20
-0.875893810111506
30
0
41
1
10
53.499757481202
20
-0.63552038732837
30
0
41
1
10
52.7306673725867
20
-0.155232926354273
30
0
41
1
10
52.3468053054433
20
0.0846586202710853
30
0
41
1
10
51.1967317437604
20
0.802704217858292
30
0
41
1
10
50.4321562790535
20
1.27937035203632
30
0
41
1
10
49.2860565603882
20
1.98756876653189
30
0
41
1
10
48.904157625885
20
2.22250992056814
30
0
41
1
10
48.1403306635794
20
2.68960123173031
30
0
41
1
10
47.7583830014823
20
2.92173027167164
30
0
41
1
10
46.9939670771661
20
3.38248821710673
30
0
41
1
10
46.611504996859
20
3.61112770093871
30
0
41
1
10
45.8457712618543
20
4.06438862882766
30
0
41
1
10
45.4624959752449
20
4.28900590411612
30
0
41
1
10
44.6947263162511
20
4.73357803376476
30
0
41
1
10
44.3102251635217
20
4.95352815178779
30
0
41
1
10
43.5395786143696
20
5.38812337222939
30
0
41
1
10
43.1534405592539
20
5.60277764936583
30
0
41
1
10
42.6695306851515
20
5.86738262833833
30
0
41
1
10
42.5726540398891
20
5.92013501261158
30
0
41
1
10
42.3790945371614
20
6.02508086927637
30
0
41
1
10
42.0889470429498
20
6.1817157680137
30
0
41
1
10
41.7993243363155
20
6.33597897351183
30
0
41
1
10
41.220706821294
20
6.64126019421209
30
0
41
1
10
40.8357958964086
20
6.84045425804425
30
0
41
1
10
40.0672936448351
20
7.22972603293024
30
0
41
1
10
39.6837443015621
20
7.4197772483956
30
0
41
1
10
38.9175779408925
20
7.79039250273988
30
0
41
1
10
38.5349248679012
20
7.97099664916098
30
0
41
1
10
37.7701721597061
20
8.3223516122504
30
0
41
1
10
37.3880697003437
20
8.49310867294068
30
0
41
1
10
36.6241425431493
20
8.82417636706657
30
0
41
1
10
36.2423092945751
20
8.98448124798816
30
0
41
1
10
35.478327455417
20
9.29453295549689
30
0
41
1
10
35.0962105605403
20
9.44424887594744
30
0
41
1
10
34.3314424339159
20
9.73252410564999
30
0
41
1
10
33.9488036606596
20
9.87104857405708
30
0
41
1
10
33.1826088761891
20
10.1364447843911
30
0
41
1
10
32.7990169595893
20
10.2634189651047
30
0
41
1
10
32.0304712122548
20
10.5054537545793
30
0
41
1
10
31.6455245089819
20
10.6204913639386
30
0
41
1
10
31.0668074760639
20
10.7836137977206
30
0
41
1
10
30.8736867748735
20
10.8364116042653
30
0
41
1
10
30.5836429852829
20
10.9132299771041
30
0
41
1
10
30.4869011215854
20
10.9384404944566
30
0
41
1
10
30.2932891844929
20
10.9880710802359
30
0
41
1
10
30.1964046140788
20
11.0124951923195
30
0
41
1
10
29.7123522115271
20
11.1324513361397
30
0
41
1
10
29.3257579925151
20
11.2216308851719
30
0
41
1
10
28.55360917389
20
11.3860307048817
30
0
41
1
10
28.1680657764752
20
11.4612150214929
30
0
41
1
10
27.3975827877111
20
11.5975463988306
30
0
41
1
10
27.0125916785696
20
11.6588357945144
30
0
41
1
10
26.2427290867859
20
11.7675608889536
30
0
41
1
10
25.8578810795334
20
11.8149287417388
30
0
41
1
10
25.0880053228799
20
11.8953091240128
30
0
41
1
10
24.7029646377079
20
11.9283594651701
30
0
41
1
10
24.131853826827
20
11.9667220769424
30
0
41
1
10
23.9460335082381
20
11.9775322395013
30
0
41
1
10
23.7601174797731
20
11.9866557956464
30
0
0
SPLINE
5
12D
100
AcDbEntity
8
1
62
256
6
ByLayer
370
18
48
1
60
0
100
AcDbSpline
70
4
71
3
72
37
73
33
40
0
40
0
40
0
40
0
40
0.121366590155873
40
0.121366590155873
40
0.18204988523381
40
0.18204988523381
40
0.212391532772778
40
0.212391532772778
40
0.242733180311747
40
0.242733180311747
40
0.364099770467619
40
0.364099770467619
40
0.424783065545554
40
0.424783065545554
40
0.455124713084522
40
0.455124713084522
40
0.485466360623489
40
0.485466360623489
40
0.60683295077936
40
0.60683295077936
40
0.667516245857294
40
0.697857893396262
40
0.697857893396262
40
0.72819954093523
40
0.72819954093523
40
0.849566131091098
40
0.849566131091098
40
0.970932721246965
40
0.970932721246965
40
0.986103545016449
40
0.986103545016449
40
1
40
1
40
1
40
1
41
1
10
22.0000000000001
20
-6.11470966435408
30
0
41
1
10
22.7783749381561
20
-6.59009170062708
30
0
41
1
10
23.5550368840124
20
-7.047083107389
30
0
41
1
10
24.7207310292091
20
-7.70115842873071
30
0
41
1
10
25.1094156497562
20
-7.91394105259724
30
0
41
1
10
25.6930495265304
20
-8.22474461028517
30
0
41
1
10
25.8875378286745
20
-8.32686615664755
30
0
41
1
10
26.2761861826913
20
-8.52793454071511
30
0
41
1
10
26.4703913858659
20
-8.6269061950706
30
0
41
1
10
27.4409991989864
20
-9.11381425206204
30
0
41
1
10
28.2161614378021
20
-9.47781755016265
30
0
41
1
10
29.3802361858577
20
-9.98245604679019
30
0
41
1
10
29.7684791246729
20
-10.1437892819906
30
0
41
1
10
30.3515619783571
20
-10.3750787383163
30
0
41
1
10
30.5460427362985
20
-10.4503886755796
30
0
41
1
10
30.9353067159708
20
-10.5973718079756
30
0
41
1
10
31.1298082997175
20
-10.6689384581852
30
0
41
1
10
32.1016523106916
20
-11.017018929859
30
0
41
1
10
32.8771511209795
20
-11.2644205965036
30
0
41
1
10
34.040699578504
20
-11.5868925418764
30
0
41
1
10
34.6225539037238
20
-11.7359645717141
30
0
41
1
10
35.2051600707488
20
-11.8664492493523
30
0
41
1
10
35.59380346874
20
-11.9492586846871
30
0
41
1
10
35.7882876548576
20
-11.9885815168518
30
0
41
1
10
36.7610331326853
20
-12.1745166568254
30
0
41
1
10
37.5368955297536
20
-12.288411924899
30
0
41
1
10
39.0884162167652
20
-12.4462734734946
30
0
41
1
10
39.8640837754068
20
-12.4901395906387
30
0
41
1
10
40.7388863893547
20
-12.4995636076125
30
0
41
1
10
40.836116450233
20
-12.5000564136453
30
0
41
1
10
41.0224737815013
20
-12.4999361459143
30
0
41
1
10
41.1116166579903
20
-12.4994121373005
30
0
41
1
10
41.2007314160631
20
-12.4984217014464
30
0
0
SPLINE
5
12E
100
AcDbEntity
8
1
62
256
6
ByLayer
370
18
48
1
60
0
100
AcDbSpline
70
4
71
3
72
26
73
22
40
0
40
0
40
0
40
0
40
0.150959415881358
40
0.150959415881358
40
0.320767532705093
40
0.320767532705093
40
0.363219561911026
40
0.363219561911026
40
0.40567159111696
40
0.490575649528827
40
0.490575649528827
40
0.660383766352566
40
0.660383766352566
40
0.681609780955534
40
0.681609780955534
40
0.702835795558501
40
0.702835795558501
40
0.745287824764432
40
0.830191883176289
40
0.830191883176289
40
1
40
1
40
1
40
1
41
1
10
82.8373620022801
20
8.76874370281473
30
0
41
1
10
83.5287958016189
20
9.11392355353505
30
0
41
1
10
84.2185408232904
20
9.43842706233539
30
0
41
1
10
85.6839627272093
20
10.081318202142
30
0
41
1
10
86.4596131069292
20
10.3939069372925
30
0
41
1
10
87.4315482788376
20
10.747655268032
30
0
41
1
10
87.6261076712452
20
10.8165718444743
30
0
41
1
10
88.0152963788754
20
10.950553934943
30
0
41
1
10
88.598680815292
20
11.1455808933563
30
0
41
1
10
89.1811701340263
20
11.3226337282457
30
0
41
1
10
90.3457604776587
20
11.6523463397085
30
0
41
1
10
91.1216174297307
20
11.8396498025517
30
0
41
1
10
91.9964010797921
20
12.0123460499491
30
0
41
1
10
92.0936263922274
20
12.0310065619159
30
0
41
1
10
92.2881402880459
20
12.067266603137
30
0
41
1
10
92.3854432348386
20
12.0848684270954
30
0
41
1
10
92.6772008546665
20
12.1360303003272
30
0
41
1
10
93.2603385468643
20
12.2318237929077
30
0
41
1
10
93.8426640392821
20
12.3079946177291
30
0
41
1
10
95.007060077184
20
12.4340270859008
30
0
41
1
10
95.78299613279
20
12.4829829341005
30
0
41
1
10
96.5606852967893
20
12.4962849321319
30
0
0
SPLINE
5
12F
100
AcDbEntity
8
1
62
256
6
ByLayer
370
18
48
1
60
0
100
AcDbSpline
70
4
71
3
72
32
73
28
40
0
40
0
40
0
40
0
40
0.0533169374363992
40
0.113080813655886
40
0.172844689875373
40
0.23260856609486
40
0.262490504204603
40
0.292372442314347
40
0.32225438042409
40
0.352136318533833
40
0.382018256643577
40
0.41190019475332
40
0.471664070972807
40
0.501546009082551
40
0.531427947192294
40
0.591191823411781
40
0.621073761521524
40
0.650955699631268
40
0.710719575850754
40
0.740601513960498
40
0.770483452070241
40
0.830247328289728
40
0.860129266399472
40
0.890011204509215
40
0.949775080728702
40
0.979657018838445
40
1
40
1
40
1
40
1
41
1
10
18.7929078312243
20
-3.94457117105043
30
0
41
1
10
19.2287240313941
20
-4.23409955786465
30
0
41
1
10
20.1521309420006
20
-4.84007216838768
30
0
41
1
10
21.5617081729239
20
-5.735671688998
30
0
41
1
10
23.0231870414364
20
-6.62584593229408
30
0
41
1
10
24.2416721305146
20
-7.33099207129047
30
0
41
1
10
25.2175182735138
20
-7.87062055840204
30
0
41
1
10
25.9500640925222
20
-8.26246107248713
30
0
41
1
10
26.6832321688447
20
-8.64069092058963
30
0
41
1
10
27.4170191926887
20
-9.00471745671791
30
0
41
1
10
28.15139754394
20
-9.35377689639452
30
0
41
1
10
29.1313385439133
20
-9.79840730344162
30
0
41
1
10
30.1124065773036
20
-10.2106829297505
30
0
41
1
10
31.0945485455212
20
-10.5883117150208
30
0
41
1
10
32.0773795478111
20
-10.9421291344735
30
0
41
1
10
33.0612130047789
20
-11.2592919911472
30
0
41
1
10
34.0459985887013
20
-11.5379404844503
30
0
41
1
10
35.0313310800556
20
-11.7903631805563
30
0
41
1
10
36.0172650575934
20
-12.0027921774112
30
0
41
1
10
37.0033837749973
20
-12.1738479642564
30
0
41
1
10
37.9894743209819
20
-12.3170042346121
30
0
41
1
10
38.9753107788914
20
-12.4180616418742
30
0
41
1
10
39.9604351882871
20
-12.4763897417812
30
0
41
1
10
40.94504843058
20
-12.5061983292137
30
0
41
1
10
41.9289241449423
20
-12.4932976986461
30
0
41
1
10
42.8336290561816
20
-12.4421886300141
30
0
41
1
10
43.2465853964743
20
-12.4088720983168
30
0
41
1
10
43.4138212991008
20
-12.3937508313836
30
0
0
SPLINE
5
130
100
AcDbEntity
8
1
62
256
6
ByLayer
370
18
48
1
60
0
100
AcDbSpline
70
4
71
3
72
94
73
90
40
0
40
0
40
0
40
0
40
0.0416962011415972
40
0.0416962011415972
40
0.0625443017123959
40
0.0625443017123959
40
0.0729683519977949
40
0.0729683519977949
40
0.083392402283194
40
0.083392402283194
40
0.12508860342479
40
0.12508860342479
40
0.135512653710189
40
0.135512653710189
40
0.145936703995589
40
0.166784804566387
40
0.166784804566387
40
0.187632905137186
40
0.187632905137186
40
0.198056955422585
40
0.198056955422585
40
0.208481005707985
40
0.208481005707985
40
0.250177206849582
40
0.250177206849582
40
0.29187340799118
40
0.29187340799118
40
0.30229745827658
40
0.30229745827658
40
0.312721508561979
40
0.312721508561979
40
0.333569609132778
40
0.333569609132778
40
0.375265810274377
40
0.375265810274377
40
0.396113910845177
40
0.396113910845177
40
0.406537961130577
40
0.406537961130577
40
0.416962011415977
40
0.416962011415977
40
0.458658212557575
40
0.458658212557575
40
0.500354413699173
40
0.500354413699173
40
0.510778463984573
40
0.510778463984573
40
0.515990489127273
40
0.515990489127273
40
0.521202514269972
40
0.542050614840769
40
0.542050614840769
40
0.583746815982364
40
0.583746815982364
40
0.604594916553161
40
0.61501896683856
40
0.61501896683856
40
0.620230991981259
40
0.620230991981259
40
0.625443017123958
40
0.667139218265551
40
0.667139218265551
40
0.708835419407144
40
0.708835419407144
40
0.719259469692542
40
0.719259469692542
40
0.72968351997794
40
0.72968351997794
40
0.750531620548736
40
0.750531620548736
40
0.792227821690329
40
0.792227821690329
40
0.813075922261125
40
0.813075922261125
40
0.823499972546524
40
0.823499972546524
40
0.833924022831922
40
0.833924022831922
40
0.875620223973517
40
0.875620223973517
40
0.917316425115111
40
0.917316425115111
40
0.927740475400509
40
0.927740475400509
40
0.938164525685908
40
0.938164525685908
40
0.959012626256705
40
0.959012626256705
40
1
40
1
40
1
40
1
41
1
10
22.0000000000001
20
12.0881437796649
30
0
41
1
10
22.7778506684967
20
11.9595491286319
30
0
41
1
10
23.5543425563823
20
11.8015014354464
30
0
41
1
10
24.7195846622291
20
11.5216796847856
30
0
41
1
10
25.1080840881528
20
11.4212825711098
30
0
41
1
10
25.6912877872832
20
11.2601851483403
30
0
41
1
10
25.8857420817237
20
11.2047404271453
30
0
41
1
10
26.2744198205903
20
11.0905117664223
30
0
41
1
10
26.4686964916946
20
11.0317136083856
30
0
41
1
10
27.4399059318807
20
10.7294136330826
30
0
41
1
10
28.2163247310035
20
10.4609673336851
30
0
41
1
10
29.1883124056913
20
10.0938481814491
30
0
41
1
10
29.3828298342468
20
10.0188282735394
30
0
41
1
10
29.7716621948686
20
9.86583476674838
30
0
41
1
10
30.3547080012398
20
9.63187813882178
30
0
41
1
10
30.937375429169
20
9.38475377822718
30
0
41
1
10
31.7143104975173
20
9.04395256070396
30
0
41
1
10
32.102797437087
20
8.86790094617956
30
0
41
1
10
32.6858674639448
20
8.59566053799202
30
0
41
1
10
32.8803395125265
20
8.50352479188444
30
0
41
1
10
33.2691711067322
20
8.31671729626703
30
0
41
1
10
33.4634546365525
20
8.22208251222219
30
0
41
1
10
34.4343478263213
20
7.74293209338191
30
0
41
1
10
35.209383752242
20
7.34050482577251
30
0
41
1
10
36.759600617707
20
6.50198067317274
30
0
41
1
10
37.5347939449171
20
6.06585569485736
30
0
41
1
10
38.5060248375391
20
5.50243122938195
30
0
41
1
10
38.7004139482095
20
5.38881311698782
30
0
41
1
10
39.0893370466159
20
5.15988818665892
30
0
41
1
10
39.283670172353
20
5.0446996557537
30
0
41
1
10
39.8663611196193
20
4.69707084051083
30
0
41
1
10
40.2544115028247
20
4.46257043997028
30
0
41
1
10
41.4179082698872
20
3.75170361441374
30
0
41
1
10
42.1926774104163
20
3.26793598718402
30
0
41
1
10
43.356008165735
20
2.53119892027311
30
0
41
1
10
43.7439818871534
20
2.28377759614014
30
0
41
1
10
44.3265649312985
20
1.91036529453615
30
0
41
1
10
44.5208632946857
20
1.78551443349616
30
0
41
1
10
44.9097249041885
20
1.53513405223231
30
0
41
1
10
45.1040717731753
20
1.40974395059033
30
0
41
1
10
46.0751526768612
20
0.78225145343086
30
0
41
1
10
46.8503192162755
20
0.278276529027266
30
0
41
1
10
48.4007033021639
20
-0.728306789991478
30
0
41
1
10
49.1759294598769
20
-1.23090145621961
30
0
41
1
10
50.1469730210539
20
-1.85523362012739
30
0
41
1
10
50.3412817655948
20
-1.97990513626763
30
0
41
1
10
50.6329337106223
20
-2.16655994518544
30
0
41
1
10
50.7301812189296
20
-2.22871864321902
30
0
41
1
10
50.9245678821574
20
-2.35279537281153
30
0
41
1
10
51.4103748220574
20
-2.66245641237524
30
0
41
1
10
51.89546491051
20
-2.96934947245021
30
0
41
1
10
53.0589461844639
20
-3.69964850559148
30
0
41
1
10
53.8336186085028
20
-4.17818879995806
30
0
41
1
10
54.9967836149729
20
-4.87962712146575
30
0
41
1
10
55.5786545890007
20
-5.22625936042141
30
0
41
1
10
56.1614467537609
20
-5.56604758695329
30
0
41
1
10
56.4530369556319
20
-5.73474082031751
30
0
41
1
10
56.5502855444129
20
-5.79078283150693
30
0
41
1
10
56.7446953101332
20
-5.9023651772041
30
0
41
1
10
57.6192593681111
20
-6.40229522271872
30
0
41
1
10
58.4916144147722
20
-6.88217690820207
30
0
41
1
10
60.0421557718116
20
-7.69977490610916
30
0
41
1
10
60.8172329211398
20
-8.0908327448262
30
0
41
1
10
61.7879174672161
20
-8.55486860399782
30
0
41
1
10
61.9821470940059
20
-8.64643492912154
30
0
41
1
10
62.3708469769236
20
-8.82701401263657
30
0
41
1
10
62.5653439519734
20
-8.91603749787487
30
0
41
1
10
63.1482204399113
20
-9.17869662899793
30
0
41
1
10
63.5363317527667
20
-9.34808510274274
30
0
41
1
10
64.6999091379811
20
-9.83853816350396
30
0
41
1
10
65.4746238866185
20
-10.141876895803
30
0
41
1
10
66.6377779538739
20
-10.5590770478551
30
0
41
1
10
67.025674272512
20
-10.6918513579638
30
0
41
1
10
67.6080937289577
20
-10.8812903027786
30
0
41
1
10
67.8023292784314
20
-10.9428160266685
30
0
41
1
10
68.1910420529855
20
-11.0625761282855
30
0
41
1
10
68.3855860990744
20
-11.1208290124348
30
0
41
1
10
69.3573681543717
20
-11.4032689833584
30
0
41
1
10
70.1328325921643
20
-11.6013748651639
30
0
41
1
10
71.6831791195314
20
-11.9402571845418
30
0
41
1
10
72.4580697976214
20
-12.0810020369386
30
0
41
1
10
73.4285030768663
20
-12.2200286259728
30
0
41
1
10
73.6226809518554
20
-12.2459878530806
30
0
41
1
10
74.0112742338954
20
-12.2941854714421
30
0
41
1
10
74.205776228103
20
-12.3164321505351
30
0
41
1
10
74.7888446004955
20
-12.3774548225747
30
0
41
1
10
75.1770781226779
20
-12.4105322348234
30
0
41
1
10
76.3277920564239
20
-12.4861165819318
30
0
41
1
10
77.0895148275341
20
-12.5068459779319
30
0
41
1
10
77.8517667501744
20
-12.4981315891382
30
0
0
SPLINE
5
131
100
AcDbEntity
8
1
62
256
6
ByLayer
370
18
48
1
60
0
100
AcDbSpline
70
4
71
3
72
8
73
4
40
0
40
0
40
0
40
0
40
1
40
1
40
1
40
1
41
1
10
18.9032410953673
20
12.4993458233068
30
0
41
1
10
18.8943724478976
20
12.4997764142823
30
0
41
1
10
18.8864997110362
20
12.4999945453673
30
0
41
1
10
18.8795773372536
20
12.4999999428617
30
0
0
SPLINE
5
132
100
AcDbEntity
8
1
62
256
6
ByLayer
370
18
48
1
60
0
100
AcDbSpline
70
4
71
3
72
8
73
4
40
0
40
0
40
0
40
0
40
1
40
1
40
1
40
1
41
1
10
18.7163734203542
20
12.4634950626651
30
0
41
0.999999903572734
10
18.7180792397758
20
12.4628667915328
30
0
41
0.999999903572734
10
18.7197852066384
20
12.4622395772807
30
0
41
1
10
18.7214913204486
20
12.4616134200902
30
0
0
SPLINE
5
133
100
AcDbEntity
8
1
62
256
6
ByLayer
370
18
48
1
60
0
100
AcDbSpline
70
4
71
1
72
4
73
2
40
0
40
0
40
1
40
1
41
1
10
21.9999997583598
20
-6.11310990151384
30
0
41
1
10
22.0000002416401
20
-6.11470966288226
30
0
0
SPLINE
5
134
100
AcDbEntity
8
1
62
256
6
ByLayer
370
18
48
1
60
0
100
AcDbSpline
70
4
71
3
72
18
73
14
40
0
40
0
40
0
40
0
40
0.250000000000003
40
0.250000000000003
40
0.375000000000005
40
0.375000000000005
40
0.500000000000007
40
0.500000000000007
40
0.625000000000009
40
0.625000000000009
40
0.750000000000011
40
0.750000000000011
40
1
40
1
40
1
40
1
41
1
10
18.7163734204115
20
12.4634950626429
30
0
41
1
10
18.7180392025314
20
12.4689350265652
30
0
41
1
10
18.7237196091978
20
12.4737340538482
30
0
41
1
10
18.7376075597255
20
12.480007971607
30
0
41
1
10
18.7431347493482
20
12.4819450840296
30
0
41
1
10
18.75590923702
20
12.485516171258
30
0
41
1
10
18.7631509426881
20
12.4871478004148
30
0
41
1
10
18.7792147205176
20
12.4901029101588
30
0
41
1
10
18.7880426881536
20
12.4914280978056
30
0
41
1
10
18.8072202302932
20
12.4937840649991
30
0
41
1
10
18.8175783227433
20
12.4948153546547
30
0
41
1
10
18.8507619182276
20
12.4974756145614
30
0
41
1
10
18.8756994566212
20
12.4986739887704
30
0
41
1
10
18.9032410953704
20
12.4993458233069
30
0
0
SPLINE
5
135
100
AcDbEntity
8
1
62
256
6
ByLayer
370
18
48
1
60
0
100
AcDbSpline
70
4
71
3
72
41
73
37
40
0
40
0
40
0
40
0
40
0.124999999999977
40
0.124999999999977
40
0.249999999999953
40
0.249999999999953
40
0.312499999999957
40
0.312499999999957
40
0.374999999999961
40
0.374999999999961
40
0.437499999999965
40
0.437499999999965
40
0.499999999999969
40
0.499999999999969
40
0.562499999999973
40
0.562499999999973
40
0.624999999999977
40
0.624999999999977
40
0.656249999999979
40
0.656249999999979
40
0.687499999999981
40
0.718749999999983
40
0.718749999999983
40
0.749999999999984
40
0.749999999999984
40
0.781249999999986
40
0.781249999999986
40
0.812499999999988
40
0.812499999999988
40
0.84374999999999
40
0.84374999999999
40
0.874999999999992
40
0.874999999999992
40
0.937499999999996
40
0.937499999999996
40
1
40
1
40
1
40
1
41
1
10
13.0753701313374
20
-12.4800848161326
30
0
41
1
10
13.0544205012581
20
-12.478733289067
30
0
41
1
10
13.0339857257341
20
-12.4772915924973
30
0
41
1
10
12.9944735111714
20
-12.4741976978082
30
0
41
1
10
12.9753897240474
20
-12.4725460037898
30
0
41
1
10
12.9482008464599
20
-12.4698737214358
30
0
41
1
10
12.9393796081978
20
-12.4689503190088
30
0
41
1
10
12.9223391037014
20
-12.4670281716017
30
0
41
1
10
12.9141072117328
20
-12.4660278272683
30
0
41
1
10
12.8985102392458
20
-12.4639493348218
30
0
41
1
10
12.8911368346357
20
-12.4628708217877
30
0
41
1
10
12.8775220402763
20
-12.4606190984674
30
0
41
1
10
12.8712630459262
20
-12.4594422984263
30
0
41
1
10
12.8604835001067
20
-12.4569997466522
30
0
41
1
10
12.8559367740817
20
-12.4557324471725
30
0
41
1
10
12.8493568876793
20
-12.453079807993
30
0
41
1
10
12.8473219046088
20
-12.4516817086184
30
0
41
1
10
12.847384187504
20
-12.4495526943492
30
0
41
1
10
12.8479195959551
20
-12.4488356857365
30
0
41
1
10
12.8502966139997
20
-12.4473871611625
30
0
41
1
10
12.853924168075
20
-12.4459626945679
30
0
41
1
10
12.8603305467389
20
-12.4446008497622
30
0
41
1
10
12.8683042109356
20
-12.443278611903
30
0
41
1
10
12.8729696375979
20
-12.4426565259796
30
0
41
1
10
12.8834160454724
20
-12.4415064008003
30
0
41
1
10
12.8892518225827
20
-12.4409723989763
30
0
41
1
10
12.9018320207707
20
-12.4399993012426
30
0
41
1
10
12.9084604226723
20
-12.4395677608178
30
0
41
1
10
12.9222534484862
20
-12.4387939250433
30
0
41
1
10
12.9294188704874
20
-12.4384517397955
30
0
41
1
10
12.9441918030893
20
-12.4378423483939
30
0
41
1
10
12.9517597809185
20
-12.4375771500261
30
0
41
1
10
12.9745708011013
20
-12.4368874775734
30
0
41
1
10
12.9900620577416
20
-12.4365612831781
30
0
41
1
10
13.0214210099524
20
-12.4360896358529
30
0
41
1
10
13.0373251225583
20
-12.4359452609988
30
0
41
1
10
13.0532604758677
20
-12.4358689035189
30
0
0
SPLINE
5
136
100
AcDbEntity
8
1
62
256
6
ByLayer
370
18
48
1
60
0
100
AcDbSpline
70
4
71
3
72
54
73
50
40
0
40
0
40
0
40
0
40
0.0624999999999907
40
0.0624999999999907
40
0.124999999999981
40
0.124999999999981
40
0.140624999999981
40
0.140624999999981
40
0.15624999999998
40
0.187499999999979
40
0.187499999999979
40
0.249999999999982
40
0.249999999999982
40
0.265624999999982
40
0.265624999999982
40
0.273437499999985
40
0.273437499999985
40
0.281249999999987
40
0.312499999999987
40
0.343749999999986
40
0.359374999999986
40
0.359374999999986
40
0.374999999999985
40
0.374999999999985
40
0.437499999999985
40
0.437499999999985
40
0.453124999999985
40
0.453124999999985
40
0.468749999999985
40
0.468749999999985
40
0.499999999999986
40
0.499999999999986
40
0.562499999999988
40
0.562499999999988
40
0.593749999999989
40
0.593749999999989
40
0.62499999999999
40
0.62499999999999
40
0.687499999999991
40
0.687499999999991
40
0.749999999999993
40
0.749999999999993
40
0.812499999999995
40
0.812499999999995
40
0.874999999999997
40
0.874999999999997
40
0.937499999999998
40
0.937499999999998
40
1
40
1
40
1
40
1
41
1
10
13.0532604758674
20
-12.4358689035189
30
0
41
1
10
13.1791304384675
20
-12.4352657720449
30
0
41
1
10
13.3043461294608
20
-12.4342009444899
30
0
41
1
10
13.5530818712453
20
-12.4307889232044
30
0
41
1
10
13.6766060579395
20
-12.4284489678947
30
0
41
1
10
13.8295829050185
20
-12.4243111897034
30
0
41
1
10
13.8601410802627
20
-12.4234205839659
30
0
41
1
10
13.9207175381435
20
-12.4215128772013
30
0
41
1
10
14.0108897280116
20
-12.4184582793792
30
0
41
1
10
14.0988692601235
20
-12.4147694644473
30
0
41
1
10
14.2715449622754
20
-12.4063537364904
30
0
41
1
10
14.3823130522934
20
-12.3993872411247
30
0
41
1
10
14.5137784772005
20
-12.3880082242072
30
0
41
1
10
14.5397195803249
20
-12.3855966751904
30
0
41
1
10
14.5780665256885
20
-12.3817498681329
30
0
41
1
10
14.5907423991291
20
-12.3804303392485
30
0
41
1
10
14.6157243659284
20
-12.3777300205941
30
0
41
1
10
14.6773629140895
20
-12.3708152581773
30
0
41
1
10
14.7809462831227
20
-12.3568450389135
30
0
41
1
10
14.8828712774817
20
-12.3382253442067
30
0
41
1
10
14.9380898981214
20
-12.3254667978628
30
0
41
1
10
14.973583924962
20
-12.3165852010676
30
0
41
1
10
14.9905465316664
20
-12.3119870738116
30
0
41
1
10
15.0713542094818
20
-12.2882686443524
30
0
41
1
10
15.1235578745108
20
-12.2668856819488
30
0
41
1
10
15.1761957002401
20
-12.2368756187169
30
0
41
1
10
15.1860922145101
20
-12.2307073109584
30
0
41
1
10
15.204662998933
20
-12.2180453715289
30
0
41
1
10
15.2132838664677
20
-12.2115888817734
30
0
41
1
10
15.2373147234147
20
-12.1918422536833
30
0
41
1
10
15.2508984839512
20
-12.1781749839377
30
0
41
1
10
15.2853977878328
20
-12.1356587111688
30
0
41
1
10
15.3001130955382
20
-12.1052956021562
30
0
41
1
10
15.3126931866438
20
-12.0566916452626
30
0
41
1
10
15.3152895294291
20
-12.0399803510538
30
0
41
1
10
15.3176351679879
20
-12.005531561978
30
0
41
1
10
15.3173767261736
20
-11.9877718441031
30
0
41
1
10
15.3128232030855
20
-11.9334286289582
30
0
41
1
10
15.3048042795925
20
-11.8956358208132
30
0
41
1
10
15.2809785296296
20
-11.8169506050982
30
0
41
1
10
15.2651574314434
20
-11.7760582662536
30
0
41
1
10
15.2270999491334
20
-11.6911988909774
30
0
41
1
10
15.2048562605065
20
-11.6472318734162
30
0
41
1
10
15.1548755783762
20
-11.5562430920697
30
0
41
1
10
15.127134527144
20
-11.5092213284538
30
0
41
1
10
15.0667890710964
20
-11.4121378660525
30
0
41
1
10
15.0341521894621
20
-11.3620355696299
30
0
41
1
10
14.9647984572841
20
-11.2593090909506
30
0
41
1
10
14.9280489935204
20
-11.206631685756
30
0
41
1
10
14.8894040844742
20
-11.1526618044626
30
0
0
SPLINE
5
137
100
AcDbEntity
8
1
62
256
6
ByLayer
370
18
48
1
60
0
100
AcDbSpline
70
4
71
3
72
10
73
6
40
0
40
0
40
0
40
0
40
0.5
40
0.5
40
1
40
1
40
1
40
1
41
1
10
14.8894040844742
20
-11.1526618044626
30
0
41
1
10
14.347240063284
20
-10.9547794718229
30
0
41
1
10
13.8025436498546
20
-10.7388123028524
30
0
41
1
10
12.7000915145777
20
-10.2796109529849
30
0
41
1
10
12.1423264934147
20
-10.0363767655462
30
0
41
1
10
11.5739260670128
20
-9.78520025644963
30
0
0
SPLINE
5
138
100
AcDbEntity
8
1
62
256
6
ByLayer
370
18
48
1
60
0
100
AcDbSpline
70
4
71
3
72
43
73
39
40
0
40
0
40
0
40
0
40
0.125000000000001
40
0.125000000000001
40
0.250000000000002
40
0.250000000000002
40
0.375000000000003
40
0.375000000000003
40
0.406250000000002
40
0.406250000000002
40
0.437500000000001
40
0.437500000000001
40
0.500000000000007
40
0.500000000000007
40
0.562500000000013
40
0.562500000000013
40
0.593750000000013
40
0.593750000000013
40
0.625000000000013
40
0.625000000000013
40
0.687500000000014
40
0.687500000000014
40
0.718750000000015
40
0.718750000000015
40
0.750000000000017
40
0.750000000000017
40
0.81250000000002
40
0.81250000000002
40
0.843750000000022
40
0.859375000000024
40
0.859375000000024
40
0.875000000000025
40
0.875000000000025
40
0.937500000000016
40
0.937500000000016
40
0.968750000000008
40
0.968750000000008
40
1
40
1
40
1
40
1
41
1
10
11.5739260670128
20
-9.78520025644963
30
0
41
1
10
11.457779329161
20
-9.7338749392938
30
0
41
1
10
11.3447406950756
20
-9.67984854083258
30
0
41
1
10
11.1259218881451
20
-9.56534654255782
30
0
41
1
10
11.0201285488273
20
-9.50488276045866
30
0
41
1
10
10.8174989110967
20
-9.37588062288671
30
0
41
1
10
10.7206299395924
20
-9.30737126002856
30
0
41
1
10
10.6070102436032
20
-9.21495694277539
30
0
41
1
10
10.5846645043377
20
-9.19613087928894
30
0
41
1
10
10.5408009816787
20
-9.15772707233691
30
0
41
1
10
10.5193255033204
20
-9.13818399420597
30
0
41
1
10
10.4566558038609
20
-9.07871069798387
30
0
41
1
10
10.417100173529
20
-9.03784522903845
30
0
41
1
10
10.3431947295149
20
-8.95327250871773
30
0
41
1
10
10.3088395719742
20
-8.90956797896035
30
0
41
1
10
10.2620166889778
20
-8.84145171621194
30
0
41
1
10
10.2471677339803
20
-8.8182614028226
30
0
41
1
10
10.2194997492427
20
-8.77141575401086
30
0
41
1
10
10.20664997498
20
-8.74772314881199
30
0
41
1
10
10.1712580621097
20
-8.67578556627532
30
0
41
1
10
10.1518565802461
20
-8.62668456933358
30
0
41
1
10
10.1301120171568
20
-8.5510616905193
30
0
41
1
10
10.1240938600341
20
-8.52552465955478
30
0
41
1
10
10.1147542359772
20
-8.47373578660375
30
0
41
1
10
10.1114307539292
20
-8.4474620270353
30
0
41
1
10
10.1059510321274
20
-8.36760144359948
30
0
41
1
10
10.1083753608647
20
-8.3144520912933
30
0
41
1
10
10.1215212874093
20
-8.23493314962113
30
0
41
1
10
10.1304750819061
20
-8.19522524925662
30
0
41
1
10
10.1431098439842
20
-8.15561074192709
30
0
41
1
10
10.1523661199331
20
-8.12922387141373
30
0
41
1
10
10.1574215625323
20
-8.11602024734293
30
0
41
1
10
10.1845287332375
20
-8.05072370889673
30
0
41
1
10
10.2121954516402
20
-8.00031581866008
30
0
41
1
10
10.2618812129049
20
-7.92728343227029
30
0
41
1
10
10.2798110319606
20
-7.90337026395298
30
0
41
1
10
10.3183139237027
20
-7.85638977697269
30
0
41
1
10
10.338928096863
20
-7.8332863319221
30
0
41
1
10
10.3606269442009
20
-7.81079726522631
30
0
0
SPLINE
5
139
100
AcDbEntity
8
1
62
256
6
ByLayer
370
18
48
1
60
0
100
AcDbSpline
70
4
71
3
72
48
73
44
40
0
40
0
40
0
40
0
40
0.0312499999999991
40
0.0312499999999991
40
0.0624999999999981
40
0.0624999999999981
40
0.0937499999999972
40
0.0937499999999972
40
0.124999999999996
40
0.124999999999996
40
0.156249999999995
40
0.156249999999995
40
0.171874999999995
40
0.171874999999995
40
0.187499999999994
40
0.187499999999994
40
0.249999999999996
40
0.249999999999996
40
0.312499999999997
40
0.312499999999997
40
0.374999999999998
40
0.374999999999998
40
0.406249999999999
40
0.406249999999999
40
0.4375
40
0.4375
40
0.500000000000001
40
0.500000000000001
40
0.562500000000002
40
0.562500000000002
40
0.593750000000003
40
0.593750000000003
40
0.625000000000003
40
0.625000000000003
40
0.75000000000001
40
0.75000000000001
40
0.78125000000001
40
0.78125000000001
40
0.812500000000011
40
0.812500000000011
40
0.875000000000009
40
0.875000000000009
40
1
40
1
40
1
40
1
41
1
10
10.3606269442009
20
-7.81079726522631
30
0
41
1
10
10.4309386735378
20
-7.73792495335056
30
0
41
1
10
10.5052347428492
20
-7.66800689382603
30
0
41
1
10
10.6605119137858
20
-7.5332405274508
30
0
41
1
10
10.7414983068851
20
-7.46839569610211
30
0
41
1
10
10.9092426970706
20
-7.34318291601994
30
0
41
1
10
10.9960037626289
20
-7.28281698499902
30
0
41
1
10
11.1746166917101
20
-7.16612460430966
30
0
41
1
10
11.2664704410076
20
-7.10979939529813
30
0
41
1
10
11.4547496632126
20
-7.00085989114601
30
0
41
1
10
11.5511763491181
20
-6.94824639369836
30
0
41
1
10
11.6989435833343
20
-6.87192244062487
30
0
41
1
10
11.748592208926
20
-6.84698217356211
30
0
41
1
10
11.8483547483563
20
-6.79818670994825
30
0
41
1
10
11.8985125822885
20
-6.77430880775384
30
0
41
1
10
12.1506015528088
20
-6.65738148821802
30
0
41
1
10
12.3564003444229
20
-6.57166525498332
30
0
41
1
10
12.7747170605523
20
-6.41336745205928
30
0
41
1
10
12.9872463315857
20
-6.34080480288037
30
0
41
1
10
13.4181002290384
20
-6.20733033877093
30
0
41
1
10
13.6364303203434
20
-6.14642766027768
30
0
41
1
10
13.9678307945243
20
-6.06312702455486
30
0
41
1
10
14.0789507012089
20
-6.03670611807368
30
0
41
1
10
14.3024440942586
20
-5.98647804086266
30
0
41
1
10
14.4144993732159
20
-5.96274276615713
30
0
41
1
10
14.7513674448197
20
-5.89554359027528
30
0
41
1
10
14.9769607768381
20
-5.85605917709125
30
0
41
1
10
15.4300233332093
20
-5.78707356836026
30
0
41
1
10
15.6574932190628
20
-5.75757536095634
30
0
41
1
10
16.0000348463541
20
-5.72052857589614
30
0
41
1
10
16.11443858249
20
-5.70938146815831
30
0
41
1
10
16.3436847765712
20
-5.68946063794391
30
0
41
1
10
16.4585914102955
20
-5.6806830089686
30
0
41
1
10
17.03335992886
20
-5.64273135288846
30
0
41
1
10
17.4934129988902
20
-5.63129744187648
30
0
41
1
10
18.068763714933
20
-5.63970484683568
30
0
41
1
10
18.1838481498531
20
-5.64252573098292
30
0
41
1
10
18.4140455311082
20
-5.65043793416467
30
0
41
1
10
18.5292048937707
20
-5.65553190684562
30
0
41
1
10
18.8743926861899
20
-5.67419516163883
30
0
41
1
10
19.1038874343849
20
-5.69112685723283
30
0
41
1
10
19.7904977836263
20
-5.75517099715381
30
0
41
1
10
20.2457429100956
20
-5.81552509901061
30
0
41
1
10
20.6984824732131
20
-5.89315854030852
30
0
0
SPLINE
5
13A
100
AcDbEntity
8
1
62
256
6
ByLayer
370
18
48
1
60
0
100
AcDbSpline
70
4
71
3
72
8
73
4
40
0
40
0
40
0
40
0
40
1
40
1
40
1
40
1
41
1
10
18.6616741956604
20
12.4558401662632
30
0
41
1
10
18.6790937911383
20
12.4585520896562
30
0
41
1
10
18.6973400641916
20
12.4610995960193
30
0
41
1
10
18.716373420414
20
12.4634950626431
30
0
0
SPLINE
5
13B
100
AcDbEntity
8
1
62
256
6
ByLayer
370
18
48
1
60
0
100
AcDbSpline
70
4
71
3
72
8
73
4
40
0
40
0
40
0
40
0
40
1
40
1
40
1
40
1
41
1
10
96.7975647473962
20
-6.38179702041575
30
0
41
1
10
96.8650246867248
20
-6.38502096388527
30
0
41
1
10
96.9325031509218
20
-6.38836262194621
30
0
41
1
10
97
20
-6.3918210873461
30
0
0
SPLINE
5
13C
100
AcDbEntity
8
1
62
256
6
ByLayer
370
18
48
1
60
0
100
AcDbSpline
70
4
71
3
72
68
73
64
40
0
40
0
40
0
40
0
40
0.0212656610347546
40
0.0452285892200385
40
0.0691915174053225
40
0.0931544455906064
40
0.11711737377589
40
0.141080301961174
40
0.153061766053816
40
0.165043230146458
40
0.189006158331742
40
0.200987622424384
40
0.212969086517026
40
0.23693201470231
40
0.248913478794952
40
0.260894942887594
40
0.284857871072878
40
0.29683933516552
40
0.308820799258162
40
0.332783727443446
40
0.344765191536088
40
0.35674665562873
40
0.380709583814014
40
0.392691047906655
40
0.404672511999298
40
0.416653976091939
40
0.428635440184582
40
0.440616904277223
40
0.452598368369866
40
0.464579832462507
40
0.476561296555149
40
0.488542760647791
40
0.500524224740433
40
0.512505688833075
40
0.524487152925717
40
0.536468617018359
40
0.548450081111001
40
0.572413009296285
40
0.596375937481569
40
0.608357401574211
40
0.620338865666853
40
0.644301793852137
40
0.656283257944779
40
0.668264722037421
40
0.692227650222705
40
0.704209114315347
40
0.716190578407989
40
0.740153506593273
40
0.752134970685915
40
0.764116434778557
40
0.788079362963841
40
0.800060827056483
40
0.812042291149124
40
0.836005219334408
40
0.84798668342705
40
0.859968147519692
40
0.883931075704976
40
0.90789400389026
40
0.931856932075544
40
0.943838396168186
40
0.955819860260828
40
0.979782788446112
40
1
40
1
40
1
40
1
41
1
10
18.7214913204467
20
12.4616134200897
30
0
41
1
10
19.1562679549869
20
12.4399552378575
30
0
41
1
10
20.0802902134915
20
12.3736673318582
30
0
41
1
10
21.4925238952742
20
12.2071528265851
30
0
41
1
10
22.9593853302407
20
11.9633114619191
30
0
41
1
10
24.4268509991935
20
11.6497394784308
30
0
41
1
10
25.8960864063385
20
11.2680231658445
30
0
41
1
10
27.122199213364
20
10.8947494883993
30
0
41
1
10
28.1040286441895
20
10.5642172605422
30
0
41
1
10
29.0864651372659
20
10.2127973571345
30
0
41
1
10
30.069783906602
20
9.83083557537088
30
0
41
1
10
31.0539268024251
20
9.41995508874211
30
0
41
1
10
32.0385943099793
20
8.99035237562777
30
0
41
1
10
33.0240178542783
20
8.53364093503134
30
0
41
1
10
34.0101441961266
20
8.05175454474568
30
0
41
1
10
34.9966767854851
20
7.55377995795263
30
0
41
1
10
35.9836569375962
20
7.0329066349413
30
0
41
1
10
36.9707777072057
20
6.49154103365134
30
0
41
1
10
37.957881496695
20
5.93735600250426
30
0
41
1
10
38.9448035181461
20
5.36532431138411
30
0
41
1
10
39.9312060610675
20
4.77817083005181
30
0
41
1
10
40.9172303707748
20
4.18182158495446
30
0
41
1
10
41.9027100657829
20
3.57303389186424
30
0
41
1
10
42.8876661459754
20
2.95449804046586
30
0
41
1
10
43.6261245960026
20
2.48640578381108
30
0
41
1
10
44.364326952203
20
2.01481878909044
30
0
41
1
10
45.1022803559132
20
1.54043340581575
30
0
41
1
10
45.8399863795867
20
1.06395419663616
30
0
41
1
10
46.5774475120448
20
0.586050274254774
30
0
41
1
10
47.3146617432079
20
0.107451915447882
30
0
41
1
10
48.0516331493905
20
-0.37113902837487
30
0
41
1
10
48.7883590159319
20
-0.849024585226715
30
0
41
1
10
49.5248450423914
20
-1.32551391070314
30
0
41
1
10
50.2610892529431
20
-1.79992836188117
30
0
41
1
10
50.9970985489413
20
-2.27152830267733
30
0
41
1
10
51.7328727316623
20
-2.73966634375938
30
0
41
1
10
52.7136350426163
20
-3.35835827493679
30
0
41
1
10
53.9391510929742
20
-4.11976947360347
30
0
41
1
10
55.1642869478922
20
-4.86087968088421
30
0
41
1
10
56.1442763012777
20
-5.43910204245947
30
0
41
1
10
57.1242212792332
20
-6.0067495835967
30
0
41
1
10
58.1041595367815
20
-6.55726906223452
30
0
41
1
10
59.0841778143689
20
-7.08832452774084
30
0
41
1
10
60.0642778264004
20
-7.605663718355
30
0
41
1
10
61.0445416568026
20
-8.1012474426982
30
0
41
1
10
62.024998722329
20
-8.57294517750813
30
0
41
1
10
63.0055934519359
20
-9.02804872309892
30
0
41
1
10
63.9864165814787
20
-9.45718797440469
30
0
41
1
10
64.9674977047374
20
-9.85851606091683
30
0
41
1
10
65.9487616726619
20
-10.2407259777094
30
0
41
1
10
66.9302999427586
20
-10.5933259838797
30
0
41
1
10
67.912060067058
20
-10.9147924468889
30
0
41
1
10
68.8939505705449
20
-11.2150259952778
30
0
41
1
10
69.8760145499223
20
-11.4826512640458
30
0
41
1
10
70.8581975433626
20
-11.7165203705855
30
0
41
1
10
71.8404383635226
20
-11.927516010532
30
0
41
1
10
73.0683269148524
20
-12.1477282216084
30
0
41
1
10
74.5418586697854
20
-12.3409494110894
30
0
41
1
10
75.7697513006625
20
-12.4417175847457
30
0
41
1
10
76.7519305073656
20
-12.4858590431473
30
0
41
1
10
77.733975436333
20
-12.5055790214156
30
0
41
1
10
78.884792312931
20
-12.485661831845
30
0
41
1
10
79.7906608361427
20
-12.4286306199532
30
0
41
1
10
80.2054091458849
20
-12.3939001874864
30
0
0
SPLINE
5
13D
100
AcDbEntity
8
1
62
256
6
ByLayer
370
18
48
1
60
0
100
AcDbSpline
70
4
71
3
72
9
73
5
40
0
40
0
40
0
40
0
40
0.499791517128196
40
1
40
1
40
1
40
1
41
1
10
18.6616645111195
20
12.455838475961
30
0
41
1
10
18.67162150798
20
12.456757898878
30
0
41
1
10
18.6915438086181
20
12.4585975117675
30
0
41
1
10
18.7115060419837
20
12.4606078379032
30
0
41
1
10
18.7214913204503
20
12.4616134200896
30
0
0
SPLINE
5
13E
100
AcDbEntity
8
1
62
256
6
ByLayer
370
18
48
1
60
0
100
AcDbSpline
70
4
71
3
72
14
73
10
40
0
40
0
40
0
40
0
40
0.25
40
0.25
40
0.5
40
0.5
40
0.75
40
0.75
40
1
40
1
40
1
40
1
41
1
10
18.6616545772268
20
12.4558375725387
30
0
41
1
10
18.9392350899649
20
12.4406410565856
30
0
41
1
10
19.2168869334703
20
12.4215529649365
30
0
41
1
10
19.7725704620702
20
12.3757080705092
30
0
41
1
10
20.0506041835341
20
12.3489538602515
30
0
41
1
10
20.607091206902
20
12.2878500323353
30
0
41
1
10
20.885541297423
20
12.253502052712
30
0
41
1
10
21.4426653782362
20
12.1771583663994
30
0
41
1
10
21.7212933689982
20
12.135145230814
30
0
41
1
10
22
20
12.0892561760921
30
0
0
SPLINE
5
13F
100
AcDbEntity
8
1
62
256
6
ByLayer
370
18
48
1
60
0
100
AcDbSpline
70
4
71
1
72
4
73
2
40
0
40
0
40
1
40
1
41
1
10
21.9999995976546
20
12.0892561804742
30
0
41
1
10
22.0000004023455
20
12.0881437751876
30
0
0
SPLINE
5
140
100
AcDbEntity
8
1
62
256
6
ByLayer
370
18
48
1
60
0
100
AcDbSpline
70
4
71
3
72
8
73
4
40
0
40
0
40
0
40
0
40
1
40
1
40
1
40
1
41
1
10
96.5968243950205
20
-6.36445777179608
30
0
41
1
10
96.663735967372
20
-6.37012634279304
30
0
41
1
10
96.7306494187089
20
-6.37590613831387
30
0
41
1
10
96.7975647467858
20
-6.38179702543621
30
0
0
SPLINE
5
141
100
AcDbEntity
8
1
62
256
6
ByLayer
370
18
48
1
60
0
100
AcDbSpline
70
4
71
3
72
37
73
33
40
0
40
0
40
0
40
0
40
0.0090904037144763
40
0.0524082029500287
40
0.074067102567805
40
0.0957260021855809
40
0.139043801421133
40
0.16070270103891
40
0.182361600656686
40
0.225679399892238
40
0.247338299510014
40
0.268997199127791
40
0.290656098745567
40
0.312314998363343
40
0.333973897981119
40
0.355632797598896
40
0.398950596834448
40
0.420609496452224
40
0.44226839607
40
0.485586195305553
40
0.572221793776658
40
0.61553959301221
40
0.658857392247762
40
0.702175191483315
40
0.745492990718867
40
0.78881078995442
40
0.832128589189972
40
0.853787488807748
40
0.875446388425524
40
0.918764187661077
40
0.962081986896629
40
1
40
1
40
1
40
1
41
1
10
62.3703734311824
20
12.4923101684247
30
0
41
1
10
62.4726258074694
20
12.4899039378876
30
0
41
1
10
63.0621847906325
20
12.4719229096858
30
0
41
1
10
63.8958271005032
20
12.4129831758458
30
0
41
1
10
64.8716422540307
20
12.295821561412
30
0
41
1
10
65.8479633538738
20
12.1466969691124
30
0
41
1
10
66.825043944278
20
11.9498292038073
30
0
41
1
10
67.8026764693053
20
11.706461295776
30
0
41
1
10
68.7806090600819
20
11.4325417513042
30
0
41
1
10
69.7589060242825
20
11.113429353875
30
0
41
1
10
70.7373718220569
20
10.7511740244402
30
0
41
1
10
71.4712589086398
20
10.4584169441839
30
0
41
1
10
72.2051240463456
20
10.145172091851
30
0
41
1
10
72.9389053034762
20
9.81210674144981
30
0
41
1
10
73.6725280739996
20
9.4599730220238
30
0
41
1
10
74.6503921045075
20
8.96595543688471
30
0
41
1
10
75.6276828200777
20
8.43666103966996
30
0
41
1
10
76.604150235749
20
7.87552249686809
30
0
41
1
10
77.5799373334837
20
7.29430917771987
30
0
41
1
10
79.28634557066
20
6.22710489784652
30
0
41
1
10
81.2378149955464
20
4.90524393102453
30
0
41
1
10
83.1985066643244
20
3.50556649002917
30
0
41
1
10
84.6756314525874
20
2.42324493048974
30
0
41
1
10
86.1614438671657
20
1.3152060009977
30
0
41
1
10
87.6580750253794
20
0.188488884670733
30
0
41
1
10
89.1677508777867
20
-0.949629266845534
30
0
41
1
10
90.4385684320493
20
-1.90105039281326
30
0
41
1
10
91.4640508042934
20
-2.65985484833374
30
0
41
1
10
92.4957886367342
20
-3.41571216187253
30
0
41
1
10
93.7980707870218
20
-4.35195574256485
30
0
41
1
10
95.3178898137863
20
-5.40647276397954
30
0
41
1
10
96.3242371534195
20
-6.07500504741222
30
0
41
1
10
96.7975647480067
20
-6.38179701540267
30
0
0
SPLINE
5
142
100
AcDbEntity
8
1
62
256
6
ByLayer
370
18
48
1
60
0
100
AcDbSpline
70
4
71
3
72
94
73
90
40
0
40
0
40
0
40
0
40
0.0235737190655269
40
0.0235737190655269
40
0.0351978414576052
40
0.0351978414576052
40
0.0410099026536443
40
0.0410099026536443
40
0.0468219638496834
40
0.0468219638496834
40
0.0700702086338386
40
0.0700702086338386
40
0.116566698202148
40
0.116566698202148
40
0.128190820594226
40
0.128190820594226
40
0.134002881790265
40
0.134002881790265
40
0.139814942986304
40
0.163063187770458
40
0.163063187770458
40
0.209559677338768
40
0.209559677338768
40
0.221183799730846
40
0.221183799730846
40
0.226995860926884
40
0.226995860926884
40
0.232807922122923
40
0.256056166907077
40
0.256056166907077
40
0.302552656475383
40
0.302552656475383
40
0.31417677886746
40
0.31417677886746
40
0.325800901259536
40
0.325800901259536
40
0.34904914604369
40
0.34904914604369
40
0.395545635611997
40
0.395545635611997
40
0.401357696808035
40
0.401357696808035
40
0.407169758004074
40
0.407169758004074
40
0.41879388039615
40
0.442042125180303
40
0.442042125180303
40
0.488538614748609
40
0.488538614748609
40
0.494350675944648
40
0.494350675944648
40
0.500162737140686
40
0.500162737140686
40
0.511786859532763
40
0.535035104316916
40
0.535035104316916
40
0.581531593885224
40
0.581531593885224
40
0.593155716277301
40
0.593155716277301
40
0.604779838669377
40
0.628028083453531
40
0.628028083453531
40
0.674524573021838
40
0.674524573021838
40
0.686148695413915
40
0.686148695413915
40
0.697772817805991
40
0.721021062590144
40
0.721021062590144
40
0.767517552158451
40
0.767517552158451
40
0.773329613354489
40
0.773329613354489
40
0.779141674550528
40
0.790765796942605
40
0.814014041726758
40
0.814014041726758
40
0.860510531295063
40
0.860510531295063
40
0.866322592491102
40
0.866322592491102
40
0.872134653687141
40
0.883758776079219
40
0.907007020863375
40
0.907007020863375
40
0.953503510431688
40
0.953503510431688
40
1
40
1
40
1
40
1
41
1
10
46.4706650593023
20
7.60510984454825
30
0
41
1
10
46.8642752349652
20
7.84058231716355
30
0
41
1
10
47.2580065400181
20
8.06966090772389
30
0
41
1
10
47.8466245487932
20
8.40154451597471
30
0
41
1
10
48.0411368545325
20
8.50949066247438
30
0
41
1
10
48.3331491137193
20
8.66885947635359
30
0
41
1
10
48.4305546942345
20
8.72157162898827
30
0
41
1
10
48.6253111928329
20
8.82605416025871
30
0
41
1
10
48.7226496846699
20
8.87781827061522
30
0
41
1
10
49.2091693419127
20
9.13423529660199
30
0
41
1
10
49.597834256818
20
9.3316906968555
30
0
41
1
10
50.7631069989272
20
9.90035307877704
30
0
41
1
10
51.5389552358475
20
10.2477740102156
30
0
41
1
10
52.5109391416635
20
10.6396689585044
30
0
41
1
10
52.7054458204193
20
10.7159273504036
30
0
41
1
10
52.997439735834
20
10.8270689339951
30
0
41
1
10
53.0948286970499
20
10.8635816202242
30
0
41
1
10
53.2894773523627
20
10.9354331834402
30
0
41
1
10
53.7758944798248
20
11.1121758938793
30
0
41
1
10
54.261437086537
20
11.274398445461
30
0
41
1
10
55.4261691311207
20
11.6354051164529
30
0
41
1
10
56.2019011827503
20
11.8383703370656
30
0
41
1
10
57.1742103454123
20
12.0430467611393
30
0
41
1
10
57.3688038440359
20
12.0815287147444
30
0
41
1
10
57.6609553970208
20
12.1355401015593
30
0
41
1
10
57.758356875799
20
12.1529200916917
30
0
41
1
10
57.9530372860793
20
12.1864016667243
30
0
41
1
10
58.43955341214
20
12.2669314509773
30
0
41
1
10
58.9252804072513
20
12.3316018682555
30
0
41
1
10
60.0904418950607
20
12.4562943559154
30
0
41
1
10
60.8663885659441
20
12.498709985742
30
0
41
1
10
61.8386997498496
20
12.5002823645865
30
0
41
1
10
62.033301511592
20
12.4980209026403
30
0
41
1
10
62.4227614555357
20
12.4883202668969
30
0
41
1
10
62.6173153173232
20
12.4808886814579
30
0
41
1
10
63.2005885481759
20
12.450882004234
30
0
41
1
10
63.5889197570245
20
12.4206057115635
30
0
41
1
10
64.7534656783288
20
12.299317530414
30
0
41
1
10
65.5292419801528
20
12.1778374171657
30
0
41
1
10
66.4045761148997
20
11.9961117760488
30
0
41
1
10
66.5018710903527
20
11.9752946551135
30
0
41
1
10
66.6965431420692
20
11.9324116585382
30
0
41
1
10
66.7939487254369
20
11.9103390330234
30
0
41
1
10
67.086054099227
20
11.842309047893
30
0
41
1
10
67.669795542932
20
11.6990120378329
30
0
41
1
10
68.2524983589691
20
11.5342604904905
30
0
41
1
10
69.4174965371516
20
11.1767208554348
30
0
41
1
10
70.1935897304045
20
10.9010701788357
30
0
41
1
10
71.0690016181954
20
10.5504788419584
30
0
41
1
10
71.1663024737757
20
10.5109617477043
30
0
41
1
10
71.3609813177633
20
10.430808369928
30
0
41
1
10
71.4583715463347
20
10.3901665715776
30
0
41
1
10
71.7503372966903
20
10.2667155600474
30
0
41
1
10
72.3337718260293
20
10.0135797556788
30
0
41
1
10
72.9161362000298
20
9.74214804794326
30
0
41
1
10
74.0805620209615
20
9.17595324075344
30
0
41
1
10
74.8564705697183
20
8.76733816524526
30
0
41
1
10
75.8294754671083
20
8.22079688962276
30
0
41
1
10
76.0243371495544
20
8.10963604118268
30
0
41
1
10
76.4136638267001
20
7.88426367694791
30
0
41
1
10
76.9972198287074
20
7.54154213961024
30
0
41
1
10
77.5798575462228
20
7.18526900764243
30
0
41
1
10
78.74483692174
20
6.45575017809691
30
0
41
1
10
79.5210259463396
20
5.94673281074472
30
0
41
1
10
80.4940819597272
20
5.28582541457243
30
0
41
1
10
80.6888993151125
20
5.15236819387039
30
0
41
1
10
81.0780238342149
20
4.88370572649072
30
0
41
1
10
81.6612505145303
20
4.47788514384106
30
0
41
1
10
82.2435160984641
20
4.06411527744962
30
0
41
1
10
83.4078789166438
20
3.22740582221638
30
0
41
1
10
84.1839076996305
20
2.65738948368968
30
0
41
1
10
85.0599493950831
20
2.00652145778179
30
0
41
1
10
85.1573569450259
20
1.93404825786735
30
0
41
1
10
85.352079791434
20
1.78898722904907
30
0
41
1
10
85.6440484440163
20
1.57120692481888
30
0
41
1
10
86.3246127964395
20
1.06188298012037
30
0
41
1
10
86.9071433344501
20
0.623824362368879
30
0
41
1
10
88.072067193019
20
-0.253029590903196
30
0
41
1
10
88.8484400997175
20
-0.83866085223471
30
0
41
1
10
89.7246336351968
20
-1.49463733462667
30
0
41
1
10
89.8220312630862
20
-1.5674859469494
30
0
41
1
10
90.0166213293239
20
-1.71286742770971
30
0
41
1
10
90.3083089705066
20
-1.93054869735596
30
0
41
1
10
90.9876522845709
20
-2.43558764466869
30
0
41
1
10
91.568199815634
20
-2.86302966340412
30
0
41
1
10
92.7280551790109
20
-3.70931806085403
30
0
41
1
10
93.499648564657
20
-4.26204327405841
30
0
41
1
10
95.04516734018
20
-5.33748206575348
30
0
41
1
10
95.8191020185453
20
-5.86017916449961
30
0
41
1
10
96.5968243950213
20
-6.36445777179006
30
0
0
SPLINE
5
143
100
AcDbEntity
8
SK1
62
256
6
ByLayer
370
18
48
1
60
0
100
AcDbSpline
70
4
71
3
72
14
73
10
40
0
40
0
40
0
40
0
40
0.125
40
0.125
40
0.25
40
0.25
40
0.5
40
0.5
40
1
40
1
40
1
40
1
41
1
10
-55
20
10.5000000000002
30
0
41
1
10
-55.0461557170484
20
10.5000000000002
30
0
41
1
10
-55.091865025733
20
10.5000000000002
30
0
41
1
10
-55.1823401362854
20
10.5000000000002
30
0
41
1
10
-55.2271265263376
20
10.5000000000002
30
0
41
1
10
-55.3597647727655
20
10.5000000000002
30
0
41
1
10
-55.4459345770991
20
10.5000000000002
30
0
41
1
10
-55.6970038587679
20
10.5000000000002
30
0
41
1
10
-55.854487966443
20
10.5000000000002
30
0
41
1
10
-56
20
10.5000000000002
30
0
0
SPLINE
5
144
100
AcDbEntity
8
1
62
256
6
ByLayer
370
18
48
1
60
0
100
AcDbSpline
70
4
71
2
72
6
73
3
40
0
40
0
40
0
40
1
40
1
40
1
41
1
10
89.0940435590252
20
6.79119509764561
30
0
41
1
10
88.8457936124887
20
6.88375865053962
30
0
41
1
10
88.597386967141
20
6.97933129338332
30
0
0
SPLINE
5
145
100
AcDbEntity
8
1
62
256
6
ByLayer
370
18
48
1
60
0
100
AcDbSpline
70
4
71
3
72
28
73
24
40
0
40
0
40
0
40
0
40
0.0627961556412198
40
0.114474903834059
40
0.155193771208586
40
0.1854447429168
40
0.21097987801225
40
0.241839781090252
40
0.271324496892501
40
0.311453259286832
40
0.363899887150526
40
0.396437720578104
40
0.426463045301676
40
0.465300353467201
40
0.505444388422178
40
0.587242702723367
40
0.669812118770151
40
0.754613092375218
40
0.79478730224818
40
0.835395750441819
40
0.881408419655512
40
0.935969277212655
40
1
40
1
40
1
40
1
41
1
10
59.1435782417229
20
4.84487073679091
30
0
41
1
10
58.8625704344267
20
4.89801744668605
30
0
41
1
10
58.3467537245999
20
4.99691955745976
30
0
41
1
10
57.6405257841318
20
5.13530839404746
30
0
41
1
10
57.0742008613342
20
5.24881726657478
30
0
41
1
10
56.6224410853341
20
5.34207002018621
30
0
41
1
10
56.2185265622652
20
5.42591426237715
30
0
41
1
10
55.8171281099508
20
5.50939090666284
30
0
41
1
10
55.35164959723
20
5.60705863119207
30
0
41
1
10
54.7864376938452
20
5.72689192958953
30
0
41
1
10
54.2072217858855
20
5.85130185634054
30
0
41
1
10
53.674765710036
20
5.96690599311142
30
0
41
1
10
53.2049557289364
20
6.0696622849176
30
0
41
1
10
52.6998449811544
20
6.18096221183805
30
0
41
1
10
51.9555475497603
20
6.34624139884065
30
0
41
1
10
51.0140161116641
20
6.55727366497732
30
0
41
1
10
49.8549154587456
20
6.82087948683196
30
0
41
1
10
48.8905043944358
20
7.04201566378569
30
0
41
1
10
48.1248660672064
20
7.21653244137332
30
0
41
1
10
47.5444041798673
20
7.3461292299564
30
0
41
1
10
46.8838236973317
20
7.49749981168918
30
0
41
1
10
46.1290266774469
20
7.67628539759363
30
0
41
1
10
45.5982664315983
20
7.80002972223085
30
0
41
1
10
45.3154992579238
20
7.86601105592356
30
0
0
SPLINE
5
146
100
AcDbEntity
8
1
62
256
6
ByLayer
370
18
48
1
60
0
100
AcDbSpline
70
4
71
3
72
18
73
14
40
0
40
0
40
0
40
0
40
0.150085913996692
40
0.261708032283038
40
0.33770112678687
40
0.411595976883737
40
0.493926741723815
40
0.596685924454831
40
0.68126462804332
40
0.729132989670263
40
0.798226554561469
40
0.888537944477447
40
1
40
1
40
1
40
1
41
1
10
26.5419975821848
20
1.495887756473
30
0
41
1
10
26.3362232244894
20
1.56917132304989
30
0
41
1
10
25.9749387701283
20
1.70169231890304
30
0
41
1
10
25.5057538321126
20
1.88221147596485
30
0
41
1
10
25.1359961990904
20
2.02939559530222
30
0
41
1
10
24.8029809380888
20
2.16545882146488
30
0
41
1
10
24.4291453587656
20
2.322144879658
30
0
41
1
10
24.0382380999434
20
2.49080164605306
30
0
41
1
10
23.7241614295101
20
2.63114319763864
30
0
41
1
10
23.466409469877
20
2.74822214790348
30
0
41
1
10
23.1887721134322
20
2.87604904257873
30
0
41
1
10
22.8240120940192
20
3.04763629899233
30
0
41
1
10
22.5496219144049
20
3.18021377072063
30
0
41
1
10
22.3973091249252
20
3.25485847144563
30
0
0
SPLINE
5
147
100
AcDbEntity
8
1
62
256
6
ByLayer
370
18
48
1
60
0
100
AcDbSpline
70
4
71
3
72
30
73
26
40
0
40
0
40
0
40
0
40
0.0376370061608823
40
0.0777542411659499
40
0.126616378504249
40
0.180500744508106
40
0.233857905684155
40
0.280430503656352
40
0.320234019388516
40
0.353290720402527
40
0.384602234757381
40
0.423642698665693
40
0.467386466343777
40
0.514697199896808
40
0.565396403739742
40
0.615794444747557
40
0.652803411620651
40
0.681350389281673
40
0.716402736409406
40
0.760987300002873
40
0.805475482785057
40
0.847570694462655
40
0.887669206131829
40
0.961854551849165
40
1
40
1
40
1
40
1
41
1
10
47.8223502541333
20
-10.9886918299821
30
0
41
1
10
48.019003610638
20
-10.9838784947239
30
0
41
1
10
48.4237887055311
20
-10.9718250925047
30
0
41
1
10
49.0832908689963
20
-10.9419248468919
30
0
41
1
10
49.807662249013
20
-10.9069712733346
30
0
41
1
10
50.5635701373072
20
-10.8680988756667
30
0
41
1
10
51.2928407077695
20
-10.8211880367813
30
0
41
1
10
51.96356560928
20
-10.7676928863274
30
0
41
1
10
52.5400975521329
20
-10.714945117912
30
0
41
1
10
53.0472256425888
20
-10.6637661335397
30
0
41
1
10
53.5592172782459
20
-10.6083442240096
30
0
41
1
10
54.1323062956599
20
-10.5420341090509
30
0
41
1
10
54.7915664726001
20
-10.4596342609884
30
0
41
1
10
55.5057138241361
20
-10.3627364375192
30
0
41
1
10
56.2506157536916
20
-10.2536353725174
30
0
41
1
10
56.9418669891388
20
-10.1448554351323
30
0
41
1
10
57.526780245969
20
-10.0474936256673
30
0
41
1
10
58.0411146359171
20
-9.95770554069435
30
0
41
1
10
58.5853773362996
20
-9.85951408260925
30
0
41
1
10
59.2018753984331
20
-9.74418283408943
30
0
41
1
10
59.853310992055
20
-9.61686743972547
30
0
41
1
10
60.4815270981296
20
-9.48919623855963
30
0
41
1
10
61.2562471714679
20
-9.32595407025639
30
0
41
1
10
62.0053547441345
20
-9.16036086457734
30
0
41
1
10
62.5486895053059
20
-9.03334693721095
30
0
41
1
10
62.7332212012263
20
-8.98952583629412
30
0
0
SPLINE
5
148
100
AcDbEntity
8
1
62
256
6
ByLayer
370
18
48
1
60
0
100
AcDbSpline
70
4
71
3
72
27
73
23
40
0
40
0
40
0
40
0
40
0.0430877038560488
40
0.0902989488386438
40
0.142667271871879
40
0.202402604295603
40
0.260571373470524
40
0.311071327739795
40
0.353896647116572
40
0.389249573413255
40
0.422540136948666
40
0.456233969240643
40
0.494881637333884
40
0.538918151510002
40
0.582322596739218
40
0.623664984903077
40
0.668753291501534
40
0.725233915082942
40
0.811347541245714
40
0.893292845247126
40
0.968357431477059
40
1
40
1
40
1
40
1
41
1
10
46.6525142192447
20
7.53957241721741
30
0
41
1
10
46.4594712344393
20
7.58750990524498
30
0
41
1
10
46.0460914670065
20
7.68944793508405
30
0
41
1
10
45.3452549134419
20
7.8551834746433
30
0
41
1
10
44.5702945870033
20
8.0467593641051
30
0
41
1
10
43.7668926474187
20
8.25076543459778
30
0
41
1
10
42.9798208277061
20
8.44442684385092
30
0
41
1
10
42.2676276314379
20
8.61287763103343
30
0
41
1
10
41.6606822855008
20
8.75192630082228
30
0
41
1
10
41.1320659154064
20
8.86983168265192
30
0
41
1
10
40.6416655449109
20
8.97684765734979
30
0
41
1
10
40.1303882711895
20
9.08625493910921
30
0
41
1
10
39.5661358633513
20
9.20426903080482
30
0
41
1
10
38.9569120967388
20
9.32825436646939
30
0
41
1
10
38.3344679642305
20
9.45113589969324
30
0
41
1
10
37.7071398339111
20
9.57114527977768
30
0
41
1
10
37.0166459909801
20
9.69878678700533
30
0
41
1
10
36.1096206434609
20
9.85931778764217
30
0
41
1
10
35.0245969675691
20
10.0386405746566
30
0
41
1
10
33.8467355936327
20
10.2163391199633
30
0
41
1
10
32.9333673638033
20
10.341573182676
30
0
41
1
10
32.4168853917357
20
10.4074057637212
30
0
41
1
10
32.2637852677957
20
10.4264757120568
30
0
0
SPLINE
5
149
100
AcDbEntity
8
1
62
256
6
ByLayer
370
18
48
1
60
0
100
AcDbSpline
70
4
71
3
72
23
73
19
40
0
40
0
40
0
40
0
40
0.0881825974268058
40
0.164022972236188
40
0.23469360509125
40
0.310762073842502
40
0.392550032775292
40
0.479048806060719
40
0.560178376436319
40
0.64508006769136
40
0.719213826099493
40
0.777707612146938
40
0.795353154750058
40
0.819296626255236
40
0.854900226514444
40
0.902170389853615
40
0.983347640895249
40
1
40
1
40
1
40
1
41
1
10
84.9614141600547
20
-10.9885491266775
30
0
41
1
10
85.2338540342893
20
-10.9826965927609
30
0
41
1
10
85.7375712020047
20
-10.9689133565844
30
0
41
1
10
86.4556826586753
20
-10.9384309100586
30
0
41
1
10
87.1199422355833
20
-10.9085768086401
30
0
41
1
10
87.7937233877085
20
-10.8737176923614
30
0
41
1
10
88.5035139436537
20
-10.8318671739931
30
0
41
1
10
89.2157020188823
20
-10.7831305106384
30
0
41
1
10
89.9409149194894
20
-10.7245273833284
30
0
41
1
10
90.6352330910244
20
-10.6605864597621
30
0
41
1
10
91.2687296658174
20
-10.5958323414401
30
0
41
1
10
91.7125846823586
20
-10.5471308956941
30
0
41
1
10
92.0139158251687
20
-10.5129522802989
30
0
41
1
10
92.2454007707739
20
-10.4860537011975
30
0
41
1
10
92.5641612708434
20
-10.4479077605996
30
0
41
1
10
93.0528686704124
20
-10.3867518993028
30
0
41
1
10
93.4844966080087
20
-10.3310714731773
30
0
41
1
10
93.7751779582832
20
-10.2897631395055
30
0
41
1
10
93.8246476836979
20
-10.2826613403285
30
0
0
SPLINE
5
14A
100
AcDbEntity
8
1
62
256
6
ByLayer
370
18
48
1
60
0
100
AcDbSpline
70
4
71
3
72
22
73
18
40
0
40
0
40
0
40
0
40
0.0494751620229487
40
0.117621195808283
40
0.192785293643841
40
0.253801144644328
40
0.301106208392579
40
0.353870486333679
40
0.412698112177129
40
0.474835207039531
40
0.558855950891242
40
0.638179852442206
40
0.716015191140315
40
0.815118287393207
40
0.904904022853049
40
0.99846073130211
40
1
40
1
40
1
40
1
41
1
10
84.9958102890334
20
8.17972097885789
30
0
41
1
10
84.8255522520186
20
8.22713715129274
30
0
41
1
10
84.4226384388937
20
8.33878501799856
30
0
41
1
10
83.7563279367694
20
8.52078507696208
30
0
41
1
10
83.0887576467744
20
8.7011059680753
30
0
41
1
10
82.4741481430192
20
8.86014706151633
30
0
41
1
10
81.9220071100665
20
8.99982646376378
30
0
41
1
10
81.3794670264419
20
9.13370490248434
30
0
41
1
10
80.787026171173
20
9.2757609162316
30
0
41
1
10
80.0880935760904
20
9.4377773766692
30
0
41
1
10
79.3191415190881
20
9.6083040263527
30
0
41
1
10
78.4964104345607
20
9.78100791153398
30
0
41
1
10
77.6227497241634
20
9.95388803453881
30
0
41
1
10
76.7128753274494
20
10.1211832956569
30
0
41
1
10
75.7492255217699
20
10.2833809914282
30
0
41
1
10
75.1187648421008
20
10.3796195421377
30
0
41
1
10
74.7943430563648
20
10.4264728523353
30
0
41
1
10
74.7890917677313
20
10.4272305487215
30
0
0
SPLINE
5
14B
100
AcDbEntity
8
1
62
256
6
ByLayer
370
18
48
1
60
0
100
AcDbSpline
70
4
71
3
72
18
73
14
40
0
40
0
40
0
40
0
40
0.136515070875586
40
0.246758046318597
40
0.330754360099182
40
0.400420943645927
40
0.467759766487831
40
0.532732071680991
40
0.629042965393223
40
0.731628735351482
40
0.852857754572739
40
0.960862769654929
40
1
40
1
40
1
40
1
41
1
10
22
20
-10.5213744132923
30
0
41
1
10
22.2770911006377
20
-10.4844749333545
30
0
41
1
10
22.7779778285096
20
-10.4143160824343
30
0
41
1
10
23.4495260867651
20
-10.3118640308216
30
0
41
1
10
23.9852724648359
20
-10.2248872948711
30
0
41
1
10
24.4338825505909
20
-10.1485736755886
30
0
41
1
10
24.843923859246
20
-10.0759861630362
30
0
41
1
10
25.3081498374008
20
-9.99077852334113
30
0
41
1
10
25.8436351640505
20
-9.88832035493556
30
0
41
1
10
26.4932367162077
20
-9.75799104938289
30
0
41
1
10
27.1669170092386
20
-9.6160267327451
30
0
41
1
10
27.7116464509322
20
-9.49587113283363
30
0
41
1
10
28.0102384168565
20
-9.42820633069093
30
0
41
1
10
28.0896594731102
20
-9.41008296968926
30
0
0
LINE
5
77
100
AcDbEntity
8
80
62
256
6
ByLayer
370
18
48
1
60
0
100
AcDbLine
10
0
20
0
30
0
11
-5
21
0
31
0
39
0
210
0
220
0
230
1
0
LINE
5
78
100
AcDbEntity
8
4
62
256
6
ByLayer
370
18
48
0.05
60
0
100
AcDbLine
10
0
20
0
30
0
11
97
21
0
31
0
39
0
210
0
220
0
230
1
0
LINE
5
7A
100
AcDbEntity
8
81
62
256
6
ByLayer
370
18
48
1
60
0
100
AcDbLine
10
97
20
0
30
0
11
102
21
0
31
0
39
0
210
0
220
0
230
1
0
LINE
5
7B
100
AcDbEntity
8
SK4
62
256
6
ByLayer
370
18
48
0.05
60
0
100
AcDbLine
10
-56
20
0
30
0
11
97
21
0
31
0
39
0
210
0
220
0
230
1
0
LINE
5
7D
100
AcDbEntity
8
1
62
256
6
ByLayer
370
18
48
1
60
0
100
AcDbLine
10
0
20
12.5
30
0
11
0
21
0
31
0
39
0
210
0
220
0
230
1
0
LINE
5
7E
100
AcDbEntity
8
1
62
256
6
ByLayer
370
18
48
1
60
0
100
AcDbLine
10
0
20
0
30
0
11
0
21
-12.5
31
0
39
0
210
0
220
0
230
1
0
LINE
5
7F
100
AcDbEntity
8
1
62
256
6
ByLayer
370
18
48
1
60
0
100
AcDbLine
10
96.992829
20
-6.39147
30
0
11
96.99993
21
-6.83427
31
0
39
0
210
0
220
0
230
1
0
LINE
5
80
100
AcDbEntity
8
1
62
256
6
ByLayer
370
18
48
1
60
0
100
AcDbLine
10
96.735602
20
-8.024124
30
0
11
96.730283
21
-7.686276
31
0
39
0
210
0
220
0
230
1
0
LINE
5
81
100
AcDbEntity
8
1
62
256
6
ByLayer
370
18
48
1
60
0
100
AcDbLine
10
96.730283
20
-7.686276
30
0
11
96.975494
21
-6.39061
31
0
39
0
210
0
220
0
230
1
0
LINE
5
82
100
AcDbEntity
8
1
62
256
6
ByLayer
370
18
48
1
60
0
100
AcDbLine
10
95.908368
20
-9.17582
30
0
11
96.730283
21
-7.686276
31
0
39
0
210
0
220
0
230
1
0
LINE
5
83
100
AcDbEntity
8
1
62
256
6
ByLayer
370
18
48
1
60
0
100
AcDbLine
10
96.730283
20
-7.686276
30
0
11
96.51278
21
-6.308376
31
0
39
0
210
0
220
0
230
1
0
LINE
5
84
100
AcDbEntity
8
1
62
256
6
ByLayer
370
18
48
1
60
0
100
AcDbLine
10
93.554311
20
-10.270352
30
0
11
94.088583
21
-9.723097
31
0
39
0
210
0
220
0
230
1
0
LINE
5
85
100
AcDbEntity
8
1
62
256
6
ByLayer
370
18
48
1
60
0
100
AcDbLine
10
96.967427
20
11.255567
30
0
11
96.991463
21
11.525671
31
0
39
0
210
0
220
0
230
1
0
LINE
5
86
100
AcDbEntity
8
1
62
256
6
ByLayer
370
18
48
1
60
0
100
AcDbLine
10
96.991463
20
11.525671
30
0
11
96.99993
21
12.47934
31
0
39
0
210
0
220
0
230
1
0
LINE
5
87
100
AcDbEntity
8
1
62
256
6
ByLayer
370
18
48
1
60
0
100
AcDbLine
10
95.483611
20
0.104381
30
0
11
95.967074
21
0.01422
31
0
39
0
210
0
220
0
230
1
0
LINE
5
88
100
AcDbEntity
8
1
62
256
6
ByLayer
370
18
48
1
60
0
100
AcDbLine
10
95.967074
20
0.01422
30
0
11
96.749402
21
8.805545
31
0
39
0
210
0
220
0
230
1
0
LINE
5
89
100
AcDbEntity
8
1
62
256
6
ByLayer
370
18
48
1
60
0
100
AcDbLine
10
94.088583
20
-9.723097
30
0
11
92.510062
21
-10.381685
31
0
39
0
210
0
220
0
230
1
0
LINE
5
8A
100
AcDbEntity
8
1
62
256
6
ByLayer
370
18
48
1
60
0
100
AcDbLine
10
94.088583
20
-9.723097
30
0
11
95.376739
21
-5.73054
31
0
39
0
210
0
220
0
230
1
0
LINE
5
8B
100
AcDbEntity
8
1
62
256
6
ByLayer
370
18
48
1
60
0
100
AcDbLine
10
95.376739
20
-5.73054
30
0
11
95.453954
21
-5.601848
31
0
39
0
210
0
220
0
230
1
0
LINE
5
8C
100
AcDbEntity
8
1
62
256
6
ByLayer
370
18
48
1
60
0
100
AcDbLine
10
89.18002
20
-6.7584
30
0
11
95.376739
21
-5.73054
31
0
39
0
210
0
220
0
230
1
0
LINE
5
8D
100
AcDbEntity
8
1
62
256
6
ByLayer
370
13
48
1
60
0
100
AcDbLine
10
90.469238
20
-2.506361
30
0
11
88.025091
21
-3.764156
31
0
39
0
210
0
220
0
230
1
0
LINE
5
8E
100
AcDbEntity
8
1
62
256
6
ByLayer
370
13
48
1
60
0
100
AcDbLine
10
20.596241
20
12.146925
30
0
11
22
21
11.293443
31
0
39
0
210
0
220
0
230
1
0
LINE
5
8F
100
AcDbEntity
8
1
62
256
6
ByLayer
370
18
48
1
60
0
100
AcDbLine
10
22
20
3.747963
30
0
11
22
21
3.450961
31
0
39
0
210
0
220
0
230
1
0
LINE
5
90
100
AcDbEntity
8
1
62
256
6
ByLayer
370
13
48
1
60
0
100
AcDbLine
10
9.481978
20
11.358889
30
0
11
22
21
3.747963
31
0
39
0
210
0
220
0
230
1
0
LINE
5
91
100
AcDbEntity
8
1
62
256
6
ByLayer
370
18
48
1
60
0
100
AcDbLine
10
22
20
-9.336019
30
0
11
22
21
-7.121507
31
0
39
0
210
0
220
0
230
1
0
LINE
5
92
100
AcDbEntity
8
1
62
256
6
ByLayer
370
18
48
1
60
0
100
AcDbLine
10
22
20
-7.121507
30
0
11
22
21
-6.114655
31
0
39
0
210
0
220
0
230
1
0
LINE
5
93
100
AcDbEntity
8
1
62
256
6
ByLayer
370
18
48
1
60
0
100
AcDbLine
10
96.968131
20
-5.774537
30
0
11
96.991463
21
-5.909117
31
0
39
0
210
0
220
0
230
1
0
LINE
5
94
100
AcDbEntity
8
1
62
256
6
ByLayer
370
18
48
1
60
0
100
AcDbLine
10
96.398226
20
-2.487295
30
0
11
96.745177
21
-4.488528
31
0
39
0
210
0
220
0
230
1
0
LINE
5
95
100
AcDbEntity
8
1
62
256
6
ByLayer
370
18
48
1
60
0
100
AcDbLine
10
96.168473
20
-1.247951
30
0
11
96.398226
21
-2.487295
31
0
39
0
210
0
220
0
230
1
0
LINE
5
96
100
AcDbEntity
8
1
62
256
6
ByLayer
370
18
48
1
60
0
100
AcDbLine
10
22
20
-9.336019
30
0
11
22
21
-10.521374
31
0
39
0
210
0
220
0
230
1
0
LINE
5
97
100
AcDbEntity
8
1
62
256
6
ByLayer
370
18
48
1
60
0
100
AcDbLine
10
96.991463
20
-5.909117
30
0
11
96.99993
21
-6.391815
31
0
39
0
210
0
220
0
230
1
0
LINE
5
98
100
AcDbEntity
8
1
62
256
6
ByLayer
370
18
48
1
60
0
100
AcDbLine
10
96.730283
20
-4.491746
30
0
11
96.991463
21
-5.909117
31
0
39
0
210
0
220
0
230
1
0
LINE
5
99
100
AcDbEntity
8
1
62
256
6
ByLayer
370
18
48
1
60
0
100
AcDbLine
10
96.735655
20
-4.802704
30
0
11
96.730283
21
-4.491746
31
0
39
0
210
0
220
0
230
1
0
LINE
5
9A
100
AcDbEntity
8
1
62
256
6
ByLayer
370
18
48
1
60
0
100
AcDbLine
10
22
20
3.747963
30
0
11
22
21
11.293443
31
0
39
0
210
0
220
0
230
1
0
LINE
5
9B
100
AcDbEntity
8
1
62
256
6
ByLayer
370
18
48
1
60
0
100
AcDbLine
10
95.892988
20
-2.96182
30
0
11
96.730283
21
-4.491746
31
0
39
0
210
0
220
0
230
1
0
LINE
5
9C
100
AcDbEntity
8
1
62
256
6
ByLayer
370
18
48
1
60
0
100
AcDbLine
10
96.730283
20
-4.491746
30
0
11
96.168473
21
-1.247951
31
0
39
0
210
0
220
0
230
1
0
LINE
5
9D
100
AcDbEntity
8
1
62
256
6
ByLayer
370
18
48
1
60
0
100
AcDbLine
10
95.44148
20
0.187613
30
0
11
96.168473
21
-1.247951
31
0
39
0
210
0
220
0
230
1
0
LINE
5
9E
100
AcDbEntity
8
1
62
256
6
ByLayer
370
18
48
1
60
0
100
AcDbLine
10
93.67094
20
2.697537
30
0
11
95.44148
21
0.187613
31
0
39
0
210
0
220
0
230
1
0
LINE
5
9F
100
AcDbEntity
8
1
62
256
6
ByLayer
370
18
48
1
60
0
100
AcDbLine
10
93.278125
20
3.598222
30
0
11
93.67094
21
2.697537
31
0
39
0
210
0
220
0
230
1
0
LINE
5
A0
100
AcDbEntity
8
1
62
256
6
ByLayer
370
18
48
1
60
0
100
AcDbLine
10
22
20
-2.226648
30
0
11
22
21
-1.70817
31
0
39
0
210
0
220
0
230
1
0
LINE
5
A1
100
AcDbEntity
8
1
62
256
6
ByLayer
370
13
48
1
60
0
100
AcDbLine
10
12.325083
20
4.174155
30
0
11
22
21
-1.70817
31
0
39
0
210
0
220
0
230
1
0
LINE
5
A2
100
AcDbEntity
8
1
62
256
6
ByLayer
370
18
48
1
60
0
100
AcDbLine
10
22
20
-1.70817
30
0
11
22
21
3.450976
31
0
39
0
210
0
220
0
230
1
0
LINE
5
A3
100
AcDbEntity
8
1
62
256
6
ByLayer
370
18
48
1
60
0
100
AcDbLine
10
14.316102
20
8.122766
30
0
11
22
21
3.450976
31
0
39
0
210
0
220
0
230
1
0
LINE
5
A4
100
AcDbEntity
8
1
62
256
6
ByLayer
370
13
48
1
60
0
100
AcDbLine
10
12.347507
20
3.642044
30
0
11
22
21
-2.226648
31
0
39
0
210
0
220
0
230
1
0
LINE
5
A5
100
AcDbEntity
8
1
62
256
6
ByLayer
370
18
48
1
60
0
100
AcDbLine
10
22
20
12.088068
30
0
11
22
21
11.293443
31
0
39
0
210
0
220
0
230
1
0
LINE
5
A6
100
AcDbEntity
8
1
62
256
6
ByLayer
370
18
48
1
60
0
100
AcDbLine
10
22
20
-2.226648
30
0
11
22
21
-2.86771
31
0
39
0
210
0
220
0
230
1
0
LINE
5
A7
100
AcDbEntity
8
1
62
256
6
ByLayer
370
18
48
1
60
0
100
AcDbLine
10
22
20
-10.521374
30
0
11
22
21
-10.669422
31
0
39
0
210
0
220
0
230
1
0
LINE
5
A8
100
AcDbEntity
8
1
62
256
6
ByLayer
370
18
48
1
60
0
100
AcDbLine
10
22
20
12.088068
30
0
11
22
21
12.088144
31
0
39
0
210
0
220
0
230
1
0
LINE
5
A9
100
AcDbEntity
8
1
62
256
6
ByLayer
370
13
48
1
60
0
100
AcDbLine
10
13.07537
20
-12.480085
30
0
11
13.260835
21
-12.432702
31
0
39
0
210
0
220
0
230
1
0
LINE
5
AA
100
AcDbEntity
8
1
62
256
6
ByLayer
370
18
48
1
60
0
100
AcDbLine
10
14.889404
20
-11.152662
30
0
11
22
21
-9.336019
31
0
39
0
210
0
220
0
230
1
0
LINE
5
AB
100
AcDbEntity
8
1
62
256
6
ByLayer
370
13
48
1
60
0
100
AcDbLine
10
11.573926
20
-9.7852
30
0
11
22
21
-7.121507
31
0
39
0
210
0
220
0
230
1
0
LINE
5
AC
100
AcDbEntity
8
1
62
256
6
ByLayer
370
13
48
1
60
0
100
AcDbLine
10
10.360627
20
-7.810797
30
0
11
18.735883
21
-5.671055
31
0
39
0
210
0
220
0
230
1
0
LINE
5
AD
100
AcDbEntity
8
SK1
62
256
6
ByLayer
370
18
48
1
60
0
100
AcDbLine
10
0
20
12.5
30
0
11
0
21
0
31
0
39
0
210
0
220
0
230
1
0
LINE
5
AF
100
AcDbEntity
8
SK1
62
256
6
ByLayer
370
18
48
1
60
0
100
AcDbLine
10
0
20
0
30
0
11
0
21
-12.5
31
0
39
0
210
0
220
0
230
1
0
LINE
5
B0
100
AcDbEntity
8
SK1
62
256
6
ByLayer
370
18
48
1
60
0
100
AcDbLine
10
-30
20
10.5
30
0
11
-32
21
12.5
31
0
39
0
210
0
220
0
230
1
0
LINE
5
B1
100
AcDbEntity
8
SK1
62
256
6
ByLayer
370
18
48
1
60
0
100
AcDbLine
10
-16
20
12.5
30
0
11
-18
21
10.5
31
0
39
0
210
0
220
0
230
1
0
LINE
5
B2
100
AcDbEntity
8
SK1
62
256
6
ByLayer
370
18
48
1
60
0
100
AcDbLine
10
-30
20
10.5
30
0
11
-18
21
10.5
31
0
39
0
210
0
220
0
230
1
0
LINE
5
B3
100
AcDbEntity
8
SK1
62
256
6
ByLayer
370
18
48
1
60
0
100
AcDbLine
10
-39
20
10.5
30
0
11
-37
21
12.5
31
0
39
0
210
0
220
0
230
1
0
LINE
5
B4
100
AcDbEntity
8
SK1
62
256
6
ByLayer
370
18
48
1
60
0
100
AcDbLine
10
-55
20
10.5
30
0
11
-39
21
10.5
31
0
39
0
210
0
220
0
230
1
0
LINE
5
B5
100
AcDbEntity
8
SK1
62
256
6
ByLayer
370
18
48
1
60
0
100
AcDbLine
10
-55
20
10.5
30
0
11
-55
21
-12.5
31
0
39
0
210
0
220
0
230
1
0
LINE
5
B6
100
AcDbEntity
8
SK1
62
256
6
ByLayer
370
18
48
1
60
0
100
AcDbLine
10
-56
20
-11.5
30
0
11
-56
21
10.5
31
0
39
0
210
0
220
0
230
1
0
LINE
5
B7
100
AcDbEntity
8
1
62
256
6
ByLayer
370
18
48
1
60
0
100
AcDbLine
10
18.889197
20
12.5
30
0
11
0
21
12.5
31
0
39
0
210
0
220
0
230
1
0
LINE
5
B8
100
AcDbEntity
8
1
62
256
6
ByLayer
370
18
48
1
60
0
100
AcDbLine
10
0
20
-12.5
30
0
11
13.725056
21
-12.5
31
0
39
0
210
0
220
0
230
1
0
LINE
5
B9
100
AcDbEntity
8
1
62
256
6
ByLayer
370
18
48
1
60
0
100
AcDbLine
10
14.962048
20
-12.319458
30
0
11
22.003597
21
-10.520455
31
0
39
0
210
0
220
0
230
1
0
LINE
5
BA
100
AcDbEntity
8
SK1
62
256
6
ByLayer
370
18
48
1
60
0
100
AcDbLine
10
0
20
12.5
30
0
11
-16
21
12.5
31
0
39
0
210
0
220
0
230
1
0
LINE
5
BB
100
AcDbEntity
8
SK1
62
256
6
ByLayer
370
18
48
1
60
0
100
AcDbLine
10
-32
20
12.5
30
0
11
-37
21
12.5
31
0
39
0
210
0
220
0
230
1
0
LINE
5
BC
100
AcDbEntity
8
SK1
62
256
6
ByLayer
370
18
48
1
60
0
100
AcDbLine
10
-55
20
-12.5
30
0
11
0
21
-12.5
31
0
39
0
210
0
220
0
230
1
0
LINE
5
BD
100
AcDbEntity
8
SK1
62
256
6
ByLayer
370
18
48
1
60
0
100
AcDbLine
10
-56
20
-11.5
30
0
11
-55
21
-12.5
31
0
39
0
210
0
220
0
230
1
0
LINE
5
BE
100
AcDbEntity
8
SK2
62
256
6
ByLayer
370
18
48
1
60
0
100
AcDbLine
10
-63.25
20
12.5
30
0
11
-63.25
21
-31.430932
31
0
39
0
210
0
220
0
230
1
0
LINE
5
C0
100
AcDbEntity
8
SK2
62
256
6
ByLayer
370
18
48
1
60
0
100
AcDbLine
10
-38.5875
20
12.5
30
0
11
-65.25
21
12.5
31
0
39
0
210
0
220
0
230
1
0
LINE
5
C1
100
AcDbEntity
8
SK2
62
256
6
ByLayer
370
18
48
1
60
0
100
AcDbLine
10
-56.5875
20
-12.5
30
0
11
-65.25
21
-12.5
31
0
39
0
210
0
220
0
230
1
0
LINE
5
C2
100
AcDbEntity
8
1
62
256
6
ByLayer
370
18
48
1
60
1
100
AcDbLine
10
-63.25
20
12.5
30
0
11
-62.789216
21
9.000002
31
0
39
0
210
0
220
0
230
1
0
LINE
5
C3
100
AcDbEntity
8
1
62
256
6
ByLayer
370
18
48
1
60
1
100
AcDbLine
10
-62.789216
20
9.000002
30
0
11
-63.710784
21
8.999998
31
0
39
0
210
0
220
0
230
1
0
LINE
5
C4
100
AcDbEntity
8
1
62
256
6
ByLayer
370
18
48
1
60
1
100
AcDbLine
10
-63.710784
20
8.999998
30
0
11
-63.25
21
12.5
31
0
39
0
210
0
220
0
230
1
0
LINE
5
C5
100
AcDbEntity
8
1
62
256
6
ByLayer
370
18
48
1
60
1
100
AcDbLine
10
-63.25
20
-12.5
30
0
11
-63.710784
21
-9.000002
31
0
39
0
210
0
220
0
230
1
0
LINE
5
C6
100
AcDbEntity
8
1
62
256
6
ByLayer
370
18
48
1
60
1
100
AcDbLine
10
-63.710784
20
-9.000002
30
0
11
-62.789216
21
-8.999998
31
0
39
0
210
0
220
0
230
1
0
LINE
5
C7
100
AcDbEntity
8
1
62
256
6
ByLayer
370
18
48
1
60
1
100
AcDbLine
10
-62.789216
20
-8.999998
30
0
11
-63.25
21
-12.5
31
0
39
0
210
0
220
0
230
1
0
LINE
5
C8
100
AcDbEntity
8
2
62
256
6
ByLayer
370
18
48
1
60
0
100
AcDbLine
10
109
20
-12.5001
30
0
11
109
21
31.431032
31
0
39
0
210
0
220
0
230
1
0
LINE
5
CA
100
AcDbEntity
8
2
62
256
6
ByLayer
370
18
48
1
60
0
100
AcDbLine
10
98.5875
20
12.5001
30
0
11
111
21
12.5001
31
0
39
0
210
0
220
0
230
1
0
LINE
5
CB
100
AcDbEntity
8
2
62
256
6
ByLayer
370
18
48
1
60
0
100
AcDbLine
10
98.5875
20
-12.5001
30
0
11
111
21
-12.5001
31
0
39
0
210
0
220
0
230
1
0
LINE
5
CC
100
AcDbEntity
8
1
62
256
6
ByLayer
370
18
48
1
60
1
100
AcDbLine
10
109
20
12.5001
30
0
11
109.460784
21
9.000102
31
0
39
0
210
0
220
0
230
1
0
LINE
5
CD
100
AcDbEntity
8
1
62
256
6
ByLayer
370
18
48
1
60
1
100
AcDbLine
10
109.460784
20
9.000102
30
0
11
108.539216
21
9.000098
31
0
39
0
210
0
220
0
230
1
0
LINE
5
CE
100
AcDbEntity
8
1
62
256
6
ByLayer
370
18
48
1
60
1
100
AcDbLine
10
108.539216
20
9.000098
30
0
11
109
21
12.5001
31
0
39
0
210
0
220
0
230
1
0
LINE
5
CF
100
AcDbEntity
8
1
62
256
6
ByLayer
370
18
48
1
60
1
100
AcDbLine
10
109
20
-12.5001
30
0
11
108.539216
21
-9.000102
31
0
39
0
210
0
220
0
230
1
0
LINE
5
D0
100
AcDbEntity
8
1
62
256
6
ByLayer
370
18
48
1
60
1
100
AcDbLine
10
108.539216
20
-9.000102
30
0
11
109.460784
21
-9.000098
31
0
39
0
210
0
220
0
230
1
0
LINE
5
D1
100
AcDbEntity
8
1
62
256
6
ByLayer
370
18
48
1
60
1
100
AcDbLine
10
109.460784
20
-9.000098
30
0
11
109
21
-12.5001
31
0
39
0
210
0
220
0
230
1
0
LINE
5
D2
100
AcDbEntity
8
SK2
62
256
6
ByLayer
370
18
48
1
60
0
100
AcDbLine
10
97
20
-44.420614
30
0
11
-56
21
-44.420614
31
0
39
0
210
0
220
0
230
1
0
LINE
5
D3
100
AcDbEntity
8
SK2
62
256
6
ByLayer
370
18
48
1
60
0
100
AcDbLine
10
-56
20
-13.0875
30
0
11
-56
21
-46.420614
31
0
39
0
210
0
220
0
230
1
0
LINE
5
D4
100
AcDbEntity
8
SK2
62
256
6
ByLayer
370
18
48
1
60
0
100
AcDbLine
10
97
20
-14.0876
30
0
11
97
21
-46.420614
31
0
39
0
210
0
220
0
230
1
0
LINE
5
D5
100
AcDbEntity
8
1
62
256
6
ByLayer
370
18
48
1
60
1
100
AcDbLine
10
-56
20
-44.420614
30
0
11
-52.500002
21
-43.95983
31
0
39
0
210
0
220
0
230
1
0
LINE
5
D6
100
AcDbEntity
8
1
62
256
6
ByLayer
370
18
48
1
60
1
100
AcDbLine
10
-52.500002
20
-43.95983
30
0
11
-52.499998
21
-44.881398
31
0
39
0
210
0
220
0
230
1
0
LINE
5
D7
100
AcDbEntity
8
1
62
256
6
ByLayer
370
18
48
1
60
1
100
AcDbLine
10
-52.499998
20
-44.881398
30
0
11
-56
21
-44.420614
31
0
39
0
210
0
220
0
230
1
0
LINE
5
D8
100
AcDbEntity
8
1
62
256
6
ByLayer
370
18
48
1
60
1
100
AcDbLine
10
97
20
-44.420614
30
0
11
93.500002
21
-44.881398
31
0
39
0
210
0
220
0
230
1
0
LINE
5
D9
100
AcDbEntity
8
1
62
256
6
ByLayer
370
18
48
1
60
1
100
AcDbLine
10
93.500002
20
-44.881398
30
0
11
93.499998
21
-43.95983
31
0
39
0
210
0
220
0
230
1
0
LINE
5
DA
100
AcDbEntity
8
1
62
256
6
ByLayer
370
18
48
1
60
1
100
AcDbLine
10
93.499998
20
-43.95983
30
0
11
97
21
-44.420614
31
0
39
0
210
0
220
0
230
1
0
LINE
5
150
100
AcDbEntity
8
1
62
256
6
ByLayer
370
18
48
1
60
1
100
AcDbLine
10
-63.25
20
12.5
30
0
11
-62.789216
21
9.000002
31
0
39
0
210
0
220
0
230
1
0
LINE
5
151
100
AcDbEntity
8
1
62
256
6
ByLayer
370
18
48
1
60
1
100
AcDbLine
10
-62.789216
20
9.000002
30
0
11
-63.710784
21
8.999998
31
0
39
0
210
0
220
0
230
1
0
LINE
5
152
100
AcDbEntity
8
1
62
256
6
ByLayer
370
18
48
1
60
1
100
AcDbLine
10
-63.710784
20
8.999998
30
0
11
-63.25
21
12.5
31
0
39
0
210
0
220
0
230
1
0
LINE
5
154
100
AcDbEntity
8
1
62
256
6
ByLayer
370
18
48
1
60
1
100
AcDbLine
10
-63.25
20
-12.5
30
0
11
-63.710784
21
-9.000002
31
0
39
0
210
0
220
0
230
1
0
LINE
5
155
100
AcDbEntity
8
1
62
256
6
ByLayer
370
18
48
1
60
1
100
AcDbLine
10
-63.710784
20
-9.000002
30
0
11
-62.789216
21
-8.999998
31
0
39
0
210
0
220
0
230
1
0
LINE
5
156
100
AcDbEntity
8
1
62
256
6
ByLayer
370
18
48
1
60
1
100
AcDbLine
10
-62.789216
20
-8.999998
30
0
11
-63.25
21
-12.5
31
0
39
0
210
0
220
0
230
1
0
LINE
5
15A
100
AcDbEntity
8
1
62
256
6
ByLayer
370
18
48
1
60
1
100
AcDbLine
10
109
20
12.5001
30
0
11
109.460784
21
9.000102
31
0
39
0
210
0
220
0
230
1
0
LINE
5
15B
100
AcDbEntity
8
1
62
256
6
ByLayer
370
18
48
1
60
1
100
AcDbLine
10
109.460784
20
9.000102
30
0
11
108.539216
21
9.000098
31
0
39
0
210
0
220
0
230
1
0
LINE
5
15C
100
AcDbEntity
8
1
62
256
6
ByLayer
370
18
48
1
60
1
100
AcDbLine
10
108.539216
20
9.000098
30
0
11
109
21
12.5001
31
0
39
0
210
0
220
0
230
1
0
LINE
5
15E
100
AcDbEntity
8
1
62
256
6
ByLayer
370
18
48
1
60
1
100
AcDbLine
10
109
20
-12.5001
30
0
11
108.539216
21
-9.000102
31
0
39
0
210
0
220
0
230
1
0
LINE
5
15F
100
AcDbEntity
8
1
62
256
6
ByLayer
370
18
48
1
60
1
100
AcDbLine
10
108.539216
20
-9.000102
30
0
11
109.460784
21
-9.000098
31
0
39
0
210
0
220
0
230
1
0
LINE
5
160
100
AcDbEntity
8
1
62
256
6
ByLayer
370
18
48
1
60
1
100
AcDbLine
10
109.460784
20
-9.000098
30
0
11
109
21
-12.5001
31
0
39
0
210
0
220
0
230
1
0
LINE
5
163
100
AcDbEntity
8
1
62
256
6
ByLayer
370
18
48
1
60
1
100
AcDbLine
10
-56
20
-44.420614
30
0
11
-52.500002
21
-43.95983
31
0
39
0
210
0
220
0
230
1
0
LINE
5
164
100
AcDbEntity
8
1
62
256
6
ByLayer
370
18
48
1
60
1
100
AcDbLine
10
-52.500002
20
-43.95983
30
0
11
-52.499998
21
-44.881398
31
0
39
0
210
0
220
0
230
1
0
LINE
5
165
100
AcDbEntity
8
1
62
256
6
ByLayer
370
18
48
1
60
1
100
AcDbLine
10
-52.499998
20
-44.881398
30
0
11
-56
21
-44.420614
31
0
39
0
210
0
220
0
230
1
0
LINE
5
167
100
AcDbEntity
8
1
62
256
6
ByLayer
370
18
48
1
60
1
100
AcDbLine
10
97
20
-44.420614
30
0
11
93.500002
21
-44.881398
31
0
39
0
210
0
220
0
230
1
0
LINE
5
168
100
AcDbEntity
8
1
62
256
6
ByLayer
370
18
48
1
60
1
100
AcDbLine
10
93.500002
20
-44.881398
30
0
11
93.499998
21
-43.95983
31
0
39
0
210
0
220
0
230
1
0
LINE
5
169
100
AcDbEntity
8
1
62
256
6
ByLayer
370
18
48
1
60
1
100
AcDbLine
10
93.499998
20
-43.95983
30
0
11
97
21
-44.420614
31
0
39
0
210
0
220
0
230
1
0
MTEXT
5
14C
100
AcDbEntity
8
SK2
62
256
6
ByLayer
370
18
48
1
60
0
100
AcDbMText
10
-64.814634
20
-29.496089
30
0
210
0
220
0
230
1
1
%%c
40
3.5
41
0
44
1.084337
50
90
71
7
72
5
7
iso_b_vert
0
MTEXT
5
14F
100
AcDbEntity
8
SK2
62
256
6
ByLayer
370
18
48
1
60
0
100
AcDbMText
10
-64.814634
20
-22.523432
30
0
210
0
220
0
230
1
1
\W0.6740;25
40
3.5
41
0
44
1.084337
50
90
71
7
72
5
7
iso_b_vert
0
MTEXT
5
158
100
AcDbEntity
8
2
62
256
6
ByLayer
370
18
48
1
60
0
100
AcDbMText
10
107.435366
20
20.434944
30
0
210
0
220
0
230
1
1
%%c
40
3.5
41
0
44
1.084337
50
90
71
7
72
5
7
iso_b_vert
0
MTEXT
5
159
100
AcDbEntity
8
2
62
256
6
ByLayer
370
18
48
1
60
0
100
AcDbMText
10
107.435366
20
27.4076
30
0
210
0
220
0
230
1
1
\W0.6740;25
40
3.5
41
0
44
1.084337
50
90
71
7
72
5
7
iso_b_vert
0
MTEXT
5
162
100
AcDbEntity
8
SK2
62
256
6
ByLayer
370
18
48
1
60
0
100
AcDbMText
10
17.724734
20
-43.387981
30
0
210
0
220
0
230
1
1
\W0.6217;153
40
3.5
41
0
44
1.084337
50
0
71
7
72
5
7
iso_b_vert
0
MTEXT
5
16B
100
AcDbEntity
8
SK6
62
256
6
ByLayer
370
18
48
1
60
0
100
AcDbMText
10
-4.047665
20
-62.042108
30
0
210
0
220
0
230
1
1
\W0.6915;1K253-2500-NB       H10F
40
3
41
0
44
1.084337
50
0
71
7
72
5
7
iso_b_vert
0
HATCH
5
153
100
AcDbEntity
8
SK2
62
256
6
ByLayer
370
13
48
1
60
0
100
AcDbHatch
10
0
20
0
30
0
210
0
220
0
230
1
2
ANSI31
70
0
71
0
91
1
92
5
93
3
72
1
10
-63.2500000000001
20
12.4999999999999
11
-62.7892162584473
21
9.0000016925531
72
1
10
-62.7892162584473
20
9.0000016925531
11
-63.7107837415528
21
8.99999830744673
72
1
10
-63.7107837415528
20
8.99999830744673
11
-63.2500000000001
21
12.4999999999999
97
0
75
0
76
1
52
0
41
0.0062
77
0
78
1
53
45
43
0
44
0
45
-0.0139193969876572
46
0.0139193969876572
79
0
47
0
98
1
10
0
20
0
0
HATCH
5
157
100
AcDbEntity
8
SK2
62
256
6
ByLayer
370
13
48
1
60
0
100
AcDbHatch
10
0
20
0
30
0
210
0
220
0
230
1
2
ANSI31
70
0
71
0
91
1
92
5
93
3
72
1
10
-63.2500000000001
20
-12.5000000000001
11
-63.7107837415528
21
-9.00000169255327
72
1
10
-63.7107837415528
20
-9.00000169255327
11
-62.7892162584473
21
-8.9999983074469
72
1
10
-62.7892162584473
20
-8.9999983074469
11
-63.2500000000001
21
-12.5000000000001
97
0
75
0
76
1
52
0
41
0.0062
77
0
78
1
53
45
43
0
44
0
45
-0.0139193969876572
46
0.0139193969876572
79
0
47
0
98
1
10
0
20
0
0
HATCH
5
15D
100
AcDbEntity
8
2
62
256
6
ByLayer
370
13
48
1
60
0
100
AcDbHatch
10
0
20
0
30
0
210
0
220
0
230
1
2
ANSI31
70
0
71
0
91
1
92
5
93
3
72
1
10
109
20
12.5000999999996
11
109.460783741553
21
9.00010169255282
72
1
10
109.460783741553
20
9.00010169255282
11
108.539216258447
21
9.00009830744645
72
1
10
108.539216258447
20
9.00009830744645
11
109
21
12.5000999999996
97
0
75
0
76
1
52
0
41
0.0062
77
0
78
1
53
45
43
0
44
0
45
-0.0139193969876572
46
0.0139193969876572
79
0
47
0
98
1
10
0
20
0
0
HATCH
5
161
100
AcDbEntity
8
2
62
256
6
ByLayer
370
13
48
1
60
0
100
AcDbHatch
10
0
20
0
30
0
210
0
220
0
230
1
2
ANSI31
70
0
71
0
91
1
92
5
93
3
72
1
10
109
20
-12.5001000000004
11
108.539216258447
21
-9.00010169255356
72
1
10
108.539216258447
20
-9.00010169255356
11
109.460783741553
21
-9.00009830744719
72
1
10
109.460783741553
20
-9.00009830744719
11
109
21
-12.5001000000004
97
0
75
0
76
1
52
0
41
0.0062
77
0
78
1
53
45
43
0
44
0
45
-0.0139193969876572
46
0.0139193969876572
79
0
47
0
98
1
10
0
20
0
0
HATCH
5
166
100
AcDbEntity
8
SK2
62
256
6
ByLayer
370
13
48
1
60
0
100
AcDbHatch
10
0
20
0
30
0
210
0
220
0
230
1
2
ANSI31
70
0
71
0
91
1
92
5
93
3
72
1
10
-56
20
-44.4206141893013
11
-52.5000016925532
21
-43.9598304477485
72
1
10
-52.5000016925532
20
-43.9598304477485
11
-52.4999983074468
21
-44.8813979308541
72
1
10
-52.4999983074468
20
-44.8813979308541
11
-56
21
-44.4206141893013
97
0
75
0
76
1
52
0
41
0.0062
77
0
78
1
53
45
43
0
44
0
45
-0.0139193969876572
46
0.0139193969876572
79
0
47
0
98
1
10
0
20
0
0
HATCH
5
16A
100
AcDbEntity
8
SK2
62
256
6
ByLayer
370
13
48
1
60
0
100
AcDbHatch
10
0
20
0
30
0
210
0
220
0
230
1
2
ANSI31
70
0
71
0
91
1
92
5
93
3
72
1
10
97
20
-44.4206141893013
11
93.5000016925532
21
-44.8813979308541
72
1
10
93.5000016925532
20
-44.8813979308541
11
93.4999983074468
21
-43.9598304477485
72
1
10
93.4999983074468
20
-43.9598304477485
11
97
21
-44.4206141893013
97
0
75
0
76
1
52
0
41
0.0062
77
0
78
1
53
45
43
0
44
0
45
-0.0139193969876572
46
0.0139193969876572
79
0
47
0
98
1
10
0
20
0
0
DIMENSION
5
16E
100
AcDbEntity
8
2
62
256
6
ByLayer
370
18
48
1
60
0
100
AcDbDimension
2
_U0
10
22
20
-28.420614
30
0
11
59.5
21
-28.420614
31
0
70
32
71
1
72
1
41
1
210
0
220
0
230
1
3
Standard
100
AcDbAlignedDimension
13
97
23
-12.5001
33
0
14
22
24
-12.5001
34
0
50
0
100
AcDbRotatedDimension
1001
ACAD
1000
DSTYLE
1002
{
1070
   371
1070
    13
1070
   372
1070
    13
1070
   170
1070
     0
1070
   144
1040
1.0
1070
   277
1070
     2
1070
   284
1070
     8
1070
   278
1070
    46
1070
   146
1040
1.0
1070
   345
1005
16
1070
   347
1005
16
1070
   346
1005
16
1070
   344
1005
0
1070
   343
1005
0
1070
   172
1070
     1
1070
    76
1070
     0
1070
    75
1070
     0
1070
   282
1070
     0
1070
   281
1070
     0
1070
    71
1070
     0
1070
    74
1070
     0
1070
   279
1070
     0
1070
   173
1070
     1
1070
   340
1005
14D
1070
   271
1070
     2
1070
   272
1070
     2
1070
    77
1070
     1
1070
    73
1070
     1
1070
   171
1070
     3
1070
   274
1070
     4
1070
   177
1070
     2
1070
   176
1070
     2
1070
   178
1070
     2
1070
    78
1070
     8
1070
    48
1040
-0.1
1070
    41
1040
3.5
1070
   147
1040
1.75
1070
    42
1040
1.5875
1070
    44
1040
2.0
1070
   140
1040
3.5
1002
}
1001
ACAD_DSTYLE_DIM_LINETYPE
1070
   380
1005
16
1001
ACAD_DSTYLE_DIM_EXT1_LINETYPE
1070
   381
1005
16
1001
ACAD_DSTYLE_DIM_EXT2_LINETYPE
1070
   382
1005
16
0
ENDSEC
0
SECTION
2
OBJECTS
0
DICTIONARY
5
1f7
330
0
100
AcDbDictionary
280
0
281
1
3
ACAD_GROUP
350
1f8
3
ACAD_MLINESTYLE
350
1f9
0
DICTIONARY
5
1f8
330
0
100
AcDbDictionary
280
0
281
1
0
DICTIONARY
5
1f9
330
0
100
AcDbDictionary
280
0
281
1
3
Standard
350
18
0
MLINESTYLE
5
18
330
1f9
100
AcDbMlineStyle
2
Standard
70
0
3

62
256
51
90
52
90
71
2
49
-0.5
62
256
6
ByLayer
49
0.5
62
256
6
ByLayer
0
RASTERVARIABLES
5
1e5
330

100
AcDbRasterVariables
90
0
70
1
71
1
72
1
0
ENDSEC
0
EOF
