0
SECTION
2
HEADER
9
$ACADVER
1
AC1015
9
$DWGCODEPAGE
3
ANSI_1252
9
$HANDSEED
5
205
9
$ANGBASE
50
0
9
$ANGDIR
70
0
9
$ATTMODE
70
1
9
$AUNITS
70
0
9
$AUPREC
70
0
9
$CECOLOR
62
256
9
$CELTSCALE
40
1
9
$CELTYPE
6
ByLayer
9
$CELWEIGHT
370
18
9
$CLAYER
8
0
9
$CMLJUST
70
0
9
$CMLSCALE
40
1
9
$CMLSTYLE
2
Standard
9
$DIMSTYLE
2
Standard
9
$TEXTSIZE
40
0.2
9
$TEXTSTYLE
7
Standard
9
$LUNITS
70
2
9
$LUPREC
70
4
9
$EXTNAMES
290
1
9
$INSUNITS
70
4
9
$LTSCALE
40
1
9
$LWDISPLAY
290
1
9
$PDMODE
70
0
9
$PDSIZE
40
0
9
$PLINEGEN
70
0
0
ENDSEC
0
SECTION
2
CLASSES
0
CLASS
1
RASTERVARIABLES
2
AcDbRasterVariables
3
ISM
90
0
280
0
281
0
0
ENDSEC
0
SECTION
2
TABLES
0
TABLE
2
VPORT
5
1fb
100
AcDbSymbolTable
0
VPORT
5
1
100
AcDbSymbolTableRecord
100
AcDbViewportTableRecord
2
*Active
70
0
10
0
20
0
11
1
21
1
12
-1
22
1
13
0
23
0
14
0.5
24
0.5
15
10
25
10
16
0
26
0
36
1
17
0
27
0
37
0
0
ENDTAB
0
TABLE
2
LTYPE
5
1fc
100
AcDbSymbolTable
0
LTYPE
5
14
100
AcDbSymbolTableRecord
100
AcDbLinetypeTableRecord
70
0
2
ByBlock
3

72
65
73
0
40
0
0
LTYPE
5
15
100
AcDbSymbolTableRecord
100
AcDbLinetypeTableRecord
70
0
2
ByLayer
3

72
65
73
0
40
0
0
LTYPE
5
16
100
AcDbSymbolTableRecord
100
AcDbLinetypeTableRecord
70
0
2
Continuous
3
Solid line
72
65
73
0
40
0
0
LTYPE
5
6E
100
AcDbSymbolTableRecord
100
AcDbLinetypeTableRecord
70
0
2
CENTER
3
____ _ ____ _ ____ _ ____
72
65
73
4
40
47.5
49
22
74
0
49
-8.5
74
0
49
8.5
74
0
49
-8.5
74
0
0
LTYPE
5
6F
100
AcDbSymbolTableRecord
100
AcDbLinetypeTableRecord
70
0
2
DASHED
3
__ __ __ __ __ __ __ __ __
72
65
73
2
40
25.72
49
12.86
74
0
49
-12.86
74
0
0
ENDTAB
0
TABLE
2
LAYER
5
1fd
100
AcDbSymbolTable
0
LAYER
5
10
100
AcDbSymbolTableRecord
100
AcDbLayerTableRecord
2
0
70
0
62
7
6
Continuous
290
1
370
-3
390
0
0
LAYER
5
71
100
AcDbSymbolTableRecord
100
AcDbLayerTableRecord
2
81
70
0
62
-3
6
Continuous
290
1
370
-3
390
0
0
LAYER
5
73
100
AcDbSymbolTableRecord
100
AcDbLayerTableRecord
2
80
70
0
62
-6
6
Continuous
290
1
370
-3
390
0
0
LAYER
5
75
100
AcDbSymbolTableRecord
100
AcDbLayerTableRecord
2
1
70
0
62
4
6
Continuous
290
1
370
-3
390
0
0
LAYER
5
79
100
AcDbSymbolTableRecord
100
AcDbLayerTableRecord
2
4
70
0
62
-2
6
CENTER
290
1
370
-3
390
0
0
LAYER
5
C9
100
AcDbSymbolTableRecord
100
AcDbLayerTableRecord
2
2
70
0
62
7
6
Continuous
290
1
370
-3
390
0
0
LAYER
5
172
100
AcDbSymbolTableRecord
100
AcDbLayerTableRecord
2
Defpoints
70
0
62
7
6
Continuous
290
0
370
-3
390
0
0
LAYER
5
1e7
100
AcDbSymbolTableRecord
100
AcDbLayerTableRecord
2
SK4
70
0
62
2
6
CENTER
290
1
370
-3
390
0
0
LAYER
5
1e8
100
AcDbSymbolTableRecord
100
AcDbLayerTableRecord
2
SK1
70
0
62
4
6
Continuous
290
1
370
-3
390
0
0
LAYER
5
1e9
100
AcDbSymbolTableRecord
100
AcDbLayerTableRecord
2
SK2
70
0
62
7
6
Continuous
290
1
370
-3
390
0
0
LAYER
5
1ea
100
AcDbSymbolTableRecord
100
AcDbLayerTableRecord
2
SK6
70
0
62
5
6
Continuous
290
1
370
-3
390
0
0
ENDTAB
0
TABLE
2
STYLE
5
1fe
100
AcDbSymbolTable
0
STYLE
5
11
100
AcDbSymbolTableRecord
100
AcDbTextStyleTableRecord
2
Standard
3
txt
70
0
71
0
40
0
41
1
42
0
50
0
0
STYLE
5
14E
100
AcDbSymbolTableRecord
100
AcDbTextStyleTableRecord
2
iso_b_vert
3
simplex.shx
70
0
71
0
40
0
41
1
42
0
50
0
0
STYLE
5
14F
100
AcDbSymbolTableRecord
100
AcDbTextStyleTableRecord
2
DWGDirectTextStyle
3
simplex
70
0
71
0
40
0
41
1
42
0
50
0
0
ENDTAB
0
TABLE
2
DIMSTYLE
5
1ff
100
AcDbSymbolTable
100
AcDbDimStyleTable
0
DIMSTYLE
105
27
100
AcDbSymbolTableRecord
100
AcDbDimStyleTableRecord
2
Standard
70
0
3
<>
41
0.18
42
0.0625
44
0.18
140
0.18
147
0.09
73
0
74
0
77
1
271
2
275
0
278
52
280
0
340
11
0
ENDTAB
0
TABLE
2
VIEW
5
200
100
AcDbSymbolTable
0
ENDTAB
0
TABLE
2
UCS
5
201
100
AcDbSymbolTable
0
ENDTAB
0
TABLE
2
APPID
5
202
100
AcDbSymbolTable
0
APPID
5
12
100
AcDbSymbolTableRecord
100
AcDbRegAppTableRecord
2
ACAD
70
0
0
APPID
5
16E
100
AcDbSymbolTableRecord
100
AcDbRegAppTableRecord
2
ACAD_DSTYLE_DIMBREAK
70
0
0
APPID
5
1A6
100
AcDbSymbolTableRecord
100
AcDbRegAppTableRecord
2
ACAD_DSTYLE_DIM_LINETYPE
70
0
0
APPID
5
1A7
100
AcDbSymbolTableRecord
100
AcDbRegAppTableRecord
2
ACAD_DSTYLE_DIM_EXT1_LINETYPE
70
0
0
APPID
5
1A8
100
AcDbSymbolTableRecord
100
AcDbRegAppTableRecord
2
ACAD_DSTYLE_DIM_EXT2_LINETYPE
70
0
0
APPID
5
1E3
100
AcDbSymbolTableRecord
100
AcDbRegAppTableRecord
2
ACAD_MLEADERVER
70
0
0
ENDTAB
0
TABLE
2
BLOCK_RECORD
5
203
100
AcDbSymbolTable
0
BLOCK_RECORD
5
1F
100
AcDbSymbolTableRecord
100
AcDbBlockTableRecord
2
*Model_Space
340
0
70
0
0
BLOCK_RECORD
5
1B
100
AcDbSymbolTableRecord
100
AcDbBlockTableRecord
2
*Paper_Space
340
0
70
0
0
BLOCK_RECORD
5
23
100
AcDbSymbolTableRecord
100
AcDbBlockTableRecord
2
*Paper_Space0
340
0
70
0
0
BLOCK_RECORD
5
173
100
AcDbSymbolTableRecord
100
AcDbBlockTableRecord
2
*D1
340
0
70
0
0
BLOCK_RECORD
5
17F
100
AcDbSymbolTableRecord
100
AcDbBlockTableRecord
2
_U0
340
0
70
0
0
ENDTAB
0
ENDSEC
0
SECTION
2
BLOCKS
0
BLOCK
5
20
100
AcDbEntity
8
0
100
AcDbBlockBegin
2
*Model_Space
70
0
10
0
20
0
30
0
3
*Model_Space
0
ENDBLK
5
21
100
AcDbEntity
8
0
100
AcDbBlockEnd
0
BLOCK
5
1C
100
AcDbEntity
8
0
100
AcDbBlockBegin
2
*Paper_Space
70
0
10
0
20
0
30
0
3
*Paper_Space
0
ENDBLK
5
1D
100
AcDbEntity
8
0
100
AcDbBlockEnd
0
BLOCK
5
24
100
AcDbEntity
8
0
100
AcDbBlockBegin
2
*Paper_Space0
70
0
10
0
20
0
30
0
3
*Paper_Space0
0
ENDBLK
5
25
100
AcDbEntity
8
0
100
AcDbBlockEnd
0
BLOCK
5
174
100
AcDbEntity
8
0
100
AcDbBlockBegin
2
*D1
70
1
10
0
20
0
30
0
3
*D1
0
LINE
5
176
100
AcDbEntity
8
0
62
256
6
ByLayer
370
-2
48
1
60
0
100
AcDbLine
10
37
20
-5.5876
30
0
11
37
21
-20.727667
31
0
39
0
210
0
220
0
230
1
0
LINE
5
177
100
AcDbEntity
8
0
62
256
6
ByLayer
370
-2
48
1
60
0
100
AcDbLine
10
13
20
-5.5876
30
0
11
13
21
-20.727667
31
0
39
0
210
0
220
0
230
1
0
LINE
5
178
100
AcDbEntity
8
0
62
256
6
ByLayer
370
-2
48
1
60
0
100
AcDbLine
10
33.5
20
-18.727667
30
0
11
16.5
21
-18.727667
31
0
39
0
210
0
220
0
230
1
0
SOLID
5
179
100
AcDbEntity
8
0
62
256
6
ByLayer
370
-1
48
1
60
0
100
AcDbTrace
10
33.5
20
-19.311
30
0
11
33.5
21
-18.144333
31
0
12
37
22
-18.727667
32
0
13
37
23
-18.727667
33
0
39
0
210
0
220
0
230
1
0
SOLID
5
17A
100
AcDbEntity
8
0
62
256
6
ByLayer
370
-1
48
1
60
0
100
AcDbTrace
10
16.5
20
-18.144333
30
0
11
16.5
21
-19.311
31
0
12
13
22
-18.727667
32
0
13
13
23
-18.727667
33
0
39
0
210
0
220
0
230
1
0
MTEXT
5
17B
100
AcDbEntity
8
0
62
256
6
ByLayer
370
18
48
1
60
0
100
AcDbMText
10
25
20
-11.727667
30
0
210
0
220
0
230
1
1
\A1;24
40
3.5
41
0
44
1
50
0
71
5
72
5
7
iso_b_vert
0
POINT
5
17C
100
AcDbEntity
8
Defpoints
62
0
6
ByLayer
370
-1
48
1
60
0
100
AcDbPoint
10
37
20
-4.0001
30
0
39
0
210
0
220
0
230
1
50
360
0
POINT
5
17D
100
AcDbEntity
8
Defpoints
62
0
6
ByLayer
370
-1
48
1
60
0
100
AcDbPoint
10
13
20
-4.0001
30
0
39
0
210
0
220
0
230
1
50
360
0
POINT
5
17E
100
AcDbEntity
8
Defpoints
62
0
6
ByLayer
370
-1
48
1
60
0
100
AcDbPoint
10
13
20
-18.727667
30
0
39
0
210
0
220
0
230
1
50
360
0
ENDBLK
5
175
100
AcDbEntity
8
0
100
AcDbBlockEnd
0
BLOCK
5
186
100
AcDbEntity
8
0
100
AcDbBlockBegin
2
_U0
70
0
10
0
20
0
30
0
3
_U0
0
MTEXT
5
180
100
AcDbEntity
8
2
62
256
6
ByLayer
370
18
48
1
60
0
100
AcDbMText
10
22.910767
20
-17.695033
30
0
210
0
220
0
230
1
1
\W0.7167;24
40
3.5
41
0
44
1.084337
50
0
71
7
72
5
7
iso_b_vert
0
LINE
5
181
100
AcDbEntity
8
2
62
256
6
ByLayer
370
13
48
1
60
0
100
AcDbLine
10
37
20
-5.5876
30
0
11
37
21
-20.727667
31
0
39
0
210
0
220
0
230
1
0
LINE
5
182
100
AcDbEntity
8
2
62
256
6
ByLayer
370
13
48
1
60
0
100
AcDbLine
10
13
20
-5.5876
30
0
11
13
21
-20.727667
31
0
39
0
210
0
220
0
230
1
0
LINE
5
183
100
AcDbEntity
8
2
62
256
6
ByLayer
370
13
48
1
60
0
100
AcDbLine
10
37
20
-18.727667
30
0
11
13
21
-18.727667
31
0
39
0
210
0
220
0
230
1
0
SOLID
5
184
100
AcDbEntity
8
2
62
256
6
ByLayer
370
18
48
1
60
0
100
AcDbTrace
10
37
20
-18.727667
30
0
11
33.500002
21
-19.18845
31
0
12
33.499998
22
-18.266883
32
0
13
33.499998
23
-18.266883
33
0
39
0
210
0
220
0
230
1
0
SOLID
5
185
100
AcDbEntity
8
2
62
256
6
ByLayer
370
18
48
1
60
0
100
AcDbTrace
10
13
20
-18.727667
30
0
11
16.499998
21
-18.266883
31
0
12
16.500002
22
-19.18845
32
0
13
16.500002
23
-19.18845
33
0
39
0
210
0
220
0
230
1
0
ENDBLK
5
187
100
AcDbEntity
8
0
100
AcDbBlockEnd
0
ENDSEC
0
SECTION
2
ENTITIES
0
ELLIPSE
5
DB
100
AcDbEntity
8
1
62
256
6
ByLayer
370
18
48
1
60
0
100
AcDbEllipse
10
16.589013
20
5E-06
30
0
11
20.664848917649
21
-3.14157974314163
31
0
210
0
220
0
230
1
40
0.119816
41
-1.74766001262602
42
-1.72711634659208
0
ELLIPSE
5
DC
100
AcDbEntity
8
1
62
256
6
ByLayer
370
18
48
1
60
0
100
AcDbEllipse
10
17.034463
20
0
30
0
11
8.01030869770711
21
-3.14274983714602
31
0
210
0
220
0
230
1
40
0.308914
41
-2.53685286460835
42
-2.11442248416082
0
ELLIPSE
5
DD
100
AcDbEntity
8
1
62
256
6
ByLayer
370
18
48
1
60
0
100
AcDbEllipse
10
17.085824
20
0
30
0
11
23.5278470732457
21
-1.71521182800262
31
0
210
0
220
0
230
1
40
0.153588
41
1.7565255559884
42
1.775935950178
0
ELLIPSE
5
DE
100
AcDbEntity
8
1
62
256
6
ByLayer
370
18
48
1
60
0
100
AcDbEllipse
10
16.746198
20
0
30
0
11
7.44721446622632
21
3.62684948017822
31
0
210
0
220
0
230
1
40
0.226527
41
-2.7679433742024
42
-2.3471912503749
0
POINT
5
70
100
AcDbEntity
8
81
62
256
6
ByLayer
370
18
48
1
60
0
100
AcDbPoint
10
37
20
0
30
0
39
0
210
0
220
0
230
1
50
360
0
POINT
5
72
100
AcDbEntity
8
80
62
256
6
ByLayer
370
18
48
1
60
0
100
AcDbPoint
10
0
20
0
30
0
39
0
210
0
220
0
230
1
50
360
0
POINT
5
74
100
AcDbEntity
8
1
62
256
6
ByLayer
370
18
48
1
60
1
100
AcDbPoint
10
37
20
-4.0001
30
0
39
0
210
0
220
0
230
1
50
360
0
POINT
5
76
100
AcDbEntity
8
1
62
256
6
ByLayer
370
18
48
1
60
1
100
AcDbPoint
10
13
20
-4.0001
30
0
39
0
210
0
220
0
230
1
50
360
0
SPLINE
5
DF
100
AcDbEntity
8
1
62
256
6
ByLayer
370
18
48
1
60
0
100
AcDbSpline
70
4
71
3
72
8
73
4
40
0
40
0
40
0
40
0
40
1
40
1
40
1
40
1
41
1
10
12.1139979275306
20
-3.74495601152893
30
0
41
1
10
12.2125107467093
20
-3.68882146073372
30
0
41
1
10
12.3116539313333
20
-3.63370972388174
30
0
41
1
10
12.4114326766407
20
-3.57962923062584
30
0
0
SPLINE
5
E0
100
AcDbEntity
8
1
62
256
6
ByLayer
370
18
48
1
60
0
100
AcDbSpline
70
4
71
3
72
10
73
6
40
0
40
0
40
0
40
0
40
0.5
40
0.5
40
1
40
1
40
1
40
1
41
1
10
34.1273290055474
20
-1.2344449682914
30
0
41
1
10
34.1442783727716
20
-1.26857188724159
30
0
41
1
10
34.1599989295884
20
-1.30400093984178
30
0
41
1
10
34.1871826901071
20
-1.37663001862245
30
0
41
1
10
34.1987363772559
20
-1.41390197604349
30
0
41
1
10
34.2072116210149
20
-1.45261999711175
30
0
0
SPLINE
5
E1
100
AcDbEntity
8
1
62
256
6
ByLayer
370
18
48
1
60
0
100
AcDbSpline
70
4
71
3
72
18
73
14
40
0
40
0
40
0
40
0
40
0.249999999999998
40
0.249999999999998
40
0.374999999999996
40
0.374999999999996
40
0.499999999999995
40
0.499999999999995
40
0.749999999999989
40
0.749999999999989
40
0.874999999999995
40
0.874999999999995
40
1
40
1
40
1
40
1
41
1
10
34.1273290055472
20
-1.23444496829165
30
0
41
1
10
34.1163576065864
20
-1.21235446555153
30
0
41
1
10
34.1083146335577
20
-1.18951437025771
30
0
41
1
10
34.0999641342015
20
-1.15455446677362
30
0
41
1
10
34.0978046511266
20
-1.14278279509932
30
0
41
1
10
34.0946786215795
20
-1.11905562959612
30
0
41
1
10
34.0937228784409
20
-1.10712529529914
30
0
41
1
10
34.0925853565048
20
-1.0719068852317
30
0
41
1
10
34.0940717155529
20
-1.04892772093999
30
0
41
1
10
34.0993111028336
20
-1.01536857759868
30
0
41
1
10
34.1015753420266
20
-1.00430187648104
30
0
41
1
10
34.1070404859054
20
-0.982781997305267
30
0
41
1
10
34.1102424346371
20
-0.972301888910039
30
0
41
1
10
34.1139035971797
20
-0.962108456690174
30
0
0
SPLINE
5
E2
100
AcDbEntity
8
1
62
256
6
ByLayer
370
18
48
1
60
0
100
AcDbSpline
70
4
71
3
72
12
73
8
40
0
40
0
40
0
40
0
40
0.342049483494799
40
0.342049483494799
40
0.6710247417474
40
0.6710247417474
40
1
40
1
40
1
40
1
41
1
10
34.5149208353313
20
2.15545635744812
30
0
41
1
10
34.5211595557137
20
2.15365275299004
30
0
41
1
10
34.5278691033768
20
2.15135061229336
30
0
41
1
10
34.5419526152562
20
2.14585925403813
30
0
41
1
10
34.5492699711579
20
2.14271471307168
30
0
41
1
10
34.5646406752837
20
2.13557701682041
30
0
41
1
10
34.5727033508104
20
2.13158028247474
30
0
41
1
10
34.5811304510566
20
2.12717028924911
30
0
0
SPLINE
5
E3
100
AcDbEntity
8
1
62
256
6
ByLayer
370
18
48
1
60
0
100
AcDbSpline
70
4
71
3
72
8
73
4
40
0
40
0
40
0
40
0
40
1
40
1
40
1
40
1
41
1
10
13.55601356043
20
-2.29397555115997
30
0
41
1
10
13.3706757069534
20
-2.29277262114513
30
0
41
1
10
13.1853378534767
20
-2.2880549310967
30
0
41
1
10
13
20
-2.27970720730616
30
0
0
SPLINE
5
E4
100
AcDbEntity
8
1
62
256
6
ByLayer
370
18
48
1
60
0
100
AcDbSpline
70
4
71
3
72
14
73
10
40
0
40
0
40
0
40
0
40
0.499999999999997
40
0.499999999999997
40
0.624999999999997
40
0.624999999999997
40
0.749999999999998
40
0.749999999999998
40
1
40
1
40
1
40
1
41
1
10
34.5268614246006
20
-2.19201314795458
30
0
41
1
10
34.5098144740585
20
-2.28134600159888
30
0
41
1
10
34.4987216408205
20
-2.36978561844006
30
0
41
1
10
34.4929718956567
20
-2.47911753253743
30
0
41
1
10
34.492229517175
20
-2.50092277161429
30
0
41
1
10
34.4915843241986
20
-2.54440729836099
30
0
41
1
10
34.4916832375602
20
-2.566130444294
30
0
41
1
10
34.4932672814712
20
-2.63069279872869
30
0
41
1
10
34.4960296459614
20
-2.67294769334293
30
0
41
1
10
34.5004990547119
20
-2.71441558389532
30
0
0
SPLINE
5
E5
100
AcDbEntity
8
1
62
256
6
ByLayer
370
18
48
1
60
0
100
AcDbSpline
70
4
71
3
72
17
73
13
40
0
40
0
40
0
40
0
40
0.250000000000022
40
0.250000000000022
40
0.500000000000045
40
0.500000000000045
40
0.625000000000046
40
0.625000000000046
40
0.687500000000047
40
0.687500000000047
40
0.750000000000047
40
1
40
1
40
1
40
1
41
1
10
34.2072116212933
20
-1.45261999695072
30
0
41
1
10
34.2222009688418
20
-1.52109276042492
30
0
41
1
10
34.2405891076381
20
-1.58778734393809
30
0
41
1
10
34.2834444668364
20
-1.71799605649426
30
0
41
1
10
34.3079150508263
20
-1.78150842575403
30
0
41
1
10
34.3488304487052
20
-1.87457464156415
30
0
41
1
10
34.3631720971218
20
-1.90522882243374
30
0
41
1
10
34.385707432476
20
-1.95067495231481
30
0
41
1
10
34.3933815969558
20
-1.9657164175423
30
0
41
1
10
34.408958387487
20
-1.99542663714499
30
0
41
1
10
34.4485328281383
20
-2.06888997925211
30
0
41
1
10
34.4911235361676
20
-2.13847984883972
30
0
41
1
10
34.5268614245987
20
-2.19201314795194
30
0
0
SPLINE
5
E6
100
AcDbEntity
8
1
62
256
6
ByLayer
370
18
48
1
60
0
100
AcDbSpline
70
4
71
3
72
25
73
21
40
0
40
0
40
0
40
0
40
0.0219545616438762
40
0.101418836498862
40
0.180883111353847
40
0.260347386208832
40
0.37954379849131
40
0.498740210773789
40
0.617936623056267
40
0.697400897911252
40
0.756999104052491
40
0.796731241479984
40
0.836463378907476
40
0.856329447621223
40
0.876195516334969
40
0.905994619405589
40
0.935793722476208
40
0.965592825546828
40
0.995391928617447
40
1
40
1
40
1
40
1
41
1
10
34.2072116213601
20
-1.45261999693693
30
0
41
1
10
34.1381410809068
20
-1.43359076986815
30
0
41
1
10
33.8190705404534
20
-1.34400391423213
30
0
41
1
10
33.25
20
-1.17057115669547
30
0
41
1
10
32.5
20
-0.919625465653297
30
0
41
1
10
31.625
20
-0.612312598445982
30
0
41
1
10
30.625
20
-0.243267779857035
30
0
41
1
10
29.5
20
0.180995469741532
30
0
41
1
10
28.5
20
0.541659317539398
30
0
41
1
10
27.6875
20
0.814805287348179
30
0
41
1
10
27.125
20
0.99119466240478
30
0
41
1
10
26.6875
20
1.11983776135719
30
0
41
1
10
26.375
20
1.20637211388862
30
0
41
1
10
26.125
20
1.27213029777243
30
0
41
1
10
25.90625
20
1.32757883129432
30
0
41
1
10
25.65625
20
1.38787383468949
30
0
41
1
10
25.375
20
1.45139187644676
30
0
41
1
10
25.09375
20
1.51044728350141
30
0
41
1
10
24.8917526947928
20
1.54956763715046
30
0
41
1
10
24.7835053895857
20
1.5694741343097
30
0
41
1
10
24.7690080843785
20
1.57212109465309
30
0
0
SPLINE
5
E7
100
AcDbEntity
8
1
62
256
6
ByLayer
370
13
48
1
60
0
100
AcDbSpline
70
4
71
3
72
18
73
14
40
0
40
0
40
0
40
0
40
0.0050303278664724
40
0.081051478966812
40
0.157072630067152
40
0.233093781167491
40
0.309114932267831
40
0.385136083368171
40
0.46115723446851
40
0.575188961119019
40
0.689220687769529
40
0.841262989970209
40
1
40
1
40
1
40
1
41
1
10
24.299627581867
20
-2.00879059486997
30
0
41
1
10
24.283085054578
20
-2.00783598424351
30
0
41
1
10
24.016542527289
20
-1.99212554327906
30
0
41
1
10
23.5
20
-1.95141883891179
30
0
41
1
10
22.75
20
-1.86369988100839
30
0
41
1
10
22
20
-1.74879922910552
30
0
41
1
10
21.25
20
-1.60882066287621
30
0
41
1
10
20.5
20
-1.4441438113553
30
0
41
0.999999999999999
10
19.625
20
-1.22526357853326
30
0
41
1
10
18.625
20
-0.942692678173471
30
0
41
1
10
17.375
20
-0.547154322636203
30
0
41
1
10
15.9779840618953
20
-0.0674575969519822
30
0
41
1
10
14.9559681237905
20
0.299601816267199
30
0
41
1
10
14.4339521856857
20
0.485634065866293
30
0
0
SPLINE
5
E8
100
AcDbEntity
8
1
62
256
6
ByLayer
370
18
48
1
60
0
100
AcDbSpline
70
4
71
3
72
15
73
11
40
0
40
0
40
0
40
0
40
0.499999999999995
40
0.499999999999995
40
0.624999999999993
40
0.624999999999993
40
0.687499999999993
40
0.687499999999993
40
0.749999999999993
40
1
40
1
40
1
40
1
41
1
10
36.9850621391247
20
3.55021305889378
30
0
41
1
10
36.9696362484714
20
3.42303667880944
30
0
41
1
10
36.9561498582064
20
3.29483089640846
30
0
41
1
10
36.9417505138812
20
3.1332687275391
30
0
41
1
10
36.9389945466687
20
3.10089053216552
30
0
41
1
10
36.9350501167042
20
3.05222264969174
30
0
41
1
10
36.9337657301426
20
3.03596690263703
30
0
41
1
10
36.931274836251
20
3.00360622312354
30
0
41
1
10
36.9252342276874
20
2.92298278125384
30
0
41
1
10
36.9201114192726
20
2.84372776613355
30
0
41
1
10
36.9165802334637
20
2.78116923367321
30
0
0
SPLINE
5
E9
100
AcDbEntity
8
1
62
256
6
ByLayer
370
18
48
1
60
0
100
AcDbSpline
70
4
71
3
72
8
73
4
40
0
40
0
40
0
40
0
40
1
40
1
40
1
40
1
41
1
10
36.9267355339964
20
3.72330509312763
30
0
41
1
10
36.9490736797423
20
3.66654681419107
30
0
41
1
10
36.9687467361184
20
3.60892432848175
30
0
41
1
10
36.9850621391257
20
3.55021305889414
30
0
0
SPLINE
5
EA
100
AcDbEntity
8
1
62
256
6
ByLayer
370
18
48
1
60
0
100
AcDbSpline
70
4
71
3
72
36
73
32
40
0
40
0
40
0
40
0
40
0.0176734648013353
40
0.0176734648013353
40
0.0353469296026705
40
0.0353469296026705
40
0.0706938592053305
40
0.0706938592053305
40
0.141387718410651
40
0.141387718410651
40
0.176734648013311
40
0.176734648013311
40
0.212081577615972
40
0.212081577615972
40
0.282775436821292
40
0.282775436821292
40
0.353469296026613
40
0.353469296026613
40
0.424163155231934
40
0.424163155231934
40
0.494857014437255
40
0.494857014437255
40
0.565550873642576
40
0.565550873642576
40
0.7069385920532
40
0.7069385920532
40
0.848326310463824
40
0.848326310463824
40
0.989714028874449
40
0.989714028874449
40
1
40
1
40
1
40
1
41
1
10
36.9165802334547
20
2.78116923367594
30
0
41
1
10
36.9095558484069
20
2.76941333575294
30
0
41
1
10
36.9022302440727
20
2.75780502770439
30
0
41
1
10
36.88698524917
20
2.73487935192651
30
0
41
1
10
36.8790473852535
20
2.72353717951671
30
0
41
1
10
36.8544899625664
20
2.6901203260137
30
0
41
1
10
36.8372213839693
20
2.66876943120971
30
0
41
1
10
36.783037785663
20
2.60717425652683
30
0
41
1
10
36.7437572262303
20
2.56937475082961
30
0
41
1
10
36.6810687486883
20
2.51656932884876
30
0
41
1
10
36.6595412433547
20
2.49962001480299
30
0
41
1
10
36.6153509794371
20
2.46689466560682
30
0
41
1
10
36.5927553340559
20
2.45117268221856
30
0
41
1
10
36.5241989322303
20
2.40604385588082
30
0
41
1
10
36.4772511391331
20
2.3784904466749
30
0
41
1
10
36.3814670052439
20
2.32722971019626
30
0
41
1
10
36.3326272169797
20
2.30352940380044
30
0
41
1
10
36.2334574143679
20
2.25916367947639
30
0
41
1
10
36.183125589465
20
2.23850194879589
30
0
41
1
10
36.0812564233817
20
2.19963355615727
30
0
41
1
10
36.0296614805031
20
2.18141491578959
30
0
41
1
10
35.9263139943487
20
2.14726109781756
30
0
41
1
10
35.8744533789703
20
2.13128335576002
30
0
41
1
10
35.7184162347473
20
2.08602815408673
30
0
41
1
10
35.613789703348
20
2.05939757109618
30
0
41
1
10
35.4036988987156
20
2.01106393109217
30
0
41
1
10
35.2982315109428
20
1.98937919353509
30
0
41
1
10
35.0866738581953
20
1.94967342896899
30
0
41
1
10
34.9805821505546
20
1.93166088759881
30
0
41
1
10
34.866514039546
20
1.91385676394708
30
0
41
1
10
34.8587770675455
20
1.91265686679537
30
0
41
1
10
34.8510388368819
20
1.91146437299233
30
0
0
SPLINE
5
EB
100
AcDbEntity
8
1
62
256
6
ByLayer
370
18
48
1
60
0
100
AcDbSpline
70
4
71
3
72
19
73
15
40
0
40
0
40
0
40
0
40
0.0469353668120177
40
0.133577606192743
40
0.191339099113227
40
0.249100592033711
40
0.306862084954195
40
0.364623577874678
40
0.422385070795162
40
0.480146563715646
40
0.566788803096372
40
0.653431042477097
40
0.768954028318065
40
1
40
1
40
1
40
1
41
1
10
25.9844289349042
20
-2.85727137234249
30
0
41
1
10
25.7812859566028
20
-2.89226626678368
30
0
41
1
10
25.2031429783014
20
-2.97603824923914
30
0
41
0.999999999999999
10
24.375
20
-3.02612108182405
30
0
41
1
10
23.5
20
-3.00425831028846
30
0
41
1
10
22.75
20
-2.9384878466031
30
0
41
1
10
22
20
-2.82110056675131
30
0
41
1
10
21.25
20
-2.65179648583506
30
0
41
1
10
20.5
20
-2.43805845763833
30
0
41
0.999999999999999
10
19.625
20
-2.14181096727862
30
0
41
1
10
18.625
20
-1.73880812175426
30
0
41
1
10
17.375
20
-1.15997233970728
30
0
41
1
10
15.5
20
-0.201932769543845
30
0
41
1
10
13.9999999999999
20
0.612963010261069
30
0
41
1
10
13
20
1.10393173087317
30
0
0
SPLINE
5
EC
100
AcDbEntity
8
1
62
256
6
ByLayer
370
18
48
1
60
0
100
AcDbSpline
70
4
71
3
72
20
73
16
40
0
40
0
40
0
40
0
40
0.124999999999994
40
0.124999999999994
40
0.187499999999997
40
0.187499999999997
40
0.25
40
0.25
40
0.5
40
0.5
40
0.75
40
0.75
40
0.875
40
0.875
40
1
40
1
40
1
40
1
41
1
10
35.9717849956587
20
-3.29215849075897
30
0
41
1
10
35.9885819527958
20
-3.29043730065928
30
0
41
1
10
36.0058633361321
20
-3.28706325527088
30
0
41
1
10
36.0324870706614
20
-3.27960813488468
30
0
41
1
10
36.041478760199
20
-3.27672351246028
30
0
41
1
10
36.0596940825523
20
-3.2701628804511
30
0
41
1
10
36.0689298228699
20
-3.26648093774114
30
0
41
1
10
36.1154313809561
20
-3.24621960597068
30
0
41
1
10
36.1537961324301
20
-3.22406562565379
30
0
41
1
10
36.2326415203764
20
-3.1689465759402
30
0
41
1
10
36.2731186638879
20
-3.13599935378497
30
0
41
1
10
36.3353536523655
20
-3.07881581226397
30
0
41
1
10
36.356385417836
20
-3.05842008924907
30
0
41
1
10
36.3987158934529
20
-3.01527212723093
30
0
41
1
10
36.4200307822625
20
-2.99250840807198
30
0
41
1
10
36.4414942229824
20
-2.96856368877451
30
0
0
SPLINE
5
ED
100
AcDbEntity
8
1
62
256
6
ByLayer
370
18
48
1
60
0
100
AcDbSpline
70
4
71
3
72
30
73
26
40
0
40
0
40
0
40
0
40
0.0624999999999995
40
0.0624999999999995
40
0.124999999999999
40
0.124999999999999
40
0.187499999999998
40
0.187499999999998
40
0.218750000000002
40
0.218750000000002
40
0.250000000000006
40
0.250000000000006
40
0.375000000000012
40
0.375000000000012
40
0.500000000000018
40
0.500000000000018
40
0.562500000000016
40
0.562500000000016
40
0.625000000000013
40
0.625000000000013
40
0.750000000000009
40
0.750000000000009
40
0.875000000000004
40
0.875000000000004
40
1
40
1
40
1
40
1
41
1
10
34.5004990572818
20
-2.71441559004918
30
0
41
1
10
34.5180473646284
20
-2.7513499699802
30
0
41
1
10
34.5374098007181
20
-2.7856173173036
30
0
41
1
10
34.5791019094912
20
-2.8497897459159
30
0
41
1
10
34.601436188699
20
-2.87968805425712
30
0
41
1
10
34.6486552435819
20
-2.93573507184925
30
0
41
1
10
34.6735422565757
20
-2.96188049191804
30
0
41
1
10
34.7125718178429
20
-2.99860078460793
30
0
41
1
10
34.7258656974911
20
-3.01042332298556
30
0
41
1
10
34.7529938798383
20
-3.03327389960924
30
0
41
1
10
34.7668526509666
20
-3.04432009281959
30
0
41
1
10
34.8371429679638
20
-3.097428505549
30
0
41
1
10
34.8960834288623
20
-3.13289606135044
30
0
41
1
10
35.0181162938058
20
-3.19307010124245
30
0
41
1
10
35.0812168067727
20
-3.21775556850142
30
0
41
1
10
35.1784691617552
20
-3.24804093898894
30
0
41
1
10
35.2113235786941
20
-3.25700352898713
30
0
41
1
10
35.2778500790111
20
-3.27280946821486
30
0
41
1
10
35.3115947350836
20
-3.27966309747367
30
0
41
1
10
35.4132974180576
20
-3.29710062919344
30
0
41
1
10
35.4817739622173
20
-3.30461403407836
30
0
41
1
10
35.6198962248198
20
-3.3125164915144
30
0
41
1
10
35.6895438068207
20
-3.31289418849283
30
0
41
1
10
35.8298923457525
20
-3.30723085236892
30
0
41
1
10
35.9005935725853
20
-3.30118817462139
30
0
41
1
10
35.9717849956591
20
-3.29215849075897
30
0
0
SPLINE
5
EE
100
AcDbEntity
8
1
62
256
6
ByLayer
370
18
48
1
60
0
100
AcDbSpline
70
4
71
3
72
30
73
26
40
0
40
0
40
0
40
0
40
0.036767595457601
40
0.0918639986158137
40
0.146960401774026
40
0.202056804932239
40
0.284701409669558
40
0.367346014406877
40
0.449990619144197
40
0.505087022302409
40
0.546409324671069
40
0.573957526250175
40
0.601505727829282
40
0.615279828618835
40
0.629053929408388
40
0.649715080592718
40
0.670376231777048
40
0.691037382961377
40
0.711698534145707
40
0.732359685330037
40
0.76679493730392
40
0.808117239672579
40
0.863213642830792
40
0.945858247568111
40
1
40
1
40
1
40
1
41
1
10
34.5004990346469
20
-2.71441558649266
30
0
41
1
10
34.3336660230979
20
-2.68766302839555
30
0
41
1
10
33.916833011549
20
-2.61336165520629
30
0
41
1
10
33.25
20
-2.46524378772116
30
0
41
1
10
32.5
20
-2.26178838826758
30
0
41
1
10
31.625
20
-1.98692031335156
30
0
41
1
10
30.625
20
-1.62230575242071
30
0
41
1
10
29.5
20
-1.15648206382994
30
0
41
1
10
28.5
20
-0.709063497003058
30
0
41
1
10
27.6875
20
-0.332672692295603
30
0
41
1
10
27.125
20
-0.0694104955778982
30
0
41
1
10
26.6875
20
0.136144638220316
30
0
41
1
10
26.375
20
0.281389324669846
30
0
41
1
10
26.125
20
0.39858775768235
30
0
41
1
10
25.90625
20
0.496836068564363
30
0
41
1
10
25.65625
20
0.614859087101934
30
0
41
1
10
25.375
20
0.742913217337332
30
0
41
1
10
25.09375
20
0.871719143449496
30
0
41
1
10
24.8125
20
0.993756859522733
30
0
41
1
10
24.46875
20
1.14536753758202
30
0
41
1
10
24.03125
20
1.33052507097929
30
0
41
1
10
23.4375
20
1.57390313429633
30
0
41
1
10
22.625
20
1.88292739780297
30
0
41
1
10
21.7543317288952
20
2.17487975551447
30
0
41
1
10
21.1336634577904
20
2.34914998941772
30
0
41
1
10
20.8879951866855
20
2.41243684633241
30
0
0
SPLINE
5
EF
100
AcDbEntity
8
1
62
256
6
ByLayer
370
18
48
1
60
0
100
AcDbSpline
70
4
71
3
72
22
73
18
40
0
40
0
40
0
40
0
40
0.125000000000001
40
0.125000000000001
40
0.250000000000001
40
0.250000000000001
40
0.375000000000002
40
0.375000000000002
40
0.437500000000002
40
0.437500000000002
40
0.500000000000002
40
0.500000000000002
40
0.625000000000001
40
0.625000000000001
40
0.750000000000001
40
0.750000000000001
40
1
40
1
40
1
40
1
41
1
10
34.5811304600794
20
2.12717028350403
30
0
41
1
10
34.6235709018608
20
2.09648563313243
30
0
41
1
10
34.6683128604521
20
2.0625906775121
30
0
41
1
10
34.7613282608991
20
1.98987483809614
30
0
41
1
10
34.8096120602949
20
1.9510395029219
30
0
41
1
10
34.9091214957129
20
1.86926537276921
30
0
41
1
10
34.9603518763117
20
1.82631995975598
30
0
41
1
10
35.039130333251
20
1.75920572852743
30
0
41
1
10
35.065765934439
20
1.73633734897595
30
0
41
1
10
35.1193373287264
20
1.69001626533466
30
0
41
1
10
35.1462727402453
20
1.66656478500644
30
0
41
1
10
35.2274948619213
20
1.59540215457656
30
0
41
1
10
35.2821959478103
20
1.54688575209178
30
0
41
1
10
35.3925738174565
20
1.44795688282977
30
0
41
1
10
35.4482512277232
20
1.39754319856283
30
0
41
1
10
35.6166163655776
20
1.24371192027564
30
0
41
1
10
35.7306270668042
20
1.13772340429031
30
0
41
1
10
35.8461928136552
20
1.02871298307622
30
0
0
SPLINE
5
F0
100
AcDbEntity
8
1
62
256
6
ByLayer
370
18
48
1
60
0
100
AcDbSpline
70
4
71
3
72
10
73
6
40
0
40
0
40
0
40
0
40
0.391142455882976
40
0.895946220263358
40
1
40
1
40
1
40
1
41
1
10
34.5811304562523
20
2.12717028738689
30
0
41
1
10
34.3874203041682
20
2.20529536606264
30
0
41
1
10
33.9437101520841
20
2.37499145626123
30
0
41
1
10
33.4484682033501
20
2.53637811316531
30
0
41
1
10
33.1469364067002
20
2.62073129839016
30
0
41
1
10
33.0954046100503
20
2.63475794262857
30
0
0
SPLINE
5
F1
100
AcDbEntity
8
1
62
256
6
ByLayer
370
18
48
1
60
0
100
AcDbSpline
70
4
71
3
72
8
73
4
40
0
40
0
40
0
40
0
40
1
40
1
40
1
40
1
41
1
10
14.7979777656903
20
-2.95412534609323
30
0
41
1
10
14.1986518437936
20
-3.02283854189966
30
0
41
1
10
13.5993259218968
20
-3.03558350736313
30
0
41
1
10
13
20
-2.98738699772892
30
0
0
SPLINE
5
F2
100
AcDbEntity
8
1
62
256
6
ByLayer
370
18
48
1
60
0
100
AcDbSpline
70
4
71
3
72
8
73
4
40
0
40
0
40
0
40
0
40
1
40
1
40
1
40
1
41
1
10
21.4075645493926
20
-3.51240890684596
30
0
41
1
10
21.3607136619426
20
-3.51406422267951
30
0
41
1
10
21.3138627744927
20
-3.51536342568181
30
0
41
1
10
21.2670118870428
20
-3.51630462105209
30
0
0
SPLINE
5
F3
100
AcDbEntity
8
1
62
256
6
ByLayer
370
13
48
1
60
0
100
AcDbSpline
70
4
71
3
72
14
73
10
40
0
40
0
40
0
40
0
40
0.0020578036511811
40
0.0927798215010737
40
0.183501839350966
40
0.319584866125805
40
0.455667892900644
40
0.63711192860043
40
1
40
1
40
1
40
1
41
1
10
21.2670118872459
20
-3.51630462104802
30
0
41
1
10
21.2613412581639
20
-3.51641853927103
30
0
41
1
10
21.005670629082
20
-3.5213182836041
30
0
41
1
10
20.4999999999999
20
-3.50990905626415
30
0
41
0.999999999999999
10
19.625
20
-3.42012104686515
30
0
41
1
10
18.625
20
-3.21906926379668
30
0
41
1
10
17.375
20
-2.82828264118518
30
0
41
1
10
15.5
20
-2.02894873204733
30
0
41
1
10
13.9999999999999
20
-1.15584257911809
30
0
41
1
10
13
20
-0.547085801815001
30
0
0
SPLINE
5
F4
100
AcDbEntity
8
1
62
256
6
ByLayer
370
18
48
1
60
0
100
AcDbSpline
70
4
71
3
72
18
73
14
40
0
40
0
40
0
40
0
40
0.249999999999999
40
0.249999999999999
40
0.499999999999996
40
0.499999999999996
40
0.624999999999997
40
0.624999999999997
40
0.749999999999998
40
0.749999999999998
40
0.874999999999999
40
0.874999999999999
40
1
40
1
40
1
40
1
41
1
10
36.4414942254628
20
-2.96856368902169
30
0
41
1
10
36.4500585681023
20
-2.95900926496947
30
0
41
1
10
36.4584592819594
20
-2.95059587111879
30
0
41
1
10
36.4749007262705
20
-2.93627942413616
30
0
41
1
10
36.4829130663367
20
-2.93040555597011
30
0
41
1
10
36.4943977467875
20
-2.92401726006054
30
0
41
1
10
36.4981480813121
20
-2.92229017614414
30
0
41
1
10
36.5053556829752
20
-2.91978761348577
30
0
41
1
10
36.5088259410978
20
-2.91900302105171
30
0
41
1
10
36.5154623094495
20
-2.9184967354245
30
0
41
1
10
36.5186289193702
20
-2.9187732959692
30
0
41
1
10
36.5245959609264
20
-2.92060609260645
30
0
41
1
10
36.5273885239765
20
-2.92216799783742
30
0
41
1
10
36.5298931214869
20
-2.92448139513542
30
0
0
SPLINE
5
F5
100
AcDbEntity
8
1
62
256
6
ByLayer
370
13
48
1
60
0
100
AcDbSpline
70
4
71
3
72
30
73
26
40
0
40
0
40
0
40
0
40
0.0446083163315244
40
0.0957497286424201
40
0.172461847108764
40
0.249173965575107
40
0.32588608404145
40
0.377027496352346
40
0.415383555585518
40
0.440954261740966
40
0.466524967896414
40
0.479310320974138
40
0.492095674051861
40
0.511273703668447
40
0.530451733285033
40
0.549629762901619
40
0.568807792518205
40
0.587985822134791
40
0.619949204829101
40
0.658305264062272
40
0.709446676373168
40
0.786158794839511
40
0.862870913305855
40
0.965153737927646
40
1
40
1
40
1
40
1
41
1
10
33.1541907181846
20
-3.51622071540692
30
0
41
1
10
32.9361271454564
20
-3.52035224433243
30
0
41
1
10
32.4680635727282
20
-3.51524748576506
30
0
41
1
10
31.625
20
-3.45065413493066
30
0
41
1
10
30.625
20
-3.2867642668466
30
0
41
1
10
29.4999999999999
20
-2.99683207455666
30
0
41
1
10
28.5
20
-2.65009565972275
30
0
41
1
10
27.6875
20
-2.31505515716171
30
0
41
0.999999999999999
10
27.125
20
-2.06041838883695
30
0
41
1
10
26.6875
20
-1.8513058629967
30
0
41
1
10
26.375
20
-1.69625810011081
30
0
41
1
10
26.1249999999999
20
-1.56920168496384
30
0
41
1
10
25.9062499999999
20
-1.45638154554823
30
0
41
1
10
25.65625
20
-1.32525580237973
30
0
41
1
10
25.375
20
-1.17511036145217
30
0
41
1
10
25.09375
20
-1.0226392417195
30
0
41
1
10
24.8125
20
-0.868157735931249
30
0
41
1
10
24.4687499999999
20
-0.677097791037539
30
0
41
0.999999999999999
10
24.03125
20
-0.430521133716298
30
0
41
1
10
23.4375
20
-0.0915079506156359
30
0
41
0.999999999999999
10
22.625
20
0.373577025401886
30
0
41
1
10
21.625
20
0.936392611399099
30
0
41
1
10
20.3749999999999
20
1.60808527757032
30
0
41
1
10
19.3296573144064
20
2.11441456552021
30
0
41
1
10
18.6593146288128
20
2.39851053164523
30
0
41
1
10
18.4889719432192
20
2.46785783099477
30
0
0
SPLINE
5
F6
100
AcDbEntity
8
1
62
256
6
ByLayer
370
13
48
1
60
0
100
AcDbSpline
70
4
71
3
72
14
73
10
40
0
40
0
40
0
40
0
40
0.198877321319631
40
0.363256745130898
40
0.527636168942165
40
0.692015592753431
40
0.815300160611881
40
0.938584728470331
40
1
40
1
40
1
40
1
41
1
10
36.4074006194411
20
-0.322765140594726
30
0
41
1
10
36.1049337462941
20
-0.122888997798128
30
0
41
1
10
35.5524668731471
20
0.245542138913834
30
0
41
1
10
34.75
20
0.770348518105919
30
0
41
1
10
34
20
1.24994396712807
30
0
41
1
10
33.3125
20
1.66547114073202
30
0
41
1
10
32.6875
20
2.01257711983485
30
0
41
1
10
32.2190952567151
20
2.25835195724585
30
0
41
1
10
31.9381905134302
20
2.39709564186609
30
0
41
1
10
31.8447857701452
20
2.44211057632947
30
0
0
SPLINE
5
F7
100
AcDbEntity
8
1
62
256
6
ByLayer
370
13
48
1
60
0
100
AcDbSpline
70
4
71
3
72
16
73
12
40
0
40
0
40
0
40
0
40
0.291362238738454
40
0.437043358107682
40
0.546304197634602
40
0.655565037161522
40
0.728405596846136
40
0.80124615653075
40
0.874086716215363
40
0.946927275899977
40
1
40
1
40
1
40
1
41
1
10
13
20
1.19934813667277
30
0
41
1
10
14
20
0.991068720529369
30
0
41
1
10
15.5
20
0.603687270108992
30
0
41
1
10
17.375
20
0.0700578541917025
30
0
41
1
10
18.625
20
-0.288229904414635
30
0
41
0.999999999999999
10
19.625
20
-0.565558047119595
30
0
41
1
10
20.5
20
-0.795525748822058
30
0
41
1
10
21.25
20
-0.981073230622542
30
0
41
1
10
22
20
-1.15201931621124
30
0
41
1
10
22.682153748989
20
-1.29174265587338
30
0
41
1
10
23.1143074979779
20
-1.37071247859103
30
0
41
1
10
23.2964612469669
20
-1.40217117691944
30
0
0
SPLINE
5
F8
100
AcDbEntity
8
1
62
256
6
ByLayer
370
18
48
1
60
0
100
AcDbSpline
70
4
71
3
72
14
73
10
40
0
40
0
40
0
40
0
40
0.5
40
0.5
40
0.625000000000001
40
0.625000000000001
40
0.750000000000001
40
0.750000000000001
40
1
40
1
40
1
40
1
41
1
10
36.9853863365218
20
-1.81406336397521
30
0
41
1
10
36.9694173020893
20
-1.72560893118211
30
0
41
1
10
36.9555022827755
20
-1.64843408971964
30
0
41
1
10
36.9407203707032
20
-1.56630853687489
30
0
41
1
10
36.9378956744787
20
-1.55060657892284
30
0
41
1
10
36.9325153324104
20
-1.5206801488998
30
0
41
1
10
36.9299788783348
20
-1.50656240366246
30
0
41
1
10
36.9228452960168
20
-1.46682771242601
30
0
41
1
10
36.9187110603422
20
-1.44375769473882
30
0
41
1
10
36.915177627892
20
-1.42399364558085
30
0
0
SPLINE
5
F9
100
AcDbEntity
8
1
62
256
6
ByLayer
370
13
48
1
60
0
100
AcDbSpline
70
4
71
3
72
26
73
22
40
0
40
0
40
0
40
0
40
0.0218639343094102
40
0.0505721376985469
40
0.0792803410876837
40
0.107988544476821
40
0.136696747865957
40
0.165404951255094
40
0.184543753514518
40
0.203682555773943
40
0.241960160292792
40
0.280237764811641
40
0.337654171589915
40
0.414209380627613
40
0.52904219418416
40
0.643875007740707
40
0.758707821297254
40
0.835263030334952
40
0.91181823937265
40
0.988373448410348
40
1
40
1
40
1
40
1
41
1
10
24.3170522865043
20
1.67953432820232
30
0
41
1
10
24.3884515243362
20
1.67245042798044
30
0
41
1
10
24.553600762168
20
1.65501088100262
30
0
41
1
10
24.8125
20
1.62390619239557
30
0
41
1
10
25.09375
20
1.5855925223934
30
0
41
1
10
25.375
20
1.54287629874457
30
0
41
1
10
25.6562500000001
20
1.49584563066224
30
0
41
1
10
25.90625
20
1.45030302997677
30
0
41
1
10
26.125
20
1.40780860944395
30
0
41
1
10
26.375
20
1.3568813661588
30
0
41
1
10
26.6875
20
1.28890535811368
30
0
41
0.999999999999999
10
27.125
20
1.18616466207695
30
0
41
1
10
27.6875
20
1.04276454811125
30
0
41
1
10
28.5
20
0.815981939212606
30
0
41
1
10
29.5
20
0.509003389423441
30
0
41
1
10
30.625
20
0.13933753812023
30
0
41
1
10
31.625
20
-0.193278365314825
30
0
41
1
10
32.5
20
-0.477989587030379
30
0
41
1
10
33.25
20
-0.712929627141875
30
0
41
1
10
33.7879678657266
20
-0.87113347957208
30
0
41
1
10
34.0759357314531
20
-0.951577593385366
30
0
41
1
10
34.1139035971797
20
-0.962108456690174
30
0
0
SPLINE
5
FA
100
AcDbEntity
8
1
62
256
6
ByLayer
370
18
48
1
60
0
100
AcDbSpline
70
4
71
3
72
30
73
26
40
0
40
0
40
0
40
0
40
0.124999999999995
40
0.124999999999995
40
0.187499999999992
40
0.187499999999992
40
0.24999999999999
40
0.24999999999999
40
0.374999999999941
40
0.374999999999941
40
0.437499999999916
40
0.437499999999916
40
0.499999999999891
40
0.499999999999891
40
0.624999999999901
40
0.624999999999901
40
0.687499999999906
40
0.687499999999906
40
0.749999999999911
40
0.749999999999911
40
0.874999999999921
40
0.874999999999921
40
0.937499999999961
40
0.937499999999961
40
1
40
1
40
1
40
1
41
1
10
34.1139035971797
20
-0.962108456690203
30
0
41
1
10
34.1211181467048
20
-0.942021589838021
30
0
41
1
10
34.130644501693
20
-0.923239682287942
30
0
41
1
10
34.1480570556804
20
-0.896913051532437
30
0
41
1
10
34.1543867645796
20
-0.888447197237866
30
0
41
1
10
34.1680934678622
20
-0.872137927124129
30
0
41
1
10
34.1754995680898
20
-0.864274725484677
30
0
41
1
10
34.1988149506795
20
-0.842088692132279
30
0
41
1
10
34.2159302908812
20
-0.828993669219756
30
0
41
1
10
34.2438548897861
20
-0.81172100251078
30
0
41
1
10
34.2535673845682
20
-0.806348042301579
30
0
41
1
10
34.2736465594344
20
-0.796448858022188
30
0
41
1
10
34.2839270172712
20
-0.791961732514721
30
0
41
1
10
34.3154645343938
20
-0.779797640609218
30
0
41
1
10
34.3374133770701
20
-0.773411055800153
30
0
41
1
10
34.3717121499986
20
-0.766215389001133
30
0
41
1
10
34.3834176139842
20
-0.764212761494775
30
0
41
1
10
34.4069338106903
20
-0.761033054145059
30
0
41
1
10
34.4187758176301
20
-0.759846354151904
30
0
41
1
10
34.4545508536287
20
-0.757408638978831
30
0
41
1
10
34.4787318982617
20
-0.757274608934097
30
0
41
1
10
34.5155102387146
20
-0.759084069595133
30
0
41
1
10
34.5278758058612
20
-0.760027210643301
30
0
41
1
10
34.5525473788449
20
-0.762535798305265
30
0
41
1
10
34.5648780390496
20
-0.76410136802869
30
0
41
1
10
34.5772058521895
20
-0.76595871672248
30
0
0
SPLINE
5
FB
100
AcDbEntity
8
1
62
256
6
ByLayer
370
18
48
1
60
0
100
AcDbSpline
70
4
71
3
72
22
73
18
40
0
40
0
40
0
40
0
40
0.0304010209410659
40
0.0304010209410659
40
0.111200935862652
40
0.111200935862652
40
0.192000850784238
40
0.192000850784238
40
0.35360068062739
40
0.35360068062739
40
0.515200510470543
40
0.515200510470543
40
0.676800340313695
40
0.676800340313695
40
0.838400170156848
40
0.838400170156848
40
1
40
1
40
1
40
1
41
1
10
36.4926167913556
20
-1.18852538398457
30
0
41
1
10
36.4751812525461
20
-1.18186999616822
30
0
41
1
10
36.4575709547595
20
-1.17534684518219
30
0
41
1
10
36.3925786130358
20
-1.15192331385862
30
0
41
1
10
36.3442364217318
20
-1.13574945897062
30
0
41
1
10
36.2457625906259
20
-1.10475579120808
30
0
41
1
10
36.1955064171646
20
-1.08990560535253
30
0
41
1
10
36.0441168909407
20
-1.04744510805577
30
0
41
1
10
35.9419662765155
20
-1.02174385884874
30
0
41
1
10
35.7360745890135
20
-0.97372652680798
30
0
41
1
10
35.6323234142044
20
-0.951431944718479
30
0
41
1
10
35.4236878258286
20
-0.909254790284905
30
0
41
1
10
35.3187996442347
20
-0.889380237885121
30
0
41
1
10
35.1081728073602
20
-0.851441299563447
30
0
41
1
10
35.0024322966398
20
-0.833380862800624
30
0
41
1
10
34.7902866493024
20
-0.798674593319134
30
0
41
1
10
34.6838806086248
20
-0.782030684822274
30
0
41
1
10
34.5772058521894
20
-0.765958716722508
30
0
0
SPLINE
5
FC
100
AcDbEntity
8
1
62
256
6
ByLayer
370
18
48
1
60
0
100
AcDbSpline
70
4
71
3
72
22
73
18
40
0
40
0
40
0
40
0
40
0.125000000000004
40
0.125000000000004
40
0.18750000000001
40
0.18750000000001
40
0.250000000000017
40
0.250000000000017
40
0.500000000000032
40
0.500000000000032
40
0.62500000000004
40
0.62500000000004
40
0.687500000000039
40
0.687500000000039
40
0.750000000000038
40
0.750000000000038
40
1
40
1
40
1
40
1
41
1
10
35.8461928136549
20
1.02871298307622
30
0
41
1
10
35.8644511951701
20
0.97743680677317
30
0
41
1
10
35.883687346728
20
0.924812309827388
30
0
41
1
10
35.9139468726993
20
0.843937692438772
30
0
41
1
10
35.9242324264312
20
0.816751941698158
30
0
41
1
10
35.9450885336023
20
0.762197150314421
30
0
41
1
10
35.9556739131754
20
0.734788446614004
30
0
41
1
10
36.0093532990447
20
0.597116883739233
30
0
41
1
10
36.0546845811488
20
0.484986741000853
30
0
41
1
10
36.1258844768182
20
0.3141182499065
30
0
41
1
10
36.150155587338
20
0.256713215561319
30
0
41
1
10
36.1873520213842
20
0.169946504677284
30
0
41
1
10
36.1999012374385
20
0.140871622332071
30
0
41
1
10
36.2251567117833
20
0.0827454692639265
30
0
41
1
10
36.2378595693115
20
0.0537012907473127
30
0
41
1
10
36.3017406635485
20
-0.0914273243510024
30
0
41
1
10
36.3540118721312
20
-0.207236802140272
30
0
41
1
10
36.4074006188969
20
-0.322765141012951
30
0
0
SPLINE
5
FD
100
AcDbEntity
8
1
62
256
6
ByLayer
370
18
48
1
60
0
100
AcDbSpline
70
4
71
3
72
18
73
14
40
0
40
0
40
0
40
0
40
0.25
40
0.25
40
0.5
40
0.5
40
0.625
40
0.625
40
0.75
40
0.75
40
0.875
40
0.875
40
1
40
1
40
1
40
1
41
1
10
36.4074006192611
20
-0.322765140861435
30
0
41
1
10
36.4163126927979
20
-0.342050037177074
30
0
41
1
10
36.4250262345245
20
-0.361317522479737
30
0
41
1
10
36.4420213587255
20
-0.399814609971685
30
0
41
1
10
36.4503045489485
20
-0.419044353347147
30
0
41
1
10
36.4623262994535
20
-0.447853622336652
30
0
41
1
10
36.4662637656731
20
-0.457447844624426
30
0
41
1
10
36.4738651437227
20
-0.476339799674094
30
0
41
1
10
36.4775431095139
20
-0.485670416143222
30
0
41
1
10
36.4846073674508
20
-0.504057472964547
30
0
41
1
10
36.4879688308661
20
-0.51305039049916
30
0
41
1
10
36.4942317737915
20
-0.530412886698713
30
0
41
1
10
36.497142535852
20
-0.538805020784764
30
0
41
1
10
36.4997732773989
20
-0.546830346890317
30
0
0
SPLINE
5
FE
100
AcDbEntity
8
1
62
256
6
ByLayer
370
18
48
1
60
0
100
AcDbSpline
70
4
71
3
72
8
73
4
40
0
40
0
40
0
40
0
40
1
40
1
40
1
40
1
41
1
10
36.962010682261
20
3.99798973207947
30
0
41
1
10
36.974672266662
20
3.99711892271009
30
0
41
1
10
36.9873354084462
20
3.99626908796742
30
0
41
1
10
37
20
3.99544015008377
30
0
0
SPLINE
5
FF
100
AcDbEntity
8
1
62
256
6
ByLayer
370
18
48
1
60
0
100
AcDbSpline
70
4
71
3
72
8
73
4
40
0
40
0
40
0
40
0
40
1
40
1
40
1
40
1
41
1
10
11.9898811156356
20
-1.23671328086886
30
0
41
0.99999999397614
10
11.9904948954462
20
-1.23705464828448
30
0
41
0.99999999397614
10
11.9911086888657
20
-1.23739607518405
30
0
41
1
10
11.9917224958832
20
-1.23773756156129
30
0
0
SPLINE
5
100
100
AcDbEntity
8
1
62
256
6
ByLayer
370
18
48
1
60
0
100
AcDbSpline
70
4
71
3
72
13
73
9
40
0
40
0
40
0
40
0
40
0.16709020892679
40
0.334006304667823
40
0.500751893650883
40
0.66733046961523
40
0.833745414599117
40
1
40
1
40
1
40
1
41
1
10
12.1097281099719
20
-1.05577793536889
30
0
41
1
10
12.1030830706917
20
-1.06582692008493
30
0
41
1
10
12.0897999164686
20
-1.08591441816296
30
0
41
1
10
12.0699862141728
20
-1.11615446314343
30
0
41
1
10
12.0502667159965
20
-1.14645105760891
30
0
41
1
10
12.0306505900213
20
-1.17681353246854
30
0
41
1
10
12.011128430653
20
-1.20722981661416
30
0
41
1
10
11.998189060374
20
-1.22757158079193
30
0
41
1
10
11.991722493873
20
-1.23773756012218
30
0
0
SPLINE
5
101
100
AcDbEntity
8
1
62
256
6
ByLayer
370
18
48
1
60
0
100
AcDbSpline
70
4
71
3
72
8
73
4
40
0
40
0
40
0
40
0
40
1
40
1
40
1
40
1
41
1
10
36.8274065794433
20
3.99821189618544
30
0
41
1
10
36.8580981431283
20
3.90568473607314
30
0
41
1
10
36.891044801593
20
3.81398903889828
30
0
41
1
10
36.9267355311165
20
3.72330509207683
30
0
0
SPLINE
5
102
100
AcDbEntity
8
1
62
256
6
ByLayer
370
13
48
1
60
0
100
AcDbSpline
70
4
71
3
72
12
73
8
40
0
40
0
40
0
40
0
40
0.345708654324774
40
0.527439244642418
40
0.709169834960062
40
0.890900425277705
40
1
40
1
40
1
40
1
41
1
10
36.9267355335741
20
3.72330509316583
30
0
41
1
10
36.4511570223828
20
3.71511743040855
30
0
41
1
10
35.7255785111914
20
3.64240857002318
30
0
41
1
10
34.75
20
3.42962148243944
30
0
41
1
10
34
20
3.20734588122101
30
0
41
1
10
33.3499157811962
20
2.96570638662578
30
0
41
1
10
32.9498315623924
20
2.79554203058189
30
0
41
1
10
32.7997473435886
20
2.72891141862357
30
0
0
SPLINE
5
103
100
AcDbEntity
8
1
62
256
6
ByLayer
370
18
48
1
60
0
100
AcDbSpline
70
4
71
3
72
8
73
4
40
0
40
0
40
0
40
0
40
1
40
1
40
1
40
1
41
1
10
36.8274065794513
20
3.99821189618845
30
0
41
1
10
36.8722727530072
20
3.99787875510606
30
0
41
1
10
36.9171407874341
20
3.99780475310885
30
0
41
1
10
36.9620106816002
20
3.99798973206143
30
0
0
SPLINE
5
104
100
AcDbEntity
8
1
62
256
6
ByLayer
370
18
48
1
60
0
100
AcDbSpline
70
4
71
3
72
8
73
4
40
0
40
0
40
0
40
0
40
1
40
1
40
1
40
1
41
1
10
12.049008286913
20
-1.02216533332609
30
0
41
0.999993534835474
10
12.0692330756279
20
-1.03330498405008
30
0
41
0.999993534835474
10
12.0894731475025
20
-1.04450925716826
30
0
41
1
10
12.1097281099708
20
-1.05577793536824
30
0
0
SPLINE
5
105
100
AcDbEntity
8
1
62
256
6
ByLayer
370
18
48
1
60
0
100
AcDbSpline
70
4
71
3
72
8
73
4
40
0
40
0
40
0
40
0
40
1
40
1
40
1
40
1
41
1
10
12.0603074519381
20
-0.492203553257951
30
0
41
1
10
12.1649213983591
20
-0.512509276427778
30
0
41
1
10
12.2701635981536
20
-0.534976560367284
30
0
41
1
10
12.3760378421663
20
-0.559618447809783
30
0
0
SPLINE
5
106
100
AcDbEntity
8
1
62
256
6
ByLayer
370
18
48
1
60
0
100
AcDbSpline
70
4
71
3
72
10
73
6
40
0
40
0
40
0
40
0
40
0.5
40
0.5
40
1
40
1
40
1
40
1
41
1
10
10.71207184639
20
-3.56416305093126
30
0
41
1
10
10.5384203425023
20
-3.50045971207987
30
0
41
1
10
10.3639804824304
20
-3.43095787586276
30
0
41
1
10
10.0109648204311
20
-3.28319757835894
30
0
41
1
10
9.8323860331943
20
-3.20493908716739
30
0
41
1
10
9.65042398575591
20
-3.1241197516199
30
0
0
SPLINE
5
107
100
AcDbEntity
8
1
62
256
6
ByLayer
370
18
48
1
60
0
100
AcDbSpline
70
4
71
3
72
38
73
34
40
0
40
0
40
0
40
0
40
0.125000000000015
40
0.125000000000015
40
0.250000000000029
40
0.250000000000029
40
0.375000000000044
40
0.375000000000044
40
0.437500000000046
40
0.437500000000046
40
0.500000000000047
40
0.500000000000047
40
0.562500000000049
40
0.562500000000049
40
0.593750000000046
40
0.593750000000046
40
0.625000000000044
40
0.625000000000044
40
0.687500000000037
40
0.687500000000037
40
0.75000000000003
40
0.75000000000003
40
0.812500000000024
40
0.812500000000024
40
0.843750000000021
40
0.843750000000021
40
0.875000000000019
40
0.875000000000019
40
0.937500000000014
40
0.937500000000014
40
0.968750000000007
40
0.968750000000007
40
1
40
1
40
1
40
1
41
1
10
9.65042398575591
20
-3.1241197516199
30
0
41
1
10
9.61323346962081
20
-3.10760140152976
30
0
41
1
10
9.57703776098833
20
-3.09021645513565
30
0
41
1
10
9.50697203204462
20
-3.05337606436828
30
0
41
1
10
9.47309775104569
20
-3.03392444648839
30
0
41
1
10
9.40822247120266
20
-2.99242678155861
30
0
41
1
10
9.37721087694106
20
-2.97039014373902
30
0
41
1
10
9.33357192745129
20
-2.93471886792784
30
0
41
1
10
9.31946876684106
20
-2.92234631955333
30
0
41
1
10
9.2927380213244
20
-2.89684292889152
30
0
41
1
10
9.28008724407505
20
-2.88369977233882
30
0
41
1
10
9.25646011894921
20
-2.85649819698185
30
0
41
1
10
9.24548202186182
20
-2.84244067012088
30
0
41
1
10
9.23053188501277
20
-2.82052901951593
30
0
41
1
10
9.22579435624513
20
-2.81307077720999
30
0
41
1
10
9.21697513614683
20
-2.79800929501391
30
0
41
1
10
9.2128821715319
20
-2.79039164274715
30
0
41
1
10
9.20161983021706
20
-2.76726153572872
30
0
41
1
10
9.19546151448745
20
-2.75147316225986
30
0
41
1
10
9.18630864609938
20
-2.71904784988763
30
0
41
1
10
9.18330763198699
20
-2.7023699791886
30
0
41
1
10
9.1811601939319
20
-2.66817808071337
30
0
41
1
10
9.18204116760424
20
-2.65111192371936
30
0
41
1
10
9.1864256774806
20
-2.62557968359812
30
0
41
1
10
9.18839844320732
20
-2.61708016770194
30
0
41
1
10
9.19339873679311
20
-2.60010823626641
30
0
41
1
10
9.19644681974054
20
-2.59159173834612
30
0
41
1
10
9.20705302403096
20
-2.56649161580208
30
0
41
1
10
9.2160412204104
20
-2.55034663671694
30
0
41
1
10
9.23215067067753
20
-2.52695980468385
30
0
41
1
10
9.23795949971012
20
-2.51930296993496
30
0
41
1
10
9.25042595691977
20
-2.50426182059328
30
0
41
1
10
9.25709206224803
20
-2.49687165447637
30
0
41
1
10
9.26410098618376
20
-2.48968293072886
30
0
0
SPLINE
5
108
100
AcDbEntity
8
1
62
256
6
ByLayer
370
18
48
1
60
0
100
AcDbSpline
70
4
71
3
72
36
73
32
40
0
40
0
40
0
40
0
40
0.0625000000000002
40
0.0625000000000002
40
0.125
40
0.125
40
0.156249999999998
40
0.156249999999998
40
0.187499999999996
40
0.187499999999996
40
0.249999999999996
40
0.249999999999996
40
0.312499999999996
40
0.312499999999996
40
0.374999999999997
40
0.374999999999997
40
0.437499999999997
40
0.437499999999997
40
0.499999999999998
40
0.499999999999998
40
0.562499999999998
40
0.562499999999998
40
0.624999999999998
40
0.624999999999998
40
0.749999999999999
40
0.749999999999999
40
0.812499999999999
40
0.812499999999999
40
0.874999999999999
40
0.874999999999999
40
1
40
1
40
1
40
1
41
1
10
9.26410098618376
20
-2.48968293072886
30
0
41
1
10
9.30956442224476
20
-2.4430532218818
30
0
41
1
10
9.36003381479466
20
-2.40020930844585
30
0
41
1
10
9.46818515270422
20
-2.32023068873966
30
0
41
1
10
9.52590019609195
20
-2.28311818759363
30
0
41
1
10
9.61678119322877
20
-2.23101404564116
30
0
41
1
10
9.6477997239771
20
-2.21424475663253
30
0
41
1
10
9.71115781409191
20
-2.18182209113189
30
0
41
1
10
9.74329079369031
20
-2.16627583253055
30
0
41
1
10
9.84055341825606
20
-2.12159128738403
30
0
41
1
10
9.90669474333509
20
-2.094315876368
30
0
41
1
10
10.0410929905134
20
-2.04398390240328
30
0
41
1
10
10.1093534896744
20
-2.0209334325678
30
0
41
1
10
10.2476993802292
20
-1.97857373787568
30
0
41
1
10
10.3177864940616
20
-1.95926745506497
30
0
41
1
10
10.4596005092975
20
-1.92410190581532
30
0
41
1
10
10.53145981296
20
-1.9082229697529
30
0
41
1
10
10.6756193494421
20
-1.8799335528609
30
0
41
1
10
10.7480124258119
20
-1.86749418085282
30
0
41
1
10
10.8933778477573
20
-1.8458175693209
30
0
41
1
10
10.9663503977456
20
-1.83658129102489
30
0
41
1
10
11.1128458446041
20
-1.82118689980294
30
0
41
1
10
11.186405385114
20
-1.81502714412096
30
0
41
1
10
11.407651470736
20
-1.80108213456796
30
0
41
1
10
11.5551912460141
20
-1.79785167398495
30
0
41
1
10
11.7765615797425
20
-1.80172606332223
30
0
41
1
10
11.850388493497
20
-1.80447730165116
30
0
41
1
10
11.9979499241441
20
-1.81287189354612
30
0
41
1
10
12.0715232643152
20
-1.81850519250756
30
0
41
1
10
12.2916271602186
20
-1.8396399033827
30
0
41
1
10
12.4375426848919
20
-1.85937394532826
30
0
41
1
10
12.5826354210103
20
-1.88462105858255
30
0
0
SPLINE
5
109
100
AcDbEntity
8
1
62
256
6
ByLayer
370
18
48
1
60
0
100
AcDbSpline
70
4
71
3
72
28
73
24
40
0
40
0
40
0
40
0
40
0.250000000000004
40
0.250000000000004
40
0.37500000000003
40
0.37500000000003
40
0.500000000000057
40
0.500000000000057
40
0.562500000000068
40
0.562500000000068
40
0.62500000000008
40
0.62500000000008
40
0.656250000000087
40
0.656250000000087
40
0.687500000000095
40
0.687500000000095
40
0.750000000000076
40
0.750000000000076
40
0.812500000000057
40
0.812500000000057
40
0.875000000000038
40
0.875000000000038
40
1
40
1
40
1
40
1
41
1
10
9.89281378549296
20
1.17851433718192
30
0
41
1
10
9.87848323009601
20
1.19310002689468
30
0
41
1
10
9.86477311047781
20
1.20814931900881
30
0
41
1
10
9.84605545981515
20
1.23212796024563
30
0
41
1
10
9.84012320005397
20
1.24037330595749
30
0
41
1
10
9.82945003109324
20
1.25742799581772
30
0
41
1
10
9.82463470357578
20
1.2663003987376
30
0
41
1
10
9.8192074596852
20
1.28029327798524
30
0
41
1
10
9.81771400020759
20
1.2850437767182
30
0
41
1
10
9.81571571741316
20
1.29481712918414
30
0
41
1
10
9.8152283836445
20
1.29977318798359
30
0
41
1
10
9.81571971071591
20
1.3071860541105
30
0
41
1
10
9.8160971101899
20
1.30968038063273
30
0
41
1
10
9.81733023353488
20
1.31449189647572
30
0
41
1
10
9.81818374559046
20
1.31682560925111
30
0
41
1
10
9.82154299697396
20
1.3235846405947
30
0
41
1
10
9.82479004646189
20
1.32756441819066
30
0
41
1
10
9.8326696817264
20
1.33418792384242
30
0
41
1
10
9.83712370330218
20
1.33675541467326
30
0
41
1
10
9.84669405586962
20
1.34093329825501
30
0
41
1
10
9.85164889694698
20
1.34247142709262
30
0
41
1
10
9.8667896135627
20
1.34606855123783
30
0
41
1
10
9.8772887916233
20
1.34712803022941
30
0
41
1
10
9.88777133481915
20
1.34750449067093
30
0
0
SPLINE
5
10A
100
AcDbEntity
8
1
62
256
6
ByLayer
370
18
48
1
60
0
100
AcDbSpline
70
4
71
3
72
48
73
44
40
0
40
0
40
0
40
0
40
0.0625000000000154
40
0.0625000000000154
40
0.125000000000031
40
0.125000000000031
40
0.156250000000038
40
0.156250000000038
40
0.187500000000046
40
0.187500000000046
40
0.250000000000061
40
0.250000000000061
40
0.265625000000068
40
0.265625000000068
40
0.281250000000074
40
0.281250000000074
40
0.312500000000078
40
0.343750000000082
40
0.359375000000084
40
0.359375000000084
40
0.375000000000086
40
0.375000000000086
40
0.437500000000082
40
0.437500000000082
40
0.453125000000081
40
0.453125000000081
40
0.46875000000008
40
0.46875000000008
40
0.500000000000074
40
0.500000000000074
40
0.562500000000065
40
0.562500000000065
40
0.625000000000056
40
0.625000000000056
40
0.687500000000047
40
0.687500000000047
40
0.750000000000038
40
0.750000000000038
40
0.81250000000003
40
0.81250000000003
40
0.875000000000021
40
0.875000000000021
40
1
40
1
40
1
40
1
41
1
10
9.887771334825
20
1.34750449062719
30
0
41
1
10
9.92913606199588
20
1.3489900255079
30
0
41
1
10
9.97033078828142
20
1.35169529414023
30
0
41
1
10
10.0522847328804
20
1.36022345167842
30
0
41
1
10
10.0930448744163
20
1.36604005758403
30
0
41
1
10
10.1537512931144
20
1.37785709805209
30
0
41
1
10
10.1739670222291
20
1.38232881670345
30
0
41
1
10
10.2139338990424
20
1.39241144737756
30
0
41
1
10
10.2336686016145
20
1.39801482245659
30
0
41
1
10
10.2920279318403
20
1.41672586478086
30
0
41
1
10
10.3298169626508
20
1.43171564214231
30
0
41
1
10
10.3752167582547
20
1.45454309023907
30
0
41
1
10
10.3842041744118
20
1.45931456217869
30
0
41
1
10
10.401979664997
20
1.4692997496318
30
0
41
1
10
10.4107815719871
20
1.47452377524726
30
0
41
1
10
10.4365699240864
20
1.49071501653452
30
0
41
1
10
10.4694932558782
20
1.51378431324145
30
0
41
1
10
10.5068177721687
20
1.54646217026186
30
0
41
1
10
10.5274099098608
20
1.56785528575904
30
0
41
1
10
10.5407286669087
20
1.58252025054847
30
0
41
1
10
10.5471921570322
20
1.59006804852973
30
0
41
1
10
10.578074252108
20
1.62831572344902
30
0
41
1
10
10.5985384762015
20
1.66088803394393
30
0
41
1
10
10.6195647341295
20
1.70360439247904
30
0
41
1
10
10.6235417139583
20
1.71224802652228
30
0
41
1
10
10.631055556654
20
1.72972559836319
30
0
41
1
10
10.634594722996
20
1.73856919332661
30
0
41
1
10
10.644482425262
20
1.76510030362746
30
0
41
1
10
10.650143438277
20
1.78287482648088
30
0
41
1
10
10.6647298231412
20
1.8363847850909
30
0
41
1
10
10.6712777407275
20
1.87230312582389
30
0
41
1
10
10.6794984643812
20
1.94434529520476
30
0
41
1
10
10.6811449009095
20
1.98060865807031
30
0
41
1
10
10.6805737118139
20
2.05172577921005
30
0
41
1
10
10.6783863800351
20
2.08675595821129
30
0
41
1
10
10.6710634745244
20
2.15586231390242
30
0
41
1
10
10.6659220339557
20
2.18993782684143
30
0
41
1
10
10.6532226975873
20
2.2571994504226
30
0
41
1
10
10.6456618487761
20
2.29038522423167
30
0
41
1
10
10.6284772740795
20
2.35591028386062
30
0
41
1
10
10.6188439667454
20
2.38826048782988
30
0
41
1
10
10.5874504853924
20
2.48342784250409
30
0
41
1
10
10.5631664383891
20
2.54461783124682
30
0
41
1
10
10.5361834087186
20
2.60379677884754
30
0
0
SPLINE
5
10B
100
AcDbEntity
8
1
62
256
6
ByLayer
370
18
48
1
60
0
100
AcDbSpline
70
4
71
3
72
10
73
6
40
0
40
0
40
0
40
0
40
0.5
40
0.5
40
1
40
1
40
1
40
1
41
1
10
10.5361834087186
20
2.60379677884751
30
0
41
1
10
10.3447425167823
20
2.71822477188775
30
0
41
1
10
10.1526601577549
20
2.82570553601477
30
0
41
1
10
9.76412255335589
20
3.02492462934649
30
0
41
1
10
9.56766225209554
20
3.11665659495407
30
0
41
1
10
9.36744829273843
20
3.20000246236089
30
0
0
SPLINE
5
10C
100
AcDbEntity
8
1
62
256
6
ByLayer
370
18
48
1
60
0
100
AcDbSpline
70
4
71
3
72
36
73
32
40
0
40
0
40
0
40
0
40
0.124999999999998
40
0.124999999999998
40
0.249999999999996
40
0.249999999999996
40
0.374999999999995
40
0.374999999999995
40
0.437499999999994
40
0.437499999999994
40
0.499999999999993
40
0.499999999999993
40
0.562499999999992
40
0.562499999999992
40
0.624999999999991
40
0.624999999999991
40
0.687499999999991
40
0.687499999999991
40
0.71874999999999
40
0.71874999999999
40
0.74999999999999
40
0.74999999999999
40
0.81249999999999
40
0.81249999999999
40
0.843749999999992
40
0.843749999999992
40
0.874999999999993
40
0.874999999999993
40
0.937499999999997
40
0.937499999999997
40
1
40
1
40
1
40
1
41
1
10
9.36744829273843
20
3.20000246236089
30
0
41
1
10
9.33126208838581
20
3.21506620017226
30
0
41
1
10
9.29597827489962
20
3.23054886421127
30
0
41
1
10
9.22755711800087
20
3.26247329876946
30
0
41
1
10
9.19441534417865
20
3.27891310499592
30
0
41
1
10
9.13082896136928
20
3.31296729704806
30
0
41
1
10
9.10037314073386
20
3.33057662610898
30
0
41
1
10
9.05744363673378
20
3.3581761369426
30
0
41
1
10
9.04364476390776
20
3.36754859874174
30
0
41
1
10
9.01747584011477
20
3.38653696363772
30
0
41
1
10
9.00507186986454
20
3.3961734216181
30
0
41
1
10
8.98188291228809
20
3.41578725388524
30
0
41
1
10
8.97109340472224
20
3.42576668468664
30
0
41
1
10
8.95151547230418
20
3.44614025689975
30
0
41
1
10
8.94289099916304
20
3.45636655102757
30
0
41
1
10
8.92832339582367
20
3.47692060143294
30
0
41
1
10
8.92237790246824
20
3.48724814110355
30
0
41
1
10
8.9158430692965
20
3.5028419689578
30
0
41
1
10
8.9140633759132
20
3.50805711816639
30
0
41
1
10
8.91138520451736
20
3.51852821405339
30
0
41
1
10
8.91048558388727
20
3.52381325317771
30
0
41
1
10
8.90927534798257
20
3.53950415308762
30
0
41
1
10
8.9104298080359
20
3.5497032417318
30
0
41
1
10
8.91522539853676
20
3.56461760037146
30
0
41
1
10
8.91733527900283
20
3.56952497570464
30
0
41
1
10
8.92260764298871
20
3.5792124975348
30
0
41
1
10
8.92578077087077
20
3.58399689268174
30
0
41
1
10
8.93666329581762
20
3.59786981306311
30
0
41
1
10
8.94577875589206
20
3.60658466070777
30
0
41
1
10
8.9673799633174
20
3.62308638233267
30
0
41
1
10
8.9799311419321
20
3.63089762737405
30
0
41
1
10
8.99377256246953
20
3.63816624068701
30
0
0
SPLINE
5
10D
100
AcDbEntity
8
1
62
256
6
ByLayer
370
18
48
1
60
0
100
AcDbSpline
70
4
71
3
72
37
73
33
40
0
40
0
40
0
40
0
40
0.0312500000000014
40
0.0312500000000014
40
0.0625000000000027
40
0.0625000000000027
40
0.125000000000005
40
0.125000000000005
40
0.156250000000004
40
0.156250000000004
40
0.187500000000003
40
0.187500000000003
40
0.250000000000001
40
0.250000000000001
40
0.312499999999999
40
0.312499999999999
40
0.374999999999997
40
0.374999999999997
40
0.437499999999995
40
0.437499999999995
40
0.499999999999994
40
0.499999999999994
40
0.62499999999999
40
0.62499999999999
40
0.68749999999999
40
0.68749999999999
40
0.749999999999991
40
0.812499999999992
40
0.812499999999992
40
0.874999999999993
40
0.874999999999993
40
1
40
1
40
1
40
1
41
1
10
8.9937725624695
20
3.63816624068701
30
0
41
1
10
9.01850288578257
20
3.65115299712443
30
0
41
1
10
9.0446332650545
20
3.66309624944887
30
0
41
1
10
9.09917694507655
20
3.68534270125613
30
0
41
1
10
9.12759286646144
20
3.69564363759127
30
0
41
1
10
9.21573432010189
20
3.72454726196631
30
0
41
1
10
9.278325484607
20
3.74117435391716
30
0
41
1
10
9.37660309780932
20
3.76334419001901
30
0
41
1
10
9.4101026561454
20
3.77026512092945
30
0
41
1
10
9.47843431324438
20
3.78330253832229
30
0
41
1
10
9.51304273988151
20
3.78937652788582
30
0
41
1
10
9.61799172624922
20
3.80646991726709
30
0
41
1
10
9.689469963579
20
3.81637531360161
30
0
41
1
10
9.83489502035724
20
3.83399159715998
30
0
41
1
10
9.90896941445476
20
3.84170598270396
30
0
41
1
10
10.0582220016994
20
3.85534770601566
30
0
41
1
10
10.1334947267242
20
3.86128712247509
30
0
41
1
10
10.2851696888107
20
3.8717877947021
30
0
41
1
10
10.361572800971
20
3.87634714520993
30
0
41
1
10
10.5154054691869
20
3.88434306256002
30
0
41
1
10
10.5929275390942
20
3.88778161425799
30
0
41
1
10
10.8260338392389
20
3.89664318653345
30
0
41
1
10
10.9822448052908
20
3.9006463263465
30
0
41
1
10
11.2176584311964
20
3.90444347993147
30
0
41
1
10
11.2963788557562
20
3.90533513237585
30
0
41
1
10
11.4538149940085
20
3.9064112218785
30
0
41
1
10
11.6112184671555
20
3.90678116216978
30
0
41
1
10
11.7685577682605
20
3.90577609181707
30
0
41
1
10
11.9258651271072
20
3.90407013521761
30
0
41
1
10
12.0045033865685
20
3.90286599928285
30
0
41
1
10
12.2396868685397
20
3.89815572993558
30
0
41
1
10
12.3957308806723
20
3.89356329256154
30
0
41
1
10
12.5510230044576
20
3.88721965720288
30
0
0
SPLINE
5
10E
100
AcDbEntity
8
1
62
256
6
ByLayer
370
18
48
1
60
0
100
AcDbSpline
70
4
71
3
72
8
73
4
40
0
40
0
40
0
40
0
40
1
40
1
40
1
40
1
41
1
10
37
20
-2.02998927221324
30
0
41
1
10
36.9853907715926
20
-1.94635364457145
30
0
41
1
10
36.9707839438837
20
-1.86242491197746
30
0
41
1
10
36.9561807582969
20
-1.77821064025753
30
0
0
SPLINE
5
10F
100
AcDbEntity
8
1
62
256
6
ByLayer
370
18
48
1
60
0
100
AcDbSpline
70
4
71
3
72
8
73
4
40
0
40
0
40
0
40
0
40
1
40
1
40
1
40
1
41
1
10
37
20
-2.20447743385995
30
0
41
1
10
36.9856602852508
20
-2.27441866381642
30
0
41
1
10
36.971322761676
20
-2.34398081921239
30
0
41
1
10
36.9569883396916
20
-2.41316001998501
30
0
0
SPLINE
5
110
100
AcDbEntity
8
1
62
256
6
ByLayer
370
18
48
1
60
0
100
AcDbSpline
70
4
71
3
72
12
73
8
40
0
40
0
40
0
40
0
40
0.044830013230246
40
0.204025011025205
40
0.363220008820164
40
0.575480005880109
40
1
40
1
40
1
40
1
41
1
10
20.0668049598454
20
0.66349325851607
30
0
41
1
10
19.9612033065636
20
0.726339864978996
30
0
41
1
10
19.4806016532818
20
1.01102620276382
30
0
41
1
10
18.625
20
1.50388575423457
30
0
41
1
10
17.375
20
2.16772500273723
30
0
41
1
10
15.5
20
3.02969056989534
30
0
41
1
10
13.9999999999999
20
3.46736836894925
30
0
41
1
10
13
20
3.61390186831318
30
0
0
SPLINE
5
111
100
AcDbEntity
8
1
62
256
6
ByLayer
370
18
48
1
60
0
100
AcDbSpline
70
4
71
3
72
8
73
4
40
0
40
0
40
0
40
0
40
1
40
1
40
1
40
1
41
1
10
33.1424737792838
20
0.671150805202842
30
0
41
1
10
33.1316292593874
20
0.67863263279358
30
0
41
1
10
33.120784739491
20
0.686110347398738
30
0
41
1
10
33.1099402195946
20
0.693583811742144
30
0
0
SPLINE
5
112
100
AcDbEntity
8
1
62
256
6
ByLayer
370
13
48
1
60
0
100
AcDbSpline
70
4
71
3
72
28
73
24
40
0
40
0
40
0
40
0
40
0.0508137893546346
40
0.11329588315948
40
0.207019023866749
40
0.300742164574017
40
0.394465305281286
40
0.456947399086131
40
0.503808969439766
40
0.535050016342188
40
0.566291063244611
40
0.581911586695823
40
0.597532110147034
40
0.620962895323851
40
0.644393680500668
40
0.667824465677485
40
0.691255250854303
40
0.71468603603112
40
0.753737344659148
40
0.800598915012782
40
0.863081008817628
40
0.956804149524896
40
1
40
1
40
1
40
1
41
1
10
33.1099402195933
20
0.693583811742997
30
0
41
1
10
32.9066268130622
20
0.833696560740606
30
0
41
1
10
32.4533134065311
20
1.14276508261133
30
0
41
1
10
31.625
20
1.68572068721122
30
0
41
1
10
30.625
20
2.28766092159091
30
0
41
1
10
29.5
20
2.86050113177475
30
0
41
1
10
28.5
20
3.25902895550314
30
0
41
1
10
27.6875
20
3.49209698023699
30
0
41
0.999999999999999
10
27.125
20
3.60706727673596
30
0
41
1
10
26.6875
20
3.67047142206735
30
0
41
1
10
26.375
20
3.70071517516152
30
0
41
1
10
26.125
20
3.71579642744945
30
0
41
1
10
25.90625
20
3.72364776215528
30
0
41
1
10
25.6562500000001
20
3.72494547984931
30
0
41
1
10
25.375
20
3.71595544869288
30
0
41
1
10
25.09375
20
3.69644840030594
30
0
41
1
10
24.8125
20
3.66627579109434
30
0
41
1
10
24.4687499999999
20
3.61656486459023
30
0
41
0.999999999999999
10
24.03125
20
3.53205311605973
30
0
41
1
10
23.4375
20
3.37923706725203
30
0
41
0.999999999999999
10
22.625
20
3.10700761118679
30
0
41
1
10
21.8271670816201
20
2.75651073377108
30
0
41
1
10
21.2793341632402
20
2.472313231219
30
0
41
1
10
21.1065012448603
20
2.37885984326877
30
0
0
SPLINE
5
113
100
AcDbEntity
8
1
62
256
6
ByLayer
370
18
48
1
60
0
100
AcDbSpline
70
4
71
3
72
8
73
4
40
0
40
0
40
0
40
0
40
1
40
1
40
1
40
1
41
1
10
13.0000000000001
20
-0.922029772164422
30
0
41
1
10
12.7901684401909
20
-0.8052240610198
30
0
41
1
10
12.5820742284741
20
-0.684675180432237
30
0
41
1
10
12.3761015826086
20
-0.55955532152322
30
0
0
SPLINE
5
114
100
AcDbEntity
8
1
62
256
6
ByLayer
370
18
48
1
60
0
100
AcDbSpline
70
4
71
3
72
22
73
18
40
0
40
0
40
0
40
0
40
0.0664197129566023
40
0.132868859685884
40
0.199348889850362
40
0.26586121597035
40
0.332407213958975
40
0.398988231982212
40
0.465605602856789
40
0.532260621546271
40
0.598954541218907
40
0.665688573659592
40
0.732463889706707
40
0.799281619712527
40
0.866142854026079
40
0.9330486434971
40
1
40
1
40
1
40
1
41
1
10
12.3760807229234
20
-0.559592173977649
30
0
41
1
10
12.3699434130783
20
-0.570457409210945
30
0
41
1
10
12.3576660736505
20
-0.592192694586373
30
0
41
1
10
12.3393710654023
20
-0.62487707314952
30
0
41
1
10
12.3211596393847
20
-0.657628282562541
30
0
41
1
10
12.3030407570611
20
-0.690450571525218
30
0
41
1
10
12.2850120000013
20
-0.723341281549239
30
0
41
1
10
12.2670739982536
20
-0.756299633401198
30
0
41
1
10
12.2492265643165
20
-0.789324371739639
30
0
41
1
10
12.2314697241246
20
-0.822414391726056
30
0
41
1
10
12.2138034620463
20
-0.855568572253219
30
0
41
1
10
12.1962277190389
20
-0.888785795747168
30
0
41
1
10
12.1787426592798
20
-0.922065029800962
30
0
41
1
10
12.1613476046667
20
-0.955404980948515
30
0
41
1
10
12.1440450335494
20
-0.98880540024274
30
0
41
1
10
12.1268256374429
20
-1.02226220381698
30
0
41
1
10
12.1154285790386
20
-1.04460348974467
30
0
41
1
10
12.1097281099695
20
-1.05577793536725
30
0
0
SPLINE
5
115
100
AcDbEntity
8
1
62
256
6
ByLayer
370
13
48
1
60
0
100
AcDbSpline
70
4
71
3
72
15
73
11
40
0
40
0
40
0
40
0
40
0.0439836346265437
40
0.123651665074331
40
0.20331969552212
40
0.282987725969908
40
0.40248977164159
40
0.521991817313272
40
0.681327878208848
40
1
40
1
40
1
40
1
41
1
10
22.4140647858935
20
-3.46646914411153
30
0
41
1
10
22.2760431905957
20
-3.49017617640493
30
0
41
1
10
21.8880215952979
20
-3.5483606945906
30
0
41
1
10
21.2500000000001
20
-3.60428515786677
30
0
41
1
10
20.5000000000001
20
-3.60740221017269
30
0
41
1
10
19.6250000000001
20
-3.53891362916059
30
0
41
1
10
18.6250000000001
20
-3.35898982535991
30
0
41
1
10
17.3750000000001
20
-2.98859951842166
30
0
41
1
10
15.5000000000001
20
-2.20790588358275
30
0
41
1
10
14.0000000000001
20
-1.33180034407641
30
0
41
1
10
13.0000000000001
20
-0.713006329241949
30
0
0
SPLINE
5
116
100
AcDbEntity
8
1
62
256
6
ByLayer
370
18
48
1
60
0
100
AcDbSpline
70
4
71
3
72
60
73
56
40
0
40
0
40
0
40
0
40
0.0238801038044381
40
0.0238801038044381
40
0.0936029535326947
40
0.0936029535326947
40
0.128464378396823
40
0.128464378396823
40
0.163325803260951
40
0.163325803260951
40
0.180756515693015
40
0.180756515693015
40
0.198187228125078
40
0.198187228125078
40
0.233048652989205
40
0.233048652989205
40
0.267910077853332
40
0.267910077853332
40
0.302771502717459
40
0.302771502717459
40
0.337632927581586
40
0.337632927581586
40
0.372494352445713
40
0.372494352445713
40
0.40735577730984
40
0.40735577730984
40
0.442217202173967
40
0.442217202173967
40
0.477078627038094
40
0.477078627038094
40
0.494509339470158
40
0.494509339470158
40
0.511940051902222
40
0.511940051902222
40
0.581662901630479
40
0.581662901630479
40
0.616524326494606
40
0.616524326494606
40
0.651385751358734
40
0.651385751358734
40
0.721108601086988
40
0.721108601086988
40
0.790831450815243
40
0.790831450815243
40
0.82569287567937
40
0.82569287567937
40
0.843123588111433
40
0.843123588111433
40
0.860554300543497
40
0.860554300543497
40
0.895415725407622
40
0.895415725407622
40
0.930277150271748
40
0.930277150271748
40
1
40
1
40
1
40
1
41
1
10
23.5800274507753
20
-3.33770208040391
30
0
41
1
10
23.4963538284898
20
-3.3658512338767
30
0
41
1
10
23.4126677578473
20
-3.39291468986966
30
0
41
1
10
23.084410793883
20
-3.49481260751074
30
0
41
1
10
22.8395072970837
20
-3.561453371049
30
0
41
1
10
22.4711325497032
20
-3.64652806142132
30
0
41
1
10
22.3481753064658
20
-3.67237669181614
30
0
41
1
10
22.1017946154949
20
-3.71906619784011
30
0
41
1
10
21.978365648942
20
-3.7399702375541
30
0
41
1
10
21.7927784652784
20
-3.76752536515949
30
0
41
1
10
21.7307786698513
20
-3.7760765503007
30
0
41
1
10
21.6070199266288
20
-3.79180419947434
30
0
41
1
10
21.5452427984338
20
-3.7989864093382
30
0
41
1
10
21.3601734307413
20
-3.81848185445591
30
0
41
1
10
21.2371395215074
20
-3.82874389324471
30
0
41
1
10
20.9915372071487
20
-3.84376354328592
30
0
41
1
10
20.8689823644156
20
-3.84849755823129
30
0
41
1
10
20.6240555563542
20
-3.85280903058714
30
0
41
1
10
20.5016768400839
20
-3.85240578812426
30
0
41
1
10
20.2569857752876
20
-3.84637422516263
30
0
41
1
10
20.1346805308648
20
-3.84074383225484
30
0
41
1
10
19.8901018627225
20
-3.82411240345203
30
0
41
1
10
19.7678270870825
20
-3.81311911510775
30
0
41
1
10
19.5231891353561
20
-3.78582296410525
30
0
41
1
10
19.4008195030853
20
-3.76952370819541
30
0
41
1
10
19.1557607556538
20
-3.73193662430251
30
0
41
1
10
19.0330839564987
20
-3.71060160707512
30
0
41
1
10
18.7873075701114
20
-3.66264199212731
30
0
41
1
10
18.6642040211852
20
-3.63603638195104
30
0
41
1
10
18.4791006177629
20
-3.59208349625726
30
0
41
1
10
18.4173256801285
20
-3.57675096106519
30
0
41
1
10
18.293596842443
20
-3.54478295821869
30
0
41
1
10
18.2315957616463
20
-3.5281352295352
30
0
41
1
10
17.9222410482358
20
-3.44205037963766
30
0
41
1
10
17.6760763880593
20
-3.36395536401818
30
0
41
1
10
17.3079158668719
20
-3.23357546709261
30
0
41
1
10
17.1853852324202
20
-3.18788926154542
30
0
41
1
10
16.9405669654319
20
-3.0921835272251
30
0
41
1
10
16.8182718348052
20
-3.04218393860623
30
0
41
1
10
16.4513983539639
20
-2.8863794234826
30
0
41
1
10
16.2069048481042
20
-2.77455770939656
30
0
41
1
10
15.7171006942604
20
-2.53536914353188
30
0
41
1
10
15.4717806647633
20
-2.40801180044264
30
0
41
1
10
15.102124162848
20
-2.20675353637756
30
0
41
1
10
14.9786296180667
20
-2.13794746635335
30
0
41
1
10
14.7928565782865
20
-2.0321894158711
30
0
41
1
10
14.7308601497199
20
-1.99652321442235
30
0
41
1
10
14.6070519544463
20
-1.92458851971415
30
0
41
1
10
14.5451934174626
20
-1.88829280226835
30
0
41
1
10
14.3597199932715
20
-1.77846791173593
30
0
41
1
10
14.2362099004637
20
-1.70399372742122
30
0
41
1
10
13.9892566964792
20
-1.55285583261019
30
0
41
1
10
13.8658035858109
20
-1.47621983175171
30
0
41
1
10
13.4952826790832
20
-1.24340056084361
30
0
41
1
10
13.2480942214656
20
-1.08417565038488
30
0
41
1
10
13.0000000000001
20
-0.92202977216445
30
0
0
SPLINE
5
117
100
AcDbEntity
8
1
62
256
6
ByLayer
370
18
48
1
60
0
100
AcDbSpline
70
4
71
3
72
24
73
20
40
0
40
0
40
0
40
0
40
0.064541520820853
40
0.0980768331573518
40
0.131612145493851
40
0.198682770166848
40
0.332824019512844
40
0.399894644185842
40
0.466965268858839
40
0.534035893531837
40
0.601106518204835
40
0.634641830541334
40
0.668177142877832
40
0.73524776755083
40
0.768783079887329
40
0.802318392223828
40
0.869389016896826
40
0.936459641569823
40
1
40
1
40
1
40
1
41
1
10
26.4784875832145
20
3.96960782216644
30
0
41
1
10
26.6945584900356
20
3.95982901906157
30
0
41
1
10
27.0221668794237
20
3.9297603492295
30
0
41
1
10
27.4598659649236
20
3.85997202766373
30
0
41
1
10
27.9044378639183
20
3.76903357335903
30
0
41
1
10
28.678753479253
20
3.5583799132416
30
0
41
1
10
29.5599392374891
20
3.20586038924353
30
0
41
1
10
30.4467597257106
20
2.75439479260413
30
0
41
1
10
31.1169870348795
20
2.36947062162474
30
0
41
1
10
31.794949223795
20
1.94186561314078
30
0
41
1
10
32.3682971688711
20
1.55311599131602
30
0
41
1
10
32.8334688832796
20
1.22512468619425
30
0
41
1
10
33.3035228976171
20
0.886530832705375
30
0
41
1
10
33.7813765338337
20
0.533494380680338
30
0
41
1
10
34.2688011575397
20
0.169282554795131
30
0
41
1
10
34.7630823815335
20
-0.201381775073173
30
0
41
1
10
35.3943621962601
20
-0.673767163484683
30
0
41
1
10
36.1647784504833
20
-1.23499404904254
30
0
41
1
10
36.6935812731445
20
-1.602067680413
30
0
41
1
10
36.9561807578756
20
-1.77821064032568
30
0
0
SPLINE
5
118
100
AcDbEntity
8
1
62
256
6
ByLayer
370
18
48
1
60
0
100
AcDbSpline
70
4
71
3
72
8
73
4
40
0
40
0
40
0
40
0
40
1
40
1
40
1
40
1
41
1
10
36.9561807570537
20
-1.77821063897019
30
0
41
1
10
36.9425967929153
20
-1.69278456873135
30
0
41
1
10
36.9290363366435
20
-1.60722423481698
30
0
41
1
10
36.9154992532994
20
-1.52153039694119
30
0
0
SPLINE
5
119
100
AcDbEntity
8
1
62
256
6
ByLayer
370
18
48
1
60
0
100
AcDbSpline
70
4
71
3
72
8
73
4
40
0
40
0
40
0
40
0
40
1
40
1
40
1
40
1
41
1
10
36.9154992532994
20
-1.52153039694119
30
0
41
1
10
36.8142561514045
20
-1.3064481504843
30
0
41
1
10
36.7140994057523
20
-1.08852503433988
30
0
41
1
10
36.6150229518096
20
-0.867776907530356
30
0
0
SPLINE
5
11A
100
AcDbEntity
8
1
62
256
6
ByLayer
370
18
48
1
60
0
100
AcDbSpline
70
4
71
3
72
8
73
4
40
0
40
0
40
0
40
0
40
1
40
1
40
1
40
1
41
1
10
36.6150229518096
20
-0.867776907530356
30
0
41
1
10
36.6057175310353
20
-0.848286735377627
30
0
41
1
10
36.596415432259
20
-0.82877580573404
30
0
41
1
10
36.587116659317
20
-0.8092440946279
30
0
0
SPLINE
5
11B
100
AcDbEntity
8
1
62
256
6
ByLayer
370
18
48
1
60
0
100
AcDbSpline
70
4
71
3
72
8
73
4
40
0
40
0
40
0
40
0
40
1
40
1
40
1
40
1
41
1
10
13.0000000000001
20
-3.41839282171142
30
0
41
1
10
12.8018825424403
20
-3.47644288272667
30
0
41
1
10
12.6055967697863
20
-3.53041668126747
30
0
41
1
10
12.4115067083264
20
-3.57950410709299
30
0
0
SPLINE
5
11C
100
AcDbEntity
8
1
62
256
6
ByLayer
370
18
48
1
60
0
100
AcDbSpline
70
4
71
3
72
8
73
4
40
0
40
0
40
0
40
0
40
1
40
1
40
1
40
1
41
1
10
36.4997732801303
20
-0.546830347584034
30
0
41
1
10
36.5280473459714
20
-0.633080319455104
30
0
41
1
10
36.5571425287783
20
-0.720523556798952
30
0
41
1
10
36.587116659317
20
-0.809244094627871
30
0
0
SPLINE
5
11D
100
AcDbEntity
8
1
62
256
6
ByLayer
370
13
48
1
60
0
100
AcDbSpline
70
4
71
3
72
13
73
9
40
0
40
0
40
0
40
0
40
0.254135989091133
40
0.44478120381425
40
0.635426418537366
40
0.826071633260482
40
0.96905554430282
40
1
40
1
40
1
40
1
41
1
10
36.4997732809354
20
-0.546830346431392
30
0
41
1
10
36.1665155206237
20
-0.323011465663967
30
0
41
1
10
35.5832577603119
20
0.0751738115414469
30
0
41
1
10
34.7500000000001
20
0.636429436486566
30
0
41
1
10
34.0000000000001
20
1.13349049286324
30
0
41
1
10
33.3125000000001
20
1.56713572914253
30
0
41
1
10
32.8344214104167
20
1.84616529233605
30
0
41
1
10
32.6063428208333
20
1.9752940423293
30
0
41
1
10
32.5657642312499
20
1.99813136223162
30
0
0
SPLINE
5
11E
100
AcDbEntity
8
1
62
256
6
ByLayer
370
18
48
1
60
0
100
AcDbSpline
70
4
71
3
72
49
73
45
40
0
40
0
40
0
40
0
40
0.0814995961946819
40
0.0814995961946819
40
0.122249394292023
40
0.122249394292023
40
0.142624293340693
40
0.142624293340693
40
0.162999192389364
40
0.203748990486708
40
0.203748990486708
40
0.244498788584052
40
0.244498788584052
40
0.325998384778739
40
0.325998384778739
40
0.366748182876082
40
0.366748182876082
40
0.407497980973424
40
0.407497980973424
40
0.448247779070767
40
0.448247779070767
40
0.468622678119439
40
0.468622678119439
40
0.488997577168112
40
0.488997577168112
40
0.5704971733628
40
0.5704971733628
40
0.611246971460142
40
0.611246971460142
40
0.651996769557484
40
0.651996769557484
40
0.733496365752169
40
0.733496365752169
40
0.77424616384951
40
0.77424616384951
40
0.794621062898178
40
0.794621062898178
40
0.814995961946847
40
0.814995961946847
40
0.896495558141517
40
0.896495558141517
40
0.977995154336186
40
0.977995154336186
40
1
40
1
40
1
40
1
41
1
10
36.5871166593164
20
-0.809244094628298
30
0
41
1
10
36.3398543939731
20
-0.634081589591318
30
0
41
1
10
36.0933227252326
20
-0.456060249319591
30
0
41
1
10
35.7227609081907
20
-0.187351696990277
30
0
41
1
10
35.5991117005132
20
-0.0975042806912825
30
0
41
1
10
35.413204740441
20
0.037340803416555
30
0
41
1
10
35.3512273891756
20
0.0822583251559479
30
0
41
1
10
35.2275286054504
20
0.17182145667627
30
0
41
1
10
35.0422396510644
20
0.305849617954834
30
0
41
1
10
34.8577036897368
20
0.438909828832749
30
0
41
1
10
34.612290629919
20
0.615420393050215
30
0
41
1
10
34.4898967395656
20
0.703217037668622
30
0
41
1
10
34.1231998304489
20
0.964597739445878
30
0
41
1
10
33.8794038834941
20
1.13618454889834
30
0
41
1
10
33.512624036104
20
1.38685265703592
30
0
41
1
10
33.3901796410549
20
1.46928677782449
30
0
41
1
10
33.1445445923082
20
1.63144270194059
30
0
41
1
10
33.0213377398151
20
1.71114733479075
30
0
41
1
10
32.7744877641267
20
1.86822119970896
30
0
41
1
10
32.650880600065
20
1.94563321723371
30
0
41
1
10
32.4652556846551
20
2.06008245205422
30
0
41
1
10
32.4032661756555
20
2.09798097156312
30
0
41
1
10
32.2795030658998
20
2.17292474309735
30
0
41
1
10
32.217770852919
20
2.20994573133385
30
0
41
1
10
31.9097600650062
20
2.39268569903331
30
0
41
1
10
31.6654360479124
20
2.53125170854827
30
0
41
1
10
31.2992022892532
20
2.72502015139733
30
0
41
1
10
31.1771980451649
20
2.7873067804203
30
0
41
1
10
30.933092045488
20
2.90711523464296
30
0
41
1
10
30.8109831633538
20
2.96463243649498
30
0
41
1
10
30.4443246201108
20
3.12991752196663
30
0
41
1
10
30.1994744522271
20
3.23044808101776
30
0
41
1
10
29.8307534776741
20
3.36594301678886
30
0
41
1
10
29.7075974299551
20
3.40855135810855
30
0
41
1
10
29.522349872705
20
3.46847652395161
30
0
41
1
10
29.4605150301233
20
3.48778655434197
30
0
41
1
10
29.3366491831543
20
3.52504729658605
30
0
41
1
10
29.2745729050691
20
3.54300913995076
30
0
41
1
10
28.9650147158678
20
3.62897339367342
30
0
41
1
10
28.7190338218473
20
3.68576161700258
30
0
41
1
10
28.2288561060103
20
3.77508057872521
30
0
41
1
10
27.9846534382245
20
3.80759807816875
30
0
41
1
10
27.6745449808512
20
3.83336242113182
30
0
41
1
10
27.6086155447593
20
3.83795652765633
30
0
41
1
10
27.5426645195876
20
3.84168315534103
30
0
0
SPLINE
5
11F
100
AcDbEntity
8
1
62
256
6
ByLayer
370
18
48
1
60
0
100
AcDbSpline
70
4
71
3
72
8
73
4
40
0
40
0
40
0
40
0
40
1
40
1
40
1
40
1
41
1
10
13.2081491648274
20
-3.34612928789451
30
0
41
1
10
13.1387999572988
20
-3.3710813675203
30
0
41
1
10
13.069424611779
20
-3.39517048901513
30
0
41
1
10
13.0000000000001
20
-3.41839282171139
30
0
0
SPLINE
5
120
100
AcDbEntity
8
1
62
256
6
ByLayer
370
18
48
1
60
0
100
AcDbSpline
70
4
71
3
72
8
73
4
40
0
40
0
40
0
40
0
40
1
40
1
40
1
40
1
41
1
10
36.5298931266038
20
-2.92448138941543
30
0
41
1
10
36.5573561119705
20
-2.94984755514403
30
0
41
1
10
36.5854714764626
20
-2.97347581023635
30
0
41
1
10
36.6142787671748
20
-2.99526082035854
30
0
0
SPLINE
5
121
100
AcDbEntity
8
1
62
256
6
ByLayer
370
13
48
1
60
0
100
AcDbSpline
70
4
71
3
72
8
73
4
40
0
40
0
40
0
40
0
40
1
40
1
40
1
40
1
41
1
10
36.5298931294318
20
-2.92448139035938
30
0
41
1
10
36.5096722682298
20
-2.93139067053161
30
0
41
1
10
36.4894514070278
20
-2.93825231242604
30
0
41
1
10
36.4692305458257
20
-2.94506605483221
30
0
0
SPLINE
5
122
100
AcDbEntity
8
1
62
256
6
ByLayer
370
13
48
1
60
0
100
AcDbSpline
70
4
71
3
72
31
73
27
40
0
40
0
40
0
40
0
40
0.0144868473149472
40
0.0650760328868251
40
0.115665218458703
40
0.166254404030581
40
0.242138182388398
40
0.318021960746215
40
0.393905739104032
40
0.44449492467591
40
0.482436813854818
40
0.507731406640757
40
0.533025999426696
40
0.545673295819666
40
0.558320592212635
40
0.577291536802089
40
0.596262481391544
40
0.615233425980998
40
0.634204370570452
40
0.653175315159906
40
0.68479355614233
40
0.722735445321239
40
0.773324630893116
40
0.849208409250933
40
0.92509218760875
40
1
40
1
40
1
40
1
41
1
10
34.2147718996341
20
-3.493178551162
30
0
41
1
10
34.1431812664228
20
-3.50346963579494
30
0
41
1
10
33.8215906332114
20
-3.54648639681417
30
0
41
1
10
33.2500000000001
20
-3.59691244134527
30
0
41
1
10
32.5000000000001
20
-3.61078900108493
30
0
41
1
10
31.6250000000001
20
-3.56420304604129
30
0
41
1
10
30.6250000000001
20
-3.42082360562651
30
0
41
1
10
29.5000000000001
20
-3.14941976559967
30
0
41
1
10
28.5000000000001
20
-2.81469968396095
30
0
41
1
10
27.6875000000001
20
-2.48609276901172
30
0
41
1
10
27.1250000000001
20
-2.23424119190429
30
0
41
1
10
26.6875000000001
20
-2.0263542110836
30
0
41
1
10
26.3750000000001
20
-1.87164245162054
30
0
41
1
10
26.1250000000001
20
-1.74453097985813
30
0
41
1
10
25.9062500000001
20
-1.63147387434574
30
0
41
1
10
25.6562500000001
20
-1.49980787095552
30
0
41
1
10
25.3750000000001
20
-1.34869153095664
30
0
41
1
10
25.0937500000001
20
-1.19488717947777
30
0
41
1
10
24.8125000000001
20
-1.03870997912605
30
0
41
1
10
24.4687500000001
20
-0.845136405344903
30
0
41
1
10
24.0312500000001
20
-0.594620144462965
30
0
41
1
10
23.4375000000001
20
-0.248926692316814
30
0
41
1
10
22.6250000000001
20
0.227440718190763
30
0
41
1
10
21.6250000000001
20
0.807758432263029
30
0
41
1
10
20.5048229970277
20
1.43372290248863
30
0
41
1
10
19.7596459940553
20
1.81874205742881
30
0
41
1
10
19.3894689910829
20
1.99910093491508
30
0
0
SPLINE
5
123
100
AcDbEntity
8
1
62
256
6
ByLayer
370
18
48
1
60
0
100
AcDbSpline
70
4
71
3
72
8
73
4
40
0
40
0
40
0
40
0
40
1
40
1
40
1
40
1
41
1
10
36.9569883382842
20
-2.41316001988287
30
0
41
1
10
36.9431314153857
20
-2.46965253000781
30
0
41
1
10
36.9292960752185
20
-2.52569191975806
30
0
41
1
10
36.9154822008525
20
-2.58128058476061
30
0
0
SPLINE
5
124
100
AcDbEntity
8
1
62
256
6
ByLayer
370
18
48
1
60
0
100
AcDbSpline
70
4
71
3
72
8
73
4
40
0
40
0
40
0
40
0
40
1
40
1
40
1
40
1
41
1
10
36.9154822008525
20
-2.58128058476061
30
0
41
1
10
36.8162551992165
20
-2.72352072676259
30
0
41
1
10
36.7179655979459
20
-2.85886662034389
30
0
41
1
10
36.6206024847781
20
-2.98739852134085
30
0
0
SPLINE
5
125
100
AcDbEntity
8
1
62
256
6
ByLayer
370
18
48
1
60
0
100
AcDbSpline
70
4
71
3
72
8
73
4
40
0
40
0
40
0
40
0
40
1
40
1
40
1
40
1
41
1
10
36.6206024847777
20
-2.98739852134079
30
0
41
1
10
36.6184944262241
20
-2.99002231682186
30
0
41
1
10
36.6163865203518
20
-2.99264308325385
30
0
41
1
10
36.6142787671743
20
-2.99526082036471
30
0
0
SPLINE
5
126
100
AcDbEntity
8
1
62
256
6
ByLayer
370
18
48
1
60
0
100
AcDbSpline
70
4
71
3
72
8
73
4
40
0
40
0
40
0
40
0
40
1
40
1
40
1
40
1
41
1
10
36.6142787671599
20
-2.99526082036769
30
0
41
1
10
36.5071828398382
20
-3.037403690948
30
0
41
1
10
36.4001403277066
20
-3.07814657896921
30
0
41
1
10
36.2931111035504
20
-3.11746255871182
30
0
0
SPLINE
5
127
100
AcDbEntity
8
1
62
256
6
ByLayer
370
18
48
1
60
0
100
AcDbSpline
70
4
71
3
72
112
73
108
40
0
40
0
40
0
40
0
40
0.0056147115034817
40
0.0056147115034817
40
0.0139699077303749
40
0.0139699077303749
40
0.0223251039572682
40
0.0390354964110546
40
0.0390354964110546
40
0.0557458888648411
40
0.0557458888648411
40
0.089166673772414
40
0.089166673772414
40
0.1058770662262
40
0.1058770662262
40
0.122587458679987
40
0.122587458679987
40
0.139297851133773
40
0.139297851133773
40
0.15600824358756
40
0.15600824358756
40
0.164363439814453
40
0.164363439814453
40
0.172718636041346
40
0.172718636041346
40
0.189429028495131
40
0.189429028495131
40
0.2228498134027
40
0.2228498134027
40
0.256270598310269
40
0.256270598310269
40
0.289691383217838
40
0.289691383217838
40
0.323112168125407
40
0.323112168125407
40
0.331467364352299
40
0.331467364352299
40
0.339822560579191
40
0.339822560579191
40
0.356532953032975
40
0.356532953032975
40
0.373243345486759
40
0.373243345486759
40
0.389953737940543
40
0.406664130394326
40
0.406664130394326
40
0.42337452284811
40
0.42337452284811
40
0.456795307755678
40
0.456795307755678
40
0.473505700209462
40
0.473505700209462
40
0.490216092663246
40
0.490216092663246
40
0.506926485117029
40
0.506926485117029
40
0.515281681343922
40
0.515281681343922
40
0.523636877570814
40
0.523636877570814
40
0.540347270024598
40
0.540347270024598
40
0.557057662478383
40
0.557057662478383
40
0.590478447385952
40
0.590478447385952
40
0.607188839839736
40
0.607188839839736
40
0.623899232293521
40
0.623899232293521
40
0.65732001720109
40
0.65732001720109
40
0.674030409654875
40
0.674030409654875
40
0.690740802108659
40
0.690740802108659
40
0.699095998335551
40
0.699095998335551
40
0.707451194562444
40
0.707451194562444
40
0.724161587016228
40
0.724161587016228
40
0.740871979470013
40
0.740871979470013
40
0.757582371923797
40
0.757582371923797
40
0.791003156831367
40
0.791003156831367
40
0.824423941738936
40
0.824423941738936
40
0.841134334192721
40
0.841134334192721
40
0.857844726646506
40
0.857844726646506
40
0.874555119100291
40
0.874555119100291
40
0.882910315327184
40
0.882910315327184
40
0.891265511554077
40
0.891265511554077
40
0.924686296461647
40
0.924686296461647
40
0.958107081369219
40
0.958107081369219
40
0.99152786627679
40
0.99152786627679
40
1
40
1
40
1
40
1
41
1
10
35.6251358392938
20
-3.3440057595362
30
0
41
1
10
35.58351570075
20
-3.3569258424744
30
0
41
1
10
35.5418850761551
20
-3.36962178751239
30
0
41
1
10
35.4382724499215
20
-3.40064856385232
30
0
41
1
10
35.3762406329014
20
-3.41871496637262
30
0
41
1
10
35.2523007001153
20
-3.45377825026395
30
0
41
1
10
35.0665976261011
20
-3.50476459250157
30
0
41
1
10
34.8814604454945
20
-3.55089447863705
30
0
41
1
10
34.6350141884455
20
-3.6080105011099
30
0
41
1
10
34.5119941692551
20
-3.63437066601495
30
0
41
1
10
34.1432215954696
20
-3.70677335456668
30
0
41
1
10
33.8977055203007
20
-3.74613198446625
30
0
41
1
10
33.5289298570086
20
-3.79167069750949
30
0
41
1
10
33.4059347715902
20
-3.80460142246329
30
0
41
1
10
33.1596889547767
20
-3.82593915608516
30
0
41
1
10
33.0364285547548
20
-3.83435089415113
30
0
41
1
10
32.789743354784
20
-3.84665070333358
30
0
41
1
10
32.6663198933894
20
-3.85053964085671
30
0
41
1
10
32.419417099357
20
-3.85368234462473
30
0
41
1
10
32.2959577394116
20
-3.85292299490771
30
0
41
1
10
32.1105076720551
20
-3.84819827294331
30
0
41
1
10
32.0486063700464
20
-3.84602392629569
30
0
41
1
10
31.9250543298641
20
-3.84049386013547
30
0
41
1
10
31.8633670704762
20
-3.83713756500166
30
0
41
1
10
31.6785053210289
20
-3.82532352210026
30
0
41
1
10
31.5555204983425
20
-3.81512551232601
30
0
41
1
10
31.1870787989145
20
-3.77776198721031
30
0
41
1
10
30.9421343152324
20
-3.74384263093248
30
0
41
1
10
30.452421444136
20
-3.658822868768
30
0
41
1
10
30.2076350877885
20
-3.60770452056039
30
0
41
1
10
29.7177405028041
20
-3.48901099018522
30
0
41
1
10
29.4726515426436
20
-3.42145084666012
30
0
41
1
10
28.981612764612
20
-3.26994749299419
30
0
41
1
10
28.7356316212708
20
-3.18602061983864
30
0
41
1
10
28.426930714803
20
-3.07105110315868
30
0
41
1
10
28.3651288597624
20
-3.04755436536092
30
0
41
1
10
28.2413845234137
20
-2.99955901404348
30
0
41
1
10
28.1794035237475
20
-2.97504465692416
30
0
41
1
10
27.9934882423487
20
-2.90010961448982
30
0
41
1
10
27.8699103066905
20
-2.84841829675386
30
0
41
1
10
27.6233245563896
20
-2.74180140903181
30
0
41
1
10
27.5002986938188
20
-2.68692204493283
30
0
41
1
10
27.2545926469367
20
-2.57435732104179
30
0
41
1
10
27.0092557839904
20
-2.45892629828467
30
0
41
1
10
26.7644644415602
20
-2.33792372087768
30
0
41
1
10
26.5198453462259
20
-2.21421178102386
30
0
41
1
10
26.3976320504657
20
-2.15096678285431
30
0
41
1
10
26.0309777267086
20
-1.95765373713789
30
0
41
1
10
25.7864512224279
20
-1.8242594785651
30
0
41
1
10
25.4189721157146
20
-1.61787748479347
30
0
41
1
10
25.2963679241563
20
-1.54802136394866
30
0
41
1
10
25.0508336807389
20
-1.40627431399378
30
0
41
1
10
24.9279011290413
20
-1.33438087148301
30
0
41
1
10
24.681565478665
20
-1.18893065636905
30
0
41
1
10
24.5581674191104
20
-1.11536395080424
30
0
41
1
10
24.3726738967703
20
-1.00374540649563
30
0
41
1
10
24.3107758813685
20
-0.966329323898464
30
0
41
1
10
24.1868307526173
20
-0.891090600811168
30
0
41
1
10
24.1248233928286
20
-0.853291810671834
30
0
41
1
10
23.939210253261
20
-0.739716048689189
30
0
41
1
10
23.8158173576069
20
-0.663628899682948
30
0
41
1
10
23.5695554061905
20
-0.511001033691741
30
0
41
1
10
23.4466604629512
20
-0.434498036929625
30
0
41
1
10
23.0783288826153
20
-0.20497093380439
30
0
41
1
10
22.8333267391996
20
-0.0518122983586693
30
0
41
1
10
22.4661721348622
20
0.177318592344051
30
0
41
1
10
22.3438555228044
20
0.253608271939811
30
0
41
1
10
22.0992126721449
20
0.405789827546556
30
0
41
1
10
21.9768717774035
20
0.481662885181578
30
0
41
1
10
21.6096756059862
20
0.708437410299723
30
0
41
1
10
21.3646954988662
20
0.858563383316124
30
0
41
1
10
20.9963152395702
20
1.08109269733967
30
0
41
1
10
20.8733672220602
20
1.15481964424978
30
0
41
1
10
20.6269692857819
20
1.30108662262785
30
0
41
1
10
20.5035195093282
20
1.37362743793432
30
0
41
1
10
20.3178762638968
20
1.48138895433323
30
0
41
1
10
20.2558616326598
20
1.51716671468168
30
0
41
1
10
20.1319841844698
20
1.58816136415837
30
0
41
1
10
20.0701269933854
20
1.62337554586006
30
0
41
1
10
19.88477844495
20
1.72813739260681
30
0
41
1
10
19.761513186033
20
1.79680331373464
30
0
41
1
10
19.515450297865
20
1.93161967970232
30
0
41
1
10
19.3926358715953
20
1.9977756488818
30
0
41
1
10
19.147272253162
20
2.12747172483185
30
0
41
1
10
19.0247411215244
20
2.1910034047722
30
0
41
1
10
18.6574732727875
20
2.37739876676565
30
0
41
1
10
18.4130322663093
20
2.49609768867538
30
0
41
1
10
17.9239903577486
20
2.72118547325667
30
0
41
1
10
17.6793997050068
20
2.82753714791866
30
0
41
1
10
17.3115409412253
20
2.97700322627793
30
0
41
1
10
17.1887678801066
20
3.02514597042364
30
0
41
1
10
16.942835531615
20
3.1178887366317
30
0
41
1
10
16.8196761121066
20
3.1624846515536
30
0
41
1
10
16.5728423106718
20
3.24802369544071
30
0
41
1
10
16.4491677640155
20
3.28896805751933
30
0
41
1
10
16.2631760732227
20
3.3475584418548
30
0
41
1
10
16.2011855368926
20
3.3665882251909
30
0
41
1
10
16.0773992763769
20
3.40356689567204
30
0
41
1
10
16.015574836947
20
3.42152378952167
30
0
41
1
10
15.7067630629643
20
3.50861299452691
30
0
41
1
10
15.460679598194
20
3.56970477196879
30
0
41
1
10
14.9692595079144
20
3.67455022816171
30
0
41
1
10
14.7239213781892
20
3.71833641239857
30
0
41
1
10
14.2330724312744
20
3.78766445641114
30
0
41
1
10
13.9875066907706
20
3.81334789173749
30
0
41
1
10
13.6788199536484
20
3.83422769583478
30
0
41
1
10
13.6163493180048
20
3.83786980807596
30
0
41
1
10
13.553828241763
20
3.84091951193372
30
0
0
SPLINE
5
128
100
AcDbEntity
8
1
62
256
6
ByLayer
370
18
48
1
60
0
100
AcDbSpline
70
4
71
3
72
28
73
24
40
0
40
0
40
0
40
0
40
0.124836160579073
40
0.124836160579073
40
0.18725424086861
40
0.18725424086861
40
0.218463281013379
40
0.218463281013379
40
0.249672321158148
40
0.249672321158148
40
0.374508481737225
40
0.374508481737225
40
0.436926562026763
40
0.436926562026763
40
0.4993446423163
40
0.4993446423163
40
0.74901696347445
40
0.74901696347445
40
0.873853124053525
40
0.873853124053525
40
0.998689284632601
40
0.998689284632601
40
1
40
1
40
1
40
1
41
1
10
13.0000000000001
20
-1.95670394522924
30
0
41
1
10
13.2489087707324
20
-2.10871679669378
30
0
41
1
10
13.4972595552119
20
-2.25485213260322
30
0
41
1
10
13.8699918757956
20
-2.46401537377386
30
0
41
1
10
13.9942708689465
20
-2.53206369282594
30
0
41
1
10
14.1808790732056
20
-2.63145797689845
30
0
41
1
10
14.2430942547242
20
-2.6641316963499
30
0
41
1
10
14.3673959616333
20
-2.72844440230844
30
0
41
1
10
14.4295075570208
20
-2.76009709877556
30
0
41
1
10
14.7399260072755
20
-2.91580853268366
30
0
41
1
10
14.9878154408875
20
-3.03223972968172
30
0
41
1
10
15.3600346189356
20
-3.19368750189361
30
0
41
1
10
15.4841710653343
20
-3.24530407183895
30
0
41
1
10
15.7327421483072
20
-3.34394621823273
30
0
41
1
10
15.8572973211627
20
-3.39100771475671
30
0
41
1
10
16.478960219678
20
-3.61377224648345
30
0
41
1
10
16.973629446304
20
-3.7523179670506
30
0
41
1
10
17.7202187908768
20
-3.89525689815818
30
0
41
1
10
17.9684019705307
20
-3.93185080751707
30
0
41
1
10
18.4645640906819
20
-3.9825395720226
30
0
41
1
10
18.7125936177911
20
-3.9966501818592
30
0
41
1
10
18.9638238985057
20
-3.99948049752132
30
0
41
1
10
18.9664343832743
20
-3.99950865249892
30
0
41
1
10
18.969044967372
20
-3.99953555455161
30
0
0
SPLINE
5
129
100
AcDbEntity
8
1
62
256
6
ByLayer
370
18
48
1
60
0
100
AcDbSpline
70
4
71
3
72
8
73
4
40
0
40
0
40
0
40
0
40
1
40
1
40
1
40
1
41
1
10
19.0559752653123
20
-3.99996853689407
30
0
41
1
10
19.0889407526396
20
-3.99995743395343
30
0
41
1
10
19.1219139547817
20
-3.99974711913288
30
0
41
1
10
19.1548856547349
20
-3.99933796212716
30
0
0
SPLINE
5
12A
100
AcDbEntity
8
1
62
256
6
ByLayer
370
18
48
1
60
0
100
AcDbSpline
70
4
71
3
72
20
73
16
40
0
40
0
40
0
40
0
40
0.0635906282137979
40
0.0635906282137979
40
0.148718752921637
40
0.148718752921637
40
0.318975002337319
40
0.318975002337319
40
0.404103127045158
40
0.404103127045158
40
0.489231251752997
40
0.489231251752997
40
0.659487501168667
40
0.659487501168667
40
1
40
1
40
1
40
1
41
1
10
32.4663427192657
20
2.80517000729395
30
0
41
1
10
32.5592402091819
20
2.85155919515779
30
0
41
1
10
32.6520728597626
20
2.89680057399323
30
0
41
1
10
32.8689846623576
20
2.99978059106147
30
0
41
1
10
32.9930416875473
20
3.05658543925625
30
0
41
1
10
33.365162240918
20
3.22034824576704
30
0
41
1
10
33.6131803313878
20
3.32065015848721
30
0
41
1
10
33.9861053490701
20
3.45690952490614
30
0
41
1
10
34.1106984625236
20
3.50000337660194
30
0
41
1
10
34.3590126973249
20
3.5808814479222
30
0
41
1
10
34.4828649120043
20
3.61871693314131
30
0
41
1
10
34.8537702444608
20
3.72435920423555
30
0
41
1
10
35.1001721777716
20
3.78431010232074
30
0
41
1
10
35.8388796606796
20
3.93207946065155
30
0
41
1
10
36.330718266309
20
3.98780631195922
30
0
41
1
10
36.8274065794508
20
3.99821189618868
30
0
0
SPLINE
5
12B
100
AcDbEntity
8
1
62
256
6
ByLayer
370
18
48
1
60
0
100
AcDbSpline
70
4
71
3
72
38
73
34
40
0
40
0
40
0
40
0
40
0.0201319472124984
40
0.0579151638131686
40
0.0956983804138388
40
0.171264813615179
40
0.209048030215849
40
0.24683124681652
40
0.28461446341719
40
0.32239768001786
40
0.36018089661853
40
0.3979641132192
40
0.435747329819871
40
0.473530546420541
40
0.511313763021211
40
0.530205371321546
40
0.549096979621881
40
0.567988587922216
40
0.586880196222551
40
0.624663412823221
40
0.662446629423892
40
0.681338237724227
40
0.700229846024562
40
0.719121454324897
40
0.738013062625232
40
0.775796279225902
40
0.813579495826573
40
0.832471104126908
40
0.851362712427243
40
0.889145929027913
40
0.926929145628583
40
0.964712362229253
40
1
40
1
40
1
40
1
41
1
10
12.1097281099611
20
-1.05577793536165
30
0
41
1
10
12.1690746270115
20
-1.09560897546549
30
0
41
1
10
12.3397790222422
20
-1.20969615503964
30
0
41
1
10
12.6217814640157
20
-1.39556248846992
30
0
41
1
10
13.0671105823528
20
-1.68261606257047
30
0
41
1
10
13.512606777473
20
-1.95886328466804
30
0
41
1
10
13.9586133578149
20
-2.22146413600541
30
0
41
1
10
14.2934741719984
20
-2.41104598486325
30
0
41
1
10
14.6287807417182
20
-2.59250868253761
30
0
41
1
10
14.9645383077259
20
-2.76531626504388
30
0
41
1
10
15.3007165407919
20
-2.92876137330145
30
0
41
1
10
15.637327361419
20
-3.08231330639845
30
0
41
1
10
15.9743519324438
20
-3.22526478532933
30
0
41
1
10
16.3117857304107
20
-3.35717382104173
30
0
41
1
10
16.5932960159032
20
-3.45740991848845
30
0
41
1
10
16.8187001410612
20
-3.53162502579852
30
0
41
1
10
16.9878494463408
20
-3.5842451220492
30
0
41
1
10
17.1570912781764
20
-3.63372108051411
30
0
41
1
10
17.3828671761596
20
-3.69545580102792
30
0
41
1
10
17.6653037656977
20
-3.76455909185441
30
0
41
1
10
17.9479964454032
20
-3.82268876717262
30
0
41
1
10
18.1742995025768
20
-3.86250302875334
30
0
41
1
10
18.3440963026335
20
-3.88896489862702
30
0
41
1
10
18.5139596796392
20
-3.91200582122337
30
0
41
1
10
18.7405244466656
20
-3.93807150515605
30
0
41
1
10
19.0238726102748
20
-3.96193452622788
30
0
41
1
10
19.307373215008
20
-3.97410732416947
30
0
41
1
10
19.534254273941
20
-3.97690710403967
30
0
41
1
10
19.7611798386962
20
-3.97496258093014
30
0
41
1
10
20.0449147205248
20
-3.96367603998772
30
0
41
1
10
20.3854819718463
20
-3.93595537186823
30
0
41
1
10
20.7185897690604
20
-3.89521713638823
30
0
41
1
10
20.9381675606548
20
-3.85982523450818
30
0
41
1
10
21.0442053657452
20
-3.84073037845988
30
0
0
SPLINE
5
12C
100
AcDbEntity
8
1
62
256
6
ByLayer
370
18
48
1
60
0
100
AcDbSpline
70
4
71
3
72
53
73
49
40
0
40
0
40
0
40
0
40
0.0107850050404412
40
0.0273090396936351
40
0.0438330743468289
40
0.0603571090000228
40
0.0768811436532166
40
0.0934051783064105
40
0.109929212959604
40
0.126453247612798
40
0.142977282265992
40
0.159501316919186
40
0.17602535157238
40
0.192549386225573
40
0.225597455531961
40
0.242121490185155
40
0.258645524838349
40
0.275169559491543
40
0.291693594144737
40
0.324741663451124
40
0.341265698104318
40
0.357789732757512
40
0.3908378020639
40
0.407361836717093
40
0.423885871370287
40
0.456933940676675
40
0.473457975329869
40
0.489982009983063
40
0.52303007928945
40
0.539554113942644
40
0.556078148595838
40
0.589126217902226
40
0.60565025255542
40
0.622174287208613
40
0.638698321861807
40
0.655222356515001
40
0.671746391168195
40
0.688270425821389
40
0.721318495127777
40
0.73784252978097
40
0.754366564434164
40
0.787414633740552
40
0.853510772353328
40
0.886558841659715
40
0.919606910966103
40
0.952654980272491
40
0.985703049578878
40
1
40
1
40
1
40
1
41
1
10
12.4361755867871
20
3.96393650400989
30
0
41
1
10
12.5099797447941
20
3.96015815077791
30
0
41
1
10
12.6968052219725
20
3.94843692288563
30
0
41
1
10
12.996456012821
20
3.92093494158928
30
0
41
1
10
13.3350559875885
20
3.87797820811994
30
0
41
1
10
13.6733781966131
20
3.82328610479283
30
0
41
1
10
14.0114072549771
20
3.75717880572381
30
0
41
1
10
14.349154555365
20
3.67985904622088
30
0
41
1
10
14.6866180436284
20
3.59154484158239
30
0
41
1
10
15.0238283614925
20
3.49246485813185
30
0
41
1
10
15.3607944864159
20
3.38305501658894
30
0
41
1
10
15.6975510676534
20
3.26361971173321
30
0
41
1
10
16.03411893712
20
3.13449225394729
30
0
41
1
10
16.4826771734705
20
2.94987108091684
30
0
41
1
10
16.9309968986075
20
2.74758321235288
30
0
41
1
10
17.3792323881332
20
2.52920905609753
30
0
41
1
10
17.7153999739779
20
2.35790289198573
30
0
41
1
10
18.0515898788793
20
2.17957182152782
30
0
41
1
10
18.4999133104679
20
1.9331551998412
30
0
41
1
10
18.9484333998756
20
1.67465815856292
30
0
41
1
10
19.3972403718666
20
1.40641116612369
30
0
41
1
10
19.846283456482
20
1.13247259084412
30
0
41
1
10
20.2957365862401
20
0.851023251851529
30
0
41
1
10
20.7456468375748
20
0.564636067081523
30
0
41
1
10
21.1958894438531
20
0.275795195734986
30
0
41
1
10
21.6466590170066
20
-0.0155167229985125
30
0
41
1
10
22.0980078048768
20
-0.30664356949913
30
0
41
1
10
22.5497782164454
20
-0.596820740514659
30
0
41
1
10
23.0021698802123
20
-0.884205798073396
30
0
41
1
10
23.4549580859919
20
-1.16602663548795
30
0
41
1
10
23.9079539268038
20
-1.44331067146553
30
0
41
1
10
24.3611579116715
20
-1.71228409637467
30
0
41
1
10
24.814349711931
20
-1.97043864684548
30
0
41
1
10
25.1541947685625
20
-2.15808403082983
30
0
41
1
10
25.4939337249103
20
-2.33903900501392
30
0
41
1
10
25.833499539532
20
-2.51276544106122
30
0
41
1
10
26.172809944224
20
-2.67876946716206
30
0
41
1
10
26.6247993666671
20
-2.88919250166052
30
0
41
1
10
27.0760319087632
20
-3.08191090657988
30
0
41
1
10
27.5262191201216
20
-3.2555016295768
30
0
41
1
10
27.9755893515229
20
-3.41590739912689
30
0
41
1
10
28.7602135422038
20
-3.66038776459638
30
0
41
1
10
29.6557375709822
20
-3.85395487474071
30
0
41
1
10
30.5559720654396
20
-3.95572783713828
30
0
41
1
10
31.234903407707
20
-3.98443865438745
30
0
41
1
10
31.9191613289405
20
-3.9645097038603
30
0
41
1
10
32.4794948583237
20
-3.90799253579922
30
0
41
1
10
32.8124033327016
20
-3.85740851892277
30
0
41
1
10
32.9132190948866
20
-3.84054388069563
30
0
0
SPLINE
5
12D
100
AcDbEntity
8
1
62
256
6
ByLayer
370
18
48
1
60
0
100
AcDbSpline
70
4
71
3
72
8
73
4
40
0
40
0
40
0
40
0
40
1
40
1
40
1
40
1
41
1
10
11.9666054629966
20
3.99029626219536
30
0
41
0.999999994256556
10
11.9672203756612
20
3.99007038895293
30
0
41
0.999999994256556
10
11.9678353012463
20
3.98984460869701
30
0
41
1
10
11.9684502397411
20
3.9896189214316
30
0
0
SPLINE
5
12E
100
AcDbEntity
8
1
62
256
6
ByLayer
370
18
48
1
60
0
100
AcDbSpline
70
4
71
3
72
35
73
31
40
0
40
0
40
0
40
0
40
0.0380332824215743
40
0.0809234031986336
40
0.123813523975693
40
0.209593765529811
40
0.252483886306871
40
0.29537400708393
40
0.338264127860989
40
0.381154248638048
40
0.424044369415108
40
0.466934490192167
40
0.509824610969226
40
0.552714731746286
40
0.595604852523345
40
0.617049912911875
40
0.638494973300404
40
0.659940033688934
40
0.681385094077464
40
0.724275214854523
40
0.767165335631582
40
0.788610396020112
40
0.810055456408641
40
0.831500516797171
40
0.852945577185701
40
0.89583569796276
40
0.938725818739819
40
0.960170879128349
40
0.981615939516878
40
1
40
1
40
1
40
1
41
1
10
11.991722493873
20
-1.23773756012218
30
0
41
1
10
12.0905097096662
20
-1.30350131908102
30
0
41
1
10
12.3006428371862
20
-1.44222771584913
30
0
41
1
10
12.6220516328495
20
-1.6499684471134
30
0
41
1
10
13.067382518042
20
-1.93022329416425
30
0
41
1
10
13.5128745687466
20
-2.19790726677584
30
0
41
1
10
13.9588851653214
20
-2.45036927048261
30
0
41
1
10
14.2937457594313
20
-2.63152027425386
30
0
41
1
10
14.6290502097625
20
-2.80379537466732
30
0
41
1
10
14.9648060434469
20
-2.96667994043568
30
0
41
1
10
15.3009896967375
20
-3.1195143361754
30
0
41
1
10
15.6376008580516
20
-3.26173715829481
30
0
41
1
10
15.9746221870058
20
-3.39272065841749
30
0
41
1
10
16.3120529466752
20
-3.51208602283569
30
0
41
1
10
16.593567125707
20
-3.60143434171962
30
0
41
1
10
16.8189722461086
20
-3.66665663966788
30
0
41
1
10
16.9881207916401
20
-3.71238809759356
30
0
41
1
10
17.1573613361214
20
-3.7548625884254
30
0
41
1
10
17.3831358430295
20
-3.80713325734172
30
0
41
1
10
17.6655714002328
20
-3.86417980775113
30
0
41
1
10
17.9482679110714
20
-3.90995523800984
30
0
41
1
10
18.1745720213874
20
-3.93970020275401
30
0
41
1
10
18.3443685373561
20
-3.95852115717895
30
0
41
1
10
18.5142304158003
20
-3.97385022029229
30
0
41
1
10
18.740793745619
20
-3.98959145119909
30
0
41
1
10
19.0241405319092
20
-4.00045771455802
30
0
41
1
10
19.3076437269057
20
-3.99952475086158
30
0
41
1
10
19.5345254468039
20
-3.99173727582195
30
0
41
1
10
19.6966221485961
20
-3.98276262528302
30
0
41
1
10
19.8020047333656
20
-3.97489378286173
30
0
41
1
10
19.8506497669696
20
-3.97082923176578
30
0
0
SPLINE
5
12F
100
AcDbEntity
8
1
62
256
6
ByLayer
370
18
48
1
60
0
100
AcDbSpline
70
4
71
3
72
9
73
5
40
0
40
0
40
0
40
0
40
0.499580228665527
40
1
40
1
40
1
40
1
41
1
10
11.953466453321
20
-1.29000775447918
30
0
41
1
10
11.9598234234049
20
-1.28127683977243
30
0
41
1
10
11.9725480464367
20
-1.26380033809005
30
0
41
1
10
11.9853274375817
20
-1.24643001546403
30
0
41
1
10
11.9917224975763
20
-1.23773756258748
30
0
0
SPLINE
5
130
100
AcDbEntity
8
1
62
256
6
ByLayer
370
18
48
1
60
0
100
AcDbSpline
70
4
71
3
72
10
73
6
40
0
40
0
40
0
40
0
40
0.5
40
0.5
40
1
40
1
40
1
40
1
41
1
10
11.9666054624475
20
3.99029626221926
30
0
41
1
10
11.9690533908912
20
3.99305974093522
30
0
41
1
10
11.9746541983948
20
3.99520262969304
30
0
41
1
10
11.9921211572864
20
3.99832370075092
30
0
41
1
10
12.0039357598234
20
3.99928704940419
30
0
41
1
10
12.0185635487188
20
3.99972260074574
30
0
0
SPLINE
5
131
100
AcDbEntity
8
1
62
256
6
ByLayer
370
18
48
1
60
0
100
AcDbSpline
70
4
71
3
72
8
73
4
40
0
40
0
40
0
40
0
40
1
40
1
40
1
40
1
41
1
10
12.0185635487186
20
3.99972260074574
30
0
41
1
10
12.0145068855485
20
3.99990133050622
30
0
41
1
10
12.0107485061149
20
3.99999421392695
30
0
41
1
10
12.0072937985873
20
4.00000012691467
30
0
0
SPLINE
5
132
100
AcDbEntity
8
1
62
256
6
ByLayer
370
18
48
1
60
0
100
AcDbSpline
70
4
71
3
72
30
73
26
40
0
40
0
40
0
40
0
40
0.250000000000091
40
0.250000000000091
40
0.375000000000137
40
0.375000000000137
40
0.500000000000182
40
0.500000000000182
40
0.562500000000191
40
0.562500000000191
40
0.6250000000002
40
0.6250000000002
40
0.656250000000202
40
0.656250000000202
40
0.687500000000205
40
0.687500000000205
40
0.718750000000208
40
0.718750000000208
40
0.750000000000211
40
0.750000000000211
40
0.812500000000158
40
0.812500000000158
40
0.875000000000105
40
0.875000000000105
40
1
40
1
40
1
40
1
41
1
10
10.1127197390465
20
-3.9923825359084
30
0
41
1
10
10.0994017992936
20
-3.99143913361948
30
0
41
1
10
10.0867100910439
20
-3.99038113367948
30
0
41
1
10
10.069478499726
20
-3.98854156815707
30
0
41
1
10
10.0640237549413
20
-3.98788341740322
30
0
41
1
10
10.0542105450502
20
-3.98646265666267
30
0
41
1
10
10.0498013266064
20
-3.98569531812657
30
0
41
1
10
10.0448254092189
20
-3.9844499381002
30
0
41
1
10
10.0434483128709
20
-3.98402044891319
30
0
41
1
10
10.041527105616
20
-3.98312516304495
30
0
41
1
10
10.0409762357183
20
-3.98265289874408
30
0
41
1
10
10.0411888126261
20
-3.98193123808076
30
0
41
1
10
10.0414319730272
20
-3.98168991157826
30
0
41
1
10
10.0423395113558
20
-3.98120667888185
30
0
41
1
10
10.0430137905254
20
-3.9809633544738
30
0
41
1
10
10.0447991992953
20
-3.98049724130081
30
0
41
1
10
10.0459118077397
20
-3.98027226399782
30
0
41
1
10
10.0486032687452
20
-3.97984079182319
30
0
41
1
10
10.0501936231855
20
-3.97963402415746
30
0
41
1
10
10.0554259542803
20
-3.97907040497969
30
0
41
1
10
10.0596506154362
20
-3.97875665837401
30
0
41
1
10
10.0685992315863
20
-3.97826017457592
30
0
41
1
10
10.0733929253845
20
-3.9780702405221
30
0
41
1
10
10.0881142346704
20
-3.97763004531385
30
0
41
1
10
10.0981849021368
20
-3.9775054007979
30
0
41
1
10
10.1083752527801
20
-3.9774619310113
30
0
0
SPLINE
5
133
100
AcDbEntity
8
1
62
256
6
ByLayer
370
18
48
1
60
0
100
AcDbSpline
70
4
71
3
72
48
73
44
40
0
40
0
40
0
40
0
40
0.0625000000000027
40
0.0625000000000027
40
0.125000000000005
40
0.125000000000005
40
0.156250000000007
40
0.156250000000007
40
0.187500000000008
40
0.187500000000008
40
0.250000000000011
40
0.250000000000011
40
0.265625000000012
40
0.265625000000012
40
0.281250000000012
40
0.281250000000012
40
0.312500000000014
40
0.343750000000015
40
0.359375000000016
40
0.359375000000016
40
0.375000000000017
40
0.375000000000017
40
0.43750000000002
40
0.43750000000002
40
0.468750000000019
40
0.468750000000019
40
0.500000000000019
40
0.500000000000019
40
0.562500000000016
40
0.562500000000016
40
0.593750000000014
40
0.593750000000014
40
0.625000000000013
40
0.625000000000013
40
0.68750000000001
40
0.68750000000001
40
0.750000000000008
40
0.750000000000008
40
0.875000000000003
40
0.875000000000003
40
0.937500000000001
40
0.937500000000001
40
1
40
1
40
1
40
1
41
1
10
10.1083752527799
20
-3.9774619310113
30
0
41
1
10
10.1487130443105
20
-3.97728985889626
30
0
41
1
10
10.1888578675768
20
-3.97696712097374
30
0
41
1
10
10.2686483946736
20
-3.97590753596782
30
0
41
1
10
10.3082952896121
20
-3.97517290102564
30
0
41
1
10
10.3672623143412
20
-3.97360651574249
30
0
41
1
10
10.386831069033
20
-3.97300521996584
30
0
41
1
10
10.4252470479659
20
-3.9716256064016
30
0
41
1
10
10.4441559369191
20
-3.97084589930947
30
0
41
1
10
10.4998742240395
20
-3.96817703114925
30
0
41
1
10
10.5356842301679
20
-3.9659668691136
30
0
41
1
10
10.5782955649352
20
-3.96236186248515
30
0
41
1
10
10.5867095711272
20
-3.96159806141932
30
0
41
1
10
10.6033058835047
20
-3.95997412788404
30
0
41
1
10
10.6115049292445
20
-3.95911167569162
30
0
41
1
10
10.6353998037475
20
-3.95640119760029
30
0
41
1
10
10.6655945821395
20
-3.95244102876151
30
0
41
1
10
10.6991409131885
20
-3.94650160863864
30
0
41
1
10
10.7173714345409
20
-3.94243112705865
30
0
41
1
10
10.7291032119053
20
-3.93959737173029
30
0
41
1
10
10.7347619174841
20
-3.93811856226858
30
0
41
1
10
10.761685103765
20
-3.93050272350413
30
0
41
1
10
10.7791546575789
20
-3.92363357005732
30
0
41
1
10
10.8004054849208
20
-3.91206064490612
30
0
41
1
10
10.8066806795973
20
-3.90797257281085
30
0
41
1
10
10.8175868286265
20
-3.89947355922158
30
0
41
1
10
10.8222323638236
20
-3.89506197957914
30
0
41
1
10
10.8341026422926
20
-3.88133934126466
30
0
41
1
10
10.8392785419638
20
-3.87154051017654
30
0
41
1
10
10.8439193762369
20
-3.85585724901847
30
0
41
1
10
10.8449407800657
20
-3.85046529262164
30
0
41
1
10
10.8460484648941
20
-3.83935102018086
30
0
41
1
10
10.8461327782542
20
-3.83361639428577
30
0
41
1
10
10.8451376846636
20
-3.816057029131
30
0
41
1
10
10.8428315372497
20
-3.80384958781988
30
0
41
1
10
10.8356643152223
20
-3.77844079519079
30
0
41
1
10
10.8307983459574
20
-3.76523947145324
30
0
41
1
10
10.8130549250044
20
-3.72415603912501
30
0
41
1
10
10.7970732285885
20
-3.69479529342954
30
0
41
1
10
10.7684306312687
20
-3.64782836982116
30
0
41
1
10
10.758081403652
20
-3.63167046816952
30
0
41
1
10
10.7360566916675
20
-3.59854519088401
30
0
41
1
10
10.7243713699324
20
-3.58156133301736
30
0
41
1
10
10.7120718463908
20
-3.56416305093029
30
0
0
SPLINE
5
134
100
AcDbEntity
8
1
62
256
6
ByLayer
370
18
48
1
60
0
100
AcDbSpline
70
4
71
3
72
14
73
10
40
0
40
0
40
0
40
0
40
0.25
40
0.25
40
0.5
40
0.5
40
0.75
40
0.75
40
1
40
1
40
1
40
1
41
1
10
12.9999999999878
20
-1.95643814979269
30
0
41
1
10
12.9127595855947
20
-1.90304070854668
30
0
41
1
10
12.8255499834314
20
-1.84895568285225
30
0
41
1
10
12.6511525962204
20
-1.73984997341779
30
0
41
1
10
12.5638971080041
20
-1.68486431386194
30
0
41
1
10
12.3892974956485
20
-1.57401233578111
30
0
41
1
10
12.3019780871281
20
-1.51811433091717
30
0
41
1
10
12.1274957287681
20
-1.40511563552397
30
0
41
1
10
12.0403538383717
20
-1.34798732287413
30
0
41
1
10
11.9534614166508
20
-1.29001468477358
30
0
0
SPLINE
5
135
100
AcDbEntity
8
1
62
256
6
ByLayer
370
18
48
1
60
0
100
AcDbSpline
70
4
71
3
72
8
73
4
40
0
40
0
40
0
40
0
40
1
40
1
40
1
40
1
41
1
10
11.9534708536462
20
-1.29000025349157
30
0
41
1
10
11.9647154486458
20
-1.2717319356658
30
0
41
1
10
11.9768738411576
20
-1.25398038785929
30
0
41
1
10
11.9898811156365
20
-1.23671328086937
30
0
0
SPLINE
5
136
100
AcDbEntity
8
1
62
256
6
ByLayer
370
18
48
1
60
0
100
AcDbSpline
70
4
71
3
72
10
73
6
40
0
40
0
40
0
40
0
40
0.5
40
0.5
40
1
40
1
40
1
40
1
41
1
10
11.9898811119407
20
-1.23671327849303
30
0
41
1
10
11.9939090781257
20
-1.20005005570872
30
0
41
1
10
12.0008928700442
20
-1.16372785585946
30
0
41
1
10
12.0207464103636
20
-1.09183554671478
30
0
41
1
10
12.0335580838157
20
-1.05653326361625
30
0
41
1
10
12.0490082869152
20
-1.02216533332728
30
0
0
SPLINE
5
137
100
AcDbEntity
8
1
62
256
6
ByLayer
370
18
48
1
60
0
100
AcDbSpline
70
4
71
3
72
14
73
10
40
0
40
0
40
0
40
0
40
0.500000000000002
40
0.500000000000002
40
0.625000000000003
40
0.625000000000003
40
0.750000000000004
40
0.750000000000004
40
1
40
1
40
1
40
1
41
1
10
12.0490082869123
20
-1.02216533332543
30
0
41
1
10
12.0289524993568
20
-0.935545074189633
30
0
41
1
10
12.0191914535055
20
-0.847688598565128
30
0
41
1
10
12.0211833472573
20
-0.736211722065349
30
0
41
1
10
12.022296322056
20
-0.713833178042762
30
0
41
1
10
12.0260066773199
20
-0.668905393886973
30
0
41
1
10
12.0286158548778
20
-0.6463179679333
30
0
41
1
10
12.0385751704419
20
-0.57935121859731
30
0
41
1
10
12.0480689981527
20
-0.535427610932572
30
0
41
1
10
12.0603074519381
20
-0.49220355325798
30
0
0
SPLINE
5
138
100
AcDbEntity
8
1
62
256
6
ByLayer
370
18
48
1
60
0
100
AcDbSpline
70
4
71
3
72
8
73
4
40
0
40
0
40
0
40
0
40
1
40
1
40
1
40
1
41
1
10
11.9315311264878
20
3.98584264795781
30
0
41
1
10
11.9422858686083
20
3.98751440166834
30
0
41
1
10
11.9540016033897
20
3.98898972702096
30
0
41
1
10
11.9666054629975
20
3.99029626219505
30
0
0
SPLINE
5
139
100
AcDbEntity
8
1
62
256
6
ByLayer
370
18
48
1
60
0
100
AcDbSpline
70
4
71
1
72
4
73
2
40
0
40
0
40
1
40
1
41
1
10
37
20
-2.02998927221324
30
0
41
1
10
37
20
-2.03032807551187
30
0
0
SPLINE
5
13A
100
AcDbEntity
8
1
62
256
6
ByLayer
370
18
48
1
60
0
100
AcDbSpline
70
4
71
3
72
8
73
4
40
0
40
0
40
0
40
0
40
1
40
1
40
1
40
1
41
1
10
36.9651844069487
20
-2.02845460065586
30
0
41
1
10
36.9767880073421
20
-2.02906901972227
30
0
41
1
10
36.9883932434019
20
-2.02969353781106
30
0
41
1
10
37
20
-2.03032807551187
30
0
0
SPLINE
5
13B
100
AcDbEntity
8
1
62
256
6
ByLayer
370
18
48
1
60
0
100
AcDbSpline
70
4
71
3
72
52
73
48
40
0
40
0
40
0
40
0
40
0.0005580229746332
40
0.0184226861987055
40
0.0362873494227778
40
0.0541520126468501
40
0.0720166758709225
40
0.0898813390949948
40
0.107746002319067
40
0.125610665543139
40
0.143475328767212
40
0.161339991991284
40
0.179204655215356
40
0.197069318439429
40
0.214933981663501
40
0.232798644887573
40
0.268527971335718
40
0.28639263455979
40
0.304257297783863
40
0.322121961007935
40
0.339986624232007
40
0.375715950680152
40
0.393580613904224
40
0.411445277128296
40
0.447174603576441
40
0.465039266800513
40
0.482903930024586
40
0.51863325647273
40
0.536497919696803
40
0.554362582920875
40
0.59009190936902
40
0.607956572593092
40
0.625821235817164
40
0.661550562265309
40
0.679415225489381
40
0.697279888713454
40
0.715144551937526
40
0.733009215161598
40
0.750873878385671
40
0.768738541609743
40
0.804467868057887
40
0.82233253128196
40
0.840197194506032
40
0.875926520954177
40
0.947385173850466
40
0.983114500298611
40
1
40
1
40
1
40
1
41
1
10
11.9684502394448
20
3.98961892136256
30
0
41
1
10
11.9719869629688
20
3.9894581742976
30
0
41
1
10
12.0887473139851
20
3.98408629183348
30
0
41
1
10
12.31861625382
20
3.96928346368941
30
0
41
1
10
12.6577997453036
20
3.93541991260429
30
0
41
1
10
12.9966856135309
20
3.88967892759257
30
0
41
1
10
13.3352855244805
20
3.83218675712149
30
0
41
1
10
13.6736042518712
20
3.76316850781819
30
0
41
1
10
14.0116345833337
20
3.68291781360853
30
0
41
1
10
14.3493837827781
20
3.59164900606911
30
0
41
1
10
14.6868473030011
20
3.48965802413582
30
0
41
1
10
15.0240545332404
20
3.37726893621428
30
0
41
1
10
15.3610219396526
20
3.25489083892276
30
0
41
1
10
15.6977798126055
20
3.12284541368587
30
0
41
1
10
16.0343474675516
20
2.98153874767286
30
0
41
1
10
16.4829037830324
20
2.7813481475448
30
0
41
1
10
16.931226516554
20
2.56442899470898
30
0
41
1
10
17.3794605287107
20
2.33255325009111
30
0
41
1
10
17.7156268183936
20
2.15172302008818
30
0
41
1
10
18.0518170228669
20
1.96448145964976
30
0
41
1
10
18.5001434358307
20
1.70698560105512
30
0
41
1
10
18.9486597684533
20
1.43878721203268
30
0
41
1
10
19.3974691883224
20
1.16225028068936
30
0
41
1
10
19.8465128003848
20
0.880949025676529
30
0
41
1
10
20.2959632287393
20
0.593670479121101
30
0
41
1
10
20.7458759686038
20
0.302985835876513
30
0
41
1
10
21.1961171608775
20
0.010875533114671
30
0
41
1
10
21.6468850955759
20
-0.282096223376783
30
0
41
1
10
22.0982378353689
20
-0.57329195192429
30
0
41
1
10
22.5500076827516
20
-0.862450411324431
30
0
41
1
10
23.0023964787695
20
-1.14720733585455
30
0
41
1
10
23.455187997275
20
-1.42482604294659
30
0
41
1
10
23.9081823200718
20
-1.69680833776343
30
0
41
1
10
24.3613824206764
20
-1.95896729396247
30
0
41
1
10
24.8145790145205
20
-2.20882707518496
30
0
41
1
10
25.154426793216
20
-2.3894705712334
30
0
41
1
10
25.4941644869336
20
-2.56276036879476
30
0
41
1
10
25.833726972775
20
-2.72817337825865
30
0
41
1
10
26.1730384198328
20
-2.8852114677934
30
0
41
1
10
26.6250297172095
20
-3.0827599190541
30
0
41
1
10
27.076253695512
20
-3.26156456445389
30
0
41
1
10
27.526444925274
20
-3.42018105254442
30
0
41
1
10
27.9758238401176
20
-3.5648560207332
30
0
41
1
10
28.7604361808419
20
-3.78040253668075
30
0
41
1
10
29.6559846428403
20
-3.93808798177565
30
0
41
1
10
30.4374991118002
20
-3.993356216872
30
0
41
1
10
30.7702782275276
20
-3.99935456037338
30
0
41
1
10
30.8772434246744
20
-3.99946893082986
30
0
0
SPLINE
5
13C
100
AcDbEntity
8
1
62
256
6
ByLayer
370
18
48
1
60
0
100
AcDbSpline
70
4
71
3
72
9
73
5
40
0
40
0
40
0
40
0
40
0.499627396800408
40
1
40
1
40
1
40
1
41
1
10
11.9315275019507
20
3.98584191077447
30
0
41
1
10
11.9376648787822
20
3.98642001372707
30
0
41
1
10
11.9499487864919
20
3.98757708188688
30
0
41
1
10
11.9622800257216
20
3.98893797013977
30
0
41
1
10
11.9684502399956
20
3.98961892133752
30
0
0
SPLINE
5
13D
100
AcDbEntity
8
1
62
256
6
ByLayer
370
18
48
1
60
0
100
AcDbSpline
70
4
71
3
72
10
73
6
40
0
40
0
40
0
40
0
40
0.5
40
0.5
40
1
40
1
40
1
40
1
41
1
10
13.0000000000001
20
3.86827537775449
30
0
41
1
10
12.8220122674287
20
3.89774062387178
30
0
41
1
10
12.6435839181484
20
3.92220227987195
30
0
41
1
10
12.2871282163683
20
3.9613727480963
30
0
41
1
10
12.1091545995723
20
3.97608693227085
30
0
41
1
10
11.9315233023077
20
3.98584152651318
30
0
0
SPLINE
5
13E
100
AcDbEntity
8
1
62
256
6
ByLayer
370
18
48
1
60
0
100
AcDbSpline
70
4
71
3
72
74
73
70
40
0
40
0
40
0
40
0
40
0.0424313145080494
40
0.0424313145080494
40
0.0636469717620736
40
0.0636469717620736
40
0.0742548003890857
40
0.0742548003890857
40
0.0848626290160979
40
0.0848626290160979
40
0.169725258032195
40
0.169725258032195
40
0.180333086659207
40
0.180333086659207
40
0.19094091528622
40
0.212156572540246
40
0.212156572540246
40
0.254587887048298
40
0.254587887048298
40
0.275803544302325
40
0.275803544302325
40
0.286411372929338
40
0.286411372929338
40
0.297019201556351
40
0.297019201556351
40
0.339450516064404
40
0.339450516064404
40
0.381881830572457
40
0.381881830572457
40
0.392489659199471
40
0.392489659199471
40
0.403097487826485
40
0.424313145080513
40
0.46674445958857
40
0.46674445958857
40
0.487960116842599
40
0.487960116842599
40
0.509175774096628
40
0.509175774096628
40
0.594038403112743
40
0.594038403112743
40
0.615254060366772
40
0.615254060366772
40
0.6364697176208
40
0.6364697176208
40
0.678901032128856
40
0.678901032128856
40
0.700116689382885
40
0.700116689382885
40
0.721332346636913
40
0.721332346636913
40
0.763763661144969
40
0.763763661144969
40
0.806194975653024
40
0.806194975653024
40
0.816802804280039
40
0.816802804280039
40
0.827410632907053
40
0.827410632907053
40
0.848626290161082
40
0.848626290161082
40
0.891057604669137
40
0.891057604669137
40
0.912273261923165
40
0.92288109055018
40
0.92288109055018
40
0.933488919177195
40
0.933488919177195
40
1
40
1
40
1
40
1
41
1
10
13.0000000000001
20
3.8681875933153
30
0
41
1
10
13.2486092964125
20
3.82707879562153
30
0
41
1
10
13.496777971068
20
3.7765615732163
30
0
41
1
10
13.869173766291
20
3.68720332057876
30
0
41
1
10
13.9933300348178
20
3.65514845650048
30
0
41
1
10
14.1797087416847
20
3.60369741511283
30
0
41
1
10
14.2418626099431
20
3.5859848611527
30
0
41
1
10
14.3660509102977
20
3.54950440066639
30
0
41
1
10
14.4281083938475
20
3.53073017901173
30
0
41
1
10
14.9863751292356
20
3.35703386892041
30
0
41
1
10
15.4808767597616
20
3.16915165927216
30
0
41
1
10
16.0399557996383
20
2.92419090475516
30
0
41
1
10
16.1021342674664
20
2.8964956768111
30
0
41
1
10
16.2263695275704
20
2.84028170037618
30
0
41
1
10
16.4126036086399
20
2.75469849040991
30
0
41
1
10
16.5985550810886
20
2.66542403586453
30
0
41
1
10
16.9702863479813
20
2.4821881048031
30
0
41
1
10
17.2178828559134
20
2.3537544424612
30
0
41
1
10
17.5897720721568
20
2.15278689413776
30
0
41
1
10
17.713816497202
20
2.08441459070042
30
0
41
1
10
17.9001115626959
20
1.97989947406862
30
0
41
1
10
17.9622764532843
20
1.94471816361553
30
0
41
1
10
18.0865198970772
20
1.87382288425633
30
0
41
1
10
18.148603589357
20
1.83810610451621
30
0
41
1
10
18.4588741812516
20
1.65824519024667
30
0
41
1
10
18.706617811286
20
1.51028665637983
30
0
41
1
10
19.2021563185076
20
1.20770456457169
30
0
41
1
10
19.4499530904726
20
1.05307521786151
30
0
41
1
10
19.7603984732697
20
0.856562661159444
30
0
41
1
10
19.8225491076998
20
0.817081888394085
30
0
41
1
10
19.946801705884
20
0.737909833748915
30
0
41
1
10
20.133056749777
20
0.618868948381987
30
0
41
1
10
20.5669698374693
20
0.339414317085669
30
0
41
1
10
20.9383670187983
20
0.0979709978796848
30
0
41
1
10
21.3102379448833
20
-0.143473573056951
30
0
41
1
10
21.434273225461
20
-0.223956131450592
30
0
41
1
10
21.6826297583378
20
-0.384723168277645
30
0
41
1
10
21.8070107244573
20
-0.465045547142893
30
0
41
1
10
22.427735453433
20
-0.864260772103449
30
0
41
1
10
22.9221244149146
20
-1.17708743429932
30
0
41
1
10
23.542821185083
20
-1.55181205280465
30
0
41
1
10
23.6671827644238
20
-1.62598437582545
30
0
41
1
10
23.915470780058
20
-1.77197267689499
30
0
41
1
10
24.0394835186203
20
-1.84384163122107
30
0
41
1
10
24.4113301199457
20
-2.05583102610029
30
0
41
1
10
24.6589712177791
20
-2.19234237881608
30
0
41
1
10
25.0308275557763
20
-2.38883258891715
30
0
41
1
10
25.154845297858
20
-2.45294993314769
30
0
41
1
10
25.4031354844699
20
-2.57826337450607
30
0
41
1
10
25.5275073027487
20
-2.63950857996284
30
0
41
1
10
25.8999939215932
20
-2.8180422888295
30
0
41
1
10
26.1477275572322
20
-2.93027724029366
30
0
41
1
10
26.6431572261524
20
-3.13994399812819
30
0
41
1
10
26.8908603782022
20
-3.23737367145065
30
0
41
1
10
27.2011579803329
20
-3.34926877120032
30
0
41
1
10
27.2632508134248
20
-3.37115274815244
30
0
41
1
10
27.3875199751794
20
-3.41391194646607
30
0
41
1
10
27.4496769504655
20
-3.43477998620082
30
0
41
1
10
27.6359654616344
20
-3.49573678480545
30
0
41
1
10
27.7600181789436
20
-3.53421362678029
30
0
41
1
10
28.1319446710822
20
-3.64305154742326
30
0
41
1
10
28.3795775648115
20
-3.7068321355637
30
0
41
1
10
28.7513321176861
20
-3.78892174293867
30
0
41
1
10
28.9372870073217
20
-3.82656855444338
30
0
41
1
10
29.1235143944826
20
-3.85902101406001
30
0
41
1
10
29.2477444267387
20
-3.87948988153167
30
0
41
1
10
29.309902058165
20
-3.88914112764257
30
0
41
1
10
29.7613162428064
20
-3.95491344014215
30
0
41
1
10
30.1492361253043
20
-3.98806762483719
30
0
41
1
10
30.537785506763
20
-3.99735009254238
30
0
0
SPLINE
5
13F
100
AcDbEntity
8
1
62
256
6
ByLayer
370
18
48
1
60
0
100
AcDbSpline
70
4
71
3
72
10
73
6
40
0
40
0
40
0
40
0
40
0.711544304444409
40
0.711544304444409
40
1
40
1
40
1
40
1
41
1
10
30.8320459562519
20
-3.99981237585814
30
0
41
1
10
30.8412280796535
20
-3.99974668554884
30
0
41
1
10
30.8504108393327
20
-3.99966765213569
30
0
41
1
10
30.8633171652101
20
-3.9995378211878
30
0
41
1
10
30.8670401747565
20
-3.9994981782398
30
0
41
1
10
30.8707632924103
20
-3.99945634252589
30
0
0
SPLINE
5
140
100
AcDbEntity
8
1
62
256
6
ByLayer
370
18
48
1
60
0
100
AcDbSpline
70
4
71
3
72
82
73
78
40
0
40
0
40
0
40
0
40
0.0229377226042416
40
0.0229377226042416
40
0.0345694163827638
40
0.0345694163827638
40
0.0462011101612858
40
0.0462011101612858
40
0.0694644977183293
40
0.0694644977183293
40
0.115991272832417
40
0.115991272832417
40
0.127622966610939
40
0.127622966610939
40
0.13925466038946
40
0.13925466038946
40
0.162518047946504
40
0.162518047946504
40
0.20904482306059
40
0.20904482306059
40
0.220676516839112
40
0.220676516839112
40
0.232308210617633
40
0.232308210617633
40
0.255571598174675
40
0.255571598174675
40
0.302098373288759
40
0.302098373288759
40
0.31373006706728
40
0.31373006706728
40
0.325361760845801
40
0.325361760845801
40
0.348625148402843
40
0.348625148402843
40
0.395151923516928
40
0.395151923516928
40
0.418415311073969
40
0.418415311073969
40
0.44167869863101
40
0.44167869863101
40
0.488205473745093
40
0.488205473745093
40
0.511468861302135
40
0.511468861302135
40
0.534732248859177
40
0.534732248859177
40
0.581259023973262
40
0.581259023973262
40
0.592890717751782
40
0.592890717751782
40
0.604522411530301
40
0.627785799087341
40
0.627785799087341
40
0.674312574201419
40
0.674312574201419
40
0.685944267979939
40
0.685944267979939
40
0.697575961758459
40
0.7208393493155
40
0.7208393493155
40
0.767366124429583
40
0.767366124429583
40
0.778997818208103
40
0.778997818208103
40
0.790629511986623
40
0.813892899543664
40
0.813892899543664
40
0.860419674657745
40
0.860419674657745
40
0.872051368436265
40
0.872051368436265
40
0.883683062214785
40
0.906946449771828
40
0.906946449771828
40
0.953473224885914
40
0.953473224885914
40
1
40
1
40
1
40
1
41
1
10
20.831289867718
20
2.43405041163842
30
0
41
1
10
20.9536136573068
20
2.50722855848238
30
0
41
1
10
21.0759705551666
20
2.57846846116908
30
0
41
1
10
21.2605918101134
20
2.68272635078492
30
0
41
1
10
21.3227483889205
20
2.7172779248159
30
0
41
1
10
21.4471604688878
20
2.78529708177425
30
0
41
1
10
21.5094456758086
20
2.81877989697961
30
0
41
1
10
21.6960857841819
20
2.91735062388153
30
0
41
1
10
21.8203225824186
20
2.98061893939254
30
0
41
1
10
22.1927750876413
20
3.1628459466541
30
0
41
1
10
22.4407335575245
20
3.27420691342479
30
0
41
1
10
22.7513397893117
20
3.39984594444493
30
0
41
1
10
22.8134936481821
20
3.42429735280277
30
0
41
1
10
22.9378948605866
20
3.47182393513106
30
0
41
1
10
23.0001559679829
20
3.49490309239721
30
0
41
1
10
23.1866922717428
20
3.56188564480098
30
0
41
1
10
23.3108594270858
20
3.60359026505057
30
0
41
1
10
23.6831484005766
20
3.71965541678443
30
0
41
1
10
23.9310678425028
20
3.78492885881437
30
0
41
1
10
24.2417608818894
20
3.85090334750166
30
0
41
1
10
24.3039386854488
20
3.86331838735663
30
0
41
1
10
24.428399861954
20
3.88657401694988
30
0
41
1
10
24.490671568093
20
3.89741127311538
30
0
41
1
10
24.6772508954557
20
3.92747279697258
30
0
41
1
10
24.8014654282056
20
3.9442741797933
30
0
41
1
10
25.1738956434576
20
3.98490421486613
30
0
41
1
10
25.4218852823618
20
3.99893478373346
30
0
41
1
10
25.7325714071768
20
4.00013208395623
30
0
41
1
10
25.7947440385744
20
3.99955271409746
30
0
41
1
10
25.9191894720414
20
3.9967462781639
30
0
41
1
10
25.9814157680586
20
3.99451945376097
30
0
41
1
10
26.1678808721005
20
3.98537899822958
30
0
41
1
10
26.2920139222162
20
3.9760005509155
30
0
41
1
10
26.6642403034381
20
3.93808598618799
30
0
41
1
10
26.9121668671191
20
3.89978231648638
30
0
41
1
10
27.2850745651939
20
3.82328653881521
30
0
41
1
10
27.4096645229351
20
3.79457298364682
30
0
41
1
10
27.6583300998872
20
3.73108156997157
30
0
41
1
10
27.7825036390668
20
3.69628855448974
30
0
41
1
10
28.1548615098806
20
3.58294112662756
30
0
41
1
10
28.4028788642832
20
3.49543493380395
30
0
41
1
10
28.7758158215921
20
3.34695199271829
30
0
41
1
10
28.9003728042723
20
3.29454118430601
30
0
41
1
10
29.1489061778145
20
3.1846102225048
30
0
41
1
10
29.2730076160676
20
3.12704442750277
30
0
41
1
10
29.6451790832683
20
2.94687917779456
30
0
41
1
10
29.8931262684624
20
2.81682369252857
30
0
41
1
10
30.2040058346314
20
2.64282951105491
30
0
41
1
10
30.2662593788129
20
2.60744077969912
30
0
41
1
10
30.3907362310681
20
2.5356279296933
30
0
41
1
10
30.5773042952308
20
2.42641700056939
30
0
41
1
10
30.7635399667055
20
2.3128658169787
30
0
41
1
10
31.1358725498534
20
2.08033049340406
30
0
41
1
10
31.3839078230486
20
1.91806446460728
30
0
41
1
10
31.6948030228762
20
1.70735869020527
30
0
41
1
10
31.7570612603787
20
1.66479848776257
30
0
41
1
10
31.881475884738
20
1.57906948066062
30
0
41
1
10
32.0679405394368
20
1.44956841338941
30
0
41
1
10
32.2540660824458
20
1.31751748605348
30
0
41
1
10
32.6262214151093
20
1.05047328508007
30
0
41
1
10
32.8742023891118
20
0.868528625153203
30
0
41
1
10
33.1851762861019
20
0.637666016106664
30
0
41
1
10
33.2474528709995
20
0.591297392760879
30
0
41
1
10
33.3718726126281
20
0.498445780080715
30
0
41
1
10
33.5583647790605
20
0.358950176506369
30
0
41
1
10
33.7445684359915
20
0.218965156265341
30
0
41
1
10
34.1168958002488
20
-0.0612513529437138
30
0
41
1
10
34.3649892408068
20
-0.248415069386027
30
0
41
1
10
34.6760119122327
20
-0.481396843471884
30
0
41
1
10
34.7382851138441
20
-0.527960355092233
30
0
41
1
10
34.8625859933984
20
-0.62067665473262
30
0
41
1
10
35.0487982222425
20
-0.759232022719658
30
0
41
1
10
35.2344254342765
20
-0.896066992885949
30
0
41
1
10
35.6052502401606
20
-1.16700572929003
30
0
41
1
10
35.8518984562324
20
-1.34398265285998
30
0
41
1
10
36.3458648791224
20
-1.68838989445783
30
0
41
1
10
36.5931902569808
20
-1.85581038302234
30
0
41
1
10
36.8416432465315
20
-2.01750113648816
30
0
0
SPLINE
5
141
100
AcDbEntity
8
1
62
256
6
ByLayer
370
18
48
1
60
0
100
AcDbSpline
70
4
71
3
72
8
73
4
40
0
40
0
40
0
40
0
40
1
40
1
40
1
40
1
41
1
10
36.8416432465314
20
-2.01750113648919
30
0
41
1
10
36.8828219308218
20
-2.02102788725219
30
0
41
1
10
36.9240023227138
20
-2.02467943009535
30
0
41
1
10
36.9651844063449
20
-2.02845460549116
30
0
0
SPLINE
5
142
100
AcDbEntity
8
1
62
256
6
ByLayer
370
18
48
1
60
0
100
AcDbSpline
70
4
71
3
72
9
73
5
40
0
40
0
40
0
40
0
40
0.0072388551462237
40
1
40
1
40
1
40
1
41
1
10
25.7780382580628
20
3.99940659519288
30
0
41
1
10
25.7781553716535
20
3.99940701758064
30
0
41
1
10
25.7943338271508
20
3.99946496559176
30
0
41
1
10
25.8105104719917
20
3.99946737078292
30
0
41
1
10
25.8265681620379
20
3.99941505447973
30
0
0
SPLINE
5
143
100
AcDbEntity
8
1
62
256
6
ByLayer
370
18
48
1
60
0
100
AcDbSpline
70
4
71
3
72
25
73
21
40
0
40
0
40
0
40
0
40
0.002350628863993
40
0.0690467236770405
40
0.102394771083564
40
0.135742818490088
40
0.202438913303135
40
0.33583110292923
40
0.402527197742277
40
0.469223292555325
40
0.535919387368372
40
0.602615482181419
40
0.635963529587943
40
0.669311576994467
40
0.736007671807514
40
0.769355719214038
40
0.802703766620561
40
0.869399861433609
40
0.936095956246656
40
1
40
1
40
1
40
1
41
1
10
26.4297969826894
20
3.97169845011476
30
0
41
1
10
26.4377132929625
20
3.97099635279125
30
0
41
1
10
26.6702257650483
20
3.94998279132719
30
0
41
1
10
27.0141983075382
20
3.90182078910453
30
0
41
1
10
27.4603067348974
20
3.80868141907484
30
0
41
1
10
27.9049025896533
20
3.69587925047568
30
0
41
1
10
28.6792048374417
20
3.44812975630967
30
0
41
1
10
29.5604037486243
20
3.0566915371549
30
0
41
1
10
30.4472026997542
20
2.57091182652422
30
0
41
1
10
31.1174596796828
20
2.16296176763018
30
0
41
1
10
31.795367970824
20
1.71540581267172
30
0
41
1
10
32.3687501548847
20
1.312928148525
30
0
41
1
10
32.8339456175391
20
0.975880176083507
30
0
41
1
10
33.3039544838972
20
0.629601709678809
30
0
41
1
10
33.781861671425
20
0.271028770504643
30
0
41
1
10
34.2692295552331
20
-0.096337413470593
30
0
41
1
10
34.7634076109814
20
-0.468475464020486
30
0
41
1
10
35.3949232807528
20
-0.939420286384035
30
0
41
1
10
36.1682830126618
20
-1.49530746645547
30
0
41
1
10
36.6997987614153
20
-1.85558755550161
30
0
41
1
10
36.9651844075485
20
-2.02845459566927
30
0
0
SPLINE
5
144
100
AcDbEntity
8
1
62
256
6
ByLayer
370
18
48
1
60
0
100
AcDbSpline
70
4
71
2
72
6
73
3
40
0
40
0
40
0
40
1
40
1
40
1
41
1
10
34.5257904250992
20
2.15164295752069
30
0
41
1
10
34.3594443662016
20
2.21313427400875
30
0
41
1
10
34.1931210703296
20
2.27803237525816
30
0
0
SPLINE
5
145
100
AcDbEntity
8
1
62
256
6
ByLayer
370
18
48
1
60
0
100
AcDbSpline
70
4
71
3
72
16
73
12
40
0
40
0
40
0
40
0
40
0.143491578866626
40
0.256661865415161
40
0.359767086108393
40
0.487414523139341
40
0.590815061286366
40
0.677686041982932
40
0.761276833112311
40
0.878823645128703
40
1
40
1
40
1
40
1
41
1
10
24.8890941918561
20
1.54976144012304
30
0
41
1
10
24.6868492090005
20
1.58815192255011
30
0
41
1
10
24.3233753009805
20
1.65916259619317
30
0
41
1
10
23.8092413027284
20
1.76431824587209
30
0
41
1
10
23.3148836818125
20
1.87003547027499
30
0
41
1
10
22.837226306539
20
1.97474200594809
30
0
41
1
10
22.3825246803347
20
2.07649720944119
30
0
41
1
10
21.9900564495621
20
2.16545204796981
30
0
41
1
10
21.5770029103827
20
2.25973169221382
30
0
41
1
10
21.1155353973214
20
2.36573745930727
30
0
41
1
10
20.7737990382178
20
2.44443843652837
30
0
41
1
10
20.6003854870619
20
2.48445076375552
30
0
0
SPLINE
5
146
100
AcDbEntity
8
1
62
256
6
ByLayer
370
18
48
1
60
0
100
AcDbSpline
70
4
71
3
72
11
73
7
40
0
40
0
40
0
40
0
40
0.348683376615778
40
0.555888822046041
40
0.734057186079052
40
1
40
1
40
1
40
1
41
1
10
14.4522272755368
20
0.479120738251368
30
0
41
1
10
14.3049092654813
20
0.531675627155522
30
0
41
1
10
14.0711630067062
20
0.620312065997069
30
0
41
1
10
13.7574608833732
20
0.750852283588415
30
0
41
1
10
13.492752021159
20
0.867542400884986
30
0
41
1
10
13.3168294076561
20
0.948937237271565
30
0
41
1
10
13.2137537453086
20
0.998215569380733
30
0
0
SPLINE
5
147
100
AcDbEntity
8
1
62
256
6
ByLayer
370
18
48
1
60
0
100
AcDbSpline
70
4
71
3
72
17
73
13
40
0
40
0
40
0
40
0
40
0.189877366432018
40
0.346854554416472
40
0.478861442038912
40
0.592383578241265
40
0.656229355775513
40
0.720952751320975
40
0.784186485738396
40
0.846862679227659
40
0.935029302849036
40
1
40
1
40
1
40
1
41
1
10
21.2628124886036
20
-3.51638802466499
30
0
41
1
10
21.5716653680404
20
-3.50970612175422
30
0
41
1
10
22.1313573432019
20
-3.48530692792983
30
0
41
1
10
22.8902494762413
20
-3.4204466525149
30
0
41
1
10
23.5240020254342
20
-3.34505059723938
30
0
41
1
10
24.018503444282
20
-3.27276971563009
30
0
41
1
10
24.4042243725527
20
-3.20957496162401
30
0
41
1
10
24.709181526034
20
-3.15579168940556
30
0
41
1
10
25.0126510707652
20
-3.09857194174924
30
0
41
1
10
25.3537916267635
20
-3.03018928183141
30
0
41
1
10
25.6980394929394
20
-2.95620623302116
30
0
41
1
10
25.9423063194506
20
-2.90024097191784
30
0
41
1
10
26.0459350076459
20
-2.87595655286472
30
0
0
SPLINE
5
148
100
AcDbEntity
8
1
62
256
6
ByLayer
370
18
48
1
60
0
100
AcDbSpline
70
4
71
3
72
18
73
14
40
0
40
0
40
0
40
0
40
0.143872253706877
40
0.254489206047948
40
0.338178520106725
40
0.414256381884555
40
0.484804080621803
40
0.558563197561938
40
0.644286358894717
40
0.741971131707013
40
0.876318775243473
40
0.983469644168264
40
1
40
1
40
1
40
1
41
1
10
20.8918303795525
20
2.41144839603345
30
0
41
1
10
20.6698232388047
20
2.46830360700858
30
0
41
1
10
20.2792686680277
20
2.56634764321623
30
0
41
1
10
19.7570553037307
20
2.69177556047646
30
0
41
1
10
19.3542115887691
20
2.78692516705232
30
0
41
1
10
19.0067940896486
20
2.86425822264903
30
0
41
1
10
18.6708041663067
20
2.93576283061472
30
0
41
1
10
18.3183027537569
20
3.00730689733791
30
0
41
1
10
17.9247931983541
20
3.08270157939464
30
0
41
1
10
17.4383893774791
20
3.16915346980795
30
0
41
1
10
16.9191733659078
20
3.25145954911849
30
0
41
1
10
16.5241589311094
20
3.3059324600998
30
0
41
1
10
16.3347831151567
20
3.32996373094704
30
0
41
1
10
16.3094722917389
20
3.33313804081323
30
0
0
SPLINE
5
149
100
AcDbEntity
8
1
62
256
6
ByLayer
370
18
48
1
60
0
100
AcDbSpline
70
4
71
3
72
11
73
7
40
0
40
0
40
0
40
0
40
0.186667414381829
40
0.451910536641756
40
0.79600723065958
40
1
40
1
40
1
40
1
41
1
10
33.1459668900322
20
-3.5163734411548
30
0
41
1
10
33.3256676595448
20
-3.51284873490636
30
0
41
1
10
33.7585485126675
20
-3.49964519523877
30
0
41
1
10
34.5084012385707
20
-3.45440914555519
30
0
41
1
10
35.2698611292399
20
-3.38559174472448
30
0
41
1
10
35.7807525487196
20
-3.31473246347298
30
0
41
1
10
35.9705571850185
20
-3.28554406299301
30
0
0
SPLINE
5
14A
100
AcDbEntity
8
1
62
256
6
ByLayer
370
18
48
1
60
0
100
AcDbSpline
70
4
71
3
72
17
73
13
40
0
40
0
40
0
40
0
40
0.150898131784761
40
0.259426249676122
40
0.36087343156114
40
0.463551214284959
40
0.561374234960304
40
0.660390644760472
40
0.766952224795097
40
0.874604334671928
40
0.978916407371069
40
1
40
1
40
1
40
1
41
1
10
33.1590443895125
20
2.6172364792115
30
0
41
1
10
32.9921134377668
20
2.66338414981897
30
0
41
1
10
32.7069024472319
20
2.74056617947653
30
0
41
1
10
32.316500075211
20
2.84246559924796
30
0
41
1
10
31.9777540257306
20
2.92765160852673
30
0
41
1
10
31.647501157557
20
3.00681394169413
30
0
41
1
10
31.3218657773897
20
3.08005160551525
30
0
41
1
10
30.9921176918021
20
3.14900713495115
30
0
41
1
10
30.6505955035916
20
3.21451950727078
30
0
41
1
10
30.303049290273
20
3.2749147327242
30
0
41
1
10
30.0487516512095
20
3.31454659320849
30
0
41
1
10
29.9119169665109
20
3.33439257710322
30
0
41
1
10
29.8889099530237
20
3.33768739145327
30
0
0
SPLINE
5
14B
100
AcDbEntity
8
1
62
256
6
ByLayer
370
18
48
1
60
0
100
AcDbSpline
70
4
71
3
72
13
73
9
40
0
40
0
40
0
40
0
40
0.287307138549788
40
0.515386476871076
40
0.684253180562353
40
0.799121832604298
40
0.902071582344579
40
1
40
1
40
1
40
1
41
1
10
13
20
-3.36707825343009
30
0
41
1
10
13.1868802309475
20
-3.34259741966585
30
0
41
1
10
13.5221067456088
20
-3.29356751656732
30
0
41
1
10
13.9671767471694
20
-3.2157653499265
30
0
41
1
10
14.3000364931612
20
-3.15123682911752
30
0
41
1
10
14.5515108781898
20
-3.09923478407299
30
0
41
1
10
14.7567576535689
20
-3.05486051637146
30
0
41
1
10
14.8872773141045
20
-3.02555293151249
30
0
41
1
10
14.9508948914837
20
-3.01102069310997
30
0
0
SPLINE
5
14C
100
AcDbEntity
8
1
62
256
6
ByLayer
370
18
48
1
60
0
100
AcDbSpline
70
4
71
1
72
4
73
2
40
0
40
0
40
1
40
1
41
1
10
32.5646350858349
20
1.99876680136808
30
0
41
1
10
32.564626342003
20
1.99877535176236
30
0
0
LINE
5
77
100
AcDbEntity
8
80
62
256
6
ByLayer
370
18
48
1
60
0
100
AcDbLine
10
0
20
0
30
0
11
-5
21
0
31
0
39
0
210
0
220
0
230
1
0
LINE
5
78
100
AcDbEntity
8
4
62
256
6
ByLayer
370
18
48
0.05
60
0
100
AcDbLine
10
0
20
0
30
0
11
37
21
0
31
0
39
0
210
0
220
0
230
1
0
LINE
5
7A
100
AcDbEntity
8
81
62
256
6
ByLayer
370
18
48
1
60
0
100
AcDbLine
10
37
20
0
30
0
11
42
21
0
31
0
39
0
210
0
220
0
230
1
0
LINE
5
7B
100
AcDbEntity
8
SK4
62
256
6
ByLayer
370
18
48
0.05
60
0
100
AcDbLine
10
-36
20
0
30
0
11
37
21
0
31
0
39
0
210
0
220
0
230
1
0
LINE
5
7D
100
AcDbEntity
8
1
62
256
6
ByLayer
370
18
48
1
60
0
100
AcDbLine
10
0
20
4
30
0
11
0
21
0
31
0
39
0
210
0
220
0
230
1
0
LINE
5
7E
100
AcDbEntity
8
1
62
256
6
ByLayer
370
18
48
1
60
0
100
AcDbLine
10
0
20
0
30
0
11
0
21
-4
31
0
39
0
210
0
220
0
230
1
0
LINE
5
7F
100
AcDbEntity
8
1
62
256
6
ByLayer
370
18
48
1
60
0
100
AcDbLine
10
37
20
-2.204477
30
0
11
37
21
-2.200337
31
0
39
0
210
0
220
0
230
1
0
LINE
5
80
100
AcDbEntity
8
1
62
256
6
ByLayer
370
18
48
1
60
0
100
AcDbLine
10
36.997358
20
-2.030187
30
0
11
37
21
-2.200337
31
0
39
0
210
0
220
0
230
1
0
LINE
5
81
100
AcDbEntity
8
1
62
256
6
ByLayer
370
18
48
1
60
0
100
AcDbLine
10
36.915482
20
-2.581281
30
0
11
36.91369
21
-2.463728
31
0
39
0
210
0
220
0
230
1
0
LINE
5
82
100
AcDbEntity
8
1
62
256
6
ByLayer
370
18
48
1
60
0
100
AcDbLine
10
36.91369
20
-2.463728
30
0
11
36.996955
21
-2.030166
31
0
39
0
210
0
220
0
230
1
0
LINE
5
83
100
AcDbEntity
8
1
62
256
6
ByLayer
370
18
48
1
60
0
100
AcDbLine
10
36.620602
20
-2.987399
30
0
11
36.91369
21
-2.463728
31
0
39
0
210
0
220
0
230
1
0
LINE
5
84
100
AcDbEntity
8
1
62
256
6
ByLayer
370
18
48
1
60
0
100
AcDbLine
10
36.91369
20
-2.463728
30
0
11
36.845527
21
-2.017839
31
0
39
0
210
0
220
0
230
1
0
LINE
5
85
100
AcDbEntity
8
1
62
256
6
ByLayer
370
18
48
1
60
0
100
AcDbLine
10
36.985062
20
3.550213
30
0
11
36.997328
21
3.687952
31
0
39
0
210
0
220
0
230
1
0
LINE
5
86
100
AcDbEntity
8
1
62
256
6
ByLayer
370
18
48
1
60
0
100
AcDbLine
10
36.997328
20
3.687952
30
0
11
37
21
3.988711
31
0
39
0
210
0
220
0
230
1
0
LINE
5
87
100
AcDbEntity
8
1
62
256
6
ByLayer
370
18
48
1
60
0
100
AcDbLine
10
37
20
3.988711
30
0
11
37
21
3.99544
31
0
39
0
210
0
220
0
230
1
0
LINE
5
88
100
AcDbEntity
8
1
62
256
6
ByLayer
370
18
48
1
60
0
100
AcDbLine
10
36.565661
20
-0.096126
30
0
11
36.658836
21
-0.113273
31
0
39
0
210
0
220
0
230
1
0
LINE
5
89
100
AcDbEntity
8
1
62
256
6
ByLayer
370
18
48
1
60
0
100
AcDbLine
10
36.658836
20
-0.113273
30
0
11
36.91658
21
2.781169
31
0
39
0
210
0
220
0
230
1
0
LINE
5
8A
100
AcDbEntity
8
1
62
256
6
ByLayer
370
18
48
1
60
0
100
AcDbLine
10
35.971785
20
-3.292158
30
0
11
36.41364
21
-1.921321
31
0
39
0
210
0
220
0
230
1
0
LINE
5
8B
100
AcDbEntity
8
1
62
256
6
ByLayer
370
18
48
1
60
0
100
AcDbLine
10
36.41364
20
-1.921321
30
0
11
36.498401
21
-1.782489
31
0
39
0
210
0
220
0
230
1
0
LINE
5
8C
100
AcDbEntity
8
1
62
256
6
ByLayer
370
18
48
1
60
0
100
AcDbLine
10
34.526861
20
-2.192013
30
0
11
36.41364
21
-1.921321
31
0
39
0
210
0
220
0
230
1
0
LINE
5
8D
100
AcDbEntity
8
1
62
256
6
ByLayer
370
13
48
1
60
0
100
AcDbLine
10
34.952372
20
-0.829571
30
0
11
34.127329
21
-1.234445
31
0
39
0
210
0
220
0
230
1
0
LINE
5
8E
100
AcDbEntity
8
1
62
256
6
ByLayer
370
13
48
1
60
0
100
AcDbLine
10
12.551023
20
3.88722
30
0
11
13
21
3.613902
31
0
39
0
210
0
220
0
230
1
0
LINE
5
8F
100
AcDbEntity
8
1
62
256
6
ByLayer
370
18
48
1
60
0
100
AcDbLine
10
13
20
1.199348
30
0
11
13
21
1.103926
31
0
39
0
210
0
220
0
230
1
0
LINE
5
90
100
AcDbEntity
8
1
62
256
6
ByLayer
370
13
48
1
60
0
100
AcDbLine
10
8.993773
20
3.638166
30
0
11
13
21
1.199348
31
0
39
0
210
0
220
0
230
1
0
LINE
5
91
100
AcDbEntity
8
1
62
256
6
ByLayer
370
18
48
1
60
0
100
AcDbLine
10
10.712072
20
-3.564163
30
0
11
13
21
-2.987387
31
0
39
0
210
0
220
0
230
1
0
LINE
5
92
100
AcDbEntity
8
1
62
256
6
ByLayer
370
18
48
1
60
0
100
AcDbLine
10
13
20
-2.987387
30
0
11
13
21
-2.279707
31
0
39
0
210
0
220
0
230
1
0
LINE
5
93
100
AcDbEntity
8
1
62
256
6
ByLayer
370
13
48
1
60
0
100
AcDbLine
10
9.650424
20
-3.12412
30
0
11
13
21
-2.279707
31
0
39
0
210
0
220
0
230
1
0
LINE
5
94
100
AcDbEntity
8
1
62
256
6
ByLayer
370
18
48
1
60
0
100
AcDbLine
10
13
20
-2.279707
30
0
11
13
21
-1.9567
31
0
39
0
210
0
220
0
230
1
0
LINE
5
95
100
AcDbEntity
8
1
62
256
6
ByLayer
370
18
48
1
60
0
100
AcDbLine
10
36.985386
20
-1.814063
30
0
11
36.997328
21
-1.880407
31
0
39
0
210
0
220
0
230
1
0
LINE
5
96
100
AcDbEntity
8
1
62
256
6
ByLayer
370
18
48
1
60
0
100
AcDbLine
10
36.810101
20
-0.840204
30
0
11
36.915178
21
-1.423994
31
0
39
0
210
0
220
0
230
1
0
LINE
5
97
100
AcDbEntity
8
1
62
256
6
ByLayer
370
18
48
1
60
0
100
AcDbLine
10
36.736485
20
-0.436021
30
0
11
36.810101
21
-0.840204
31
0
39
0
210
0
220
0
230
1
0
LINE
5
98
100
AcDbEntity
8
1
62
256
6
ByLayer
370
18
48
1
60
0
100
AcDbLine
10
13
20
-2.987387
30
0
11
13
21
-3.367078
31
0
39
0
210
0
220
0
230
1
0
LINE
5
99
100
AcDbEntity
8
1
62
256
6
ByLayer
370
18
48
1
60
0
100
AcDbLine
10
37
20
-2.029989
30
0
11
37
21
-2.027053
31
0
39
0
210
0
220
0
230
1
0
LINE
5
9A
100
AcDbEntity
8
1
62
256
6
ByLayer
370
18
48
1
60
0
100
AcDbLine
10
36.997328
20
-1.880407
30
0
11
37
21
-2.027053
31
0
39
0
210
0
220
0
230
1
0
LINE
5
9B
100
AcDbEntity
8
1
62
256
6
ByLayer
370
18
48
1
60
0
100
AcDbLine
10
36.91369
20
-1.420722
30
0
11
36.997328
21
-1.880407
31
0
39
0
210
0
220
0
230
1
0
LINE
5
9C
100
AcDbEntity
8
1
62
256
6
ByLayer
370
13
48
1
60
0
100
AcDbLine
10
9.264101
20
-2.489683
30
0
11
11.950212
21
-1.812527
31
0
39
0
210
0
220
0
230
1
0
LINE
5
9D
100
AcDbEntity
8
1
62
256
6
ByLayer
370
18
48
1
60
0
100
AcDbLine
10
13
20
1.199348
30
0
11
13
21
3.613902
31
0
39
0
210
0
220
0
230
1
0
LINE
5
9E
100
AcDbEntity
8
1
62
256
6
ByLayer
370
18
48
1
60
0
100
AcDbLine
10
36.915499
20
-1.52153
30
0
11
36.91369
21
-1.420722
31
0
39
0
210
0
220
0
230
1
0
LINE
5
9F
100
AcDbEntity
8
1
62
256
6
ByLayer
370
18
48
1
60
0
100
AcDbLine
10
36.615023
20
-0.867777
30
0
11
36.91369
21
-1.420722
31
0
39
0
210
0
220
0
230
1
0
LINE
5
A0
100
AcDbEntity
8
1
62
256
6
ByLayer
370
18
48
1
60
0
100
AcDbLine
10
36.91369
20
-1.420722
30
0
11
36.736485
21
-0.436021
31
0
39
0
210
0
220
0
230
1
0
LINE
5
A1
100
AcDbEntity
8
1
62
256
6
ByLayer
370
18
48
1
60
0
100
AcDbLine
10
36.432735
20
0.168384
30
0
11
36.736485
21
-0.436021
31
0
39
0
210
0
220
0
230
1
0
LINE
5
A2
100
AcDbEntity
8
1
62
256
6
ByLayer
370
18
48
1
60
0
100
AcDbLine
10
35.846193
20
1.028713
30
0
11
36.432735
21
0.168384
31
0
39
0
210
0
220
0
230
1
0
LINE
5
A3
100
AcDbEntity
8
1
62
256
6
ByLayer
370
18
48
1
60
0
100
AcDbLine
10
13
20
-0.713006
30
0
11
13
21
-0.547086
31
0
39
0
210
0
220
0
230
1
0
LINE
5
A4
100
AcDbEntity
8
1
62
256
6
ByLayer
370
13
48
1
60
0
100
AcDbLine
10
9.887771
20
1.347504
30
0
11
13
21
-0.547086
31
0
39
0
210
0
220
0
230
1
0
LINE
5
A5
100
AcDbEntity
8
1
62
256
6
ByLayer
370
18
48
1
60
0
100
AcDbLine
10
13
20
-0.547086
30
0
11
13
21
1.103932
31
0
39
0
210
0
220
0
230
1
0
LINE
5
A6
100
AcDbEntity
8
1
62
256
6
ByLayer
370
18
48
1
60
0
100
AcDbLine
10
10.536183
20
2.603797
30
0
11
13
21
1.103932
31
0
39
0
210
0
220
0
230
1
0
LINE
5
A7
100
AcDbEntity
8
1
62
256
6
ByLayer
370
13
48
1
60
0
100
AcDbLine
10
9.892814
20
1.178514
30
0
11
13
21
-0.713006
31
0
39
0
210
0
220
0
230
1
0
LINE
5
A8
100
AcDbEntity
8
1
62
256
6
ByLayer
370
18
48
1
60
0
100
AcDbLine
10
13
20
-0.713006
30
0
11
13
21
-0.92203
31
0
39
0
210
0
220
0
230
1
0
LINE
5
A9
100
AcDbEntity
8
1
62
256
6
ByLayer
370
18
48
1
60
0
100
AcDbLine
10
13
20
-3.367076
30
0
11
13
21
-3.418393
31
0
39
0
210
0
220
0
230
1
0
LINE
5
AA
100
AcDbEntity
8
1
62
256
6
ByLayer
370
18
48
1
60
0
100
AcDbLine
10
13
20
3.868182
30
0
11
13
21
3.613902
31
0
39
0
210
0
220
0
230
1
0
LINE
5
AB
100
AcDbEntity
8
1
62
256
6
ByLayer
370
13
48
1
60
0
100
AcDbLine
10
10.11272
20
-3.992383
30
0
11
10.175924
21
-3.976449
31
0
39
0
210
0
220
0
230
1
0
LINE
5
AC
100
AcDbEntity
8
1
62
256
6
ByLayer
370
18
48
1
60
0
100
AcDbLine
10
13
20
-1.956701
30
0
11
13
21
-1.956438
31
0
39
0
210
0
220
0
230
1
0
LINE
5
AD
100
AcDbEntity
8
1
62
256
6
ByLayer
370
18
48
1
60
0
100
AcDbLine
10
13
20
3.868182
30
0
11
13
21
3.868275
31
0
39
0
210
0
220
0
230
1
0
LINE
5
AE
100
AcDbEntity
8
SK1
62
256
6
ByLayer
370
18
48
1
60
0
100
AcDbLine
10
-36
20
-3.4
30
0
11
-36
21
3.4
31
0
39
0
210
0
220
0
230
1
0
LINE
5
B0
100
AcDbEntity
8
SK1
62
256
6
ByLayer
370
18
48
1
60
0
100
AcDbLine
10
0
20
4
30
0
11
0
21
0
31
0
39
0
210
0
220
0
230
1
0
LINE
5
B1
100
AcDbEntity
8
SK1
62
256
6
ByLayer
370
18
48
1
60
0
100
AcDbLine
10
0
20
0
30
0
11
0
21
-4
31
0
39
0
210
0
220
0
230
1
0
LINE
5
B2
100
AcDbEntity
8
SK1
62
256
6
ByLayer
370
18
48
1
60
0
100
AcDbLine
10
-35.4
20
4
30
0
11
-35.4
21
-4
31
0
39
0
210
0
220
0
230
1
0
LINE
5
B3
100
AcDbEntity
8
SK1
62
256
6
ByLayer
370
18
48
1
60
0
100
AcDbLine
10
-21.85
20
4
30
0
11
-20.75
21
2.9
31
0
39
0
210
0
220
0
230
1
0
LINE
5
B4
100
AcDbEntity
8
SK1
62
256
6
ByLayer
370
18
48
1
60
0
100
AcDbLine
10
-15.25
20
2.9
30
0
11
-14.15
21
4
31
0
39
0
210
0
220
0
230
1
0
LINE
5
B5
100
AcDbEntity
8
SK1
62
256
6
ByLayer
370
18
48
1
60
0
100
AcDbLine
10
-20.75
20
2.9
30
0
11
-15.25
21
2.9
31
0
39
0
210
0
220
0
230
1
0
LINE
5
B6
100
AcDbEntity
8
1
62
256
6
ByLayer
370
18
48
1
60
0
100
AcDbLine
10
12.013612
20
4
30
0
11
0
21
4
31
0
39
0
210
0
220
0
230
1
0
LINE
5
B7
100
AcDbEntity
8
1
62
256
6
ByLayer
370
18
48
1
60
0
100
AcDbLine
10
0
20
-4
30
0
11
10.340218
21
-4
31
0
39
0
210
0
220
0
230
1
0
LINE
5
B8
100
AcDbEntity
8
1
62
256
6
ByLayer
370
18
48
1
60
0
100
AcDbLine
10
10.727482
20
-3.939969
30
0
11
13.005699
21
-3.365641
31
0
39
0
210
0
220
0
230
1
0
LINE
5
B9
100
AcDbEntity
8
SK1
62
256
6
ByLayer
370
18
48
1
60
0
100
AcDbLine
10
-36
20
-3.4
30
0
11
-35.4
21
-4
31
0
39
0
210
0
220
0
230
1
0
LINE
5
BA
100
AcDbEntity
8
SK1
62
256
6
ByLayer
370
18
48
1
60
0
100
AcDbLine
10
-35.4
20
4
30
0
11
-36
21
3.4
31
0
39
0
210
0
220
0
230
1
0
LINE
5
BB
100
AcDbEntity
8
SK1
62
256
6
ByLayer
370
18
48
1
60
0
100
AcDbLine
10
0
20
4
30
0
11
-14.15
21
4
31
0
39
0
210
0
220
0
230
1
0
LINE
5
BC
100
AcDbEntity
8
SK1
62
256
6
ByLayer
370
18
48
1
60
0
100
AcDbLine
10
-21.85
20
4
30
0
11
-35.4
21
4
31
0
39
0
210
0
220
0
230
1
0
LINE
5
BD
100
AcDbEntity
8
SK1
62
256
6
ByLayer
370
18
48
1
60
0
100
AcDbLine
10
-35.4
20
-4
30
0
11
0
21
-4
31
0
39
0
210
0
220
0
230
1
0
LINE
5
BE
100
AcDbEntity
8
SK2
62
256
6
ByLayer
370
18
48
1
60
0
100
AcDbLine
10
-43.65
20
4
30
0
11
-43.65
21
-20.315466
31
0
39
0
210
0
220
0
230
1
0
LINE
5
C0
100
AcDbEntity
8
SK2
62
256
6
ByLayer
370
18
48
1
60
0
100
AcDbLine
10
-36.9875
20
4
30
0
11
-45.65
21
4
31
0
39
0
210
0
220
0
230
1
0
LINE
5
C1
100
AcDbEntity
8
SK2
62
256
6
ByLayer
370
18
48
1
60
0
100
AcDbLine
10
-36.9875
20
-4
30
0
11
-45.65
21
-4
31
0
39
0
210
0
220
0
230
1
0
LINE
5
C2
100
AcDbEntity
8
1
62
256
6
ByLayer
370
18
48
1
60
1
100
AcDbLine
10
-43.65
20
4
30
0
11
-43.189216
21
0.500002
31
0
39
0
210
0
220
0
230
1
0
LINE
5
C3
100
AcDbEntity
8
1
62
256
6
ByLayer
370
18
48
1
60
1
100
AcDbLine
10
-43.189216
20
0.500002
30
0
11
-44.110784
21
0.499998
31
0
39
0
210
0
220
0
230
1
0
LINE
5
C4
100
AcDbEntity
8
1
62
256
6
ByLayer
370
18
48
1
60
1
100
AcDbLine
10
-44.110784
20
0.499998
30
0
11
-43.65
21
4
31
0
39
0
210
0
220
0
230
1
0
LINE
5
C5
100
AcDbEntity
8
1
62
256
6
ByLayer
370
18
48
1
60
1
100
AcDbLine
10
-43.65
20
-4
30
0
11
-44.110784
21
-0.500002
31
0
39
0
210
0
220
0
230
1
0
LINE
5
C6
100
AcDbEntity
8
1
62
256
6
ByLayer
370
18
48
1
60
1
100
AcDbLine
10
-44.110784
20
-0.500002
30
0
11
-43.189216
21
-0.499998
31
0
39
0
210
0
220
0
230
1
0
LINE
5
C7
100
AcDbEntity
8
1
62
256
6
ByLayer
370
18
48
1
60
1
100
AcDbLine
10
-43.189216
20
-0.499998
30
0
11
-43.65
21
-4
31
0
39
0
210
0
220
0
230
1
0
LINE
5
C8
100
AcDbEntity
8
2
62
256
6
ByLayer
370
18
48
1
60
0
100
AcDbLine
10
49
20
-4.0001
30
0
11
49
21
20.315566
31
0
39
0
210
0
220
0
230
1
0
LINE
5
CA
100
AcDbEntity
8
2
62
256
6
ByLayer
370
18
48
1
60
0
100
AcDbLine
10
38.5875
20
4.0001
30
0
11
51
21
4.0001
31
0
39
0
210
0
220
0
230
1
0
LINE
5
CB
100
AcDbEntity
8
2
62
256
6
ByLayer
370
18
48
1
60
0
100
AcDbLine
10
38.5875
20
-4.0001
30
0
11
51
21
-4.0001
31
0
39
0
210
0
220
0
230
1
0
LINE
5
CC
100
AcDbEntity
8
1
62
256
6
ByLayer
370
18
48
1
60
1
100
AcDbLine
10
49
20
4.0001
30
0
11
49.460784
21
0.500102
31
0
39
0
210
0
220
0
230
1
0
LINE
5
CD
100
AcDbEntity
8
1
62
256
6
ByLayer
370
18
48
1
60
1
100
AcDbLine
10
49.460784
20
0.500102
30
0
11
48.539216
21
0.500098
31
0
39
0
210
0
220
0
230
1
0
LINE
5
CE
100
AcDbEntity
8
1
62
256
6
ByLayer
370
18
48
1
60
1
100
AcDbLine
10
48.539216
20
0.500098
30
0
11
49
21
4.0001
31
0
39
0
210
0
220
0
230
1
0
LINE
5
CF
100
AcDbEntity
8
1
62
256
6
ByLayer
370
18
48
1
60
1
100
AcDbLine
10
49
20
-4.0001
30
0
11
48.539216
21
-0.500102
31
0
39
0
210
0
220
0
230
1
0
LINE
5
D0
100
AcDbEntity
8
1
62
256
6
ByLayer
370
18
48
1
60
1
100
AcDbLine
10
48.539216
20
-0.500102
30
0
11
49.460784
21
-0.500098
31
0
39
0
210
0
220
0
230
1
0
LINE
5
D1
100
AcDbEntity
8
1
62
256
6
ByLayer
370
18
48
1
60
1
100
AcDbLine
10
49.460784
20
-0.500098
30
0
11
49
21
-4.0001
31
0
39
0
210
0
220
0
230
1
0
LINE
5
D2
100
AcDbEntity
8
SK2
62
256
6
ByLayer
370
18
48
1
60
0
100
AcDbLine
10
37
20
-34.727667
30
0
11
-36
21
-34.727667
31
0
39
0
210
0
220
0
230
1
0
LINE
5
D3
100
AcDbEntity
8
SK2
62
256
6
ByLayer
370
18
48
1
60
0
100
AcDbLine
10
-36
20
-4.9875
30
0
11
-36
21
-36.727667
31
0
39
0
210
0
220
0
230
1
0
LINE
5
D4
100
AcDbEntity
8
SK2
62
256
6
ByLayer
370
18
48
1
60
0
100
AcDbLine
10
37
20
-5.5876
30
0
11
37
21
-36.727667
31
0
39
0
210
0
220
0
230
1
0
LINE
5
D5
100
AcDbEntity
8
1
62
256
6
ByLayer
370
18
48
1
60
1
100
AcDbLine
10
-36
20
-34.727667
30
0
11
-32.500002
21
-34.266883
31
0
39
0
210
0
220
0
230
1
0
LINE
5
D6
100
AcDbEntity
8
1
62
256
6
ByLayer
370
18
48
1
60
1
100
AcDbLine
10
-32.500002
20
-34.266883
30
0
11
-32.499998
21
-35.18845
31
0
39
0
210
0
220
0
230
1
0
LINE
5
D7
100
AcDbEntity
8
1
62
256
6
ByLayer
370
18
48
1
60
1
100
AcDbLine
10
-32.499998
20
-35.18845
30
0
11
-36
21
-34.727667
31
0
39
0
210
0
220
0
230
1
0
LINE
5
D8
100
AcDbEntity
8
1
62
256
6
ByLayer
370
18
48
1
60
1
100
AcDbLine
10
37
20
-34.727667
30
0
11
33.500002
21
-35.18845
31
0
39
0
210
0
220
0
230
1
0
LINE
5
D9
100
AcDbEntity
8
1
62
256
6
ByLayer
370
18
48
1
60
1
100
AcDbLine
10
33.500002
20
-35.18845
30
0
11
33.499998
21
-34.266883
31
0
39
0
210
0
220
0
230
1
0
LINE
5
DA
100
AcDbEntity
8
1
62
256
6
ByLayer
370
18
48
1
60
1
100
AcDbLine
10
33.499998
20
-34.266883
30
0
11
37
21
-34.727667
31
0
39
0
210
0
220
0
230
1
0
LINE
5
151
100
AcDbEntity
8
1
62
256
6
ByLayer
370
18
48
1
60
1
100
AcDbLine
10
-43.65
20
4
30
0
11
-43.189216
21
0.500002
31
0
39
0
210
0
220
0
230
1
0
LINE
5
152
100
AcDbEntity
8
1
62
256
6
ByLayer
370
18
48
1
60
1
100
AcDbLine
10
-43.189216
20
0.500002
30
0
11
-44.110784
21
0.499998
31
0
39
0
210
0
220
0
230
1
0
LINE
5
153
100
AcDbEntity
8
1
62
256
6
ByLayer
370
18
48
1
60
1
100
AcDbLine
10
-44.110784
20
0.499998
30
0
11
-43.65
21
4
31
0
39
0
210
0
220
0
230
1
0
LINE
5
155
100
AcDbEntity
8
1
62
256
6
ByLayer
370
18
48
1
60
1
100
AcDbLine
10
-43.65
20
-4
30
0
11
-44.110784
21
-0.500002
31
0
39
0
210
0
220
0
230
1
0
LINE
5
156
100
AcDbEntity
8
1
62
256
6
ByLayer
370
18
48
1
60
1
100
AcDbLine
10
-44.110784
20
-0.500002
30
0
11
-43.189216
21
-0.499998
31
0
39
0
210
0
220
0
230
1
0
LINE
5
157
100
AcDbEntity
8
1
62
256
6
ByLayer
370
18
48
1
60
1
100
AcDbLine
10
-43.189216
20
-0.499998
30
0
11
-43.65
21
-4
31
0
39
0
210
0
220
0
230
1
0
LINE
5
15B
100
AcDbEntity
8
1
62
256
6
ByLayer
370
18
48
1
60
1
100
AcDbLine
10
49
20
4.0001
30
0
11
49.460784
21
0.500102
31
0
39
0
210
0
220
0
230
1
0
LINE
5
15C
100
AcDbEntity
8
1
62
256
6
ByLayer
370
18
48
1
60
1
100
AcDbLine
10
49.460784
20
0.500102
30
0
11
48.539216
21
0.500098
31
0
39
0
210
0
220
0
230
1
0
LINE
5
15D
100
AcDbEntity
8
1
62
256
6
ByLayer
370
18
48
1
60
1
100
AcDbLine
10
48.539216
20
0.500098
30
0
11
49
21
4.0001
31
0
39
0
210
0
220
0
230
1
0
LINE
5
15F
100
AcDbEntity
8
1
62
256
6
ByLayer
370
18
48
1
60
1
100
AcDbLine
10
49
20
-4.0001
30
0
11
48.539216
21
-0.500102
31
0
39
0
210
0
220
0
230
1
0
LINE
5
160
100
AcDbEntity
8
1
62
256
6
ByLayer
370
18
48
1
60
1
100
AcDbLine
10
48.539216
20
-0.500102
30
0
11
49.460784
21
-0.500098
31
0
39
0
210
0
220
0
230
1
0
LINE
5
161
100
AcDbEntity
8
1
62
256
6
ByLayer
370
18
48
1
60
1
100
AcDbLine
10
49.460784
20
-0.500098
30
0
11
49
21
-4.0001
31
0
39
0
210
0
220
0
230
1
0
LINE
5
164
100
AcDbEntity
8
1
62
256
6
ByLayer
370
18
48
1
60
1
100
AcDbLine
10
-36
20
-34.727667
30
0
11
-32.500002
21
-34.266883
31
0
39
0
210
0
220
0
230
1
0
LINE
5
165
100
AcDbEntity
8
1
62
256
6
ByLayer
370
18
48
1
60
1
100
AcDbLine
10
-32.500002
20
-34.266883
30
0
11
-32.499998
21
-35.18845
31
0
39
0
210
0
220
0
230
1
0
LINE
5
166
100
AcDbEntity
8
1
62
256
6
ByLayer
370
18
48
1
60
1
100
AcDbLine
10
-32.499998
20
-35.18845
30
0
11
-36
21
-34.727667
31
0
39
0
210
0
220
0
230
1
0
LINE
5
168
100
AcDbEntity
8
1
62
256
6
ByLayer
370
18
48
1
60
1
100
AcDbLine
10
37
20
-34.727667
30
0
11
33.500002
21
-35.18845
31
0
39
0
210
0
220
0
230
1
0
LINE
5
169
100
AcDbEntity
8
1
62
256
6
ByLayer
370
18
48
1
60
1
100
AcDbLine
10
33.500002
20
-35.18845
30
0
11
33.499998
21
-34.266883
31
0
39
0
210
0
220
0
230
1
0
LINE
5
16A
100
AcDbEntity
8
1
62
256
6
ByLayer
370
18
48
1
60
1
100
AcDbLine
10
33.499998
20
-34.266883
30
0
11
37
21
-34.727667
31
0
39
0
210
0
220
0
230
1
0
MTEXT
5
14D
100
AcDbEntity
8
SK2
62
256
6
ByLayer
370
18
48
1
60
0
100
AcDbMText
10
-45.214634
20
-18.380622
30
0
210
0
220
0
230
1
1
%%c
40
3.5
41
0
44
1.084337
50
90
71
7
72
5
7
iso_b_vert
0
MTEXT
5
150
100
AcDbEntity
8
SK2
62
256
6
ByLayer
370
18
48
1
60
0
100
AcDbMText
10
-45.214634
20
-11.407966
30
0
210
0
220
0
230
1
1
\W0.5404;8
40
3.5
41
0
44
1.084337
50
90
71
7
72
5
7
iso_b_vert
0
MTEXT
5
159
100
AcDbEntity
8
2
62
256
6
ByLayer
370
18
48
1
60
0
100
AcDbMText
10
47.435366
20
11.934944
30
0
210
0
220
0
230
1
1
%%c
40
3.5
41
0
44
1.084337
50
90
71
7
72
5
7
iso_b_vert
0
MTEXT
5
15A
100
AcDbEntity
8
2
62
256
6
ByLayer
370
18
48
1
60
0
100
AcDbMText
10
47.435366
20
18.9076
30
0
210
0
220
0
230
1
1
\W0.5404;8
40
3.5
41
0
44
1.084337
50
90
71
7
72
5
7
iso_b_vert
0
MTEXT
5
163
100
AcDbEntity
8
SK2
62
256
6
ByLayer
370
18
48
1
60
0
100
AcDbMText
10
-1.404966
20
-33.695033
30
0
210
0
220
0
230
1
1
\W0.6740;73
40
3.5
41
0
44
1.084337
50
0
71
7
72
5
7
iso_b_vert
0
MTEXT
5
16C
100
AcDbEntity
8
SK6
62
256
6
ByLayer
370
18
48
1
60
0
100
AcDbMText
10
-24.128633
20
-62.11222
30
0
210
0
220
0
230
1
1
\W0.6915;1K253-0800-NB       H10F
40
3
41
0
44
1.084337
50
0
71
7
72
5
7
iso_b_vert
0
HATCH
5
154
100
AcDbEntity
8
SK2
62
256
6
ByLayer
370
13
48
1
60
0
100
AcDbHatch
10
0
20
0
30
0
210
0
220
0
230
1
2
ANSI31
70
0
71
0
91
1
92
5
93
3
72
1
10
-43.65
20
3.99999999999994
11
-43.1892162584472
21
0.500001692553127
72
1
10
-43.1892162584472
20
0.500001692553127
11
-44.1107837415528
21
0.499998307446759
72
1
10
-44.1107837415528
20
0.499998307446759
11
-43.65
21
3.99999999999994
97
0
75
0
76
1
52
0
41
0.0062
77
0
78
1
53
45
43
0
44
0
45
-0.0139193969876572
46
0.0139193969876572
79
0
47
0
98
1
10
0
20
0
0
HATCH
5
158
100
AcDbEntity
8
SK2
62
256
6
ByLayer
370
13
48
1
60
0
100
AcDbHatch
10
0
20
0
30
0
210
0
220
0
230
1
2
ANSI31
70
0
71
0
91
1
92
5
93
3
72
1
10
-43.65
20
-4.00000000000003
11
-44.1107837415528
21
-0.500001692553212
72
1
10
-44.1107837415528
20
-0.500001692553212
11
-43.1892162584472
21
-0.499998307446845
72
1
10
-43.1892162584472
20
-0.499998307446845
11
-43.65
21
-4.00000000000003
97
0
75
0
76
1
52
0
41
0.0062
77
0
78
1
53
45
43
0
44
0
45
-0.0139193969876572
46
0.0139193969876572
79
0
47
0
98
1
10
0
20
0
0
HATCH
5
15E
100
AcDbEntity
8
2
62
256
6
ByLayer
370
13
48
1
60
0
100
AcDbHatch
10
0
20
0
30
0
210
0
220
0
230
1
2
ANSI31
70
0
71
0
91
1
92
5
93
3
72
1
10
49
20
4.00009999999986
11
49.4607837415528
21
0.500101692553045
72
1
10
49.4607837415528
20
0.500101692553045
11
48.5392162584472
21
0.500098307446677
72
1
10
48.5392162584472
20
0.500098307446677
11
49
21
4.00009999999986
97
0
75
0
76
1
52
0
41
0.0062
77
0
78
1
53
45
43
0
44
0
45
-0.0139193969876572
46
0.0139193969876572
79
0
47
0
98
1
10
0
20
0
0
HATCH
5
162
100
AcDbEntity
8
2
62
256
6
ByLayer
370
13
48
1
60
0
100
AcDbHatch
10
0
20
0
30
0
210
0
220
0
230
1
2
ANSI31
70
0
71
0
91
1
92
5
93
3
72
1
10
49
20
-4.00010000000015
11
48.5392162584472
21
-0.500101692553329
72
1
10
48.5392162584472
20
-0.500101692553329
11
49.4607837415528
21
-0.500098307446962
72
1
10
49.4607837415528
20
-0.500098307446962
11
49
21
-4.00010000000015
97
0
75
0
76
1
52
0
41
0.0062
77
0
78
1
53
45
43
0
44
0
45
-0.0139193969876572
46
0.0139193969876572
79
0
47
0
98
1
10
0
20
0
0
HATCH
5
167
100
AcDbEntity
8
SK2
62
256
6
ByLayer
370
13
48
1
60
0
100
AcDbHatch
10
0
20
0
30
0
210
0
220
0
230
1
2
ANSI31
70
0
71
0
91
1
92
5
93
3
72
1
10
-36
20
-34.7276667146254
11
-32.5000016925532
21
-34.2668829730726
72
1
10
-32.5000016925532
20
-34.2668829730726
11
-32.4999983074468
21
-35.1884504561782
72
1
10
-32.4999983074468
20
-35.1884504561782
11
-36
21
-34.7276667146254
97
0
75
0
76
1
52
0
41
0.0062
77
0
78
1
53
45
43
0
44
0
45
-0.0139193969876572
46
0.0139193969876572
79
0
47
0
98
1
10
0
20
0
0
HATCH
5
16B
100
AcDbEntity
8
SK2
62
256
6
ByLayer
370
13
48
1
60
0
100
AcDbHatch
10
0
20
0
30
0
210
0
220
0
230
1
2
ANSI31
70
0
71
0
91
1
92
5
93
3
72
1
10
37
20
-34.7276667146254
11
33.5000016925532
21
-35.1884504561782
72
1
10
33.5000016925532
20
-35.1884504561782
11
33.4999983074468
21
-34.2668829730726
72
1
10
33.4999983074468
20
-34.2668829730726
11
37
21
-34.7276667146254
97
0
75
0
76
1
52
0
41
0.0062
77
0
78
1
53
45
43
0
44
0
45
-0.0139193969876572
46
0.0139193969876572
79
0
47
0
98
1
10
0
20
0
0
DIMENSION
5
16F
100
AcDbEntity
8
2
62
256
6
ByLayer
370
18
48
1
60
0
100
AcDbDimension
2
_U0
10
13
20
-18.727667
30
0
11
25
21
-18.727667
31
0
70
32
71
1
72
1
41
1
210
0
220
0
230
1
3
Standard
100
AcDbAlignedDimension
13
37
23
-4.0001
33
0
14
13
24
-4.0001
34
0
50
0
100
AcDbRotatedDimension
1001
ACAD
1000
DSTYLE
1002
{
1070
   371
1070
    13
1070
   372
1070
    13
1070
   170
1070
     0
1070
   144
1040
1.0
1070
   277
1070
     2
1070
   284
1070
     8
1070
   278
1070
    46
1070
   146
1040
1.0
1070
   345
1005
16
1070
   347
1005
16
1070
   346
1005
16
1070
   344
1005
0
1070
   343
1005
0
1070
   172
1070
     1
1070
    76
1070
     0
1070
    75
1070
     0
1070
   282
1070
     0
1070
   281
1070
     0
1070
    71
1070
     0
1070
    74
1070
     0
1070
   279
1070
     0
1070
   173
1070
     1
1070
   340
1005
14E
1070
   271
1070
     2
1070
   272
1070
     2
1070
    77
1070
     1
1070
    73
1070
     1
1070
   171
1070
     3
1070
   274
1070
     4
1070
   177
1070
     2
1070
   176
1070
     2
1070
   178
1070
     2
1070
    78
1070
     8
1070
    48
1040
-0.1
1070
    41
1040
3.5
1070
   147
1040
1.75
1070
    42
1040
1.5875
1070
    44
1040
2.0
1070
   140
1040
3.5
1002
}
1001
ACAD_DSTYLE_DIM_LINETYPE
1070
   380
1005
16
1001
ACAD_DSTYLE_DIM_EXT1_LINETYPE
1070
   381
1005
16
1001
ACAD_DSTYLE_DIM_EXT2_LINETYPE
1070
   382
1005
16
0
ENDSEC
0
SECTION
2
OBJECTS
0
DICTIONARY
5
1f8
330
0
100
AcDbDictionary
280
0
281
1
3
ACAD_GROUP
350
1f9
3
ACAD_MLINESTYLE
350
1fa
0
DICTIONARY
5
1f9
330
0
100
AcDbDictionary
280
0
281
1
0
DICTIONARY
5
1fa
330
0
100
AcDbDictionary
280
0
281
1
3
Standard
350
18
0
MLINESTYLE
5
18
330
1fa
100
AcDbMlineStyle
2
Standard
70
0
3

62
256
51
90
52
90
71
2
49
-0.5
62
256
6
ByLayer
49
0.5
62
256
6
ByLayer
0
RASTERVARIABLES
5
1e6
330

100
AcDbRasterVariables
90
0
70
1
71
1
72
1
0
ENDSEC
0
EOF
