0
SECTION
2
HEADER
9
$ACADVER
1
AC1015
9
$DWGCODEPAGE
3
ANSI_1252
9
$HANDSEED
5
201
9
$ANGBASE
50
0
9
$ANGDIR
70
0
9
$ATTMODE
70
1
9
$AUNITS
70
0
9
$AUPREC
70
0
9
$CECOLOR
62
256
9
$CELTSCALE
40
1
9
$CELTYPE
6
ByLayer
9
$CELWEIGHT
370
18
9
$CLAYER
8
0
9
$CMLJUST
70
0
9
$CMLSCALE
40
1
9
$CMLSTYLE
2
Standard
9
$DIMSTYLE
2
Standard
9
$TEXTSIZE
40
0.2
9
$TEXTSTYLE
7
Standard
9
$LUNITS
70
2
9
$LUPREC
70
4
9
$EXTNAMES
290
1
9
$INSUNITS
70
4
9
$LTSCALE
40
1
9
$LWDISPLAY
290
1
9
$PDMODE
70
0
9
$PDSIZE
40
0
9
$PLINEGEN
70
0
0
ENDSEC
0
SECTION
2
CLASSES
0
CLASS
1
RASTERVARIABLES
2
AcDbRasterVariables
3
ISM
90
0
280
0
281
0
0
ENDSEC
0
SECTION
2
TABLES
0
TABLE
2
VPORT
5
1f7
100
AcDbSymbolTable
0
VPORT
5
1
100
AcDbSymbolTableRecord
100
AcDbViewportTableRecord
2
*Active
70
0
10
0
20
0
11
1
21
1
12
-1
22
1
13
0
23
0
14
0.5
24
0.5
15
10
25
10
16
0
26
0
36
1
17
0
27
0
37
0
0
ENDTAB
0
TABLE
2
LTYPE
5
1f8
100
AcDbSymbolTable
0
LTYPE
5
14
100
AcDbSymbolTableRecord
100
AcDbLinetypeTableRecord
70
0
2
ByBlock
3

72
65
73
0
40
0
0
LTYPE
5
15
100
AcDbSymbolTableRecord
100
AcDbLinetypeTableRecord
70
0
2
ByLayer
3

72
65
73
0
40
0
0
LTYPE
5
16
100
AcDbSymbolTableRecord
100
AcDbLinetypeTableRecord
70
0
2
Continuous
3
Solid line
72
65
73
0
40
0
0
LTYPE
5
6E
100
AcDbSymbolTableRecord
100
AcDbLinetypeTableRecord
70
0
2
CENTER
3
____ _ ____ _ ____ _ ____
72
65
73
4
40
47.5
49
22
74
0
49
-8.5
74
0
49
8.5
74
0
49
-8.5
74
0
0
LTYPE
5
6F
100
AcDbSymbolTableRecord
100
AcDbLinetypeTableRecord
70
0
2
DASHED
3
__ __ __ __ __ __ __ __ __
72
65
73
2
40
25.72
49
12.86
74
0
49
-12.86
74
0
0
ENDTAB
0
TABLE
2
LAYER
5
1f9
100
AcDbSymbolTable
0
LAYER
5
10
100
AcDbSymbolTableRecord
100
AcDbLayerTableRecord
2
0
70
0
62
7
6
Continuous
290
1
370
-3
390
0
0
LAYER
5
71
100
AcDbSymbolTableRecord
100
AcDbLayerTableRecord
2
81
70
0
62
-3
6
Continuous
290
1
370
-3
390
0
0
LAYER
5
73
100
AcDbSymbolTableRecord
100
AcDbLayerTableRecord
2
80
70
0
62
-6
6
Continuous
290
1
370
-3
390
0
0
LAYER
5
75
100
AcDbSymbolTableRecord
100
AcDbLayerTableRecord
2
1
70
0
62
4
6
Continuous
290
1
370
-3
390
0
0
LAYER
5
79
100
AcDbSymbolTableRecord
100
AcDbLayerTableRecord
2
4
70
0
62
-2
6
CENTER
290
1
370
-3
390
0
0
LAYER
5
C9
100
AcDbSymbolTableRecord
100
AcDbLayerTableRecord
2
2
70
0
62
7
6
Continuous
290
1
370
-3
390
0
0
LAYER
5
16E
100
AcDbSymbolTableRecord
100
AcDbLayerTableRecord
2
Defpoints
70
0
62
7
6
Continuous
290
0
370
-3
390
0
0
LAYER
5
1e3
100
AcDbSymbolTableRecord
100
AcDbLayerTableRecord
2
SK4
70
0
62
2
6
CENTER
290
1
370
-3
390
0
0
LAYER
5
1e4
100
AcDbSymbolTableRecord
100
AcDbLayerTableRecord
2
SK1
70
0
62
4
6
Continuous
290
1
370
-3
390
0
0
LAYER
5
1e5
100
AcDbSymbolTableRecord
100
AcDbLayerTableRecord
2
SK2
70
0
62
7
6
Continuous
290
1
370
-3
390
0
0
LAYER
5
1e6
100
AcDbSymbolTableRecord
100
AcDbLayerTableRecord
2
SK6
70
0
62
5
6
Continuous
290
1
370
-3
390
0
0
ENDTAB
0
TABLE
2
STYLE
5
1fa
100
AcDbSymbolTable
0
STYLE
5
11
100
AcDbSymbolTableRecord
100
AcDbTextStyleTableRecord
2
Standard
3
txt
70
0
71
0
40
0
41
1
42
0
50
0
0
STYLE
5
14A
100
AcDbSymbolTableRecord
100
AcDbTextStyleTableRecord
2
iso_b_vert
3
simplex.shx
70
0
71
0
40
0
41
1
42
0
50
0
0
STYLE
5
14B
100
AcDbSymbolTableRecord
100
AcDbTextStyleTableRecord
2
DWGDirectTextStyle
3
simplex
70
0
71
0
40
0
41
1
42
0
50
0
0
ENDTAB
0
TABLE
2
DIMSTYLE
5
1fb
100
AcDbSymbolTable
100
AcDbDimStyleTable
0
DIMSTYLE
105
27
100
AcDbSymbolTableRecord
100
AcDbDimStyleTableRecord
2
Standard
70
0
3
<>
41
0.18
42
0.0625
44
0.18
140
0.18
147
0.09
73
0
74
0
77
1
271
2
275
0
278
52
280
0
340
11
0
ENDTAB
0
TABLE
2
VIEW
5
1fc
100
AcDbSymbolTable
0
ENDTAB
0
TABLE
2
UCS
5
1fd
100
AcDbSymbolTable
0
ENDTAB
0
TABLE
2
APPID
5
1fe
100
AcDbSymbolTable
0
APPID
5
12
100
AcDbSymbolTableRecord
100
AcDbRegAppTableRecord
2
ACAD
70
0
0
APPID
5
16A
100
AcDbSymbolTableRecord
100
AcDbRegAppTableRecord
2
ACAD_DSTYLE_DIMBREAK
70
0
0
APPID
5
1A2
100
AcDbSymbolTableRecord
100
AcDbRegAppTableRecord
2
ACAD_DSTYLE_DIM_LINETYPE
70
0
0
APPID
5
1A3
100
AcDbSymbolTableRecord
100
AcDbRegAppTableRecord
2
ACAD_DSTYLE_DIM_EXT1_LINETYPE
70
0
0
APPID
5
1A4
100
AcDbSymbolTableRecord
100
AcDbRegAppTableRecord
2
ACAD_DSTYLE_DIM_EXT2_LINETYPE
70
0
0
APPID
5
1DF
100
AcDbSymbolTableRecord
100
AcDbRegAppTableRecord
2
ACAD_MLEADERVER
70
0
0
ENDTAB
0
TABLE
2
BLOCK_RECORD
5
1ff
100
AcDbSymbolTable
0
BLOCK_RECORD
5
1F
100
AcDbSymbolTableRecord
100
AcDbBlockTableRecord
2
*Model_Space
340
0
70
0
0
BLOCK_RECORD
5
1B
100
AcDbSymbolTableRecord
100
AcDbBlockTableRecord
2
*Paper_Space
340
0
70
0
0
BLOCK_RECORD
5
23
100
AcDbSymbolTableRecord
100
AcDbBlockTableRecord
2
*Paper_Space0
340
0
70
0
0
BLOCK_RECORD
5
16F
100
AcDbSymbolTableRecord
100
AcDbBlockTableRecord
2
*D1
340
0
70
0
0
BLOCK_RECORD
5
17B
100
AcDbSymbolTableRecord
100
AcDbBlockTableRecord
2
_U0
340
0
70
0
0
ENDTAB
0
ENDSEC
0
SECTION
2
BLOCKS
0
BLOCK
5
20
100
AcDbEntity
8
0
100
AcDbBlockBegin
2
*Model_Space
70
0
10
0
20
0
30
0
3
*Model_Space
0
ENDBLK
5
21
100
AcDbEntity
8
0
100
AcDbBlockEnd
0
BLOCK
5
1C
100
AcDbEntity
8
0
100
AcDbBlockBegin
2
*Paper_Space
70
0
10
0
20
0
30
0
3
*Paper_Space
0
ENDBLK
5
1D
100
AcDbEntity
8
0
100
AcDbBlockEnd
0
BLOCK
5
24
100
AcDbEntity
8
0
100
AcDbBlockBegin
2
*Paper_Space0
70
0
10
0
20
0
30
0
3
*Paper_Space0
0
ENDBLK
5
25
100
AcDbEntity
8
0
100
AcDbBlockEnd
0
BLOCK
5
170
100
AcDbEntity
8
0
100
AcDbBlockBegin
2
*D1
70
1
10
0
20
0
30
0
3
*D1
0
LINE
5
172
100
AcDbEntity
8
0
62
256
6
ByLayer
370
-2
48
1
60
0
100
AcDbLine
10
42
20
-6.5876
30
0
11
42
21
-21.881463
31
0
39
0
210
0
220
0
230
1
0
LINE
5
173
100
AcDbEntity
8
0
62
256
6
ByLayer
370
-2
48
1
60
0
100
AcDbLine
10
12
20
-6.5876
30
0
11
12
21
-21.881463
31
0
39
0
210
0
220
0
230
1
0
LINE
5
174
100
AcDbEntity
8
0
62
256
6
ByLayer
370
-2
48
1
60
0
100
AcDbLine
10
38.5
20
-19.881463
30
0
11
15.5
21
-19.881463
31
0
39
0
210
0
220
0
230
1
0
SOLID
5
175
100
AcDbEntity
8
0
62
256
6
ByLayer
370
-1
48
1
60
0
100
AcDbTrace
10
38.5
20
-20.464797
30
0
11
38.5
21
-19.29813
31
0
12
42
22
-19.881463
32
0
13
42
23
-19.881463
33
0
39
0
210
0
220
0
230
1
0
SOLID
5
176
100
AcDbEntity
8
0
62
256
6
ByLayer
370
-1
48
1
60
0
100
AcDbTrace
10
15.5
20
-19.29813
30
0
11
15.5
21
-20.464797
31
0
12
12
22
-19.881463
32
0
13
12
23
-19.881463
33
0
39
0
210
0
220
0
230
1
0
MTEXT
5
177
100
AcDbEntity
8
0
62
256
6
ByLayer
370
18
48
1
60
0
100
AcDbMText
10
27
20
-12.881463
30
0
210
0
220
0
230
1
1
\A1;30
40
3.5
41
0
44
1
50
0
71
5
72
5
7
iso_b_vert
0
POINT
5
178
100
AcDbEntity
8
Defpoints
62
0
6
ByLayer
370
-1
48
1
60
0
100
AcDbPoint
10
42
20
-5.0001
30
0
39
0
210
0
220
0
230
1
50
360
0
POINT
5
179
100
AcDbEntity
8
Defpoints
62
0
6
ByLayer
370
-1
48
1
60
0
100
AcDbPoint
10
12
20
-5.0001
30
0
39
0
210
0
220
0
230
1
50
360
0
POINT
5
17A
100
AcDbEntity
8
Defpoints
62
0
6
ByLayer
370
-1
48
1
60
0
100
AcDbPoint
10
12
20
-19.881463
30
0
39
0
210
0
220
0
230
1
50
360
0
ENDBLK
5
171
100
AcDbEntity
8
0
100
AcDbBlockEnd
0
BLOCK
5
182
100
AcDbEntity
8
0
100
AcDbBlockBegin
2
_U0
70
0
10
0
20
0
30
0
3
_U0
0
MTEXT
5
17C
100
AcDbEntity
8
2
62
256
6
ByLayer
370
18
48
1
60
0
100
AcDbMText
10
25.095034
20
-18.84883
30
0
210
0
220
0
230
1
1
\W0.6740;30
40
3.5
41
0
44
1.084337
50
0
71
7
72
5
7
iso_b_vert
0
LINE
5
17D
100
AcDbEntity
8
2
62
256
6
ByLayer
370
13
48
1
60
0
100
AcDbLine
10
42
20
-6.5876
30
0
11
42
21
-21.881463
31
0
39
0
210
0
220
0
230
1
0
LINE
5
17E
100
AcDbEntity
8
2
62
256
6
ByLayer
370
13
48
1
60
0
100
AcDbLine
10
12
20
-6.5876
30
0
11
12
21
-21.881463
31
0
39
0
210
0
220
0
230
1
0
LINE
5
17F
100
AcDbEntity
8
2
62
256
6
ByLayer
370
13
48
1
60
0
100
AcDbLine
10
42
20
-19.881463
30
0
11
12
21
-19.881463
31
0
39
0
210
0
220
0
230
1
0
SOLID
5
180
100
AcDbEntity
8
2
62
256
6
ByLayer
370
18
48
1
60
0
100
AcDbTrace
10
42
20
-19.881463
30
0
11
38.500002
21
-20.342247
31
0
12
38.499998
22
-19.420679
32
0
13
38.499998
23
-19.420679
33
0
39
0
210
0
220
0
230
1
0
SOLID
5
181
100
AcDbEntity
8
2
62
256
6
ByLayer
370
18
48
1
60
0
100
AcDbTrace
10
12
20
-19.881463
30
0
11
15.499998
21
-19.420679
31
0
12
15.500002
22
-20.342247
32
0
13
15.500002
23
-20.342247
33
0
39
0
210
0
220
0
230
1
0
ENDBLK
5
183
100
AcDbEntity
8
0
100
AcDbBlockEnd
0
ENDSEC
0
SECTION
2
ENTITIES
0
ELLIPSE
5
DB
100
AcDbEntity
8
1
62
256
6
ByLayer
370
18
48
1
60
0
100
AcDbEllipse
10
17.03644
20
0
30
0
11
9.99933280616593
21
-3.92938757858054
31
0
210
0
220
0
230
1
40
0.309212
41
-2.53597400242204
42
-2.11424529689553
0
ELLIPSE
5
DC
100
AcDbEntity
8
1
62
256
6
ByLayer
370
18
48
1
60
0
100
AcDbEllipse
10
17.111798
20
2E-06
30
0
11
29.4358374652868
21
-2.14392289700149
31
0
210
0
220
0
230
1
40
0.153453
41
1.75650535016668
42
1.7758795791904
0
ELLIPSE
5
DD
100
AcDbEntity
8
1
62
256
6
ByLayer
370
18
48
1
60
0
100
AcDbEllipse
10
16.673941
20
0
30
0
11
9.29114918323882
21
4.534320512141
31
0
210
0
220
0
230
1
40
0.226787
41
-2.76402868654342
42
-2.34810328800357
0
ELLIPSE
5
DE
100
AcDbEntity
8
1
62
256
6
ByLayer
370
18
48
1
60
0
100
AcDbEllipse
10
16.549013
20
-3E-06
30
0
11
26.1926286208267
21
-3.92543631570018
31
0
210
0
220
0
230
1
40
0.118236
41
-1.74788297274589
42
-1.72761124378916
0
POINT
5
70
100
AcDbEntity
8
81
62
256
6
ByLayer
370
18
48
1
60
0
100
AcDbPoint
10
42
20
0
30
0
39
0
210
0
220
0
230
1
50
360
0
POINT
5
72
100
AcDbEntity
8
80
62
256
6
ByLayer
370
18
48
1
60
0
100
AcDbPoint
10
0
20
0
30
0
39
0
210
0
220
0
230
1
50
360
0
POINT
5
74
100
AcDbEntity
8
1
62
256
6
ByLayer
370
18
48
1
60
1
100
AcDbPoint
10
42
20
-5.0001
30
0
39
0
210
0
220
0
230
1
50
360
0
POINT
5
76
100
AcDbEntity
8
1
62
256
6
ByLayer
370
18
48
1
60
1
100
AcDbPoint
10
12
20
-5.0001
30
0
39
0
210
0
220
0
230
1
50
360
0
SPLINE
5
DF
100
AcDbEntity
8
1
62
256
6
ByLayer
370
18
48
1
60
0
100
AcDbSpline
70
4
71
3
72
8
73
4
40
0
40
0
40
0
40
0
40
1
40
1
40
1
40
1
41
1
10
10.8904755429192
20
-4.68216429231035
30
0
41
1
10
11.0141238179753
20
-4.6107362470662
30
0
41
1
10
11.1388714580368
20
-4.5408569128052
30
0
41
1
10
11.2647389172527
20
-4.47255510394774
30
0
0
SPLINE
5
E0
100
AcDbEntity
8
1
62
256
6
ByLayer
370
18
48
1
60
0
100
AcDbSpline
70
4
71
3
72
14
73
10
40
0
40
0
40
0
40
0
40
0.25
40
0.25
40
0.5
40
0.5
40
0.75
40
0.75
40
1
40
1
40
1
40
1
41
1
10
38.4117436457574
20
-1.52713135762727
30
0
41
1
10
38.42331612797
20
-1.54980310230636
30
0
41
1
10
38.4344365455132
20
-1.57286892458944
30
0
41
1
10
38.4555944608699
20
-1.61994458102544
30
0
41
1
10
38.4656157178406
20
-1.64392880321066
30
0
41
1
10
38.4841252163222
20
-1.69247192311352
30
0
41
1
10
38.4926419400419
20
-1.71708825139811
30
0
41
1
10
38.5078813521696
20
-1.76715899086048
30
0
41
1
10
38.514607167606
20
-1.79261194130615
30
0
41
1
10
38.520198816716
20
-1.81859471704908
30
0
0
SPLINE
5
E1
100
AcDbEntity
8
1
62
256
6
ByLayer
370
18
48
1
60
0
100
AcDbSpline
70
4
71
3
72
18
73
14
40
0
40
0
40
0
40
0
40
0.250000000000001
40
0.250000000000001
40
0.375000000000001
40
0.375000000000001
40
0.500000000000001
40
0.500000000000001
40
0.749999999999993
40
0.749999999999993
40
0.874999999999997
40
0.874999999999997
40
1
40
1
40
1
40
1
41
1
10
38.4117436457547
20
-1.52713135762906
30
0
41
1
10
38.3983149397262
20
-1.50082306966982
30
0
41
1
10
38.3882183390493
20
-1.47363855684725
30
0
41
1
10
38.3773540093965
20
-1.43202657997821
30
0
41
1
10
38.3744509681748
20
-1.41801495691297
30
0
41
1
10
38.3700202074112
20
-1.38977136485664
30
0
41
1
10
38.3684975239028
20
-1.37550474392898
30
0
41
1
10
38.3659695951236
20
-1.33334543531552
30
0
41
1
10
38.3669203157174
20
-1.30580372135827
30
0
41
1
10
38.3718457657051
20
-1.26552920265678
30
0
41
1
10
38.374084054962
20
-1.25224497688427
30
0
41
1
10
38.3796956982732
20
-1.22621017709019
30
0
41
1
10
38.3830550919906
20
-1.21350823567826
30
0
41
1
10
38.3869518284541
20
-1.20112973573885
30
0
0
SPLINE
5
E2
100
AcDbEntity
8
1
62
256
6
ByLayer
370
18
48
1
60
0
100
AcDbSpline
70
4
71
3
72
12
73
8
40
0
40
0
40
0
40
0
40
0.179145020788624
40
0.179145020788624
40
0.589572510394312
40
0.589572510394312
40
1
40
1
40
1
40
1
41
1
10
38.890423180303
20
2.69656394598147
30
0
41
1
10
38.8938555823658
20
2.69541356682572
30
0
41
1
10
38.8973933155633
20
2.69415197235108
30
0
41
1
10
38.9093824335004
20
2.68963435991503
30
0
41
1
10
38.9182824386026
20
2.68590348566551
30
0
41
1
10
38.9370189576143
20
2.67735882155031
30
0
41
1
10
38.9468724966645
20
2.67253909531712
30
0
41
1
10
38.9571951111593
20
2.66719025327237
30
0
0
SPLINE
5
E3
100
AcDbEntity
8
1
62
256
6
ByLayer
370
18
48
1
60
0
100
AcDbSpline
70
4
71
3
72
8
73
4
40
0
40
0
40
0
40
0
40
1
40
1
40
1
40
1
41
1
10
12.6940471608923
20
-2.86706877873837
30
0
41
1
10
12.4626981072616
20
-2.86556387312723
30
0
41
1
10
12.2313490536308
20
-2.85976790233644
30
0
41
1
10
12
20
-2.84961374618166
30
0
0
SPLINE
5
E4
100
AcDbEntity
8
1
62
256
6
ByLayer
370
18
48
1
60
0
100
AcDbSpline
70
4
71
3
72
14
73
10
40
0
40
0
40
0
40
0
40
0.25
40
0.25
40
0.375000000000001
40
0.375000000000001
40
0.500000000000001
40
0.500000000000001
40
1
40
1
40
1
40
1
41
1
10
38.9048484224452
20
-2.72483545870801
30
0
41
1
10
38.8934426982999
20
-2.78117244257396
30
0
41
1
10
38.8838531819766
20
-2.83756285721478
30
0
41
1
10
38.8724018537832
20
-2.92223476313058
30
0
41
1
10
38.8690741548409
20
-2.95047312966995
30
0
41
1
10
38.8634403404809
20
-3.00697991657759
30
0
41
1
10
38.8611305217366
20
-3.03532244367037
30
0
41
1
10
38.8523188570871
20
-3.17598868860654
30
0
41
1
10
38.8539379595893
20
-3.28522610817708
30
0
41
1
10
38.8644743318083
20
-3.39107334463952
30
0
0
SPLINE
5
E5
100
AcDbEntity
8
1
62
256
6
ByLayer
370
18
48
1
60
0
100
AcDbSpline
70
4
71
3
72
18
73
14
40
0
40
0
40
0
40
0
40
0.250000000000019
40
0.250000000000019
40
0.500000000000037
40
0.500000000000037
40
0.562500000000031
40
0.562500000000031
40
0.625000000000024
40
0.625000000000024
40
0.75000000000001
40
0.75000000000001
40
1
40
1
40
1
40
1
41
1
10
38.5201988170518
20
-1.81859471685556
30
0
41
1
10
38.5381923629035
20
-1.90219687255151
30
0
41
1
10
38.5602705389949
20
-1.98375780979555
30
0
41
1
10
38.6117943675981
20
-2.14319792423279
30
0
41
1
10
38.6412435633749
20
-2.22107533072094
30
0
41
1
10
38.682331570618
20
-2.31628498078081
30
0
41
1
10
38.6907635243797
20
-2.33521979218816
30
0
41
1
10
38.7080497900431
20
-2.37287834933286
30
0
41
1
10
38.7169186075849
20
-2.39163154149355
30
0
41
1
10
38.7440360589085
20
-2.44734658642921
30
0
41
1
10
38.7627614212882
20
-2.48370408593959
30
0
41
1
10
38.8207273693111
20
-2.59060277742856
30
0
41
1
10
38.8617526655297
20
-2.65897641747466
30
0
41
1
10
38.9048484224467
20
-2.72483545871148
30
0
0
SPLINE
5
E6
100
AcDbEntity
8
1
62
256
6
ByLayer
370
13
48
1
60
0
100
AcDbSpline
70
4
71
3
72
33
73
29
40
0
40
0
40
0
40
0
40
0.0230817204338181
40
0.103167611025002
40
0.183253501616186
40
0.26333939220737
40
0.383468228094145
40
0.463554118685329
40
0.583682954572105
40
0.663768845163289
40
0.723833263106677
40
0.783897681050065
40
0.823940626345657
40
0.863983571641249
40
0.894015780612943
40
0.924047989584637
40
0.939064094070484
40
0.954080198556331
40
0.964090934880229
40
0.971598987123152
40
0.977855697325588
40
0.98160972344705
40
0.983486736507781
40
0.985363749568512
40
0.987240762629243
40
0.990369117730461
40
0.996625827932897
40
1
40
1
40
1
40
1
41
1
10
38.520198817132
20
-1.81859471683933
30
0
41
1
10
38.4301325447547
20
-1.7938701760616
30
0
41
1
10
38.0275662723773
20
-1.68119586346961
30
0
41
1
10
37.3124999999999
20
-1.46399426357252
30
0
41
1
10
36.375
20
-1.14945167975961
30
0
41
1
10
35.28125
20
-0.765249062349454
30
0
41
1
10
34.1875
20
-0.361777156440326
30
0
41
1
10
32.9375
20
0.108259141432114
30
0
41
1
10
31.8437499999999
20
0.510807084925972
30
0
41
1
10
30.8281250000001
20
0.86270762549961
30
0
41
1
10
30.046875
20
1.11817223990369
30
0
41
1
10
29.421875
20
1.30952307686289
30
0
41
1
10
28.875
20
1.46574638041136
30
0
41
1
10
28.4453125
20
1.58082317741827
30
0
41
1
10
28.0546875000001
20
1.67890375800431
30
0
41
1
10
27.7617187499999
20
1.74808100454982
30
0
41
1
10
27.5273437500001
20
1.80069548873397
30
0
41
1
10
27.37109375
20
1.83453972687357
30
0
41
1
10
27.244140625
20
1.86119095142166
30
0
41
1
10
27.1513671874999
20
1.88022918335821
30
0
41
1
10
27.0830078125
20
1.89400213917276
30
0
41
1
10
27.03662109375
20
1.9032213851408
30
0
41
1
10
27.00732421875
20
1.90899889953272
30
0
41
1
10
26.9853515625
20
1.91330941600324
30
0
41
1
10
26.95849609375
20
1.9185501126731
30
0
41
1
10
26.91455078125
20
1.92706517592319
30
0
41
1
10
26.8647634635474
20
1.93658289163267
30
0
41
1
10
26.8271831770947
20
1.94366601705573
30
0
41
1
10
26.8140169531421
20
1.94613513415985
30
0
0
SPLINE
5
E7
100
AcDbEntity
8
1
62
256
6
ByLayer
370
13
48
1
60
0
100
AcDbSpline
70
4
71
3
72
14
73
10
40
0
40
0
40
0
40
0
40
0.0831654860753274
40
0.234778602379752
40
0.386391718684178
40
0.538004834988603
40
0.689617951293028
40
0.841231067597453
40
1
40
1
40
1
40
1
41
1
10
26.1535078902945
20
-2.51251981939276
30
0
41
1
10
25.8106719268629
20
-2.49308151628216
30
0
41
1
10
24.8428359634315
20
-2.41807772821252
30
0
41
1
10
23.25
20
-2.20322177794702
30
0
41
1
10
21.375
20
-1.81839252143089
30
0
41
1
10
19.5
20
-1.32350316188908
30
0
41
1
10
17.625
20
-0.737506882480687
30
0
41
1
10
15.7205013314789
20
-0.0837091649539445
30
0
41
1
10
14.4410026629577
20
0.375907895786781
30
0
41
1
10
13.7865039944365
20
0.609161129336997
30
0
0
SPLINE
5
E8
100
AcDbEntity
8
1
62
256
6
ByLayer
370
18
48
1
60
0
100
AcDbSpline
70
4
71
3
72
14
73
10
40
0
40
0
40
0
40
0
40
0.500000000000001
40
0.500000000000001
40
0.625
40
0.625
40
0.75
40
0.75
40
1
40
1
40
1
40
1
41
1
10
41.9782429669661
20
4.40319972180819
30
0
41
1
10
41.9611871702186
20
4.25901526214787
30
0
41
1
10
41.9461310091415
20
4.11382317760675
30
0
41
1
10
41.9298426834138
20
3.93105724908608
30
0
41
1
10
41.9267124303575
20
3.89443985989067
30
0
41
1
10
41.9207109418656
20
3.82107456142418
30
0
41
1
10
41.9178340130967
20
3.78424370675631
30
0
41
1
10
41.9096779090415
20
3.67463297989627
30
0
41
1
10
41.9048489779696
20
3.60247585153442
30
0
41
1
10
41.9006062757076
20
3.53120190291872
30
0
0
SPLINE
5
E9
100
AcDbEntity
8
1
62
256
6
ByLayer
370
18
48
1
60
0
100
AcDbSpline
70
4
71
3
72
8
73
4
40
0
40
0
40
0
40
0
40
1
40
1
40
1
40
1
41
1
10
41.8988811168738
20
4.65396316637231
30
0
41
1
10
41.9303486913971
20
4.57185240444079
30
0
41
1
10
41.9572627232721
20
4.48840013287466
30
0
41
1
10
41.9782429669658
20
4.40319972180814
30
0
0
SPLINE
5
EA
100
AcDbEntity
8
1
62
256
6
ByLayer
370
18
48
1
60
0
100
AcDbSpline
70
4
71
3
72
33
73
29
40
0
40
0
40
0
40
0
40
0.0175978893465327
40
0.0175978893465327
40
0.0351957786930653
40
0.0351957786930653
40
0.0703915573861385
40
0.105587336079212
40
0.105587336079212
40
0.140783114772285
40
0.140783114772285
40
0.211174672158431
40
0.211174672158431
40
0.281566229544577
40
0.281566229544577
40
0.351957786930724
40
0.351957786930724
40
0.42234934431687
40
0.42234934431687
40
0.563132459089176
40
0.563132459089176
40
0.703915573861482
40
0.703915573861482
40
0.844698688633787
40
0.844698688633787
40
0.985481803406093
40
0.985481803406093
40
1
40
1
40
1
40
1
41
1
10
41.9006062757003
20
3.53120190292052
30
0
41
1
10
41.892387583265
20
3.5159269030693
30
0
41
1
10
41.8837637355771
20
3.50081465184897
30
0
41
1
10
41.8657084001667
20
3.47091457395652
30
0
41
1
10
41.856304086871
20
3.45617528955273
30
0
41
1
10
41.8271966520911
20
3.41285794562592
30
0
41
1
10
41.7858562451181
20
3.35725370469393
30
0
41
1
10
41.7399339868216
20
3.30554638724271
30
0
41
1
10
41.6919308873606
20
3.25560885196577
30
0
41
1
10
41.6668546664856
20
3.23149471497644
30
0
41
1
10
41.5889983252782
20
3.16176339710856
30
0
41
1
10
41.5344623460903
20
3.11946156019519
30
0
41
1
10
41.421459149982
20
3.04111038140036
30
0
41
1
10
41.3629834845333
20
3.0050744766051
30
0
41
1
10
41.2429677324557
20
2.93787652087684
30
0
41
1
10
41.1813953339451
20
2.90670825776437
30
0
41
1
10
41.0559110154481
20
2.84832703424178
30
0
41
1
10
40.9925917774933
20
2.82138452304318
30
0
41
1
10
40.8012956976246
20
2.74577080401698
30
0
41
1
10
40.6720008183146
20
2.70223421747946
30
0
41
1
10
40.4111223091639
20
2.62407723087915
30
0
41
1
10
40.2795241688634
20
2.58951335858651
30
0
41
1
10
40.0147020105582
20
2.52671947546796
30
0
41
1
10
39.8814724508091
20
2.49851105337635
30
0
41
1
10
39.6138012078397
20
2.4468162261856
30
0
41
1
10
39.4793568664323
20
2.42334017647139
30
0
41
1
10
39.3305305950708
20
2.39945884683328
30
0
41
1
10
39.3166135681114
20
2.39724596427442
30
0
41
1
10
39.3026927368366
20
2.39505233256213
30
0
0
SPLINE
5
EB
100
AcDbEntity
8
1
62
256
6
ByLayer
370
18
48
1
60
0
100
AcDbSpline
70
4
71
3
72
15
73
11
40
0
40
0
40
0
40
0
40
0.0756299040932174
40
0.191176166081565
40
0.306722428069913
40
0.422268690058261
40
0.537814952046609
40
0.653361214034957
40
0.768907476023304
40
1
40
1
40
1
40
1
41
1
10
28.2272666180155
20
-3.56974517914449
30
0
41
1
10
27.8181777453437
20
-3.63909373165043
30
0
41
1
10
26.7840888726718
20
-3.77006232316936
30
0
41
1
10
25.125
20
-3.79092687849811
30
0
41
1
10
23.25
20
-3.5549376088598
30
0
41
1
10
21.375
20
-3.07501461205822
30
0
41
1
10
19.5
20
-2.3844766287379
30
0
41
1
10
17.625
20
-1.53035691301187
30
0
41
1
10
15.125
20
-0.251786193348693
30
0
41
1
10
13.25
20
0.765751672360722
30
0
41
1
10
12
20
1.37991843511841
30
0
0
SPLINE
5
EC
100
AcDbEntity
8
1
62
256
6
ByLayer
370
18
48
1
60
0
100
AcDbSpline
70
4
71
3
72
19
73
15
40
0
40
0
40
0
40
0
40
0.0625000000000017
40
0.0625000000000017
40
0.125000000000003
40
0.125000000000003
40
0.249999999999997
40
0.499999999999994
40
0.499999999999994
40
0.624999999999998
40
0.624999999999998
40
0.750000000000002
40
0.750000000000002
40
1
40
1
40
1
40
1
41
1
10
40.7302360954803
20
-4.11335367138068
30
0
41
1
10
40.7406066691032
20
-4.11195034114496
30
0
41
1
10
40.7511317578179
20
-4.11005054619864
30
0
41
1
10
40.7724868948771
20
-4.10527110577974
30
0
41
1
10
40.783333100749
20
-4.10238619837165
30
0
41
1
10
40.8161946204516
20
-4.09231570195146
30
0
41
1
10
40.883127261811
20
-4.06656492372736
30
0
41
1
10
40.9534945718875
20
-4.02488514150619
30
0
41
1
10
41.0259878132371
20
-3.97334590251089
30
0
41
1
10
41.0505068992839
20
-3.95452128840031
30
0
41
1
10
41.1002413273337
20
-3.91364302564193
30
0
41
1
10
41.1255025115096
20
-3.89154449900701
30
0
41
1
10
41.2018424220235
20
-3.82087898793432
30
0
41
1
10
41.253543427539
20
-3.7679293831925
30
0
41
1
10
41.3060346598356
20
-3.70926706224318
30
0
0
SPLINE
5
ED
100
AcDbEntity
8
1
62
256
6
ByLayer
370
18
48
1
60
0
100
AcDbSpline
70
4
71
3
72
32
73
28
40
0
40
0
40
0
40
0
40
0.0625000000000092
40
0.0625000000000092
40
0.125000000000019
40
0.125000000000019
40
0.15625000000002
40
0.15625000000002
40
0.187500000000022
40
0.187500000000022
40
0.250000000000025
40
0.250000000000025
40
0.375000000000039
40
0.375000000000039
40
0.437500000000042
40
0.437500000000042
40
0.468750000000043
40
0.468750000000043
40
0.500000000000044
40
0.500000000000044
40
0.625000000000033
40
0.625000000000033
40
0.750000000000022
40
0.750000000000022
40
0.875000000000011
40
0.875000000000011
40
1
40
1
40
1
40
1
41
1
10
38.8644743338332
20
-3.39107334881081
30
0
41
1
10
38.8862929001581
20
-3.4380326822583
30
0
41
1
10
38.9105294188391
20
-3.48168570152373
30
0
41
1
10
38.9630021967465
20
-3.56352248670987
30
0
41
1
10
38.9912441002144
20
-3.60169853412964
30
0
41
1
10
39.0362098072271
20
-3.6554034596883
30
0
41
1
10
39.0516339586163
20
-3.67270948518302
30
0
41
1
10
39.0833032576647
20
-3.70619890397921
30
0
41
1
10
39.0995678803035
20
-3.72240034307893
30
0
41
1
10
39.1494033639248
20
-3.76928665403889
30
0
41
1
10
39.1837480427681
20
-3.79802499707551
30
0
41
1
10
39.289657232759
20
-3.87777889283828
30
0
41
1
10
39.364079717539
20
-3.92237191925608
30
0
41
1
10
39.4802261238738
20
-3.97912042737411
30
0
41
1
10
39.5197004692498
20
-3.99633122589907
30
0
41
1
10
39.5799541054208
20
-4.01980554380407
30
0
41
1
10
39.6002126602802
20
-4.02723927700515
30
0
41
1
10
39.6410651084922
20
-4.04135316042354
30
0
41
1
10
39.6616821982901
20
-4.04804018793376
30
0
41
1
10
39.7652879772403
20
-4.07956547853817
30
0
41
1
10
39.8495144424485
20
-4.09864261358987
30
0
41
1
10
40.0202118943032
20
-4.12652122278141
30
0
41
1
10
40.106686781563
20
-4.13530483949268
30
0
41
1
10
40.2816255321375
20
-4.14376632629453
30
0
41
1
10
40.3700909245373
20
-4.14343719606893
30
0
41
1
10
40.548831291242
20
-4.13449447473764
30
0
41
1
10
40.6391070032031
20
-4.12587750656272
30
0
41
1
10
40.7302360954799
20
-4.11335367138071
30
0
0
SPLINE
5
EE
100
AcDbEntity
8
1
62
256
6
ByLayer
370
18
48
1
60
0
100
AcDbSpline
70
4
71
3
72
43
73
39
40
0
40
0
40
0
40
0
40
0.0360117977089321
40
0.0909547948715194
40
0.145897792034107
40
0.200840789196694
40
0.283255284940575
40
0.338198282103162
40
0.420612777847043
40
0.47555577500963
40
0.516763022881571
40
0.557970270753511
40
0.585441769334805
40
0.612913267916098
40
0.633516891852068
40
0.654120515788039
40
0.664422327756024
40
0.674724139724009
40
0.681592014369332
40
0.686742920353325
40
0.691035342006652
40
0.693610794998648
40
0.694898521494646
40
0.696186247990644
40
0.697473974486643
40
0.699620185313306
40
0.703912606966633
40
0.709063512950626
40
0.715931387595949
40
0.726233199563934
40
0.736535011531919
40
0.75713863546789
40
0.77774225940386
40
0.8189495072758
40
0.860156755147741
40
0.915099752310328
40
0.970042749472915
40
1
40
1
40
1
40
1
41
1
10
38.8644743114799
20
-3.391073345276
30
0
41
1
10
38.6596495409866
20
-3.3581071832121
30
0
41
1
10
38.1423247704933
20
-3.26584325211883
30
0
41
1
10
37.3124999999999
20
-3.08187907516123
30
0
41
1
10
36.375
20
-2.82726108472082
30
0
41
1
10
35.28125
20
-2.48359269245015
30
0
41
1
10
34.1875
20
-2.08481753885712
30
0
41
1
10
32.9375
20
-1.57746961583058
30
0
41
1
10
31.8437499999999
20
-1.09854051455267
30
0
41
1
10
30.8281250000001
20
-0.633612154802393
30
0
41
1
10
30.046875
20
-0.26986362942111
30
0
41
1
10
29.421875
20
0.0233069345058254
30
0
41
1
10
28.875
20
0.279070846201421
30
0
41
1
10
28.4453125
20
0.480266144748612
30
0
41
1
10
28.0546875
20
0.658446588856293
30
0
41
1
10
27.76171875
20
0.794636365294309
30
0
41
1
10
27.52734375
20
0.901828674759884
30
0
41
1
10
27.3710937500001
20
0.973866528808315
30
0
41
1
10
27.2441406249999
20
1.03055570003235
30
0
41
1
10
27.1513671875001
20
1.07266816384987
30
0
41
1
10
27.0830078124999
20
1.10254846444519
30
0
41
1
10
27.03662109375
20
1.12409944358225
30
0
41
1
10
27.00732421875
20
1.1363818532258
30
0
41
1
10
26.9853515625
20
1.1475872464851
30
0
41
1
10
26.9584960937499
20
1.15507492832228
30
0
41
1
10
26.9145507812501
20
1.18058098132602
30
0
41
1
10
26.8486328124999
20
1.20167514797325
30
0
41
1
10
26.755859375
20
1.2487978141917
30
0
41
1
10
26.62890625
20
1.30200592670985
30
0
41
1
10
26.47265625
20
1.37175717321105
30
0
41
1
10
26.23828125
20
1.47205791007238
30
0
41
1
10
25.9453125
20
1.5976407095082
30
0
41
1
10
25.4765625
20
1.7923172009377
30
0
41
1
10
24.890625
20
2.02735799579977
30
0
41
1
10
24.1093750000001
20
2.32070769166549
30
0
41
1
10
23.2499999999999
20
2.61675663766789
30
0
41
1
10
22.4546117563079
20
2.85834718721699
30
0
41
1
10
21.9717235126158
20
2.98783767626679
30
0
41
1
10
21.8013352689237
20
3.03129117062142
30
0
0
SPLINE
5
EF
100
AcDbEntity
8
1
62
256
6
ByLayer
370
18
48
1
60
0
100
AcDbSpline
70
4
71
3
72
8
73
4
40
0
40
0
40
0
40
0
40
1
40
1
40
1
40
1
41
1
10
22.3931830887365
20
-4.393978424945
30
0
41
1
10
22.3721340688372
20
-4.39450736024006
30
0
41
1
10
22.351085048938
20
-4.39497919867671
30
0
41
1
10
22.3300360290388
20
-4.39539392585741
30
0
0
SPLINE
5
F0
100
AcDbEntity
8
1
62
256
6
ByLayer
370
13
48
1
60
0
100
AcDbSpline
70
4
71
3
72
12
73
8
40
0
40
0
40
0
40
0
40
0.0924523424853485
40
0.273961873988279
40
0.455471405491209
40
0.636980936994139
40
1
40
1
40
1
40
1
41
1
10
22.3300360288226
20
-4.39539392586167
30
0
41
1
10
22.0116906858817
20
-4.40166625906639
30
0
41
1
10
21.0683453429409
20
-4.3815425621068
30
0
41
1
10
19.5
20
-4.15665044322347
30
0
41
1
10
17.625
20
-3.60258922033401
30
0
41
1
10
15.125
20
-2.53541927791045
30
0
41
1
10
13.25
20
-1.44544734287155
30
0
41
1
10
12
20
-0.683852581462105
30
0
0
SPLINE
5
F1
100
AcDbEntity
8
1
62
256
6
ByLayer
370
18
48
1
60
0
100
AcDbSpline
70
4
71
3
72
22
73
18
40
0
40
0
40
0
40
0
40
0.125000000000006
40
0.125000000000006
40
0.250000000000012
40
0.250000000000012
40
0.375000000000018
40
0.375000000000018
40
0.437500000000016
40
0.437500000000016
40
0.500000000000015
40
0.500000000000015
40
0.625000000000011
40
0.625000000000011
40
0.750000000000007
40
0.750000000000007
40
1
40
1
40
1
40
1
41
1
10
38.9571951299658
20
2.66719024136822
30
0
41
1
10
39.0108833095913
20
2.62830845499485
30
0
41
1
10
39.0676611127533
20
2.58515987563723
30
0
41
1
10
39.1859225092245
20
2.49236401444341
30
0
41
1
10
39.2474217427327
20
2.44269512531176
30
0
41
1
10
39.3743211687515
20
2.33797010401065
30
0
41
1
10
39.4397277715985
20
2.28290511913741
30
0
41
1
10
39.5403900413212
20
2.19678281293435
30
0
41
1
10
39.5744321228171
20
2.16743205374144
30
0
41
1
10
39.6428302490013
20
2.10804474880712
30
0
41
1
10
39.6772271055323
20
2.07797405996274
30
0
41
1
10
39.7809660619954
20
1.9867166513807
30
0
41
1
10
39.8508544603583
20
1.92448857060356
30
0
41
1
10
39.9919144825792
20
1.79758630823636
30
0
41
1
10
40.0630869624457
20
1.73291049491195
30
0
41
1
10
40.2783565707032
20
1.53554304868598
30
0
41
1
10
40.4241934106197
20
1.39953515547572
30
0
41
1
10
40.5720883723428
20
1.25960404421608
30
0
0
SPLINE
5
F2
100
AcDbEntity
8
1
62
256
6
ByLayer
370
18
48
1
60
0
100
AcDbSpline
70
4
71
3
72
9
73
5
40
0
40
0
40
0
40
0
40
0.388292415599154
40
1
40
1
40
1
40
1
41
1
10
38.9571951202217
20
2.66719025001262
30
0
41
1
10
38.7214634134811
20
2.76184199585663
30
0
41
1
10
38.1143650070473
20
2.9926268042536
30
0
41
1
10
37.5072666006136
20
3.1862571713464
30
0
41
1
10
37.1358999009204
20
3.28930775903069
30
0
0
SPLINE
5
F3
100
AcDbEntity
8
1
62
256
6
ByLayer
370
18
48
1
60
0
100
AcDbSpline
70
4
71
3
72
9
73
5
40
0
40
0
40
0
40
0
40
0.165447929399143
40
1
40
1
40
1
40
1
41
1
10
14.2467142147884
20
-3.6927828332704
30
0
41
1
10
14.1228094765256
20
-3.70695189727854
30
0
41
1
10
13.3739047382628
20
-3.78097270689099
30
0
41
1
10
12.625
20
-3.78368646713167
30
0
41
1
10
12
20
-3.73423716768457
30
0
0
SPLINE
5
F4
100
AcDbEntity
8
1
62
256
6
ByLayer
370
18
48
1
60
0
100
AcDbSpline
70
4
71
3
72
20
73
16
40
0
40
0
40
0
40
0
40
0.250000000000038
40
0.250000000000038
40
0.375000000000031
40
0.375000000000031
40
0.500000000000025
40
0.500000000000025
40
0.625000000000019
40
0.625000000000019
40
0.750000000000013
40
0.750000000000013
40
0.875000000000006
40
0.875000000000006
40
1
40
1
40
1
40
1
41
1
10
41.306034660458
20
-3.70926706230023
30
0
41
1
10
41.3167263981048
20
-3.69731829763347
30
0
41
1
10
41.3272115477516
20
-3.68679284779583
30
0
41
1
10
41.3425980336806
20
-3.67335569387674
30
0
41
1
10
41.3476738298185
20
-3.66926993166226
30
0
41
1
10
41.3576173758681
20
-3.6620243347198
30
0
41
1
10
41.3624950219319
20
-3.65885474586503
30
0
41
1
10
41.3720417890148
20
-3.65351959032364
30
0
41
1
10
41.3767168043927
20
-3.65135513104391
30
0
41
1
10
41.3856987034018
20
-3.64821672592018
30
0
41
1
10
41.3900218493644
20
-3.64723134564702
30
0
41
1
10
41.3982857282915
20
-3.64659107686941
30
0
41
1
10
41.4022270941354
20
-3.64693398645028
30
0
41
1
10
41.4096490784717
20
-3.649222838361
30
0
41
1
10
41.4131186255788
20
-3.65117534857663
30
0
41
1
10
41.4162266140414
20
-3.65406911499738
30
0
0
SPLINE
5
F5
100
AcDbEntity
8
1
62
256
6
ByLayer
370
13
48
1
60
0
100
AcDbSpline
70
4
71
3
72
44
73
40
40
0
40
0
40
0
40
0
40
0.0473517676526502
40
0.0980917900665557
40
0.174201823687414
40
0.224941846101319
40
0.301051879722178
40
0.351791902136083
40
0.389846918946512
40
0.427901935756941
40
0.453271946963894
40
0.478641958170847
40
0.497669466576061
40
0.516696974981276
40
0.526210729183883
40
0.53572448338649
40
0.542066986188229
40
0.546823863289532
40
0.550787927540619
40
0.55316636609127
40
0.554355585366596
40
0.555544804641922
40
0.556734023917248
40
0.558716056042791
40
0.562680120293878
40
0.567436997395181
40
0.57377950019692
40
0.583293254399527
40
0.592807008602134
40
0.611834517007349
40
0.630862025412563
40
0.668917042222992
40
0.706972059033421
40
0.757712081447327
40
0.808452103861232
40
0.859192126275138
40
0.909932148689043
40
0.986042182309901
40
1
40
1
40
1
40
1
41
1
10
37.2498967789614
20
-4.39416061910424
30
0
41
1
10
36.9582645193075
20
-4.40087591931012
30
0
41
1
10
36.3541322596538
20
-4.39544526869278
30
0
41
0.999999999999999
10
35.2812499999999
20
-4.31346050739782
30
0
41
1
10
34.1875
20
-4.1340579558545
30
0
41
1
10
32.9374999999999
20
-3.83161177814259
30
0
41
1
10
31.84375
20
-3.48373361526902
30
0
41
1
10
30.828125
20
-3.09090368598234
30
0
41
1
10
30.046875
20
-2.75492172017152
30
0
41
0.999999999999999
10
29.421875
20
-2.46537219030347
30
0
41
1
10
28.875
20
-2.1988707008303
30
0
41
1
10
28.4453125
20
-1.98210153208237
30
0
41
1
10
28.0546875
20
-1.77988641145626
30
0
41
1
10
27.7617187499999
20
-1.62525524651946
30
0
41
1
10
27.52734375
20
-1.49996738828759
30
0
41
0.999999999999999
10
27.37109375
20
-1.41578152976049
30
0
41
1
10
27.244140625
20
-1.34696135584107
30
0
41
1
10
27.1513671874999
20
-1.29646482145139
30
0
41
1
10
27.0830078125
20
-1.25914189426195
30
0
41
1
10
27.03662109375
20
-1.23376079008568
30
0
41
1
10
27.00732421875
20
-1.21771138074331
30
0
41
1
10
26.9853515625
20
-1.20566480317913
30
0
41
1
10
26.95849609375
20
-1.19092963383193
30
0
41
0.999999999999999
10
26.91455078125
20
-1.16679238242296
30
0
41
1
10
26.8486328124999
20
-1.1305166187453
30
0
41
1
10
26.755859375
20
-1.07931925520799
30
0
41
1
10
26.62890625
20
-1.00901783941865
30
0
41
1
10
26.47265625
20
-0.922082376162138
30
0
41
1
10
26.23828125
20
-0.790988126917114
30
0
41
1
10
25.9453125
20
-0.625929687888686
30
0
41
1
10
25.4765625
20
-0.359841987356333
30
0
41
0.999999999999999
10
24.890625
20
-0.0248686277526247
30
0
41
1
10
24.1093750000001
20
0.420972822579642
30
0
41
1
10
23.2499999999999
20
0.906405115686538
30
0
41
1
10
22.3125
20
1.42479261990437
30
0
41
1
10
21.375
20
1.92171122774997
30
0
41
0.999999999999999
10
20.28125
20
2.4663350328315
30
0
41
1
10
19.4140359459722
20
2.85808220353306
30
0
41
1
10
18.8593218919445
20
3.08527692832322
30
0
41
1
10
18.7733578379168
20
3.11990364603221
30
0
0
SPLINE
5
F6
100
AcDbEntity
8
1
62
256
6
ByLayer
370
13
48
1
60
0
100
AcDbSpline
70
4
71
3
72
11
73
7
40
0
40
0
40
0
40
0
40
0.196110608772116
40
0.519126881410173
40
0.842143154048229
40
1
40
1
40
1
40
1
41
1
10
41.2633556266211
20
-0.405969708750462
30
0
41
1
10
40.8839037510808
20
-0.155526765934724
30
0
41
1
10
39.8794518755404
20
0.512720388503539
30
0
41
1
10
38.2499999999999
20
1.57724934979274
30
0
41
1
10
36.694564834415
20
2.48945466886656
30
0
41
1
10
35.76412966883
20
2.95689837803369
30
0
41
1
10
35.458694503245
20
3.10051160063105
30
0
0
SPLINE
5
F7
100
AcDbEntity
8
1
62
256
6
ByLayer
370
18
48
1
60
0
100
AcDbSpline
70
4
71
3
72
8
73
4
40
0
40
0
40
0
40
0
40
1
40
1
40
1
40
1
41
1
10
41.777989541731
20
4.99757191715756
30
0
41
1
10
41.8153259580394
20
4.88197293911554
30
0
41
1
10
41.8554204998937
20
4.76736395063955
30
0
41
1
10
41.8988810910821
20
4.65396315724533
30
0
0
SPLINE
5
F8
100
AcDbEntity
8
1
62
256
6
ByLayer
370
13
48
1
60
0
100
AcDbSpline
70
4
71
3
72
10
73
6
40
0
40
0
40
0
40
0
40
0.344687592273951
40
0.709023866410065
40
1
40
1
40
1
40
1
41
1
10
41.8988811131175
20
4.65396316667642
30
0
41
1
10
41.307587408745
20
4.64325969762217
30
0
41
1
10
40.0912937043725
20
4.52086799712254
30
0
41
1
10
38.3758455199117
20
4.07703545271931
30
0
41
1
10
37.2516910398234
20
3.63392514358515
30
0
41
1
10
36.7525365597352
20
3.41241068042612
30
0
0
SPLINE
5
F9
100
AcDbEntity
8
1
62
256
6
ByLayer
370
18
48
1
60
0
100
AcDbSpline
70
4
71
3
72
15
73
11
40
0
40
0
40
0
40
0
40
0.5
40
0.5
40
0.625000000000001
40
0.625000000000001
40
0.687500000000001
40
0.687500000000001
40
0.750000000000001
40
1
40
1
40
1
40
1
41
1
10
41.9787585306168
20
-2.24576926209863
30
0
41
1
10
41.9609918303748
20
-2.14685122395969
30
0
41
1
10
41.9453667733409
20
-2.05965742136382
30
0
41
1
10
41.9285545244323
20
-1.96555048840511
30
0
41
1
10
41.9253289711514
20
-1.94747852954958
30
0
41
1
10
41.9206997112237
20
-1.92151512637886
30
0
41
1
10
41.9191894437427
20
-1.91304003286183
30
0
41
1
10
41.9162519233541
20
-1.89654607957433
30
0
41
1
10
41.90911473369
20
-1.85644664403412
30
0
41
1
10
41.9029942067273
20
-1.82193435335358
30
0
41
1
10
41.8987251957437
20
-1.7977725019619
30
0
0
SPLINE
5
FA
100
AcDbEntity
8
1
62
256
6
ByLayer
370
13
48
1
60
0
100
AcDbSpline
70
4
71
3
72
37
73
33
40
0
40
0
40
0
40
0
40
0.0152207769263123
40
0.0295387771559291
40
0.0438567773855456
40
0.0534021108719569
40
0.0605611109867652
40
0.0665269444157721
40
0.0695098611302756
40
0.0712996111589776
40
0.0730893611876798
40
0.0748791112163818
40
0.078458611273786
40
0.0844244447027928
40
0.0915834448176012
40
0.101128778304012
40
0.115446778533629
40
0.129764778763245
40
0.158400779222479
40
0.187036779681712
40
0.225218113627357
40
0.263399447573001
40
0.320671448491468
40
0.377943449409934
40
0.454306117301223
40
0.568850119138156
40
0.645212787029445
40
0.759756788866378
40
0.836119456757667
40
0.912482124648956
40
0.988844792540244
40
1
40
1
40
1
40
1
41
1
10
26.1100104133838
20
2.10298855738588
30
0
41
1
10
26.1722986089225
20
2.09691664207148
30
0
41
1
10
26.2931805544613
20
2.08459318122169
30
0
41
1
10
26.47265625
20
2.0647570988414
30
0
41
1
10
26.62890625
20
2.04620382182097
30
0
41
1
10
26.755859375
20
2.03027065668115
30
0
41
1
10
26.8486328125
20
2.01819191132645
30
0
41
0.999999999999999
10
26.91455078125
20
2.00936834798131
30
0
41
1
10
26.95849609375
20
2.00337695749843
30
0
41
1
10
26.9853515625
20
1.99968013121585
30
0
41
1
10
27.0073242187501
20
1.99663376101216
30
0
41
1
10
27.03662109375
20
1.99254305891932
30
0
41
1
10
27.0830078125
20
1.98599761457834
30
0
41
1
10
27.1513671875
20
1.97617269811738
30
0
41
1
10
27.244140625
20
1.96250628842662
30
0
41
0.999999999999999
10
27.37109375
20
1.94322869271989
30
0
41
1
10
27.52734375
20
1.91849668569847
30
0
41
1
10
27.7617187499999
20
1.87960921350998
30
0
41
1
10
28.0546875
20
1.82768589816038
30
0
41
1
10
28.4453125
20
1.75272662096648
30
0
41
1
10
28.875
20
1.66316278258898
30
0
41
0.999999999999999
10
29.421875
20
1.53938629712053
30
0
41
1
10
30.046875
20
1.38487370438977
30
0
41
1
10
30.828125
20
1.17458675594236
30
0
41
1
10
31.84375
20
0.879323040214189
30
0
41
1
10
32.9375
20
0.533878053676546
30
0
41
1
10
34.1875
20
0.122187793149323
30
0
41
0.999999999999999
10
35.28125
20
-0.241595378785661
30
0
41
1
10
36.375
20
-0.597487553929028
30
0
41
1
10
37.3124999999999
20
-0.891161881065926
30
0
41
1
10
37.9831506094854
20
-1.08838478491052
30
0
41
1
10
38.3413012189709
20
-1.18846104751901
30
0
41
1
10
38.3869518284564
20
-1.2011297357395
30
0
0
SPLINE
5
FB
100
AcDbEntity
8
1
62
256
6
ByLayer
370
18
48
1
60
0
100
AcDbSpline
70
4
71
3
72
28
73
24
40
0
40
0
40
0
40
0
40
0.125000000000061
40
0.125000000000061
40
0.187500000000091
40
0.187500000000091
40
0.250000000000122
40
0.250000000000122
40
0.375000000000148
40
0.375000000000148
40
0.437500000000142
40
0.437500000000142
40
0.500000000000135
40
0.500000000000135
40
0.625000000000075
40
0.625000000000075
40
0.687500000000044
40
0.687500000000044
40
0.750000000000014
40
0.750000000000014
40
0.875000000000007
40
0.875000000000007
40
1
40
1
40
1
40
1
41
1
10
38.3869518284546
20
-1.20112973573893
30
0
41
1
10
38.3950805362628
20
-1.17530774989749
30
0
41
1
10
38.4062752886592
20
-1.15108759023349
30
0
41
1
10
38.4272105134947
20
-1.11704465509746
30
0
41
1
10
38.4348862636191
20
-1.10608067057413
30
0
41
1
10
38.4516301177839
20
-1.08492786250301
30
0
41
1
10
38.4607161045315
20
-1.07473571750487
30
0
41
1
10
38.4894373765079
20
-1.04596395668037
30
0
41
1
10
38.5106971668943
20
-1.02893289482373
30
0
41
1
10
38.5456296352963
20
-1.00641566656935
30
0
41
1
10
38.5578457097229
20
-0.999388500449186
30
0
41
1
10
38.5829915689549
20
-0.986513109577288
30
0
41
1
10
38.5958969302589
20
-0.980668163106685
30
0
41
1
10
38.6355771560532
20
-0.964802906677164
30
0
41
1
10
38.6633097414343
20
-0.956443030273846
30
0
41
1
10
38.7068324551176
20
-0.947002904016188
30
0
41
1
10
38.721632482042
20
-0.944387389307934
30
0
41
1
10
38.7513697026465
20
-0.940226084609662
30
0
41
1
10
38.7663674694915
20
-0.938666353817013
30
0
41
1
10
38.8117446453062
20
-0.93544446441183
30
0
41
1
10
38.8425062580379
20
-0.935232544502213
30
0
41
1
10
38.9050765915575
20
-0.938327751033682
30
0
41
1
10
38.9364578001787
20
-0.941617633795801
30
0
41
1
10
38.9678163442677
20
-0.946415597981911
30
0
0
SPLINE
5
FC
100
AcDbEntity
8
1
62
256
6
ByLayer
370
18
48
1
60
0
100
AcDbSpline
70
4
71
3
72
26
73
22
40
0
40
0
40
0
40
0
40
0.0173196388792277
40
0.0173196388792277
40
0.0992096689726308
40
0.0992096689726308
40
0.181099699066034
40
0.181099699066034
40
0.222044714112735
40
0.222044714112735
40
0.262989729159437
40
0.262989729159437
40
0.34487975925284
40
0.34487975925284
40
0.50865981943963
40
0.50865981943963
40
0.67243987962642
40
0.67243987962642
40
0.83621993981321
40
0.83621993981321
40
1
40
1
40
1
40
1
41
1
10
41.3517141156966
20
-1.48020119777922
30
0
41
1
10
41.3393277354005
20
-1.47540726877486
30
0
41
1
10
41.326874123253
20
-1.47066861156432
30
0
41
1
10
41.2551762134584
20
-1.44382211545494
30
0
41
1
10
41.1945790325715
20
-1.42282649170559
30
0
41
1
10
41.0711467800842
20
-1.38267503043642
30
0
41
1
10
41.0083091884738
20
-1.36352126463504
30
0
41
1
10
40.9126903620141
20
-1.33591068697876
30
0
41
1
10
40.8805682083014
20
-1.3268895744753
30
0
41
1
10
40.8162611484806
20
-1.30928120085102
30
0
41
1
10
40.7840326306683
20
-1.30068101979134
30
0
41
1
10
40.6871466738965
20
-1.27542567699928
30
0
41
1
10
40.6222897953722
20
-1.25931309370196
30
0
41
1
10
40.4270731682102
20
-1.21273277396676
30
0
41
1
10
40.2960751647869
20
-1.1840014195914
30
0
41
1
10
40.0328968043595
20
-1.12975532213102
30
0
41
1
10
39.9007119434884
20
-1.10425283188604
30
0
41
1
10
39.6354636741483
20
-1.05563795378819
30
0
41
1
10
39.5023981327892
20
-1.03253136849671
30
0
41
1
10
39.2355857516868
20
-0.988171680754419
30
0
41
1
10
39.1018378924329
20
-0.966921351898577
30
0
41
1
10
38.9678163442666
20
-0.946415597982025
30
0
0
SPLINE
5
FD
100
AcDbEntity
8
1
62
256
6
ByLayer
370
13
48
1
60
0
100
AcDbSpline
70
4
71
3
72
13
73
9
40
0
40
0
40
0
40
0
40
0.291561358005193
40
0.437342037007789
40
0.583122716010385
40
0.728903395012982
40
0.874684074015578
40
1
40
1
40
1
40
1
41
1
10
12
20
1.49918517084095
30
0
41
1
10
13.2500000000001
20
1.23880991768237
30
0
41
1
10
15.125
20
0.754661053801499
30
0
41
1
10
17.625
20
0.0430252508092792
30
0
41
1
10
19.5000000000001
20
-0.494579303396762
30
0
41
1
10
21.375
20
-1.00163511589514
30
0
41
1
10
23.1622622371917
20
-1.42984276655349
30
0
41
1
10
24.3245244743835
20
-1.65833962071531
30
0
41
1
10
24.8617867115752
20
-1.75121990065176
30
0
0
SPLINE
5
FE
100
AcDbEntity
8
1
62
256
6
ByLayer
370
18
48
1
60
0
100
AcDbSpline
70
4
71
3
72
22
73
18
40
0
40
0
40
0
40
0
40
0.0624999999999995
40
0.0624999999999995
40
0.124999999999999
40
0.124999999999999
40
0.249999999999998
40
0.249999999999998
40
0.499999999999996
40
0.499999999999996
40
0.62499999999999
40
0.62499999999999
40
0.687499999999992
40
0.687499999999992
40
0.749999999999994
40
0.749999999999994
40
1
40
1
40
1
40
1
41
1
10
40.5720883723426
20
1.25960404421608
30
0
41
1
10
40.5834128889332
20
1.22784693896639
30
0
41
1
10
40.5950334898267
20
1.19568342103818
30
0
41
1
10
40.618853489403
20
1.13056191293955
30
0
41
1
10
40.6310624406348
20
1.09757844125841
30
0
41
1
10
40.6684832946232
20
0.997616199320191
30
0
41
1
10
40.6942284343178
20
0.930316047526418
30
0
41
1
10
40.7736465456806
20
0.726613813420158
30
0
41
1
10
40.8294859077864
20
0.588423409300475
30
0
41
1
10
40.9171465432987
20
0.377917098963707
30
0
41
1
10
40.9470216457425
20
0.307207726782536
30
0
41
1
10
40.9927972102948
20
0.200348800463473
30
0
41
1
10
41.0082386705619
20
0.164545583674965
30
0
41
1
10
41.0392935987575
20
0.0930156489330614
30
0
41
1
10
41.0549129447777
20
0.0572744060788182
30
0
41
1
10
41.1334585827549
20
-0.121315897226083
30
0
41
1
10
41.197722791768
20
-0.263819498585463
30
0
41
1
10
41.2633556205205
20
-0.405969713433564
30
0
0
SPLINE
5
FF
100
AcDbEntity
8
1
62
256
6
ByLayer
370
18
48
1
60
0
100
AcDbSpline
70
4
71
3
72
18
73
14
40
0
40
0
40
0
40
0
40
0.250000000000024
40
0.250000000000024
40
0.500000000000049
40
0.500000000000049
40
0.625000000000037
40
0.625000000000037
40
0.750000000000025
40
0.750000000000025
40
0.875000000000012
40
0.875000000000012
40
1
40
1
40
1
40
1
41
1
10
41.2633556246066
20
-0.405969711737157
30
0
41
1
10
41.2744701347319
20
-0.430041963870281
30
0
41
1
10
41.2853340602688
20
-0.454093510899355
30
0
41
1
10
41.3065164189693
20
-0.502151523789024
30
0
41
1
10
41.3168368886292
20
-0.526158160009572
30
0
41
1
10
41.3318083169682
20
-0.562126030062473
30
0
41
1
10
41.3367117598607
20
-0.57410734727668
30
0
41
1
10
41.3461738458791
20
-0.597697835894309
30
0
41
1
10
41.3507501901788
20
-0.609348491139485
30
0
41
1
10
41.3595351823639
20
-0.632306134378837
30
0
41
1
10
41.3637136857073
20
-0.643535818918139
30
0
41
1
10
41.3714913402225
20
-0.665211662679695
30
0
41
1
10
41.3751024695171
20
-0.675687072740374
30
0
41
1
10
41.3783613378212
20
-0.685702634496181
30
0
0
SPLINE
5
100
100
AcDbEntity
8
1
62
256
6
ByLayer
370
18
48
1
60
0
100
AcDbSpline
70
4
71
3
72
8
73
4
40
0
40
0
40
0
40
0
40
1
40
1
40
1
40
1
41
1
10
41.7779895417316
20
4.99757191715787
30
0
41
1
10
41.822874348075
20
4.99725729876559
30
0
41
1
10
41.8677606998576
20
4.9971489579566
30
0
41
1
10
41.9126485920489
20
4.99724622312979
30
0
0
SPLINE
5
101
100
AcDbEntity
8
1
62
256
6
ByLayer
370
18
48
1
60
0
100
AcDbSpline
70
4
71
3
72
8
73
4
40
0
40
0
40
0
40
0
40
1
40
1
40
1
40
1
41
1
10
41.9126485923987
20
4.99724622308702
30
0
41
1
10
41.9417593870581
20
4.99518567248171
30
0
41
1
10
41.9708765417499
20
4.99321350093257
30
0
41
1
10
42
20
4.99132891372386
30
0
0
SPLINE
5
102
100
AcDbEntity
8
1
62
256
6
ByLayer
370
18
48
1
60
0
100
AcDbSpline
70
4
71
3
72
8
73
4
40
0
40
0
40
0
40
0
40
1
40
1
40
1
40
1
41
1
10
10.7280849320319
20
-1.5587233863626
30
0
41
0.999999990747991
10
10.7288167226167
20
-1.55913035849303
30
0
41
0.999999990747991
10
10.7295485333162
20
-1.55953741852065
30
0
41
1
10
10.7302803641099
20
-1.5599445664341
30
0
0
SPLINE
5
103
100
AcDbEntity
8
1
62
256
6
ByLayer
370
18
48
1
60
0
100
AcDbSpline
70
4
71
3
72
14
73
10
40
0
40
0
40
0
40
0
40
0.143137678751501
40
0.286177588567064
40
0.429122337128614
40
0.571974478300182
40
0.714736512148446
40
0.857410886761872
40
1
40
1
40
1
40
1
41
1
10
10.8866991543707
20
-1.31857323781384
30
0
41
1
10
10.879147719122
20
-1.32998556312475
30
0
41
1
10
10.8640500065663
20
-1.35280241865792
30
0
41
1
10
10.8415143593932
20
-1.38714421637366
30
0
41
1
10
10.8190701658849
20
-1.42155424598818
30
0
41
1
10
10.7967242896942
20
-1.45603965096859
30
0
41
1
10
10.7744768699579
20
-1.49059848411187
30
0
41
1
10
10.7523207645552
20
-1.52522183240194
30
0
41
1
10
10.7376256972457
20
-1.5483726261273
30
0
41
1
10
10.7302803596687
20
-1.55994456326135
30
0
0
SPLINE
5
104
100
AcDbEntity
8
1
62
256
6
ByLayer
370
18
48
1
60
0
100
AcDbSpline
70
4
71
3
72
8
73
4
40
0
40
0
40
0
40
0
40
1
40
1
40
1
40
1
41
1
10
10.8055670802962
20
-1.27374785251723
30
0
41
0.999987590071566
10
10.8325827206758
20
-1.28856993669378
30
0
41
0.999987590071566
10
10.8596270818792
20
-1.30351191771856
30
0
41
1
10
10.8866991570505
20
-1.31857323930473
30
0
0
SPLINE
5
105
100
AcDbEntity
8
1
62
256
6
ByLayer
370
18
48
1
60
0
100
AcDbSpline
70
4
71
3
72
8
73
4
40
0
40
0
40
0
40
0
40
1
40
1
40
1
40
1
41
1
10
10.8259073834844
20
-0.614608893047404
30
0
41
1
10
10.9563355505727
20
-0.638754675464185
30
0
41
1
10
11.087812191834
20
-0.666286566290154
30
0
41
1
10
11.2203514255455
20
-0.697250161323097
30
0
0
SPLINE
5
106
100
AcDbEntity
8
1
62
256
6
ByLayer
370
18
48
1
60
0
100
AcDbSpline
70
4
71
3
72
32
73
28
40
0
40
0
40
0
40
0
40
0.250000000000021
40
0.250000000000021
40
0.375000000000054
40
0.375000000000054
40
0.437500000000068
40
0.437500000000068
40
0.500000000000082
40
0.500000000000082
40
0.562500000000096
40
0.562500000000096
40
0.62500000000011
40
0.62500000000011
40
0.656250000000117
40
0.656250000000117
40
0.687500000000124
40
0.687500000000124
40
0.718750000000131
40
0.718750000000131
40
0.750000000000139
40
0.750000000000139
40
0.812500000000104
40
0.812500000000104
40
0.875000000000069
40
0.875000000000069
40
1
40
1
40
1
40
1
41
1
10
8.1238165398122
20
1.4704116495208
30
0
41
1
10
8.10590460651284
20
1.48864986619188
30
0
41
1
10
8.08876752525654
20
1.50746646948733
30
0
41
1
10
8.06536551796381
20
1.53744101714915
30
0
41
1
10
8.05794577161339
20
1.54774929135431
30
0
41
1
10
8.04792817979259
20
1.56373994446849
30
0
41
1
10
8.04477176803496
20
1.56916524284617
30
0
41
1
10
8.0389587787345
20
1.58027717073895
30
0
41
1
10
8.03628953246107
20
1.58598961201071
30
0
41
1
10
8.03175010898315
20
1.59764262344561
30
0
41
1
10
8.02987224519825
20
1.60357663374685
30
0
41
1
10
8.02734177929463
20
1.61578369422645
30
0
41
1
10
8.02670981020538
20
1.62198641066229
30
0
41
1
10
8.02728098230585
20
1.63125576931964
30
0
41
1
10
8.02773628036823
20
1.63437586853897
30
0
41
1
10
8.02924351934735
20
1.64040058743063
30
0
41
1
10
8.0302922292824
20
1.6433236815854
30
0
41
1
10
8.03305323017938
20
1.64896975418893
30
0
41
1
10
8.03475886643889
20
1.65165894273324
30
0
41
1
10
8.03867292581921
20
1.65659137386868
30
0
41
1
10
8.04090859963748
20
1.6588766634186
30
0
41
1
10
8.04826534602819
20
1.66512863288244
30
0
41
1
10
8.05381803225782
20
1.66835982483485
30
0
41
1
10
8.06575725863246
20
1.67361902435931
30
0
41
1
10
8.07195089583306
20
1.6755586012892
30
0
41
1
10
8.09086605097522
20
1.68009144758565
30
0
41
1
10
8.10398839577488
20
1.68142962746612
30
0
41
1
10
8.11709088591456
20
1.68191001083957
30
0
0
SPLINE
5
107
100
AcDbEntity
8
1
62
256
6
ByLayer
370
18
48
1
60
0
100
AcDbSpline
70
4
71
3
72
50
73
46
40
0
40
0
40
0
40
0
40
0.0624999999999971
40
0.0624999999999971
40
0.124999999999994
40
0.124999999999994
40
0.156249999999993
40
0.156249999999993
40
0.187499999999991
40
0.187499999999991
40
0.249999999999996
40
0.249999999999996
40
0.265625000000003
40
0.265625000000003
40
0.28125000000001
40
0.28125000000001
40
0.312500000000023
40
0.343750000000037
40
0.35937500000004
40
0.35937500000004
40
0.375000000000044
40
0.375000000000044
40
0.437500000000043
40
0.437500000000043
40
0.453125000000042
40
0.453125000000042
40
0.468750000000042
40
0.468750000000042
40
0.500000000000038
40
0.500000000000038
40
0.562500000000033
40
0.562500000000033
40
0.593750000000031
40
0.593750000000031
40
0.625000000000028
40
0.625000000000028
40
0.687500000000023
40
0.687500000000023
40
0.750000000000019
40
0.750000000000019
40
0.812500000000014
40
0.812500000000014
40
0.875000000000009
40
0.875000000000009
40
1
40
1
40
1
40
1
41
1
10
8.11709088592164
20
1.68191001078668
30
0
41
1
10
8.16877175661833
20
1.68380481329356
30
0
41
1
10
8.22023799663836
20
1.68723035421479
30
0
41
1
10
8.32262043849386
20
1.69799529686526
30
0
41
1
10
8.37353781150824
20
1.70532677633068
30
0
41
1
10
8.44936575015774
20
1.7202075214492
30
0
41
1
10
8.47461702929959
20
1.72583725614467
30
0
41
1
10
8.52451977098909
20
1.73852287344494
30
0
41
1
10
8.5491582285662
20
1.74557099020933
30
0
41
1
10
8.62201086309813
20
1.76910068089663
30
0
41
1
10
8.66917384220446
20
1.78794402230372
30
0
41
1
10
8.72581733535867
20
1.81663035999446
30
0
41
1
10
8.73702961950963
20
1.82262607934135
30
0
41
1
10
8.75920343102666
20
1.83517239569164
30
0
41
1
10
8.7701762852293
20
1.84173253184198
30
0
41
1
10
8.80231450482063
20
1.86205760430767
30
0
41
1
10
8.84333357319869
20
1.89101004779417
30
0
41
1
10
8.88980883233643
20
1.9320020505472
30
0
41
1
10
8.91543675013142
20
1.95882872517569
30
0
41
1
10
8.93200961424498
20
1.97721626351165
30
0
41
1
10
8.9400452551786
20
1.98667268282651
30
0
41
1
10
8.97842653683921
20
2.03457665187136
30
0
41
1
10
9.0038415438741
20
2.07535497412746
30
0
41
1
10
9.02993493158479
20
2.12881372147086
30
0
41
1
10
9.03486911748266
20
2.13963016012684
30
0
41
1
10
9.04418906454751
20
2.1614994145005
30
0
41
1
10
9.0485750723283
20
2.17255793132921
30
0
41
1
10
9.06082494758158
20
2.20572872117117
30
0
41
1
10
9.0678345032477
20
2.2279496896995
30
0
41
1
10
9.08588328855603
20
2.29484123583185
30
0
41
1
10
9.09396646249695
20
2.33973614695807
30
0
41
1
10
9.10154316525851
20
2.40726533524526
30
0
41
1
10
9.10330403472429
20
2.42980977786763
30
0
41
1
10
9.10545963161667
20
2.47492176703779
30
0
41
1
10
9.10584628785674
20
2.49730086585603
30
0
41
1
10
9.10522199542987
20
2.56394203230451
30
0
41
1
10
9.10244101700778
20
2.60770965065575
30
0
41
1
10
9.09321050908636
20
2.6940534188455
30
0
41
1
10
9.08675372380236
20
2.73662874336139
30
0
41
1
10
9.07083184887205
20
2.82066857082691
30
0
41
1
10
9.06136310274209
20
2.86213265444945
30
0
41
1
10
9.03985647878218
20
2.94400360457692
30
0
41
1
10
9.02780628742769
20
2.98442548421863
30
0
41
1
10
8.98854861113685
20
3.1033421097153
30
0
41
1
10
8.95819650609891
20
3.17980568626805
30
0
41
1
10
8.9244794035894
20
3.25375873498493
30
0
0
SPLINE
5
108
100
AcDbEntity
8
1
62
256
6
ByLayer
370
18
48
1
60
0
100
AcDbSpline
70
4
71
3
72
10
73
6
40
0
40
0
40
0
40
0
40
0.5
40
0.5
40
1
40
1
40
1
40
1
41
1
10
8.9244794035894
20
3.25375873498493
30
0
41
1
10
8.68539436273795
20
3.39678556362156
30
0
41
1
10
8.44550319824759
20
3.53113087164522
30
0
41
1
10
7.96024763381365
20
3.78015174626392
30
0
41
1
10
7.71487693770751
20
3.8948193776769
30
0
41
1
10
7.46481119395165
20
3.99900918287747
30
0
0
SPLINE
5
109
100
AcDbEntity
8
1
62
256
6
ByLayer
370
18
48
1
60
0
100
AcDbSpline
70
4
71
3
72
36
73
32
40
0
40
0
40
0
40
0
40
0.125000000000007
40
0.125000000000007
40
0.250000000000015
40
0.250000000000015
40
0.375000000000022
40
0.375000000000022
40
0.437500000000022
40
0.437500000000022
40
0.500000000000021
40
0.500000000000021
40
0.56250000000002
40
0.56250000000002
40
0.62500000000002
40
0.62500000000002
40
0.687500000000019
40
0.687500000000019
40
0.718750000000018
40
0.718750000000018
40
0.750000000000017
40
0.750000000000017
40
0.812500000000015
40
0.812500000000015
40
0.843750000000012
40
0.843750000000012
40
0.87500000000001
40
0.87500000000001
40
0.937500000000005
40
0.937500000000005
40
1
40
1
40
1
40
1
41
1
10
7.46481119395165
20
3.99900918287747
30
0
41
1
10
7.41959396732935
20
4.0178489246299
30
0
41
1
10
7.37550555864945
20
4.0372127644944
30
0
41
1
10
7.29001314528446
20
4.07713995249031
30
0
41
1
10
7.24860361213806
20
4.09770085008077
30
0
41
1
10
7.16915673927758
20
4.14029112707399
30
0
41
1
10
7.13110541649814
20
4.16231420092038
30
0
41
1
10
7.07747075772426
20
4.19683034312803
30
0
41
1
10
7.06023003286458
20
4.20855216055469
30
0
41
1
10
7.02753481883528
20
4.23229916557887
30
0
41
1
10
7.01203756981209
20
4.24435030011961
30
0
41
1
10
6.9830655603028
20
4.26887805385522
30
0
41
1
10
6.96958681912287
20
4.28135552245772
30
0
41
1
10
6.94512151453398
20
4.30683475603922
30
0
41
1
10
6.93434338041905
20
4.3196233300917
30
0
41
1
10
6.91613492077883
20
4.34532623452301
30
0
41
1
10
6.90870166320832
20
4.35824029666182
30
0
41
1
10
6.90052614250155
20
4.37773848548784
30
0
41
1
10
6.89829837427584
20
4.38425921348514
30
0
41
1
10
6.89494220010459
20
4.39735125144625
30
0
41
1
10
6.8938122379289
20
4.40395845319455
30
0
41
1
10
6.89227925142347
20
4.42358303872032
30
0
41
1
10
6.89370557920941
20
4.43633874273172
30
0
41
1
10
6.89966838719374
20
4.45499135542636
30
0
41
1
10
6.90229408096957
20
4.46112869583902
30
0
41
1
10
6.90885869970907
20
4.47324415461114
30
0
41
1
10
6.91281240488718
20
4.47923007965846
30
0
41
1
10
6.92637766669054
20
4.49658818537259
30
0
41
1
10
6.9377448599123
20
4.50749240649631
30
0
41
1
10
6.96468784597323
20
4.52813992811474
30
0
41
1
10
6.98034676309442
20
4.53791498009701
30
0
41
1
10
6.9976220633271
20
4.54701303576908
30
0
0
SPLINE
5
10A
100
AcDbEntity
8
1
62
256
6
ByLayer
370
18
48
1
60
0
100
AcDbSpline
70
4
71
3
72
37
73
33
40
0
40
0
40
0
40
0
40
0.0312499999999996
40
0.0312499999999996
40
0.0624999999999993
40
0.0624999999999993
40
0.124999999999999
40
0.124999999999999
40
0.156249999999999
40
0.156249999999999
40
0.187499999999998
40
0.187499999999998
40
0.249999999999998
40
0.249999999999998
40
0.312499999999997
40
0.312499999999997
40
0.374999999999997
40
0.374999999999997
40
0.437499999999996
40
0.437499999999996
40
0.499999999999996
40
0.499999999999996
40
0.624999999999999
40
0.624999999999999
40
0.687499999999998
40
0.687499999999998
40
0.749999999999998
40
0.812499999999997
40
0.812499999999997
40
0.874999999999997
40
0.874999999999997
40
1
40
1
40
1
40
1
41
1
10
6.99762206332707
20
4.54701303576911
30
0
41
1
10
7.02846582766563
20
4.56325693783214
30
0
41
1
10
7.06105986333174
20
4.57819773597379
30
0
41
1
10
7.12910308521828
20
4.60603035901079
30
0
41
1
10
7.16455553214968
20
4.61891937081933
30
0
41
1
10
7.27453295500746
20
4.65508793288623
30
0
41
1
10
7.35264298547622
20
4.67589842718488
30
0
41
1
10
7.47530361131203
20
4.70364951141235
30
0
41
1
10
7.51711707757838
20
4.71231343663581
30
0
41
1
10
7.60241201919112
20
4.72863524635829
30
0
41
1
10
7.64561170864283
20
4.73623946834283
30
0
41
1
10
7.77662182759548
20
4.75764090161562
30
0
41
1
10
7.86585645012815
20
4.77004428628598
30
0
41
1
10
8.04741872827455
20
4.79210515080817
30
0
41
1
10
8.13990443541587
20
4.80176686654735
30
0
41
1
10
8.32625647647126
20
4.81885335580725
30
0
41
1
10
8.42024357088252
20
4.82629352453733
30
0
41
1
10
8.60963501597513
20
4.83944901941953
30
0
41
1
10
8.70504046395493
20
4.84516196345663
30
0
41
1
10
8.89713934761153
20
4.85518256068926
30
0
41
1
10
8.99394764673937
20
4.85949264991461
30
0
41
1
10
9.28503767831154
20
4.87060239078937
30
0
41
1
10
9.48011500242481
20
4.87562524313151
30
0
41
1
10
9.77411463749081
20
4.88039714983341
30
0
41
1
10
9.87242882596811
20
4.88151970272983
30
0
41
1
10
10.0690391364564
20
4.88287992450103
30
0
41
1
10
10.2656117388632
20
4.88335675318939
30
0
41
1
10
10.4621102578923
20
4.88211379678069
30
0
41
1
10
10.6585718984902
20
4.87999438581252
30
0
41
1
10
10.7567818176912
20
4.87849559870389
30
0
41
1
10
11.0504986717036
20
4.87262675699722
30
0
41
1
10
11.2453813773883
20
4.86689865814276
30
0
41
1
10
11.4393268419501
20
4.85898192741851
30
0
0
SPLINE
5
10B
100
AcDbEntity
8
1
62
256
6
ByLayer
370
18
48
1
60
0
100
AcDbSpline
70
4
71
3
72
8
73
4
40
0
40
0
40
0
40
0
40
1
40
1
40
1
40
1
41
1
10
42
20
-2.75687063984478
30
0
41
1
10
41.9822774709504
20
-2.84331501723375
30
0
41
1
10
41.964558120684
20
-2.92929463803685
30
0
41
1
10
41.9468430555852
20
-3.01480478937364
30
0
0
SPLINE
5
10C
100
AcDbEntity
8
1
62
256
6
ByLayer
370
18
48
1
60
0
100
AcDbSpline
70
4
71
3
72
8
73
4
40
0
40
0
40
0
40
0
40
1
40
1
40
1
40
1
41
1
10
42
20
-2.53310726194221
30
0
41
1
10
41.9819453072889
20
-2.42973379850662
30
0
41
1
10
41.9638941506076
20
-2.32599949791748
30
0
41
1
10
41.9458480410035
20
-2.22191358565331
30
0
0
SPLINE
5
10D
100
AcDbEntity
8
1
62
256
6
ByLayer
370
13
48
1
60
0
100
AcDbSpline
70
4
71
3
72
11
73
7
40
0
40
0
40
0
40
0
40
0.144692238899841
40
0.35851917917488
40
0.57234611944992
40
1
40
1
40
1
40
1
41
1
10
20.7687734650659
20
0.867864349353908
30
0
41
1
10
20.3458489767106
20
1.11916973225729
30
0
41
1
10
19.2979244883554
20
1.73211208343565
30
0
41
1
10
17.625
20
2.63789309561958
30
0
41
1
10
15.125
20
3.78706834193019
30
0
41
1
10
13.25
20
4.33423289651367
30
0
41
1
10
12
20
4.51737733539147
30
0
0
SPLINE
5
10E
100
AcDbEntity
8
1
62
256
6
ByLayer
370
18
48
1
60
0
100
AcDbSpline
70
4
71
3
72
8
73
4
40
0
40
0
40
0
40
0
40
1
40
1
40
1
40
1
41
1
10
37.1772735787931
20
0.839503315846571
30
0
41
1
10
37.1637218112852
20
0.848852716773621
30
0
41
1
10
37.1501700437772
20
0.858196975995696
30
0
41
1
10
37.1366182762693
20
0.867535922042464
30
0
0
SPLINE
5
10F
100
AcDbEntity
8
1
62
256
6
ByLayer
370
13
48
1
60
0
100
AcDbSpline
70
4
71
3
72
41
73
37
40
0
40
0
40
0
40
0
40
0.0507179648559575
40
0.113148310258344
40
0.206793828361924
40
0.269224173764311
40
0.362869691867891
40
0.425300037270278
40
0.472122796322068
40
0.518945555373858
40
0.550160728075051
40
0.581375900776245
40
0.60478728030214
40
0.628198659828035
40
0.639904349590982
40
0.65161003935393
40
0.659413832529228
40
0.665266677410702
40
0.670144048145263
40
0.673070470586
40
0.674533681806368
40
0.675996893026737
40
0.677460104247105
40
0.679898789614386
40
0.684776160348948
40
0.690629005230421
40
0.69843279840572
40
0.710138488168667
40
0.721844177931615
40
0.74525555745751
40
0.768666936983405
40
0.815489696035195
40
0.862312455086985
40
0.924742800489371
40
0.987173145891758
40
1
40
1
40
1
40
1
41
1
10
37.1366182762724
20
0.86753592204036
30
0
41
1
10
36.8827455175149
20
1.04248756546121
30
0
41
1
10
36.3163727587575
20
1.42863283521282
30
0
41
0.999999999999999
10
35.28125
20
2.10714987078416
30
0
41
1
10
34.1875
20
2.76552793494216
30
0
41
1
10
32.9375
20
3.42129676941136
30
0
41
1
10
31.84375
20
3.89987771750998
30
0
41
1
10
30.828125
20
4.23800827254868
30
0
41
1
10
30.046875
20
4.43451982863078
30
0
41
0.999999999999999
10
29.421875
20
4.54748789002096
30
0
41
1
10
28.875
20
4.61360543630571
30
0
41
1
10
28.4453125
20
4.64477498990402
30
0
41
1
10
28.0546875
20
4.65640950342188
30
0
41
1
10
27.76171875
20
4.65431253803453
30
0
41
1
10
27.52734375
20
4.64608786726998
30
0
41
0.999999999999999
10
27.37109375
20
4.63768281294884
30
0
41
1
10
27.244140625
20
4.62886702048627
30
0
41
1
10
27.1513671874999
20
4.62140558292274
30
0
41
1
10
27.0830078125
20
4.61531642563645
30
0
41
1
10
27.03662109375
20
4.6108921817634
30
0
41
1
10
27.00732421875
20
4.60799397457197
30
0
41
1
10
26.9853515625
20
4.6057683006608
30
0
41
1
10
26.95849609375
20
4.60298451595756
30
0
41
0.999999999999999
10
26.91455078125
20
4.59829086096798
30
0
41
1
10
26.8486328124999
20
4.59086213107204
30
0
41
1
10
26.7558593750001
20
4.57960932428304
30
0
41
1
10
26.62890625
20
4.56282972532131
30
0
41
1
10
26.47265625
20
4.53976855406563
30
0
41
1
10
26.23828125
20
4.50089056886773
30
0
41
1
10
25.9453125
20
4.44435099271621
30
0
41
1
10
25.4765625
20
4.33734511562028
30
0
41
0.999999999999999
10
24.890625
20
4.1733143891421
30
0
41
1
10
24.1093750000001
20
3.90338829834346
30
0
41
1
10
23.2499999999999
20
3.54399683935674
30
0
41
1
10
22.560794173763
20
3.20244605714711
30
0
41
1
10
22.1840883475259
20
3.00093751147239
30
0
41
1
10
22.1198825212889
20
2.96617791708888
30
0
0
SPLINE
5
110
100
AcDbEntity
8
1
62
256
6
ByLayer
370
18
48
1
60
0
100
AcDbSpline
70
4
71
3
72
37
73
33
40
0
40
0
40
0
40
0
40
0.0323389945430247
40
0.0666887763709369
40
0.083863667284893
40
0.101038558198849
40
0.135388340026761
40
0.169738121854673
40
0.204087903682586
40
0.238437685510498
40
0.27278746733841
40
0.307137249166322
40
0.341487030994235
40
0.375836812822147
40
0.410186594650059
40
0.444536376477971
40
0.478886158305883
40
0.513235940133795
40
0.547585721961708
40
0.58193550378962
40
0.616285285617532
40
0.650635067445444
40
0.684984849273356
40
0.719334631101269
40
0.753684412929181
40
0.788034194757093
40
0.822383976585005
40
0.856733758412917
40
0.891083540240829
40
0.959783103896654
40
0.994132885724566
40
1
40
1
40
1
40
1
41
1
10
10.8866991603604
20
-1.31857324153435
30
0
41
1
10
11.0085695914072
20
-1.40031728348941
30
0
41
1
10
11.2598298073777
20
-1.56766811885717
30
0
41
1
10
11.5755428816102
20
-1.77433537944441
30
0
41
1
10
11.8339292502581
20
-1.94075456959743
30
0
41
1
10
12.0921505280047
20
-2.10524376016437
30
0
41
1
10
12.4146349016566
20
-2.30677228337848
30
0
41
1
10
12.8011532568664
20
-2.54160539801532
30
0
41
1
10
13.1872385603484
20
-2.76875920916441
30
0
41
1
10
13.5729148020694
20
-2.98754554756837
30
0
41
1
10
13.9582068319666
20
-3.19742842702138
30
0
41
1
10
14.3431208222511
20
-3.39782625767737
30
0
41
1
10
14.7276840105051
20
-3.58820999773064
30
0
41
1
10
15.1119141001139
20
-3.76801654589593
30
0
41
1
10
15.4958179782349
20
-3.93670984365096
30
0
41
1
10
15.8793750457669
20
-4.09397733617357
30
0
41
1
10
16.262598334194
20
-4.23929876562198
30
0
41
1
10
16.6454841651631
20
-4.37230892337672
30
0
41
1
10
17.0280717097325
20
-4.49258373268907
30
0
41
1
10
17.4103734501486
20
-4.59998887298627
30
0
41
1
10
17.7924326428751
20
-4.69411863151132
30
0
41
1
10
18.1742757351291
20
-4.77478565952075
30
0
41
1
10
18.5559509429449
20
-4.84169853449271
30
0
41
1
10
18.9374869148431
20
-4.89487647220443
30
0
41
1
10
19.3189349614241
20
-4.93403011032169
30
0
41
1
10
19.7003343332729
20
-4.95911787057346
30
0
41
1
10
20.0817268172461
20
-4.96999556987009
30
0
41
1
10
20.4631449765637
20
-4.96673876834166
30
0
41
1
10
20.9717949236739
20
-4.94363626714176
30
0
41
1
10
21.48067055648
20
-4.8920616162471
30
0
41
1
10
21.8843175948362
20
-4.82907448494834
30
0
41
1
10
22.0334075350204
20
-4.80269269260242
30
0
41
1
10
22.055158776728
20
-4.79877739779297
30
0
0
SPLINE
5
111
100
AcDbEntity
8
1
62
256
6
ByLayer
370
18
48
1
60
0
100
AcDbSpline
70
4
71
3
72
10
73
6
40
0
40
0
40
0
40
0
40
0.5
40
0.5
40
1
40
1
40
1
40
1
41
1
10
12.0000000000001
20
-1.1511315632637
30
0
41
1
10
11.8689040126716
20
-1.07798030237879
30
0
41
1
10
11.7383741262158
20
-1.00361362636718
30
0
41
1
10
11.4784849011289
20
-0.852367115291486
30
0
41
1
10
11.3491326947012
20
-0.775471967430036
30
0
41
1
10
11.2204330079495
20
-0.697175863797412
30
0
0
SPLINE
5
112
100
AcDbEntity
8
1
62
256
6
ByLayer
370
18
48
1
60
0
100
AcDbSpline
70
4
71
3
72
23
73
19
40
0
40
0
40
0
40
0
40
0.0621558904121309
40
0.124352705557499
40
0.18659158062154
40
0.248873627456877
40
0.311199934947439
40
0.373571569367051
40
0.43598957473273
40
0.498454973152599
40
0.560968765168507
40
0.623531930093308
40
0.686145426343034
40
0.748810191763664
40
0.811527143952934
40
0.874297180576957
40
0.937121179681785
40
1
40
1
40
1
40
1
41
1
10
11.2204076809478
20
-0.697220584513929
30
0
41
1
10
11.2132112808774
20
-0.70995231373027
30
0
41
1
10
11.1988137424768
20
-0.735424154998697
30
0
41
1
10
11.1773478588453
20
-0.773726439517958
30
0
41
1
10
11.1559686602296
20
-0.812111830341138
30
0
41
1
10
11.1346860561642
20
-0.850585079197714
30
0
41
1
10
11.1134974367095
20
-0.889143318174973
30
0
41
1
10
11.0924035497155
20
-0.927785748941318
30
0
41
1
10
11.071404241711
20
-0.966511043600633
30
0
41
1
10
11.0504996018308
20
-1.00531804225034
30
0
41
1
10
11.0296896493487
20
-1.04420556391889
30
0
41
1
10
11.0089744384473
20
-1.08317246403996
30
0
41
1
10
10.9883539517853
20
-1.1222175932526
30
0
41
1
10
10.9678284216844
20
-1.16133990426147
30
0
41
1
10
10.9473971504449
20
-1.20053806463815
30
0
41
1
10
10.9270629129781
20
-1.2398118999013
30
0
41
1
10
10.9068155064544
20
-1.2791570014823
30
0
41
1
10
10.8934065583512
20
-1.30543067537971
30
0
41
1
10
10.8866991603604
20
-1.31857324153438
30
0
0
SPLINE
5
113
100
AcDbEntity
8
1
62
256
6
ByLayer
370
13
48
1
60
0
100
AcDbSpline
70
4
71
3
72
13
73
9
40
0
40
0
40
0
40
0
40
0.0399300145875526
40
0.199941678822961
40
0.359953343058369
40
0.519965007293776
40
0.679976671529184
40
1
40
1
40
1
40
1
41
1
10
23.7178957481595
20
-4.34166949600515
30
0
41
1
10
23.561930498773
20
-4.36786563875862
30
0
41
1
10
22.7809652493866
20
-4.48349116957394
30
0
41
1
10
21.3750000000001
20
-4.54837131993179
30
0
41
1
10
19.5000000000001
20
-4.32319916695067
30
0
41
1
10
17.6250000000001
20
-3.80142006257282
30
0
41
1
10
15.1250000000001
20
-2.75912642659034
30
0
41
1
10
13.2500000000001
20
-1.66538922432136
30
0
41
1
10
12.0000000000001
20
-0.891253164511909
30
0
0
SPLINE
5
114
100
AcDbEntity
8
1
62
256
6
ByLayer
370
18
48
1
60
0
100
AcDbSpline
70
4
71
3
72
62
73
58
40
0
40
0
40
0
40
0
40
0.024322280173774
40
0.024322280173774
40
0.0940135458756531
40
0.0940135458756531
40
0.128859178726594
40
0.128859178726594
40
0.163704811577534
40
0.163704811577534
40
0.181127628003004
40
0.181127628003004
40
0.198550444428473
40
0.198550444428473
40
0.233396077279409
40
0.233396077279409
40
0.303087342981281
40
0.303087342981281
40
0.337932975832217
40
0.337932975832217
40
0.372778608683153
40
0.372778608683153
40
0.407624241534089
40
0.407624241534089
40
0.442469874385025
40
0.442469874385025
40
0.477315507235961
40
0.477315507235961
40
0.494738323661428
40
0.494738323661428
40
0.503449731874162
40
0.503449731874162
40
0.512161140086896
40
0.512161140086896
40
0.547006772937832
40
0.547006772937832
40
0.581852405788768
40
0.581852405788768
40
0.616698038639704
40
0.616698038639704
40
0.65154367149064
40
0.65154367149064
40
0.721234937192511
40
0.721234937192511
40
0.756080570043447
40
0.756080570043447
40
0.790926202894383
40
0.790926202894383
40
0.825771835745319
40
0.825771835745319
40
0.860617468596255
40
0.860617468596255
40
0.930308734298128
40
0.930308734298128
40
0.965154367149064
40
0.965154367149064
40
1
40
1
40
1
40
1
41
1
10
25.2297594703945
20
-4.1690505984306
30
0
41
1
10
25.1231446844141
20
-4.2049398859802
30
0
41
1
10
25.0165313470521
20
-4.23943420105107
30
0
41
1
10
24.6042607515331
20
-4.36743264288208
30
0
41
1
10
24.2983967811659
20
-4.45079141413561
30
0
41
1
10
23.8382113706939
20
-4.55710985081038
30
0
41
1
10
23.6845843805434
20
-4.58939961988708
30
0
41
1
10
23.3765864846368
20
-4.64781698316924
30
0
41
1
10
23.2222152792951
20
-4.67396074935769
30
0
41
1
10
22.9899807880949
20
-4.7082895998754
30
0
41
1
10
22.9124472322426
20
-4.71891914440445
30
0
41
1
10
22.7577646078045
20
-4.7384510368031
30
0
41
1
10
22.6805365417279
20
-4.74736568700172
30
0
41
1
10
22.4491587566858
20
-4.77155066867982
30
0
41
1
10
22.2953274187257
20
-4.78423068837105
30
0
41
1
10
21.8346818940752
20
-4.8122412257832
30
0
41
1
10
21.5285972580509
20
-4.81789987920976
30
0
41
1
10
21.0700447526839
20
-4.8063337374806
30
0
41
1
10
20.9172887806265
20
-4.79914268526983
30
0
41
1
10
20.6117882508743
20
-4.77806596138254
30
0
41
1
10
20.4590298538665
20
-4.76422641694455
30
0
41
1
10
20.1532564197606
20
-4.73019050671525
30
0
41
1
10
20.0002527136977
20
-4.70995440822466
30
0
41
1
10
19.6938499302326
20
-4.66288841891443
30
0
41
1
10
19.5404536522386
20
-4.63603470971716
30
0
41
1
10
19.233046622853
20
-4.5757703911074
30
0
41
1
10
19.0790358418044
20
-4.54237402925858
30
0
41
1
10
18.8474075507641
20
-4.48740824746039
30
0
41
1
10
18.7700958781368
20
-4.46827503756174
30
0
41
1
10
18.6539544233976
20
-4.43836832409119
30
0
41
1
10
18.6152023577243
20
-4.42819556188621
30
0
41
1
10
18.5377896889885
20
-4.40749048127822
30
0
41
1
10
18.4991109543416
20
-4.39695392512257
30
0
41
1
10
18.3058507043322
20
-4.34335035652603
30
0
41
1
10
18.1516781481927
20
-4.29749931218174
30
0
41
1
10
17.8440273275039
20
-4.1999656103298
30
0
41
1
10
17.6905329582545
20
-4.14832473247557
30
0
41
1
10
17.3839649534006
20
-4.03960248051786
30
0
41
1
10
17.2308961501612
20
-3.98251304215179
30
0
41
1
10
16.9249939711312
20
-3.86311530819717
30
0
41
1
10
16.7721591700057
20
-3.80081563700205
30
0
41
1
10
16.3138189781986
20
-3.60603221574129
30
0
41
1
10
16.0084353818059
20
-3.46578154077506
30
0
41
1
10
15.5492678908047
20
-3.24158618994679
30
0
41
1
10
15.3960349505601
20
-3.1645464433596
30
0
41
1
10
15.0890713304937
20
-3.005849647936
30
0
41
1
10
14.9353480610169
20
-2.92414846702982
30
0
41
1
10
14.62719596182
20
-2.75630385662373
30
0
41
1
10
14.4727646181215
20
-2.67017346739894
30
0
41
1
10
14.1629606234619
20
-2.49381920616668
30
0
41
1
10
14.0082269640583
20
-2.40395076632819
30
0
41
1
10
13.5446244206894
20
-2.12976321131069
30
0
41
1
10
13.2362281377302
20
-1.94069389782376
30
0
41
1
10
12.7732468242981
20
-1.64970178154553
30
0
41
1
10
12.6188488699716
20
-1.5514934326209
30
0
41
1
10
12.309713136138
20
-1.35291819042587
30
0
41
1
10
12.1549759431176
20
-1.25255281734735
30
0
41
1
10
12.0000000000001
20
-1.1511315632637
30
0
0
SPLINE
5
115
100
AcDbEntity
8
1
62
256
6
ByLayer
370
18
48
1
60
0
100
AcDbSpline
70
4
71
3
72
26
73
22
40
0
40
0
40
0
40
0
40
0.0055046470067065
40
0.0357486018815738
40
0.0659925567564411
40
0.0962365116313081
40
0.156724421381043
40
0.18696837625591
40
0.217212331130777
40
0.277700240880511
40
0.39867606037998
40
0.459163970129714
40
0.519651879879449
40
0.580139789629183
40
0.640627699378918
40
0.701115609128652
40
0.761603518878387
40
0.822091428628121
40
0.882579338377856
40
0.94306724812759
40
1
40
1
40
1
40
1
41
1
10
28.7989348761261
20
4.96138679343798
30
0
41
1
10
28.8222711912811
20
4.96045386563236
30
0
41
1
10
28.9738144285772
20
4.95379543486268
30
0
41
1
10
29.2534517386911
20
4.93433399256156
30
0
41
1
10
29.6375236016597
20
4.89113256661287
30
0
41
1
10
30.1489507897222
20
4.81207863298678
30
0
41
1
10
30.6592326216894
20
4.700517857373
30
0
41
1
10
31.1679545199461
20
4.55857542562384
30
0
41
1
10
31.6754661005081
20
4.39719434274531
30
0
41
1
10
32.5607553510545
20
4.06452711594395
30
0
41
1
10
33.5703630476376
20
3.57647493060594
30
0
41
1
10
34.5866200751907
20
2.99506415213637
30
0
41
1
10
35.3542458481868
20
2.5158956915607
30
0
41
1
10
36.1297355513257
20
1.99775975472133
30
0
41
1
10
36.9152934813138
20
1.44497845554821
30
0
41
1
10
37.7136760087055
20
0.862611899781058
30
0
41
1
10
38.5272461631162
20
0.256192838974101
30
0
41
1
10
39.3591168892711
20
-0.367901927797249
30
0
41
1
10
40.2114767240396
20
-1.00185563183388
30
0
41
1
10
41.0714364025816
20
-1.62372637434743
30
0
41
1
10
41.6570834628308
20
-2.02842047104744
30
0
41
1
10
41.9458480393496
20
-2.22191359144097
30
0
0
SPLINE
5
116
100
AcDbEntity
8
1
62
256
6
ByLayer
370
18
48
1
60
0
100
AcDbSpline
70
4
71
3
72
8
73
4
40
0
40
0
40
0
40
0
40
1
40
1
40
1
40
1
41
1
10
41.9458480368584
20
-2.22191358640569
30
0
41
1
10
41.9286394978857
20
-2.11358574507747
30
0
41
1
10
41.9114619213733
20
-2.00508422619291
30
0
41
1
10
41.8943151197541
20
-1.89641003670201
30
0
0
SPLINE
5
117
100
AcDbEntity
8
1
62
256
6
ByLayer
370
18
48
1
60
0
100
AcDbSpline
70
4
71
3
72
8
73
4
40
0
40
0
40
0
40
0
40
1
40
1
40
1
40
1
41
1
10
41.8943151197541
20
-1.89641003670201
30
0
41
1
10
41.7725213069855
20
-1.63731125770101
30
0
41
1
10
41.6520159450466
20
-1.37489690840547
30
0
41
1
10
41.5327886519388
20
-1.10919370481025
30
0
0
SPLINE
5
118
100
AcDbEntity
8
1
62
256
6
ByLayer
370
18
48
1
60
0
100
AcDbSpline
70
4
71
3
72
8
73
4
40
0
40
0
40
0
40
0
40
1
40
1
40
1
40
1
41
1
10
41.5327886519388
20
-1.10919370481025
30
0
41
1
10
41.5170145676596
20
-1.07615962795194
30
0
41
1
10
41.5012485059568
20
-1.04307761179956
30
0
41
1
10
41.4854904768084
20
-1.00994759672901
30
0
0
SPLINE
5
119
100
AcDbEntity
8
1
62
256
6
ByLayer
370
18
48
1
60
0
100
AcDbSpline
70
4
71
3
72
10
73
6
40
0
40
0
40
0
40
0
40
0.5
40
0.5
40
1
40
1
40
1
40
1
41
1
10
12.0000000000001
20
-4.27107730713288
30
0
41
1
10
11.8762351280931
20
-4.30738673446677
30
0
41
1
10
11.7530765609133
20
-4.34235021910217
30
0
41
1
10
11.5080055835
20
-4.40951083051917
30
0
41
1
10
11.3860957889883
20
-4.44170215063045
30
0
41
1
10
11.2648757293699
20
-4.4723623204768
30
0
0
SPLINE
5
11A
100
AcDbEntity
8
1
62
256
6
ByLayer
370
18
48
1
60
0
100
AcDbSpline
70
4
71
3
72
8
73
4
40
0
40
0
40
0
40
0
40
1
40
1
40
1
40
1
41
1
10
41.3783613408908
20
-0.685702635278602
30
0
41
1
10
41.4130447427503
20
-0.792296077938886
30
0
41
1
10
41.4487304746311
20
-0.900342961350447
30
0
41
1
10
41.4854904768087
20
-1.00994759672685
30
0
0
SPLINE
5
11B
100
AcDbEntity
8
1
62
256
6
ByLayer
370
13
48
1
60
0
100
AcDbSpline
70
4
71
3
72
10
73
6
40
0
40
0
40
0
40
0
40
0.254869322518591
40
0.636148019880704
40
1
40
1
40
1
40
1
41
1
10
41.3783613417918
20
-0.685702633988427
30
0
41
1
10
40.9605742278612
20
-0.405378277970584
30
0
41
1
10
39.9177871139307
20
0.304524082581054
30
0
41
1
10
38.2785662386914
20
1.41092033618517
30
0
41
1
10
37.0571324773828
20
2.16297637691522
30
0
41
1
10
36.460698716074
20
2.49984059407709
30
0
0
SPLINE
5
11C
100
AcDbEntity
8
1
62
256
6
ByLayer
370
18
48
1
60
0
100
AcDbSpline
70
4
71
3
72
46
73
42
40
0
40
0
40
0
40
0
40
0.0815062381513419
40
0.0815062381513419
40
0.122259357227013
40
0.122259357227013
40
0.163012476302684
40
0.163012476302684
40
0.244518714454023
40
0.244518714454023
40
0.326024952605363
40
0.326024952605363
40
0.407531190756702
40
0.407531190756702
40
0.448284309832372
40
0.448284309832372
40
0.468660869370207
40
0.468660869370207
40
0.489037428908042
40
0.570543667059376
40
0.570543667059376
40
0.652049905210711
40
0.652049905210711
40
0.733556143362045
40
0.733556143362045
40
0.774309262437712
40
0.774309262437712
40
0.794685821975545
40
0.794685821975545
40
0.804874101744461
40
0.804874101744461
40
0.815062381513378
40
0.855815500589043
40
0.855815500589043
40
0.896568619664708
40
0.896568619664708
40
0.937321738740373
40
0.937321738740373
40
0.978074857816038
40
0.978074857816038
40
1
40
1
40
1
40
1
41
1
10
41.4854904767938
20
-1.00994759672437
30
0
41
1
10
41.1763938943799
20
-0.790965558742528
30
0
41
1
10
40.8679440378957
20
-0.56877618748166
30
0
41
1
10
40.4044552709744
20
-0.233195500315446
30
0
41
1
10
40.2498226560473
20
-0.12095370863392
30
0
41
1
10
39.939992106234
20
0.103881584742368
30
0
41
1
10
39.7855293145643
20
0.215951203868599
30
0
41
1
10
39.3234507680331
20
0.550428738992053
30
0
41
1
10
39.017022000374
20
0.771214763060613
30
0
41
1
10
38.4053378486943
20
1.20565581283728
30
0
41
1
10
38.1000564337844
20
1.41927851139192
30
0
41
1
10
37.4886519987593
20
1.83670626342121
30
0
41
1
10
37.1825564605705
20
2.04054454103147
30
0
41
1
10
36.7212886676695
20
2.33691517731828
30
0
41
1
10
36.5671772808836
20
2.43413837152428
30
0
41
1
10
36.3352739180557
20
2.57733694710248
30
0
41
1
10
36.2577613755707
20
2.62468292806631
30
0
41
1
10
36.1030287786397
20
2.71810648887833
30
0
41
1
10
35.716843537747
20
2.94855185238001
30
0
41
1
10
35.3334659417299
20
3.16314428562222
30
0
41
1
10
34.721463212048
20
3.48445974105761
30
0
41
1
10
34.4161415275326
20
3.63406468702493
30
0
41
1
10
33.804861617963
20
3.90947644911768
30
0
41
1
10
33.4989390788421
20
4.03534778353006
30
0
41
1
10
33.0382480028051
20
4.20496407986309
30
0
41
1
10
32.8843814415019
20
4.25829842196026
30
0
41
1
10
32.6529346942373
20
4.33327092364939
30
0
41
1
10
32.5756777570158
20
4.35742330637243
30
0
41
1
10
32.4596052654195
20
4.39236426824351
30
0
41
1
10
32.4208616732528
20
4.40380275826851
30
0
41
1
10
32.3434597515142
20
4.42620184516258
30
0
41
1
10
32.1501265826235
20
4.48101826987829
30
0
41
1
10
31.9575967530762
20
4.52992684452332
30
0
41
1
10
31.650289270153
20
4.60060397899824
30
0
41
1
10
31.4970142223088
20
4.63213132410868
30
0
41
1
10
31.1908700504777
20
4.68770389290967
30
0
41
1
10
31.0379718912512
20
4.71182802237428
30
0
41
1
10
30.7322889600617
20
4.75267899761192
30
0
41
1
10
30.5795142715184
20
4.76936512135256
30
0
41
1
10
30.3445239877298
20
4.7891079166746
30
0
41
1
10
30.2623199341334
20
4.79489895365322
30
0
41
1
10
30.1800971100327
20
4.79955467472709
30
0
0
SPLINE
5
11D
100
AcDbEntity
8
1
62
256
6
ByLayer
370
18
48
1
60
0
100
AcDbSpline
70
4
71
3
72
8
73
4
40
0
40
0
40
0
40
0
40
1
40
1
40
1
40
1
41
1
10
12.250365945218
20
-4.18425539052106
30
0
41
1
10
12.1669421870109
20
-4.21419980403587
30
0
41
1
10
12.0834923250813
20
-4.24314918542535
30
0
41
1
10
12.0000000000001
20
-4.27107730713286
30
0
0
SPLINE
5
11E
100
AcDbEntity
8
1
62
256
6
ByLayer
370
18
48
1
60
0
100
AcDbSpline
70
4
71
3
72
8
73
4
40
0
40
0
40
0
40
0
40
1
40
1
40
1
40
1
41
1
10
41.4162266159372
20
-3.65406911287883
30
0
41
1
10
41.4499962739182
20
-3.68549724317543
30
0
41
1
10
41.484564106934
20
-3.71480767538844
30
0
41
1
10
41.5199765079052
20
-3.74187732740751
30
0
0
SPLINE
5
11F
100
AcDbEntity
8
1
62
256
6
ByLayer
370
13
48
1
60
0
100
AcDbSpline
70
4
71
3
72
8
73
4
40
0
40
0
40
0
40
0
40
1
40
1
40
1
40
1
41
1
10
41.4162266169826
20
-3.65406911322927
30
0
41
1
10
41.3906406366713
20
-3.66282458000091
30
0
41
1
10
41.36505465636
20
-3.67152057978856
30
0
41
1
10
41.3394686760488
20
-3.68015653934342
30
0
0
SPLINE
5
120
100
AcDbEntity
8
1
62
256
6
ByLayer
370
13
48
1
60
0
100
AcDbSpline
70
4
71
3
72
45
73
41
40
0
40
0
40
0
40
0
40
0.0232955583268314
40
0.0734354457622611
40
0.123575333197691
40
0.173715220633121
40
0.248925051786265
40
0.299064939221695
40
0.374274770374839
40
0.424414657810269
40
0.462019573386841
40
0.499624488963413
40
0.524694432681128
40
0.549764376398843
40
0.568566834187129
40
0.587369291975415
40
0.596770520869559
40
0.606171749763702
40
0.61243923569313
40
0.617139850140202
40
0.621057028846095
40
0.623407336069631
40
0.624582489681398
40
0.625757643293166
40
0.626932796904934
40
0.628891386257881
40
0.632808564963774
40
0.637509179410845
40
0.643776665340274
40
0.653177894234417
40
0.66257912312856
40
0.681381580916846
40
0.700184038705132
40
0.737788954281705
40
0.775393869858277
40
0.825533757293706
40
0.875673644729136
40
0.925813532164566
40
0.975953419599996
40
1
40
1
40
1
40
1
41
1
10
38.6855730945654
20
-4.34113437855268
30
0
41
1
10
38.5403820630436
20
-4.36386795410846
30
0
41
1
10
38.0826910315218
20
-4.4282630802206
30
0
41
1
10
37.3125000000001
20
-4.49635283365024
30
0
41
1
10
36.3750000000001
20
-4.5133972675402
30
0
41
1
10
35.2812500000001
20
-4.45538882387672
30
0
41
1
10
34.1875000000001
20
-4.29842904608904
30
0
41
1
10
32.9375000000001
20
-4.01740613852141
30
0
41
1
10
31.8437500000001
20
-3.68435806134738
30
0
41
1
10
30.8281250000001
20
-3.30125092405277
30
0
41
1
10
30.0468750000001
20
-2.97046638616806
30
0
41
1
10
29.4218750000001
20
-2.68347549969684
30
0
41
1
10
28.8750000000001
20
-2.41803437530729
30
0
41
1
10
28.4453125000001
20
-2.20135605180752
30
0
41
1
10
28.0546875000001
20
-1.99863336194684
30
0
41
1
10
27.7617187500001
20
-1.8432427441787
30
0
41
1
10
27.5273437500002
20
-1.71712046268343
30
0
41
1
10
27.3710937500001
20
-1.63227757649668
30
0
41
1
10
27.2441406250001
20
-1.56285539476713
30
0
41
1
10
27.1513671875001
20
-1.51188406934392
30
0
41
1
10
27.0830078125001
20
-1.47419111150194
30
0
41
1
10
27.0366210937501
20
-1.44854895677892
30
0
41
1
10
27.0073242187501
20
-1.43233113461659
30
0
41
1
10
26.9853515625001
20
-1.4201564779753
30
0
41
1
10
26.9584960937501
20
-1.40526260533397
30
0
41
1
10
26.9145507812502
20
-1.3808609415253
30
0
41
1
10
26.8486328125001
20
-1.34417530615815
30
0
41
1
10
26.7558593750001
20
-1.2923737567738
30
0
41
1
10
26.6289062500001
20
-1.22119806311741
30
0
41
1
10
26.4726562500001
20
-1.13310331282355
30
0
41
1
10
26.2382812500001
20
-1.00012121492316
30
0
41
1
10
25.9453125000001
20
-0.832426012453766
30
0
41
1
10
25.4765625000001
20
-0.561541520680095
30
0
41
1
10
24.8906250000001
20
-0.219528494711113
30
0
41
1
10
24.1093750000002
20
0.237429856898842
30
0
41
1
10
23.2500000000001
20
0.73727683480044
30
0
41
1
10
22.3125000000001
20
1.27403412677808
30
0
41
1
10
21.3750000000001
20
1.79152693880536
30
0
41
1
10
20.6001281762016
20
2.19588200759844
30
0
41
1
10
20.1377563524031
20
2.42511875730369
30
0
41
1
10
19.9878845286045
20
2.49802934589988
30
0
0
SPLINE
5
121
100
AcDbEntity
8
1
62
256
6
ByLayer
370
18
48
1
60
0
100
AcDbSpline
70
4
71
3
72
8
73
4
40
0
40
0
40
0
40
0
40
1
40
1
40
1
40
1
41
1
10
41.9468430531052
20
-3.01480478919422
30
0
41
1
10
41.9292985295449
20
-3.08640093535774
30
0
41
1
10
41.9117822789585
20
-3.15741370192609
30
0
41
1
10
41.8942941441312
20
-3.22784623020277
30
0
0
SPLINE
5
122
100
AcDbEntity
8
1
62
256
6
ByLayer
370
18
48
1
60
0
100
AcDbSpline
70
4
71
3
72
8
73
4
40
0
40
0
40
0
40
0
40
1
40
1
40
1
40
1
41
1
10
41.8942941441311
20
-3.22784623020277
30
0
41
1
10
41.7748752486043
20
-3.39912361713218
30
0
41
1
10
41.6565646165984
20
-3.56238794778514
30
0
41
1
10
41.5393481301122
20
-3.71774129927186
30
0
0
SPLINE
5
123
100
AcDbEntity
8
1
62
256
6
ByLayer
370
18
48
1
60
0
100
AcDbSpline
70
4
71
3
72
8
73
4
40
0
40
0
40
0
40
0
40
1
40
1
40
1
40
1
41
1
10
41.5393481301114
20
-3.71774129927172
30
0
41
1
10
41.5328897233474
20
-3.7258094015022
30
0
41
1
10
41.5264325158871
20
-3.73385474531798
30
0
41
1
10
41.5199765079051
20
-3.74187732740751
30
0
0
SPLINE
5
124
100
AcDbEntity
8
1
62
256
6
ByLayer
370
18
48
1
60
0
100
AcDbSpline
70
4
71
3
72
8
73
4
40
0
40
0
40
0
40
0
40
1
40
1
40
1
40
1
41
1
10
41.519976507905
20
-3.74187732740757
30
0
41
1
10
41.3953986230558
20
-3.79087468308478
30
0
41
1
10
41.27092274762
20
-3.83840051175284
30
0
41
1
10
41.1464798897253
20
-3.88440118076096
30
0
0
SPLINE
5
125
100
AcDbEntity
8
1
62
256
6
ByLayer
370
18
48
1
60
0
100
AcDbSpline
70
4
71
3
72
118
73
114
40
0
40
0
40
0
40
0
40
0.0046836854566929
40
0.0046836854566929
40
0.0130474071051375
40
0.0130474071051375
40
0.021411128753582
40
0.021411128753582
40
0.038138572050471
40
0.038138572050471
40
0.0548660153473601
40
0.0548660153473601
40
0.0883209019411393
40
0.0883209019411393
40
0.105048345238029
40
0.105048345238029
40
0.121775788534918
40
0.121775788534918
40
0.138503231831808
40
0.138503231831808
40
0.155230675128698
40
0.155230675128698
40
0.163594396777142
40
0.163594396777142
40
0.171958118425587
40
0.171958118425587
40
0.188685561722477
40
0.188685561722477
40
0.222140448316256
40
0.222140448316256
40
0.255595334910035
40
0.255595334910035
40
0.289050221503814
40
0.289050221503814
40
0.305777664800704
40
0.305777664800704
40
0.322505108097594
40
0.322505108097594
40
0.330868829746038
40
0.330868829746038
40
0.339232551394483
40
0.339232551394483
40
0.355959994691374
40
0.355959994691374
40
0.372687437988265
40
0.372687437988265
40
0.389414881285155
40
0.389414881285155
40
0.422869767878936
40
0.422869767878936
40
0.439597211175826
40
0.439597211175826
40
0.456324654472716
40
0.456324654472716
40
0.473052097769606
40
0.473052097769606
40
0.489779541066496
40
0.489779541066496
40
0.506506984363386
40
0.506506984363386
40
0.514870706011831
40
0.514870706011831
40
0.523234427660275
40
0.523234427660275
40
0.539961870957166
40
0.539961870957166
40
0.556689314254056
40
0.556689314254056
40
0.590144200847836
40
0.590144200847836
40
0.606871644144725
40
0.606871644144725
40
0.623599087441615
40
0.623599087441615
40
0.640326530738504
40
0.640326530738504
40
0.657053974035393
40
0.657053974035393
40
0.690508860629171
40
0.690508860629171
40
0.698872582277616
40
0.698872582277616
40
0.707236303926061
40
0.707236303926061
40
0.723963747222951
40
0.723963747222951
40
0.75741863381673
40
0.75741863381673
40
0.79087352041051
40
0.79087352041051
40
0.8076009637074
40
0.8076009637074
40
0.82432840700429
40
0.82432840700429
40
0.84105585030118
40
0.84105585030118
40
0.85778329359807
40
0.85778329359807
40
0.87451073689496
40
0.87451073689496
40
0.882874458543405
40
0.882874458543405
40
0.89123818019185
40
0.89123818019185
40
0.924693066785632
40
0.924693066785632
40
0.941420510082522
40
0.941420510082522
40
0.958147953379413
40
0.958147953379413
40
0.991602839973194
40
0.991602839973194
40
1
40
1
40
1
40
1
41
1
10
40.2580025062057
20
-4.18608752067573
30
0
41
1
10
40.2146355356176
20
-4.19946166569545
30
0
41
1
10
40.1712523564563
20
-4.21263687748518
30
0
41
1
10
40.0503458016787
20
-4.24877955753416
30
0
41
1
10
39.9727377212685
20
-4.27131859389658
30
0
41
1
10
39.8176509151313
20
-4.31504491439367
30
0
41
1
10
39.740179871218
20
-4.33623098342258
30
0
41
1
10
39.5079986477665
20
-4.39776619180955
30
0
41
1
10
39.3535228475615
20
-4.43608971148402
30
0
41
1
10
39.0452557603304
20
-4.50735741048126
30
0
41
1
10
38.8914677754535
20
-4.54030151855176
30
0
41
1
10
38.4306498599729
20
-4.63086397918272
30
0
41
1
10
38.1241442887656
20
-4.68019517984365
30
0
41
1
10
37.6636462337738
20
-4.73706191720592
30
0
41
1
10
37.510026920801
20
-4.75317126520741
30
0
41
1
10
37.2022386654295
20
-4.77975759528286
30
0
41
1
10
37.0480448449351
20
-4.79024633232302
30
0
41
1
10
36.7393602242112
20
-4.80563821176497
30
0
41
1
10
36.5848746463855
20
-4.81053683938433
30
0
41
1
10
36.2759271427261
20
-4.81451636758163
30
0
41
1
10
36.1214993804659
20
-4.81357467105721
30
0
41
1
10
35.8895837002845
20
-4.80766127720531
30
0
41
1
10
35.8121877618343
20
-4.8049387016938
30
0
41
1
10
35.6577314618154
20
-4.79801896827834
30
0
41
1
10
35.5806188982123
20
-4.79382135374792
30
0
41
1
10
35.3495372817449
20
-4.77905353605388
30
0
41
1
10
35.1958103351252
20
-4.76631445885712
30
0
41
1
10
34.735300479678
20
-4.71956849808782
30
0
41
1
10
34.4292233092113
20
-4.67692952358249
30
0
41
1
10
33.817114237497
20
-4.57045232946075
30
0
41
1
10
33.5110020990212
20
-4.50680083934839
30
0
41
1
10
32.8985326733448
20
-4.35881694797646
30
0
41
1
10
32.5922197250063
20
-4.27441372727719
30
0
41
1
10
32.1318741760522
20
-4.1322948595755
30
0
41
1
10
31.9782769670574
20
-4.08233553155267
30
0
41
1
10
31.6706356257816
20
-3.97724606433846
30
0
41
1
10
31.5165956253851
20
-3.92207834249325
30
0
41
1
10
31.2850543832136
20
-3.83564692503995
30
0
41
1
10
31.20779255996
20
-3.8062339434249
30
0
41
1
10
31.0530853197662
20
-3.74622610854183
30
0
41
1
10
30.9755897384686
20
-3.71560697105883
30
0
41
1
10
30.7431555683061
20
-3.62209896805487
30
0
41
1
10
30.5886152835676
20
-3.55770235459295
30
0
41
1
10
30.2802515032246
20
-3.4248792409114
30
0
41
1
10
30.1264340674767
20
-3.35643585471328
30
0
41
1
10
29.8193621195141
20
-3.21568079184252
30
0
41
1
10
29.6660814591781
20
-3.14343919490358
30
0
41
1
10
29.2066607498288
20
-2.9217410938459
30
0
41
1
10
28.900996233355
20
-2.76717494053628
30
0
41
1
10
28.4426735068631
20
-2.52577147430247
30
0
41
1
10
28.2899262808318
20
-2.44370874591769
30
0
41
1
10
27.9842231027096
20
-2.27697503824965
30
0
41
1
10
27.8312741411634
20
-2.19228577121092
30
0
41
1
10
27.5250771383119
20
-2.0203312867946
30
0
41
1
10
27.3718279657038
20
-1.9330700831446
30
0
41
1
10
27.0649143799026
20
-1.75606283851238
30
0
41
1
10
26.9112545998876
20
-1.66628645634759
30
0
41
1
10
26.6033783465292
20
-1.48449475370677
30
0
41
1
10
26.449153331817
20
-1.39253735403639
30
0
41
1
10
26.2173049693433
20
-1.25307137856473
30
0
41
1
10
26.1399373090781
20
-1.20632401393024
30
0
41
1
10
25.9850127457247
20
-1.11232895534658
30
0
41
1
10
25.907496889244
20
-1.0651056549502
30
0
41
1
10
25.6754562996736
20
-0.923230398696006
30
0
41
1
10
25.5211813032577
20
-0.828213674399251
30
0
41
1
10
25.2132635982954
20
-0.637652538974265
30
0
41
1
10
25.0595969766129
20
-0.542141980367632
30
0
41
1
10
24.5990587284643
20
-0.255566500912806
30
0
41
1
10
24.2927185796725
20
-0.0643615186559714
30
0
41
1
10
23.8337763620274
20
0.221895303913726
30
0
41
1
10
23.6808944905604
20
0.317227250002958
30
0
41
1
10
23.3751384196622
20
0.507435518704625
30
0
41
1
10
23.222273456226
20
0.602326134704612
30
0
41
1
10
22.916500233569
20
0.791548920584262
30
0
41
1
10
22.7635831511311
20
0.885867685844119
30
0
41
1
10
22.4574903363541
20
1.07359302972057
30
0
41
1
10
22.3043167356814
20
1.16700043317911
30
0
41
1
10
21.8440345612437
20
1.44526437732739
30
0
41
1
10
21.5361495389811
20
1.6281600883203
30
0
41
1
10
21.1492091794298
20
1.85218283872456
30
0
41
1
10
21.0716484900433
20
1.89679758818491
30
0
41
1
10
20.9166967748731
20
1.98532211396127
30
0
41
1
10
20.8393163190303
20
2.02922645510947
30
0
41
1
10
20.6074437272411
20
2.15984471234452
30
0
41
1
10
20.4532286960667
20
2.24546420081589
30
0
41
1
10
19.9915066020014
20
2.49775326755739
30
0
41
1
10
19.6848337147927
20
2.65988000598594
30
0
41
1
10
19.0726760631493
20
2.9703682422946
30
0
41
1
10
18.7672047269543
20
3.11867467275621
30
0
41
1
10
18.3087914943108
20
3.32971413386002
30
0
41
1
10
18.155965528835
20
3.39814702098494
30
0
41
1
10
17.850124258434
20
3.53093919319059
30
0
41
1
10
17.6971009648888
20
3.59530758094388
30
0
41
1
10
17.3906638569303
20
3.71981586875202
30
0
41
1
10
17.237253687169
20
3.77995792137506
30
0
41
1
10
16.929910264711
20
3.89586968566454
30
0
41
1
10
16.7759765238453
20
3.95164562917719
30
0
41
1
10
16.4674693833887
20
4.05854703545648
30
0
41
1
10
16.3128934242732
20
4.10967302205759
30
0
41
1
10
16.0804134361044
20
4.18278108721185
30
0
41
1
10
16.0029195002998
20
4.20652038544594
30
0
41
1
10
15.8481631568907
20
4.25265867445262
30
0
41
1
10
15.7708608395707
20
4.2750709584279
30
0
41
1
10
15.384685769537
20
4.38382569223148
30
0
41
1
10
15.0768501428388
20
4.46022761781668
30
0
41
1
10
14.6159517660226
20
4.55827294768605
30
0
41
1
10
14.4624492079011
20
4.58821689067329
30
0
41
1
10
14.1555106327841
20
4.64266187355656
30
0
41
1
10
14.0020774947178
20
4.66715881133919
30
0
41
1
10
13.5416907711872
20
4.7322136006953
30
0
41
1
10
13.234646732545
20
4.7643251483735
30
0
41
1
10
12.849500283262
20
4.79020454243204
30
0
41
1
10
12.772171579839
20
4.79468329935446
30
0
41
1
10
12.6947794994901
20
4.79844380687285
30
0
0
SPLINE
5
126
100
AcDbEntity
8
1
62
256
6
ByLayer
370
18
48
1
60
0
100
AcDbSpline
70
4
71
3
72
31
73
27
40
0
40
0
40
0
40
0
40
0.121036061606241
40
0.121036061606241
40
0.181554092409362
40
0.181554092409362
40
0.211813107810923
40
0.211813107810923
40
0.242072123212483
40
0.363108184818725
40
0.363108184818725
40
0.423626215621847
40
0.423626215621847
40
0.484144246424968
40
0.484144246424968
40
0.605180308031208
40
0.605180308031208
40
0.726216369637449
40
0.726216369637449
40
0.847252431243689
40
0.847252431243689
40
0.96828849284993
40
0.96828849284993
40
0.99854750825149
40
0.99854750825149
40
1
40
1
40
1
40
1
41
1
10
12.0000000000001
20
-2.44587594751528
30
0
41
1
10
12.3108644053107
20
-2.63574139567328
30
0
41
1
10
12.6210444372954
20
-2.81825004389657
30
0
41
1
10
13.0865834243202
20
-3.07951970930171
30
0
41
1
10
13.2418102095252
20
-3.16451480579738
30
0
41
1
10
13.4748918038795
20
-3.28866352720903
30
0
41
1
10
13.5525758601128
20
-3.3294632538404
30
0
41
1
10
13.7078017041405
20
-3.4097945266181
30
0
41
1
10
14.0956252911269
20
-3.60751297893268
30
0
41
1
10
14.4826052306603
20
-3.78936180121673
30
0
41
1
10
14.9475007228022
20
-3.99104473609154
30
0
41
1
10
15.1025517392948
20
-4.05551939482592
30
0
41
1
10
15.4130297692342
20
-4.1787849568808
30
0
41
1
10
15.5685919816697
20
-4.23762710608091
30
0
41
1
10
16.0343813955922
20
-4.40472477138539
30
0
41
1
10
16.3441098066164
20
-4.50368908817947
30
0
41
1
10
16.9637007955139
20
-4.67579023076934
30
0
41
1
10
17.2735737724762
20
-4.74898358531487
30
0
41
1
10
17.8952225755835
20
-4.86830044292282
30
0
41
1
10
18.2051013701179
20
-4.91406455844555
30
0
41
1
10
18.8247503474207
20
-4.97771867062193
30
0
41
1
10
19.1345214325556
20
-4.99558917344032
30
0
41
1
10
19.5226884709101
20
-5.00019781554894
30
0
41
1
10
19.6003898261602
20
-5.00023484881737
30
0
41
1
10
19.6818347108731
20
-4.99934293185825
30
0
41
1
10
19.6855650147653
20
-4.99930003423364
30
0
41
1
10
19.6892951793313
20
-4.99925509244008
30
0
0
SPLINE
5
127
100
AcDbEntity
8
1
62
256
6
ByLayer
370
18
48
1
60
0
100
AcDbSpline
70
4
71
3
72
24
73
20
40
0
40
0
40
0
40
0
40
0.0164214424420012
40
0.0164214424420012
40
0.0591857275532185
40
0.144714297775653
40
0.144714297775653
40
0.315771438220521
40
0.315771438220521
40
0.401300008442958
40
0.401300008442958
40
0.486828578665395
40
0.657885719110263
40
0.657885719110263
40
0.743414289332698
40
0.743414289332698
40
0.828942859555132
40
0.828942859555132
40
1
40
1
40
1
40
1
41
1
10
36.3372288070235
20
3.50860345443499
30
0
41
1
10
36.3670519937433
20
3.52348733865551
30
0
41
1
10
36.3968685568349
20
3.53827595147226
30
0
41
1
10
36.5042910218339
20
3.59122035559673
30
0
41
1
10
36.736999453587
20
3.70401952800822
30
0
41
1
10
36.9694050236633
20
3.81081681360203
30
0
41
1
10
37.434144879988
20
4.01612512801347
30
0
41
1
10
37.7438817586411
20
4.14195220812752
30
0
41
1
10
38.2095933150962
20
4.31300683513373
30
0
41
1
10
38.3651408668927
20
4.36711741825837
30
0
41
1
10
38.6757035440218
20
4.46889906445918
30
0
41
1
10
39.1410359177496
20
4.61202680558984
30
0
41
1
10
39.6058002612962
20
4.72605408097846
30
0
41
1
10
40.0715317463521
20
4.81991674739788
30
0
41
1
10
40.2270279042415
20
4.8478508138495
30
0
41
1
10
40.5374665600851
20
4.8966961158375
30
0
41
1
10
40.6925310071031
20
4.91763542942556
30
0
41
1
10
41.1575927214067
20
4.9699496189954
30
0
41
1
10
41.4674663793239
20
4.99081415797681
30
0
41
1
10
41.7779895417316
20
4.99757191715787
30
0
0
SPLINE
5
128
100
AcDbEntity
8
1
62
256
6
ByLayer
370
18
48
1
60
0
100
AcDbSpline
70
4
71
3
72
77
73
73
40
0
40
0
40
0
40
0
40
0.0416267741724039
40
0.0416267741724039
40
0.0624401612586058
40
0.0624401612586058
40
0.0728468548017064
40
0.0728468548017064
40
0.0832535483448071
40
0.124880322517209
40
0.124880322517209
40
0.166507096689612
40
0.166507096689612
40
0.176913790232713
40
0.176913790232713
40
0.187320483775813
40
0.208133870862015
40
0.208133870862015
40
0.249760645034419
40
0.249760645034419
40
0.27057403212062
40
0.27057403212062
40
0.280980725663721
40
0.280980725663721
40
0.291387419206822
40
0.333014193379224
40
0.333014193379224
40
0.374640967551626
40
0.374640967551626
40
0.385047661094727
40
0.385047661094727
40
0.395454354637828
40
0.41626774172403
40
0.41626774172403
40
0.457894515896434
40
0.457894515896434
40
0.478707902982636
40
0.478707902982636
40
0.499521290068838
40
0.499521290068838
40
0.582774838413649
40
0.582774838413649
40
0.603588225499851
40
0.603588225499851
40
0.624401612586054
40
0.624401612586054
40
0.666028386758461
40
0.666028386758461
40
0.686841773844664
40
0.686841773844664
40
0.707655160930868
40
0.707655160930868
40
0.749281935103275
40
0.749281935103275
40
0.790908709275681
40
0.790908709275681
40
0.801315402818783
40
0.801315402818783
40
0.811722096361884
40
0.811722096361884
40
0.832535483448087
40
0.832535483448087
40
0.874162257620492
40
0.874162257620492
40
0.894975644706695
40
0.905382338249797
40
0.905382338249797
40
0.915789031792899
40
0.915789031792899
40
0.999042580137715
40
0.999042580137715
40
1
40
1
40
1
40
1
41
1
10
12.0000000000001
20
4.83523071497407
30
0
41
1
10
12.310677921266
20
4.78385144341863
30
0
41
1
10
12.6208064152609
20
4.72076201703928
30
0
41
1
10
13.0861844850998
20
4.60909081280835
30
0
41
1
10
13.2413432474147
20
4.56901706086595
30
0
41
1
10
13.4742615265215
20
4.50470714395811
30
0
41
1
10
13.5519355298313
20
4.48257025461197
30
0
41
1
10
13.7071344273642
20
4.4369852316492
30
0
41
1
10
14.0949016158525
20
4.31970270087135
30
0
41
1
10
14.4817984348071
20
4.18604708676787
30
0
41
1
10
15.1010864092559
20
3.95239005771504
30
0
41
1
10
15.4108567796349
20
3.82568777907562
30
0
41
1
10
15.7990022773959
20
3.65566149554064
30
0
41
1
10
15.8767048679507
20
3.62105897017008
30
0
41
1
10
16.0319587511966
20
3.55082069314412
30
0
41
1
10
16.26469112426
20
3.44388143064313
30
0
41
1
10
16.4970728834851
20
3.33231326605196
30
0
41
1
10
16.9616250929676
20
3.10332797463263
30
0
41
1
10
17.2710403760105
20
2.94289325126041
30
0
41
1
10
17.7357868508523
20
2.69178423578543
30
0
41
1
10
17.890806655501
20
2.60633992768629
30
0
41
1
10
18.1236223356943
20
2.47572466471522
30
0
41
1
10
18.2013101721588
20
2.43175791978243
30
0
41
1
10
18.356575535876
20
2.34316439040433
30
0
41
1
10
18.7444992140977
20
2.12000947263809
30
0
41
1
10
19.1314986563401
20
1.88891901602671
30
0
41
1
10
19.750794032896
20
1.51081568440551
30
0
41
1
10
20.0604667736159
20
1.31758948651077
30
0
41
1
10
20.4484226133034
20
1.07202063174191
30
0
41
1
10
20.5260913917517
20
1.02268346088235
30
0
41
1
10
20.6813695720337
20
0.923745655135832
30
0
41
1
10
20.914132950737
20
0.774985930971241
30
0
41
1
10
21.1465330544741
20
0.625322104492881
30
0
41
1
10
21.6111105920225
20
0.325193118539317
30
0
41
1
10
21.92053485838
20
0.124042253839605
30
0
41
1
10
22.385258029358
20
-0.177695094884967
30
0
41
1
10
22.5402636681443
20
-0.278276089721516
30
0
41
1
10
22.8506336180849
20
-0.479190096821924
30
0
41
1
10
23.0060741396904
20
-0.579571979366619
30
0
41
1
10
23.781804932403
20
-1.07849564216494
30
0
41
1
10
24.3996402468674
20
-1.4694959515279
30
0
41
1
10
25.1753222855777
20
-1.93784975674589
30
0
41
1
10
25.3307385914905
20
-2.03055784844045
30
0
41
1
10
25.6410314223409
20
-2.21303696743749
30
0
41
1
10
25.7960130255092
20
-2.30287342505423
30
0
41
1
10
26.260717267067
20
-2.56786518897394
30
0
41
1
10
26.5702024119071
20
-2.73850320408243
30
0
41
1
10
27.0349058049944
20
-2.98414983281725
30
0
41
1
10
27.1898840732422
20
-3.06431445280177
30
0
41
1
10
27.5001545378744
20
-3.22100353685019
30
0
41
1
10
27.6555755635741
20
-3.29758835577266
30
0
41
1
10
28.1210764123563
20
-3.52083549425552
30
0
41
1
10
28.43068436949
20
-3.66113134634401
30
0
41
1
10
29.0498495706956
20
-3.92325481367561
30
0
41
1
10
29.3594070998314
20
-4.04509875199597
30
0
41
1
10
29.747178449793
20
-4.18503361843301
30
0
41
1
10
29.8247740785554
20
-4.21240036526728
30
0
41
1
10
29.9800690362482
20
-4.26587211086536
30
0
41
1
10
30.0577506625321
20
-4.29197038927134
30
0
41
1
10
30.2905622073591
20
-4.36820825571499
30
0
41
1
10
30.4455938046095
20
-4.41633941715963
30
0
41
1
10
30.9103934319088
20
-4.55254552448767
30
0
41
1
10
31.2198532391559
20
-4.6324475615169
30
0
41
1
10
31.6844292598635
20
-4.73523858563183
30
0
41
1
10
31.9168161200959
20
-4.78236648182963
30
0
41
1
10
32.149545739361
20
-4.82298595252564
30
0
41
1
10
32.3047968122075
20
-4.84860740809771
30
0
41
1
10
32.382481126049
20
-4.86068963547766
30
0
41
1
10
33.0809133921677
20
-4.96263855189068
30
0
41
1
10
33.6988433832334
20
-5.00543131117055
30
0
41
1
10
34.3263316141911
20
-4.99945566810945
30
0
41
1
10
34.3334660285191
20
-4.99938128411583
30
0
41
1
10
34.3406007619089
20
-4.99930045315799
30
0
0
SPLINE
5
129
100
AcDbEntity
8
1
62
256
6
ByLayer
370
18
48
1
60
0
100
AcDbSpline
70
4
71
3
72
59
73
55
40
0
40
0
40
0
40
0
40
0.0290380314110019
40
0.0438472552337916
40
0.0586564790565814
40
0.0734657028793711
40
0.0882749267021608
40
0.10308415052495
40
0.11789337434774
40
0.13270259817053
40
0.14751182199332
40
0.16232104581611
40
0.177130269638899
40
0.191939493461689
40
0.206748717284479
40
0.221557941107268
40
0.236367164930058
40
0.251176388752848
40
0.265985612575638
40
0.280794836398427
40
0.295604060221217
40
0.325222507866797
40
0.340031731689586
40
0.354840955512376
40
0.369650179335166
40
0.384459403157956
40
0.414077850803535
40
0.428887074626325
40
0.443696298449114
40
0.473314746094694
40
0.488123969917484
40
0.502933193740273
40
0.532551641385853
40
0.547360865208642
40
0.562170089031432
40
0.591788536677012
40
0.606597760499802
40
0.621406984322591
40
0.651025431968171
40
0.66583465579096
40
0.68064387961375
40
0.69545310343654
40
0.71026232725933
40
0.725071551082119
40
0.739880774904909
40
0.769499222550489
40
0.784308446373278
40
0.799117670196068
40
0.828736117841647
40
0.887973013132806
40
0.917591460778386
40
0.947209908423965
40
0.976828356069545
40
1
40
1
40
1
40
1
41
1
10
10.8539946402826
20
4.96684735109022
30
0
41
1
10
11.1080998761016
20
4.96320688725163
30
0
41
1
10
11.4916799880624
20
4.94548821103643
30
0
41
1
10
12.0041513124403
20
4.89741282121466
30
0
41
1
10
12.3919618918372
20
4.84848495446963
30
0
41
1
10
12.7794337531969
20
4.78734725268222
30
0
41
1
10
13.1665846985514
20
4.71419590604859
30
0
41
1
10
13.5534291731261
20
4.62916484707787
30
0
41
1
10
13.9399799264813
20
4.53252176962931
30
0
41
1
10
14.3262413649721
20
4.42453563383103
30
0
41
1
10
14.7122291640547
20
4.30556046823608
30
0
41
1
10
15.0979542388794
20
4.17583552759686
30
0
41
1
10
15.4834203072981
20
4.03568173107601
30
0
41
1
10
15.8686146857068
20
3.88554638041953
30
0
41
1
10
16.2535453059642
20
3.72584315754926
30
0
41
1
10
16.638209866337
20
3.55693614835116
30
0
41
1
10
17.0226314984472
20
3.37921706735546
30
0
41
1
10
17.406814517528
20
3.19321915721568
30
0
41
1
10
17.7907858750354
20
2.99941516509736
30
0
41
1
10
18.1745606615066
20
2.79824241708553
30
0
41
1
10
18.6860469387607
20
2.52081487488525
30
0
41
1
10
19.1972688313145
20
2.23072972397389
30
0
41
1
10
19.7083689926429
20
1.93001886398994
30
0
41
1
10
20.0916630644288
20
1.69969878973666
30
0
41
1
10
20.4749553009559
20
1.46514692173588
30
0
41
1
10
20.9860467686562
20
1.14766114817326
30
0
41
1
10
21.497273643954
20
0.823901445707719
30
0
41
1
10
22.0087233348151
20
0.496358027052111
30
0
41
1
10
22.5203623666057
20
0.167058693358058
30
0
41
1
10
23.0323385647415
20
-0.163720646329807
30
0
41
1
10
23.5446996604319
20
-0.493501805185474
30
0
41
1
10
24.0573426642402
20
-0.821844911568519
30
0
41
1
10
24.5704376290442
20
-1.14677545589916
30
0
41
1
10
25.0840385530654
20
-1.46586934102291
30
0
41
1
10
25.5980098163669
20
-1.78034654390183
30
0
41
1
10
26.1125260188444
20
-2.0865500722193
30
0
41
1
10
26.6274057682626
20
-2.38210485332635
30
0
41
1
10
27.1424820213879
20
-2.66987105985234
30
0
41
1
10
27.6577678006273
20
-2.9445530271102
30
0
41
1
10
28.1730864176517
20
-3.20411401321598
30
0
41
1
10
28.5595575471133
20
-3.39076637207347
30
0
41
1
10
28.9459638471939
20
-3.56877553782167
30
0
41
1
10
29.3322541850712
20
-3.73770637006217
30
0
41
1
10
29.7183642821669
20
-3.8972043813533
30
0
41
1
10
30.2328746750969
20
-4.09680175546072
30
0
41
1
10
30.7468302597677
20
-4.27568382427768
30
0
41
1
10
31.2600015098122
20
-4.43284257220662
30
0
41
1
10
31.7725531932119
20
-4.57519902020707
30
0
41
1
10
32.6682624917484
20
-4.7840724643971
30
0
41
1
10
33.6915952604073
20
-4.92882919418972
30
0
41
1
10
34.7198460468584
20
-4.97557243127687
30
0
41
1
10
35.4947112893042
20
-4.96034376434633
30
0
41
1
10
36.2180457461876
20
-4.8991873481985
30
0
41
1
10
36.684761293507
20
-4.83285120285242
30
0
41
1
10
36.8903929207834
20
-4.79848064734949
30
0
0
SPLINE
5
12A
100
AcDbEntity
8
1
62
256
6
ByLayer
370
18
48
1
60
0
100
AcDbSpline
70
4
71
3
72
8
73
4
40
0
40
0
40
0
40
0
40
1
40
1
40
1
40
1
41
1
10
10.6989930957814
20
4.98687869466522
30
0
41
0.999999989404398
10
10.6997964859093
20
4.98658349731342
30
0
41
0.999999989404398
10
10.7005998989757
20
4.98628846497029
30
0
41
1
10
10.701403334955
20
4.98599359764521
30
0
0
SPLINE
5
12B
100
AcDbEntity
8
1
62
256
6
ByLayer
370
18
48
1
60
0
100
AcDbSpline
70
4
71
3
72
9
73
5
40
0
40
0
40
0
40
0
40
0.49966371173731
40
1
40
1
40
1
40
1
41
1
10
10.691886104751
20
-1.61243751909316
30
0
41
1
10
10.698269847911
20
-1.6036733137569
30
0
41
1
10
10.7110459271219
20
-1.58613310595234
30
0
41
1
10
10.7238660134463
20
-1.56867799442006
30
0
41
1
10
10.730280367853
20
-1.55994456870479
30
0
0
SPLINE
5
12C
100
AcDbEntity
8
1
62
256
6
ByLayer
370
18
48
1
60
0
100
AcDbSpline
70
4
71
3
72
35
73
31
40
0
40
0
40
0
40
0
40
0.0134762871291926
40
0.0525387472260143
40
0.0916012073228361
40
0.111132437371247
40
0.130663667419658
40
0.16972612751648
40
0.208788587613301
40
0.247851047710123
40
0.286913507806945
40
0.325975967903766
40
0.365038428000588
40
0.40410088809741
40
0.443163348194231
40
0.482225808291053
40
0.521288268387875
40
0.560350728484697
40
0.599413188581518
40
0.63847564867834
40
0.677538108775162
40
0.716600568871984
40
0.755663028968805
40
0.794725489065627
40
0.833787949162449
40
0.87285040925927
40
0.911912869356092
40
0.950975329452914
40
0.990037789549736
40
1
40
1
40
1
40
1
41
1
10
10.7302803596673
20
-1.55994456326039
30
0
41
1
10
10.7749460155415
20
-1.58965209451745
30
0
41
1
10
10.9490703112775
20
-1.70510808111342
30
0
41
1
10
11.2525626325363
20
-1.90379359499011
30
0
41
1
10
11.5758481902953
20
-2.11077276919872
30
0
41
1
10
11.8342361340868
20
-2.27298940585007
30
0
41
1
10
12.0924573423184
20
-2.4329202925984
30
0
41
1
10
12.4149375939255
20
-2.62820083540359
30
0
41
1
10
12.8014551772917
20
-2.85459631955433
30
0
41
1
10
13.1875430049708
20
-3.07239165261762
30
0
41
1
10
13.5732206109516
20
-3.28094485190286
30
0
41
1
10
13.9585097861722
20
-3.47976448156388
30
0
41
1
10
14.3434250206968
20
-3.66829791930388
30
0
41
1
10
14.7279909092532
20
-3.84601071966267
30
0
41
1
10
15.112221010867
20
-4.01240118133211
30
0
41
1
10
15.4961202730071
20
-4.1670398082893
30
0
41
1
10
15.8796788858027
20
-4.30958178127617
30
0
41
1
10
16.262904639977
20
-4.43954681888786
30
0
41
1
10
16.645790601721
20
-4.55661938385111
30
0
41
1
10
17.0283741864232
20
-4.66050110002308
30
0
41
1
10
17.41067739806
20
-4.75101731303334
30
0
41
1
10
17.7927382635379
20
-4.82782015184998
30
0
41
1
10
18.174581221786
20
-4.89077429426791
30
0
41
1
10
18.5562538034398
20
-4.93971179392645
30
0
41
1
10
18.9377914220632
20
-4.97460689370712
30
0
41
1
10
19.3192406003431
20
-4.99523723488588
30
0
41
1
10
19.7006390259919
20
-5.00162213381938
30
0
41
1
10
20.0820299418683
20
-4.99373232357121
30
0
41
1
10
20.3687346331327
20
-4.977121608343
30
0
41
1
10
20.5283175445479
20
-4.96415568148475
30
0
41
1
10
20.5607469482972
20
-4.96136731425065
30
0
0
SPLINE
5
12D
100
AcDbEntity
8
1
62
256
6
ByLayer
370
18
48
1
60
0
100
AcDbSpline
70
4
71
3
72
10
73
6
40
0
40
0
40
0
40
0
40
0.5
40
0.5
40
1
40
1
40
1
40
1
41
1
10
10.6989930957867
20
4.98687869466289
30
0
41
1
10
10.7013847782426
20
4.99070325951348
30
0
41
1
10
10.7082978114914
20
4.99365023727589
30
0
41
1
10
10.7309913253033
20
4.99789610825681
30
0
41
1
10
10.7466974417536
20
4.9991722354859
30
0
41
1
10
10.7663259835847
20
4.99970529492705
30
0
0
SPLINE
5
12E
100
AcDbEntity
8
1
62
256
6
ByLayer
370
18
48
1
60
0
100
AcDbSpline
70
4
71
3
72
8
73
4
40
0
40
0
40
0
40
0
40
1
40
1
40
1
40
1
41
1
10
10.7663259913422
20
4.9997052948768
30
0
41
1
10
10.7617848283524
20
4.99989491002128
30
0
41
1
10
10.7575718759768
20
4.99999345608055
30
0
41
1
10
10.7536902647956
20
5.00000001198302
30
0
0
SPLINE
5
12F
100
AcDbEntity
8
1
62
256
6
ByLayer
370
18
48
1
60
0
100
AcDbSpline
70
4
71
3
72
28
73
24
40
0
40
0
40
0
40
0
40
0.249999999999996
40
0.249999999999996
40
0.375000000000013
40
0.375000000000013
40
0.437500000000005
40
0.437500000000005
40
0.499999999999998
40
0.499999999999998
40
0.56249999999999
40
0.56249999999999
40
0.624999999999982
40
0.624999999999982
40
0.687499999999974
40
0.687499999999974
40
0.749999999999966
40
0.749999999999966
40
0.812499999999958
40
0.812499999999958
40
0.87499999999995
40
0.87499999999995
40
1
40
1
40
1
40
1
41
1
10
8.41631004077001
20
-4.99175097621315
30
0
41
1
10
8.3995262403314
20
-4.99065114835409
30
0
41
1
10
8.38352060817141
20
-4.98941023847974
30
0
41
1
10
8.36174082695396
20
-4.98724119228109
30
0
41
1
10
8.35483856408115
20
-4.98646383585893
30
0
41
1
10
8.34547709471764
20
-4.9852000735055
30
0
41
1
10
8.34252737080146
20
-4.98476296639933
30
0
41
1
10
8.33708339582986
20
-4.98385043424929
30
0
41
1
10
8.334582068526
20
-4.98337352274945
30
0
41
1
10
8.33028205615912
20
-4.98238419384836
30
0
41
1
10
8.32847242871046
20
-4.98187107989881
30
0
41
1
10
8.32586817689062
20
-4.98079754292576
30
0
41
1
10
8.3250715434055
20
-4.98023105485302
30
0
41
1
10
8.32515974351736
20
-4.97908195451544
30
0
41
1
10
8.32607745941075
20
-4.97848652043044
30
0
41
1
10
8.330183276741
20
-4.97736165915296
30
0
41
1
10
8.33347770362462
20
-4.97681701643427
30
0
41
1
10
8.34192177685392
20
-4.97589294802543
30
0
41
1
10
8.34712333912802
20
-4.97550192712237
30
0
41
1
10
8.3582018236726
20
-4.97488265068935
30
0
41
1
10
8.36421599762377
20
-4.97464294159636
30
0
41
1
10
8.38250387989194
20
-4.97409168586245
30
0
41
1
10
8.39514713058085
20
-4.97393012122453
30
0
41
1
10
8.40790388268638
20
-4.97386983574069
30
0
0
SPLINE
5
130
100
AcDbEntity
8
1
62
256
6
ByLayer
370
18
48
1
60
0
100
AcDbSpline
70
4
71
3
72
47
73
43
40
0
40
0
40
0
40
0
40
0.0624999999999951
40
0.0624999999999951
40
0.12499999999999
40
0.12499999999999
40
0.156249999999988
40
0.156249999999988
40
0.187499999999985
40
0.187499999999985
40
0.249999999999973
40
0.249999999999973
40
0.26562499999997
40
0.26562499999997
40
0.281249999999966
40
0.281249999999966
40
0.312499999999967
40
0.343749999999967
40
0.343749999999967
40
0.374999999999967
40
0.374999999999967
40
0.437499999999968
40
0.437499999999968
40
0.46874999999997
40
0.46874999999997
40
0.499999999999971
40
0.499999999999971
40
0.562499999999975
40
0.562499999999975
40
0.593749999999977
40
0.593749999999977
40
0.624999999999978
40
0.624999999999978
40
0.687499999999981
40
0.687499999999981
40
0.749999999999984
40
0.749999999999984
40
0.874999999999991
40
0.874999999999991
40
0.937499999999996
40
0.937499999999996
40
1
40
1
40
1
40
1
41
1
10
8.40790388268624
20
-4.97386983574069
30
0
41
1
10
8.45829902236736
20
-4.97363167987197
30
0
41
1
10
8.50843655827723
20
-4.97320842362743
30
0
41
1
10
8.60804439678736
20
-4.971848878571
30
0
41
1
10
8.65751631617871
20
-4.97091544725654
30
0
41
1
10
8.73105020019588
20
-4.96893456262833
30
0
41
1
10
8.75541336052709
20
-4.96817616608149
30
0
41
1
10
8.80321845526112
20
-4.96643800624386
30
0
41
1
10
8.82673501177538
20
-4.96545648137035
30
0
41
1
10
8.89598379814359
20
-4.96209799297498
30
0
41
1
10
8.94042660691304
20
-4.95931828017197
30
0
41
1
10
8.99320756663624
20
-4.95478027940854
30
0
41
1
10
9.00362423563183
20
-4.95381863749296
30
0
41
1
10
9.02415906480167
20
-4.95177357673583
30
0
41
1
10
9.03424542862751
20
-4.95069270403764
30
0
41
1
10
9.06362368004784
20
-4.94729691073005
30
0
41
1
10
9.10070176166636
20
-4.94233618215904
30
0
41
1
10
9.13356703292055
20
-4.93638506204448
30
0
41
1
10
9.16432014777152
20
-4.92987007145001
30
0
41
1
10
9.17870739130228
20
-4.92630715778859
30
0
41
1
10
9.2179099819829
20
-4.91491483635861
30
0
41
1
10
9.23903437870368
20
-4.90635445418584
30
0
41
1
10
9.26462157732615
20
-4.89193490617757
30
0
41
1
10
9.27214659538126
20
-4.88684545799282
30
0
41
1
10
9.28515869939582
20
-4.87628982374997
30
0
41
1
10
9.290679783445
20
-4.8708103479263
30
0
41
1
10
9.30471758535589
20
-4.85376463028643
30
0
41
1
10
9.31072986843753
20
-4.84159124450431
30
0
41
1
10
9.3159178848434
20
-4.82210455553269
30
0
41
1
10
9.31700277682501
20
-4.81540451932912
30
0
41
1
10
9.31802419097167
20
-4.80159301013987
30
0
41
1
10
9.3179576947856
20
-4.79447058429085
30
0
41
1
10
9.31623232878161
20
-4.77267417198942
30
0
41
1
10
9.31307061783806
20
-4.75751703090089
30
0
41
1
10
9.30360740428344
20
-4.72596159617575
30
0
41
1
10
9.29730008055535
20
-4.7095633317287
30
0
41
1
10
9.27450184440187
20
-4.65852168758244
30
0
41
1
10
9.25418486979953
20
-4.6220325022245
30
0
41
1
10
9.21792776832589
20
-4.56364823086642
30
0
41
1
10
9.20485077538621
20
-4.54356195103546
30
0
41
1
10
9.17705635834017
20
-4.5023807506071
30
0
41
1
10
9.16232575156744
20
-4.48126430690948
30
0
41
1
10
9.14683331905351
20
-4.45963070123403
30
0
0
SPLINE
5
131
100
AcDbEntity
8
1
62
256
6
ByLayer
370
18
48
1
60
0
100
AcDbSpline
70
4
71
3
72
10
73
6
40
0
40
0
40
0
40
0
40
0.5
40
0.5
40
1
40
1
40
1
40
1
41
1
10
9.1468333190524
20
-4.45963070123528
30
0
41
1
10
8.9295039359985
20
-4.38047150584919
30
0
41
1
10
8.71116298182721
20
-4.29410125439367
30
0
41
1
10
8.26927478800658
20
-4.11049643102882
30
0
41
1
10
8.04572379092156
20
-4.01326195899054
30
0
41
1
10
7.81793607092618
20
-3.91286818249046
30
0
0
SPLINE
5
132
100
AcDbEntity
8
1
62
256
6
ByLayer
370
18
48
1
60
0
100
AcDbSpline
70
4
71
3
72
38
73
34
40
0
40
0
40
0
40
0
40
0.124999999999999
40
0.124999999999999
40
0.249999999999997
40
0.249999999999997
40
0.374999999999995
40
0.374999999999995
40
0.437499999999999
40
0.437499999999999
40
0.500000000000003
40
0.500000000000003
40
0.562500000000007
40
0.562500000000007
40
0.593750000000006
40
0.593750000000006
40
0.625000000000005
40
0.625000000000005
40
0.687500000000003
40
0.687500000000003
40
0.75
40
0.75
40
0.812499999999998
40
0.812499999999998
40
0.843749999999997
40
0.843749999999997
40
0.874999999999997
40
0.874999999999997
40
0.937499999999995
40
0.937499999999995
40
0.968749999999997
40
0.968749999999997
40
1
40
1
40
1
40
1
41
1
10
7.81793607092621
20
-3.91286818249043
30
0
41
1
10
7.77133828623835
20
-3.89233095782595
30
0
41
1
10
7.72598145100812
20
-3.87071209421464
30
0
41
1
10
7.63816694633218
20
-3.82489091414536
30
0
41
1
10
7.59570399425775
20
-3.80069335309483
30
0
41
1
10
7.51435739308621
20
-3.74906224093235
30
0
41
1
10
7.47546062125818
20
-3.72164036949007
30
0
41
1
10
7.4206982169616
20
-3.67724601347018
30
0
41
1
10
7.40299382899084
20
-3.6618460413454
30
0
41
1
10
7.36941613725131
20
-3.63009164609537
30
0
41
1
10
7.35351796964423
20
-3.6137256758112
30
0
41
1
10
7.32380777042204
20
-3.579851248034
30
0
41
1
10
7.30999357359423
20
-3.56234389747669
30
0
41
1
10
7.29116130882829
20
-3.53505297571914
30
0
41
1
10
7.28518861108412
20
-3.52576164332925
30
0
41
1
10
7.2740587820677
20
-3.50699239148403
30
0
41
1
10
7.26888878230875
20
-3.49749869577229
30
0
41
1
10
7.25464654901612
20
-3.4686697601239
30
0
41
1
10
7.24683524347159
20
-3.44898821822392
30
0
41
1
10
7.23515776830584
20
-3.40855990158747
30
0
41
1
10
7.23128392945952
20
-3.38777376199414
30
0
41
1
10
7.22834030012493
20
-3.34510063560882
30
0
41
1
10
7.22931244067485
20
-3.32379489667085
30
0
41
1
10
7.23460191440677
20
-3.29190984474854
30
0
41
1
10
7.23700456002527
20
-3.28129383256314
30
0
41
1
10
7.24312940581484
20
-3.26009216030002
30
0
41
1
10
7.24687672237911
20
-3.24945139599802
30
0
41
1
10
7.25996027964678
20
-3.21806704115656
30
0
41
1
10
7.27108852415813
20
-3.19787376367282
30
0
41
1
10
7.29107776802087
20
-3.16861416328317
30
0
41
1
10
7.29829177336291
20
-3.15903309946282
30
0
41
1
10
7.31378501040879
20
-3.14020906705284
30
0
41
1
10
7.32207640403738
20
-3.13095690585033
30
0
41
1
10
7.3307996832784
20
-3.12195494130876
30
0
0
SPLINE
5
133
100
AcDbEntity
8
1
62
256
6
ByLayer
370
18
48
1
60
0
100
AcDbSpline
70
4
71
3
72
38
73
34
40
0
40
0
40
0
40
0
40
0.0312500000000027
40
0.0312500000000027
40
0.0625000000000054
40
0.0625000000000054
40
0.125000000000008
40
0.125000000000008
40
0.156250000000009
40
0.156250000000009
40
0.18750000000001
40
0.18750000000001
40
0.250000000000008
40
0.250000000000008
40
0.312500000000006
40
0.312500000000006
40
0.375000000000004
40
0.375000000000004
40
0.437500000000002
40
0.437500000000002
40
0.5
40
0.5
40
0.562499999999999
40
0.562499999999999
40
0.624999999999997
40
0.624999999999997
40
0.749999999999993
40
0.749999999999993
40
0.812499999999994
40
0.812499999999994
40
0.874999999999994
40
0.874999999999994
40
1
40
1
40
1
40
1
41
1
10
7.33079968327837
20
-3.12195494130876
30
0
41
1
10
7.35908022662971
20
-3.09277091069004
30
0
41
1
10
7.38895639576987
20
-3.06477785393227
30
0
41
1
10
7.45138302401216
20
-3.01083317724522
30
0
41
1
10
7.48393563263602
20
-2.98488298011307
30
0
41
1
10
7.5850539515198
20
-2.90973400735507
30
0
41
1
10
7.6570513219545
20
-2.86321724834778
30
0
41
1
10
7.77047447578576
20
-2.7978818461215
30
0
41
1
10
7.80919527026873
20
-2.77684913112012
30
0
41
1
10
7.88830071770127
20
-2.73617366982233
30
0
41
1
10
7.92840795205512
20
-2.7166748278309
30
0
41
1
10
8.04984680922752
20
-2.660604292149
30
0
41
1
10
8.13244837614081
20
-2.62636058180542
30
0
41
1
10
8.3003238825068
20
-2.56313513529426
30
0
41
1
10
8.38560235432058
20
-2.53416101646823
30
0
41
1
10
8.55846358764799
20
-2.48087847898518
30
0
41
1
10
8.64604853055903
20
-2.45657373622194
30
0
41
1
10
8.82328829298541
20
-2.41226280086929
30
0
41
1
10
8.91309911577474
20
-2.3922341295804
30
0
41
1
10
9.0932592449559
20
-2.35650939666596
30
0
41
1
10
9.18373980973468
20
-2.34077391178678
30
0
41
1
10
9.3654413083101
20
-2.31329699207905
30
0
41
1
10
9.45666250369371
20
-2.30155675579775
30
0
41
1
10
9.63980825158808
20
-2.2819163930933
30
0
41
1
10
9.73178990278444
20
-2.27401343252626
30
0
41
1
10
10.0083858790896
20
-2.25596829201328
30
0
41
1
10
10.1928650260236
20
-2.25150833186265
30
0
41
1
10
10.4697009226651
20
-2.25570915996224
30
0
41
1
10
10.5620378678241
20
-2.25893286321104
30
0
41
1
10
10.7465854656411
20
-2.26899332571617
30
0
41
1
10
10.8386060133501
20
-2.27581838745803
30
0
41
1
10
11.1139149302959
20
-2.30158987719776
30
0
41
1
10
11.2964519396997
20
-2.32582969940475
30
0
41
1
10
11.4779826294675
20
-2.3569752431749
30
0
0
SPLINE
5
134
100
AcDbEntity
8
1
62
256
6
ByLayer
370
18
48
1
60
0
100
AcDbSpline
70
4
71
3
72
16
73
12
40
0
40
0
40
0
40
0
40
0.250000000000003
40
0.250000000000003
40
0.500000000000005
40
0.500000000000005
40
0.750000000000008
40
0.750000000000008
40
0.875000000000004
40
0.875000000000004
40
1
40
1
40
1
40
1
41
1
10
10.6918831206864
20
-1.61244162156035
30
0
41
1
10
10.8004885776287
20
-1.68494906404808
30
0
41
1
10
10.9092023710681
20
-1.75667383594509
30
0
41
1
10
11.1270458866154
20
-1.89831570754677
30
0
41
1
10
11.2361671796433
20
-1.96824581259421
30
0
41
1
10
11.4545525123945
20
-2.1066772247317
30
0
41
1
10
11.5637840809306
20
-2.17522287906684
30
0
41
1
10
11.7271520387022
20
-2.2777093213042
30
0
41
1
10
11.7815635039516
20
-2.31176915242241
30
0
41
1
10
11.8906622778033
20
-2.37921840311517
30
0
41
1
10
11.9453556055349
20
-2.4126156956589
30
0
41
1
10
12.0000000000001
20
-2.44585213800201
30
0
0
SPLINE
5
135
100
AcDbEntity
8
1
62
256
6
ByLayer
370
18
48
1
60
0
100
AcDbSpline
70
4
71
3
72
8
73
4
40
0
40
0
40
0
40
0
40
1
40
1
40
1
40
1
41
1
10
10.6918885221547
20
-1.61243310238365
30
0
41
1
10
10.7032303438554
20
-1.59412595657267
30
0
41
1
10
10.7153101643883
20
-1.57622977168793
30
0
41
1
10
10.7280849320334
20
-1.55872338636345
30
0
0
SPLINE
5
136
100
AcDbEntity
8
1
62
256
6
ByLayer
370
18
48
1
60
0
100
AcDbSpline
70
4
71
3
72
10
73
6
40
0
40
0
40
0
40
0
40
0.5
40
0.5
40
1
40
1
40
1
40
1
41
1
10
10.7280849238665
20
-1.55872338111951
30
0
41
1
10
10.7327336037714
20
-1.50999799410511
30
0
41
1
10
10.7416119317752
20
-1.46172438857701
30
0
41
1
10
10.7676827316576
20
-1.36617626884927
30
0
41
1
10
10.7847900791918
20
-1.31930264018231
30
0
41
1
10
10.8055670753073
20
-1.27374784978008
30
0
0
SPLINE
5
137
100
AcDbEntity
8
1
62
256
6
ByLayer
370
18
48
1
60
0
100
AcDbSpline
70
4
71
3
72
14
73
10
40
0
40
0
40
0
40
0
40
0.500000000000002
40
0.500000000000002
40
0.625000000000003
40
0.625000000000003
40
0.750000000000004
40
0.750000000000004
40
1
40
1
40
1
40
1
41
1
10
10.8055670809469
20
-1.27374785326737
30
0
41
1
10
10.781410683703
20
-1.16577610549132
30
0
41
1
10
10.7704898549576
20
-1.0563832472985
30
0
41
1
10
10.7744543488846
20
-0.91778044031247
30
0
41
1
10
10.7761344492961
20
-0.88996641394391
30
0
41
1
10
10.781323888752
20
-0.834147643535772
30
0
41
1
10
10.7848495715172
20
-0.806081136211247
30
0
41
1
10
10.798032117467
20
-0.722861056996862
30
0
41
1
10
10.8103079021341
20
-0.668295646370098
30
0
41
1
10
10.8259073834844
20
-0.614608893047517
30
0
0
SPLINE
5
138
100
AcDbEntity
8
1
62
256
6
ByLayer
370
18
48
1
60
0
100
AcDbSpline
70
4
71
3
72
8
73
4
40
0
40
0
40
0
40
0
40
1
40
1
40
1
40
1
41
1
10
10.664305279618
20
4.98228938912996
30
0
41
1
10
10.6751022746932
20
4.98397155130306
30
0
41
1
10
10.6866809518531
20
4.98549533635429
30
0
41
1
10
10.6989930957825
20
4.98687869466514
30
0
0
SPLINE
5
139
100
AcDbEntity
8
1
62
256
6
ByLayer
370
18
48
1
60
0
100
AcDbSpline
70
4
71
3
72
8
73
4
40
0
40
0
40
0
40
0
40
1
40
1
40
1
40
1
41
1
10
41.9198880819
20
-2.52901705020457
30
0
41
1
10
41.9465852182336
20
-2.5303880867462
30
0
41
1
10
41.9732892137582
20
-2.5318028208913
30
0
41
1
10
42
20
-2.5332607936673
30
0
0
SPLINE
5
13A
100
AcDbEntity
8
1
62
256
6
ByLayer
370
18
48
1
60
0
100
AcDbSpline
70
4
71
3
72
57
73
53
40
0
40
0
40
0
40
0
40
0.0057653095682746
40
0.0383549319736636
40
0.0546497431763581
40
0.0709445543790526
40
0.0872393655817471
40
0.103534176784442
40
0.119828987987136
40
0.136123799189831
40
0.152418610392525
40
0.16871342159522
40
0.185008232797914
40
0.201303044000609
40
0.217597855203303
40
0.233892666405998
40
0.250187477608692
40
0.266482288811387
40
0.282777100014081
40
0.299071911216776
40
0.31536672241947
40
0.331661533622165
40
0.364251156027554
40
0.380545967230248
40
0.396840778432943
40
0.413135589635637
40
0.429430400838332
40
0.462020023243721
40
0.478314834446415
40
0.49460964564911
40
0.527199268054499
40
0.543494079257193
40
0.559788890459888
40
0.592378512865277
40
0.608673324067971
40
0.624968135270666
40
0.657557757676055
40
0.673852568878749
40
0.690147380081444
40
0.722737002486833
40
0.739031813689527
40
0.755326624892222
40
0.771621436094916
40
0.787916247297611
40
0.804211058500305
40
0.820505869703
40
0.853095492108389
40
0.869390303311083
40
0.885685114513778
40
0.918274736919167
40
0.983453981729945
40
1
40
1
40
1
40
1
41
1
10
10.7014033349539
20
4.98599359764506
30
0
41
1
10
10.74725898574
20
4.983825301557
30
0
41
1
10
11.0523129489676
20
4.96763772921352
30
0
41
1
10
11.4868183179134
20
4.92792693633066
30
0
41
1
10
12.0043614497608
20
4.85562522133793
30
0
41
1
10
12.392168524073
20
4.78909559907837
30
0
41
1
10
12.7796400347636
20
4.71052009279714
30
0
41
1
10
13.1667926552461
20
4.62010542276275
30
0
41
1
10
13.553637734493
20
4.51805553154284
30
0
41
1
10
13.9401867052336
20
4.40472105652566
30
0
41
1
10
14.3264489304295
20
4.28038904215373
30
0
41
1
10
14.7124385477184
20
4.14539468858646
30
0
41
1
10
15.0981635341229
20
4.00005948151417
30
0
41
1
10
15.4836266287476
20
3.84479574271541
30
0
41
1
10
15.8688220398433
20
3.68003648574603
30
0
41
1
10
16.2537544874404
20
3.50619096791294
30
0
41
1
10
16.6384191144724
20
3.32369968579491
30
0
41
1
10
17.0228378571146
20
3.13302944258413
30
0
41
1
10
17.40702204621
20
2.93469451642986
30
0
41
1
10
17.7909946594463
20
2.72916874227627
30
0
41
1
10
18.1747692582001
20
2.51695867201289
30
0
41
1
10
18.6862537174404
20
2.22579345653759
30
0
41
1
10
19.197478503425
20
1.92339084172741
30
0
41
1
10
19.7085771657155
20
1.61189947361251
30
0
41
1
10
20.0918700321977
20
1.37430333419115
30
0
41
1
10
20.4751625641517
20
1.13329139968184
30
0
41
1
10
20.9862568782457
20
0.80822152684533
30
0
41
1
10
21.4974803563204
20
0.478610600289926
30
0
41
1
10
22.008932054009
20
0.146911180367624
30
0
41
1
10
22.5205717582169
20
-0.185398854473277
30
0
41
1
10
23.0325455568911
20
-0.517422676769684
30
0
41
1
10
23.5449087038209
20
-0.846705056152814
30
0
41
1
10
24.0575504717682
20
-1.17336172190593
30
0
41
1
10
24.5706441503151
20
-1.49485142916507
30
0
41
1
10
25.0842484690542
20
-1.80878106575375
30
0
41
1
10
25.5982192721243
20
-2.11690273483674
30
0
41
1
10
26.1127331494524
20
-2.41508783355988
30
0
41
1
10
26.6276154988371
20
-2.70099039586285
30
0
41
1
10
27.1426897891665
20
-2.9779552493348
30
0
41
1
10
27.6579728607903
20
-3.24034227846187
30
0
41
1
10
28.1732960735977
20
-3.4861280242896
30
0
41
1
10
28.5597692401037
20
-3.66167029555027
30
0
41
1
10
28.9461743842883
20
-3.82794112059071
30
0
41
1
10
29.3324618979668
20
-3.98452115663375
30
0
41
1
10
29.7185729226367
20
-4.13103992569964
30
0
41
1
10
30.2330838812354
20
-4.31245928429331
30
0
41
1
10
30.7470335919077
20
-4.47222088834946
30
0
41
1
10
31.2602086178372
20
-4.60926733438785
30
0
41
1
10
31.7727649937374
20
-4.73081623966485
30
0
41
1
10
32.6684643821826
20
-4.90211388203019
30
0
41
1
10
33.5658794399376
20
-4.98934428254296
30
0
41
1
10
34.2099973796516
20
-4.99942043357254
30
0
41
1
10
34.3405371803961
20
-4.99930194618071
30
0
0
SPLINE
5
13B
100
AcDbEntity
8
1
62
256
6
ByLayer
370
18
48
1
60
0
100
AcDbSpline
70
4
71
3
72
9
73
5
40
0
40
0
40
0
40
0
40
0.499689491389585
40
1
40
1
40
1
40
1
41
1
10
10.6643008728973
20
4.98228874303763
30
0
41
1
10
10.6704712180091
20
4.98286479451161
30
0
41
1
10
10.6828195767762
20
4.98401761337996
30
0
41
1
10
10.6952061847968
20
4.98533466358637
30
0
41
1
10
10.7014033349555
20
4.98599359764501
30
0
0
SPLINE
5
13C
100
AcDbEntity
8
1
62
256
6
ByLayer
370
18
48
1
60
0
100
AcDbSpline
70
4
71
3
72
14
73
10
40
0
40
0
40
0
40
0
40
0.25
40
0.25
40
0.5
40
0.5
40
0.75
40
0.75
40
1
40
1
40
1
40
1
41
1
10
12.0000000000001
20
4.83528344628962
30
0
41
1
10
11.8886684272585
20
4.85374214976895
30
0
41
1
10
11.7773226094131
20
4.87065311951196
30
0
41
1
10
11.5545638120984
20
4.90130685977442
30
0
41
1
10
11.4430848496491
20
4.91504802057182
30
0
41
1
10
11.2202436498163
20
4.93948789011276
30
0
41
1
10
11.1088880603773
20
4.95018620362507
30
0
41
1
10
10.8864315350179
20
4.96853990780039
30
0
41
1
10
10.7753382106044
20
4.97619369597172
30
0
41
1
10
10.6643009599412
20
4.98228875099809
30
0
0
SPLINE
5
13D
100
AcDbEntity
8
1
62
256
6
ByLayer
370
18
48
1
60
0
100
AcDbSpline
70
4
71
3
72
83
73
79
40
0
40
0
40
0
40
0
40
0.022914989837096
40
0.022914989837096
40
0.0345469542437946
40
0.0345469542437946
40
0.0461789186504932
40
0.0461789186504932
40
0.0694428474638903
40
0.0694428474638903
40
0.115970705090686
40
0.115970705090686
40
0.127602669497385
40
0.127602669497385
40
0.139234633904085
40
0.139234633904085
40
0.162498562717483
40
0.162498562717483
40
0.20902642034428
40
0.20902642034428
40
0.22065838475098
40
0.22065838475098
40
0.232290349157679
40
0.232290349157679
40
0.255554277971077
40
0.255554277971077
40
0.302082135597875
40
0.302082135597875
40
0.313714100004574
40
0.313714100004574
40
0.325346064411274
40
0.325346064411274
40
0.348609993224673
40
0.348609993224673
40
0.395137850851473
40
0.395137850851473
40
0.418401779664873
40
0.418401779664873
40
0.441665708478273
40
0.441665708478273
40
0.488193566105074
40
0.488193566105074
40
0.499825530511775
40
0.499825530511775
40
0.511457494918477
40
0.534721423731881
40
0.534721423731881
40
0.581249281358689
40
0.581249281358689
40
0.592881245765391
40
0.592881245765391
40
0.604513210172093
40
0.627777138985496
40
0.627777138985496
40
0.674304996612306
40
0.674304996612306
40
0.685936961019009
40
0.685936961019009
40
0.697568925425712
40
0.720832854239118
40
0.720832854239118
40
0.767360711865928
40
0.767360711865928
40
0.778992676272632
40
0.778992676272632
40
0.790624640679336
40
0.813888569492743
40
0.813888569492743
40
0.860416427119558
40
0.860416427119558
40
0.872048391526261
40
0.872048391526261
40
0.883680355932964
40
0.906944284746371
40
0.906944284746371
40
0.953472142373185
40
0.953472142373185
40
1
40
1
40
1
40
1
41
1
10
21.7877026399309
20
3.04170972483561
30
0
41
1
10
21.9404203179365
20
3.13308265268424
30
0
41
1
10
22.0931765425474
20
3.22204451853119
30
0
41
1
10
22.3237382293381
20
3.35230114972154
30
0
41
1
10
22.4014134558564
20
3.39549724922637
30
0
41
1
10
22.5568883183112
20
3.48052988928831
30
0
41
1
10
22.6347267999196
20
3.52238694287112
30
0
41
1
10
22.8679832839044
20
3.64561005557474
30
0
41
1
10
23.0232560769814
20
3.72469372839808
30
0
41
1
10
23.4887525576582
20
3.95248928791204
30
0
41
1
10
23.7986315774932
20
4.09176905850885
30
0
41
1
10
24.1867907168711
20
4.24890435808362
30
0
41
1
10
24.2644634999446
20
4.27948422775742
30
0
41
1
10
24.4199269516474
20
4.33891984235805
30
0
41
1
10
24.4977381589769
20
4.36778189711055
30
0
41
1
10
24.7308664237871
20
4.45154539441367
30
0
41
1
10
24.8860482291582
20
4.50369243262188
30
0
41
1
10
25.3513247631745
20
4.64883305870748
30
0
41
1
10
25.6611595213499
20
4.73048794282144
30
0
41
1
10
26.0494367267853
20
4.81306448666757
30
0
41
1
10
26.1271408205616
20
4.82860568901179
30
0
41
1
10
26.2826804032401
20
4.85772016671763
30
0
41
1
10
26.3605063544466
20
4.87129020913846
30
0
41
1
10
26.5936870904473
20
4.90893604122408
30
0
41
1
10
26.7489255324696
20
4.92998240284669
30
0
41
1
10
27.2143717438049
20
4.98090649154321
30
0
41
1
10
27.5242893360704
20
4.99859172741321
30
0
41
1
10
27.9125564703348
20
5.00023638467769
30
0
41
1
10
27.990254208421
20
4.99953950473292
30
0
41
1
10
28.1457753907472
20
4.9960804084059
30
0
41
1
10
28.2235473379571
20
4.99331798462791
30
0
41
1
10
28.4565888795252
20
4.98195313835146
30
0
41
1
10
28.6117288474791
20
4.97026292332436
30
0
41
1
10
29.0769276470051
20
4.92302748055252
30
0
41
1
10
29.3867625481582
20
4.87538385421101
30
0
41
1
10
29.8527941212894
20
4.77996176386199
30
0
41
1
10
30.0085034736728
20
4.74410843062464
30
0
41
1
10
30.3192902764511
20
4.66479758140511
30
0
41
1
10
30.4744874958957
20
4.62133125373876
30
0
41
1
10
30.9398622202186
20
4.4797950833692
30
0
41
1
10
31.2497949560626
20
4.37058952066306
30
0
41
1
10
31.6381806574789
20
4.2161315032867
30
0
41
1
10
31.7159230384278
20
4.18433525139116
30
0
41
1
10
31.8714765060161
20
4.1189931131756
30
0
41
1
10
32.104598477365
20
4.01848718580595
30
0
41
1
10
32.3372615431583
20
3.91066490392313
30
0
41
1
10
32.8024165778583
20
3.68568008529491
30
0
41
1
10
33.1122945307046
20
3.52324714658417
30
0
41
1
10
33.5008048549848
20
3.30592254309653
30
0
41
1
10
33.5786013685228
20
3.2617213898545
30
0
41
1
10
33.7341692154332
20
3.17201727080513
30
0
41
1
10
33.9673360787352
20
3.0355962588383
30
0
41
1
10
34.2000871648767
20
2.89374996862304
30
0
41
1
10
34.6654143914642
20
2.60326425075135
30
0
41
1
10
34.9753972607319
20
2.40055098988623
30
0
41
1
10
35.3639315508324
20
2.13731609152762
30
0
41
1
10
35.4417367649696
20
2.08414536022093
30
0
41
1
10
35.5972297557354
20
1.97703521694234
30
0
41
1
10
35.8302716104608
20
1.81523448100714
30
0
41
1
10
36.062886682803
20
1.65024250412895
30
0
41
1
10
36.5279929996939
20
1.31657613309986
30
0
41
1
10
36.837904455611
20
1.08923206567118
30
0
41
1
10
37.2265352256245
20
0.800753054435091
30
0
41
1
10
37.3043649601918
20
0.742810521544527
30
0
41
1
10
37.4598644169178
20
0.626776069810859
30
0
41
1
10
37.6929408811775
20
0.452450298569744
30
0
41
1
10
37.9256537880686
20
0.277508472161657
30
0
41
1
10
38.3909749137998
20
-0.0726900643670092
30
0
41
1
10
38.7010264005287
20
-0.306606164741822
30
0
41
1
10
39.089721127901
20
-0.597789381735964
30
0
41
1
10
39.1675508006434
20
-0.655989075768616
30
0
41
1
10
39.3229072704187
20
-0.77187923985494
30
0
41
1
10
39.5556422909425
20
-0.945066759589935
30
0
41
1
10
39.7876434409023
20
-1.11611122530402
30
0
41
1
10
40.2511029462578
20
-1.45480334541824
30
0
41
1
10
40.5593564992899
20
-1.67606339702272
30
0
41
1
10
41.1766814664034
20
-2.10667733026173
30
0
41
1
10
41.4857608234112
20
-2.3160190767727
30
0
41
1
10
41.7962643099124
20
-2.51814837236728
30
0
0
SPLINE
5
13E
100
AcDbEntity
8
1
62
256
6
ByLayer
370
18
48
1
60
0
100
AcDbSpline
70
4
71
3
72
8
73
4
40
0
40
0
40
0
40
0
40
1
40
1
40
1
40
1
41
1
10
41.7962643099136
20
-2.51814837235801
30
0
41
1
10
41.8374706155732
20
-2.52167012619441
30
0
41
1
10
41.8786785423774
20
-2.52529321286141
30
0
41
1
10
41.9198880811171
20
-2.52901705654639
30
0
0
SPLINE
5
13F
100
AcDbEntity
8
1
62
256
6
ByLayer
370
18
48
1
60
0
100
AcDbSpline
70
4
71
3
72
8
73
4
40
0
40
0
40
0
40
0
40
1
40
1
40
1
40
1
41
1
10
27.9829260834897
20
4.99928776757278
30
0
41
1
10
28.0113727294459
20
4.99927214783969
30
0
41
1
10
28.0398189159297
20
4.99911894259958
30
0
41
1
10
28.0682645128489
20
4.99882812335164
30
0
0
SPLINE
5
140
100
AcDbEntity
8
1
62
256
6
ByLayer
370
18
48
1
60
0
100
AcDbSpline
70
4
71
3
72
26
73
22
40
0
40
0
40
0
40
0
40
0.0061128744529765
40
0.0363904657404828
40
0.0666680570279892
40
0.0969456483154961
40
0.157500830890509
40
0.187778422178015
40
0.218056013465522
40
0.278611196040535
40
0.399721561190561
40
0.460276743765574
40
0.520831926340587
40
0.5813871089156
40
0.641942291490613
40
0.702497474065626
40
0.763052656640638
40
0.823607839215652
40
0.884163021790664
40
0.944718204365677
40
1
40
1
40
1
40
1
41
1
10
28.791716423143
20
4.96171341895067
30
0
41
1
10
28.8176025625481
20
4.95932377369982
30
0
41
1
10
28.9716949825406
20
4.94442477342292
30
0
41
1
10
29.2538772947643
20
4.90981030797082
30
0
41
1
10
29.6379536614118
20
4.84629293875659
30
0
41
1
10
30.1493960388131
20
4.74012902765062
30
0
41
1
10
30.6596587316267
20
4.60225782575421
30
0
41
1
10
31.1683782709054
20
4.43475562456197
30
0
41
1
10
31.6759028791946
20
4.24822369780119
30
0
41
1
10
32.5611795302986
20
3.87342200544569
30
0
41
1
10
33.5708220714722
20
3.34217015618575
30
0
41
1
10
34.587040394439
20
2.7235760391076
30
0
41
1
10
35.3546909892987
20
2.21995235440511
30
0
41
1
10
36.1301370244943
20
1.68111920818347
30
0
41
1
10
36.915757522968
20
1.11178035911726
30
0
41
1
10
37.7140883372775
20
0.517349347241094
30
0
41
1
10
38.5277326968878
20
-0.0962327102110123
30
0
41
1
10
39.359406676627
20
-0.72218409100708
30
0
41
1
10
40.2120175931161
20
-1.35227912873313
30
0
41
1
10
41.0638057104447
20
-1.95843699407368
30
0
41
1
10
41.6403639874423
20
-2.34699536047498
30
0
41
1
10
41.9198880826796
20
-2.52901704373824
30
0
0
SPLINE
5
141
100
AcDbEntity
8
1
62
256
6
ByLayer
370
18
48
1
60
0
100
AcDbSpline
70
4
71
2
72
6
73
3
40
0
40
0
40
0
40
1
40
1
40
1
41
1
10
38.8945760799378
20
2.69501854550384
30
0
41
1
10
38.7756473830506
20
2.73951827706651
30
0
41
1
10
38.6556601089151
20
2.78547127742996
30
0
0
SPLINE
5
142
100
AcDbEntity
8
1
62
256
6
ByLayer
370
18
48
1
60
0
100
AcDbSpline
70
4
71
3
72
20
73
16
40
0
40
0
40
0
40
0
40
0.11761315680414
40
0.218746358306259
40
0.306128235296926
40
0.380453867888228
40
0.451585383427576
40
0.540037319828179
40
0.615441357863962
40
0.681057709016044
40
0.741375089184309
40
0.803773508189929
40
0.869019728730135
40
0.946315852109431
40
1
40
1
40
1
40
1
41
1
10
26.8596301693218
20
1.93753136774899
30
0
41
1
10
26.6572613692766
20
1.97563181602791
30
0
41
1
10
26.2766908019479
20
2.0491778266771
30
0
41
1
10
25.7265688165743
20
2.16178256249933
30
0
41
1
10
25.256768381797
20
2.25932146358247
30
0
41
1
10
24.8412524740525
20
2.34868107997988
30
0
41
1
10
24.4385484695181
20
2.43728816778111
30
0
41
1
10
24.0194299591845
20
2.53014097946132
30
0
41
1
10
23.612141885284
20
2.62174441407163
30
0
41
1
10
23.2541681124531
20
2.70297508565059
30
0
41
1
10
22.9186435457639
20
2.77955281483426
30
0
41
1
10
22.5836165234962
20
2.85641263018698
30
0
41
1
10
22.2236002583516
20
2.93679857581961
30
0
41
1
10
21.8709570034436
20
3.01886971535259
30
0
41
1
10
21.6430490226865
20
3.07210340780017
30
0
41
1
10
21.5505411486476
20
3.09379565635268
30
0
0
SPLINE
5
143
100
AcDbEntity
8
1
62
256
6
ByLayer
370
18
48
1
60
0
100
AcDbSpline
70
4
71
3
72
13
73
9
40
0
40
0
40
0
40
0
40
0.192294214987228
40
0.348961125372675
40
0.470232305146516
40
0.556267868674006
40
0.734349782140146
40
1
40
1
40
1
40
1
41
1
10
13.8148644944804
20
0.599052746008113
30
0
41
1
10
13.713428348578
20
0.635217233195391
30
0
41
1
10
13.5292629049113
20
0.703206189146641
30
0
41
1
10
13.2805146246582
20
0.80077197016351
30
0
41
1
10
13.0883527164643
20
0.87960567634596
30
0
41
1
10
12.8836541415215
20
0.966332248095199
30
0
41
1
10
12.6156769314391
20
1.08446850080125
30
0
41
1
10
12.3957395726682
20
1.18622650215636
30
0
41
1
10
12.2671618058799
20
1.24770811177956
30
0
0
SPLINE
5
144
100
AcDbEntity
8
1
62
256
6
ByLayer
370
18
48
1
60
0
100
AcDbSpline
70
4
71
3
72
21
73
17
40
0
40
0
40
0
40
0
40
0.0601724647554186
40
0.143191566056237
40
0.239930875107806
40
0.326138976780126
40
0.397245915218166
40
0.467240006219733
40
0.546534645913976
40
0.614942855934181
40
0.678467975811019
40
0.738366807985982
40
0.797395535024856
40
0.859112643516349
40
0.947251363552327
40
1
40
1
40
1
40
1
41
1
10
22.3282740561361
20
-4.3954285084767
30
0
41
1
10
22.4551866281739
20
-4.39180162798831
30
0
41
1
10
22.752999770599
20
-4.38180602172494
30
0
41
1
10
23.2422775855745
20
-4.3572397360721
30
0
41
1
10
23.7445317041853
20
-4.32813738623861
30
0
41
1
10
24.2364715239094
20
-4.28499615548432
30
0
41
1
10
24.6879330552314
20
-4.23701247242528
30
0
41
1
10
25.130148376244
20
-4.18282470177476
30
0
41
1
10
25.5650518171047
20
-4.12216305916769
30
0
41
1
10
25.9873596950167
20
-4.05655693258251
30
0
41
1
10
26.3709753511627
20
-3.99172480565466
30
0
41
1
10
26.7358550442348
20
-3.92556206219632
30
0
41
1
10
27.0965939745805
20
-3.85599071532357
30
0
41
1
10
27.5132142535254
20
-3.77092443586494
30
0
41
1
10
27.9183062410454
20
-3.68290601156645
30
0
41
1
10
28.2000732471809
20
-3.61842686120127
30
0
41
1
10
28.3055733939562
20
-3.59386229653882
30
0
0
SPLINE
5
145
100
AcDbEntity
8
1
62
256
6
ByLayer
370
18
48
1
60
0
100
AcDbSpline
70
4
71
3
72
20
73
16
40
0
40
0
40
0
40
0
40
0.126820884436088
40
0.228465226762427
40
0.306653524799377
40
0.375459746881778
40
0.440529989432688
40
0.50221560463551
40
0.579485459004544
40
0.665265808314498
40
0.759396148085571
40
0.84592814473776
40
0.92217861748161
40
0.98324640172858
40
1
40
1
40
1
40
1
41
1
10
21.862872645812
20
3.01550040372251
30
0
41
1
10
21.6190080937055
20
3.07815820280214
30
0
41
1
10
21.1811058458652
20
3.18850117544329
30
0
41
1
10
20.5898378245723
20
3.33067369105626
30
0
41
1
10
20.1225428312894
20
3.44176177033486
30
0
41
1
10
19.7262220762249
20
3.53194583103988
30
0
41
1
10
19.3564035425005
20
3.61257170341489
30
0
41
1
10
18.9669999528863
20
3.69431140030204
30
0
41
1
10
18.5374931566452
20
3.78044228012519
30
0
41
1
10
18.0461320147529
20
3.8732647014362
30
0
41
1
10
17.5374026581561
20
3.96237632977326
30
0
41
1
10
17.0454535131333
20
4.04109231281893
30
0
41
1
10
16.6138703539125
20
4.10415748397972
30
0
41
1
10
16.3133253286431
20
4.14366129714031
30
0
41
1
10
16.1640962430131
20
4.16254452719249
30
0
41
1
10
16.1320762277673
20
4.16655882197242
30
0
0
SPLINE
5
146
100
AcDbEntity
8
1
62
256
6
ByLayer
370
18
48
1
60
0
100
AcDbSpline
70
4
71
3
72
14
73
10
40
0
40
0
40
0
40
0
40
0.169970059313739
40
0.307134627700596
40
0.411983770718569
40
0.508086935983162
40
0.685269433380621
40
0.919974695031151
40
1
40
1
40
1
40
1
41
1
10
37.1842014879884
20
-4.39551535865283
30
0
41
1
10
37.3913329132611
20
-4.39138459383261
30
0
41
1
10
37.7630799675468
20
-4.38007730689264
30
0
41
1
10
38.2589892500873
20
-4.35402712977364
30
0
41
1
10
38.6570721287456
20
-4.32889407519855
30
0
41
1
10
39.0875290378501
20
-4.29806264099324
30
0
41
1
10
39.6839480680865
20
-4.24261531241274
30
0
41
1
10
40.2620564869918
20
-4.17915699104987
30
0
41
1
10
40.6339808008602
20
-4.12479823937556
30
0
41
1
10
40.7286319171554
20
-4.1103353014044
30
0
0
SPLINE
5
147
100
AcDbEntity
8
1
62
256
6
ByLayer
370
18
48
1
60
0
100
AcDbSpline
70
4
71
3
72
17
73
13
40
0
40
0
40
0
40
0
40
0.141951614463285
40
0.246183027179442
40
0.343991450239771
40
0.446194263706128
40
0.53294084762485
40
0.612446211202967
40
0.702844092496813
40
0.825672704956539
40
0.933743712582876
40
1
40
1
40
1
40
1
41
1
10
37.1988332776536
20
3.27169727026916
30
0
41
1
10
37.0026595946666
20
3.32708321297946
30
0
41
1
10
36.6640256217543
20
3.42019594429897
30
0
41
1
10
36.1957854500603
20
3.5432346785752
30
0
41
1
10
35.7825669944164
20
3.64677728504597
30
0
41
1
10
35.3899496734996
20
3.74019882347136
30
0
41
1
10
35.0226923122406
20
3.82287391019867
30
0
41
1
10
34.6715501001071
20
3.89772316831909
30
0
41
1
10
34.271094854201
20
3.97788004734326
30
0
41
1
10
33.8314723859225
20
4.05840710186024
30
0
41
1
10
33.4247246233352
20
4.12517804425357
30
0
41
1
10
33.186359061279
20
4.1607591586415
30
0
41
1
10
33.0955459833782
20
4.17378582341664
30
0
0
SPLINE
5
148
100
AcDbEntity
8
1
62
256
6
ByLayer
370
18
48
1
60
0
100
AcDbSpline
70
4
71
3
72
14
73
10
40
0
40
0
40
0
40
0
40
0.239923877290274
40
0.416067858395312
40
0.557597455525482
40
0.701035545337733
40
0.838616971874064
40
0.983115795664964
40
1
40
1
40
1
40
1
41
1
10
12
20
-4.20884196751618
30
0
41
1
10
12.1975670594411
20
-4.18257187975448
30
0
41
1
10
12.5382735687202
20
-4.13315836310218
30
0
41
1
10
12.9916058985432
20
-4.05742183017946
30
0
41
1
10
13.3619583750758
20
-3.9899529420058
30
0
41
1
10
13.7029648307538
20
-3.92315393076214
30
0
41
1
10
14.0466811499247
20
-3.85140786405694
30
0
41
1
10
14.2917612290418
20
-3.79732654251097
30
0
41
1
10
14.4237097808223
20
-3.76731334374094
30
0
41
1
10
14.4375106620724
20
-3.76416445754697
30
0
0
LINE
5
77
100
AcDbEntity
8
80
62
256
6
ByLayer
370
18
48
1
60
0
100
AcDbLine
10
0
20
0
30
0
11
-5
21
0
31
0
39
0
210
0
220
0
230
1
0
LINE
5
78
100
AcDbEntity
8
4
62
256
6
ByLayer
370
18
48
0.05
60
0
100
AcDbLine
10
0
20
0
30
0
11
42
21
0
31
0
39
0
210
0
220
0
230
1
0
LINE
5
7A
100
AcDbEntity
8
81
62
256
6
ByLayer
370
18
48
1
60
0
100
AcDbLine
10
42
20
0
30
0
11
47
21
0
31
0
39
0
210
0
220
0
230
1
0
LINE
5
7B
100
AcDbEntity
8
SK4
62
256
6
ByLayer
370
18
48
0.05
60
0
100
AcDbLine
10
-40
20
0
30
0
11
42
21
0
31
0
39
0
210
0
220
0
230
1
0
LINE
5
7D
100
AcDbEntity
8
1
62
256
6
ByLayer
370
18
48
1
60
0
100
AcDbLine
10
0
20
5
30
0
11
0
21
0
31
0
39
0
210
0
220
0
230
1
0
LINE
5
7E
100
AcDbEntity
8
1
62
256
6
ByLayer
370
18
48
1
60
0
100
AcDbLine
10
0
20
0
30
0
11
0
21
-5
31
0
39
0
210
0
220
0
230
1
0
LINE
5
7F
100
AcDbEntity
8
1
62
256
6
ByLayer
370
18
48
1
60
0
100
AcDbLine
10
42
20
-2.756871
30
0
11
42
21
-2.755006
31
0
39
0
210
0
220
0
230
1
0
LINE
5
80
100
AcDbEntity
8
1
62
256
6
ByLayer
370
18
48
1
60
0
100
AcDbLine
10
41.996638
20
-2.539799
30
0
11
42
21
-2.755006
31
0
39
0
210
0
220
0
230
1
0
LINE
5
81
100
AcDbEntity
8
1
62
256
6
ByLayer
370
18
48
1
60
0
100
AcDbLine
10
41.894294
20
-3.227846
30
0
11
41.892113
21
-3.085655
31
0
39
0
210
0
220
0
230
1
0
LINE
5
82
100
AcDbEntity
8
1
62
256
6
ByLayer
370
18
48
1
60
0
100
AcDbLine
10
41.892113
20
-3.085655
30
0
11
41.996638
21
-2.539799
31
0
39
0
210
0
220
0
230
1
0
LINE
5
83
100
AcDbEntity
8
1
62
256
6
ByLayer
370
18
48
1
60
0
100
AcDbLine
10
41.995563
20
-2.533024
30
0
11
41.996638
21
-2.539799
31
0
39
0
210
0
220
0
230
1
0
LINE
5
84
100
AcDbEntity
8
1
62
256
6
ByLayer
370
18
48
1
60
0
100
AcDbLine
10
41.539348
20
-3.717741
30
0
11
41.892113
21
-3.085655
31
0
39
0
210
0
220
0
230
1
0
LINE
5
85
100
AcDbEntity
8
1
62
256
6
ByLayer
370
18
48
1
60
0
100
AcDbLine
10
41.892113
20
-3.085655
30
0
11
41.804937
21
-2.518897
31
0
39
0
210
0
220
0
230
1
0
LINE
5
86
100
AcDbEntity
8
1
62
256
6
ByLayer
370
18
48
1
60
0
100
AcDbLine
10
41.978243
20
4.4032
30
0
11
41.996638
21
4.609805
31
0
39
0
210
0
220
0
230
1
0
LINE
5
87
100
AcDbEntity
8
1
62
256
6
ByLayer
370
18
48
1
60
0
100
AcDbLine
10
41.996638
20
4.609805
30
0
11
42
21
4.98828
31
0
39
0
210
0
220
0
230
1
0
LINE
5
88
100
AcDbEntity
8
1
62
256
6
ByLayer
370
18
48
1
60
0
100
AcDbLine
10
42
20
4.98828
30
0
11
42
21
4.991329
31
0
39
0
210
0
220
0
230
1
0
LINE
5
89
100
AcDbEntity
8
1
62
256
6
ByLayer
370
18
48
1
60
0
100
AcDbLine
10
41.441345
20
-0.073443
30
0
11
41.577438
21
-0.098554
31
0
39
0
210
0
220
0
230
1
0
LINE
5
8A
100
AcDbEntity
8
1
62
256
6
ByLayer
370
18
48
1
60
0
100
AcDbLine
10
41.577438
20
-0.098554
30
0
11
41.900606
21
3.531202
31
0
39
0
210
0
220
0
230
1
0
LINE
5
8B
100
AcDbEntity
8
1
62
256
6
ByLayer
370
18
48
1
60
0
100
AcDbLine
10
40.730236
20
-4.113354
30
0
11
41.291628
21
-2.371923
31
0
39
0
210
0
220
0
230
1
0
LINE
5
8C
100
AcDbEntity
8
1
62
256
6
ByLayer
370
18
48
1
60
0
100
AcDbLine
10
41.291628
20
-2.371923
30
0
11
41.377271
21
-2.231158
31
0
39
0
210
0
220
0
230
1
0
LINE
5
8D
100
AcDbEntity
8
1
62
256
6
ByLayer
370
18
48
1
60
0
100
AcDbLine
10
38.904848
20
-2.724835
30
0
11
41.291628
21
-2.371923
31
0
39
0
210
0
220
0
230
1
0
LINE
5
8E
100
AcDbEntity
8
1
62
256
6
ByLayer
370
13
48
1
60
0
100
AcDbLine
10
39.425894
20
-1.024694
30
0
11
38.411744
21
-1.527131
31
0
39
0
210
0
220
0
230
1
0
LINE
5
8F
100
AcDbEntity
8
1
62
256
6
ByLayer
370
13
48
1
60
0
100
AcDbLine
10
11.439327
20
4.858982
30
0
11
12
21
4.517377
31
0
39
0
210
0
220
0
230
1
0
LINE
5
90
100
AcDbEntity
8
1
62
256
6
ByLayer
370
18
48
1
60
0
100
AcDbLine
10
12
20
1.499185
30
0
11
12
21
1.379917
31
0
39
0
210
0
220
0
230
1
0
LINE
5
91
100
AcDbEntity
8
1
62
256
6
ByLayer
370
13
48
1
60
0
100
AcDbLine
10
6.997622
20
4.547013
30
0
11
12
21
1.499185
31
0
39
0
210
0
220
0
230
1
0
LINE
5
92
100
AcDbEntity
8
1
62
256
6
ByLayer
370
18
48
1
60
0
100
AcDbLine
10
12
20
-3.734237
30
0
11
12
21
-2.849614
31
0
39
0
210
0
220
0
230
1
0
LINE
5
93
100
AcDbEntity
8
1
62
256
6
ByLayer
370
18
48
1
60
0
100
AcDbLine
10
12
20
-2.849614
30
0
11
12
21
-2.445863
31
0
39
0
210
0
220
0
230
1
0
LINE
5
94
100
AcDbEntity
8
1
62
256
6
ByLayer
370
18
48
1
60
0
100
AcDbLine
10
41.978759
20
-2.245769
30
0
11
41.996638
21
-2.34585
31
0
39
0
210
0
220
0
230
1
0
LINE
5
95
100
AcDbEntity
8
1
62
256
6
ByLayer
370
18
48
1
60
0
100
AcDbLine
10
41.76163
20
-1.030362
30
0
11
41.898725
21
-1.797773
31
0
39
0
210
0
220
0
230
1
0
LINE
5
96
100
AcDbEntity
8
1
62
256
6
ByLayer
370
18
48
1
60
0
100
AcDbLine
10
41.669645
20
-0.52704
30
0
11
41.76163
21
-1.030362
31
0
39
0
210
0
220
0
230
1
0
LINE
5
97
100
AcDbEntity
8
1
62
256
6
ByLayer
370
18
48
1
60
0
100
AcDbLine
10
12
20
-3.734237
30
0
11
12
21
-4.208842
31
0
39
0
210
0
220
0
230
1
0
LINE
5
98
100
AcDbEntity
8
1
62
256
6
ByLayer
370
18
48
1
60
0
100
AcDbLine
10
42
20
-2.533107
30
0
11
42
21
-2.531765
31
0
39
0
210
0
220
0
230
1
0
LINE
5
99
100
AcDbEntity
8
1
62
256
6
ByLayer
370
18
48
1
60
0
100
AcDbLine
10
41.996638
20
-2.34585
30
0
11
42
21
-2.531765
31
0
39
0
210
0
220
0
230
1
0
LINE
5
9A
100
AcDbEntity
8
1
62
256
6
ByLayer
370
18
48
1
60
0
100
AcDbLine
10
41.892113
20
-1.772763
30
0
11
41.996638
21
-2.34585
31
0
39
0
210
0
220
0
230
1
0
LINE
5
9B
100
AcDbEntity
8
1
62
256
6
ByLayer
370
18
48
1
60
0
100
AcDbLine
10
12
20
1.499185
30
0
11
12
21
4.517377
31
0
39
0
210
0
220
0
230
1
0
LINE
5
9C
100
AcDbEntity
8
1
62
256
6
ByLayer
370
18
48
1
60
0
100
AcDbLine
10
41.894315
20
-1.89641
30
0
11
41.892113
21
-1.772763
31
0
39
0
210
0
220
0
230
1
0
LINE
5
9D
100
AcDbEntity
8
1
62
256
6
ByLayer
370
18
48
1
60
0
100
AcDbLine
10
41.532789
20
-1.109194
30
0
11
41.892113
21
-1.772763
31
0
39
0
210
0
220
0
230
1
0
LINE
5
9E
100
AcDbEntity
8
1
62
256
6
ByLayer
370
18
48
1
60
0
100
AcDbLine
10
41.892113
20
-1.772763
30
0
11
41.669645
21
-0.52704
31
0
39
0
210
0
220
0
230
1
0
LINE
5
9F
100
AcDbEntity
8
1
62
256
6
ByLayer
370
18
48
1
60
0
100
AcDbLine
10
41.316094
20
0.175435
30
0
11
41.669645
21
-0.52704
31
0
39
0
210
0
220
0
230
1
0
LINE
5
A0
100
AcDbEntity
8
1
62
256
6
ByLayer
370
18
48
1
60
0
100
AcDbLine
10
40.572088
20
1.259604
30
0
11
41.316094
21
0.175435
31
0
39
0
210
0
220
0
230
1
0
LINE
5
A1
100
AcDbEntity
8
1
62
256
6
ByLayer
370
18
48
1
60
0
100
AcDbLine
10
12
20
-0.891253
30
0
11
12
21
-0.683853
31
0
39
0
210
0
220
0
230
1
0
LINE
5
A2
100
AcDbEntity
8
1
62
256
6
ByLayer
370
13
48
1
60
0
100
AcDbLine
10
8.117091
20
1.68191
30
0
11
12
21
-0.683853
31
0
39
0
210
0
220
0
230
1
0
LINE
5
A3
100
AcDbEntity
8
1
62
256
6
ByLayer
370
18
48
1
60
0
100
AcDbLine
10
12
20
-0.683853
30
0
11
12
21
1.379918
31
0
39
0
210
0
220
0
230
1
0
LINE
5
A4
100
AcDbEntity
8
1
62
256
6
ByLayer
370
18
48
1
60
0
100
AcDbLine
10
8.924479
20
3.253759
30
0
11
12
21
1.379918
31
0
39
0
210
0
220
0
230
1
0
LINE
5
A5
100
AcDbEntity
8
1
62
256
6
ByLayer
370
13
48
1
60
0
100
AcDbLine
10
8.123817
20
1.470412
30
0
11
12
21
-0.891253
31
0
39
0
210
0
220
0
230
1
0
LINE
5
A6
100
AcDbEntity
8
1
62
256
6
ByLayer
370
18
48
1
60
0
100
AcDbLine
10
12
20
4.835227
30
0
11
12
21
4.517377
31
0
39
0
210
0
220
0
230
1
0
LINE
5
A7
100
AcDbEntity
8
1
62
256
6
ByLayer
370
18
48
1
60
0
100
AcDbLine
10
12
20
-0.891253
30
0
11
12
21
-1.151132
31
0
39
0
210
0
220
0
230
1
0
LINE
5
A8
100
AcDbEntity
8
1
62
256
6
ByLayer
370
18
48
1
60
0
100
AcDbLine
10
12
20
-4.208839
30
0
11
12
21
-4.271077
31
0
39
0
210
0
220
0
230
1
0
LINE
5
A9
100
AcDbEntity
8
1
62
256
6
ByLayer
370
13
48
1
60
0
100
AcDbLine
10
8.41631
20
-4.991751
30
0
11
8.49168
21
-4.972589
31
0
39
0
210
0
220
0
230
1
0
LINE
5
AA
100
AcDbEntity
8
1
62
256
6
ByLayer
370
18
48
1
60
0
100
AcDbLine
10
9.146833
20
-4.459631
30
0
11
12
21
-3.734237
31
0
39
0
210
0
220
0
230
1
0
LINE
5
AB
100
AcDbEntity
8
1
62
256
6
ByLayer
370
13
48
1
60
0
100
AcDbLine
10
7.817936
20
-3.912868
30
0
11
12
21
-2.849614
31
0
39
0
210
0
220
0
230
1
0
LINE
5
AC
100
AcDbEntity
8
1
62
256
6
ByLayer
370
13
48
1
60
0
100
AcDbLine
10
7.3308
20
-3.121955
30
0
11
10.68635
21
-2.268835
31
0
39
0
210
0
220
0
230
1
0
LINE
5
AD
100
AcDbEntity
8
1
62
256
6
ByLayer
370
18
48
1
60
0
100
AcDbLine
10
12
20
4.835227
30
0
11
12
21
4.835283
31
0
39
0
210
0
220
0
230
1
0
LINE
5
AE
100
AcDbEntity
8
SK1
62
256
6
ByLayer
370
18
48
1
60
0
100
AcDbLine
10
-40
20
-4.4
30
0
11
-40
21
4.4
31
0
39
0
210
0
220
0
230
1
0
LINE
5
B0
100
AcDbEntity
8
SK1
62
256
6
ByLayer
370
18
48
1
60
0
100
AcDbLine
10
0
20
5
30
0
11
0
21
0
31
0
39
0
210
0
220
0
230
1
0
LINE
5
B1
100
AcDbEntity
8
SK1
62
256
6
ByLayer
370
18
48
1
60
0
100
AcDbLine
10
0
20
0
30
0
11
0
21
-5
31
0
39
0
210
0
220
0
230
1
0
LINE
5
B2
100
AcDbEntity
8
SK1
62
256
6
ByLayer
370
18
48
1
60
0
100
AcDbLine
10
-39.4
20
5
30
0
11
-39.4
21
-5
31
0
39
0
210
0
220
0
230
1
0
LINE
5
B3
100
AcDbEntity
8
SK1
62
256
6
ByLayer
370
18
48
1
60
0
100
AcDbLine
10
-23.5
20
3.5
30
0
11
-25
21
5
31
0
39
0
210
0
220
0
230
1
0
LINE
5
B4
100
AcDbEntity
8
SK1
62
256
6
ByLayer
370
18
48
1
60
0
100
AcDbLine
10
-15
20
5
30
0
11
-16.5
21
3.5
31
0
39
0
210
0
220
0
230
1
0
LINE
5
B5
100
AcDbEntity
8
SK1
62
256
6
ByLayer
370
18
48
1
60
0
100
AcDbLine
10
-23.5
20
3.5
30
0
11
-16.5
21
3.5
31
0
39
0
210
0
220
0
230
1
0
LINE
5
B6
100
AcDbEntity
8
1
62
256
6
ByLayer
370
18
48
1
60
0
100
AcDbLine
10
10.761525
20
5
30
0
11
0
21
5
31
0
39
0
210
0
220
0
230
1
0
LINE
5
B7
100
AcDbEntity
8
1
62
256
6
ByLayer
370
18
48
1
60
0
100
AcDbLine
10
0
20
-5
30
0
11
8.681492
21
-5
31
0
39
0
210
0
220
0
230
1
0
LINE
5
B8
100
AcDbEntity
8
1
62
256
6
ByLayer
370
18
48
1
60
0
100
AcDbLine
10
9.174628
20
-4.927169
30
0
11
12.000142
21
-4.208806
31
0
39
0
210
0
220
0
230
1
0
LINE
5
B9
100
AcDbEntity
8
SK1
62
256
6
ByLayer
370
18
48
1
60
0
100
AcDbLine
10
-40
20
-4.4
30
0
11
-39.4
21
-5
31
0
39
0
210
0
220
0
230
1
0
LINE
5
BA
100
AcDbEntity
8
SK1
62
256
6
ByLayer
370
18
48
1
60
0
100
AcDbLine
10
-39.4
20
5
30
0
11
-40
21
4.4
31
0
39
0
210
0
220
0
230
1
0
LINE
5
BB
100
AcDbEntity
8
SK1
62
256
6
ByLayer
370
18
48
1
60
0
100
AcDbLine
10
0
20
5
30
0
11
-15
21
5
31
0
39
0
210
0
220
0
230
1
0
LINE
5
BC
100
AcDbEntity
8
SK1
62
256
6
ByLayer
370
18
48
1
60
0
100
AcDbLine
10
-25
20
5
30
0
11
-39.4
21
5
31
0
39
0
210
0
220
0
230
1
0
LINE
5
BD
100
AcDbEntity
8
SK1
62
256
6
ByLayer
370
18
48
1
60
0
100
AcDbLine
10
-39.4
20
-5
30
0
11
0
21
-5
31
0
39
0
210
0
220
0
230
1
0
LINE
5
BE
100
AcDbEntity
8
SK2
62
256
6
ByLayer
370
18
48
1
60
0
100
AcDbLine
10
-47.65
20
5
30
0
11
-47.65
21
-23.056066
31
0
39
0
210
0
220
0
230
1
0
LINE
5
C0
100
AcDbEntity
8
SK2
62
256
6
ByLayer
370
18
48
1
60
0
100
AcDbLine
10
-40.9875
20
5
30
0
11
-49.65
21
5
31
0
39
0
210
0
220
0
230
1
0
LINE
5
C1
100
AcDbEntity
8
SK2
62
256
6
ByLayer
370
18
48
1
60
0
100
AcDbLine
10
-40.9875
20
-5
30
0
11
-49.65
21
-5
31
0
39
0
210
0
220
0
230
1
0
LINE
5
C2
100
AcDbEntity
8
1
62
256
6
ByLayer
370
18
48
1
60
1
100
AcDbLine
10
-47.65
20
5
30
0
11
-47.189216
21
1.500002
31
0
39
0
210
0
220
0
230
1
0
LINE
5
C3
100
AcDbEntity
8
1
62
256
6
ByLayer
370
18
48
1
60
1
100
AcDbLine
10
-47.189216
20
1.500002
30
0
11
-48.110784
21
1.499998
31
0
39
0
210
0
220
0
230
1
0
LINE
5
C4
100
AcDbEntity
8
1
62
256
6
ByLayer
370
18
48
1
60
1
100
AcDbLine
10
-48.110784
20
1.499998
30
0
11
-47.65
21
5
31
0
39
0
210
0
220
0
230
1
0
LINE
5
C5
100
AcDbEntity
8
1
62
256
6
ByLayer
370
18
48
1
60
1
100
AcDbLine
10
-47.65
20
-5
30
0
11
-48.110784
21
-1.500002
31
0
39
0
210
0
220
0
230
1
0
LINE
5
C6
100
AcDbEntity
8
1
62
256
6
ByLayer
370
18
48
1
60
1
100
AcDbLine
10
-48.110784
20
-1.500002
30
0
11
-47.189216
21
-1.499998
31
0
39
0
210
0
220
0
230
1
0
LINE
5
C7
100
AcDbEntity
8
1
62
256
6
ByLayer
370
18
48
1
60
1
100
AcDbLine
10
-47.189216
20
-1.499998
30
0
11
-47.65
21
-5
31
0
39
0
210
0
220
0
230
1
0
LINE
5
C8
100
AcDbEntity
8
2
62
256
6
ByLayer
370
18
48
1
60
0
100
AcDbLine
10
54
20
-5.0001
30
0
11
54
21
23.056166
31
0
39
0
210
0
220
0
230
1
0
LINE
5
CA
100
AcDbEntity
8
2
62
256
6
ByLayer
370
18
48
1
60
0
100
AcDbLine
10
43.5875
20
5.0001
30
0
11
56
21
5.0001
31
0
39
0
210
0
220
0
230
1
0
LINE
5
CB
100
AcDbEntity
8
2
62
256
6
ByLayer
370
18
48
1
60
0
100
AcDbLine
10
43.5875
20
-5.0001
30
0
11
56
21
-5.0001
31
0
39
0
210
0
220
0
230
1
0
LINE
5
CC
100
AcDbEntity
8
1
62
256
6
ByLayer
370
18
48
1
60
1
100
AcDbLine
10
54
20
5.0001
30
0
11
54.460784
21
1.500102
31
0
39
0
210
0
220
0
230
1
0
LINE
5
CD
100
AcDbEntity
8
1
62
256
6
ByLayer
370
18
48
1
60
1
100
AcDbLine
10
54.460784
20
1.500102
30
0
11
53.539216
21
1.500098
31
0
39
0
210
0
220
0
230
1
0
LINE
5
CE
100
AcDbEntity
8
1
62
256
6
ByLayer
370
18
48
1
60
1
100
AcDbLine
10
53.539216
20
1.500098
30
0
11
54
21
5.0001
31
0
39
0
210
0
220
0
230
1
0
LINE
5
CF
100
AcDbEntity
8
1
62
256
6
ByLayer
370
18
48
1
60
1
100
AcDbLine
10
54
20
-5.0001
30
0
11
53.539216
21
-1.500102
31
0
39
0
210
0
220
0
230
1
0
LINE
5
D0
100
AcDbEntity
8
1
62
256
6
ByLayer
370
18
48
1
60
1
100
AcDbLine
10
53.539216
20
-1.500102
30
0
11
54.460784
21
-1.500098
31
0
39
0
210
0
220
0
230
1
0
LINE
5
D1
100
AcDbEntity
8
1
62
256
6
ByLayer
370
18
48
1
60
1
100
AcDbLine
10
54.460784
20
-1.500098
30
0
11
54
21
-5.0001
31
0
39
0
210
0
220
0
230
1
0
LINE
5
D2
100
AcDbEntity
8
SK2
62
256
6
ByLayer
370
18
48
1
60
0
100
AcDbLine
10
42
20
-35.881463
30
0
11
-40
21
-35.881463
31
0
39
0
210
0
220
0
230
1
0
LINE
5
D3
100
AcDbEntity
8
SK2
62
256
6
ByLayer
370
18
48
1
60
0
100
AcDbLine
10
-40
20
-5.9875
30
0
11
-40
21
-37.881463
31
0
39
0
210
0
220
0
230
1
0
LINE
5
D4
100
AcDbEntity
8
SK2
62
256
6
ByLayer
370
18
48
1
60
0
100
AcDbLine
10
42
20
-6.5876
30
0
11
42
21
-37.881463
31
0
39
0
210
0
220
0
230
1
0
LINE
5
D5
100
AcDbEntity
8
1
62
256
6
ByLayer
370
18
48
1
60
1
100
AcDbLine
10
-40
20
-35.881463
30
0
11
-36.500002
21
-35.420679
31
0
39
0
210
0
220
0
230
1
0
LINE
5
D6
100
AcDbEntity
8
1
62
256
6
ByLayer
370
18
48
1
60
1
100
AcDbLine
10
-36.500002
20
-35.420679
30
0
11
-36.499998
21
-36.342247
31
0
39
0
210
0
220
0
230
1
0
LINE
5
D7
100
AcDbEntity
8
1
62
256
6
ByLayer
370
18
48
1
60
1
100
AcDbLine
10
-36.499998
20
-36.342247
30
0
11
-40
21
-35.881463
31
0
39
0
210
0
220
0
230
1
0
LINE
5
D8
100
AcDbEntity
8
1
62
256
6
ByLayer
370
18
48
1
60
1
100
AcDbLine
10
42
20
-35.881463
30
0
11
38.500002
21
-36.342247
31
0
39
0
210
0
220
0
230
1
0
LINE
5
D9
100
AcDbEntity
8
1
62
256
6
ByLayer
370
18
48
1
60
1
100
AcDbLine
10
38.500002
20
-36.342247
30
0
11
38.499998
21
-35.420679
31
0
39
0
210
0
220
0
230
1
0
LINE
5
DA
100
AcDbEntity
8
1
62
256
6
ByLayer
370
18
48
1
60
1
100
AcDbLine
10
38.499998
20
-35.420679
30
0
11
42
21
-35.881463
31
0
39
0
210
0
220
0
230
1
0
LINE
5
14D
100
AcDbEntity
8
1
62
256
6
ByLayer
370
18
48
1
60
1
100
AcDbLine
10
-47.65
20
5
30
0
11
-47.189216
21
1.500002
31
0
39
0
210
0
220
0
230
1
0
LINE
5
14E
100
AcDbEntity
8
1
62
256
6
ByLayer
370
18
48
1
60
1
100
AcDbLine
10
-47.189216
20
1.500002
30
0
11
-48.110784
21
1.499998
31
0
39
0
210
0
220
0
230
1
0
LINE
5
14F
100
AcDbEntity
8
1
62
256
6
ByLayer
370
18
48
1
60
1
100
AcDbLine
10
-48.110784
20
1.499998
30
0
11
-47.65
21
5
31
0
39
0
210
0
220
0
230
1
0
LINE
5
151
100
AcDbEntity
8
1
62
256
6
ByLayer
370
18
48
1
60
1
100
AcDbLine
10
-47.65
20
-5
30
0
11
-48.110784
21
-1.500002
31
0
39
0
210
0
220
0
230
1
0
LINE
5
152
100
AcDbEntity
8
1
62
256
6
ByLayer
370
18
48
1
60
1
100
AcDbLine
10
-48.110784
20
-1.500002
30
0
11
-47.189216
21
-1.499998
31
0
39
0
210
0
220
0
230
1
0
LINE
5
153
100
AcDbEntity
8
1
62
256
6
ByLayer
370
18
48
1
60
1
100
AcDbLine
10
-47.189216
20
-1.499998
30
0
11
-47.65
21
-5
31
0
39
0
210
0
220
0
230
1
0
LINE
5
157
100
AcDbEntity
8
1
62
256
6
ByLayer
370
18
48
1
60
1
100
AcDbLine
10
54
20
5.0001
30
0
11
54.460784
21
1.500102
31
0
39
0
210
0
220
0
230
1
0
LINE
5
158
100
AcDbEntity
8
1
62
256
6
ByLayer
370
18
48
1
60
1
100
AcDbLine
10
54.460784
20
1.500102
30
0
11
53.539216
21
1.500098
31
0
39
0
210
0
220
0
230
1
0
LINE
5
159
100
AcDbEntity
8
1
62
256
6
ByLayer
370
18
48
1
60
1
100
AcDbLine
10
53.539216
20
1.500098
30
0
11
54
21
5.0001
31
0
39
0
210
0
220
0
230
1
0
LINE
5
15B
100
AcDbEntity
8
1
62
256
6
ByLayer
370
18
48
1
60
1
100
AcDbLine
10
54
20
-5.0001
30
0
11
53.539216
21
-1.500102
31
0
39
0
210
0
220
0
230
1
0
LINE
5
15C
100
AcDbEntity
8
1
62
256
6
ByLayer
370
18
48
1
60
1
100
AcDbLine
10
53.539216
20
-1.500102
30
0
11
54.460784
21
-1.500098
31
0
39
0
210
0
220
0
230
1
0
LINE
5
15D
100
AcDbEntity
8
1
62
256
6
ByLayer
370
18
48
1
60
1
100
AcDbLine
10
54.460784
20
-1.500098
30
0
11
54
21
-5.0001
31
0
39
0
210
0
220
0
230
1
0
LINE
5
160
100
AcDbEntity
8
1
62
256
6
ByLayer
370
18
48
1
60
1
100
AcDbLine
10
-40
20
-35.881463
30
0
11
-36.500002
21
-35.420679
31
0
39
0
210
0
220
0
230
1
0
LINE
5
161
100
AcDbEntity
8
1
62
256
6
ByLayer
370
18
48
1
60
1
100
AcDbLine
10
-36.500002
20
-35.420679
30
0
11
-36.499998
21
-36.342247
31
0
39
0
210
0
220
0
230
1
0
LINE
5
162
100
AcDbEntity
8
1
62
256
6
ByLayer
370
18
48
1
60
1
100
AcDbLine
10
-36.499998
20
-36.342247
30
0
11
-40
21
-35.881463
31
0
39
0
210
0
220
0
230
1
0
LINE
5
164
100
AcDbEntity
8
1
62
256
6
ByLayer
370
18
48
1
60
1
100
AcDbLine
10
42
20
-35.881463
30
0
11
38.500002
21
-36.342247
31
0
39
0
210
0
220
0
230
1
0
LINE
5
165
100
AcDbEntity
8
1
62
256
6
ByLayer
370
18
48
1
60
1
100
AcDbLine
10
38.500002
20
-36.342247
30
0
11
38.499998
21
-35.420679
31
0
39
0
210
0
220
0
230
1
0
LINE
5
166
100
AcDbEntity
8
1
62
256
6
ByLayer
370
18
48
1
60
1
100
AcDbLine
10
38.499998
20
-35.420679
30
0
11
42
21
-35.881463
31
0
39
0
210
0
220
0
230
1
0
MTEXT
5
149
100
AcDbEntity
8
SK2
62
256
6
ByLayer
370
18
48
1
60
0
100
AcDbMText
10
-49.214634
20
-21.121222
30
0
210
0
220
0
230
1
1
%%c
40
3.5
41
0
44
1.084337
50
90
71
7
72
5
7
iso_b_vert
0
MTEXT
5
14C
100
AcDbEntity
8
SK2
62
256
6
ByLayer
370
18
48
1
60
0
100
AcDbMText
10
-49.214634
20
-14.148566
30
0
210
0
220
0
230
1
1
\W0.5321;10
40
3.5
41
0
44
1.084337
50
90
71
7
72
5
7
iso_b_vert
0
MTEXT
5
155
100
AcDbEntity
8
2
62
256
6
ByLayer
370
18
48
1
60
0
100
AcDbMText
10
52.435366
20
12.934944
30
0
210
0
220
0
230
1
1
%%c
40
3.5
41
0
44
1.084337
50
90
71
7
72
5
7
iso_b_vert
0
MTEXT
5
156
100
AcDbEntity
8
2
62
256
6
ByLayer
370
18
48
1
60
0
100
AcDbMText
10
52.435366
20
19.9076
30
0
210
0
220
0
230
1
1
\W0.5321;10
40
3.5
41
0
44
1.084337
50
90
71
7
72
5
7
iso_b_vert
0
MTEXT
5
15F
100
AcDbEntity
8
SK2
62
256
6
ByLayer
370
18
48
1
60
0
100
AcDbMText
10
-0.904966
20
-34.84883
30
0
210
0
220
0
230
1
1
\W0.6740;82
40
3.5
41
0
44
1.084337
50
0
71
7
72
5
7
iso_b_vert
0
MTEXT
5
168
100
AcDbEntity
8
SK6
62
256
6
ByLayer
370
18
48
1
60
0
100
AcDbMText
10
-23.251902
20
-62.111676
30
0
210
0
220
0
230
1
1
\W0.6811;1K253-1000-NB       H10F
40
3
41
0
44
1.084337
50
0
71
7
72
5
7
iso_b_vert
0
HATCH
5
150
100
AcDbEntity
8
SK2
62
256
6
ByLayer
370
13
48
1
60
0
100
AcDbHatch
10
0
20
0
30
0
210
0
220
0
230
1
2
ANSI31
70
0
71
0
91
1
92
5
93
3
72
1
10
-47.65
20
4.99999999999994
11
-47.1892162584472
21
1.50000169255313
72
1
10
-47.1892162584472
20
1.50000169255313
11
-48.1107837415528
21
1.49999830744676
72
1
10
-48.1107837415528
20
1.49999830744676
11
-47.65
21
4.99999999999994
97
0
75
0
76
1
52
0
41
0.0062
77
0
78
1
53
45
43
0
44
0
45
-0.0139193969876572
46
0.0139193969876572
79
0
47
0
98
1
10
0
20
0
0
HATCH
5
154
100
AcDbEntity
8
SK2
62
256
6
ByLayer
370
13
48
1
60
0
100
AcDbHatch
10
0
20
0
30
0
210
0
220
0
230
1
2
ANSI31
70
0
71
0
91
1
92
5
93
3
72
1
10
-47.65
20
-5.00000000000006
11
-48.1107837415528
21
-1.50000169255324
72
1
10
-48.1107837415528
20
-1.50000169255324
11
-47.1892162584472
21
-1.49999830744687
72
1
10
-47.1892162584472
20
-1.49999830744687
11
-47.65
21
-5.00000000000006
97
0
75
0
76
1
52
0
41
0.0062
77
0
78
1
53
45
43
0
44
0
45
-0.0139193969876572
46
0.0139193969876572
79
0
47
0
98
1
10
0
20
0
0
HATCH
5
15A
100
AcDbEntity
8
2
62
256
6
ByLayer
370
13
48
1
60
0
100
AcDbHatch
10
0
20
0
30
0
210
0
220
0
230
1
2
ANSI31
70
0
71
0
91
1
92
5
93
3
72
1
10
54
20
5.00009999999983
11
54.4607837415528
21
1.50010169255302
72
1
10
54.4607837415528
20
1.50010169255302
11
53.5392162584472
21
1.50009830744665
72
1
10
53.5392162584472
20
1.50009830744665
11
54
21
5.00009999999983
97
0
75
0
76
1
52
0
41
0.0062
77
0
78
1
53
45
43
0
44
0
45
-0.0139193969876572
46
0.0139193969876572
79
0
47
0
98
1
10
0
20
0
0
HATCH
5
15E
100
AcDbEntity
8
2
62
256
6
ByLayer
370
13
48
1
60
0
100
AcDbHatch
10
0
20
0
30
0
210
0
220
0
230
1
2
ANSI31
70
0
71
0
91
1
92
5
93
3
72
1
10
54
20
-5.00010000000017
11
53.5392162584472
21
-1.50010169255336
72
1
10
53.5392162584472
20
-1.50010169255336
11
54.4607837415528
21
-1.50009830744699
72
1
10
54.4607837415528
20
-1.50009830744699
11
54
21
-5.00010000000017
97
0
75
0
76
1
52
0
41
0.0062
77
0
78
1
53
45
43
0
44
0
45
-0.0139193969876572
46
0.0139193969876572
79
0
47
0
98
1
10
0
20
0
0
HATCH
5
163
100
AcDbEntity
8
SK2
62
256
6
ByLayer
370
13
48
1
60
0
100
AcDbHatch
10
0
20
0
30
0
210
0
220
0
230
1
2
ANSI31
70
0
71
0
91
1
92
5
93
3
72
1
10
-40
20
-35.8814632325181
11
-36.5000016925532
21
-35.4206794909653
72
1
10
-36.5000016925532
20
-35.4206794909653
11
-36.4999983074468
21
-36.3422469740709
72
1
10
-36.4999983074468
20
-36.3422469740709
11
-40
21
-35.8814632325181
97
0
75
0
76
1
52
0
41
0.0062
77
0
78
1
53
45
43
0
44
0
45
-0.0139193969876572
46
0.0139193969876572
79
0
47
0
98
1
10
0
20
0
0
HATCH
5
167
100
AcDbEntity
8
SK2
62
256
6
ByLayer
370
13
48
1
60
0
100
AcDbHatch
10
0
20
0
30
0
210
0
220
0
230
1
2
ANSI31
70
0
71
0
91
1
92
5
93
3
72
1
10
42
20
-35.8814632325181
11
38.5000016925532
21
-36.3422469740709
72
1
10
38.5000016925532
20
-36.3422469740709
11
38.4999983074468
21
-35.4206794909653
72
1
10
38.4999983074468
20
-35.4206794909653
11
42
21
-35.8814632325181
97
0
75
0
76
1
52
0
41
0.0062
77
0
78
1
53
45
43
0
44
0
45
-0.0139193969876572
46
0.0139193969876572
79
0
47
0
98
1
10
0
20
0
0
DIMENSION
5
16B
100
AcDbEntity
8
2
62
256
6
ByLayer
370
18
48
1
60
0
100
AcDbDimension
2
_U0
10
12
20
-19.881463
30
0
11
27
21
-19.881463
31
0
70
32
71
1
72
1
41
1
210
0
220
0
230
1
3
Standard
100
AcDbAlignedDimension
13
42
23
-5.0001
33
0
14
12
24
-5.0001
34
0
50
0
100
AcDbRotatedDimension
1001
ACAD
1000
DSTYLE
1002
{
1070
   371
1070
    13
1070
   372
1070
    13
1070
   170
1070
     0
1070
   144
1040
1.0
1070
   277
1070
     2
1070
   284
1070
     8
1070
   278
1070
    46
1070
   146
1040
1.0
1070
   345
1005
16
1070
   347
1005
16
1070
   346
1005
16
1070
   344
1005
0
1070
   343
1005
0
1070
   172
1070
     1
1070
    76
1070
     0
1070
    75
1070
     0
1070
   282
1070
     0
1070
   281
1070
     0
1070
    71
1070
     0
1070
    74
1070
     0
1070
   279
1070
     0
1070
   173
1070
     1
1070
   340
1005
14A
1070
   271
1070
     2
1070
   272
1070
     2
1070
    77
1070
     1
1070
    73
1070
     1
1070
   171
1070
     3
1070
   274
1070
     4
1070
   177
1070
     2
1070
   176
1070
     2
1070
   178
1070
     2
1070
    78
1070
     8
1070
    48
1040
-0.1
1070
    41
1040
3.5
1070
   147
1040
1.75
1070
    42
1040
1.5875
1070
    44
1040
2.0
1070
   140
1040
3.5
1002
}
1001
ACAD_DSTYLE_DIM_LINETYPE
1070
   380
1005
16
1001
ACAD_DSTYLE_DIM_EXT1_LINETYPE
1070
   381
1005
16
1001
ACAD_DSTYLE_DIM_EXT2_LINETYPE
1070
   382
1005
16
0
ENDSEC
0
SECTION
2
OBJECTS
0
DICTIONARY
5
1f4
330
0
100
AcDbDictionary
280
0
281
1
3
ACAD_GROUP
350
1f5
3
ACAD_MLINESTYLE
350
1f6
0
DICTIONARY
5
1f5
330
0
100
AcDbDictionary
280
0
281
1
0
DICTIONARY
5
1f6
330
0
100
AcDbDictionary
280
0
281
1
3
Standard
350
18
0
MLINESTYLE
5
18
330
1f6
100
AcDbMlineStyle
2
Standard
70
0
3

62
256
51
90
52
90
71
2
49
-0.5
62
256
6
ByLayer
49
0.5
62
256
6
ByLayer
0
RASTERVARIABLES
5
1e2
330

100
AcDbRasterVariables
90
0
70
1
71
1
72
1
0
ENDSEC
0
EOF
