0
SECTION
2
HEADER
9
$ACADVER
1
AC1015
9
$DWGCODEPAGE
3
ANSI_1252
9
$HANDSEED
5
22b
9
$ANGBASE
50
0
9
$ANGDIR
70
0
9
$ATTMODE
70
1
9
$AUNITS
70
0
9
$AUPREC
70
0
9
$CECOLOR
62
256
9
$CELTSCALE
40
1
9
$CELTYPE
6
ByLayer
9
$CELWEIGHT
370
18
9
$CLAYER
8
0
9
$CMLJUST
70
0
9
$CMLSCALE
40
1
9
$CMLSTYLE
2
Standard
9
$DIMSTYLE
2
Standard
9
$TEXTSIZE
40
0.2
9
$TEXTSTYLE
7
Standard
9
$LUNITS
70
2
9
$LUPREC
70
4
9
$EXTNAMES
290
1
9
$INSUNITS
70
4
9
$LTSCALE
40
1
9
$LWDISPLAY
290
1
9
$PDMODE
70
0
9
$PDSIZE
40
0
9
$PLINEGEN
70
0
0
ENDSEC
0
SECTION
2
CLASSES
0
CLASS
1
RASTERVARIABLES
2
AcDbRasterVariables
3
ISM
90
0
280
0
281
0
0
ENDSEC
0
SECTION
2
TABLES
0
TABLE
2
VPORT
5
221
100
AcDbSymbolTable
0
VPORT
5
1
100
AcDbSymbolTableRecord
100
AcDbViewportTableRecord
2
*Active
70
0
10
0
20
0
11
1
21
1
12
-1
22
1
13
0
23
0
14
0.5
24
0.5
15
10
25
10
16
0
26
0
36
1
17
0
27
0
37
0
0
ENDTAB
0
TABLE
2
LTYPE
5
222
100
AcDbSymbolTable
0
LTYPE
5
14
100
AcDbSymbolTableRecord
100
AcDbLinetypeTableRecord
70
0
2
ByBlock
3

72
65
73
0
40
0
0
LTYPE
5
15
100
AcDbSymbolTableRecord
100
AcDbLinetypeTableRecord
70
0
2
ByLayer
3

72
65
73
0
40
0
0
LTYPE
5
16
100
AcDbSymbolTableRecord
100
AcDbLinetypeTableRecord
70
0
2
Continuous
3
Solid line
72
65
73
0
40
0
0
LTYPE
5
6E
100
AcDbSymbolTableRecord
100
AcDbLinetypeTableRecord
70
0
2
CENTER
3
____ _ ____ _ ____ _ ____
72
65
73
4
40
47.5
49
22
74
0
49
-8.5
74
0
49
8.5
74
0
49
-8.5
74
0
0
LTYPE
5
6F
100
AcDbSymbolTableRecord
100
AcDbLinetypeTableRecord
70
0
2
DASHED
3
__ __ __ __ __ __ __ __ __
72
65
73
2
40
25.72
49
12.86
74
0
49
-12.86
74
0
0
ENDTAB
0
TABLE
2
LAYER
5
223
100
AcDbSymbolTable
0
LAYER
5
10
100
AcDbSymbolTableRecord
100
AcDbLayerTableRecord
2
0
70
0
62
7
6
Continuous
290
1
370
-3
390
0
0
LAYER
5
71
100
AcDbSymbolTableRecord
100
AcDbLayerTableRecord
2
80
70
0
62
-6
6
Continuous
290
1
370
-3
390
0
0
LAYER
5
73
100
AcDbSymbolTableRecord
100
AcDbLayerTableRecord
2
81
70
0
62
-3
6
Continuous
290
1
370
-3
390
0
0
LAYER
5
75
100
AcDbSymbolTableRecord
100
AcDbLayerTableRecord
2
1
70
0
62
4
6
Continuous
290
1
370
-3
390
0
0
LAYER
5
7B
100
AcDbSymbolTableRecord
100
AcDbLayerTableRecord
2
4
70
0
62
-2
6
CENTER
290
1
370
-3
390
0
0
LAYER
5
D6
100
AcDbSymbolTableRecord
100
AcDbLayerTableRecord
2
2
70
0
62
7
6
Continuous
290
1
370
-3
390
0
0
LAYER
5
17F
100
AcDbSymbolTableRecord
100
AcDbLayerTableRecord
2
Defpoints
70
0
62
7
6
Continuous
290
0
370
-3
390
0
0
LAYER
5
20d
100
AcDbSymbolTableRecord
100
AcDbLayerTableRecord
2
SK4
70
0
62
2
6
CENTER
290
1
370
-3
390
0
0
LAYER
5
20e
100
AcDbSymbolTableRecord
100
AcDbLayerTableRecord
2
SK1
70
0
62
4
6
Continuous
290
1
370
-3
390
0
0
LAYER
5
20f
100
AcDbSymbolTableRecord
100
AcDbLayerTableRecord
2
SK2
70
0
62
7
6
Continuous
290
1
370
-3
390
0
0
LAYER
5
210
100
AcDbSymbolTableRecord
100
AcDbLayerTableRecord
2
SK6
70
0
62
5
6
Continuous
290
1
370
-3
390
0
0
ENDTAB
0
TABLE
2
STYLE
5
224
100
AcDbSymbolTable
0
STYLE
5
11
100
AcDbSymbolTableRecord
100
AcDbTextStyleTableRecord
2
Standard
3
txt
70
0
71
0
40
0
41
1
42
0
50
0
0
STYLE
5
151
100
AcDbSymbolTableRecord
100
AcDbTextStyleTableRecord
2
iso_b_vert
3
simplex.shx
70
0
71
0
40
0
41
1
42
0
50
0
0
STYLE
5
152
100
AcDbSymbolTableRecord
100
AcDbTextStyleTableRecord
2
DWGDirectTextStyle
3
simplex
70
0
71
0
40
0
41
1
42
0
50
0
0
ENDTAB
0
TABLE
2
DIMSTYLE
5
225
100
AcDbSymbolTable
100
AcDbDimStyleTable
0
DIMSTYLE
105
27
100
AcDbSymbolTableRecord
100
AcDbDimStyleTableRecord
2
Standard
70
0
3
<>
41
0.18
42
0.0625
44
0.18
140
0.18
147
0.09
73
0
74
0
77
1
271
2
275
0
278
52
280
0
340
11
0
ENDTAB
0
TABLE
2
VIEW
5
226
100
AcDbSymbolTable
0
ENDTAB
0
TABLE
2
UCS
5
227
100
AcDbSymbolTable
0
ENDTAB
0
TABLE
2
APPID
5
228
100
AcDbSymbolTable
0
APPID
5
12
100
AcDbSymbolTableRecord
100
AcDbRegAppTableRecord
2
ACAD
70
0
0
APPID
5
17B
100
AcDbSymbolTableRecord
100
AcDbRegAppTableRecord
2
ACAD_DSTYLE_DIMBREAK
70
0
0
APPID
5
1CC
100
AcDbSymbolTableRecord
100
AcDbRegAppTableRecord
2
ACAD_DSTYLE_DIM_LINETYPE
70
0
0
APPID
5
1CD
100
AcDbSymbolTableRecord
100
AcDbRegAppTableRecord
2
ACAD_DSTYLE_DIM_EXT1_LINETYPE
70
0
0
APPID
5
1CE
100
AcDbSymbolTableRecord
100
AcDbRegAppTableRecord
2
ACAD_DSTYLE_DIM_EXT2_LINETYPE
70
0
0
APPID
5
209
100
AcDbSymbolTableRecord
100
AcDbRegAppTableRecord
2
ACAD_MLEADERVER
70
0
0
ENDTAB
0
TABLE
2
BLOCK_RECORD
5
229
100
AcDbSymbolTable
0
BLOCK_RECORD
5
1F
100
AcDbSymbolTableRecord
100
AcDbBlockTableRecord
2
*Model_Space
340
0
70
0
0
BLOCK_RECORD
5
1B
100
AcDbSymbolTableRecord
100
AcDbBlockTableRecord
2
*Paper_Space
340
0
70
0
0
BLOCK_RECORD
5
23
100
AcDbSymbolTableRecord
100
AcDbBlockTableRecord
2
*Paper_Space0
340
0
70
0
0
BLOCK_RECORD
5
180
100
AcDbSymbolTableRecord
100
AcDbBlockTableRecord
2
*D1
340
0
70
0
0
BLOCK_RECORD
5
18D
100
AcDbSymbolTableRecord
100
AcDbBlockTableRecord
2
_U0
340
0
70
0
0
BLOCK_RECORD
5
199
100
AcDbSymbolTableRecord
100
AcDbBlockTableRecord
2
*D3
340
0
70
0
0
BLOCK_RECORD
5
1A5
100
AcDbSymbolTableRecord
100
AcDbBlockTableRecord
2
_U1
340
0
70
0
0
ENDTAB
0
ENDSEC
0
SECTION
2
BLOCKS
0
BLOCK
5
20
100
AcDbEntity
8
0
100
AcDbBlockBegin
2
*Model_Space
70
0
10
0
20
0
30
0
3
*Model_Space
0
ENDBLK
5
21
100
AcDbEntity
8
0
100
AcDbBlockEnd
0
BLOCK
5
1C
100
AcDbEntity
8
0
100
AcDbBlockBegin
2
*Paper_Space
70
0
10
0
20
0
30
0
3
*Paper_Space
0
ENDBLK
5
1D
100
AcDbEntity
8
0
100
AcDbBlockEnd
0
BLOCK
5
24
100
AcDbEntity
8
0
100
AcDbBlockBegin
2
*Paper_Space0
70
0
10
0
20
0
30
0
3
*Paper_Space0
0
ENDBLK
5
25
100
AcDbEntity
8
0
100
AcDbBlockEnd
0
BLOCK
5
181
100
AcDbEntity
8
0
100
AcDbBlockBegin
2
*D1
70
1
10
0
20
0
30
0
3
*D1
0
LINE
5
183
100
AcDbEntity
8
0
62
256
6
ByLayer
370
-2
48
1
60
0
100
AcDbLine
10
32
20
-6.5875
30
0
11
32
21
-21.87335
31
0
39
0
210
0
220
0
230
1
0
LINE
5
184
100
AcDbEntity
8
0
62
256
6
ByLayer
370
-2
48
1
60
0
100
AcDbLine
10
17
20
-6.5875
30
0
11
17
21
-21.87335
31
0
39
0
210
0
220
0
230
1
0
LINE
5
185
100
AcDbEntity
8
0
62
256
6
ByLayer
370
-2
48
1
60
0
100
AcDbLine
10
35.5
20
-19.87335
30
0
11
39
21
-19.87335
31
0
39
0
210
0
220
0
230
1
0
LINE
5
186
100
AcDbEntity
8
0
62
256
6
ByLayer
370
-2
48
1
60
0
100
AcDbLine
10
13.5
20
-19.87335
30
0
11
10
21
-19.87335
31
0
39
0
210
0
220
0
230
1
0
SOLID
5
187
100
AcDbEntity
8
0
62
256
6
ByLayer
370
-1
48
1
60
0
100
AcDbTrace
10
35.5
20
-19.290017
30
0
11
35.5
21
-20.456683
31
0
12
32
22
-19.87335
32
0
13
32
23
-19.87335
33
0
39
0
210
0
220
0
230
1
0
SOLID
5
188
100
AcDbEntity
8
0
62
256
6
ByLayer
370
-1
48
1
60
0
100
AcDbTrace
10
13.5
20
-20.456683
30
0
11
13.5
21
-19.290017
31
0
12
17
22
-19.87335
32
0
13
17
23
-19.87335
33
0
39
0
210
0
220
0
230
1
0
MTEXT
5
189
100
AcDbEntity
8
0
62
256
6
ByLayer
370
18
48
1
60
0
100
AcDbMText
10
24.5
20
-12.87335
30
0
210
0
220
0
230
1
1
\A1;15
40
3.5
41
0
44
1
50
0
71
5
72
5
7
iso_b_vert
0
POINT
5
18A
100
AcDbEntity
8
Defpoints
62
0
6
ByLayer
370
-1
48
1
60
0
100
AcDbPoint
10
32
20
-5
30
0
39
0
210
0
220
0
230
1
50
360
0
POINT
5
18B
100
AcDbEntity
8
Defpoints
62
0
6
ByLayer
370
-1
48
1
60
0
100
AcDbPoint
10
17
20
-5
30
0
39
0
210
0
220
0
230
1
50
360
0
POINT
5
18C
100
AcDbEntity
8
Defpoints
62
0
6
ByLayer
370
-1
48
1
60
0
100
AcDbPoint
10
17
20
-19.87335
30
0
39
0
210
0
220
0
230
1
50
360
0
ENDBLK
5
182
100
AcDbEntity
8
0
100
AcDbBlockEnd
0
BLOCK
5
194
100
AcDbEntity
8
0
100
AcDbBlockBegin
2
_U0
70
0
10
0
20
0
30
0
3
_U0
0
MTEXT
5
18E
100
AcDbEntity
8
2
62
256
6
ByLayer
370
18
48
1
60
0
100
AcDbMText
10
23.032467
20
-18.840717
30
0
210
0
220
0
230
1
1
\W0.5321;15
40
3.5
41
0
44
1.084337
50
0
71
7
72
5
7
iso_b_vert
0
LINE
5
18F
100
AcDbEntity
8
2
62
256
6
ByLayer
370
13
48
1
60
0
100
AcDbLine
10
32
20
-6.5875
30
0
11
32
21
-21.87335
31
0
39
0
210
0
220
0
230
1
0
LINE
5
190
100
AcDbEntity
8
2
62
256
6
ByLayer
370
13
48
1
60
0
100
AcDbLine
10
17
20
-6.5875
30
0
11
17
21
-21.87335
31
0
39
0
210
0
220
0
230
1
0
LINE
5
191
100
AcDbEntity
8
2
62
256
6
ByLayer
370
13
48
1
60
0
100
AcDbLine
10
32
20
-19.87335
30
0
11
17
21
-19.87335
31
0
39
0
210
0
220
0
230
1
0
SOLID
5
192
100
AcDbEntity
8
2
62
256
6
ByLayer
370
18
48
1
60
0
100
AcDbTrace
10
32
20
-19.87335
30
0
11
28.500002
21
-20.334134
31
0
12
28.499998
22
-19.412566
32
0
13
28.499998
23
-19.412566
33
0
39
0
210
0
220
0
230
1
0
SOLID
5
193
100
AcDbEntity
8
2
62
256
6
ByLayer
370
18
48
1
60
0
100
AcDbTrace
10
17
20
-19.87335
30
0
11
20.499998
21
-19.412566
31
0
12
20.500002
22
-20.334134
32
0
13
20.500002
23
-20.334134
33
0
39
0
210
0
220
0
230
1
0
ENDBLK
5
195
100
AcDbEntity
8
0
100
AcDbBlockEnd
0
BLOCK
5
19A
100
AcDbEntity
8
0
100
AcDbBlockBegin
2
*D3
70
1
10
0
20
0
30
0
3
*D3
0
LINE
5
19C
100
AcDbEntity
8
0
62
256
6
ByLayer
370
-2
48
1
60
0
100
AcDbLine
10
32
20
-6.5875
30
0
11
32
21
-36.87335
31
0
39
0
210
0
220
0
230
1
0
LINE
5
19D
100
AcDbEntity
8
0
62
256
6
ByLayer
370
-2
48
1
60
0
100
AcDbLine
10
1.997679
20
-6.3875
30
0
11
1.997679
21
-36.87335
31
0
39
0
210
0
220
0
230
1
0
LINE
5
19E
100
AcDbEntity
8
0
62
256
6
ByLayer
370
-2
48
1
60
0
100
AcDbLine
10
28.5
20
-34.87335
30
0
11
5.497679
21
-34.87335
31
0
39
0
210
0
220
0
230
1
0
SOLID
5
19F
100
AcDbEntity
8
0
62
256
6
ByLayer
370
-1
48
1
60
0
100
AcDbTrace
10
28.5
20
-35.456683
30
0
11
28.5
21
-34.290017
31
0
12
32
22
-34.87335
32
0
13
32
23
-34.87335
33
0
39
0
210
0
220
0
230
1
0
SOLID
5
1A0
100
AcDbEntity
8
0
62
256
6
ByLayer
370
-1
48
1
60
0
100
AcDbTrace
10
5.497679
20
-34.290017
30
0
11
5.497679
21
-35.456683
31
0
12
1.997679
22
-34.87335
32
0
13
1.997679
23
-34.87335
33
0
39
0
210
0
220
0
230
1
0
MTEXT
5
1A1
100
AcDbEntity
8
0
62
256
6
ByLayer
370
18
48
1
60
0
100
AcDbMText
10
16.998839
20
-27.87335
30
0
210
0
220
0
230
1
1
\A1;30
40
3.5
41
0
44
1
50
0
71
5
72
5
7
iso_b_vert
0
POINT
5
1A2
100
AcDbEntity
8
Defpoints
62
0
6
ByLayer
370
-1
48
1
60
0
100
AcDbPoint
10
32
20
-5
30
0
39
0
210
0
220
0
230
1
50
360
0
POINT
5
1A3
100
AcDbEntity
8
Defpoints
62
0
6
ByLayer
370
-1
48
1
60
0
100
AcDbPoint
10
1.997679
20
-4.8
30
0
39
0
210
0
220
0
230
1
50
360
0
POINT
5
1A4
100
AcDbEntity
8
Defpoints
62
0
6
ByLayer
370
-1
48
1
60
0
100
AcDbPoint
10
1.997679
20
-34.87335
30
0
39
0
210
0
220
0
230
1
50
360
0
ENDBLK
5
19B
100
AcDbEntity
8
0
100
AcDbBlockEnd
0
BLOCK
5
1AC
100
AcDbEntity
8
0
100
AcDbBlockBegin
2
_U1
70
0
10
0
20
0
30
0
3
_U1
0
MTEXT
5
1A6
100
AcDbEntity
8
SK2
62
256
6
ByLayer
370
18
48
1
60
0
100
AcDbMText
10
15.093873
20
-33.840717
30
0
210
0
220
0
230
1
1
\W0.6740;30
40
3.5
41
0
44
1.084337
50
0
71
7
72
5
7
iso_b_vert
0
LINE
5
1A7
100
AcDbEntity
8
SK2
62
256
6
ByLayer
370
13
48
1
60
0
100
AcDbLine
10
32
20
-6.5875
30
0
11
32
21
-36.87335
31
0
39
0
210
0
220
0
230
1
0
LINE
5
1A8
100
AcDbEntity
8
SK2
62
256
6
ByLayer
370
13
48
1
60
0
100
AcDbLine
10
1.997679
20
-6.3875
30
0
11
1.997679
21
-36.87335
31
0
39
0
210
0
220
0
230
1
0
LINE
5
1A9
100
AcDbEntity
8
SK2
62
256
6
ByLayer
370
13
48
1
60
0
100
AcDbLine
10
32
20
-34.87335
30
0
11
1.997679
21
-34.87335
31
0
39
0
210
0
220
0
230
1
0
SOLID
5
1AA
100
AcDbEntity
8
SK2
62
256
6
ByLayer
370
18
48
1
60
0
100
AcDbTrace
10
32
20
-34.87335
30
0
11
28.500002
21
-35.334134
31
0
12
28.499998
22
-34.412566
32
0
13
28.499998
23
-34.412566
33
0
39
0
210
0
220
0
230
1
0
SOLID
5
1AB
100
AcDbEntity
8
SK2
62
256
6
ByLayer
370
18
48
1
60
0
100
AcDbTrace
10
1.997679
20
-34.87335
30
0
11
5.497677
21
-34.412566
31
0
12
5.497681
22
-35.334134
32
0
13
5.497681
23
-35.334134
33
0
39
0
210
0
220
0
230
1
0
ENDBLK
5
1AD
100
AcDbEntity
8
0
100
AcDbBlockEnd
0
ENDSEC
0
SECTION
2
ENTITIES
0
ARC
5
E8
100
AcDbEntity
8
1
62
256
6
ByLayer
370
18
48
1
60
0
100
AcDbCircle
39
0
10
1.997679
20
5.8
30
0
40
1
210
0
220
0
230
1
100
AcDbArc
50
240
51
270
0
ARC
5
E9
100
AcDbEntity
8
1
62
256
6
ByLayer
370
18
48
1
60
0
100
AcDbCircle
39
0
10
1.997679
20
-5.8
30
0
40
1
210
0
220
0
230
1
100
AcDbArc
50
90
51
120
0
ELLIPSE
5
EA
100
AcDbEntity
8
1
62
256
6
ByLayer
370
18
48
1
60
0
100
AcDbEllipse
10
22.417775
20
0
30
0
11
10.3424042718017
21
-3.32974366306528
31
0
210
0
220
0
230
1
40
0.334282
41
-2.4504289129252
42
-2.0821854613406
0
POINT
5
70
100
AcDbEntity
8
80
62
256
6
ByLayer
370
18
48
1
60
0
100
AcDbPoint
10
0
20
0
30
0
39
0
210
0
220
0
230
1
50
360
0
POINT
5
72
100
AcDbEntity
8
81
62
256
6
ByLayer
370
18
48
1
60
0
100
AcDbPoint
10
32
20
0
30
0
39
0
210
0
220
0
230
1
50
360
0
POINT
5
74
100
AcDbEntity
8
1
62
256
6
ByLayer
370
18
48
1
60
1
100
AcDbPoint
10
32
20
-5
30
0
39
0
210
0
220
0
230
1
50
360
0
POINT
5
76
100
AcDbEntity
8
1
62
256
6
ByLayer
370
18
48
1
60
1
100
AcDbPoint
10
17
20
-5
30
0
39
0
210
0
220
0
230
1
50
360
0
POINT
5
77
100
AcDbEntity
8
1
62
256
6
ByLayer
370
18
48
1
60
1
100
AcDbPoint
10
32
20
-5
30
0
39
0
210
0
220
0
230
1
50
360
0
POINT
5
78
100
AcDbEntity
8
1
62
256
6
ByLayer
370
18
48
1
60
1
100
AcDbPoint
10
1.997679
20
-4.8
30
0
39
0
210
0
220
0
230
1
50
360
0
SPLINE
5
EB
100
AcDbEntity
8
1
62
256
6
ByLayer
370
18
48
1
60
0
100
AcDbSpline
70
4
71
5
72
15
73
9
40
0
40
0
40
0
40
0
40
0
40
0
40
0.0740399780266134
40
0.275222851694928
40
0.678083813170726
40
1
40
1
40
1
40
1
40
1
40
1
41
1
10
31.995688392873
20
-2.62757634013809
30
0
41
1
10
31.9956732489033
20
-2.62866339787669
30
0
41
1
10
31.9955866848713
20
-2.63270625998646
30
0
41
1
10
31.9950964107697
20
-2.64268343054837
30
0
41
1
10
31.993371227676
20
-2.65743135284987
30
0
41
1
10
31.9901796198918
20
-2.67219926869902
30
0
41
1
10
31.9859437970215
20
-2.68592192092456
30
0
41
1
10
31.9818824561745
20
-2.69659660211354
30
0
41
1
10
31.9799341235835
20
-2.70131955279138
30
0
0
SPLINE
5
EC
100
AcDbEntity
8
1
62
256
6
ByLayer
370
13
48
1
60
0
100
AcDbSpline
70
4
71
1
72
4
73
2
40
0
40
0
40
1
40
1
41
1
10
31.8903531797863
20
-3.10115122198894
30
0
41
1
10
31.9956123964462
20
-2.62243394529798
30
0
0
SPLINE
5
ED
100
AcDbEntity
8
1
62
256
6
ByLayer
370
18
48
1
60
0
100
AcDbSpline
70
4
71
3
72
26
73
22
40
0
40
0
40
0
40
0
40
0.250000000000057
40
0.250000000000057
40
0.375000000000084
40
0.375000000000084
40
0.500000000000112
40
0.500000000000112
40
0.562500000000113
40
0.562500000000113
40
0.625000000000113
40
0.625000000000113
40
0.750000000000092
40
0.750000000000092
40
0.812500000000069
40
0.812500000000069
40
0.875000000000046
40
0.875000000000046
40
0.937500000000023
40
0.937500000000023
40
1
40
1
40
1
40
1
41
1
10
31.6816354967436
20
-3.64162411260656
30
0
41
1
10
31.7025994043101
20
-3.59997920157602
30
0
41
1
10
31.7234200377055
20
-3.55755991765636
30
0
41
1
10
31.7543255666999
20
-3.49217214526271
30
0
41
1
10
31.764591315905
20
-3.47003712251598
30
0
41
1
10
31.7848548847399
20
-3.42525904581581
30
0
41
1
10
31.7948569948997
20
-3.40261359374656
30
0
41
1
10
31.8095895036008
20
-3.36811022808234
30
0
41
1
10
31.8144641187258
20
-3.35649590230352
30
0
41
1
10
31.8240316185458
20
-3.333219343677
30
0
41
1
10
31.8287290459138
20
-3.32154763652497
30
0
41
1
10
31.8425068965527
20
-3.28641075354415
30
0
41
1
10
31.8512894211455
20
-3.26283021840422
30
0
41
1
10
31.8634447341574
20
-3.22706501835864
30
0
41
1
10
31.8673242282132
20
-3.21507657189073
30
0
41
1
10
31.8745917148254
20
-3.19090934821969
30
0
41
1
10
31.8778885564901
20
-3.17902673405266
30
0
41
1
10
31.8835414550017
20
-3.15596979428685
30
0
41
1
10
31.8859115458977
20
-3.14466830752383
30
0
41
1
10
31.8892231041505
20
-3.12409550598497
30
0
41
1
10
31.8902053040799
20
-3.11467932929708
30
0
41
1
10
31.8904279025031
20
-3.10629940962565
30
0
0
SPLINE
5
EE
100
AcDbEntity
8
1
62
256
6
ByLayer
370
18
48
1
60
0
100
AcDbSpline
70
4
71
1
72
4
73
2
40
0
40
0
40
1
40
1
41
1
10
31.8904279025032
20
-3.10629940962562
30
0
41
1
10
31.8903531797863
20
-3.10115122198894
30
0
0
SPLINE
5
EF
100
AcDbEntity
8
1
62
256
6
ByLayer
370
18
48
1
60
0
100
AcDbSpline
70
4
71
1
72
4
73
2
40
0
40
0
40
1
40
1
41
1
10
31.8903531797863
20
-3.10115122198894
30
0
41
1
10
31.8895282706044
20
-3.04431727072506
30
0
0
SPLINE
5
F0
100
AcDbEntity
8
1
62
256
6
ByLayer
370
18
48
1
60
0
100
AcDbSpline
70
4
71
3
72
10
73
6
40
0
40
0
40
0
40
0
40
0.5
40
0.5
40
1
40
1
40
1
40
1
41
1
10
16.6539627582446
20
4.7973658137839
30
0
41
1
10
16.6941407207146
20
4.80801574158124
30
0
41
1
10
16.7340887093351
20
4.82138301883941
30
0
41
1
10
16.8114713152555
20
4.85297422245236
30
0
41
1
10
16.8490977053696
20
4.87122703348575
30
0
41
1
10
16.8856406460561
20
4.89197982556456
30
0
0
SPLINE
5
F1
100
AcDbEntity
8
1
62
256
6
ByLayer
370
18
48
1
60
0
100
AcDbSpline
70
4
71
3
72
8
73
4
40
0
40
0
40
0
40
0
40
1
40
1
40
1
40
1
41
1
10
16.8856406460551
20
4.89197982556684
30
0
41
1
10
16.9237602042996
20
4.91362798117564
30
0
41
1
10
16.9618799919079
20
4.9352757235136
30
0
41
1
10
17.0000000000002
20
4.95692306855094
30
0
0
SPLINE
5
F2
100
AcDbEntity
8
1
62
256
6
ByLayer
370
18
48
1
60
0
100
AcDbSpline
70
4
71
3
72
23
73
19
40
0
40
0
40
0
40
0
40
0.0272373395798901
40
0.0272373395798901
40
0.115670308708984
40
0.115670308708984
40
0.292536246967179
40
0.292536246967179
40
0.469402185225374
40
0.469402185225374
40
0.513618669789924
40
0.513618669789924
40
0.557835154354474
40
0.646268123483579
40
0.646268123483579
40
0.823134061741789
40
0.823134061741789
40
1
40
1
40
1
40
1
41
1
10
26.3447540567058
20
3.51238061387559
30
0
41
1
10
26.3911181774526
20
3.53549657407288
30
0
41
1
10
26.4374962360841
20
3.55839621770349
30
0
41
1
10
26.6345248387369
20
3.65471100762261
30
0
41
1
10
26.7854678581596
20
3.72608421080264
30
0
41
1
10
27.2374976098787
20
3.93216754188182
30
0
41
1
10
27.5381676652632
20
4.05905046729922
30
0
41
1
10
28.1396747701606
20
4.29074042004473
30
0
41
1
10
28.4404958773309
20
4.39554361436589
30
0
41
1
10
28.8175499430526
20
4.51183364222572
30
0
41
1
10
28.8929882711378
20
4.53434740109947
30
0
41
1
10
29.043613211478
20
4.57777976805579
30
0
41
1
10
29.2693104869539
20
4.64057791600229
30
0
41
1
10
29.4944040749989
20
4.69630995156933
30
0
41
1
10
29.9440926440434
20
4.79831146652543
30
0
41
1
10
30.2432207520084
20
4.85370604184737
30
0
41
1
10
30.8417547734179
20
4.93876139620474
30
0
41
1
10
31.1411617719478
20
4.9684159909736
30
0
41
1
10
31.4414936004441
20
4.98483395474983
30
0
0
SPLINE
5
F3
100
AcDbEntity
8
1
62
256
6
ByLayer
370
18
48
1
60
0
100
AcDbSpline
70
4
71
5
72
34
73
28
40
0
40
0
40
0
40
0
40
0
40
0
40
0.01181468628355
40
0.043917782477672
40
0.108202997035429
40
0.170991317028711
40
0.203174247442506
40
0.235494424225787
40
0.300341215597459
40
0.332792057584317
40
0.364576235706194
40
0.396238006654028
40
0.428519593863719
40
0.49339981302635
40
0.558450624817767
40
0.590147366452998
40
0.621844310713208
40
0.654206538900484
40
0.719237703417618
40
0.784411977969722
40
0.815931930842145
40
0.847613718138714
40
0.880028083570589
40
0.945149947622921
40
1
40
1
40
1
40
1
40
1
40
1
41
1
10
31.995688392873
20
4.49495776299332
30
0
41
1
10
31.9956732489032
20
4.49675672306424
30
0
41
1
10
31.9955866848712
20
4.5034427284792
30
0
41
1
10
31.9950964107696
20
4.51990176425349
30
0
41
1
10
31.9932477665464
20
4.54581313134579
30
0
41
1
10
31.9890504419117
20
4.57634997522936
30
0
41
1
10
31.9819154415862
20
4.60976028472001
30
0
41
1
10
31.9710712218362
20
4.64695903774458
30
0
41
1
10
31.9592903287421
20
4.67855781106979
30
0
41
1
10
31.9474943418022
20
4.70510228731183
30
0
41
1
10
31.9340588565636
20
4.73092870292297
30
0
41
1
10
31.9189755739107
20
4.75601490971891
30
0
41
1
10
31.9027022621255
20
4.78029484105693
30
0
41
1
10
31.8821135489289
20
4.80726549066938
30
0
41
1
10
31.8597014699332
20
4.83252454946427
30
0
41
1
10
31.8354303438957
20
4.85615202577185
30
0
41
1
10
31.809206092807
20
4.87813734305388
30
0
41
1
10
31.7817327599659
20
4.8984339424515
30
0
41
1
10
31.7532344947444
20
4.91689778151547
30
0
41
1
10
31.7235898736693
20
4.93314355913921
30
0
41
1
10
31.6927304344661
20
4.94723901113639
30
0
41
1
10
31.6605810799856
20
4.95913907545398
30
0
41
1
10
31.6278377026187
20
4.96903256475824
30
0
41
1
10
31.596264323793
20
4.97650555552022
30
0
41
1
10
31.5690184841453
20
4.98098952023236
30
0
41
1
10
31.5462185769736
20
4.98341962819487
30
0
41
1
10
31.5281206422349
20
4.98452013007085
30
0
41
1
10
31.5198234772872
20
4.98485203849287
30
0
0
SPLINE
5
F4
100
AcDbEntity
8
1
62
256
6
ByLayer
370
18
48
1
60
0
100
AcDbSpline
70
4
71
3
72
8
73
4
40
0
40
0
40
0
40
0
40
1
40
1
40
1
40
1
41
1
10
31.4414936004435
20
4.98483395475046
30
0
41
1
10
31.4676030716938
20
4.98476985650808
30
0
41
1
10
31.4937130305203
20
4.98477586695452
30
0
41
1
10
31.5198234772873
20
4.98485203849287
30
0
0
SPLINE
5
F5
100
AcDbEntity
8
1
62
256
6
ByLayer
370
18
48
1
60
0
100
AcDbSpline
70
4
71
3
72
8
73
4
40
0
40
0
40
0
40
0
40
1
40
1
40
1
40
1
41
1
10
31.4414936004537
20
4.98483395475398
30
0
41
1
10
31.4774572125805
20
4.86969594451077
30
0
41
1
10
31.5161012446702
20
4.75549431091829
30
0
41
1
10
31.5580323496127
20
4.6424409817171
30
0
0
SPLINE
5
F6
100
AcDbEntity
8
1
62
256
6
ByLayer
370
18
48
1
60
0
100
AcDbSpline
70
4
71
3
72
8
73
4
40
0
40
0
40
0
40
0
40
1
40
1
40
1
40
1
41
1
10
18.2294454085607
20
-3.56983909984652
30
0
41
1
10
17.8196302723738
20
-3.63949533863314
30
0
41
1
10
17.409815136187
20
-3.69148106188158
30
0
41
1
10
17
20
-3.72436337829919
30
0
0
SPLINE
5
F7
100
AcDbEntity
8
1
62
256
6
ByLayer
370
18
48
1
60
0
100
AcDbSpline
70
4
71
3
72
50
73
46
40
0
40
0
40
0
40
0
40
0.0702691365296187
40
0.0702691365296187
40
0.105403704794426
40
0.105403704794426
40
0.12297098892683
40
0.12297098892683
40
0.140538273059234
40
0.140538273059234
40
0.210807409588846
40
0.210807409588846
40
0.228374693721249
40
0.228374693721249
40
0.245941977853651
40
0.245941977853651
40
0.281076546118457
40
0.316211114383262
40
0.333778398515662
40
0.333778398515662
40
0.351345682648062
40
0.351345682648062
40
0.421614819177668
40
0.421614819177668
40
0.456749387442467
40
0.456749387442467
40
0.474316671574862
40
0.474316671574862
40
0.491883955707256
40
0.491883955707256
40
0.562153092236845
40
0.562153092236845
40
0.632422228766435
40
0.632422228766435
40
0.667556797031229
40
0.667556797031229
40
0.702691365296024
40
0.702691365296024
40
0.772960501825623
40
0.772960501825623
40
0.843229638355223
40
0.843229638355223
40
0.983767911414411
40
0.983767911414411
40
1
40
1
40
1
40
1
41
1
10
31.5580323511027
20
4.64244098224913
30
0
41
1
10
31.5880641718819
20
4.56147010730697
30
0
41
1
10
31.613465948081
20
4.47933331317577
30
0
41
1
10
31.6426744228022
20
4.35388842313091
30
0
41
1
10
31.6509189234123
20
4.31169783657845
30
0
41
1
10
31.6606862047756
20
4.24775736881867
30
0
41
1
10
31.6635077102851
20
4.22633452723784
30
0
41
1
10
31.6682073495728
20
4.18325128801419
30
0
41
1
10
31.6700780680225
20
4.16163768844373
30
0
41
1
10
31.6768407095583
20
4.05388576408578
30
0
41
1
10
31.6740884332938
20
3.9680644250613
30
0
41
1
10
31.6580253129983
20
3.86137571450828
30
0
41
1
10
31.6541778583956
20
3.84006754252124
30
0
41
1
10
31.6451367425899
20
3.79751390425014
30
0
41
1
10
31.6399399806642
20
3.77628631163233
30
0
41
1
10
31.6225223210208
20
3.71367211893298
30
0
41
1
10
31.5942989221491
20
3.63238758391432
30
0
41
1
10
31.5467534492616
20
3.53618180171324
30
0
41
1
10
31.5128230300777
20
3.4808369224024
30
0
41
1
10
31.489016522314
20
3.44446254238966
30
0
41
1
10
31.4764878468604
20
3.42649915254822
30
0
41
1
10
31.4118243007409
20
3.33913551880596
30
0
41
1
10
31.3531445072597
20
3.27612253174328
30
0
41
1
10
31.257283764107
20
3.18936394784927
30
0
41
1
10
31.2240120022385
20
3.16174912541933
30
0
41
1
10
31.1723680009863
20
3.12204550006331
30
0
41
1
10
31.1548742681504
20
3.10910823572559
30
0
41
1
10
31.1196089654121
20
3.08395224096984
30
0
41
1
10
31.101804554195
20
3.07170786676997
30
0
41
1
10
31.0119989823986
20
3.01200788231745
30
0
41
1
10
30.9376756553596
20
2.96906280560364
30
0
41
1
10
30.785465406249
20
2.89009451380423
30
0
41
1
10
30.7075677384763
20
2.85409217097171
30
0
41
1
10
30.5886932868689
20
2.80402770950644
30
0
41
1
10
30.5487274869647
20
2.78800187423013
30
0
41
1
10
30.468195308832
20
2.75711675599911
30
0
41
1
10
30.4277067807692
20
2.74228867538974
30
0
41
1
10
30.306057636611
20
2.69955200443098
30
0
41
1
10
30.2245409733469
20
2.67331172414103
30
0
41
1
10
30.0608648263049
20
2.62429896021499
30
0
41
1
10
29.9787043491927
20
2.60153183527842
30
0
41
1
10
29.7314546069599
20
2.53737523478569
30
0
41
1
10
29.5656074748088
20
2.50007419246592
30
0
41
1
10
29.3798451161734
20
2.46256473042934
30
0
41
1
10
29.3606020031261
20
2.4587304887624
30
0
41
1
10
29.341350011071
20
2.4549441463038
30
0
0
SPLINE
5
F8
100
AcDbEntity
8
1
62
256
6
ByLayer
370
13
48
1
60
0
100
AcDbSpline
70
4
71
3
72
11
73
7
40
0
40
0
40
0
40
0
40
0.103044259170163
40
0.39546914161958
40
0.687894024068997
40
1
40
1
40
1
40
1
41
1
10
31.5580323508871
20
4.64244098227871
30
0
41
1
10
31.3928549005914
20
4.634254405967
30
0
41
1
10
30.7589274502957
20
4.58840206066276
30
0
41
1
10
29.65625
20
4.41422454898551
30
0
41
1
10
28.2184516840968
20
4.01514134903798
30
0
41
1
10
27.2494033681934
20
3.63302961221296
30
0
41
1
10
26.7491050522902
20
3.41089229225983
30
0
0
SPLINE
5
F9
100
AcDbEntity
8
1
62
256
6
ByLayer
370
18
48
1
60
0
100
AcDbSpline
70
4
71
3
72
10
73
6
40
0
40
0
40
0
40
0
40
0.5
40
0.5
40
1
40
1
40
1
40
1
41
1
10
16.3856406460551
20
4.76545339139776
30
0
41
1
10
16.4309619155669
20
4.76452554051622
30
0
41
1
10
16.475958646118
20
4.76670179226321
30
0
41
1
10
16.5653785330098
20
4.7772698251849
30
0
41
1
10
16.609801439185
20
4.78566002208851
30
0
41
1
10
16.6539627582446
20
4.79736581378393
30
0
0
SPLINE
5
FA
100
AcDbEntity
8
1
62
256
6
ByLayer
370
18
48
1
60
0
100
AcDbSpline
70
4
71
3
72
16
73
12
40
0
40
0
40
0
40
0
40
0.250000000000018
40
0.250000000000018
40
0.375000000000028
40
0.375000000000028
40
0.500000000000037
40
0.500000000000037
40
0.750000000000018
40
0.750000000000018
40
1
40
1
40
1
40
1
41
1
10
28.4490240564882
20
-1.44086500033876
30
0
41
1
10
28.4697589311575
20
-1.4721223840443
30
0
41
1
10
28.4898656313819
20
-1.50403956651795
30
0
41
1
10
28.5188677983626
20
-1.55313151515705
30
0
41
1
10
28.5283413569132
20
-1.56969908652715
30
0
41
1
10
28.5468509419561
20
-1.60329378809868
30
0
41
1
10
28.5559000746109
20
-1.62034665982892
30
0
41
1
10
28.5821957407758
20
-1.67209507066212
30
0
41
1
10
28.598568421226
20
-1.70729926281715
30
0
41
1
10
28.6283047699347
20
-1.77954058655621
30
0
41
1
10
28.6416826048192
20
-1.81656908857934
30
0
41
1
10
28.6529559150708
20
-1.85487956150178
30
0
0
SPLINE
5
FB
100
AcDbEntity
8
1
62
256
6
ByLayer
370
18
48
1
60
0
100
AcDbSpline
70
4
71
3
72
14
73
10
40
0
40
0
40
0
40
0
40
0.500000000000011
40
0.500000000000011
40
0.625000000000004
40
0.625000000000004
40
0.749999999999996
40
0.749999999999996
40
1
40
1
40
1
40
1
41
1
10
28.4490240564882
20
-1.44086500033879
30
0
41
1
10
28.424013066323
20
-1.40316146323428
30
0
41
1
10
28.4057917631411
20
-1.36308406341618
30
0
41
1
10
28.390650907378
20
-1.31134679353894
30
0
41
1
10
28.3880015747738
20
-1.30087943607378
30
0
41
1
10
28.3835147535559
20
-1.28002209184967
30
0
41
1
10
28.3816742427572
20
-1.269635656162
30
0
41
1
10
28.377299814174
20
-1.23864455149541
30
0
41
1
10
28.3759069025354
20
-1.21820825430171
30
0
41
1
10
28.3759483043964
20
-1.19810026775778
30
0
0
SPLINE
5
FC
100
AcDbEntity
8
1
62
256
6
ByLayer
370
18
48
1
60
0
100
AcDbSpline
70
4
71
3
72
11
73
7
40
0
40
0
40
0
40
0
40
0.161776960206782
40
0.161776960206782
40
0.441184640137856
40
1
40
1
40
1
40
1
41
1
10
29.0650652671947
20
2.63194753719483
30
0
41
1
10
29.0711430391689
20
2.6298780040122
30
0
41
1
10
29.0774173943274
20
2.62757964890747
30
0
41
1
10
29.095023373964
20
2.62071345407148
30
0
41
1
10
29.1301451823328
20
2.60568974528158
30
0
41
1
10
29.1700440912729
20
2.58501209521137
30
0
41
1
10
29.1986005343976
20
2.56891058442449
30
0
0
SPLINE
5
FD
100
AcDbEntity
8
1
62
256
6
ByLayer
370
18
48
1
60
0
100
AcDbSpline
70
4
71
3
72
19
73
15
40
0
40
0
40
0
40
0
40
0.125000000000001
40
0.125000000000001
40
0.250000000000001
40
0.375000000000002
40
0.375000000000002
40
0.500000000000003
40
0.500000000000003
40
0.625000000000004
40
0.625000000000004
40
0.750000000000004
40
0.750000000000004
40
1
40
1
40
1
40
1
41
1
10
29.0341701687014
20
-2.65063257031898
30
0
41
1
10
29.0286100614549
20
-2.68390527532856
30
0
41
1
10
29.0236972040384
20
-2.71720904375914
30
0
41
1
10
29.0152594533786
20
-2.7835274126349
30
0
41
1
10
29.0081908570611
20
-2.84965337833691
30
0
41
1
10
29.0039242590836
20
-2.91538558757432
30
0
41
1
10
29.0010976719327
20
-2.98091543638773
30
0
41
1
10
29.0004101542849
20
-3.01347100438505
30
0
41
1
10
29.0004976546753
20
-3.07802037502259
30
0
41
1
10
29.0012716552584
20
-3.11003669364572
30
0
41
1
10
29.0042905554554
20
-3.17354891853964
30
0
41
1
10
29.006540650595
20
-3.20508174134804
30
0
41
1
10
29.0154612255314
20
-3.29836385247924
30
0
41
1
10
29.0242987656468
20
-3.35894018357402
30
0
41
1
10
29.035964583466
20
-3.41793946148152
30
0
0
SPLINE
5
FE
100
AcDbEntity
8
1
62
256
6
ByLayer
370
18
48
1
60
0
100
AcDbSpline
70
4
71
3
72
17
73
13
40
0
40
0
40
0
40
0
40
0.25
40
0.25
40
0.375
40
0.375
40
0.500000000000001
40
0.625000000000001
40
0.625000000000001
40
0.750000000000001
40
0.750000000000001
40
1
40
1
40
1
40
1
41
1
10
28.6529559152766
20
-1.85487956135819
30
0
41
1
10
28.6743733665346
20
-1.92765329731054
30
0
41
1
10
28.6988160077595
20
-1.99892485127404
30
0
41
1
10
28.7396536787663
20
-2.10375969398169
30
0
41
1
10
28.7539789706067
20
-2.13839400220363
30
0
41
1
10
28.7839063378257
20
-2.20683080915097
30
0
41
1
10
28.8150436318371
20
-2.27429250715787
30
0
41
1
10
28.8484727115997
20
-2.33990720021433
30
0
41
1
10
28.8829934130918
20
-2.40464212921015
30
0
41
1
10
28.9008203426432
20
-2.43660448327933
30
0
41
1
10
28.9556949943326
20
-2.53093224334393
30
0
41
1
10
28.9941112312996
20
-2.59172149860947
30
0
41
1
10
29.0341701687014
20
-2.65063257031898
30
0
0
SPLINE
5
FF
100
AcDbEntity
8
1
62
256
6
ByLayer
370
13
48
1
60
0
100
AcDbSpline
70
4
71
3
72
49
73
45
40
0
40
0
40
0
40
0
40
0.0345797167909704
40
0.195483097325809
40
0.316160632726937
40
0.436838168128066
40
0.517289858395485
40
0.597741548662904
40
0.678193238930323
40
0.738532006630888
40
0.788814313048025
40
0.818983696898307
40
0.839096619465162
40
0.854181311390303
40
0.866751887994587
40
0.874294233957158
40
0.879322464598871
40
0.884350695240585
40
0.891893041203155
40
0.90446361780744
40
0.919548309732581
40
0.939661232299436
40
0.954745924224577
40
0.967316500828861
40
0.974858846791432
40
0.979887077433145
40
0.98365825041443
40
0.986172365735287
40
0.98805795222593
40
0.989315009886358
40
0.991200596377001
40
0.992143389622322
40
0.99292905066009
40
0.993321881178974
40
0.993479013386528
40
0.993596862542193
40
0.993675428645969
40
0.993793277801635
40
0.994028976112965
40
0.994500372735626
40
0.995286033773393
40
0.996228827018715
40
0.997485884679143
40
1
40
1
40
1
40
1
41
1
10
28.6529559153298
20
-1.85487956134531
30
0
41
1
10
28.5186372768866
20
-1.81858147660705
30
0
41
1
10
27.7593186384433
20
-1.60714916716935
30
0
41
1
10
26.5312500000001
20
-1.21114468008764
30
0
41
1
10
24.96875
20
-0.652154578421147
30
0
41
1
10
23.7187500000001
20
-0.184133217250377
30
0
41
1
10
22.6250000000001
20
0.223903209060495
30
0
41
1
10
21.6875000000001
20
0.564417914400877
30
0
41
1
10
20.8281250000001
20
0.862227202800653
30
0
41
1
10
20.0859375000001
20
1.10508003723248
30
0
41
1
10
19.5390625000001
20
1.27357922366628
30
0
41
1
10
19.1484375000001
20
1.38767242545066
30
0
41
1
10
18.8945312500001
20
1.45910686797492
30
0
41
1
10
18.7089843750001
20
1.5098572443616
30
0
41
1
10
18.572265625
20
1.54638845582031
30
0
41
1
10
18.4746093750001
20
1.57202388246378
30
0
41
1
10
18.4062500000001
20
1.58976576126264
30
0
41
1
10
18.3378906250001
20
1.60734404519272
30
0
41
1
10
18.2402343750001
20
1.632161538623
30
0
41
1
10
18.1035156250001
20
1.66623945904618
30
0
41
1
10
17.9179687500001
20
1.7112225470033
30
0
41
1
10
17.7226562500001
20
1.75684470007272
30
0
41
1
10
17.5371093750001
20
1.79850487339064
30
0
41
1
10
17.400390625
20
1.82821237149545
30
0
41
1
10
17.3027343750001
20
1.84891104974355
30
0
41
1
10
17.2392578125001
20
1.862152042171
30
0
41
1
10
17.1953125000001
20
1.87121512802432
30
0
41
1
10
17.1635742187501
20
1.87770699557285
30
0
41
1
10
17.1416015625
20
1.8821752910805
30
0
41
1
10
17.1220703125003
20
1.88613052936915
30
0
41
1
10
17.1062011718752
20
1.88933067604444
30
0
41
1
10
17.0921630859376
20
1.89215082380386
30
0
41
1
10
17.0839233398433
20
1.89380226876247
30
0
41
1
10
17.0787353515627
20
1.894840409755
30
0
41
1
10
17.0761413574218
20
1.89535909334515
30
0
41
1
10
17.0747680664064
20
1.89563358811165
30
0
41
1
10
17.0735473632813
20
1.89587751842015
30
0
41
1
10
17.0718688964846
20
1.89621283315987
30
0
41
1
10
17.0686645507812
20
1.89685267212485
30
0
41
1
10
17.0628662109376
20
1.89800936343593
30
0
41
1
10
17.0543212890625
20
1.89971104544782
30
0
41
1
10
17.0427246093751
20
1.9020150269927
30
0
41
1
10
17.0244140625001
20
1.90564194492421
30
0
41
1
10
17.0097656250001
20
1.90852845193206
30
0
41
1
10
17.0000000000001
20
1.91044609894533
30
0
0
SPLINE
5
100
100
AcDbEntity
8
1
62
256
6
ByLayer
370
18
48
1
60
0
100
AcDbSpline
70
4
71
3
72
11
73
7
40
0
40
0
40
0
40
0
40
0.25
40
0.5
40
0.75
40
1
40
1
40
1
40
1
41
1
10
17.0000000000001
20
1.91044609894533
30
0
41
1
10
17.0000000000001
20
1.90675511582577
30
0
41
1
10
17.0000000000001
20
1.86763657065225
30
0
41
1
10
17.0000000000001
20
1.71606347811868
30
0
41
1
10
17.0000000000001
20
1.4739095728419
30
0
41
1
10
17.0000000000001
20
1.25839075819218
30
0
41
1
10
17.0000000000001
20
1.1386867140919
30
0
0
SPLINE
5
101
100
AcDbEntity
8
1
62
256
6
ByLayer
370
18
48
1
60
0
100
AcDbSpline
70
4
71
3
72
18
73
14
40
0
40
0
40
0
40
0
40
0.24999999999996
40
0.24999999999996
40
0.374999999999966
40
0.374999999999966
40
0.499999999999972
40
0.499999999999972
40
0.749999999999984
40
0.749999999999984
40
0.874999999999992
40
0.874999999999992
40
1
40
1
40
1
40
1
41
1
10
31.4704532401159
20
-3.65844656008281
30
0
41
1
10
31.4803296470177
20
-3.64641577353407
30
0
41
1
10
31.4899419815791
20
-3.63575997415353
30
0
41
1
10
31.5039143669116
20
-3.62209921428038
30
0
41
1
10
31.5084937820044
20
-3.61794190332768
30
0
41
1
10
31.5173641023752
20
-3.61058708898537
30
0
41
1
10
31.5216706755664
20
-3.60737337709963
30
0
41
1
10
31.5341688722182
20
-3.59925228766238
30
0
41
1
10
31.5419525748705
20
-3.59581590605603
30
0
41
1
10
31.5524930092792
20
-3.59475466809442
30
0
41
1
10
31.5557887561006
20
-3.59510804512931
30
0
41
1
10
31.5617307431525
20
-3.59744658162404
30
0
41
1
10
31.5643986431034
20
-3.5994255234678
30
0
41
1
10
31.5666982539233
20
-3.60238830041476
30
0
0
SPLINE
5
102
100
AcDbEntity
8
1
62
256
6
ByLayer
370
18
48
1
60
0
100
AcDbSpline
70
4
71
3
72
8
73
4
40
0
40
0
40
0
40
0
40
1
40
1
40
1
40
1
41
1
10
31.3942006467692
20
-3.74780674243016
30
0
41
1
10
31.4193360333383
20
-3.71954172342598
30
0
41
1
10
31.4447543409601
20
-3.68975078790984
30
0
41
1
10
31.4704532270112
20
-3.65844657042908
30
0
0
SPLINE
5
103
100
AcDbEntity
8
1
62
256
6
ByLayer
370
18
48
1
60
0
100
AcDbSpline
70
4
71
3
72
22
73
18
40
0
40
0
40
0
40
0
40
0.124999999999996
40
0.124999999999996
40
0.187499999999998
40
0.187499999999998
40
0.250000000000001
40
0.250000000000001
40
0.5
40
0.5
40
0.749999999999999
40
0.749999999999999
40
0.812499999999999
40
0.812499999999999
40
0.874999999999999
40
0.874999999999999
40
1
40
1
40
1
40
1
41
1
10
30.8176529755464
20
-4.09851264108681
30
0
41
1
10
30.838320655183
20
-4.09830006794795
30
0
41
1
10
30.8595752014186
20
-4.09606680981324
30
0
41
1
10
30.8923036536382
20
-4.08980181663574
30
0
41
1
10
30.9033544467026
20
-4.08722693384792
30
0
41
1
10
30.9257353060194
20
-4.08111558153021
30
0
41
1
10
30.9370822155995
20
-4.07757269592983
30
0
41
1
10
30.9942385153903
20
-4.05757137686396
30
0
41
1
10
31.0413526270944
20
-4.03431046441699
30
0
41
1
10
31.1381312742962
20
-3.97445908263734
30
0
41
1
10
31.1877956254225
20
-3.93786957690574
30
0
41
1
10
31.2513929658642
20
-3.88420474749768
30
0
41
1
10
31.2641886959093
20
-3.87307320546822
30
0
41
1
10
31.2899323696501
20
-3.85001459067496
30
0
41
1
10
31.3028815153438
20
-3.83808561919756
30
0
41
1
10
31.3418136433926
20
-3.80124393844
30
0
41
1
10
31.3679284538384
20
-3.77523643919909
30
0
41
1
10
31.3942006467692
20
-3.74780674243016
30
0
0
SPLINE
5
104
100
AcDbEntity
8
1
62
256
6
ByLayer
370
18
48
1
60
0
100
AcDbSpline
70
4
71
3
72
30
73
26
40
0
40
0
40
0
40
0
40
0.0625000000000021
40
0.0625000000000021
40
0.125000000000004
40
0.125000000000004
40
0.187500000000006
40
0.187500000000006
40
0.218750000000003
40
0.218750000000003
40
0.250000000000001
40
0.250000000000001
40
0.375000000000005
40
0.375000000000005
40
0.50000000000001
40
0.50000000000001
40
0.562500000000012
40
0.562500000000012
40
0.625000000000014
40
0.625000000000014
40
0.75000000000001
40
0.75000000000001
40
0.875000000000005
40
0.875000000000005
40
1
40
1
40
1
40
1
41
1
10
29.0359645843804
20
-3.41793946159032
30
0
41
1
10
29.0600490127044
20
-3.45905115667736
30
0
41
1
10
29.0859051740953
20
-3.49744071862932
30
0
41
1
10
29.1405964661798
20
-3.56964288391006
30
0
41
1
10
29.1694348378759
20
-3.60345050736225
30
0
41
1
10
29.2297177539178
20
-3.66706156863896
30
0
41
1
10
29.2611639878146
20
-3.69686241059696
30
0
41
1
10
29.3100912464944
20
-3.738862782138
30
0
41
1
10
29.3266970060402
20
-3.75241107363402
30
0
41
1
10
29.3602339433899
20
-3.778472725537
30
0
41
1
10
29.377194115644
20
-3.79101176463911
30
0
41
1
10
29.4628895099892
20
-3.85141216938507
30
0
41
1
10
29.5342821393056
20
-3.89245635439508
30
0
41
1
10
29.6816178036719
20
-3.96287133933973
30
0
41
1
10
29.7575647724934
20
-3.99223204777152
30
0
41
1
10
29.8743916209388
20
-4.0288171883559
30
0
41
1
10
29.9138214039983
20
-4.03976162628047
30
0
41
1
10
29.9935998712986
20
-4.05929319863515
30
0
41
1
10
30.0337231504984
20
-4.06782477230266
30
0
41
1
10
30.1546217096286
20
-4.08998629376399
30
0
41
1
10
30.2359773279943
20
-4.10021143076097
30
0
41
1
10
30.4000164775123
20
-4.11267713814894
30
0
41
1
10
30.482701097157
20
-4.11491116357729
30
0
41
1
10
30.6492848881946
20
-4.11207627298475
30
0
41
1
10
30.7331847431749
20
-4.1070032466429
30
0
41
1
10
30.8176529755464
20
-4.09851264108681
30
0
0
SPLINE
5
105
100
AcDbEntity
8
1
62
256
6
ByLayer
370
18
48
1
60
0
100
AcDbSpline
70
4
71
3
72
49
73
45
40
0
40
0
40
0
40
0
40
0.0653013373406935
40
0.221084447783911
40
0.337921780616325
40
0.454759113448738
40
0.532650668670347
40
0.610542223891956
40
0.688433779113565
40
0.746852445529771
40
0.795534667543277
40
0.82474400075138
40
0.844216889556782
40
0.858821556160834
40
0.87099211166421
40
0.878294444966236
40
0.883162667167587
40
0.888030889368937
40
0.895333222670963
40
0.907503778174339
40
0.922108444778391
40
0.941581333583793
40
0.956186000187845
40
0.968356555691221
40
0.975658888993247
40
0.980527111194598
40
0.984178277845611
40
0.986612388946286
40
0.988437972271792
40
0.98965502782213
40
0.991480611147637
40
0.99239340281039
40
0.993154062529351
40
0.993534392388831
40
0.993686524332624
40
0.993800623290468
40
0.993876689262364
40
0.993990788220208
40
0.994218986135896
40
0.994675381967273
40
0.995436041686234
40
0.996348833348987
40
0.997565888899325
40
1
40
1
40
1
40
1
41
1
10
29.035964583487
20
-3.41793946148471
30
0
41
1
10
28.7739763889913
20
-3.37833563837222
30
0
41
1
10
27.8869881944957
20
-3.22421079029596
30
0
41
1
10
26.5312500000001
20
-2.88756672999548
30
0
41
1
10
24.96875
20
-2.37850762269863
30
0
41
1
10
23.7187500000001
20
-1.89972521553034
30
0
41
1
10
22.6250000000001
20
-1.4417416203795
30
0
41
1
10
21.6875000000001
20
-1.0280576808259
30
0
41
1
10
20.8281250000001
20
-0.634875167003656
30
0
41
1
10
20.0859375000001
20
-0.288570214914842
30
0
41
1
10
19.5390625
20
-0.0324318441470268
30
0
41
1
10
19.1484375000001
20
0.151195566619094
30
0
41
1
10
18.8945312500001
20
0.269561511032038
30
0
41
1
10
18.7089843750001
20
0.357493570200631
30
0
41
1
10
18.572265625
20
0.419541393409077
30
0
41
1
10
18.4746093750001
20
0.466492311089041
30
0
41
1
10
18.40625
20
0.496038254971722
30
0
41
1
10
18.3378906250001
20
0.52848876501227
30
0
41
1
10
18.240234375
20
0.573554409111097
30
0
41
1
10
18.1035156250001
20
0.6367890633272
30
0
41
1
10
17.91796875
20
0.722689461928582
30
0
41
1
10
17.7226562500001
20
0.812402812822427
30
0
41
1
10
17.537109375
20
0.899470920445765
30
0
41
1
10
17.4003906250001
20
0.959418030503997
30
0
41
1
10
17.302734375
20
1.00495060415781
30
0
41
1
10
17.2392578125001
20
1.03206515311919
30
0
41
1
10
17.1953125
20
1.05393104305702
30
0
41
1
10
17.1635742187501
20
1.06583788790908
30
0
41
1
10
17.1416015625
20
1.07875350484704
30
0
41
1
10
17.1220703125003
20
1.06956829266471
30
0
41
1
10
17.1062011718751
20
1.1178117928379
30
0
41
1
10
17.0921630859376
20
1.06082205376984
30
0
41
1
10
17.0839233398433
20
1.13499627213523
30
0
41
1
10
17.0787353515627
20
1.08834911530673
30
0
41
1
10
17.0761413574218
20
1.11350811560069
30
0
41
1
10
17.0747680664064
20
1.103728180118
30
0
41
1
10
17.0735473632813
20
1.10740286725604
30
0
41
1
10
17.0718688964846
20
1.1023957895095
30
0
41
1
10
17.0686645507812
20
1.11134019478379
30
0
41
1
10
17.0628662109376
20
1.10638601530849
30
0
41
1
10
17.0543212890625
20
1.11915499382712
30
0
41
1
10
17.0427246093752
20
1.11780922765243
30
0
41
1
10
17.0244140625001
20
1.12918761912849
30
0
41
1
10
17.0097656250001
20
1.13365362362632
30
0
41
1
10
17.0000000000001
20
1.1386867140919
30
0
0
SPLINE
5
106
100
AcDbEntity
8
1
62
256
6
ByLayer
370
13
48
1
60
0
100
AcDbSpline
70
4
71
3
72
48
73
44
40
0
40
0
40
0
40
0
40
0.0795844630620399
40
0.217646793602734
40
0.355709124143428
40
0.447750677837224
40
0.53979223153102
40
0.631833785224816
40
0.700864950495163
40
0.758390921553786
40
0.792906504188959
40
0.815916892612408
40
0.833174683929995
40
0.84755617669465
40
0.856185072353444
40
0.861937669459306
40
0.867690266565168
40
0.876319162223962
40
0.890700654988617
40
0.907958446306204
40
0.930968834729653
40
0.94822662604724
40
0.962608118811895
40
0.971237014470689
40
0.976989611576551
40
0.981304059405948
40
0.984180357958879
40
0.986337581873577
40
0.987775731150043
40
0.989932955064741
40
0.99101156702209
40
0.991910410319881
40
0.992359831968777
40
0.992539600628335
40
0.992674427123003
40
0.992764311452783
40
0.992899137947451
40
0.993168790936789
40
0.993708096915463
40
0.994606940213254
40
0.995685552170603
40
0.997123701447069
40
1
40
1
40
1
40
1
41
1
10
27.1856168477869
20
-4.39545127496817
30
0
41
1
10
26.9154112318579
20
-4.40038412601135
30
0
41
1
10
26.1764556159289
20
-4.39170925202751
30
0
41
1
10
24.96875
20
-4.27808185697151
30
0
41
0.999999999999999
10
23.71875
20
-4.03423896856498
30
0
41
1
10
22.625
20
-3.73446217947253
30
0
41
1
10
21.6875
20
-3.4220329133253
30
0
41
1
10
20.8281250000001
20
-3.08952417242023
30
0
41
0.999999999999999
10
20.0859375
20
-2.77101777599637
30
0
41
1
10
19.5390625
20
-2.51979960338894
30
0
41
0.999999999999999
10
19.1484375000001
20
-2.33262595894928
30
0
41
1
10
18.89453125
20
-2.20804817483426
30
0
41
0.999999999999998
10
18.708984375
20
-2.11560024997479
30
0
41
1
10
18.572265625
20
-2.04670023586766
30
0
41
0.999999999999999
10
18.474609375
20
-1.99709638414655
30
0
41
1
10
18.40625
20
-1.9622074785058
30
0
41
0.999999999999999
10
18.337890625
20
-1.92718787038723
30
0
41
1
10
18.240234375
20
-1.87693052609788
30
0
41
0.999999999999999
10
18.1035156250001
20
-1.80607025150266
30
0
41
1
10
17.91796875
20
-1.70901294169769
30
0
41
1
10
17.7226562500001
20
-1.60572368621723
30
0
41
0.999999999999999
10
17.537109375
20
-1.50662492838129
30
0
41
1
10
17.400390625
20
-1.43306948279076
30
0
41
1
10
17.302734375
20
-1.3802448526568
30
0
41
1
10
17.2392578125
20
-1.3457922756223
30
0
41
0.999999999999999
10
17.1953125000001
20
-1.32188379250258
30
0
41
1
10
17.16357421875
20
-1.30458725177831
30
0
41
0.999999999999999
10
17.1416015625
20
-1.2925985108372
30
0
41
1
10
17.1220703125002
20
-1.28193282425917
30
0
41
0.999999999999992
10
17.1062011718751
20
-1.27325961721645
30
0
41
1.00000000000002
10
17.0921630859377
20
-1.26558132287046
30
0
41
0.999999999999985
10
17.0839233398438
20
-1.26107240244877
30
0
41
1.00000000000001
10
17.0787353515628
20
-1.25823255300712
30
0
41
0.999999999999996
10
17.0761413574217
20
-1.25681241839883
30
0
41
1
10
17.0747680664063
20
-1.25606052687175
30
0
41
0.999999999999997
10
17.0735473632812
20
-1.25539214357335
30
0
41
1.00000000000001
10
17.0718688964845
20
-1.25447306803607
30
0
41
0.999999999999995
10
17.0686645507813
20
-1.25271830261486
30
0
41
1.00000000000001
10
17.0628662109376
20
-1.24954240963998
30
0
41
0.999999999999994
10
17.0543212890624
20
-1.2448605661823
30
0
41
1
10
17.0427246093751
20
-1.23850368751837
30
0
41
0.999999999999998
10
17.0244140625
20
-1.22846058711511
30
0
41
1
10
17.009765625
20
-1.2204179857155
30
0
41
1
10
17
20
-1.21505264524222
30
0
0
SPLINE
5
107
100
AcDbEntity
8
1
62
256
6
ByLayer
370
18
48
1
60
0
100
AcDbSpline
70
4
71
3
72
20
73
16
40
0
40
0
40
0
40
0
40
0.124999999999996
40
0.124999999999996
40
0.249999999999992
40
0.249999999999992
40
0.374999999999988
40
0.374999999999988
40
0.437499999999992
40
0.437499999999992
40
0.499999999999995
40
0.499999999999995
40
0.749999999999998
40
0.749999999999998
40
1
40
1
40
1
40
1
41
1
10
29.1986005390549
20
2.568910581334
30
0
41
1
10
29.2506936769159
20
2.53145525271683
30
0
41
1
10
29.3046421607291
20
2.49114045408959
30
0
41
1
10
29.4155261313211
20
2.40590727796379
30
0
41
1
10
29.4724672532401
20
2.3609802134747
30
0
41
1
10
29.5888988290641
20
2.26719704202691
30
0
41
1
10
29.6483919007539
20
2.21833690052566
30
0
41
1
10
29.7393276828416
20
2.14243253606199
30
0
41
1
10
29.769923287737
20
2.11669387609146
30
0
41
1
10
29.8316549991351
20
2.06438353252463
30
0
41
1
10
29.8627851922628
20
2.03781612453898
30
0
41
1
10
30.0187475137966
20
1.9038350062261
30
0
41
1
10
30.1452910311858
20
1.7923636115726
30
0
41
1
10
30.4012635981948
20
1.56244720117388
30
0
41
1
10
30.5307004459433
20
1.44398333927137
30
0
41
1
10
30.6614243518897
20
1.3224089745303
30
0
0
SPLINE
5
108
100
AcDbEntity
8
1
62
256
6
ByLayer
370
18
48
1
60
0
100
AcDbSpline
70
4
71
3
72
9
73
5
40
0
40
0
40
0
40
0
40
0.465342413970851
40
1
40
1
40
1
40
1
41
1
10
29.1986005417837
20
2.5689105818968
30
0
41
1
10
28.8824003611891
20
2.70010047471956
30
0
41
1
10
28.202900339052
20
2.96322276969011
30
0
41
1
10
27.523400316915
20
3.18050340243889
30
0
41
1
10
27.1601004753723
20
3.28207554994919
30
0
0
SPLINE
5
109
100
AcDbEntity
8
1
62
256
6
ByLayer
370
13
48
1
60
0
100
AcDbSpline
70
4
71
3
72
12
73
8
40
0
40
0
40
0
40
0
40
0.0634651391312771
40
0.298792219845366
40
0.534119300559455
40
0.847888741511574
40
1
40
1
40
1
40
1
41
1
10
31.4417502402721
20
-0.525710142046819
30
0
41
1
10
31.3153334935148
20
-0.441999481168011
30
0
41
1
10
30.7201667467574
20
-0.0447430660653936
30
0
41
1
10
29.65625
20
0.66232175008659
30
0
41
1
10
28.09375
20
1.66767900509851
30
0
41
1
10
26.6970082992571
20
2.48788894801132
30
0
41
1
10
25.769016598514
20
2.95439937640424
30
0
41
1
10
25.466024897771
20
3.09702287414015
30
0
0
SPLINE
5
10A
100
AcDbEntity
8
1
62
256
6
ByLayer
370
18
48
1
60
0
100
AcDbSpline
70
4
71
3
72
20
73
16
40
0
40
0
40
0
40
0
40
0.124999999999992
40
0.124999999999992
40
0.187499999999991
40
0.187499999999991
40
0.249999999999991
40
0.249999999999991
40
0.37499999999999
40
0.37499999999999
40
0.499999999999989
40
0.499999999999989
40
0.749999999999994
40
0.749999999999994
40
1
40
1
40
1
40
1
41
1
10
30.6614243518897
20
1.3224089745303
30
0
41
1
10
30.6850780213226
20
1.25761807356358
30
0
41
1
10
30.7099740915187
20
1.1911005739498
30
0
41
1
10
30.7490698462514
20
1.08889000893569
30
0
41
1
10
30.7623943577496
20
1.05441319567325
30
0
41
1
10
30.7896169330931
20
0.984662487613832
30
0
41
1
10
30.8035318198459
20
0.949347676707617
30
0
41
1
10
30.8457465892987
20
0.843168054860854
30
0
41
1
10
30.8746272832101
20
0.771778262714548
30
0
41
1
10
30.9337438310411
20
0.627889990502041
30
0
41
1
10
30.9639801504748
20
0.555391129587974
30
0
41
1
10
31.0566097769698
20
0.336323203527229
30
0
41
1
10
31.1209180196887
20
0.18817776342604
30
0
41
1
10
31.2543754519525
20
-0.112034636738741
30
0
41
1
10
31.3223708689954
20
-0.261507927893206
30
0
41
1
10
31.3915580155258
20
-0.41038576969899
30
0
0
SPLINE
5
10B
100
AcDbEntity
8
1
62
256
6
ByLayer
370
18
48
1
60
0
100
AcDbSpline
70
4
71
3
72
8
73
4
40
0
40
0
40
0
40
0
40
1
40
1
40
1
40
1
41
1
10
31.4455895860954
20
-2.28438523138254
30
0
41
1
10
31.4175101918959
20
-2.11771612887989
30
0
41
1
10
31.3894307976964
20
-1.95104702637724
30
0
41
1
10
31.3613514034969
20
-1.78437792387459
30
0
0
SPLINE
5
10C
100
AcDbEntity
8
1
62
256
6
ByLayer
370
18
48
1
60
0
100
AcDbSpline
70
4
71
1
72
4
73
2
40
0
40
0
40
1
40
1
41
1
10
31.8903531797864
20
-1.50767241127957
30
0
41
1
10
31.8895282706045
20
-1.46470002765847
30
0
0
SPLINE
5
10D
100
AcDbEntity
8
1
62
256
6
ByLayer
370
18
48
1
60
0
100
AcDbSpline
70
4
71
3
72
8
73
4
40
0
40
0
40
0
40
0
40
1
40
1
40
1
40
1
41
1
10
31.3915580155259
20
-0.41038576969899
30
0
41
1
10
31.4081594460126
20
-0.448881779627584
30
0
41
1
10
31.4248904518017
20
-0.487323125604235
30
0
41
1
10
31.4417502404057
20
-0.525710141949503
30
0
0
SPLINE
5
10E
100
AcDbEntity
8
1
62
256
6
ByLayer
370
18
48
1
60
0
100
AcDbSpline
70
4
71
3
72
18
73
14
40
0
40
0
40
0
40
0
40
0.249999999999976
40
0.249999999999976
40
0.499999999999953
40
0.499999999999953
40
0.624999999999965
40
0.624999999999965
40
0.749999999999976
40
0.749999999999976
40
0.874999999999988
40
0.874999999999988
40
1
40
1
40
1
40
1
41
1
10
31.4417502414115
20
-0.525710143194601
30
0
41
1
10
31.4519699175254
20
-0.548978735318769
30
0
41
1
10
31.4619347943275
20
-0.57238679413814
30
0
41
1
10
31.4812810342362
20
-0.619522303446615
30
0
41
1
10
31.4905993693386
20
-0.643095008372939
30
0
41
1
10
31.5038123670128
20
-0.678209300070961
30
0
41
1
10
31.5080817226207
20
-0.689858335621551
30
0
41
1
10
31.5161971289322
20
-0.712706335596693
30
0
41
1
10
31.5200596690084
20
-0.723947961880384
30
0
41
1
10
31.5273299029049
20
-0.746006175061837
30
0
41
1
10
31.5307385742647
20
-0.756823675439591
30
0
41
1
10
31.5369924541974
20
-0.777932138103836
30
0
41
1
10
31.539842789064
20
-0.788253271523502
30
0
41
1
10
31.542250358749
20
-0.797939312244722
30
0
0
SPLINE
5
10F
100
AcDbEntity
8
1
62
256
6
ByLayer
370
13
48
1
60
0
100
AcDbSpline
70
4
71
3
72
49
73
45
40
0
40
0
40
0
40
0
40
0.002575334751537
40
0.0038630021273054
40
0.0048287526591318
40
0.0056335447689871
40
0.0061164200349003
40
0.0063578576678569
40
0.0064785764843352
40
0.0065590556953207
40
0.006679774511799
40
0.0068407329337701
40
0.0072431289886977
40
0.008047921098553
40
0.0090136716303794
40
0.0109451726940321
40
0.0122328400698006
40
0.0141643411334533
40
0.0167396758849903
40
0.0206026780122957
40
0.0257533475153696
40
0.0334793517699805
40
0.0463560255276653
40
0.0618080340368871
40
0.0824107120491828
40
0.0978627205584046
40
0.110739394316089
40
0.1184653985707
40
0.123616068073774
40
0.128766737576848
40
0.136492741831459
40
0.149369415589144
40
0.164821424098366
40
0.185424102110661
40
0.216328119129105
40
0.267834814159844
40
0.329642848196731
40
0.412053560245914
40
0.494464272295097
40
0.57687498434428
40
0.700491052418054
40
0.824107120491828
40
0.988928544590194
40
1
40
1
40
1
40
1
41
1
10
17.0000000000001
20
1.99764801439156
30
0
41
1
10
17.0097656250001
20
1.99629168528585
30
0
41
0.999999999999998
10
17.0244140625001
20
1.99424755842219
30
0
41
1
10
17.0427246093751
20
1.99167436936363
30
0
41
0.999999999999994
10
17.0543212890625
20
1.99003802742241
30
0
41
1.00000000000001
10
17.0628662109376
20
1.98882845108774
30
0
41
0.999999999999995
10
17.0686645507812
20
1.9880057678361
30
0
41
1.00000000000001
10
17.0718688964846
20
1.98755053687414
30
0
41
0.999999999999997
10
17.0735473632813
20
1.98731192800523
30
0
41
1
10
17.0747680664064
20
1.98713833184078
30
0
41
0.999999999999996
10
17.0761413574218
20
1.98694296591288
30
0
41
1.00000000000001
10
17.0787353515627
20
1.98657375564404
30
0
41
0.999999999999985
10
17.0839233398434
20
1.98583459223417
30
0
41
1.00000000000002
10
17.0921630859375
20
1.98465809924656
30
0
41
0.999999999999992
10
17.1062011718752
20
1.9826473914337
30
0
41
1
10
17.1220703125002
20
1.98036274846609
30
0
41
0.999999999999999
10
17.1416015625
20
1.97753494380635
30
0
41
1
10
17.1635742187501
20
1.97433575101832
30
0
41
0.999999999999999
10
17.1953125000001
20
1.96967852003144
30
0
41
1
10
17.2392578125001
20
1.96315862031076
30
0
41
1
10
17.3027343750001
20
1.95359694108231
30
0
41
1
10
17.4003906250001
20
1.93857124738574
30
0
41
0.999999999999999
10
17.5371093750001
20
1.91683273817267
30
0
41
1
10
17.7226562500001
20
1.88603239052432
30
0
41
1
10
17.9179687500001
20
1.85189380391049
30
0
41
0.999999999999999
10
18.1035156250001
20
1.81786092940829
30
0
41
1
10
18.2402343750001
20
1.79187125832013
30
0
41
0.999999999999999
10
18.3378906250001
20
1.77283957396074
30
0
41
1
10
18.40625
20
1.75931460704498
30
0
41
0.999999999999999
10
18.4746093750001
20
1.74562839632142
30
0
41
1
10
18.572265625
20
1.72579052982635
30
0
41
0.999999999999998
10
18.7089843750001
20
1.69738276969852
30
0
41
1
10
18.8945312500001
20
1.65766502353202
30
0
41
0.999999999999999
10
19.1484375000001
20
1.60133115498007
30
0
41
1
10
19.5390625000001
20
1.51044445439979
30
0
41
0.999999999999999
10
20.0859375000001
20
1.37426121516521
30
0
41
1
10
20.8281250000001
20
1.17453540952667
30
0
41
1
10
21.6875000000001
20
0.924727764446431
30
0
41
1
10
22.6250000000001
20
0.633392003440633
30
0
41
0.999999999999999
10
23.7187500000001
20
0.278102047683035
30
0
41
1
10
24.96875
20
-0.138399232585556
30
0
41
1
10
26.5312500000001
20
-0.651094990732247
30
0
41
1
10
27.6669827681322
20
-0.999833930846336
30
0
41
1
10
28.3339655362643
20
-1.18642899326957
30
0
41
1
10
28.3759483043964
20
-1.19810026775781
30
0
0
SPLINE
5
110
100
AcDbEntity
8
1
62
256
6
ByLayer
370
18
48
1
60
0
100
AcDbSpline
70
4
71
3
72
34
73
30
40
0
40
0
40
0
40
0
40
0.124999999999976
40
0.124999999999976
40
0.187499999999964
40
0.187499999999964
40
0.249999999999953
40
0.312499999999941
40
0.312499999999941
40
0.343749999999935
40
0.343749999999935
40
0.374999999999928
40
0.374999999999928
40
0.499999999999841
40
0.499999999999841
40
0.531249999999848
40
0.531249999999848
40
0.562499999999855
40
0.562499999999855
40
0.624999999999869
40
0.687499999999882
40
0.687499999999882
40
0.749999999999896
40
0.749999999999896
40
0.874999999999923
40
0.874999999999923
40
0.937499999999962
40
0.937499999999962
40
1
40
1
40
1
40
1
41
1
10
28.3759483043964
20
-1.19810026775781
30
0
41
1
10
28.3760088620731
20
-1.16881213311382
30
0
41
1
10
28.3801462611392
20
-1.14049533946167
30
0
41
1
10
28.3920857760937
20
-1.09964208326483
30
0
41
1
10
28.397048983008
20
-1.08625475090886
30
0
41
1
10
28.4088683541741
20
-1.06024490939834
30
0
41
1
10
28.4224145628274
20
-1.03533156594531
30
0
41
1
10
28.4392313225634
20
-1.01253946993097
30
0
41
1
10
28.4530541589469
20
-0.996237224117948
30
0
41
1
10
28.4578639463102
20
-0.990935323099166
30
0
41
1
10
28.4678911100442
20
-0.980597954541025
30
0
41
1
10
28.4731250148527
20
-0.975548388885727
30
0
41
1
10
28.5000599997156
20
-0.951213685674816
30
0
41
1
10
28.5240730128024
20
-0.934557578607951
30
0
41
1
10
28.5570287851914
20
-0.916969654420541
30
0
41
1
10
28.5637686405796
20
-0.913615178659342
30
0
41
1
10
28.5775488016711
20
-0.907230996097525
30
0
41
1
10
28.584607491775
20
-0.904194669006074
30
0
41
1
10
28.6060294992216
20
-0.895654400499268
30
0
41
1
10
28.6353230589067
20
-0.885735546313157
30
0
41
1
10
28.6660332372419
20
-0.878545450202694
30
0
41
1
10
28.6974495991813
20
-0.872652536530268
30
0
41
1
10
28.7135458207838
20
-0.870351439911531
30
0
41
1
10
28.7626933330141
20
-0.865359370003176
30
0
41
1
10
28.7959159042156
20
-0.864618672076972
30
0
41
1
10
28.8464384443033
20
-0.866768026381209
30
0
41
1
10
28.8633946015318
20
-0.868032090173074
30
0
41
1
10
28.8975434372036
20
-0.871592954910852
30
0
41
1
10
28.9147229638664
20
-0.873891368328998
30
0
41
1
10
28.9318525260625
20
-0.876650264096043
30
0
0
SPLINE
5
111
100
AcDbEntity
8
1
62
256
6
ByLayer
370
18
48
1
60
0
100
AcDbSpline
70
4
71
3
72
10
73
6
40
0
40
0
40
0
40
0
40
0.280639893782341
40
0.280639893782341
40
1
40
1
40
1
40
1
41
1
10
29.6327091936806
20
-0.998802525762358
30
0
41
1
10
29.5674903293356
20
-0.986417706809249
30
0
41
1
10
29.5021571070075
20
-0.974351401630543
30
0
41
1
10
29.2690141194725
20
-0.93230848342813
30
0
41
1
10
29.1006632397127
20
-0.903839001203977
30
0
41
1
10
28.9318525260613
20
-0.876650264095844
30
0
0
SPLINE
5
112
100
AcDbEntity
8
1
62
256
6
ByLayer
370
18
48
1
60
0
100
AcDbSpline
70
4
71
3
72
16
73
12
40
0
40
0
40
0
40
0
40
0.0421104124643632
40
0.0421104124643632
40
0.201758677053636
40
0.201758677053636
40
0.361406941642909
40
0.361406941642909
40
0.680703470821455
40
0.680703470821455
40
1
40
1
40
1
40
1
41
1
10
14.6381600483679
20
-4.79273605398816
30
0
41
1
10
14.6361099317247
20
-4.7934862724394
30
0
41
1
10
14.6339415912095
20
-4.79417753020937
30
0
41
1
10
14.6230271100451
20
-4.79720946635865
30
0
41
1
10
14.6128073955655
20
-4.79876827899497
30
0
41
1
10
14.5897834840907
20
-4.80024106481508
30
0
41
1
10
14.5769507962557
20
-4.80015115958591
30
0
41
1
10
14.5354617789364
20
-4.79748043042432
30
0
41
1
10
14.5038001775866
20
-4.79252072082423
30
0
41
1
10
14.4343918218059
20
-4.77668547901732
30
0
41
1
10
14.396618074487
20
-4.76580621099737
30
0
41
1
10
14.3561913958011
20
-4.75210630009829
30
0
0
SPLINE
5
113
100
AcDbEntity
8
1
62
256
6
ByLayer
370
18
48
1
60
0
100
AcDbSpline
70
4
71
3
72
13
73
9
40
0
40
0
40
0
40
0
40
0.25
40
0.5
40
0.5
40
0.75
40
0.75
40
1
40
1
40
1
40
1
41
1
10
14.3561913958011
20
-4.75210630009829
30
0
41
1
10
14.2216201000418
20
-4.73138391473702
30
0
41
1
10
13.9545275258289
20
-4.67660222972413
30
0
41
1
10
13.6876739570465
20
-4.59624368952814
30
0
41
1
10
13.4189632121591
20
-4.50397255256459
30
0
41
1
10
13.2836799504896
20
-4.45187903737039
30
0
41
1
10
13.009217569692
20
-4.33701320197818
30
0
41
1
10
12.8700388754964
20
-4.27423839939991
30
0
41
1
10
12.7278520556293
20
-4.20695198102726
30
0
0
SPLINE
5
114
100
AcDbEntity
8
1
62
256
6
ByLayer
370
18
48
1
60
0
100
AcDbSpline
70
4
71
3
72
27
73
23
40
0
40
0
40
0
40
0
40
0.125000000000001
40
0.125000000000001
40
0.250000000000002
40
0.250000000000002
40
0.375000000000003
40
0.375000000000003
40
0.437500000000002
40
0.437500000000002
40
0.500000000000002
40
0.500000000000002
40
0.625000000000002
40
0.625000000000002
40
0.687500000000001
40
0.687500000000001
40
0.750000000000001
40
0.8125
40
0.8125
40
0.875
40
0.875
40
1
40
1
40
1
40
1
41
1
10
12.7278520556293
20
-4.20695198102726
30
0
41
1
10
12.7027656135784
20
-4.19508043880626
30
0
41
1
10
12.6786649782518
20
-4.18268598674152
30
0
41
1
10
12.6327820789993
20
-4.15665635803586
30
0
41
1
10
12.6109969148414
20
-4.14302267763077
30
0
41
1
10
12.5702528634117
20
-4.11423632014564
30
0
41
1
10
12.5512877979425
20
-4.09908680844771
30
0
41
1
10
12.5255589327895
20
-4.07490207602979
30
0
41
1
10
12.517409899027
20
-4.06656114064458
30
0
41
1
10
12.5023434641998
20
-4.0495102239814
30
0
41
1
10
12.4954247927057
20
-4.0408064772875
30
0
41
1
10
12.4766976653463
20
-4.0141097694731
30
0
41
1
10
12.466895276297
20
-3.9955369665156
30
0
41
1
10
12.457274455264
20
-3.96623419061621
30
0
41
1
10
12.4549664042725
20
-3.95634572207786
30
0
41
1
10
12.4522557982151
20
-3.93647293791113
30
0
41
1
10
12.4514350523614
20
-3.91645802907902
30
0
41
1
10
12.4545479769874
20
-3.89616130328582
30
0
41
1
10
12.4597272714248
20
-3.87572503307553
30
0
41
1
10
12.4633848254091
20
-3.86538171908424
30
0
41
1
10
12.4772426065536
20
-3.83490638433435
30
0
41
1
10
12.4903204417611
20
-3.81513487029034
30
0
41
1
10
12.5069056900039
20
-3.79590126723286
30
0
0
SPLINE
5
115
100
AcDbEntity
8
1
62
256
6
ByLayer
370
18
48
1
60
0
100
AcDbSpline
70
4
71
3
72
42
73
38
40
0
40
0
40
0
40
0
40
0.0312500000000058
40
0.0312500000000058
40
0.0625000000000115
40
0.0625000000000115
40
0.0937500000000173
40
0.0937500000000173
40
0.10937500000002
40
0.10937500000002
40
0.125000000000023
40
0.125000000000023
40
0.187500000000028
40
0.187500000000028
40
0.250000000000033
40
0.250000000000033
40
0.312500000000037
40
0.312500000000037
40
0.343750000000038
40
0.343750000000038
40
0.375000000000038
40
0.375000000000038
40
0.437500000000038
40
0.437500000000038
40
0.500000000000039
40
0.500000000000039
40
0.531250000000039
40
0.531250000000039
40
0.562500000000039
40
0.625000000000035
40
0.687500000000031
40
0.687500000000031
40
0.750000000000026
40
0.750000000000026
40
0.875000000000013
40
0.875000000000013
40
1
40
1
40
1
40
1
41
1
10
12.5069056900038
20
-3.79590126723286
30
0
41
1
10
12.5280644679586
20
-3.77136382706883
30
0
41
1
10
12.5512823765646
20
-3.74745500189314
30
0
41
1
10
12.6011995951355
20
-3.70074700897925
30
0
41
1
10
12.6279012495101
20
-3.67794839714864
30
0
41
1
10
12.684322411317
20
-3.63335552518083
30
0
41
1
10
12.7140433188565
20
-3.61156159731803
30
0
41
1
10
12.7606241876861
20
-3.57956572978003
30
0
41
1
10
12.7764851488019
20
-3.56901646573519
30
0
41
1
10
12.8088385981284
20
-3.54814216794219
30
0
41
1
10
12.8253551669359
20
-3.53780259704939
30
0
41
1
10
12.9091546469037
20
-3.48681888115368
30
0
41
1
10
12.9794247803042
20
-3.44865190319652
30
0
41
1
10
13.1247940580213
20
-3.37645442397849
30
0
41
1
10
13.1999090515084
20
-3.34243480931988
30
0
41
1
10
13.354041828529
20
-3.27792161823504
30
0
41
1
10
13.4330663740547
20
-3.24743269200226
30
0
41
1
10
13.5540866647463
20
-3.20406451495313
30
0
41
1
10
13.5947901799403
20
-3.19002409307126
30
0
41
1
10
13.6765952442174
20
-3.16281837801154
30
0
41
1
10
13.7177386056378
20
-3.14963808168332
30
0
41
1
10
13.841837259499
20
-3.11129494317493
30
0
41
1
10
13.9254586214532
20
-3.08732626249903
30
0
41
1
10
14.094267499968
20
-3.04231080026878
30
0
41
1
10
14.1794559604851
20
-3.02126532311957
30
0
41
1
10
14.3083085667133
20
-2.99176777729412
30
0
41
1
10
14.3514507833162
20
-2.9822787651209
30
0
41
1
10
14.4378979533782
20
-2.96401573276634
30
0
41
1
10
14.5678769038696
20
-2.93767923261549
30
0
41
1
10
14.7859868246344
20
-2.89893792830719
30
0
41
1
10
14.9619604013192
20
-2.87326159591066
30
0
41
1
10
15.1386489788995
20
-2.85020174244019
30
0
41
1
10
15.2273519142521
20
-2.83998350516197
30
0
41
1
10
15.4935203839244
20
-2.81332817694641
30
0
41
1
10
15.6713779151897
20
-2.80083067037697
30
0
41
1
10
16.0278985431309
20
-2.7863663825087
30
0
41
1
10
16.206562001972
20
-2.78440406192524
30
0
41
1
10
16.3856406460551
20
-2.78788621081344
30
0
0
SPLINE
5
116
100
AcDbEntity
8
1
62
256
6
ByLayer
370
18
48
1
60
0
100
AcDbSpline
70
4
71
3
72
16
73
12
40
0
40
0
40
0
40
0
40
0.499999999999993
40
0.499999999999993
40
0.624999999999993
40
0.624999999999993
40
0.687499999999993
40
0.687499999999993
40
0.749999999999992
40
0.749999999999992
40
1
40
1
40
1
40
1
41
1
10
13.9867092083429
20
2.7942214128125
30
0
41
1
10
13.7669731275448
20
3.14451764094301
30
0
41
1
10
13.5489789148335
20
3.45302729458942
30
0
41
1
10
13.2545886492831
20
3.78206534527917
30
0
41
1
10
13.1946133130222
20
3.84503914332643
30
0
41
1
10
13.1025062538088
20
3.93515121892119
30
0
41
1
10
13.0714461115431
20
3.96446372446818
30
0
41
1
10
13.0085208178752
20
4.02162188738819
30
0
41
1
10
12.9766470073323
20
4.04947161615664
30
0
41
1
10
12.8158113117816
20
4.18438508593198
30
0
41
1
10
12.6818882955375
20
4.2789920811193
30
0
41
1
10
12.5399873905264
20
4.36082548222817
30
0
0
SPLINE
5
117
100
AcDbEntity
8
1
62
256
6
ByLayer
370
18
48
1
60
0
100
AcDbSpline
70
4
71
3
72
18
73
14
40
0
40
0
40
0
40
0
40
0.250000000000021
40
0.250000000000021
40
0.375000000000018
40
0.375000000000018
40
0.500000000000015
40
0.500000000000015
40
0.750000000000009
40
0.750000000000009
40
0.875000000000004
40
0.875000000000004
40
1
40
1
40
1
40
1
41
1
10
12.5399873905245
20
4.36082548222996
30
0
41
1
10
12.5194383943895
20
4.37267596509315
30
0
41
1
10
12.5009028101359
20
4.38475430142313
30
0
41
1
10
12.4767923740156
20
4.4032708706107
30
0
41
1
10
12.4693739086264
20
4.40950989986206
30
0
41
1
10
12.4559336564164
20
4.42213671593541
30
0
41
1
10
12.4498959661319
20
4.4285521980093
30
0
41
1
10
12.4344747520843
20
4.44764714365638
30
0
41
1
10
12.4276414561483
20
4.46027327595371
30
0
41
1
10
12.4231560461591
20
4.4790401201937
30
0
41
1
10
12.4226242284898
20
4.4852670679324
30
0
41
1
10
12.4236248085359
20
4.49766169995473
30
0
41
1
10
12.4251550733494
20
4.50375513089929
30
0
41
1
10
12.4277008188344
20
4.50971886009597
30
0
0
SPLINE
5
118
100
AcDbEntity
8
1
62
256
6
ByLayer
370
18
48
1
60
0
100
AcDbSpline
70
4
71
3
72
42
73
38
40
0
40
0
40
0
40
0
40
0.0312500000000059
40
0.0312500000000059
40
0.0625000000000118
40
0.0625000000000118
40
0.0781250000000147
40
0.0781250000000147
40
0.0937500000000176
40
0.0937500000000176
40
0.125000000000024
40
0.125000000000024
40
0.187500000000035
40
0.187500000000035
40
0.203125000000037
40
0.203125000000037
40
0.21875000000004
40
0.250000000000041
40
0.250000000000041
40
0.31250000000004
40
0.31250000000004
40
0.375000000000039
40
0.375000000000039
40
0.437500000000038
40
0.437500000000038
40
0.500000000000037
40
0.500000000000037
40
0.625000000000031
40
0.625000000000031
40
0.687500000000026
40
0.687500000000026
40
0.75000000000002
40
0.812500000000015
40
0.812500000000015
40
0.87500000000001
40
0.87500000000001
40
1
40
1
40
1
40
1
41
1
10
12.4277008188343
20
4.50971886009597
30
0
41
1
10
12.4350107291235
20
4.52684324494632
30
0
41
1
10
12.4459671043002
20
4.54280111488293
30
0
41
1
10
12.4743260837866
20
4.57268435553107
30
0
41
1
10
12.4917307843443
20
4.58660903042178
30
0
41
1
10
12.5221820645483
20
4.60614987627011
30
0
41
1
10
12.5330578023421
20
4.6124387163072
30
0
41
1
10
12.5561910591059
20
4.62459237040557
30
0
41
1
10
12.5684292021079
20
4.63044333803663
30
0
41
1
10
12.6066057320397
20
4.64719935870554
30
0
41
1
10
12.6341406938176
20
4.65738808055289
30
0
41
1
10
12.7219493864472
20
4.68554889286784
30
0
41
1
10
12.7873736102436
20
4.70114228553356
30
0
41
1
10
12.8755497660533
20
4.71781677982918
30
0
41
1
10
12.8935282959903
20
4.72101113253132
30
0
41
1
10
12.9298673500772
20
4.72709825829062
30
0
41
1
10
12.9850243047509
20
4.7357911298212
30
0
41
1
10
13.0419617227194
20
4.74329830611003
30
0
41
1
10
13.1578735932469
20
4.75699533394558
30
0
41
1
10
13.2378476442372
20
4.76438264877345
30
0
41
1
10
13.40199000653
20
4.77662983571818
30
0
41
1
10
13.4861675233517
20
4.78148269387512
30
0
41
1
10
13.6579784037561
20
4.78927389441208
30
0
41
1
10
13.7457589180454
20
4.79221045328418
30
0
41
1
10
13.9230313972173
20
4.79658143734889
30
0
41
1
10
14.0126443054033
20
4.79802233526217
30
0
41
1
10
14.284003869139
20
4.80065613237207
30
0
41
1
10
14.46824668481
20
4.80018400438414
30
0
41
1
10
14.7486712872251
20
4.797593784121
30
0
41
1
10
14.8428666248307
20
4.79640842042724
30
0
41
1
10
15.03204973778
20
4.79358167137977
30
0
41
1
10
15.2221393998106
20
4.79029761828693
30
0
41
1
10
15.4139494431434
20
4.78640756844877
30
0
41
1
10
15.6065932706154
20
4.78234799783931
30
0
41
1
10
15.7033002648227
20
4.78023408256701
30
0
41
1
10
15.9942069174889
20
4.77382812201091
30
0
41
1
10
16.1893227007635
20
4.76947255901072
30
0
41
1
10
16.3856406460551
20
4.76545339139776
30
0
0
SPLINE
5
119
100
AcDbEntity
8
1
62
256
6
ByLayer
370
18
48
1
60
0
100
AcDbSpline
70
4
71
3
72
31
73
27
40
0
40
0
40
0
40
0
40
0.249999999999998
40
0.249999999999998
40
0.374999999999984
40
0.374999999999984
40
0.499999999999971
40
0.499999999999971
40
0.624999999999957
40
0.624999999999957
40
0.687499999999964
40
0.687499999999964
40
0.749999999999972
40
0.749999999999972
40
0.812499999999979
40
0.812499999999979
40
0.843749999999982
40
0.843749999999982
40
0.874999999999986
40
0.906249999999989
40
0.906249999999989
40
0.937499999999993
40
0.937499999999993
40
0.968749999999996
40
0.968749999999996
40
1
40
1
40
1
40
1
41
1
10
31.6782625027396
20
-1.23316322827159
30
0
41
1
10
31.6995753375021
20
-1.26981986174312
30
0
41
1
10
31.7206912923883
20
-1.30537345657749
30
0
41
1
10
31.7519273030354
20
-1.35625035005555
30
0
41
1
10
31.7622654515434
20
-1.3727955345995
30
0
41
1
10
31.7827498235652
20
-1.40481062507035
30
0
41
1
10
31.792897115403
20
-1.42028651640973
30
0
41
1
10
31.812921649618
20
-1.44972532088914
30
0
41
1
10
31.8227059501769
20
-1.46355680511755
30
0
41
1
10
31.8368650775307
20
-1.48229510907075
30
0
41
1
10
31.8415104005925
20
-1.48821725167662
30
0
41
1
10
31.8504817729186
20
-1.49907220406584
30
0
41
1
10
31.8548137438247
20
-1.50401521402526
30
0
41
1
10
31.8630792721435
20
-1.51264554914684
30
0
41
1
10
31.8670141740044
20
-1.51633711162319
30
0
41
1
10
31.8725083539858
20
-1.52058801211118
30
0
41
1
10
31.8742726300896
20
-1.52178759780722
30
0
41
1
10
31.8775786942363
20
-1.52363725300705
30
0
41
1
10
31.8806772853499
20
-1.52495026389064
30
0
41
1
10
31.883299222709
20
-1.52503037465061
30
0
41
1
10
31.8856429670422
20
-1.52439091861191
30
0
41
1
10
31.8866679378529
20
-1.52370699797743
30
0
41
1
10
31.8883577132865
20
-1.52158362612087
30
0
41
1
10
31.8890297601255
20
-1.52014325295161
30
0
41
1
10
31.8900088163918
20
-1.51646272468668
30
0
41
1
10
31.8903160183406
20
-1.51420850230278
30
0
41
1
10
31.8904279025033
20
-1.51156497705537
30
0
0
SPLINE
5
11A
100
AcDbEntity
8
1
62
256
6
ByLayer
370
13
48
1
60
0
100
AcDbSpline
70
4
71
3
72
8
73
4
40
0
40
0
40
0
40
0
40
1
40
1
40
1
40
1
41
1
10
31.495539009003
20
-2.31430799018713
30
0
41
1
10
31.4678290377667
20
-2.14983164844253
30
0
41
1
10
31.4401190665303
20
-1.9853553066979
30
0
41
1
10
31.412409095294
20
-1.8208789649533
30
0
0
SPLINE
5
11B
100
AcDbEntity
8
1
62
256
6
ByLayer
370
18
48
1
60
0
100
AcDbSpline
70
4
71
5
72
34
73
28
40
0
40
0
40
0
40
0
40
0
40
0
40
0.0117108093312552
40
0.0435316489411217
40
0.107251655552286
40
0.169487928583324
40
0.201387900495046
40
0.233423912079881
40
0.297700558013816
40
0.329866085968645
40
0.361370811495064
40
0.392754206074994
40
0.424751967373207
40
0.489061747194538
40
0.553540619761516
40
0.584958677559783
40
0.616376936201499
40
0.648454629466288
40
0.71291402750159
40
0.777515277320964
40
0.808758100717156
40
0.840161335658164
40
0.872290707766895
40
0.936840007889672
40
1
40
1
40
1
40
1
40
1
40
1
41
1
10
31.9956883928732
20
-2.13635308090142
30
0
41
1
10
31.9956732489035
20
-2.1371726303592
30
0
41
1
10
31.9955866848716
20
-2.14021585439184
30
0
41
1
10
31.9950964107703
20
-2.14768260408707
30
0
41
1
10
31.9932477665473
20
-2.15934112556116
30
0
41
1
10
31.9890504419118
20
-2.17290021921417
30
0
41
1
10
31.981915441586
20
-2.18750770796271
30
0
41
1
10
31.9710712218363
20
-2.20351208717207
30
0
41
1
10
31.9592903287419
20
-2.21687727187066
30
0
41
1
10
31.9474943418022
20
-2.22793472114341
30
0
41
1
10
31.9340588565635
20
-2.23851782041683
30
0
41
1
10
31.9189755739107
20
-2.2486157204865
30
0
41
1
10
31.9027022621256
20
-2.25823922954567
30
0
41
1
10
31.8821135489289
20
-2.26870447912529
30
0
41
1
10
31.8597014699333
20
-2.27822555906232
30
0
41
1
10
31.8354303438958
20
-2.28683578654079
30
0
41
1
10
31.809206092807
20
-2.29452191824157
30
0
41
1
10
31.7817327599658
20
-2.30132569803169
30
0
41
1
10
31.7532344947441
20
-2.30720145053084
30
0
41
1
10
31.7235898736694
20
-2.3119624909431
30
0
41
1
10
31.6927304344661
20
-2.31563360336901
30
0
41
1
10
31.6605810799856
20
-2.31818750619232
30
0
41
1
10
31.6278377026187
20
-2.31977261914497
30
0
41
1
10
31.5949652647886
20
-2.32038196450318
30
0
41
1
10
31.5663918776063
20
-2.31992656711449
30
0
41
1
10
31.5422346449186
20
-2.31886667110592
30
0
41
1
10
31.5227634818491
20
-2.31757543903006
30
0
41
1
10
31.5131088777281
20
-2.31682877957098
30
0
0
SPLINE
5
11C
100
AcDbEntity
8
1
62
256
6
ByLayer
370
13
48
1
60
0
100
AcDbSpline
70
4
71
1
72
4
73
2
40
0
40
0
40
1
40
1
41
1
10
31.8903531797864
20
-1.50767241127957
30
0
41
1
10
31.9956123964463
20
-2.13245295484236
30
0
0
SPLINE
5
11D
100
AcDbEntity
8
1
62
256
6
ByLayer
370
18
48
1
60
0
100
AcDbSpline
70
4
71
1
72
4
73
2
40
0
40
0
40
1
40
1
41
1
10
31.8904279025031
20
-1.51156497705512
30
0
41
1
10
31.8903531797864
20
-1.50767241127957
30
0
0
SPLINE
5
11E
100
AcDbEntity
8
1
62
256
6
ByLayer
370
18
48
1
60
0
100
AcDbSpline
70
4
71
3
72
8
73
4
40
0
40
0
40
0
40
0
40
1
40
1
40
1
40
1
41
1
10
31.3681908231344
20
-1.82725983374257
30
0
41
1
10
31.3893729611318
20
-1.95367417880368
30
0
41
1
10
31.4105418436047
20
-2.0796998903225
30
0
41
1
10
31.4316945972046
20
-2.2053203811046
30
0
0
SPLINE
5
11F
100
AcDbEntity
8
1
62
256
6
ByLayer
370
18
48
1
60
0
100
AcDbSpline
70
4
71
3
72
11
73
7
40
0
40
0
40
0
40
0
40
0.25
40
0.5
40
0.75
40
1
40
1
40
1
40
1
41
1
10
17.0000000000001
20
1.1386867140919
30
0
41
1
10
17.0000000000001
20
1.00493170035273
30
0
41
1
10
17.0000000000001
20
0.685911210203585
30
0
41
1
10
17
20
0.0905857835377049
30
0
41
1
10
17.0000000000001
20
-0.567100503552723
30
0
41
1
10
17.0000000000001
20
-1.00562747818998
30
0
41
1
10
17.0000000000001
20
-1.21505264524222
30
0
0
SPLINE
5
120
100
AcDbEntity
8
1
62
256
6
ByLayer
370
18
48
1
60
0
100
AcDbSpline
70
4
71
3
72
56
73
52
40
0
40
0
40
0
40
0
40
0.0624999999999776
40
0.0624999999999776
40
0.0937499999999663
40
0.0937499999999663
40
0.109374999999961
40
0.109374999999961
40
0.124999999999955
40
0.124999999999955
40
0.156249999999951
40
0.156249999999951
40
0.187499999999946
40
0.187499999999946
40
0.203124999999944
40
0.203124999999944
40
0.218749999999942
40
0.249999999999937
40
0.249999999999937
40
0.265624999999937
40
0.265624999999937
40
0.281249999999937
40
0.312499999999937
40
0.312499999999937
40
0.328124999999939
40
0.328124999999939
40
0.343749999999941
40
0.343749999999941
40
0.374999999999944
40
0.374999999999944
40
0.406249999999947
40
0.406249999999947
40
0.43749999999995
40
0.43749999999995
40
0.499999999999956
40
0.499999999999956
40
0.562499999999961
40
0.562499999999961
40
0.593749999999964
40
0.593749999999964
40
0.624999999999967
40
0.624999999999967
40
0.687499999999973
40
0.687499999999973
40
0.749999999999978
40
0.749999999999978
40
0.812499999999984
40
0.812499999999984
40
0.874999999999989
40
0.874999999999989
40
1
40
1
40
1
40
1
41
1
10
13.6354432450079
20
0.633471390050431
30
0
41
1
10
13.6976958488746
20
0.636491117689417
30
0
41
1
10
13.7596181227908
20
0.642024171156777
30
0
41
1
10
13.8517850667045
20
0.655767417038163
30
0
41
1
10
13.8823868664874
20
0.661264084336011
30
0
41
1
10
13.9280655601934
20
0.671208914913962
30
0
41
1
10
13.9432530523713
20
0.674809403438644
30
0
41
1
10
13.973338555057
20
0.682590109052825
30
0
41
1
10
13.9882610142896
20
0.686775316148811
30
0
41
1
10
14.0326332836259
20
0.700298469078859
30
0
41
1
10
14.0616900319204
20
0.710599070071368
30
0
41
1
10
14.1185293254881
20
0.73431356922876
30
0
41
1
10
14.1463129248319
20
0.747724983822792
30
0
41
1
10
14.1868069622056
20
0.770720392049299
30
0
41
1
10
14.2001608609034
20
0.778903618536532
30
0
41
1
10
14.2261425977809
20
0.7961564846687
30
0
41
1
10
14.2639461414022
20
0.823294678159442
30
0
41
1
10
14.2981039759785
20
0.854348984766375
30
0
41
1
10
14.329646884651
20
0.88819489749514
30
0
41
1
10
14.3397388820768
20
0.899959311498378
30
0
41
1
10
14.3589643598565
20
0.924375828772639
30
0
41
1
10
14.386036474554
20
0.96190669308757
30
0
41
1
10
14.4080885649312
20
1.00199454019952
30
0
41
1
10
14.4271303151843
20
1.04359120412562
30
0
41
1
10
14.4329754490047
20
1.05770844594727
30
0
41
1
10
14.4437126842533
20
1.08641635666317
30
0
41
1
10
14.4485745025926
20
1.10093287650341
30
0
41
1
10
14.4616717652139
20
1.14455435258304
30
0
41
1
10
14.4684855489841
20
1.17388502955217
30
0
41
1
10
14.4790098541493
20
1.2329153231216
30
0
41
1
10
14.4827175435737
20
1.26261543641044
30
0
41
1
10
14.4875527611923
20
1.32229073822776
30
0
41
1
10
14.4886743742647
20
1.35237273052687
30
0
41
1
10
14.4887766495817
20
1.44175238743287
30
0
41
1
10
14.4846063941971
20
1.50043316467452
30
0
41
1
10
14.4704900398497
20
1.61633957938298
30
0
41
1
10
14.4605114373754
20
1.67356103902486
30
0
41
1
10
14.4422565735248
20
1.75844062657248
30
0
41
1
10
14.4356171234033
20
1.78657417430114
30
0
41
1
10
14.4213499147319
20
1.84253794903154
30
0
41
1
10
14.4137296998317
20
1.87033314642625
30
0
41
1
10
14.3896575243292
20
1.95288104154912
30
0
41
1
10
14.3719697984439
20
2.00693001004296
30
0
41
1
10
14.3339113352461
20
2.11329079124249
30
0
41
1
10
14.3135365805246
20
2.16560117607111
30
0
41
1
10
14.2704628937793
20
2.26862799990346
30
0
41
1
10
14.2477331786393
20
2.31940271608761
30
0
41
1
10
14.2003186533864
20
2.41914766132643
30
0
41
1
10
14.1756540497538
20
2.46808190887504
30
0
41
1
10
14.0990328699666
20
2.61224654777391
30
0
41
1
10
14.0444701208841
20
2.7048499386448
30
0
41
1
10
13.9867092083429
20
2.7942214128125
30
0
0
SPLINE
5
121
100
AcDbEntity
8
1
62
256
6
ByLayer
370
18
48
1
60
0
100
AcDbSpline
70
4
71
3
72
12
73
8
40
0
40
0
40
0
40
0
40
0.438514733493926
40
0.438514733493926
40
0.837145423788982
40
0.837145423788982
40
1
40
1
40
1
40
1
41
1
10
31.4455895860952
20
-2.28438523138257
30
0
41
1
10
31.4516410683235
20
-2.28874982077988
30
0
41
1
10
31.4576913065931
20
-2.29311589718989
30
0
41
1
10
31.4692390850771
20
-2.30145382532606
30
0
41
1
10
31.4747368451393
20
-2.30542541525369
30
0
41
1
10
31.4824791400174
20
-2.31102131912002
30
0
41
1
10
31.4847245575968
20
-2.31264457994956
30
0
41
1
10
31.4869697973296
20
-2.31426805293
30
0
0
SPLINE
5
122
100
AcDbEntity
8
1
62
256
6
ByLayer
370
18
48
1
60
0
100
AcDbSpline
70
4
71
3
72
8
73
4
40
0
40
0
40
0
40
0
40
1
40
1
40
1
40
1
41
1
10
31.4455895860952
20
-2.28438523138257
30
0
41
1
10
31.4456726165622
20
-2.28517554208474
30
0
41
1
10
31.4457556543819
20
-2.2859658917674
30
0
41
1
10
31.4458386995556
20
-2.28675628043646
30
0
0
SPLINE
5
123
100
AcDbEntity
8
1
62
256
6
ByLayer
370
18
48
1
60
0
100
AcDbSpline
70
4
71
3
72
48
73
44
40
0
40
0
40
0
40
0
40
0.075168452923047
40
0.21389318498459
40
0.352617917046133
40
0.445101071753828
40
0.537584226461523
40
0.630067381169219
40
0.69942974719999
40
0.7572317188923
40
0.791912901907685
40
0.815033690584609
40
0.832374282092302
40
0.84682477501538
40
0.855495070769226
40
0.861275267938457
40
0.867055465107688
40
0.875725760861535
40
0.890176253784612
40
0.907516845292305
40
0.930637633969228
40
0.947978225476921
40
0.962428718399999
40
0.971099014153845
40
0.976879211323076
40
0.981214359199999
40
0.984104457784615
40
0.986272031723076
40
0.987717081015384
40
0.989884654953846
40
0.990968441923077
40
0.991871597730769
40
0.992323175634615
40
0.992503806796154
40
0.992639280167307
40
0.992729595748077
40
0.99286506911923
40
0.993136015861538
40
0.993677909346154
40
0.994581065153846
40
0.995664852123077
40
0.997109901415385
40
1
40
1
40
1
40
1
41
1
10
27.1369811936356
20
0.867229317306851
30
0
41
1
10
26.8829874624238
20
1.04226623863678
30
0
41
1
10
26.1602437312119
20
1.53508019667601
30
0
41
1
10
24.96875
20
2.3078662102869
30
0
41
0.999999999999999
10
23.7187500000001
20
3.02425952274254
30
0
41
1
10
22.625
20
3.56135550877045
30
0
41
1
10
21.6875000000001
20
3.95195528117844
30
0
41
1
10
20.8281250000001
20
4.23808107795628
30
0
41
0.999999999999999
10
20.0859375000001
20
4.42476072543469
30
0
41
1
10
19.5390625
20
4.52682205546975
30
0
41
0.999999999999999
10
19.1484375000001
20
4.58106363684365
30
0
41
1
10
18.89453125
20
4.60868412988517
30
0
41
0.999999999999998
10
18.708984375
20
4.62494234698088
30
0
41
1
10
18.572265625
20
4.63464047351931
30
0
41
0.999999999999999
10
18.4746093750001
20
4.64037864130592
30
0
41
1
10
18.40625
20
4.64387413096514
30
0
41
0.999999999999999
10
18.337890625
20
4.64695209542075
30
0
41
1
10
18.240234375
20
4.6506026323037
30
0
41
0.999999999999999
10
18.1035156250001
20
4.65403780561005
30
0
41
1
10
17.9179687500001
20
4.65556272128037
30
0
41
1
10
17.7226562500001
20
4.65294818744198
30
0
41
0.999999999999999
10
17.5371093750001
20
4.64643388270707
30
0
41
1
10
17.400390625
20
4.63929081099474
30
0
41
1
10
17.3027343750001
20
4.63296723781846
30
0
41
1
10
17.2392578125
20
4.6283596971995
30
0
41
0.999999999999999
10
17.1953125000001
20
4.62492856688957
30
0
41
1
10
17.16357421875
20
4.62232592104982
30
0
41
0.999999999999999
10
17.1416015625
20
4.62046366063857
30
0
41
1
10
17.1220703125002
20
4.6187699305808
30
0
41
0.999999999999992
10
17.1062011718751
20
4.61736257421587
30
0
41
1.00000000000002
10
17.0921630859378
20
4.61609275157461
30
0
41
0.999999999999985
10
17.0839233398438
20
4.61533850370064
30
0
41
1.00000000000001
10
17.0787353515628
20
4.61485977796827
30
0
41
0.999999999999996
10
17.0761413574218
20
4.61461952158927
30
0
41
1
10
17.0747680664063
20
4.61449209050726
30
0
41
0.999999999999997
10
17.0735473632813
20
4.61437866825265
30
0
41
1.00000000000001
10
17.0718688964845
20
4.6142225061483
30
0
41
0.999999999999995
10
17.0686645507813
20
4.61392366884734
30
0
41
1.00000000000001
10
17.0628662109376
20
4.61338034722115
30
0
41
0.999999999999994
10
17.0543212890624
20
4.61257293289173
30
0
41
1
10
17.0427246093751
20
4.6114645952208
30
0
41
0.999999999999998
10
17.0244140625
20
4.6096893394074
30
0
41
1
10
17.0097656250001
20
4.60823449545105
30
0
41
1
10
17
20
4.60724919365484
30
0
0
SPLINE
5
124
100
AcDbEntity
8
1
62
256
6
ByLayer
370
18
48
1
60
0
100
AcDbSpline
70
4
71
3
72
8
73
4
40
0
40
0
40
0
40
0
40
1
40
1
40
1
40
1
41
1
10
31.4316945960426
20
-2.20532038560199
30
0
41
1
10
31.4364111349894
20
-2.23249216114158
30
0
41
1
10
31.4411258552838
20
-2.25963755687496
30
0
41
1
10
31.4458386995556
20
-2.28675628043646
30
0
0
SPLINE
5
125
100
AcDbEntity
8
1
62
256
6
ByLayer
370
18
48
1
60
0
100
AcDbSpline
70
4
71
3
72
8
73
4
40
0
40
0
40
0
40
0
40
1
40
1
40
1
40
1
41
1
10
31.6816354967437
20
-3.64162411260636
30
0
41
1
10
31.6687007774597
20
-3.65892400284835
30
0
41
1
10
31.655777092569
20
-3.67612909149324
30
0
41
1
10
31.6428644273408
20
-3.69323950510182
30
0
0
SPLINE
5
126
100
AcDbEntity
8
1
62
256
6
ByLayer
370
18
48
1
60
0
100
AcDbSpline
70
4
71
3
72
8
73
4
40
0
40
0
40
0
40
0
40
1
40
1
40
1
40
1
41
1
10
17.0000000000001
20
-1.71825394320811
30
0
41
1
10
16.85253826635
20
-1.64480027638729
30
0
41
1
10
16.7056403640591
20
-1.56982475648505
30
0
41
1
10
16.5593511371618
20
-1.49320634370653
30
0
0
SPLINE
5
127
100
AcDbEntity
8
1
62
256
6
ByLayer
370
18
48
1
60
0
100
AcDbSpline
70
4
71
3
72
8
73
4
40
0
40
0
40
0
40
0
40
1
40
1
40
1
40
1
41
1
10
31.566698263316
20
-3.60238829480744
30
0
41
1
10
31.5914410094906
20
-3.63423937708294
30
0
41
1
10
31.6168147454993
20
-3.66455946571779
30
0
41
1
10
31.6428644273416
20
-3.69323950509536
30
0
0
SPLINE
5
128
100
AcDbEntity
8
1
62
256
6
ByLayer
370
18
48
1
60
0
100
AcDbSpline
70
4
71
3
72
8
73
4
40
0
40
0
40
0
40
0
40
1
40
1
40
1
40
1
41
1
10
31.5666982427054
20
-3.60238830488257
30
0
41
1
10
31.5472001956485
20
-3.60924381910689
30
0
41
1
10
31.5277021485915
20
-3.61606367608684
30
0
41
1
10
31.5082041015345
20
-3.62284775256251
30
0
0
SPLINE
5
129
100
AcDbEntity
8
1
62
256
6
ByLayer
370
18
48
1
60
0
100
AcDbSpline
70
4
71
3
72
49
73
45
40
0
40
0
40
0
40
0
40
0.0364010253983122
40
0.197000854498594
40
0.317450726323805
40
0.437900598149016
40
0.518200512699156
40
0.598500427249297
40
0.678800341799437
40
0.739025277712043
40
0.789212724305881
40
0.819325192262184
40
0.839400170899719
40
0.85445640487787
40
0.86700326652633
40
0.874531383515405
40
0.879550128174789
40
0.884568872834173
40
0.892096989823248
40
0.904643851471708
40
0.919700085449859
40
0.939775064087395
40
0.954831298065546
40
0.967378159714005
40
0.974906276703081
40
0.979925021362465
40
0.983689079857003
40
0.986198452186695
40
0.988080481433964
40
0.989335167598809
40
0.991217196846078
40
0.992158211469713
40
0.992942390322742
40
0.993334479749256
40
0.993491315519862
40
0.993608942347816
40
0.993687360233119
40
0.993804987061073
40
0.994040240716982
40
0.994510748028799
40
0.995294926881828
40
0.996235941505462
40
0.997490627670308
40
1
40
1
40
1
40
1
41
1
10
28.6749812904797
20
-4.34279388741123
30
0
41
1
10
28.5333208603198
20
-4.36479903042695
30
0
41
1
10
27.76666043016
20
-4.47196290160321
30
0
41
1
10
26.5312500000001
20
-4.53840260866122
30
0
41
1
10
24.9687500000001
20
-4.42694494453664
30
0
41
1
10
23.7187500000001
20
-4.20714473827189
30
0
41
1
10
22.6250000000001
20
-3.92461345948843
30
0
41
1
10
21.6875000000002
20
-3.62414587451809
30
0
41
1
10
20.8281250000002
20
-3.29985980262302
30
0
41
1
10
20.0859375000001
20
-2.98629454788423
30
0
41
1
10
19.5390625000001
20
-2.73743651160922
30
0
41
1
10
19.1484375000002
20
-2.55127537328977
30
0
41
1
10
18.8945312500001
20
-2.42708111719838
30
0
41
1
10
18.7089843750001
20
-2.33477280796473
30
0
41
1
10
18.5722656250001
20
-2.26589420964251
30
0
41
1
10
18.4746093750001
20
-2.21626334548046
30
0
41
1
10
18.4062500000001
20
-2.18133702582713
30
0
41
1
10
18.3378906250001
20
-2.14626520313894
30
0
41
1
10
18.2402343750001
20
-2.09590684498991
30
0
41
1
10
18.1035156250002
20
-2.02484599885165
30
0
41
1
10
17.9179687500001
20
-1.92740623170235
30
0
41
1
10
17.7226562500002
20
-1.82356694719542
30
0
41
1
10
17.5371093750001
20
-1.72380601431539
30
0
41
1
10
17.4003906250002
20
-1.64968200921999
30
0
41
1
10
17.3027343750002
20
-1.59640948458505
30
0
41
1
10
17.2392578125001
20
-1.56164883697568
30
0
41
1
10
17.1953125000001
20
-1.53751887786902
30
0
41
1
10
17.1635742187502
20
-1.52005815935942
30
0
41
1
10
17.1416015625001
20
-1.50795371225118
30
0
41
1
10
17.1220703125003
20
-1.49718387849859
30
0
41
1
10
17.1062011718752
20
-1.4884249983794
30
0
41
1
10
17.0921630859382
20
-1.48067007820651
30
0
41
1
10
17.0839233398433
20
-1.47611588124914
30
0
41
1
10
17.078735351563
20
-1.4732473953971
30
0
41
1
10
17.076141357422
20
-1.47181291249743
30
0
41
1
10
17.0747680664064
20
-1.47105341685267
30
0
41
1
10
17.0735473632814
20
-1.47037826928263
30
0
41
1
10
17.0718688964847
20
-1.46944988592031
30
0
41
1
10
17.0686645507814
20
-1.46767732712777
30
0
41
1
10
17.0628662109378
20
-1.46446915018461
30
0
41
1
10
17.0543212890626
20
-1.45973950393812
30
0
41
1
10
17.0427246093753
20
-1.45331732770364
30
0
41
1
10
17.0244140625001
20
-1.44317027747945
30
0
41
1
10
17.0097656250002
20
-1.4350433533892
30
0
41
1
10
17.0000000000001
20
-1.42962128159553
30
0
0
SPLINE
5
12A
100
AcDbEntity
8
1
62
256
6
ByLayer
370
18
48
1
60
0
100
AcDbSpline
70
4
71
3
72
8
73
4
40
0
40
0
40
0
40
0
40
1
40
1
40
1
40
1
41
1
10
31.6428644273237
20
-3.69323950510591
30
0
41
1
10
31.5435195065447
20
-3.73303330443667
30
0
41
1
10
31.4442021240333
20
-3.77188136870632
30
0
41
1
10
31.3448961839171
20
-3.80976986498015
30
0
0
SPLINE
5
12B
100
AcDbEntity
8
1
62
256
6
ByLayer
370
18
48
1
60
0
100
AcDbSpline
70
4
71
3
72
56
73
52
40
0
40
0
40
0
40
0
40
0.0164952425291277
40
0.0164952425291277
40
0.0337497119584406
40
0.0337497119584406
40
0.0682586508170686
40
0.0682586508170686
40
0.102767589675697
40
0.102767589675697
40
0.171785467392955
40
0.171785467392955
40
0.240803345110213
40
0.240803345110213
40
0.309821222827471
40
0.309821222827471
40
0.327075692256785
40
0.327075692256785
40
0.344330161686098
40
0.344330161686098
40
0.378839100544723
40
0.378839100544723
40
0.413348039403347
40
0.413348039403347
40
0.447856978261972
40
0.447856978261972
40
0.516874855979223
40
0.516874855979223
40
0.585892733696475
40
0.585892733696475
40
0.6204016725551
40
0.6204016725551
40
0.654910611413726
40
0.654910611413726
40
0.689419550272352
40
0.689419550272352
40
0.706674019701665
40
0.706674019701665
40
0.723928489130979
40
0.723928489130979
40
0.758437427989607
40
0.758437427989607
40
0.792946366848235
40
0.792946366848235
40
0.86196424456549
40
0.86196424456549
40
0.930982122282745
40
0.930982122282745
40
0.965491061141372
40
0.965491061141372
40
1
40
1
40
1
40
1
41
1
10
30.2531104622719
20
-4.18683901816109
30
0
41
1
10
30.1797555858483
20
-4.20944931134002
30
0
41
1
10
30.1063730614482
20
-4.23150349891625
30
0
41
1
10
29.9561583230453
20
-4.27547034264322
30
0
41
1
10
29.8793526739463
20
-4.29732026218178
30
0
41
1
10
29.6492864993104
20
-4.36085138176907
30
0
41
1
10
29.4962236002531
20
-4.40056292947554
30
0
41
1
10
29.1906155200265
20
-4.47453131036082
30
0
41
1
10
29.0380798097319
20
-4.50876243383448
30
0
41
1
10
28.580946368231
20
-4.6032755947428
30
0
41
1
10
28.2767477865233
20
-4.65554182123034
30
0
41
1
10
27.6682482032301
20
-4.73837455857006
30
0
41
1
10
27.3639842395446
20
-4.7689497820615
30
0
41
1
10
26.7544846213567
20
-4.80730342260307
30
0
41
1
10
26.4492414431895
20
-4.81501944382296
30
0
41
1
10
26.0661663861282
20
-4.81064294862333
30
0
41
1
10
25.9894768632777
20
-4.80905907005865
30
0
41
1
10
25.8359290492249
20
-4.80446176384172
30
0
41
1
10
25.7592123901254
20
-4.80145217258158
30
0
41
1
10
25.5293976303961
20
-4.79030720286838
30
0
41
1
10
25.3765518806003
20
-4.78005451704703
30
0
41
1
10
25.0714403280556
20
-4.7539468379382
30
0
41
1
10
24.9191739010409
20
-4.73808837756835
30
0
41
1
10
24.6150909971563
20
-4.70077802823667
30
0
41
1
10
24.4632705076411
20
-4.67934259490104
30
0
41
1
10
24.0081636123299
20
-4.60719265002183
30
0
41
1
10
23.7052474716608
20
-4.54862927417457
30
0
41
1
10
23.0995000152429
20
-4.41045989875502
30
0
41
1
10
22.7966388064068
20
-4.3309746712219
30
0
41
1
10
22.3415343012067
20
-4.1961340956023
30
0
41
1
10
22.1896831718668
20
-4.14863921819656
30
0
41
1
10
21.8854731806385
20
-4.04893778478706
30
0
41
1
10
21.7331189972675
20
-3.99671009210283
30
0
41
1
10
21.4277777529678
20
-3.88748358129769
30
0
41
1
10
21.2747933646894
20
-3.83048212506648
30
0
41
1
10
21.0447528125989
20
-3.74134346395215
30
0
41
1
10
20.9679162612144
20
-3.71099888696054
30
0
41
1
10
20.8144366898428
20
-3.64924911536949
30
0
41
1
10
20.7377823660487
20
-3.61784082320833
30
0
41
1
10
20.5080564831763
20
-3.5220259759115
30
0
41
1
10
20.3552487218815
20
-3.45595208937297
30
0
41
1
10
20.0499785309146
20
-3.32014509522657
30
0
41
1
10
19.8975065791686
20
-3.25044690397363
30
0
41
1
10
19.4404477762703
20
-3.03602748591791
30
0
41
1
10
19.1362071576218
20
-2.88602385814889
30
0
41
1
10
18.5276103944581
20
-2.57285257648479
30
0
41
1
10
18.2232578359005
20
-2.40964348210068
30
0
41
1
10
17.7655929589044
20
-2.15637520106395
30
0
41
1
10
17.6128382340142
20
-2.07057737497894
30
0
41
1
10
17.3067948160739
20
-1.89640932772323
30
0
41
1
10
17.1535257735003
20
-1.80799850115682
30
0
41
1
10
17.0000000000001
20
-1.71825394320811
30
0
0
SPLINE
5
12C
100
AcDbEntity
8
1
62
256
6
ByLayer
370
18
48
1
60
0
100
AcDbSpline
70
4
71
3
72
8
73
4
40
0
40
0
40
0
40
0
40
1
40
1
40
1
40
1
41
1
10
31.5422503611257
20
-0.797939318845607
30
0
41
1
10
31.5676284336441
20
-0.900038325240757
30
0
41
1
10
31.593791691598
20
-1.00323247539939
30
0
41
1
10
31.6208021055433
20
-1.10760820173098
30
0
0
SPLINE
5
12D
100
AcDbEntity
8
1
62
256
6
ByLayer
370
13
48
1
60
0
100
AcDbSpline
70
4
71
3
72
11
73
7
40
0
40
0
40
0
40
0
40
0.0944218326762729
40
0.371192244390212
40
0.647962656104152
40
1
40
1
40
1
40
1
41
1
10
31.542250351126
20
-0.797939311701327
30
0
41
1
10
31.3823335674174
20
-0.690741227788834
30
0
41
1
10
30.7536667837087
20
-0.263141818341694
30
0
41
1
10
29.6562500000001
20
0.484588503748426
30
0
41
1
10
28.122524760715
20
1.50581874197505
30
0
41
1
10
27.0575495214299
20
2.16231756412705
30
0
41
1
10
26.4613242821448
20
2.49928751378835
30
0
0
SPLINE
5
12E
100
AcDbEntity
8
1
62
256
6
ByLayer
370
18
48
1
60
0
100
AcDbSpline
70
4
71
3
72
8
73
4
40
0
40
0
40
0
40
0
40
1
40
1
40
1
40
1
41
1
10
31.3613514034968
20
-1.78437792387447
30
0
41
1
10
31.3636309552309
20
-1.79867394340207
30
0
41
1
10
31.3659107625762
20
-1.81296792705507
30
0
41
1
10
31.3681908192684
20
-1.82725983457473
30
0
0
SPLINE
5
12F
100
AcDbEntity
8
1
62
256
6
ByLayer
370
18
48
1
60
0
100
AcDbSpline
70
4
71
3
72
12
73
8
40
0
40
0
40
0
40
0
40
0.356723755772629
40
0.356723755772629
40
0.67835758819323
40
0.67835758819323
40
1
40
1
40
1
40
1
41
1
10
31.3613514034969
20
-1.78437792387459
30
0
41
1
10
31.3674589681358
20
-1.78867313028769
30
0
41
1
10
31.3735539431516
20
-1.79298413033573
30
0
41
1
10
31.3851195631135
20
-1.8012126389506
30
0
41
1
10
31.390592683228
20
-1.80512716707935
30
0
41
1
10
31.401517277884
20
-1.81298292428801
30
0
41
1
10
31.4069687884023
20
-1.81692418039145
30
0
41
1
10
31.412409095294
20
-1.82087896495332
30
0
0
SPLINE
5
130
100
AcDbEntity
8
1
62
256
6
ByLayer
370
18
48
1
60
0
100
AcDbSpline
70
4
71
3
72
38
73
34
40
0
40
0
40
0
40
0
40
0.0312499999999559
40
0.0312499999999559
40
0.0624999999999118
40
0.0624999999999118
40
0.0937499999998677
40
0.0937499999998677
40
0.124999999999824
40
0.124999999999824
40
0.140624999999827
40
0.140624999999827
40
0.156249999999831
40
0.156249999999831
40
0.171874999999834
40
0.171874999999834
40
0.187499999999838
40
0.187499999999838
40
0.218749999999844
40
0.218749999999844
40
0.249999999999851
40
0.249999999999851
40
0.312499999999863
40
0.312499999999863
40
0.374999999999876
40
0.374999999999876
40
0.499999999999901
40
0.499999999999901
40
0.624999999999926
40
0.624999999999926
40
0.749999999999951
40
0.749999999999951
40
1
40
1
40
1
40
1
41
1
10
31.4124090952941
20
-1.82087896495338
30
0
41
1
10
31.4189427475425
20
-1.82562854757057
30
0
41
1
10
31.4256467221471
20
-1.83009280799649
30
0
41
1
10
31.4395142102223
20
-1.83825648809881
30
0
41
1
10
31.4467214217043
20
-1.84197725314635
30
0
41
1
10
31.461560602891
20
-1.84822438832663
30
0
41
1
10
31.469161861678
20
-1.85074778911746
30
0
41
1
10
31.4848769737351
20
-1.85411525019379
30
0
41
1
10
31.4931031733296
20
-1.85493836512774
30
0
41
1
10
31.5052531550476
20
-1.8543712823188
30
0
41
1
10
31.5092898962407
20
-1.85389044107987
30
0
41
1
10
31.5173349294951
20
-1.85229179877297
30
0
41
1
10
31.5213339373976
20
-1.85116828610259
30
0
41
1
10
31.5290233426366
20
-1.8483609761596
30
0
41
1
10
31.5327504058087
20
-1.84667146528261
30
0
41
1
10
31.5399850499176
20
-1.84275849736193
30
0
41
1
10
31.5435149267384
20
-1.84051639518557
30
0
41
1
10
31.553547536073
20
-1.83323583544154
30
0
41
1
10
31.5595626173066
20
-1.82763745951507
30
0
41
1
10
31.570641887141
20
-1.81538863862204
30
0
41
1
10
31.5756786154313
20
-1.80874799759584
30
0
41
1
10
31.589362744273
20
-1.78826550555283
30
0
41
1
10
31.5968191926191
20
-1.77366449979522
30
0
41
1
10
31.6099190469479
20
-1.7434338752779
30
0
41
1
10
31.6154096416331
20
-1.72808801053591
30
0
41
1
10
31.630004201364
20
-1.68166207700494
30
0
41
1
10
31.6372689474551
20
-1.65018980141429
30
0
41
1
10
31.649399310741
20
-1.58673682907218
30
0
41
1
10
31.6542011744297
20
-1.55469898158273
30
0
41
1
10
31.6622149172506
20
-1.49049496153182
30
0
41
1
10
31.6654105187838
20
-1.45836896241494
30
0
41
1
10
31.6733369089182
20
-1.36193681020475
30
0
41
1
10
31.6764366226374
20
-1.29757714030853
30
0
41
1
10
31.6782625027399
20
-1.23316322827151
30
0
0
SPLINE
5
131
100
AcDbEntity
8
1
62
256
6
ByLayer
370
18
48
1
60
0
100
AcDbSpline
70
4
71
3
72
8
73
4
40
0
40
0
40
0
40
0
40
1
40
1
40
1
40
1
41
1
10
31.6782625027396
20
-1.23316322827156
30
0
41
1
10
31.6590818096289
20
-1.19139332631198
30
0
41
1
10
31.6399283537829
20
-1.14954162110684
30
0
41
1
10
31.6208021055432
20
-1.10760820173098
30
0
0
SPLINE
5
132
100
AcDbEntity
8
1
62
256
6
ByLayer
370
18
48
1
60
0
100
AcDbSpline
70
4
71
3
72
50
73
46
40
0
40
0
40
0
40
0
40
0.0399305216796901
40
0.0399305216796901
40
0.0798610433593801
40
0.0798610433593801
40
0.11979156503907
40
0.11979156503907
40
0.139756825878915
40
0.139756825878915
40
0.15972208671876
40
0.15972208671876
40
0.239583130078136
40
0.239583130078136
40
0.319444173437511
40
0.319444173437511
40
0.359374695117198
40
0.359374695117198
40
0.399305216796884
40
0.439235738476571
40
0.439235738476571
40
0.459200999316414
40
0.469183629736335
40
0.469183629736335
40
0.479166260156257
40
0.479166260156257
40
0.559027303515623
40
0.559027303515623
40
0.638888346874989
40
0.638888346874989
40
0.718749390234355
40
0.718749390234355
40
0.79861043359372
40
0.79861043359372
40
0.818575694433562
40
0.818575694433562
40
0.838540955273403
40
0.838540955273403
40
0.878471476953087
40
0.878471476953087
40
0.918401998632771
40
0.918401998632771
40
0.958332520312455
40
0.958332520312455
40
1
40
1
40
1
40
1
41
1
10
31.6208021055432
20
-1.10760820173101
30
0
41
1
10
31.4676594664905
20
-0.999449312636472
30
0
41
1
10
31.3151865159199
20
-0.889829361459306
30
0
41
1
10
31.0101883971234
20
-0.669571277958397
30
0
41
1
10
30.8575857883187
20
-0.559043495840911
30
0
41
1
10
30.5519116755906
20
-0.337558064045822
30
0
41
1
10
30.398865242596
20
-0.226564874848094
30
0
41
1
10
30.1688952299554
20
-0.059805101738732
30
0
41
1
10
30.0921319545487
20
-0.0041460213657558
30
0
41
1
10
29.9386207310695
20
0.107099127140515
30
0
41
1
10
29.861985050775
20
0.162603807097611
30
0
41
1
10
29.4793353524094
20
0.439461146500008
30
0
41
1
10
29.1749132745132
20
0.658840905508384
30
0
41
1
10
28.5677376342822
20
1.09115230475229
30
0
41
1
10
28.2649692959334
20
1.30407769016909
30
0
41
1
10
27.8107950614449
20
1.61675305760784
30
0
41
1
10
27.6593936195487
20
1.71985363530027
30
0
41
1
10
27.356266505831
20
1.92345461087419
30
0
41
1
10
27.0528153345124
20
2.1244591623709
30
0
41
1
10
26.7482213368167
20
2.31957322776415
30
0
41
1
10
26.5191496931612
20
2.46341742779754
30
0
41
1
10
26.4044571466145
20
2.53471635981597
30
0
41
1
10
26.2894908167691
20
2.60502473479309
30
0
41
1
10
26.2127819567835
20
2.65167123364842
30
0
41
1
10
26.1743960431932
20
2.67488087382478
30
0
41
1
10
25.8294088377235
20
2.88225110348853
30
0
41
1
10
25.5248431895673
20
3.05661248058809
30
0
41
1
10
24.9174975559301
20
3.38406551539467
30
0
41
1
10
24.6147214561431
20
3.53716551716573
30
0
41
1
10
24.0091377269985
20
3.82027632838677
30
0
41
1
10
23.7063965893632
20
3.95027658046959
30
0
41
1
10
23.0991440291043
20
4.18551185380372
30
0
41
1
10
22.7945677004159
20
4.29096793116182
30
0
41
1
10
22.4114703331608
20
4.40582111058043
30
0
41
1
10
22.3346629632237
20
4.42796385850116
30
0
41
1
10
22.1814214185523
20
4.47036849928611
30
0
41
1
10
22.1049218289836
20
4.49065259143188
30
0
41
1
10
21.8757287250039
20
4.54876938015568
30
0
41
1
10
21.7233484277733
20
4.58385616444556
30
0
41
1
10
21.4192552518209
20
4.64644843843794
30
0
41
1
10
21.2675328751617
20
4.67396299589987
30
0
41
1
10
20.9643218020388
20
4.72180531304005
30
0
41
1
10
20.812864887147
20
4.74205564871889
30
0
41
1
10
20.5034549109883
20
4.7757856225688
30
0
41
1
10
20.3455208856391
20
4.78890350217861
30
0
41
1
10
20.1875112130884
20
4.79794618951502
30
0
0
SPLINE
5
133
100
AcDbEntity
8
1
62
256
6
ByLayer
370
18
48
1
60
0
100
AcDbSpline
70
4
71
3
72
29
73
25
40
0
40
0
40
0
40
0
40
0.0027992864709046
40
0.0463116671779901
40
0.0898240478850756
40
0.133336428592161
40
0.176848809299247
40
0.198604999652789
40
0.220361190006332
40
0.263873570713418
40
0.307385951420503
40
0.350898332127589
40
0.394410712834674
40
0.43792309354176
40
0.524947854955931
40
0.568460235663017
40
0.611972616370102
40
0.698997377784273
40
0.742509758491358
40
0.786022139198444
40
0.873046900612615
40
0.916559281319701
40
0.960071662026786
40
1
40
1
40
1
40
1
41
1
10
18.7933596341329
20
4.96126907438315
30
0
41
1
10
18.8050269702325
20
4.96081263934968
30
0
41
1
10
18.9980526852047
20
4.95288106846292
30
0
41
1
10
19.37243803969
20
4.92530433386372
30
0
41
1
10
19.9164029131924
20
4.85203599282465
30
0
41
1
10
20.460131397675
20
4.74638052411842
30
0
41
1
10
20.9129496178688
20
4.63173357976879
30
0
41
1
10
21.2749583833249
20
4.52469652808847
30
0
41
1
10
21.6367835195822
20
4.40770043761933
30
0
41
1
10
22.0886916952839
20
4.24286850615397
30
0
41
1
10
22.6301523936919
20
4.01727974427746
30
0
41
1
10
23.1706285529128
20
3.76529080461788
30
0
41
1
10
23.7099305706795
20
3.48911917107367
30
0
41
1
10
24.4276389897742
20
3.09082162981952
30
0
41
1
10
25.1445215280334
20
2.65103948512237
30
0
41
1
10
25.8628677166517
20
2.17711523121531
30
0
41
1
10
26.5828876372231
20
1.68271644674496
30
0
41
1
10
27.3066211364019
20
1.16181756842241
30
0
41
1
10
28.0366320682107
20
0.622465577419661
30
0
41
1
10
28.7713261187356
20
0.073658546044669
30
0
41
1
10
29.5141946118243
20
-0.483993382649857
30
0
41
1
10
30.2674781085123
20
-1.04049604495944
30
0
41
1
10
30.822297395898
20
-1.44311857371321
30
0
41
1
10
31.1908466305412
20
-1.70380220695384
30
0
41
1
10
31.3681908185814
20
-1.82725982731367
30
0
0
SPLINE
5
134
100
AcDbEntity
8
1
62
256
6
ByLayer
370
18
48
1
60
0
100
AcDbSpline
70
4
71
3
72
22
73
18
40
0
40
0
40
0
40
0
40
0.027011816387882
40
0.0925864979772542
40
0.158161179566626
40
0.223735861155999
40
0.354885224334743
40
0.387672565129429
40
0.420459905924115
40
0.486034587513487
40
0.617183950692232
40
0.682758632281604
40
0.748333313870976
40
0.813907995460348
40
0.87948267704972
40
0.945057358639093
40
1
40
1
40
1
40
1
41
1
10
16.9986303665484
20
-2.89937170205124
30
0
41
1
10
17.0731405149827
20
-2.93878822820565
30
0
41
1
10
17.328527663153
20
-3.07249548861279
30
0
41
1
10
17.7647737755912
20
-3.2923768607711
30
0
41
1
10
18.3074068532836
20
-3.54950081043796
30
0
41
1
10
19.0310212791231
20
-3.86883455663309
30
0
41
1
10
19.6643659734959
20
-4.115433016922
30
0
41
1
10
20.2074385530491
20
-4.30070747413373
30
0
41
1
10
20.5695467205429
20
-4.41710753033266
30
0
41
1
10
21.2033914588131
20
-4.60161327068545
30
0
41
1
10
21.9280754827963
20
-4.76733501715069
30
0
41
1
10
22.6529355606482
20
-4.88530271264369
30
0
41
1
10
23.1966392403118
20
-4.94932644037851
30
0
41
1
10
23.7403672097837
20
-4.98870999888064
30
0
41
1
10
24.2840861609497
20
-5.00327432195144
30
0
41
1
10
24.798326366397
20
-4.99347353729897
30
0
41
1
10
25.1313601299921
20
-4.97307672553168
30
0
41
1
10
25.283216975777
20
-4.96088330086187
30
0
0
SPLINE
5
135
100
AcDbEntity
8
1
62
256
6
ByLayer
370
18
48
1
60
0
100
AcDbSpline
70
4
71
3
72
31
73
27
40
0
40
0
40
0
40
0
40
0.122440226168833
40
0.122440226168833
40
0.183660339253249
40
0.183660339253249
40
0.214270395795457
40
0.214270395795457
40
0.244880452337664
40
0.244880452337664
40
0.489760904675316
40
0.489760904675316
40
0.550981017759728
40
0.550981017759728
40
0.61220113084414
40
0.734641357012966
40
0.734641357012966
40
0.795861470097379
40
0.795861470097379
40
0.826471526639586
40
0.826471526639586
40
0.857081583181792
40
0.857081583181792
40
0.97952180935063
40
0.97952180935063
40
1
40
1
40
1
40
1
41
1
10
17.0000000000001
20
-2.96535790723408
30
0
41
1
10
17.3003840550027
20
-3.12244790006969
30
0
41
1
10
17.6002542329362
20
-3.2725107534622
30
0
41
1
10
18.0502062509391
20
-3.48600410752229
30
0
41
1
10
18.2002151800343
20
-3.55523558856274
30
0
41
1
10
18.4253845512359
20
-3.65604614550736
30
0
41
1
10
18.5004922028792
20
-3.68915442404673
30
0
41
1
10
18.6505925824283
20
-3.75425810070647
30
0
41
1
10
18.7255975421616
20
-3.78625935396207
30
0
41
1
10
19.4003239516888
20
-4.06924894048706
30
0
41
1
10
19.9978520134615
20
-4.28518108421153
30
0
41
1
10
20.7479795023259
20
-4.5050189593492
30
0
41
1
10
20.8982732800066
20
-4.54651533756589
30
0
41
1
10
21.1983541566889
20
-4.62416948256873
30
0
41
1
10
21.647968531432
20
-4.73272578617366
30
0
41
1
10
22.0967384741056
20
-4.81724371550612
30
0
41
1
10
22.545894404429
20
-4.88521323274435
30
0
41
1
10
22.6956779356149
20
-4.90511126021065
30
0
41
1
10
22.920569719045
20
-4.93076840498941
30
0
41
1
10
22.9955696230907
20
-4.93862328516079
30
0
41
1
10
23.1456607175106
20
-4.95293157287529
30
0
41
1
10
23.2207811012264
20
-4.95938679172053
30
0
41
1
10
23.5960688774611
20
-4.98809873888433
30
0
41
1
10
23.8956000508046
20
-4.99971447954877
30
0
41
1
10
24.2450957968142
20
-5.00005363483695
30
0
41
1
10
24.2951701056425
20
-4.9997848464331
30
0
41
1
10
24.3452436395836
20
-4.99919868822764
30
0
0
SPLINE
5
136
100
AcDbEntity
8
1
62
256
6
ByLayer
370
18
48
1
60
0
100
AcDbSpline
70
4
71
3
72
8
73
4
40
0
40
0
40
0
40
0
40
1
40
1
40
1
40
1
41
1
10
31.4873980986848
20
-2.31455406649025
30
0
41
1
10
31.4959682925857
20
-2.31530820167652
30
0
41
1
10
31.50453855227
20
-2.3160664395721
30
0
41
1
10
31.5131088777281
20
-2.31682877957101
30
0
0
SPLINE
5
137
100
AcDbEntity
8
1
62
256
6
ByLayer
370
18
48
1
60
0
100
AcDbSpline
70
4
71
3
72
8
73
4
40
0
40
0
40
0
40
0
40
1
40
1
40
1
40
1
41
1
10
31.495539009003
20
-2.31430799018713
30
0
41
1
10
31.4926827471228
20
-2.31428366547476
30
0
41
1
10
31.4898262959092
20
-2.31427022940679
30
0
41
1
10
31.4869697973239
20
-2.31426805293714
30
0
0
SPLINE
5
138
100
AcDbEntity
8
1
62
256
6
ByLayer
370
18
48
1
60
0
100
AcDbSpline
70
4
71
3
72
34
73
30
40
0
40
0
40
0
40
0
40
0.249999999999976
40
0.249999999999976
40
0.374999999999945
40
0.374999999999945
40
0.499999999999914
40
0.499999999999914
40
0.562499999999915
40
0.562499999999915
40
0.624999999999917
40
0.624999999999917
40
0.687499999999918
40
0.687499999999918
40
0.718749999999926
40
0.718749999999926
40
0.749999999999934
40
0.749999999999934
40
0.781249999999942
40
0.781249999999942
40
0.812499999999951
40
0.812499999999951
40
0.843749999999959
40
0.843749999999959
40
0.874999999999967
40
0.874999999999967
40
0.937499999999983
40
0.937499999999983
40
1
40
1
40
1
40
1
41
1
10
13.7393915881408
20
0.361792404637015
30
0
41
1
10
13.7141753467896
20
0.382837601108633
30
0
41
1
10
13.689524364874
20
0.404451398282134
30
0
41
1
10
13.6540478029687
20
0.438390112630998
30
0
41
1
10
13.6424758202742
20
0.449959646442039
30
0
41
1
10
13.620092346122
20
0.473870672961795
30
0
41
1
10
13.6092353194864
20
0.486242553408061
30
0
41
1
10
13.5940581166445
20
0.505648647101793
30
0
41
1
10
13.5891961056297
20
0.512247919722881
30
0
41
1
10
13.5800367667656
20
0.52582140356958
30
0
41
1
10
13.575733538128
20
0.532791674905042
30
0
41
1
10
13.5680283829979
20
0.547331792317749
30
0
41
1
10
13.5646363920439
20
0.55485282187945
30
0
41
1
10
13.5609381246549
20
0.566650040623585
30
0
41
1
10
13.5599547555744
20
0.570634031546689
30
0
41
1
10
13.5586973884869
20
0.578695637446913
30
0
41
1
10
13.5584193204684
20
0.582818165247261
30
0
41
1
10
13.5589204753348
20
0.59104611288447
30
0
41
1
10
13.5596959048203
20
0.595084757244848
30
0
41
1
10
13.5625812369077
20
0.602856727531758
30
0
41
1
10
13.5646210638413
20
0.606400113246565
30
0
41
1
10
13.5698494906883
20
0.612828339520036
30
0
41
1
10
13.5729448673292
20
0.615594928004015
30
0
41
1
10
13.5797453459538
20
0.620348891734665
30
0
41
1
10
13.5833978205892
20
0.622306534652921
30
0
41
1
10
13.594687681882
20
0.627244374439073
30
0
41
1
10
13.6027814716536
20
0.629366557884111
30
0
41
1
10
13.6189822522648
20
0.632273804409579
30
0
41
1
10
13.6271825947567
20
0.633070685303466
30
0
41
1
10
13.6354432450079
20
0.633471390050431
30
0
0
SPLINE
5
139
100
AcDbEntity
8
1
62
256
6
ByLayer
370
18
48
1
60
0
100
AcDbSpline
70
4
71
3
72
8
73
4
40
0
40
0
40
0
40
0
40
1
40
1
40
1
40
1
41
1
10
31.513108877728
20
-2.31682877957141
30
0
41
1
10
31.5074555221467
20
-2.31530549699335
30
0
41
1
10
31.5015231854578
20
-2.31435895307925
30
0
41
1
10
31.4955390090035
20
-2.31430799018534
30
0
0
SPLINE
5
13A
100
AcDbEntity
8
1
62
256
6
ByLayer
370
18
48
1
60
0
100
AcDbSpline
70
4
71
1
72
4
73
2
40
0
40
0
40
1
40
1
41
1
10
31.9956123964462
20
-2.62243394529796
30
0
41
1
10
31.9956883928735
20
-2.62757634013806
30
0
0
SPLINE
5
13B
100
AcDbEntity
8
1
62
256
6
ByLayer
370
18
48
1
60
0
100
AcDbSpline
70
4
71
1
72
4
73
2
40
0
40
0
40
1
40
1
41
1
10
31.9956123964463
20
4.48642578319789
30
0
41
1
10
31.9956883928735
20
4.49495776299335
30
0
0
SPLINE
5
13C
100
AcDbEntity
8
1
62
256
6
ByLayer
370
18
48
1
60
0
100
AcDbSpline
70
4
71
1
72
4
73
2
40
0
40
0
40
1
40
1
41
1
10
16.9999998365274
20
-2.96438889448916
30
0
41
1
10
17.0000001634726
20
-2.96535790609323
30
0
0
SPLINE
5
13D
100
AcDbEntity
8
1
62
256
6
ByLayer
370
18
48
1
60
0
100
AcDbSpline
70
4
71
3
72
8
73
4
40
0
40
0
40
0
40
0
40
1
40
1
40
1
40
1
41
1
10
16.8856406460551
20
-2.90965717511159
30
0
41
1
10
16.9237540106587
20
-2.92822628713685
30
0
41
1
10
16.961873885619
20
-2.94678784959589
30
0
41
1
10
17.0000000000001
20
-2.96534216225973
30
0
0
SPLINE
5
13E
100
AcDbEntity
8
1
62
256
6
ByLayer
370
18
48
1
60
0
100
AcDbSpline
70
4
71
3
72
8
73
4
40
0
40
0
40
0
40
0
40
1
40
1
40
1
40
1
41
1
10
16.9986303665484
20
-2.89937170205124
30
0
41
1
10
16.9987289808342
20
-2.92105205948974
30
0
41
1
10
16.9991919727143
20
-2.94272644502797
30
0
41
1
10
17
20
-2.96438889336508
30
0
0
SPLINE
5
13F
100
AcDbEntity
8
1
62
256
6
ByLayer
370
18
48
1
60
0
100
AcDbSpline
70
4
71
3
72
8
73
4
40
0
40
0
40
0
40
0
40
1
40
1
40
1
40
1
41
1
10
16.9441787866601
20
-2.55825329899994
30
0
41
1
10
16.9556077009363
20
-2.67322252152761
30
0
41
1
10
16.974372655759
20
-2.78714886914412
30
0
41
1
10
16.9986303665484
20
-2.89937170205124
30
0
0
SPLINE
5
140
100
AcDbEntity
8
1
62
256
6
ByLayer
370
18
48
1
60
0
100
AcDbSpline
70
4
71
3
72
10
73
6
40
0
40
0
40
0
40
0
40
0.5
40
0.5
40
1
40
1
40
1
40
1
41
1
10
16.3856406460551
20
-2.78788621081344
30
0
41
1
10
16.4374630254254
20
-2.78889388675174
30
0
41
1
10
16.4885952740819
20
-2.79300675219849
30
0
41
1
10
16.5894780010948
20
-2.80787972494008
30
0
41
1
10
16.6392284897195
20
-2.81863783117612
30
0
41
1
10
16.6882401678635
20
-2.833179302357
30
0
0
SPLINE
5
141
100
AcDbEntity
8
1
62
256
6
ByLayer
370
18
48
1
60
0
100
AcDbSpline
70
4
71
3
72
11
73
7
40
0
40
0
40
0
40
0
40
0.249999999999978
40
0.249999999999978
40
0.499999999999956
40
1
40
1
40
1
40
1
41
1
10
16.6882401678635
20
-2.83317930235697
30
0
41
1
10
16.7054137170591
20
-2.8382745914831
30
0
41
1
10
16.7225311589455
20
-2.84373063509867
30
0
41
1
10
16.7562913804675
20
-2.85525188497596
30
0
41
1
10
16.8062937874801
20
-2.87346631031014
30
0
41
1
10
16.8544083033863
20
-2.89444054766548
30
0
41
1
10
16.885640646056
20
-2.90965717511037
30
0
0
SPLINE
5
142
100
AcDbEntity
8
1
62
256
6
ByLayer
370
18
48
1
60
0
100
AcDbSpline
70
4
71
3
72
12
73
8
40
0
40
0
40
0
40
0
40
0.250000000000021
40
0.250000000000021
40
0.500000000000043
40
0.500000000000043
40
1
40
1
40
1
40
1
41
1
10
16.5593511371618
20
-1.49320634370653
30
0
41
1
10
16.5454062577268
20
-1.48346453558091
30
0
41
1
10
16.5313146959898
20
-1.47388516036821
30
0
41
1
10
16.5028219328292
20
-1.45506929845456
30
0
41
1
10
16.48840611945
20
-1.44582433319081
30
0
41
1
10
16.444901031546
20
-1.41878007337954
30
0
41
1
10
16.4154934816212
20
-1.40162621397889
30
0
41
1
10
16.3856406460552
20
-1.38543710873191
30
0
0
SPLINE
5
143
100
AcDbEntity
8
1
62
256
6
ByLayer
370
18
48
1
60
0
100
AcDbSpline
70
4
71
1
72
4
73
2
40
0
40
0
40
1
40
1
41
1
10
31.9956123964463
20
-2.13245295484236
30
0
41
1
10
31.9956883928732
20
-2.13635308090142
30
0
0
SPLINE
5
144
100
AcDbEntity
8
1
62
256
6
ByLayer
370
18
48
1
60
0
100
AcDbSpline
70
4
71
3
72
8
73
4
40
0
40
0
40
0
40
0
40
1
40
1
40
1
40
1
41
1
10
31.4869697973294
20
-2.3142680529304
30
0
41
1
10
31.4871125642507
20
-2.31436339227261
30
0
41
1
10
31.4872553313687
20
-2.31445873013004
30
0
41
1
10
31.4873980986834
20
-2.31455406650269
30
0
0
SPLINE
5
145
100
AcDbEntity
8
1
62
256
6
ByLayer
370
18
48
1
60
0
100
AcDbSpline
70
4
71
3
72
11
73
7
40
0
40
0
40
0
40
0
40
0.255013108117842
40
0.575692611404768
40
0.896372114691695
40
1
40
1
40
1
40
1
41
1
10
17.5243582979296
20
4.98754435552104
30
0
41
1
10
17.5964021024555
20
4.99124840075427
30
0
41
1
10
17.7590646460841
20
4.99762486965187
30
0
41
1
10
18.0124053438589
20
5.00055651539367
30
0
41
1
10
18.2230091500554
20
4.99649947228886
30
0
41
1
10
18.3429719426446
20
4.99173155361504
30
0
41
1
10
18.3722709383065
20
4.99042076590902
30
0
0
SPLINE
5
146
100
AcDbEntity
8
1
62
256
6
ByLayer
370
18
48
1
60
0
100
AcDbSpline
70
4
71
3
72
29
73
25
40
0
40
0
40
0
40
0
40
0.0034294219523269
40
0.046707856230882
40
0.0899862905094371
40
0.133264724787992
40
0.176543159066547
40
0.198182376205825
40
0.219821593345102
40
0.263100027623657
40
0.306378461902213
40
0.349656896180768
40
0.392935330459323
40
0.436213764737878
40
0.522770633294988
40
0.566049067573543
40
0.609327501852098
40
0.695884370409208
40
0.739162804687764
40
0.782441238966319
40
0.868998107523429
40
0.912276541801984
40
0.955554976080539
40
1
40
1
40
1
40
1
41
1
10
18.7852998993257
20
4.96227756507867
30
0
41
1
10
18.7996708158248
20
4.9609629535581
30
0
41
1
10
18.9953995302548
20
4.94258264518817
30
0
41
1
10
19.372493806426
20
4.89470133134336
30
0
41
1
10
19.9164589202156
20
4.79272195761342
30
0
41
1
10
20.4601873281323
20
4.65866287294503
30
0
41
1
10
20.9130008924119
20
4.52093298665281
30
0
41
1
10
21.2750116191744
20
4.39580910648621
30
0
41
1
10
21.6368416309799
20
4.26095133268535
30
0
41
1
10
22.0887463661911
20
4.0745418864592
30
0
41
1
10
22.6302060172707
20
3.82409879793374
30
0
41
1
10
23.1706771860652
20
3.54868979647821
30
0
41
1
10
23.7099915786009
20
3.25045567999811
30
0
41
1
10
24.4276970633856
20
2.82498558464209
30
0
41
1
10
25.1445843664533
20
2.36152238785579
30
0
41
1
10
25.8629130528907
20
1.86762228120352
30
0
41
1
10
26.58294581468
20
1.35602070622613
30
0
41
1
10
27.3067171237101
20
0.822120502597073
30
0
41
1
10
28.0366489944998
20
0.274236012505838
30
0
41
1
10
28.7713736131791
20
-0.279894225356401
30
0
41
1
10
29.5143163095489
20
-0.838059478709312
30
0
41
1
10
30.2674918788049
20
-1.38995829406215
30
0
41
1
10
30.8431457975051
20
-1.80155162181177
30
0
41
1
10
31.2329638019367
20
-2.07096212198988
30
0
41
1
10
31.4316945934584
20
-2.20532038539659
30
0
0
SPLINE
5
147
100
AcDbEntity
8
1
62
256
6
ByLayer
370
18
48
1
60
0
100
AcDbSpline
70
4
71
3
72
61
73
57
40
0
40
0
40
0
40
0
40
0.0625000000000019
40
0.0625000000000019
40
0.0937500000000023
40
0.0937500000000023
40
0.109375000000003
40
0.109375000000003
40
0.125000000000003
40
0.187500000000005
40
0.187500000000005
40
0.218750000000006
40
0.218750000000006
40
0.234375000000006
40
0.234375000000006
40
0.250000000000006
40
0.250000000000006
40
0.312500000000006
40
0.312500000000006
40
0.343750000000005
40
0.343750000000005
40
0.359375000000006
40
0.359375000000006
40
0.375000000000006
40
0.437500000000007
40
0.437500000000007
40
0.468750000000007
40
0.468750000000007
40
0.484375000000007
40
0.484375000000007
40
0.500000000000006
40
0.500000000000006
40
0.562500000000006
40
0.562500000000006
40
0.593750000000005
40
0.593750000000005
40
0.609375000000004
40
0.609375000000004
40
0.625000000000003
40
0.625000000000003
40
0.687500000000001
40
0.687500000000001
40
0.718750000000001
40
0.718750000000001
40
0.75
40
0.75
40
0.8125
40
0.8125
40
0.843749999999999
40
0.843749999999999
40
0.859374999999998
40
0.859374999999998
40
0.874999999999997
40
0.874999999999997
40
0.937499999999999
40
1
40
1
40
1
40
1
41
1
10
17.0000000000002
20
4.95692173053536
30
0
41
1
10
17.3017370007443
20
4.98668041190996
30
0
41
1
10
17.602657420252
20
5.00101802999529
30
0
41
1
10
18.0543099307805
20
4.99939371847228
30
0
41
1
10
18.2049080994194
20
4.99498693743399
30
0
41
1
10
18.4310769221884
20
4.98254923090266
30
0
41
1
10
18.5065027251316
20
4.97743210225792
30
0
41
1
10
18.6571739124726
20
4.9652853597012
30
0
41
1
10
19.0335881741576
20
4.93012544248603
30
0
41
1
10
19.4091163202897
20
4.87118195666875
30
0
41
1
10
19.8604502842921
20
4.77813184496358
30
0
41
1
10
20.0110104522614
20
4.74339492885804
30
0
41
1
10
20.2372075864726
20
4.68574855679631
30
0
41
1
10
20.312689535723
20
4.66560200175704
30
0
41
1
10
20.4634677312912
20
4.62356100741121
30
0
41
1
10
20.5388023394431
20
4.60165677878493
30
0
41
1
10
20.9152730849525
20
4.48777508090555
30
0
41
1
10
21.2157819732527
20
4.38273418652699
30
0
41
1
10
21.6670214400872
20
4.20517490319904
30
0
41
1
10
21.8175162102253
20
4.14265543143094
30
0
41
1
10
22.0435780349735
20
4.04399356036834
30
0
41
1
10
22.119025042215
20
4.01027335626932
30
0
41
1
10
22.2697619186633
20
3.94136025134122
30
0
41
1
10
22.646311674841
20
3.76535613533201
30
0
41
1
10
23.0218365621984
20
3.57117156699397
30
0
41
1
10
23.473060651723
20
3.32220829788679
30
0
41
1
10
23.6235663078727
20
3.23656100490021
30
0
41
1
10
23.8496594492838
20
3.10426030869561
30
0
41
1
10
23.9251219360992
20
3.05949631586364
30
0
41
1
10
24.0759507901048
20
2.96886385950387
30
0
41
1
10
24.1513076496543
20
2.92300198021195
30
0
41
1
10
24.5278792751987
20
2.69105883893079
30
0
41
1
10
24.8284606318717
20
2.49709369281081
30
0
41
1
10
25.2796729307235
20
2.1950882861085
30
0
41
1
10
25.4301357968961
20
2.09257536208312
30
0
41
1
10
25.6561161708219
20
1.93625728072257
30
0
41
1
10
25.7315235122219
20
1.88370369963997
30
0
41
1
10
25.8823145799692
20
1.77789353602867
30
0
41
1
10
25.9576464044182
20
1.72467374037242
30
0
41
1
10
26.3340742698846
20
1.45711717494987
30
0
41
1
10
26.6344860270995
20
1.23842549719024
30
0
41
1
10
27.0856191948742
20
0.905514293172729
30
0
41
1
10
27.2360811383119
20
0.793728404165847
30
0
41
1
10
27.5374291957621
20
0.56884886469274
30
0
41
1
10
27.6884327132151
20
0.455667221041381
30
0
41
1
10
28.140478296552
20
0.116101825865826
30
0
41
1
10
28.4411026949626
20
-0.110732479610846
30
0
41
1
10
28.8922986071181
20
-0.449853409106424
30
0
41
1
10
29.0427437229407
20
-0.562700747635034
30
0
41
1
10
29.2686745347628
20
-0.731423918620919
30
0
41
1
10
29.344028790545
20
-0.787573490442384
30
0
41
1
10
29.4948590237329
20
-0.899644507898387
30
0
41
1
10
29.5702286942091
20
-0.955486790318446
30
0
41
1
10
29.9465847101353
20
-1.23336610546755
30
0
41
1
10
30.5463295008221
20
-1.66996528408779
30
0
41
1
10
31.1454470012686
20
-2.08550617066547
30
0
41
1
10
31.4458386995556
20
-2.28675628043646
30
0
0
SPLINE
5
148
100
AcDbEntity
8
1
62
256
6
ByLayer
370
18
48
1
60
0
100
AcDbSpline
70
4
71
3
72
12
73
8
40
0
40
0
40
0
40
0
40
0.249999999999998
40
0.249999999999998
40
0.499999999999996
40
0.499999999999996
40
1
40
1
40
1
40
1
41
1
10
16.5593511371643
20
-1.49320634370554
30
0
41
1
10
16.5886147360785
20
-1.56834982216063
30
0
41
1
10
16.6169845827567
20
-1.64359982857388
30
0
41
1
10
16.6729076070377
20
-1.79398331722553
30
0
41
1
10
16.700417287621
20
-1.86913193462627
30
0
41
1
10
16.7818265833641
20
-2.09438198419636
30
0
41
1
10
16.8346150233377
20
-2.24428262006822
30
0
41
1
10
16.8856406460551
20
-2.394075120053
30
0
0
SPLINE
5
149
100
AcDbEntity
8
1
62
256
6
ByLayer
370
18
48
1
60
0
100
AcDbSpline
70
4
71
3
72
8
73
4
40
0
40
0
40
0
40
0
40
1
40
1
40
1
40
1
41
1
10
16.8856406460551
20
-2.39407512005272
30
0
41
1
10
16.9044192951195
20
-2.4492023412387
30
0
41
1
10
16.9239589854481
20
-2.5039217443213
30
0
41
1
10
16.94417878666
20
-2.55825329899994
30
0
0
SPLINE
5
14A
100
AcDbEntity
8
1
62
256
6
ByLayer
370
18
48
1
60
0
100
AcDbSpline
70
4
71
3
72
24
73
20
40
0
40
0
40
0
40
0
40
0.0279742350938445
40
0.0826018788493357
40
0.137229522604827
40
0.191857166360318
40
0.301112453871301
40
0.328426275749046
40
0.355740097626792
40
0.410367741382283
40
0.519623028893265
40
0.574250672648757
40
0.628878316404248
40
0.683505960159739
40
0.73813360391523
40
0.792761247670721
40
0.847388891426213
40
0.956644178937195
40
1
40
1
40
1
40
1
41
1
10
16.9441787866601
20
-2.55825329899994
30
0
41
1
10
17.0368083940687
20
-2.60949182781133
30
0
41
1
10
17.3103148503969
20
-2.7591503735745
30
0
41
1
10
17.7646814951875
20
-2.99924936272439
30
0
41
1
10
18.3073125133182
20
-3.27109115268152
30
0
41
1
10
19.0309306525717
20
-3.61183621559905
30
0
41
1
10
19.6642656207385
20
-3.87931628600418
30
0
41
1
10
20.2073352285675
20
-4.08405403665682
30
0
41
1
10
20.5694466648108
20
-4.21388240947078
30
0
41
1
10
21.2033032963734
20
-4.42262034965975
30
0
41
1
10
21.9279810693456
20
-4.61767442273256
30
0
41
1
10
22.6528351236794
20
-4.76675709677025
30
0
41
1
10
23.1965436758806
20
-4.85457531081144
30
0
41
1
10
23.7402737085432
20
-4.91821010166052
30
0
41
1
10
24.2839901509477
20
-4.9573498415773
30
0
41
1
10
24.8276106930756
20
-4.97195447935209
30
0
41
1
10
25.5524408014017
20
-4.95812674398599
30
0
41
1
10
26.2404495534753
20
-4.8980889653073
30
0
41
1
10
26.7482468210175
20
-4.8221205985808
30
0
41
1
10
26.8926216300849
20
-4.79797329978584
30
0
0
SPLINE
5
14B
100
AcDbEntity
8
1
62
256
6
ByLayer
370
18
48
1
60
0
100
AcDbSpline
70
4
71
2
72
6
73
3
40
0
40
0
40
0
40
1
40
1
40
1
41
1
10
17.0000000000001
20
-3.87449914194548
30
0
41
1
10
17.6475129785693
20
-3.74657497293677
30
0
41
1
10
18.3024757882425
20
-3.5948902360266
30
0
0
SPLINE
5
14C
100
AcDbEntity
8
1
62
256
6
ByLayer
370
18
48
1
60
0
100
AcDbSpline
70
4
71
1
72
4
73
2
40
0
40
0
40
1
40
1
41
1
10
29.0679420849125
20
2.63220547615637
30
0
41
1
10
28.6392701066269
20
2.79160812463451
30
0
0
SPLINE
5
14D
100
AcDbEntity
8
1
62
256
6
ByLayer
370
18
48
1
60
0
100
AcDbSpline
70
4
71
3
72
14
73
10
40
0
40
0
40
0
40
0
40
0.0928058678731798
40
0.184330006931344
40
0.279332265107264
40
0.397127026718473
40
0.604148663029091
40
0.868451034488037
40
1
40
1
40
1
40
1
41
1
10
27.184284848572
20
-4.39547552618228
30
0
41
1
10
27.3023320043742
20
-4.39198464101804
30
0
41
1
10
27.5354108521801
20
-4.38412205270583
30
0
41
1
10
27.8953240792511
20
-4.36480863622333
30
0
41
1
10
28.2586897238012
20
-4.35090325974195
30
0
41
1
10
28.7579231359342
20
-4.32320192401582
30
0
41
1
10
29.4736254710852
20
-4.26447864196635
30
0
41
1
10
30.2093918115322
20
-4.18656235256739
30
0
41
1
10
30.695315762432
20
-4.11575868396181
30
0
41
1
10
30.8570656997803
20
-4.0904939217983
30
0
0
SPLINE
5
14E
100
AcDbEntity
8
1
62
256
6
ByLayer
370
18
48
1
60
0
100
AcDbSpline
70
4
71
3
72
18
73
14
40
0
40
0
40
0
40
0
40
0.120852416437169
40
0.209468522473948
40
0.302422850408556
40
0.390005664921569
40
0.488916099945545
40
0.577390543071309
40
0.655721470740793
40
0.726623230269483
40
0.801958506369301
40
0.917643415302542
40
1
40
1
40
1
40
1
41
1
10
27.2003084212382
20
3.27077459634074
30
0
41
1
10
27.0354358201493
20
3.31744771380068
30
0
41
1
10
26.7495535200944
20
3.39656992563951
30
0
41
1
10
26.3368462029737
20
3.50650778431091
30
0
41
1
10
25.9687205746384
20
3.60066258615873
30
0
41
1
10
25.586767941134
20
3.69408068703007
30
0
41
1
10
25.2112766750518
20
3.78129809232226
30
0
41
1
10
24.848247917322
20
3.8608225602832
30
0
41
1
10
24.5234399023792
20
3.92791679224183
30
0
41
1
10
24.2166279871921
20
3.98768159443207
30
0
41
1
10
23.8587850459874
20
4.05320482284932
30
0
41
1
10
23.4852767555026
20
4.11579401744234
30
0
41
1
10
23.2146849988989
20
4.15662071584799
30
0
41
1
10
23.1021607666582
20
4.17279045057026
30
0
0
SPLINE
5
14F
100
AcDbEntity
8
1
62
256
6
ByLayer
370
18
48
1
60
0
100
AcDbSpline
70
4
71
2
72
6
73
3
40
0
40
0
40
0
40
1
40
1
40
1
41
1
10
31.8898772523993
20
-3.11105205951745
30
0
41
1
10
31.9349422880827
20
-2.90609697965883
30
0
41
1
10
31.9800073237661
20
-2.70114189980021
30
0
0
LINE
5
79
100
AcDbEntity
8
80
62
256
6
ByLayer
370
18
48
1
60
0
100
AcDbLine
10
0
20
0
30
0
11
-5
21
0
31
0
39
0
210
0
220
0
230
1
0
LINE
5
7A
100
AcDbEntity
8
4
62
256
6
ByLayer
370
18
48
0.05
60
0
100
AcDbLine
10
0
20
0
30
0
11
32
21
0
31
0
39
0
210
0
220
0
230
1
0
LINE
5
7C
100
AcDbEntity
8
81
62
256
6
ByLayer
370
18
48
1
60
0
100
AcDbLine
10
32
20
0
30
0
11
37
21
0
31
0
39
0
210
0
220
0
230
1
0
LINE
5
7D
100
AcDbEntity
8
SK4
62
256
6
ByLayer
370
18
48
0.05
60
0
100
AcDbLine
10
-40
20
0
30
0
11
32
21
0
31
0
39
0
210
0
220
0
230
1
0
LINE
5
7F
100
AcDbEntity
8
1
62
256
6
ByLayer
370
18
48
1
60
0
100
AcDbLine
10
0
20
5
30
0
11
0
21
0
31
0
39
0
210
0
220
0
230
1
0
LINE
5
80
100
AcDbEntity
8
1
62
256
6
ByLayer
370
18
48
1
60
0
100
AcDbLine
10
0
20
0
30
0
11
0
21
-5
31
0
39
0
210
0
220
0
230
1
0
LINE
5
81
100
AcDbEntity
8
1
62
256
6
ByLayer
370
18
48
1
60
0
100
AcDbLine
10
31.991707
20
-2.358204
30
0
11
31.995612
21
-2.622434
31
0
39
0
210
0
220
0
230
1
0
LINE
5
82
100
AcDbEntity
8
1
62
256
6
ByLayer
370
18
48
1
60
0
100
AcDbLine
10
31.889528
20
-3.044317
30
0
11
31.887264
21
-2.88834
31
0
39
0
210
0
220
0
230
1
0
LINE
5
83
100
AcDbEntity
8
1
62
256
6
ByLayer
370
18
48
1
60
0
100
AcDbLine
10
31.968804
20
-2.205358
30
0
11
31.991707
21
-2.358204
31
0
39
0
210
0
220
0
230
1
0
LINE
5
84
100
AcDbEntity
8
1
62
256
6
ByLayer
370
18
48
1
60
0
100
AcDbLine
10
31.887264
20
-2.88834
30
0
11
31.991707
21
-2.358204
31
0
39
0
210
0
220
0
230
1
0
LINE
5
85
100
AcDbEntity
8
1
62
256
6
ByLayer
370
18
48
1
60
0
100
AcDbLine
10
31.394201
20
-3.747807
30
0
11
31.887264
21
-2.88834
31
0
39
0
210
0
220
0
230
1
0
LINE
5
86
100
AcDbEntity
8
1
62
256
6
ByLayer
370
18
48
1
60
0
100
AcDbLine
10
31.887264
20
-2.88834
30
0
11
31.800676
21
-2.293268
31
0
39
0
210
0
220
0
230
1
0
LINE
5
87
100
AcDbEntity
8
1
62
256
6
ByLayer
370
18
48
1
60
0
100
AcDbLine
10
31.621199
20
-0.103911
30
0
11
31.991707
21
4.048029
31
0
39
0
210
0
220
0
230
1
0
LINE
5
88
100
AcDbEntity
8
1
62
256
6
ByLayer
370
18
48
1
60
0
100
AcDbLine
10
31.529772
20
-0.087471
30
0
11
31.621199
21
-0.103911
31
0
39
0
210
0
220
0
230
1
0
LINE
5
89
100
AcDbEntity
8
1
62
256
6
ByLayer
370
18
48
1
60
0
100
AcDbLine
10
31.991707
20
4.048029
30
0
11
31.995612
21
4.486426
31
0
39
0
210
0
220
0
230
1
0
LINE
5
8A
100
AcDbEntity
8
1
62
256
6
ByLayer
370
18
48
1
60
0
100
AcDbLine
10
17
20
-3.874619
30
0
11
17
21
-3.724363
31
0
39
0
210
0
220
0
230
1
0
LINE
5
8B
100
AcDbEntity
8
1
62
256
6
ByLayer
370
18
48
1
60
0
100
AcDbLine
10
30.817653
20
-4.098513
30
0
11
31.364142
21
-2.402088
31
0
39
0
210
0
220
0
230
1
0
LINE
5
8C
100
AcDbEntity
8
1
62
256
6
ByLayer
370
18
48
1
60
0
100
AcDbLine
10
31.364142
20
-2.402088
30
0
11
31.43949
21
-2.282349
31
0
39
0
210
0
220
0
230
1
0
LINE
5
8D
100
AcDbEntity
8
1
62
256
6
ByLayer
370
18
48
1
60
0
100
AcDbLine
10
29.03417
20
-2.650633
30
0
11
31.364142
21
-2.402088
31
0
39
0
210
0
220
0
230
1
0
LINE
5
8E
100
AcDbEntity
8
1
62
256
6
ByLayer
370
13
48
1
60
0
100
AcDbLine
10
16.653963
20
4.797366
30
0
11
17
21
4.607249
31
0
39
0
210
0
220
0
230
1
0
LINE
5
8F
100
AcDbEntity
8
1
62
256
6
ByLayer
370
13
48
1
60
0
100
AcDbLine
10
12.427701
20
4.509719
30
0
11
17
21
1.997648
31
0
39
0
210
0
220
0
230
1
0
LINE
5
90
100
AcDbEntity
8
1
62
256
6
ByLayer
370
13
48
1
60
0
100
AcDbLine
10
29.484913
20
-0.973518
30
0
11
28.449024
21
-1.440865
31
0
39
0
210
0
220
0
230
1
0
LINE
5
91
100
AcDbEntity
8
1
62
256
6
ByLayer
370
18
48
1
60
0
100
AcDbLine
10
14.356191
20
-4.752106
30
0
11
17
21
-3.724363
31
0
39
0
210
0
220
0
230
1
0
LINE
5
92
100
AcDbEntity
8
1
62
256
6
ByLayer
370
18
48
1
60
0
100
AcDbLine
10
17
20
-3.724363
30
0
11
17
21
-2.981353
31
0
39
0
210
0
220
0
230
1
0
LINE
5
93
100
AcDbEntity
8
1
62
256
6
ByLayer
370
18
48
1
60
0
100
AcDbLine
10
17
20
1.910446
30
0
11
17
21
1.997648
31
0
39
0
210
0
220
0
230
1
0
LINE
5
94
100
AcDbEntity
8
1
62
256
6
ByLayer
370
13
48
1
60
0
100
AcDbLine
10
12.727852
20
-4.206952
30
0
11
16.377201
21
-2.78832
31
0
39
0
210
0
220
0
230
1
0
LINE
5
95
100
AcDbEntity
8
1
62
256
6
ByLayer
370
13
48
1
60
0
100
AcDbLine
10
12.539987
20
4.360825
30
0
11
17
21
1.910446
31
0
39
0
210
0
220
0
230
1
0
LINE
5
96
100
AcDbEntity
8
1
62
256
6
ByLayer
370
13
48
1
60
0
100
AcDbLine
10
12.506906
20
-3.795901
30
0
11
14.784062
21
-2.910689
31
0
39
0
210
0
220
0
230
1
0
LINE
5
97
100
AcDbEntity
8
1
62
256
6
ByLayer
370
18
48
1
60
0
100
AcDbLine
10
31.991707
20
-1.932054
30
0
11
31.995612
21
-2.132453
31
0
39
0
210
0
220
0
230
1
0
LINE
5
98
100
AcDbEntity
8
1
62
256
6
ByLayer
370
18
48
1
60
0
100
AcDbLine
10
31.887264
20
-1.346765
30
0
11
31.991707
21
-1.932054
31
0
39
0
210
0
220
0
230
1
0
LINE
5
99
100
AcDbEntity
8
1
62
256
6
ByLayer
370
18
48
1
60
0
100
AcDbLine
10
31.887264
20
-1.346765
30
0
11
31.7177
21
-0.465669
31
0
39
0
210
0
220
0
230
1
0
LINE
5
9A
100
AcDbEntity
8
1
62
256
6
ByLayer
370
18
48
1
60
0
100
AcDbLine
10
31.38486
20
0.204184
30
0
11
31.7177
21
-0.465669
31
0
39
0
210
0
220
0
230
1
0
LINE
5
9B
100
AcDbEntity
8
1
62
256
6
ByLayer
370
18
48
1
60
0
100
AcDbLine
10
30.661424
20
1.322409
30
0
11
31.38486
21
0.204184
31
0
39
0
210
0
220
0
230
1
0
LINE
5
9C
100
AcDbEntity
8
1
62
256
6
ByLayer
370
18
48
1
60
0
100
AcDbLine
10
31.889528
20
-1.4647
30
0
11
31.887264
21
-1.346765
31
0
39
0
210
0
220
0
230
1
0
LINE
5
9D
100
AcDbEntity
8
1
62
256
6
ByLayer
370
18
48
1
60
0
100
AcDbLine
10
31.391558
20
-0.410386
30
0
11
31.887264
21
-1.346765
31
0
39
0
210
0
220
0
230
1
0
LINE
5
9E
100
AcDbEntity
8
1
62
256
6
ByLayer
370
18
48
1
60
0
100
AcDbLine
10
17
20
1.997648
30
0
11
17
21
4.607249
31
0
39
0
210
0
220
0
230
1
0
LINE
5
9F
100
AcDbEntity
8
1
62
256
6
ByLayer
370
18
48
1
60
0
100
AcDbLine
10
17
20
-1.429621
30
0
11
17
21
-1.215053
31
0
39
0
210
0
220
0
230
1
0
LINE
5
A0
100
AcDbEntity
8
1
62
256
6
ByLayer
370
13
48
1
60
0
100
AcDbLine
10
13.739392
20
0.361792
30
0
11
17
21
-1.429621
31
0
39
0
210
0
220
0
230
1
0
LINE
5
A1
100
AcDbEntity
8
1
62
256
6
ByLayer
370
13
48
1
60
0
100
AcDbLine
10
13.635443
20
0.633471
30
0
11
17
21
-1.215053
31
0
39
0
210
0
220
0
230
1
0
LINE
5
A2
100
AcDbEntity
8
1
62
256
6
ByLayer
370
18
48
1
60
0
100
AcDbLine
10
13.986709
20
2.794221
30
0
11
17
21
1.138687
31
0
39
0
210
0
220
0
230
1
0
LINE
5
A3
100
AcDbEntity
8
1
62
256
6
ByLayer
370
18
48
1
60
0
100
AcDbLine
10
17
20
4.956923
30
0
11
17
21
4.607249
31
0
39
0
210
0
220
0
230
1
0
LINE
5
A4
100
AcDbEntity
8
1
62
256
6
ByLayer
370
18
48
1
60
0
100
AcDbLine
10
17
20
-1.429621
30
0
11
17
21
-1.718254
31
0
39
0
210
0
220
0
230
1
0
LINE
5
A5
100
AcDbEntity
8
1
62
256
6
ByLayer
370
13
48
1
60
0
100
AcDbLine
10
16.385641
20
-2.787886
30
0
11
16.385641
21
-1.385437
31
0
39
0
210
0
220
0
230
1
0
LINE
5
A6
100
AcDbEntity
8
1
62
256
6
ByLayer
370
13
48
1
60
0
100
AcDbLine
10
16.885641
20
-2.394075
30
0
11
16.885641
21
-2.909657
31
0
39
0
210
0
220
0
230
1
0
LINE
5
A7
100
AcDbEntity
8
1
62
256
6
ByLayer
370
13
48
1
60
0
100
AcDbLine
10
1.997679
20
-4.8
30
0
11
1.997679
21
0
31
0
39
0
210
0
220
0
230
1
0
LINE
5
A8
100
AcDbEntity
8
1
62
256
6
ByLayer
370
13
48
1
60
0
100
AcDbLine
10
1.997679
20
0
30
0
11
1.997679
21
4.8
31
0
39
0
210
0
220
0
230
1
0
LINE
5
A9
100
AcDbEntity
8
1
62
256
6
ByLayer
370
13
48
1
60
0
100
AcDbLine
10
1.497679
20
4.933975
30
0
11
1.497679
21
0
31
0
39
0
210
0
220
0
230
1
0
LINE
5
AA
100
AcDbEntity
8
1
62
256
6
ByLayer
370
13
48
1
60
0
100
AcDbLine
10
1.497679
20
0
30
0
11
1.497679
21
-4.933975
31
0
39
0
210
0
220
0
230
1
0
LINE
5
AB
100
AcDbEntity
8
1
62
256
6
ByLayer
370
18
48
1
60
0
100
AcDbLine
10
1.38332
20
5
30
0
11
1.38332
21
0
31
0
39
0
210
0
220
0
230
1
0
LINE
5
AC
100
AcDbEntity
8
1
62
256
6
ByLayer
370
18
48
1
60
0
100
AcDbLine
10
1.38332
20
0
30
0
11
1.38332
21
-5
31
0
39
0
210
0
220
0
230
1
0
LINE
5
AD
100
AcDbEntity
8
SK1
62
256
6
ByLayer
370
18
48
1
60
0
100
AcDbLine
10
0
20
5
30
0
11
0
21
0
31
0
39
0
210
0
220
0
230
1
0
LINE
5
AF
100
AcDbEntity
8
SK1
62
256
6
ByLayer
370
18
48
1
60
0
100
AcDbLine
10
0
20
0
30
0
11
0
21
-5
31
0
39
0
210
0
220
0
230
1
0
LINE
5
B0
100
AcDbEntity
8
SK1
62
256
6
ByLayer
370
18
48
1
60
0
100
AcDbLine
10
-23.5
20
3.5
30
0
11
-25
21
5
31
0
39
0
210
0
220
0
230
1
0
LINE
5
B1
100
AcDbEntity
8
SK1
62
256
6
ByLayer
370
18
48
1
60
0
100
AcDbLine
10
-16.5
20
3.5
30
0
11
-15
21
5
31
0
39
0
210
0
220
0
230
1
0
LINE
5
B2
100
AcDbEntity
8
SK1
62
256
6
ByLayer
370
18
48
1
60
0
100
AcDbLine
10
-23.5
20
3.5
30
0
11
-16.5
21
3.5
31
0
39
0
210
0
220
0
230
1
0
LINE
5
B3
100
AcDbEntity
8
SK1
62
256
6
ByLayer
370
18
48
1
60
0
100
AcDbLine
10
-39.4
20
5
30
0
11
-39.4
21
-5
31
0
39
0
210
0
220
0
230
1
0
LINE
5
B4
100
AcDbEntity
8
SK1
62
256
6
ByLayer
370
18
48
1
60
0
100
AcDbLine
10
-40
20
-4.4
30
0
11
-40
21
4.4
31
0
39
0
210
0
220
0
230
1
0
LINE
5
B5
100
AcDbEntity
8
1
62
256
6
ByLayer
370
18
48
1
60
0
100
AcDbLine
10
1.38332
20
5
30
0
11
0
21
5
31
0
39
0
210
0
220
0
230
1
0
LINE
5
B6
100
AcDbEntity
8
1
62
256
6
ByLayer
370
18
48
1
60
0
100
AcDbLine
10
0
20
-5
30
0
11
1.38332
21
-5
31
0
39
0
210
0
220
0
230
1
0
LINE
5
B7
100
AcDbEntity
8
1
62
256
6
ByLayer
370
18
48
1
60
0
100
AcDbLine
10
14.625362
20
-4.797725
30
0
11
17.003669
21
-3.873193
31
0
39
0
210
0
220
0
230
1
0
LINE
5
B8
100
AcDbEntity
8
1
62
256
6
ByLayer
370
18
48
1
60
0
100
AcDbLine
10
31.865772
20
-3.220683
30
0
11
31.86788
21
-3.211096
31
0
39
0
210
0
220
0
230
1
0
LINE
5
B9
100
AcDbEntity
8
1
62
256
6
ByLayer
370
18
48
1
60
0
100
AcDbLine
10
14.350254
20
4.8
30
0
11
1.997679
21
4.8
31
0
39
0
210
0
220
0
230
1
0
LINE
5
BA
100
AcDbEntity
8
1
62
256
6
ByLayer
370
18
48
1
60
0
100
AcDbLine
10
1.997679
20
-4.8
30
0
11
14.583794
21
-4.8
31
0
39
0
210
0
220
0
230
1
0
LINE
5
BB
100
AcDbEntity
8
1
62
256
6
ByLayer
370
18
48
1
60
0
100
AcDbLine
10
1.497679
20
4.933975
30
0
11
1.38332
21
5
31
0
39
0
210
0
220
0
230
1
0
LINE
5
BC
100
AcDbEntity
8
1
62
256
6
ByLayer
370
18
48
1
60
0
100
AcDbLine
10
1.38332
20
-5
30
0
11
1.497679
21
-4.933975
31
0
39
0
210
0
220
0
230
1
0
LINE
5
BD
100
AcDbEntity
8
SK1
62
256
6
ByLayer
370
18
48
1
60
0
100
AcDbLine
10
0
20
5
30
0
11
-15
21
5
31
0
39
0
210
0
220
0
230
1
0
LINE
5
BE
100
AcDbEntity
8
SK1
62
256
6
ByLayer
370
18
48
1
60
0
100
AcDbLine
10
-25
20
5
30
0
11
-39.4
21
5
31
0
39
0
210
0
220
0
230
1
0
LINE
5
BF
100
AcDbEntity
8
SK1
62
256
6
ByLayer
370
18
48
1
60
0
100
AcDbLine
10
-39.4
20
-5
30
0
11
0
21
-5
31
0
39
0
210
0
220
0
230
1
0
LINE
5
C0
100
AcDbEntity
8
SK1
62
256
6
ByLayer
370
18
48
1
60
0
100
AcDbLine
10
-40
20
-4.4
30
0
11
-39.4
21
-5
31
0
39
0
210
0
220
0
230
1
0
LINE
5
C1
100
AcDbEntity
8
SK1
62
256
6
ByLayer
370
18
48
1
60
0
100
AcDbLine
10
-39.4
20
5
30
0
11
-40
21
4.4
31
0
39
0
210
0
220
0
230
1
0
LINE
5
C2
100
AcDbEntity
8
SK2
62
256
6
ByLayer
370
18
48
1
60
0
100
AcDbLine
10
-47.65
20
5
30
0
11
-47.65
21
-23.056066
31
0
39
0
210
0
220
0
230
1
0
LINE
5
C4
100
AcDbEntity
8
SK2
62
256
6
ByLayer
370
18
48
1
60
0
100
AcDbLine
10
-40.9875
20
5
30
0
11
-49.65
21
5
31
0
39
0
210
0
220
0
230
1
0
LINE
5
C5
100
AcDbEntity
8
SK2
62
256
6
ByLayer
370
18
48
1
60
0
100
AcDbLine
10
-40.9875
20
-5
30
0
11
-49.65
21
-5
31
0
39
0
210
0
220
0
230
1
0
LINE
5
C6
100
AcDbEntity
8
1
62
256
6
ByLayer
370
18
48
1
60
1
100
AcDbLine
10
-47.65
20
5
30
0
11
-47.189216
21
1.500002
31
0
39
0
210
0
220
0
230
1
0
LINE
5
C7
100
AcDbEntity
8
1
62
256
6
ByLayer
370
18
48
1
60
1
100
AcDbLine
10
-47.189216
20
1.500002
30
0
11
-48.110784
21
1.499998
31
0
39
0
210
0
220
0
230
1
0
LINE
5
C8
100
AcDbEntity
8
1
62
256
6
ByLayer
370
18
48
1
60
1
100
AcDbLine
10
-48.110784
20
1.499998
30
0
11
-47.65
21
5
31
0
39
0
210
0
220
0
230
1
0
LINE
5
C9
100
AcDbEntity
8
1
62
256
6
ByLayer
370
18
48
1
60
1
100
AcDbLine
10
-47.65
20
-5
30
0
11
-48.110784
21
-1.500002
31
0
39
0
210
0
220
0
230
1
0
LINE
5
CA
100
AcDbEntity
8
1
62
256
6
ByLayer
370
18
48
1
60
1
100
AcDbLine
10
-48.110784
20
-1.500002
30
0
11
-47.189216
21
-1.499998
31
0
39
0
210
0
220
0
230
1
0
LINE
5
CB
100
AcDbEntity
8
1
62
256
6
ByLayer
370
18
48
1
60
1
100
AcDbLine
10
-47.189216
20
-1.499998
30
0
11
-47.65
21
-5
31
0
39
0
210
0
220
0
230
1
0
LINE
5
CC
100
AcDbEntity
8
SK2
62
256
6
ByLayer
370
13
48
1
60
0
100
AcDbLine
10
10.64166
20
-4.8
30
0
11
10.64166
21
29.148932
31
0
39
0
210
0
220
0
230
1
0
LINE
5
CD
100
AcDbEntity
8
SK2
62
256
6
ByLayer
370
13
48
1
60
0
100
AcDbLine
10
14.798141
20
4.8
30
0
11
8.64166
21
4.8
31
0
39
0
210
0
220
0
230
1
0
LINE
5
CE
100
AcDbEntity
8
SK2
62
256
6
ByLayer
370
13
48
1
60
0
100
AcDbLine
10
14.798141
20
-4.8
30
0
11
8.64166
21
-4.8
31
0
39
0
210
0
220
0
230
1
0
LINE
5
CF
100
AcDbEntity
8
1
62
256
6
ByLayer
370
18
48
1
60
1
100
AcDbLine
10
10.64166
20
4.8
30
0
11
11.102444
21
1.300002
31
0
39
0
210
0
220
0
230
1
0
LINE
5
D0
100
AcDbEntity
8
1
62
256
6
ByLayer
370
18
48
1
60
1
100
AcDbLine
10
11.102444
20
1.300002
30
0
11
10.180876
21
1.299998
31
0
39
0
210
0
220
0
230
1
0
LINE
5
D1
100
AcDbEntity
8
1
62
256
6
ByLayer
370
18
48
1
60
1
100
AcDbLine
10
10.180876
20
1.299998
30
0
11
10.64166
21
4.8
31
0
39
0
210
0
220
0
230
1
0
LINE
5
D2
100
AcDbEntity
8
1
62
256
6
ByLayer
370
18
48
1
60
1
100
AcDbLine
10
10.64166
20
-4.8
30
0
11
10.180876
21
-1.300002
31
0
39
0
210
0
220
0
230
1
0
LINE
5
D3
100
AcDbEntity
8
1
62
256
6
ByLayer
370
18
48
1
60
1
100
AcDbLine
10
10.180876
20
-1.300002
30
0
11
11.102444
21
-1.299998
31
0
39
0
210
0
220
0
230
1
0
LINE
5
D4
100
AcDbEntity
8
1
62
256
6
ByLayer
370
18
48
1
60
1
100
AcDbLine
10
11.102444
20
-1.299998
30
0
11
10.64166
21
-4.8
31
0
39
0
210
0
220
0
230
1
0
LINE
5
D5
100
AcDbEntity
8
2
62
256
6
ByLayer
370
18
48
1
60
0
100
AcDbLine
10
44
20
-5
30
0
11
44
21
23.056066
31
0
39
0
210
0
220
0
230
1
0
LINE
5
D7
100
AcDbEntity
8
2
62
256
6
ByLayer
370
18
48
1
60
0
100
AcDbLine
10
33.5875
20
5
30
0
11
46
21
5
31
0
39
0
210
0
220
0
230
1
0
LINE
5
D8
100
AcDbEntity
8
2
62
256
6
ByLayer
370
18
48
1
60
0
100
AcDbLine
10
33.5875
20
-5
30
0
11
46
21
-5
31
0
39
0
210
0
220
0
230
1
0
LINE
5
D9
100
AcDbEntity
8
1
62
256
6
ByLayer
370
18
48
1
60
1
100
AcDbLine
10
44
20
5
30
0
11
44.460784
21
1.500002
31
0
39
0
210
0
220
0
230
1
0
LINE
5
DA
100
AcDbEntity
8
1
62
256
6
ByLayer
370
18
48
1
60
1
100
AcDbLine
10
44.460784
20
1.500002
30
0
11
43.539216
21
1.499998
31
0
39
0
210
0
220
0
230
1
0
LINE
5
DB
100
AcDbEntity
8
1
62
256
6
ByLayer
370
18
48
1
60
1
100
AcDbLine
10
43.539216
20
1.499998
30
0
11
44
21
5
31
0
39
0
210
0
220
0
230
1
0
LINE
5
DC
100
AcDbEntity
8
1
62
256
6
ByLayer
370
18
48
1
60
1
100
AcDbLine
10
44
20
-5
30
0
11
43.539216
21
-1.500002
31
0
39
0
210
0
220
0
230
1
0
LINE
5
DD
100
AcDbEntity
8
1
62
256
6
ByLayer
370
18
48
1
60
1
100
AcDbLine
10
43.539216
20
-1.500002
30
0
11
44.460784
21
-1.499998
31
0
39
0
210
0
220
0
230
1
0
LINE
5
DE
100
AcDbEntity
8
1
62
256
6
ByLayer
370
18
48
1
60
1
100
AcDbLine
10
44.460784
20
-1.499998
30
0
11
44
21
-5
31
0
39
0
210
0
220
0
230
1
0
LINE
5
DF
100
AcDbEntity
8
SK2
62
256
6
ByLayer
370
18
48
1
60
0
100
AcDbLine
10
32
20
-51.87335
30
0
11
-40
21
-51.87335
31
0
39
0
210
0
220
0
230
1
0
LINE
5
E0
100
AcDbEntity
8
SK2
62
256
6
ByLayer
370
18
48
1
60
0
100
AcDbLine
10
-40
20
-5.9875
30
0
11
-40
21
-53.87335
31
0
39
0
210
0
220
0
230
1
0
LINE
5
E1
100
AcDbEntity
8
SK2
62
256
6
ByLayer
370
18
48
1
60
0
100
AcDbLine
10
32
20
-6.5875
30
0
11
32
21
-53.87335
31
0
39
0
210
0
220
0
230
1
0
LINE
5
E2
100
AcDbEntity
8
1
62
256
6
ByLayer
370
18
48
1
60
1
100
AcDbLine
10
-40
20
-51.87335
30
0
11
-36.500002
21
-51.412566
31
0
39
0
210
0
220
0
230
1
0
LINE
5
E3
100
AcDbEntity
8
1
62
256
6
ByLayer
370
18
48
1
60
1
100
AcDbLine
10
-36.500002
20
-51.412566
30
0
11
-36.499998
21
-52.334134
31
0
39
0
210
0
220
0
230
1
0
LINE
5
E4
100
AcDbEntity
8
1
62
256
6
ByLayer
370
18
48
1
60
1
100
AcDbLine
10
-36.499998
20
-52.334134
30
0
11
-40
21
-51.87335
31
0
39
0
210
0
220
0
230
1
0
LINE
5
E5
100
AcDbEntity
8
1
62
256
6
ByLayer
370
18
48
1
60
1
100
AcDbLine
10
32
20
-51.87335
30
0
11
28.500002
21
-52.334134
31
0
39
0
210
0
220
0
230
1
0
LINE
5
E6
100
AcDbEntity
8
1
62
256
6
ByLayer
370
18
48
1
60
1
100
AcDbLine
10
28.500002
20
-52.334134
30
0
11
28.499998
21
-51.412566
31
0
39
0
210
0
220
0
230
1
0
LINE
5
E7
100
AcDbEntity
8
1
62
256
6
ByLayer
370
18
48
1
60
1
100
AcDbLine
10
28.499998
20
-51.412566
30
0
11
32
21
-51.87335
31
0
39
0
210
0
220
0
230
1
0
LINE
5
154
100
AcDbEntity
8
1
62
256
6
ByLayer
370
18
48
1
60
1
100
AcDbLine
10
-47.65
20
5
30
0
11
-47.189216
21
1.500002
31
0
39
0
210
0
220
0
230
1
0
LINE
5
155
100
AcDbEntity
8
1
62
256
6
ByLayer
370
18
48
1
60
1
100
AcDbLine
10
-47.189216
20
1.500002
30
0
11
-48.110784
21
1.499998
31
0
39
0
210
0
220
0
230
1
0
LINE
5
156
100
AcDbEntity
8
1
62
256
6
ByLayer
370
18
48
1
60
1
100
AcDbLine
10
-48.110784
20
1.499998
30
0
11
-47.65
21
5
31
0
39
0
210
0
220
0
230
1
0
LINE
5
158
100
AcDbEntity
8
1
62
256
6
ByLayer
370
18
48
1
60
1
100
AcDbLine
10
-47.65
20
-5
30
0
11
-48.110784
21
-1.500002
31
0
39
0
210
0
220
0
230
1
0
LINE
5
159
100
AcDbEntity
8
1
62
256
6
ByLayer
370
18
48
1
60
1
100
AcDbLine
10
-48.110784
20
-1.500002
30
0
11
-47.189216
21
-1.499998
31
0
39
0
210
0
220
0
230
1
0
LINE
5
15A
100
AcDbEntity
8
1
62
256
6
ByLayer
370
18
48
1
60
1
100
AcDbLine
10
-47.189216
20
-1.499998
30
0
11
-47.65
21
-5
31
0
39
0
210
0
220
0
230
1
0
LINE
5
15E
100
AcDbEntity
8
1
62
256
6
ByLayer
370
18
48
1
60
1
100
AcDbLine
10
10.64166
20
4.8
30
0
11
11.102444
21
1.300002
31
0
39
0
210
0
220
0
230
1
0
LINE
5
15F
100
AcDbEntity
8
1
62
256
6
ByLayer
370
18
48
1
60
1
100
AcDbLine
10
11.102444
20
1.300002
30
0
11
10.180876
21
1.299998
31
0
39
0
210
0
220
0
230
1
0
LINE
5
160
100
AcDbEntity
8
1
62
256
6
ByLayer
370
18
48
1
60
1
100
AcDbLine
10
10.180876
20
1.299998
30
0
11
10.64166
21
4.8
31
0
39
0
210
0
220
0
230
1
0
LINE
5
162
100
AcDbEntity
8
1
62
256
6
ByLayer
370
18
48
1
60
1
100
AcDbLine
10
10.64166
20
-4.8
30
0
11
10.180876
21
-1.300002
31
0
39
0
210
0
220
0
230
1
0
LINE
5
163
100
AcDbEntity
8
1
62
256
6
ByLayer
370
18
48
1
60
1
100
AcDbLine
10
10.180876
20
-1.300002
30
0
11
11.102444
21
-1.299998
31
0
39
0
210
0
220
0
230
1
0
LINE
5
164
100
AcDbEntity
8
1
62
256
6
ByLayer
370
18
48
1
60
1
100
AcDbLine
10
11.102444
20
-1.299998
30
0
11
10.64166
21
-4.8
31
0
39
0
210
0
220
0
230
1
0
LINE
5
168
100
AcDbEntity
8
1
62
256
6
ByLayer
370
18
48
1
60
1
100
AcDbLine
10
44
20
5
30
0
11
44.460784
21
1.500002
31
0
39
0
210
0
220
0
230
1
0
LINE
5
169
100
AcDbEntity
8
1
62
256
6
ByLayer
370
18
48
1
60
1
100
AcDbLine
10
44.460784
20
1.500002
30
0
11
43.539216
21
1.499998
31
0
39
0
210
0
220
0
230
1
0
LINE
5
16A
100
AcDbEntity
8
1
62
256
6
ByLayer
370
18
48
1
60
1
100
AcDbLine
10
43.539216
20
1.499998
30
0
11
44
21
5
31
0
39
0
210
0
220
0
230
1
0
LINE
5
16C
100
AcDbEntity
8
1
62
256
6
ByLayer
370
18
48
1
60
1
100
AcDbLine
10
44
20
-5
30
0
11
43.539216
21
-1.500002
31
0
39
0
210
0
220
0
230
1
0
LINE
5
16D
100
AcDbEntity
8
1
62
256
6
ByLayer
370
18
48
1
60
1
100
AcDbLine
10
43.539216
20
-1.500002
30
0
11
44.460784
21
-1.499998
31
0
39
0
210
0
220
0
230
1
0
LINE
5
16E
100
AcDbEntity
8
1
62
256
6
ByLayer
370
18
48
1
60
1
100
AcDbLine
10
44.460784
20
-1.499998
30
0
11
44
21
-5
31
0
39
0
210
0
220
0
230
1
0
LINE
5
171
100
AcDbEntity
8
1
62
256
6
ByLayer
370
18
48
1
60
1
100
AcDbLine
10
-40
20
-51.87335
30
0
11
-36.500002
21
-51.412566
31
0
39
0
210
0
220
0
230
1
0
LINE
5
172
100
AcDbEntity
8
1
62
256
6
ByLayer
370
18
48
1
60
1
100
AcDbLine
10
-36.500002
20
-51.412566
30
0
11
-36.499998
21
-52.334134
31
0
39
0
210
0
220
0
230
1
0
LINE
5
173
100
AcDbEntity
8
1
62
256
6
ByLayer
370
18
48
1
60
1
100
AcDbLine
10
-36.499998
20
-52.334134
30
0
11
-40
21
-51.87335
31
0
39
0
210
0
220
0
230
1
0
LINE
5
175
100
AcDbEntity
8
1
62
256
6
ByLayer
370
18
48
1
60
1
100
AcDbLine
10
32
20
-51.87335
30
0
11
28.500002
21
-52.334134
31
0
39
0
210
0
220
0
230
1
0
LINE
5
176
100
AcDbEntity
8
1
62
256
6
ByLayer
370
18
48
1
60
1
100
AcDbLine
10
28.500002
20
-52.334134
30
0
11
28.499998
21
-51.412566
31
0
39
0
210
0
220
0
230
1
0
LINE
5
177
100
AcDbEntity
8
1
62
256
6
ByLayer
370
18
48
1
60
1
100
AcDbLine
10
28.499998
20
-51.412566
30
0
11
32
21
-51.87335
31
0
39
0
210
0
220
0
230
1
0
MTEXT
5
150
100
AcDbEntity
8
SK2
62
256
6
ByLayer
370
18
48
1
60
0
100
AcDbMText
10
-49.214634
20
-21.121222
30
0
210
0
220
0
230
1
1
%%c
40
3.5
41
0
44
1.084337
50
90
71
7
72
5
7
iso_b_vert
0
MTEXT
5
153
100
AcDbEntity
8
SK2
62
256
6
ByLayer
370
18
48
1
60
0
100
AcDbMText
10
-49.214634
20
-14.148566
30
0
210
0
220
0
230
1
1
\W0.5321;10
40
3.5
41
0
44
1.084337
50
90
71
7
72
5
7
iso_b_vert
0
MTEXT
5
15C
100
AcDbEntity
8
SK2
62
256
6
ByLayer
370
18
48
1
60
0
100
AcDbMText
10
9.077026
20
16.734844
30
0
210
0
220
0
230
1
1
%%c
40
3.5
41
0
44
1.084337
50
90
71
7
72
5
7
iso_b_vert
0
MTEXT
5
15D
100
AcDbEntity
8
SK2
62
256
6
ByLayer
370
18
48
1
60
0
100
AcDbMText
10
9.077026
20
23.7075
30
0
210
0
220
0
230
1
1
\W0.7121;9.6
40
3.5
41
0
44
1.084337
50
90
71
7
72
5
7
iso_b_vert
0
MTEXT
5
166
100
AcDbEntity
8
2
62
256
6
ByLayer
370
18
48
1
60
0
100
AcDbMText
10
42.435366
20
12.934844
30
0
210
0
220
0
230
1
1
%%c
40
3.5
41
0
44
1.084337
50
90
71
7
72
5
7
iso_b_vert
0
MTEXT
5
167
100
AcDbEntity
8
2
62
256
6
ByLayer
370
18
48
1
60
0
100
AcDbMText
10
42.435366
20
19.9075
30
0
210
0
220
0
230
1
1
\W0.5321;10
40
3.5
41
0
44
1.084337
50
90
71
7
72
5
7
iso_b_vert
0
MTEXT
5
170
100
AcDbEntity
8
SK2
62
256
6
ByLayer
370
18
48
1
60
0
100
AcDbMText
10
-5.904966
20
-50.840717
30
0
210
0
220
0
230
1
1
\W0.6740;72
40
3.5
41
0
44
1.084337
50
0
71
7
72
5
7
iso_b_vert
0
MTEXT
5
179
100
AcDbEntity
8
SK6
62
256
6
ByLayer
370
18
48
1
60
0
100
AcDbMText
10
-29.136889
20
-62.213868
30
0
210
0
220
0
230
1
1
\W0.7011;1K223-1000-050-NH   H10F
40
3
41
0
44
1.084337
50
0
71
7
72
5
7
iso_b_vert
0
HATCH
5
157
100
AcDbEntity
8
SK2
62
256
6
ByLayer
370
13
48
1
60
0
100
AcDbHatch
10
0
20
0
30
0
210
0
220
0
230
1
2
ANSI31
70
0
71
0
91
1
92
5
93
3
72
1
10
-47.65
20
5
11
-47.1892162584473
21
1.50000169255318
72
1
10
-47.1892162584473
20
1.50000169255318
11
-48.1107837415528
21
1.49999830744682
72
1
10
-48.1107837415528
20
1.49999830744682
11
-47.65
21
5
97
0
75
0
76
1
52
0
41
0.0062
77
0
78
1
53
45
43
0
44
0
45
-0.0139193969876572
46
0.0139193969876572
79
0
47
0
98
1
10
0
20
0
0
HATCH
5
15B
100
AcDbEntity
8
SK2
62
256
6
ByLayer
370
13
48
1
60
0
100
AcDbHatch
10
0
20
0
30
0
210
0
220
0
230
1
2
ANSI31
70
0
71
0
91
1
92
5
93
3
72
1
10
-47.65
20
-5
11
-48.1107837415528
21
-1.50000169255318
72
1
10
-48.1107837415528
20
-1.50000169255318
11
-47.1892162584473
21
-1.49999830744682
72
1
10
-47.1892162584473
20
-1.49999830744682
11
-47.65
21
-5
97
0
75
0
76
1
52
0
41
0.0062
77
0
78
1
53
45
43
0
44
0
45
-0.0139193969876572
46
0.0139193969876572
79
0
47
0
98
1
10
0
20
0
0
HATCH
5
161
100
AcDbEntity
8
SK2
62
256
6
ByLayer
370
13
48
1
60
0
100
AcDbHatch
10
0
20
0
30
0
210
0
220
0
230
1
2
ANSI31
70
0
71
0
91
1
92
5
93
3
72
1
10
10.641659784108
20
4.79999999999993
11
11.1024435256608
21
1.30000169255311
72
1
10
11.1024435256608
20
1.30000169255311
11
10.1808760425552
21
1.29999830744674
72
1
10
10.1808760425552
20
1.29999830744674
11
10.641659784108
21
4.79999999999993
97
0
75
0
76
1
52
0
41
0.0062
77
0
78
1
53
45
43
0
44
0
45
-0.0139193969876572
46
0.0139193969876572
79
0
47
0
98
1
10
0
20
0
0
HATCH
5
165
100
AcDbEntity
8
SK2
62
256
6
ByLayer
370
13
48
1
60
0
100
AcDbHatch
10
0
20
0
30
0
210
0
220
0
230
1
2
ANSI31
70
0
71
0
91
1
92
5
93
3
72
1
10
10.641659784108
20
-4.80000000000007
11
10.1808760425552
21
-1.30000169255325
72
1
10
10.1808760425552
20
-1.30000169255325
11
11.1024435256608
21
-1.29999830744688
72
1
10
11.1024435256608
20
-1.29999830744688
11
10.641659784108
21
-4.80000000000007
97
0
75
0
76
1
52
0
41
0.0062
77
0
78
1
53
45
43
0
44
0
45
-0.0139193969876572
46
0.0139193969876572
79
0
47
0
98
1
10
0
20
0
0
HATCH
5
16B
100
AcDbEntity
8
2
62
256
6
ByLayer
370
13
48
1
60
0
100
AcDbHatch
10
0
20
0
30
0
210
0
220
0
230
1
2
ANSI31
70
0
71
0
91
1
92
5
93
3
72
1
10
44
20
4.99999999999989
11
44.4607837415528
21
1.50000169255307
72
1
10
44.4607837415528
20
1.50000169255307
11
43.5392162584472
21
1.4999983074467
72
1
10
43.5392162584472
20
1.4999983074467
11
44
21
4.99999999999989
97
0
75
0
76
1
52
0
41
0.0062
77
0
78
1
53
45
43
0
44
0
45
-0.0139193969876572
46
0.0139193969876572
79
0
47
0
98
1
10
0
20
0
0
HATCH
5
16F
100
AcDbEntity
8
2
62
256
6
ByLayer
370
13
48
1
60
0
100
AcDbHatch
10
0
20
0
30
0
210
0
220
0
230
1
2
ANSI31
70
0
71
0
91
1
92
5
93
3
72
1
10
44
20
-5.00000000000011
11
43.5392162584472
21
-1.5000016925533
72
1
10
43.5392162584472
20
-1.5000016925533
11
44.4607837415528
21
-1.49999830744693
72
1
10
44.4607837415528
20
-1.49999830744693
11
44
21
-5.00000000000011
97
0
75
0
76
1
52
0
41
0.0062
77
0
78
1
53
45
43
0
44
0
45
-0.0139193969876572
46
0.0139193969876572
79
0
47
0
98
1
10
0
20
0
0
HATCH
5
174
100
AcDbEntity
8
SK2
62
256
6
ByLayer
370
13
48
1
60
0
100
AcDbHatch
10
0
20
0
30
0
210
0
220
0
230
1
2
ANSI31
70
0
71
0
91
1
92
5
93
3
72
1
10
-40
20
-51.8733501286193
11
-36.5000016925532
21
-51.4125663870665
72
1
10
-36.5000016925532
20
-51.4125663870665
11
-36.4999983074468
21
-52.3341338701721
72
1
10
-36.4999983074468
20
-52.3341338701721
11
-40
21
-51.8733501286193
97
0
75
0
76
1
52
0
41
0.0062
77
0
78
1
53
45
43
0
44
0
45
-0.0139193969876572
46
0.0139193969876572
79
0
47
0
98
1
10
0
20
0
0
HATCH
5
178
100
AcDbEntity
8
SK2
62
256
6
ByLayer
370
13
48
1
60
0
100
AcDbHatch
10
0
20
0
30
0
210
0
220
0
230
1
2
ANSI31
70
0
71
0
91
1
92
5
93
3
72
1
10
32
20
-51.8733501286193
11
28.5000016925532
21
-52.3341338701721
72
1
10
28.5000016925532
20
-52.3341338701721
11
28.4999983074468
21
-51.4125663870665
72
1
10
28.4999983074468
20
-51.4125663870665
11
32
21
-51.8733501286193
97
0
75
0
76
1
52
0
41
0.0062
77
0
78
1
53
45
43
0
44
0
45
-0.0139193969876572
46
0.0139193969876572
79
0
47
0
98
1
10
0
20
0
0
DIMENSION
5
17C
100
AcDbEntity
8
2
62
256
6
ByLayer
370
18
48
1
60
0
100
AcDbDimension
2
_U0
10
17
20
-19.87335
30
0
11
24.5
21
-19.87335
31
0
70
32
71
1
72
1
41
1
210
0
220
0
230
1
3
Standard
100
AcDbAlignedDimension
13
32
23
-5
33
0
14
17
24
-5
34
0
50
0
100
AcDbRotatedDimension
1001
ACAD
1000
DSTYLE
1002
{
1070
   371
1070
    13
1070
   372
1070
    13
1070
   170
1070
     0
1070
   144
1040
1.0
1070
   277
1070
     2
1070
   284
1070
     8
1070
   278
1070
    46
1070
   146
1040
1.0
1070
   345
1005
16
1070
   347
1005
16
1070
   346
1005
16
1070
   344
1005
0
1070
   343
1005
0
1070
   172
1070
     1
1070
    76
1070
     0
1070
    75
1070
     0
1070
   282
1070
     0
1070
   281
1070
     0
1070
    71
1070
     0
1070
    74
1070
     0
1070
   279
1070
     0
1070
   173
1070
     1
1070
   340
1005
151
1070
   271
1070
     2
1070
   272
1070
     2
1070
    77
1070
     1
1070
    73
1070
     1
1070
   171
1070
     3
1070
   274
1070
     4
1070
   177
1070
     2
1070
   176
1070
     2
1070
   178
1070
     2
1070
    78
1070
     8
1070
    48
1040
-0.1
1070
    41
1040
3.5
1070
   147
1040
1.75
1070
    42
1040
1.5875
1070
    44
1040
2.0
1070
   140
1040
3.5
1002
}
1001
ACAD_DSTYLE_DIM_LINETYPE
1070
   380
1005
16
1001
ACAD_DSTYLE_DIM_EXT1_LINETYPE
1070
   381
1005
16
1001
ACAD_DSTYLE_DIM_EXT2_LINETYPE
1070
   382
1005
16
0
DIMENSION
5
196
100
AcDbEntity
8
SK2
62
256
6
ByLayer
370
18
48
1
60
0
100
AcDbDimension
2
_U1
10
1.997679
20
-34.87335
30
0
11
16.998839
21
-34.87335
31
0
70
32
71
1
72
1
41
1
210
0
220
0
230
1
3
Standard
100
AcDbAlignedDimension
13
32
23
-5
33
0
14
1.997679
24
-4.8
34
0
50
0
100
AcDbRotatedDimension
1001
ACAD
1000
DSTYLE
1002
{
1070
   371
1070
    13
1070
   372
1070
    13
1070
   170
1070
     0
1070
   144
1040
1.0
1070
   277
1070
     2
1070
   284
1070
     8
1070
   278
1070
    46
1070
   146
1040
1.0
1070
   345
1005
16
1070
   347
1005
16
1070
   346
1005
16
1070
   344
1005
0
1070
   343
1005
0
1070
   172
1070
     1
1070
    76
1070
     0
1070
    75
1070
     0
1070
   282
1070
     0
1070
   281
1070
     0
1070
    71
1070
     0
1070
    74
1070
     0
1070
   279
1070
     0
1070
   173
1070
     1
1070
   340
1005
151
1070
   271
1070
     2
1070
   272
1070
     2
1070
    77
1070
     1
1070
    73
1070
     1
1070
   171
1070
     3
1070
   274
1070
     4
1070
   177
1070
     2
1070
   176
1070
     2
1070
   178
1070
     2
1070
    78
1070
     8
1070
    48
1040
-0.1
1070
    41
1040
3.5
1070
   147
1040
1.75
1070
    42
1040
1.5875
1070
    44
1040
2.0
1070
   140
1040
3.5
1002
}
1001
ACAD_DSTYLE_DIM_LINETYPE
1070
   380
1005
16
1001
ACAD_DSTYLE_DIM_EXT1_LINETYPE
1070
   381
1005
16
1001
ACAD_DSTYLE_DIM_EXT2_LINETYPE
1070
   382
1005
16
0
ENDSEC
0
SECTION
2
OBJECTS
0
DICTIONARY
5
21e
330
0
100
AcDbDictionary
280
0
281
1
3
ACAD_GROUP
350
21f
3
ACAD_MLINESTYLE
350
220
0
DICTIONARY
5
21f
330
0
100
AcDbDictionary
280
0
281
1
0
DICTIONARY
5
220
330
0
100
AcDbDictionary
280
0
281
1
3
Standard
350
18
0
MLINESTYLE
5
18
330
220
100
AcDbMlineStyle
2
Standard
70
0
3

62
256
51
90
52
90
71
2
49
-0.5
62
256
6
ByLayer
49
0.5
62
256
6
ByLayer
0
RASTERVARIABLES
5
20c
330

100
AcDbRasterVariables
90
0
70
1
71
1
72
1
0
ENDSEC
0
EOF
