0
SECTION
2
HEADER
9
$ACADVER
1
AC1015
9
$DWGCODEPAGE
3
ANSI_1252
9
$HANDSEED
5
1fa
9
$ANGBASE
50
0
9
$ANGDIR
70
0
9
$ATTMODE
70
1
9
$AUNITS
70
0
9
$AUPREC
70
0
9
$CECOLOR
62
256
9
$CELTSCALE
40
1
9
$CELTYPE
6
ByLayer
9
$CELWEIGHT
370
18
9
$CLAYER
8
0
9
$CMLJUST
70
0
9
$CMLSCALE
40
1
9
$CMLSTYLE
2
Standard
9
$DIMSTYLE
2
Standard
9
$TEXTSIZE
40
0.2
9
$TEXTSTYLE
7
Standard
9
$LUNITS
70
2
9
$LUPREC
70
4
9
$EXTNAMES
290
1
9
$INSUNITS
70
4
9
$LTSCALE
40
1
9
$LWDISPLAY
290
1
9
$PDMODE
70
0
9
$PDSIZE
40
0
9
$PLINEGEN
70
0
0
ENDSEC
0
SECTION
2
CLASSES
0
CLASS
1
RASTERVARIABLES
2
AcDbRasterVariables
3
ISM
90
0
280
0
281
0
0
ENDSEC
0
SECTION
2
TABLES
0
TABLE
2
VPORT
5
1f0
100
AcDbSymbolTable
0
VPORT
5
1
100
AcDbSymbolTableRecord
100
AcDbViewportTableRecord
2
*Active
70
0
10
0
20
0
11
1
21
1
12
-1
22
1
13
0
23
0
14
0.5
24
0.5
15
10
25
10
16
0
26
0
36
1
17
0
27
0
37
0
0
ENDTAB
0
TABLE
2
LTYPE
5
1f1
100
AcDbSymbolTable
0
LTYPE
5
14
100
AcDbSymbolTableRecord
100
AcDbLinetypeTableRecord
70
0
2
ByBlock
3

72
65
73
0
40
0
0
LTYPE
5
15
100
AcDbSymbolTableRecord
100
AcDbLinetypeTableRecord
70
0
2
ByLayer
3

72
65
73
0
40
0
0
LTYPE
5
16
100
AcDbSymbolTableRecord
100
AcDbLinetypeTableRecord
70
0
2
Continuous
3
Solid line
72
65
73
0
40
0
0
LTYPE
5
6E
100
AcDbSymbolTableRecord
100
AcDbLinetypeTableRecord
70
0
2
CENTER
3
____ _ ____ _ ____ _ ____
72
65
73
4
40
47.5
49
22
74
0
49
-8.5
74
0
49
8.5
74
0
49
-8.5
74
0
0
LTYPE
5
6F
100
AcDbSymbolTableRecord
100
AcDbLinetypeTableRecord
70
0
2
DASHED
3
__ __ __ __ __ __ __ __ __
72
65
73
2
40
25.72
49
12.86
74
0
49
-12.86
74
0
0
ENDTAB
0
TABLE
2
LAYER
5
1f2
100
AcDbSymbolTable
0
LAYER
5
10
100
AcDbSymbolTableRecord
100
AcDbLayerTableRecord
2
0
70
0
62
7
6
Continuous
290
1
370
-3
390
0
0
LAYER
5
71
100
AcDbSymbolTableRecord
100
AcDbLayerTableRecord
2
81
70
0
62
-3
6
Continuous
290
1
370
-3
390
0
0
LAYER
5
73
100
AcDbSymbolTableRecord
100
AcDbLayerTableRecord
2
80
70
0
62
-6
6
Continuous
290
1
370
-3
390
0
0
LAYER
5
75
100
AcDbSymbolTableRecord
100
AcDbLayerTableRecord
2
1
70
0
62
4
6
Continuous
290
1
370
-3
390
0
0
LAYER
5
79
100
AcDbSymbolTableRecord
100
AcDbLayerTableRecord
2
4
70
0
62
-2
6
CENTER
290
1
370
-3
390
0
0
LAYER
5
C2
100
AcDbSymbolTableRecord
100
AcDbLayerTableRecord
2
2
70
0
62
7
6
Continuous
290
1
370
-3
390
0
0
LAYER
5
167
100
AcDbSymbolTableRecord
100
AcDbLayerTableRecord
2
Defpoints
70
0
62
7
6
Continuous
290
0
370
-3
390
0
0
LAYER
5
1dc
100
AcDbSymbolTableRecord
100
AcDbLayerTableRecord
2
SK4
70
0
62
2
6
CENTER
290
1
370
-3
390
0
0
LAYER
5
1dd
100
AcDbSymbolTableRecord
100
AcDbLayerTableRecord
2
SK1
70
0
62
4
6
Continuous
290
1
370
-3
390
0
0
LAYER
5
1de
100
AcDbSymbolTableRecord
100
AcDbLayerTableRecord
2
SK2
70
0
62
7
6
Continuous
290
1
370
-3
390
0
0
LAYER
5
1df
100
AcDbSymbolTableRecord
100
AcDbLayerTableRecord
2
SK6
70
0
62
5
6
Continuous
290
1
370
-3
390
0
0
ENDTAB
0
TABLE
2
STYLE
5
1f3
100
AcDbSymbolTable
0
STYLE
5
11
100
AcDbSymbolTableRecord
100
AcDbTextStyleTableRecord
2
Standard
3
txt
70
0
71
0
40
0
41
1
42
0
50
0
0
STYLE
5
143
100
AcDbSymbolTableRecord
100
AcDbTextStyleTableRecord
2
iso_b_vert
3
simplex.shx
70
0
71
0
40
0
41
1
42
0
50
0
0
STYLE
5
144
100
AcDbSymbolTableRecord
100
AcDbTextStyleTableRecord
2
DWGDirectTextStyle
3
simplex
70
0
71
0
40
0
41
1
42
0
50
0
0
ENDTAB
0
TABLE
2
DIMSTYLE
5
1f4
100
AcDbSymbolTable
100
AcDbDimStyleTable
0
DIMSTYLE
105
27
100
AcDbSymbolTableRecord
100
AcDbDimStyleTableRecord
2
Standard
70
0
3
<>
41
0.18
42
0.0625
44
0.18
140
0.18
147
0.09
73
0
74
0
77
1
271
2
275
0
278
52
280
0
340
11
0
ENDTAB
0
TABLE
2
VIEW
5
1f5
100
AcDbSymbolTable
0
ENDTAB
0
TABLE
2
UCS
5
1f6
100
AcDbSymbolTable
0
ENDTAB
0
TABLE
2
APPID
5
1f7
100
AcDbSymbolTable
0
APPID
5
12
100
AcDbSymbolTableRecord
100
AcDbRegAppTableRecord
2
ACAD
70
0
0
APPID
5
163
100
AcDbSymbolTableRecord
100
AcDbRegAppTableRecord
2
ACAD_DSTYLE_DIMBREAK
70
0
0
APPID
5
19B
100
AcDbSymbolTableRecord
100
AcDbRegAppTableRecord
2
ACAD_DSTYLE_DIM_LINETYPE
70
0
0
APPID
5
19C
100
AcDbSymbolTableRecord
100
AcDbRegAppTableRecord
2
ACAD_DSTYLE_DIM_EXT1_LINETYPE
70
0
0
APPID
5
19D
100
AcDbSymbolTableRecord
100
AcDbRegAppTableRecord
2
ACAD_DSTYLE_DIM_EXT2_LINETYPE
70
0
0
APPID
5
1D8
100
AcDbSymbolTableRecord
100
AcDbRegAppTableRecord
2
ACAD_MLEADERVER
70
0
0
ENDTAB
0
TABLE
2
BLOCK_RECORD
5
1f8
100
AcDbSymbolTable
0
BLOCK_RECORD
5
1F
100
AcDbSymbolTableRecord
100
AcDbBlockTableRecord
2
*Model_Space
340
0
70
0
0
BLOCK_RECORD
5
1B
100
AcDbSymbolTableRecord
100
AcDbBlockTableRecord
2
*Paper_Space
340
0
70
0
0
BLOCK_RECORD
5
23
100
AcDbSymbolTableRecord
100
AcDbBlockTableRecord
2
*Paper_Space0
340
0
70
0
0
BLOCK_RECORD
5
168
100
AcDbSymbolTableRecord
100
AcDbBlockTableRecord
2
*D1
340
0
70
0
0
BLOCK_RECORD
5
174
100
AcDbSymbolTableRecord
100
AcDbBlockTableRecord
2
_U0
340
0
70
0
0
ENDTAB
0
ENDSEC
0
SECTION
2
BLOCKS
0
BLOCK
5
20
100
AcDbEntity
8
0
100
AcDbBlockBegin
2
*Model_Space
70
0
10
0
20
0
30
0
3
*Model_Space
0
ENDBLK
5
21
100
AcDbEntity
8
0
100
AcDbBlockEnd
0
BLOCK
5
1C
100
AcDbEntity
8
0
100
AcDbBlockBegin
2
*Paper_Space
70
0
10
0
20
0
30
0
3
*Paper_Space
0
ENDBLK
5
1D
100
AcDbEntity
8
0
100
AcDbBlockEnd
0
BLOCK
5
24
100
AcDbEntity
8
0
100
AcDbBlockBegin
2
*Paper_Space0
70
0
10
0
20
0
30
0
3
*Paper_Space0
0
ENDBLK
5
25
100
AcDbEntity
8
0
100
AcDbBlockEnd
0
BLOCK
5
169
100
AcDbEntity
8
0
100
AcDbBlockBegin
2
*D1
70
1
10
0
20
0
30
0
3
*D1
0
LINE
5
16B
100
AcDbEntity
8
0
62
256
6
ByLayer
370
-2
48
1
60
0
100
AcDbLine
10
61
20
-11.5876
30
0
11
61
21
-27.389508
31
0
39
0
210
0
220
0
230
1
0
LINE
5
16C
100
AcDbEntity
8
0
62
256
6
ByLayer
370
-2
48
1
60
0
100
AcDbLine
10
21
20
-11.5876
30
0
11
21
21
-27.389508
31
0
39
0
210
0
220
0
230
1
0
LINE
5
16D
100
AcDbEntity
8
0
62
256
6
ByLayer
370
-2
48
1
60
0
100
AcDbLine
10
57.5
20
-25.389508
30
0
11
24.5
21
-25.389508
31
0
39
0
210
0
220
0
230
1
0
SOLID
5
16E
100
AcDbEntity
8
0
62
256
6
ByLayer
370
-1
48
1
60
0
100
AcDbTrace
10
57.5
20
-25.972841
30
0
11
57.5
21
-24.806175
31
0
12
61
22
-25.389508
32
0
13
61
23
-25.389508
33
0
39
0
210
0
220
0
230
1
0
SOLID
5
16F
100
AcDbEntity
8
0
62
256
6
ByLayer
370
-1
48
1
60
0
100
AcDbTrace
10
24.5
20
-24.806175
30
0
11
24.5
21
-25.972841
31
0
12
21
22
-25.389508
32
0
13
21
23
-25.389508
33
0
39
0
210
0
220
0
230
1
0
MTEXT
5
170
100
AcDbEntity
8
0
62
256
6
ByLayer
370
18
48
1
60
0
100
AcDbMText
10
41
20
-18.389508
30
0
210
0
220
0
230
1
1
\A1;40
40
3.5
41
0
44
1
50
0
71
5
72
5
7
iso_b_vert
0
POINT
5
171
100
AcDbEntity
8
Defpoints
62
0
6
ByLayer
370
-1
48
1
60
0
100
AcDbPoint
10
61
20
-10.0001
30
0
39
0
210
0
220
0
230
1
50
360
0
POINT
5
172
100
AcDbEntity
8
Defpoints
62
0
6
ByLayer
370
-1
48
1
60
0
100
AcDbPoint
10
21
20
-10.0001
30
0
39
0
210
0
220
0
230
1
50
360
0
POINT
5
173
100
AcDbEntity
8
Defpoints
62
0
6
ByLayer
370
-1
48
1
60
0
100
AcDbPoint
10
21
20
-25.389508
30
0
39
0
210
0
220
0
230
1
50
360
0
ENDBLK
5
16A
100
AcDbEntity
8
0
100
AcDbBlockEnd
0
BLOCK
5
17B
100
AcDbEntity
8
0
100
AcDbBlockBegin
2
_U0
70
0
10
0
20
0
30
0
3
_U0
0
MTEXT
5
175
100
AcDbEntity
8
2
62
256
6
ByLayer
370
18
48
1
60
0
100
AcDbMText
10
38.910767
20
-24.356874
30
0
210
0
220
0
230
1
1
\W0.7361;40
40
3.5
41
0
44
1.084337
50
0
71
7
72
5
7
iso_b_vert
0
LINE
5
176
100
AcDbEntity
8
2
62
256
6
ByLayer
370
13
48
1
60
0
100
AcDbLine
10
61
20
-11.5876
30
0
11
61
21
-27.389508
31
0
39
0
210
0
220
0
230
1
0
LINE
5
177
100
AcDbEntity
8
2
62
256
6
ByLayer
370
13
48
1
60
0
100
AcDbLine
10
21
20
-11.5876
30
0
11
21
21
-27.389508
31
0
39
0
210
0
220
0
230
1
0
LINE
5
178
100
AcDbEntity
8
2
62
256
6
ByLayer
370
13
48
1
60
0
100
AcDbLine
10
61
20
-25.389508
30
0
11
21
21
-25.389508
31
0
39
0
210
0
220
0
230
1
0
SOLID
5
179
100
AcDbEntity
8
2
62
256
6
ByLayer
370
18
48
1
60
0
100
AcDbTrace
10
61
20
-25.389508
30
0
11
57.500002
21
-25.850292
31
0
12
57.499998
22
-24.928724
32
0
13
57.499998
23
-24.928724
33
0
39
0
210
0
220
0
230
1
0
SOLID
5
17A
100
AcDbEntity
8
2
62
256
6
ByLayer
370
18
48
1
60
0
100
AcDbTrace
10
21
20
-25.389508
30
0
11
24.499998
21
-24.928724
31
0
12
24.500002
22
-25.850292
32
0
13
24.500002
23
-25.850292
33
0
39
0
210
0
220
0
230
1
0
ENDBLK
5
17C
100
AcDbEntity
8
0
100
AcDbBlockEnd
0
ENDSEC
0
SECTION
2
ENTITIES
0
ELLIPSE
5
D4
100
AcDbEntity
8
1
62
256
6
ByLayer
370
18
48
1
60
0
100
AcDbEllipse
10
31.872109
20
0
30
0
11
21.7226163118331
21
-9.7649018539905
31
0
210
0
220
0
230
1
40
0.099234
41
-2.60893796954875
42
-2.18452998060864
0
ELLIPSE
5
D5
100
AcDbEntity
8
1
62
256
6
ByLayer
370
18
48
1
60
0
100
AcDbEllipse
10
11.876692
20
0
30
0
11
52.5305255434818
21
-6.65662688559612
31
0
210
0
220
0
230
1
40
0.142061
41
1.41426328600599
42
1.43197230612724
0
ELLIPSE
5
D6
100
AcDbEntity
8
1
62
256
6
ByLayer
370
18
48
1
60
0
100
AcDbEllipse
10
31.081484
20
0
30
0
11
20.0087492168955
21
6.74958244022901
31
0
210
0
220
0
230
1
40
0.368767
41
-2.77856357838507
42
-2.35642486768091
0
ELLIPSE
5
D7
100
AcDbEntity
8
1
62
256
6
ByLayer
370
18
48
1
60
0
100
AcDbEllipse
10
37.151418
20
3E-06
30
0
11
93.0127866218406
21
-9.87507516867457
31
0
210
0
220
0
230
1
40
0.016936
41
-1.75576585945279
42
-1.74352993878313
0
POINT
5
70
100
AcDbEntity
8
81
62
256
6
ByLayer
370
18
48
1
60
0
100
AcDbPoint
10
61
20
0
30
0
39
0
210
0
220
0
230
1
50
360
0
POINT
5
72
100
AcDbEntity
8
80
62
256
6
ByLayer
370
18
48
1
60
0
100
AcDbPoint
10
0
20
0
30
0
39
0
210
0
220
0
230
1
50
360
0
POINT
5
74
100
AcDbEntity
8
1
62
256
6
ByLayer
370
18
48
1
60
1
100
AcDbPoint
10
61
20
-10.0001
30
0
39
0
210
0
220
0
230
1
50
360
0
POINT
5
76
100
AcDbEntity
8
1
62
256
6
ByLayer
370
18
48
1
60
1
100
AcDbPoint
10
21
20
-10.0001
30
0
39
0
210
0
220
0
230
1
50
360
0
SPLINE
5
D8
100
AcDbEntity
8
1
62
256
6
ByLayer
370
18
48
1
60
0
100
AcDbSpline
70
4
71
5
72
15
73
9
40
0
40
0
40
0
40
0
40
0
40
0
40
0.0755200277253378
40
0.281118164037939
40
0.692787301401531
40
1
40
1
40
1
40
1
40
1
40
1
41
1
10
60.9956890774028
20
-5.33282804370435
30
0
41
1
10
60.9956739620103
20
-5.33385610127138
30
0
41
1
10
60.9955874996959
20
-5.33768509938639
30
0
41
1
10
60.9950976359748
20
-5.34713880050535
30
0
41
1
10
60.9934100946749
20
-5.36082302607537
30
0
41
1
10
60.990318090099
20
-5.37453488045156
30
0
41
1
10
60.9862373188261
20
-5.38726251276472
30
0
41
1
10
60.9823590080829
20
-5.39710991095387
30
0
41
1
10
60.9805751019774
20
-5.40130477382814
30
0
0
SPLINE
5
D9
100
AcDbEntity
8
1
62
256
6
ByLayer
370
13
48
1
60
0
100
AcDbSpline
70
4
71
1
72
4
73
2
40
0
40
0
40
1
40
1
41
1
10
60.7851089555225
20
-6.32044398226975
30
0
41
1
10
60.9956131013422
20
-5.32795664425743
30
0
0
SPLINE
5
DA
100
AcDbEntity
8
1
62
256
6
ByLayer
370
18
48
1
60
0
100
AcDbSpline
70
4
71
3
72
24
73
20
40
0
40
0
40
0
40
0
40
0.250000000000039
40
0.250000000000039
40
0.375000000000039
40
0.375000000000039
40
0.500000000000039
40
0.500000000000039
40
0.625000000000038
40
0.625000000000038
40
0.750000000000038
40
0.750000000000038
40
0.812500000000029
40
0.812500000000029
40
0.875000000000019
40
0.875000000000019
40
0.93750000000001
40
0.93750000000001
40
1
40
1
40
1
40
1
41
1
10
60.6329481659403
20
-6.74459778080049
30
0
41
1
10
60.6489773467719
20
-6.71046203711185
30
0
41
1
10
60.6647886077754
20
-6.67590235075772
30
0
41
1
10
60.6880086450785
20
-6.62313697446572
30
0
41
1
10
60.6956652685274
20
-6.60539144411547
30
0
41
1
10
60.7107588542264
20
-6.56948662933539
30
0
41
1
10
60.7182197055108
20
-6.55126931765281
30
0
41
1
10
60.7326807585309
20
-6.51464463498834
30
0
41
1
10
60.7396882505649
20
-6.49623118217548
30
0
41
1
10
60.753044150326
20
-6.45910548422242
30
0
41
1
10
60.7593138822709
20
-6.44061030167339
30
0
41
1
10
60.767682787363
20
-6.41335465169371
30
0
41
1
10
60.7703030835635
20
-6.40433797646361
30
0
41
1
10
60.7751010630531
20
-6.3864837775987
30
0
41
1
10
60.7772491415568
20
-6.37774163536176
30
0
41
1
10
60.7808409917692
20
-6.36110456205421
30
0
41
1
10
60.7823056426224
20
-6.35311507282455
30
0
41
1
10
60.7844016067547
20
-6.33819124250797
30
0
41
1
10
60.7850139450389
20
-6.33141034723758
30
0
41
1
10
60.7851836582144
20
-6.32532138541006
30
0
0
SPLINE
5
DB
100
AcDbEntity
8
1
62
256
6
ByLayer
370
18
48
1
60
0
100
AcDbSpline
70
4
71
1
72
4
73
2
40
0
40
0
40
1
40
1
41
1
10
60.7851836582144
20
-6.32532138541004
30
0
41
1
10
60.7851089555225
20
-6.32044398226975
30
0
0
SPLINE
5
DC
100
AcDbEntity
8
1
62
256
6
ByLayer
370
18
48
1
60
0
100
AcDbSpline
70
4
71
1
72
4
73
2
40
0
40
0
40
1
40
1
41
1
10
60.7851089555225
20
-6.32044398226975
30
0
41
1
10
60.7842789895462
20
-6.26625478832031
30
0
0
SPLINE
5
DD
100
AcDbEntity
8
1
62
256
6
ByLayer
370
18
48
1
60
0
100
AcDbSpline
70
4
71
3
72
8
73
4
40
0
40
0
40
0
40
0
40
1
40
1
40
1
40
1
41
1
10
60.3666914664468
20
9.99031690988164
30
0
41
1
10
60.4212421575765
20
9.98998812705139
30
0
41
1
10
60.4757939643498
20
9.98981307722585
30
0
41
1
10
60.5303468884352
20
9.98979199031064
30
0
0
SPLINE
5
DE
100
AcDbEntity
8
1
62
256
6
ByLayer
370
18
48
1
60
0
100
AcDbSpline
70
4
71
5
72
34
73
28
40
0
40
0
40
0
40
0
40
0
40
0
40
0.0119605073096635
40
0.0445221746161596
40
0.109720399325771
40
0.173262048248832
40
0.205889954002888
40
0.238660354499113
40
0.304409408528453
40
0.337312487341885
40
0.36956096153515
40
0.401682921026151
40
0.434412049248369
40
0.500190478026546
40
0.566146760949484
40
0.598345682628154
40
0.630537434025678
40
0.663358341309708
40
0.729309050989318
40
0.795408216044208
40
0.827386869766076
40
0.859532907802958
40
0.892418323864811
40
0.958487929949343
40
1
40
1
40
1
40
1
40
1
40
1
41
1
10
60.9956890774028
20
9.49769278815145
30
0
41
1
10
60.9956739620102
20
9.4994926592446
30
0
41
1
10
60.9955874996958
20
9.50619155629821
30
0
41
1
10
60.9950976359743
20
9.52268772979397
30
0
41
1
10
60.9932514714836
20
9.54864294712982
30
0
41
1
10
60.9890602043651
20
9.57924234806421
30
0
41
1
10
60.9819340890554
20
9.61273622218297
30
0
41
1
10
60.9711023378854
20
9.65004105980623
30
0
41
1
10
60.9593361465057
20
9.68173597878825
30
0
41
1
10
60.9475459954041
20
9.70838536270685
30
0
41
1
10
60.9341140714446
20
9.73432417410879
30
0
41
1
10
60.9190335161808
20
9.75952653773655
30
0
41
1
10
60.9027627018368
20
9.783923885966
30
0
41
1
10
60.8821769746874
20
9.8110325542371
30
0
41
1
10
60.8597639219181
20
9.83643599546176
30
0
41
1
10
60.8354874079756
20
9.86021345425308
30
0
41
1
10
60.809255417084
20
9.882351306667
30
0
41
1
10
60.7817721349371
20
9.90280024445292
30
0
41
1
10
60.7532618256041
20
9.92141477049449
30
0
41
1
10
60.7236108405263
20
9.9378055317041
30
0
41
1
10
60.6927500799566
20
9.95204286715554
30
0
41
1
10
60.6605992506901
20
9.9640848225616
30
0
41
1
10
60.6278518587165
20
9.9741187159467
30
0
41
1
10
60.5983134658263
20
9.98123123997294
30
0
41
1
10
60.5731463819329
20
9.98560870637124
30
0
41
1
10
60.5524692027484
20
9.98810952056647
30
0
41
1
10
60.5365174462713
20
9.989391972454
30
0
41
1
10
60.5303468884353
20
9.98979199031064
30
0
0
SPLINE
5
DF
100
AcDbEntity
8
1
62
256
6
ByLayer
370
13
48
1
60
0
100
AcDbSpline
70
4
71
3
72
8
73
4
40
0
40
0
40
0
40
0
40
1
40
1
40
1
40
1
41
1
10
24.5148440412151
20
-8.67002517513362
30
0
41
1
10
23.3432293608101
20
-8.87079333008734
30
0
41
1
10
22.1716146804051
20
-8.98438976732052
30
0
41
1
10
21.0000000000001
20
-9.00463051306565
30
0
0
SPLINE
5
E0
100
AcDbEntity
8
1
62
256
6
ByLayer
370
18
48
1
60
0
100
AcDbSpline
70
4
71
3
72
20
73
16
40
0
40
0
40
0
40
0
40
0.0463475380761889
40
0.0463475380761889
40
0.237078030460951
40
0.237078030460951
40
0.332443276653332
40
0.332443276653332
40
0.427808522845714
40
0.427808522845714
40
0.618539015230476
40
0.618539015230476
40
0.809269507615238
40
0.809269507615238
40
1
40
1
40
1
40
1
41
1
10
27.3900712988711
20
-8.35807460030088
30
0
41
1
10
27.2909431165712
20
-8.39114116980193
30
0
41
1
10
27.1918765299181
20
-8.42359410743043
30
0
41
1
10
26.6854292131087
20
-8.58642109680449
30
0
41
1
10
26.2789725482235
20
-8.70693056273109
30
0
41
1
10
25.6702200267733
20
-8.87137958444259
30
0
41
1
10
25.4674573415754
20
-8.92347458465596
30
0
41
1
10
25.0621431947127
20
-9.02209429100051
30
0
41
1
10
24.8596017502276
20
-9.06859008585459
30
0
41
1
10
24.2520620235069
20
-9.1997168313022
30
0
41
1
10
23.8470375730408
20
-9.27632566839313
30
0
41
1
10
23.0361622151827
20
-9.40710558609356
30
0
41
1
10
22.6303044328801
20
-9.46128192732164
30
0
41
1
10
21.8167473621083
20
-9.54677980531312
30
0
41
1
10
21.4090632671674
20
-9.57804913727102
30
0
41
1
10
21.0000000000001
20
-9.59738365360587
30
0
0
SPLINE
5
E1
100
AcDbEntity
8
1
62
256
6
ByLayer
370
18
48
1
60
0
100
AcDbSpline
70
4
71
3
72
10
73
6
40
0
40
0
40
0
40
0
40
0.405875428109038
40
0.844505563529632
40
1
40
1
40
1
40
1
41
1
10
18.9312439671615
20
-9.87287846427591
30
0
41
1
10
19.2192844807803
20
-9.85103896998029
30
0
41
1
10
19.8188154145214
20
-9.79308459713781
30
0
41
1
10
20.5291588768612
20
-9.69363669074991
30
0
41
1
10
20.9513432963043
20
-9.62194627453113
30
0
41
1
10
21.0618469391086
20
-9.60231631373242
30
0
0
SPLINE
5
E2
100
AcDbEntity
8
1
62
256
6
ByLayer
370
18
48
1
60
0
100
AcDbSpline
70
4
71
3
72
8
73
4
40
0
40
0
40
0
40
0
40
1
40
1
40
1
40
1
41
1
10
60.3666914664463
20
9.99031690988139
30
0
41
1
10
60.4366037640983
20
9.75942186936385
30
0
41
1
10
60.5117489447834
20
9.53029056621355
30
0
41
1
10
60.5933286881428
20
9.30332802520462
30
0
0
SPLINE
5
E3
100
AcDbEntity
8
1
62
256
6
ByLayer
370
18
48
1
60
0
100
AcDbSpline
70
4
71
3
72
22
73
18
40
0
40
0
40
0
40
0
40
0.078818609033596
40
0.078818609033596
40
0.309113956775204
40
0.309113956775204
40
0.337900875242905
40
0.337900875242905
40
0.366687793710605
40
0.424261630646006
40
0.539409304516804
40
0.539409304516804
40
0.654556978387603
40
0.654556978387603
40
0.769704652258402
40
0.769704652258402
40
1
40
1
40
1
40
1
41
1
10
49.6855248353897
20
7.02254249669824
30
0
41
1
10
49.9675231604118
20
7.16310604229488
30
0
41
1
10
50.2492529012342
20
7.29942849586615
30
0
41
1
10
51.353722547895
20
7.81689092987688
30
0
41
1
10
52.1755881533469
20
8.16500464757769
30
0
41
1
10
53.1036703417482
20
8.51025058376885
30
0
41
1
10
53.2068861372227
20
8.54798418005788
30
0
41
1
10
53.4130768348985
20
8.62202366564583
30
0
41
1
10
53.7220748765799
20
8.73097079360028
30
0
41
1
10
54.4412287374255
20
8.97035159618892
30
0
41
1
10
55.0550778012091
20
9.14993374373211
30
0
41
1
10
55.8722556297804
20
9.36619612109195
30
0
41
1
10
56.280197063829
20
9.46274431332179
30
0
41
1
10
57.0957346431474
20
9.6324921180634
30
0
41
1
10
57.5033324414411
20
9.70568643376015
30
0
41
1
10
58.7270912818947
20
9.88965632590521
30
0
41
1
10
59.5442040683587
20
9.96487946747689
30
0
41
1
10
60.3666914664468
20
9.99031690988164
30
0
0
SPLINE
5
E4
100
AcDbEntity
8
1
62
256
6
ByLayer
370
18
48
1
60
0
100
AcDbSpline
70
4
71
3
72
62
73
58
40
0
40
0
40
0
40
0
40
0.0341874502404867
40
0.0341874502404867
40
0.0683749004809734
40
0.0683749004809734
40
0.10256235072146
40
0.10256235072146
40
0.111109213281582
40
0.111109213281582
40
0.119656075841704
40
0.119656075841704
40
0.136749800961948
40
0.136749800961948
40
0.170937251202436
40
0.170937251202436
40
0.205124701442924
40
0.205124701442924
40
0.213671564003046
40
0.213671564003046
40
0.222218426563169
40
0.222218426563169
40
0.239312151683411
40
0.273499601923894
40
0.307687052164377
40
0.307687052164377
40
0.324780777284617
40
0.324780777284617
40
0.341874502404857
40
0.341874502404857
40
0.376061952645338
40
0.376061952645338
40
0.410249402885818
40
0.410249402885818
40
0.427343128006059
40
0.427343128006059
40
0.444436853126299
40
0.444436853126299
40
0.478624303366783
40
0.478624303366783
40
0.546999203847757
40
0.546999203847757
40
0.61537410432873
40
0.61537410432873
40
0.64956155456922
40
0.64956155456922
40
0.683749004809709
40
0.683749004809709
40
0.752123905290687
40
0.752123905290687
40
0.820498805771666
40
0.820498805771666
40
0.888873706252645
40
0.888873706252645
40
0.957248606733623
40
0.957248606733623
40
1
40
1
40
1
40
1
41
1
10
60.5933286881469
20
9.30332802520465
30
0
41
1
10
60.6240864236813
20
9.21775624920406
30
0
41
1
10
60.6522180853505
20
9.13155929983228
30
0
41
1
10
60.7025563627538
20
8.9577548615797
30
0
41
1
10
60.7247651958355
20
8.87014790056924
30
0
41
1
10
60.7623827609112
20
8.69331512000164
30
0
41
1
10
60.7777949512867
20
8.60409012376039
30
0
41
1
10
60.7920832356544
20
8.49137404550254
30
0
41
1
10
60.7946911791585
20
8.4687713821138
30
0
41
1
10
60.7993855954837
20
8.4234419119947
30
0
41
1
10
60.8014738097274
20
8.40068917406001
30
0
41
1
10
60.8069004004569
20
8.332513330094
30
0
41
1
10
60.8094079556067
20
8.28713174941461
30
0
41
1
10
60.8134336034153
20
8.15120429906341
30
0
41
1
10
60.811460969551
20
8.06087533017174
30
0
41
1
10
60.7971750673589
20
7.88085992100466
30
0
41
1
10
60.7848631357138
20
7.79117339767274
30
0
41
1
10
60.7622335710875
20
7.67951508847221
30
0
41
1
10
60.7573450864139
20
7.65720595549385
30
0
41
1
10
60.7468210594228
20
7.61263410892417
30
0
41
1
10
60.7411930994942
20
7.59041012074383
30
0
41
1
10
60.7233102992512
20
7.5243225245901
30
0
41
1
10
60.6834423106242
20
7.39402130750949
30
0
41
1
10
60.5967227386029
20
7.186113305568
30
0
41
1
10
60.5062614532546
20
7.02941884098701
30
0
41
1
10
60.4307285658851
20
6.91540938724356
30
0
41
1
10
60.4041995423101
20
6.87791133344487
30
0
41
1
10
60.3494062859471
20
6.80505952480942
30
0
41
1
10
60.321068972
20
6.76958327577159
30
0
41
1
10
60.2334472092896
20
6.66578923437854
30
0
41
1
10
60.1715591154258
20
6.60009991308894
30
0
41
1
10
60.0417951592546
20
6.47476613280583
30
0
41
1
10
59.9739175805479
20
6.41512340657764
30
0
41
1
10
59.8681934718899
20
6.32960431845373
30
0
41
1
10
59.8322995815415
20
6.30175669837962
30
0
41
1
10
59.7592911875799
20
6.24729371014158
30
0
41
1
10
59.7223246654461
20
6.22078995845922
30
0
41
1
10
59.6104511414993
20
6.14346716047103
30
0
41
1
10
59.5344463255639
20
6.09473298472025
30
0
41
1
10
59.3028814818874
20
5.95555493066968
30
0
41
1
10
59.1438058142547
20
5.87206676072168
30
0
41
1
10
58.8188568791187
20
5.7185395008363
30
0
41
1
10
58.6529644666426
20
5.64853828930865
30
0
41
1
10
58.4002461901401
20
5.55121239131259
30
0
41
1
10
58.315292532864
20
5.52004239650964
30
0
41
1
10
58.1451648464187
20
5.46028956463758
30
0
41
1
10
58.059875381227
20
5.43166045723692
30
0
41
1
10
57.803419054891
20
5.34902339944688
30
0
41
1
10
57.6316681259219
20
5.2982443579545
30
0
41
1
10
57.2869576397656
20
5.20336794829953
30
0
41
1
10
57.1139963562629
20
5.1592801237467
30
0
41
1
10
56.7671070671649
20
5.0764488155435
30
0
41
1
10
56.593178104234
20
5.03771062434214
30
0
41
1
10
56.2445299957965
20
4.96460261739475
30
0
41
1
10
56.0698103380919
20
4.93023563323777
30
0
41
1
10
55.7853128523415
20
4.87733500618862
30
0
41
1
10
55.6757361511692
20
4.85768947127968
30
0
41
1
10
55.5660425807631
20
4.83869002590481
30
0
0
SPLINE
5
E5
100
AcDbEntity
8
1
62
256
6
ByLayer
370
13
48
1
60
0
100
AcDbSpline
70
4
71
3
72
12
73
8
40
0
40
0
40
0
40
0
40
0.206677708702779
40
0.453506730195078
40
0.700335751687377
40
0.947164773179676
40
1
40
1
40
1
40
1
41
1
10
60.5933286881465
20
9.30332802520471
30
0
41
1
10
59.8955524587643
20
9.28427662150492
30
0
41
1
10
58.3644428960488
20
9.1690215848196
30
0
41
1
10
56
20
8.74902898773681
30
0
41
1
10
53.5
20
8.03528444890375
30
0
41
1
10
51.6549533542798
20
7.32875346482723
30
0
41
1
10
50.643240041893
20
6.88774957136988
30
0
41
1
10
50.4648600628394
20
6.80839242204027
30
0
0
SPLINE
5
E6
100
AcDbEntity
8
1
62
256
6
ByLayer
370
13
48
1
60
0
100
AcDbSpline
70
4
71
3
72
8
73
4
40
0
40
0
40
0
40
0
40
1
40
1
40
1
40
1
41
1
10
21.6997146246581
20
-8.79047325544869
30
0
41
1
10
21.4664764164387
20
-8.7954086122806
30
0
41
1
10
21.2332382082194
20
-8.79676995249605
30
0
41
1
10
21
20
-8.79451671636332
30
0
0
SPLINE
5
E7
100
AcDbEntity
8
1
62
256
6
ByLayer
370
13
48
1
60
0
100
AcDbSpline
70
4
71
3
72
10
73
6
40
0
40
0
40
0
40
0
40
0.0976164951619283
40
0.398410996774619
40
1
40
1
40
1
40
1
41
1
10
29.3113221371947
20
-5.02603753388414
30
0
41
1
10
29.0408814247965
20
-5.01071133662947
30
0
41
1
10
27.9371073790649
20
-4.93893627952696
30
0
41
0.999999999999999
10
25.1666666666667
20
-4.6646881947973
30
0
41
1
10
22.6666666666666
20
-4.23856336612562
30
0
41
1
10
21
20
-3.88190952045486
30
0
0
SPLINE
5
E8
100
AcDbEntity
8
1
62
256
6
ByLayer
370
18
48
1
60
0
100
AcDbSpline
70
4
71
3
72
11
73
7
40
0
40
0
40
0
40
0
40
0.195780545179195
40
0.396835408884396
40
0.597890272589598
40
1
40
1
40
1
40
1
41
1
10
33.4344169244551
20
-7.14286834897155
30
0
41
1
10
32.6229446163035
20
-7.27974088764347
30
0
41
1
10
30.9781389748184
20
-7.48770728572916
30
0
41
1
10
28.5
20
-7.5764008976102
30
0
41
0.999999999999999
10
25.1666666666667
20
-7.38500871947273
30
0
41
1
10
22.6666666666666
20
-6.90470432959015
30
0
41
1
10
21
20
-6.44581130275108
30
0
0
SPLINE
5
E9
100
AcDbEntity
8
1
62
256
6
ByLayer
370
18
48
1
60
0
100
AcDbSpline
70
4
71
3
72
12
73
8
40
0
40
0
40
0
40
0
40
0.25
40
0.25
40
0.5
40
0.5
40
1
40
1
40
1
40
1
41
1
10
18.6895005733765
20
-9.99000208162187
30
0
41
1
10
18.7508370897648
20
-9.95684795553211
30
0
41
1
10
18.812547754744
20
-9.92442060046892
30
0
41
1
10
18.9367282825626
20
-9.861040606595
30
0
41
1
10
18.9992636211079
20
-9.83005693279145
30
0
41
1
10
19.1875021698587
20
-9.73960732878325
30
0
41
1
10
19.3137213357981
20
-9.68268669922981
30
0
41
1
10
19.4406710104549
20
-9.62916241855186
30
0
0
SPLINE
5
EA
100
AcDbEntity
8
1
62
256
6
ByLayer
370
18
48
1
60
0
100
AcDbSpline
70
4
71
3
72
10
73
6
40
0
40
0
40
0
40
0
40
0.5
40
0.5
40
1
40
1
40
1
40
1
41
1
10
21.0000000000001
20
-9.5973836536059
30
0
41
1
10
20.737827858979
20
-9.60999685097255
30
0
41
1
10
20.4767361363534
20
-9.61916751639669
30
0
41
1
10
19.9569129439175
20
-9.62998838503947
30
0
41
1
10
19.6982016394765
20
-9.63157433543924
30
0
41
1
10
19.4408253172675
20
-9.62890663836671
30
0
0
SPLINE
5
EB
100
AcDbEntity
8
1
62
256
6
ByLayer
370
18
48
1
60
0
100
AcDbSpline
70
4
71
3
72
16
73
12
40
0
40
0
40
0
40
0
40
0.249999999999984
40
0.249999999999984
40
0.374999999999987
40
0.374999999999987
40
0.499999999999989
40
0.499999999999989
40
0.749999999999995
40
0.749999999999995
40
1
40
1
40
1
40
1
41
1
10
53.8515827389253
20
-2.94854627511012
30
0
41
1
10
53.883211505858
20
-3.00345478946207
30
0
41
1
10
53.9136491338063
20
-3.0594291108346
30
0
41
1
10
53.9571319406752
20
-3.14533551748173
30
0
41
1
10
53.9712625003635
20
-3.17429642604489
30
0
41
1
10
53.9987086586397
20
-3.23294745384595
30
0
41
1
10
54.0120448461078
20
-3.26268729885203
30
0
41
1
10
54.0504562672086
20
-3.35264156493258
30
0
41
1
10
54.0739807984643
20
-3.41363080258841
30
0
41
1
10
54.1157850556979
20
-3.53817675586274
30
0
41
1
10
54.1340810239746
20
-3.6017255204267
30
0
41
1
10
54.1488816231259
20
-3.66698536532903
30
0
0
SPLINE
5
EC
100
AcDbEntity
8
1
62
256
6
ByLayer
370
18
48
1
60
0
100
AcDbSpline
70
4
71
3
72
14
73
10
40
0
40
0
40
0
40
0
40
0.25
40
0.25
40
0.5
40
0.5
40
0.75
40
0.75
40
1
40
1
40
1
40
1
41
1
10
53.8515827389253
20
-2.94854627511015
30
0
41
1
10
53.8263409614746
20
-2.90472577137788
30
0
41
1
10
53.8057614156969
20
-2.85951675918025
30
0
41
1
10
53.7729726701505
20
-2.76716173166082
30
0
41
1
10
53.7607619720822
20
-2.72001453244147
30
0
41
1
10
53.7442656968819
20
-2.62446193681555
30
0
41
1
10
53.7401882589755
20
-2.57729178320815
30
0
41
1
10
53.7393249208865
20
-2.48488457900643
30
0
41
1
10
53.7425354951935
20
-2.43960016236585
30
0
41
1
10
53.7492204124722
20
-2.39545565721079
30
0
0
SPLINE
5
ED
100
AcDbEntity
8
1
62
256
6
ByLayer
370
18
48
1
60
0
100
AcDbSpline
70
4
71
3
72
13
73
9
40
0
40
0
40
0
40
0
40
0.254567471122284
40
0.254567471122284
40
0.440925603341713
40
0.440925603341713
40
0.627283735561142
40
1
40
1
40
1
40
1
41
1
10
54.803855833377
20
5.38302697322681
30
0
41
1
10
54.8147322934674
20
5.37964040209837
30
0
41
1
10
54.8261633820251
20
5.37566739316355
30
0
41
1
10
54.8469213125961
20
5.3677723089844
30
0
41
1
10
54.8560010582987
20
5.3641173228082
30
0
41
1
10
54.8746805535824
20
5.35621183297101
30
0
41
1
10
54.9034936002651
20
5.34345622188951
30
0
41
1
10
54.9346422244575
20
5.32806029599169
30
0
41
1
10
54.9564097452601
20
5.31666386662565
30
0
0
SPLINE
5
EE
100
AcDbEntity
8
1
62
256
6
ByLayer
370
18
48
1
60
0
100
AcDbSpline
70
4
71
3
72
18
73
14
40
0
40
0
40
0
40
0
40
0.125
40
0.125
40
0.25
40
0.25
40
0.499999999999999
40
0.499999999999999
40
0.625
40
0.625
40
0.75
40
0.75
40
1
40
1
40
1
40
1
41
1
10
54.8576526133591
20
-5.35140645143071
30
0
41
1
10
54.8442354250023
20
-5.41267369727706
30
0
41
1
10
54.8318725912687
20
-5.47399825383511
30
0
41
1
10
54.809338085949
20
-5.59676647020103
30
0
41
1
10
54.7991955646966
20
-5.6580594618361
30
0
41
1
10
54.7722748302866
20
-5.84130845627249
30
0
41
1
10
54.7589710030065
20
-5.96278141750929
30
0
41
1
10
54.7463433606533
20
-6.14389711192715
30
0
41
1
10
54.7433582651744
20
-6.20416091987428
30
0
41
1
10
54.7399198334434
20
-6.32349363157462
30
0
41
1
10
54.7394573537088
20
-6.38265001288028
30
0
41
1
10
54.7418477038075
20
-6.5585861568845
30
0
41
1
10
54.748474325105
20
-6.67383454374919
30
0
41
1
10
54.7602023641496
20
-6.78701280994906
30
0
0
SPLINE
5
EF
100
AcDbEntity
8
1
62
256
6
ByLayer
370
18
48
1
60
0
100
AcDbSpline
70
4
71
3
72
22
73
18
40
0
40
0
40
0
40
0
40
0.249999999999995
40
0.249999999999995
40
0.312499999999995
40
0.312499999999995
40
0.374999999999996
40
0.374999999999996
40
0.499999999999996
40
0.624999999999996
40
0.624999999999996
40
0.687499999999997
40
0.687499999999997
40
0.749999999999997
40
0.874999999999999
40
0.874999999999999
40
1
40
1
40
1
40
1
41
1
10
54.1488816231384
20
-3.66698536532161
30
0
41
1
10
54.1836097729818
20
-3.82011669867634
30
0
41
1
10
54.2253444936641
20
-3.97054481477818
30
0
41
1
10
54.2856980303025
20
-4.1554220384669
30
0
41
1
10
54.2981789104918
20
-4.19223923370123
30
0
41
1
10
54.3239501340929
20
-4.2655613237595
30
0
41
1
10
54.3372340302745
20
-4.30204555964801
30
0
41
1
10
54.3781448981666
20
-4.41068352928647
30
0
41
1
10
54.4355947288354
20
-4.5535908710097
30
0
41
1
10
54.4985698438441
20
-4.69279829061165
30
0
41
1
10
54.5477852422366
20
-4.79587525845994
30
0
41
1
10
54.5645288252825
20
-4.83002689089895
30
0
41
1
10
54.5985779987835
20
-4.89772686669994
30
0
41
1
10
54.6505215082896
20
-4.99842934454503
30
0
41
1
10
54.7049955390078
20
-5.09666607617089
30
0
41
1
10
54.7797566324861
20
-5.22557383088633
30
0
41
1
10
54.818229246168
20
-5.28903336432214
30
0
41
1
10
54.8576526133568
20
-5.35140645142545
30
0
0
SPLINE
5
F0
100
AcDbEntity
8
1
62
256
6
ByLayer
370
13
48
1
60
0
100
AcDbSpline
70
4
71
3
72
75
73
71
40
0
40
0
40
0
40
0
40
0.0010194988863876
40
0.0810626517598423
40
0.161105804633297
40
0.214467906548933
40
0.294511059422388
40
0.347873161338025
40
0.401235263253661
40
0.454597365169298
40
0.507959467084934
40
0.561321569000571
40
0.614683670916207
40
0.668045772831844
40
0.72140787474748
40
0.761429451184208
40
0.788110502142026
40
0.801451027620935
40
0.814791553099844
40
0.828132078578753
40
0.841472604057662
40
0.851477998166844
40
0.858148260906299
40
0.860649609433594
40
0.86315095796089
40
0.864401632224537
40
0.865652306488185
40
0.866277643620009
40
0.866798757896529
40
0.867111426462441
40
0.867424095028353
40
0.867736763594265
40
0.868570546436696
40
0.869821220700344
40
0.871488786385208
40
0.873156352070071
40
0.875657700597367
40
0.878159049124662
40
0.883161746179253
40
0.888164443233844
40
0.894834705973299
40
0.901504968712753
40
0.911510362821935
40
0.921515756931117
40
0.931521151040299
40
0.941526545149481
40
0.948196807888935
40
0.95486707062839
40
0.961537333367844
40
0.966540030422435
40
0.971542727477026
40
0.974877858846753
40
0.977379207374049
40
0.979880555901344
40
0.981131230164992
40
0.98238190442864
40
0.983007241560464
40
0.983528355836984
40
0.983788912975244
40
0.983945247258199
40
0.984101581541155
40
0.984257915824111
40
0.984570584390023
40
0.985091698666543
40
0.985717035798367
40
0.986967710062015
40
0.989052167168094
40
0.99155351569539
40
0.996556212749981
40
1
40
1
40
1
40
1
41
1
10
54.1488816231414
20
-3.66698536532098
30
0
41
1
10
54.1409210820943
20
-3.66480778733529
30
0
41
1
10
53.5079605410472
20
-3.49151894857482
30
0
41
1
10
52.25
20
-3.12431434949966
30
0
41
1
10
50.5833333333333
20
-2.58539419407194
30
0
41
1
10
48.9166666666667
20
-2.01224298889451
30
0
41
1
10
47.4583333333334
20
-1.4884290769042
30
0
41
1
10
46
20
-0.951449708256234
30
0
41
1
10
44.75
20
-0.485630847390951
30
0
41
1
10
43.5000000000001
20
-0.0188548591683571
30
0
41
1
10
42.25
20
0.444479745722248
30
0
41
1
10
41
20
0.90040692640261
30
0
41
1
10
39.7500000000001
20
1.34553726391718
30
0
41
1
10
38.5
20
1.77518165813953
30
0
41
1
10
37.3541666666668
20
2.15101435109256
30
0
41
1
10
36.4166666666667
20
2.44331050621619
30
0
41
1
10
35.7916666666667
20
2.63027595723594
30
0
41
1
10
35.375
20
2.75156088921813
30
0
41
1
10
35.0625000000001
20
2.84078883576007
30
0
41
1
10
34.75
20
2.92822844957419
30
0
41
1
10
34.4635416666666
20
3.00669500491219
30
0
41
1
10
34.2291666666668
20
3.06965521440802
30
0
41
1
10
34.0794270833333
20
3.10930335748475
30
0
41
1
10
33.9882812500001
20
3.1332417049037
30
0
41
1
10
33.939453125
20
3.14600849874194
30
0
41
1
10
33.900390625
20
3.15618739161965
30
0
41
1
10
33.8759765625001
20
3.16253477610749
30
0
41
1
10
33.8572591145833
20
3.1673927929196
30
0
41
1
10
33.8458658854167
20
3.17034675170021
30
0
41
1
10
33.8369140625
20
3.17266594921742
30
0
41
1
10
33.8295898437501
20
3.17456238768841
30
0
41
1
10
33.8181966145833
20
3.17751071166234
30
0
41
1
10
33.7994791666669
20
3.18234928966112
30
0
41
1
10
33.7701822916666
20
3.1899081901382
30
0
41
1
10
33.734375
20
3.19912193864911
30
0
41
1
10
33.6888020833334
20
3.21081219786197
30
0
41
1
10
33.6367187499999
20
3.22412045155281
30
0
41
1
10
33.5585937500001
20
3.24398877261416
30
0
41
1
10
33.4609374999999
20
3.26864710012634
30
0
41
1
10
33.3307291666668
20
3.30120757257822
30
0
41
1
10
33.1875000000001
20
3.33661374354921
30
0
41
1
10
33.0052083333333
20
3.38107328712618
30
0
41
1
10
32.796875
20
3.43101461933406
30
0
41
1
10
32.5625000000001
20
3.48600826488797
30
0
41
1
10
32.328125
20
3.53979577253438
30
0
41
1
10
32.1197916666667
20
3.58652119675375
30
0
41
1
10
31.9375
20
3.62660477016519
30
0
41
1
10
31.7812500000001
20
3.66040852275475
30
0
41
1
10
31.6380208333334
20
3.69088398408076
30
0
41
1
10
31.5078125
20
3.71817924326734
30
0
41
1
10
31.4036458333334
20
3.73973302454982
30
0
41
1
10
31.3190104166667
20
3.75705326483717
30
0
41
1
10
31.25390625
20
3.77027268566965
30
0
41
1
10
31.205078125
20
3.78012033221367
30
0
41
1
10
31.166015625
20
3.78795820072554
30
0
41
1
10
31.1416015625
20
3.7928400781548
30
0
41
1
10
31.1228841145832
20
3.79657318488594
30
0
41
1
10
31.1118977864583
20
3.79876088703742
30
0
41
1
10
31.1045735677083
20
3.80021777745827
30
0
41
1
10
31.1000976562501
20
3.80110758504918
30
0
41
1
10
31.096435546875
20
3.80183529378195
30
0
41
1
10
31.091552734375
20
3.80280515115078
30
0
41
1
10
31.0838216145834
20
3.80433975876858
30
0
41
1
10
31.0724283854167
20
3.80659866543996
30
0
41
1
10
31.0537109375
20
3.81030380434905
30
0
41
1
10
31.0227864583335
20
3.81640931818492
30
0
41
1
10
30.9772135416666
20
3.82536489920312
30
0
41
1
10
30.9023437500001
20
3.8399825226652
30
0
41
1
10
30.8168599169136
20
3.85649416636849
30
0
41
1
10
30.7509073338273
20
3.86907751702228
30
0
41
1
10
30.7240172507409
20
3.87418198968999
30
0
0
SPLINE
5
F1
100
AcDbEntity
8
1
62
256
6
ByLayer
370
18
48
1
60
0
100
AcDbSpline
70
4
71
3
72
8
73
4
40
0
40
0
40
0
40
0
40
1
40
1
40
1
40
1
41
1
10
21.0000000000001
20
5.98198479341704
30
0
41
1
10
21.0000000000001
20
5.98194211195053
30
0
41
1
10
21.0000000000001
20
5.97423632667727
30
0
41
1
10
21.0000000000001
20
5.95892479342695
30
0
0
SPLINE
5
F2
100
AcDbEntity
8
1
62
256
6
ByLayer
370
18
48
1
60
0
100
AcDbSpline
70
4
71
3
72
22
73
18
40
0
40
0
40
0
40
0
40
0.124999999999997
40
0.124999999999997
40
0.187499999999995
40
0.187499999999995
40
0.249999999999994
40
0.249999999999994
40
0.499999999999998
40
0.499999999999998
40
0.750000000000001
40
0.750000000000001
40
0.812499999999999
40
0.812499999999999
40
0.874999999999997
40
0.874999999999997
40
1
40
1
40
1
40
1
41
1
10
58.6024684087898
20
-8.20624148684087
30
0
41
1
10
58.6437830150311
20
-8.19861288827491
30
0
41
1
10
58.6861846143303
20
-8.18722329504203
30
0
41
1
10
58.751371061249
20
-8.16465810113019
30
0
41
1
10
58.7733642210113
20
-8.15622173948049
30
0
41
1
10
58.8178752964674
20
-8.13753336129312
30
0
41
1
10
58.8403761406573
20
-8.12728597872916
30
0
41
1
10
58.9535394556387
20
-8.07187833692646
30
0
41
1
10
59.0466583678858
20
-8.01402588406262
30
0
41
1
10
59.2376205819257
20
-7.87363115192881
30
0
41
1
10
59.3354586932699
20
-7.79111599812757
30
0
41
1
10
59.4605969813451
20
-7.67312672455498
30
0
41
1
10
59.4857673973102
20
-7.64878280966784
30
0
41
1
10
59.5363939456138
20
-7.59860181604799
30
0
41
1
10
59.5618472612121
20
-7.5727663349104
30
0
41
1
10
59.6383994371225
20
-7.49326533509102
30
0
41
1
10
59.6897680462777
20
-7.43753179383376
30
0
41
1
10
59.7414681504855
20
-7.37908445388919
30
0
0
SPLINE
5
F3
100
AcDbEntity
8
1
62
256
6
ByLayer
370
18
48
1
60
0
100
AcDbSpline
70
4
71
3
72
35
73
31
40
0
40
0
40
0
40
0
40
0.0624999999999931
40
0.0624999999999931
40
0.124999999999986
40
0.124999999999986
40
0.187499999999979
40
0.187499999999979
40
0.218749999999977
40
0.234374999999978
40
0.234374999999978
40
0.249999999999979
40
0.249999999999979
40
0.312499999999978
40
0.312499999999978
40
0.374999999999977
40
0.374999999999977
40
0.499999999999979
40
0.499999999999979
40
0.562499999999982
40
0.562499999999982
40
0.593749999999982
40
0.593749999999982
40
0.624999999999981
40
0.624999999999981
40
0.749999999999988
40
0.749999999999988
40
0.874999999999994
40
0.874999999999994
40
1
40
1
40
1
40
1
41
1
10
54.7602023669507
20
-6.78701281483501
30
0
41
1
10
54.8054388850853
20
-6.88321706103181
30
0
41
1
10
54.8555992573787
20
-6.97217258519373
30
0
41
1
10
54.9639060853359
20
-7.13832681015464
30
0
41
1
10
55.0220664254141
20
-7.21550506998264
30
0
41
1
10
55.14522277064
20
-7.35979836909885
30
0
41
1
10
55.2102253553451
20
-7.4269037221992
30
0
41
1
10
55.3122740602738
20
-7.52087101953367
30
0
41
1
10
55.3644382403803
20
-7.56617665489514
30
0
41
1
10
55.418228491495
20
-7.60908844693597
30
0
41
1
10
55.454442211922
20
-7.63717582024617
30
0
41
1
10
55.4727303390301
20
-7.65096174161127
30
0
41
1
10
55.5646393216267
20
-7.71833693898031
30
0
41
1
10
55.6399692556602
20
-7.76752628118996
30
0
41
1
10
55.7937524457779
20
-7.85774331746609
30
0
41
1
10
55.8722049115448
20
-7.89877307673538
30
0
41
1
10
56.1116948090613
20
-8.01106359214796
30
0
41
1
10
56.2768352959606
20
-8.07160252969652
30
0
41
1
10
56.5313880465065
20
-8.14453184429416
30
0
41
1
10
56.6173883147832
20
-8.16583821054357
30
0
41
1
10
56.7480029549018
20
-8.19357954612457
30
0
41
1
10
56.7918487773256
20
-8.20212940080341
30
0
41
1
10
56.879884305241
20
-8.21782807338209
30
0
41
1
10
56.9240163127027
20
-8.22496812685063
30
0
41
1
10
57.1452229790394
20
-8.25727463818308
30
0
41
1
10
57.3239281058242
20
-8.27231830712225
30
0
41
1
10
57.6843603419487
20
-8.28364361273159
30
0
41
1
10
57.8660904378683
20
-8.27990670716801
30
0
41
1
10
58.2322763507339
20
-8.25551020872382
30
0
41
1
10
58.4167338884887
20
-8.23483993217152
30
0
41
1
10
58.6024684087898
20
-8.20624148684087
30
0
0
SPLINE
5
F4
100
AcDbEntity
8
1
62
256
6
ByLayer
370
18
48
1
60
0
100
AcDbSpline
70
4
71
3
72
84
73
80
40
0
40
0
40
0
40
0
40
0.0188151225302202
40
0.074353889179453
40
0.129892655828686
40
0.166918500261508
40
0.22245726691074
40
0.259483111343562
40
0.296508955776384
40
0.333534800209206
40
0.370560644642028
40
0.40758648907485
40
0.444612333507672
40
0.481638177940494
40
0.518664022373316
40
0.546433405697932
40
0.564946327914343
40
0.574202789022548
40
0.583459250130754
40
0.592715711238959
40
0.601972172347165
40
0.608914518178319
40
0.613542748732422
40
0.61527833519021
40
0.617013921647999
40
0.617881714876893
40
0.618749508105787
40
0.619183404720234
40
0.619544985232274
40
0.619761933539497
40
0.619978881846721
40
0.620195830153944
40
0.620774358973207
40
0.621642152202101
40
0.622799209840627
40
0.623956267479153
40
0.625691853936941
40
0.62742744039473
40
0.630898613310307
40
0.634369786225884
40
0.638998016779987
40
0.643626247334089
40
0.650568593165244
40
0.657510938996398
40
0.664453284827552
40
0.671395630658706
40
0.676023861212809
40
0.680652091766911
40
0.685280322321014
40
0.688751495236591
40
0.692222668152168
40
0.69453678342922
40
0.696272369887008
40
0.698007956344797
40
0.698875749573691
40
0.699743542802585
40
0.700177439417032
40
0.700539019929072
40
0.700719810185091
40
0.700828284338703
40
0.700936758492315
40
0.701045232645926
40
0.70126218095315
40
0.701623761465189
40
0.702057658079636
40
0.702925451308531
40
0.704371773356688
40
0.706107359814476
40
0.709578532730053
40
0.71304970564563
40
0.717677936199733
40
0.726934397307939
40
0.750075550078452
40
0.777844933403069
40
0.814870777835891
40
0.851896622268712
40
0.888922466701534
40
0.925948311134356
40
1
40
1
40
1
40
1
41
1
10
54.7602023437425
20
-6.78701281120436
30
0
41
1
10
54.5484682291617
20
-6.75307279746289
30
0
41
1
10
53.7117341145809
20
-6.61145918408351
30
0
41
1
10
52.25
20
-6.31365615239966
30
0
41
1
10
50.5833333333333
20
-5.88870716526941
30
0
41
1
10
48.9166666666667
20
-5.39913534933163
30
0
41
1
10
47.4583333333334
20
-4.91866906131446
30
0
41
1
10
46
20
-4.39243903452052
30
0
41
1
10
44.75
20
-3.91295281523478
30
0
41
1
10
43.5000000000001
20
-3.40797574186064
30
0
41
1
10
42.25
20
-2.88047552752224
30
0
41
1
10
41
20
-2.33333278869071
30
0
41
1
10
39.7500000000001
20
-1.77059497807016
30
0
41
1
10
38.5
20
-1.19609372142582
30
0
41
1
10
37.3541666666668
20
-0.662195732033268
30
0
41
1
10
36.4166666666667
20
-0.222679844882805
30
0
41
1
10
35.7916666666667
20
0.0706939355530096
30
0
41
1
10
35.375
20
0.266184592198499
30
0
41
1
10
35.0625000000001
20
0.412671669095943
30
0
41
1
10
34.75
20
0.559054401950732
30
0
41
1
10
34.4635416666665
20
0.692781911854922
30
0
41
1
10
34.2291666666668
20
0.802640410385209
30
0
41
1
10
34.0794270833333
20
0.871892149760555
30
0
41
1
10
33.9882812500001
20
0.914716417376326
30
0
41
1
10
33.939453125
20
0.936979407965595
30
0
41
1
10
33.9003906249999
20
0.955800261425537
30
0
41
1
10
33.8759765625001
20
0.966274198568783
30
0
41
1
10
33.8572591145833
20
0.976174498759462
30
0
41
1
10
33.8458658854167
20
0.980084909545837
30
0
41
1
10
33.8369140624999
20
0.985598381506691
30
0
41
1
10
33.8295898437502
20
0.985973790574462
30
0
41
1
10
33.8181966145833
20
0.993525761518725
30
0
41
1
10
33.7994791666669
20
0.999239873643631
30
0
41
1
10
33.7701822916665
20
1.01566748108502
30
0
41
1
10
33.734375
20
1.03124031361705
30
0
41
1
10
33.6888020833334
20
1.05279592574186
30
0
41
1
10
33.6367187500001
20
1.07680796486667
30
0
41
1
10
33.55859375
20
1.11323635435025
30
0
41
1
10
33.4609374999999
20
1.15849767412132
30
0
41
1
10
33.3307291666668
20
1.2186081776187
30
0
41
1
10
33.1875
20
1.2843197416087
30
0
41
1
10
33.0052083333333
20
1.36926736365388
30
0
41
1
10
32.796875
20
1.46334637684296
30
0
41
1
10
32.5625
20
1.57323777800337
30
0
41
1
10
32.328125
20
1.68031753997619
30
0
41
1
10
32.1197916666667
20
1.77711220964994
30
0
41
1
10
31.9375000000001
20
1.8585518725335
30
0
41
1
10
31.78125
20
1.92976072982194
30
0
41
1
10
31.6380208333334
20
1.99517321768823
30
0
41
1
10
31.5078125
20
2.05230664589556
30
0
41
1
10
31.4036458333334
20
2.09972068938066
30
0
41
1
10
31.3190104166667
20
2.13700347936864
30
0
41
1
10
31.25390625
20
2.16792465340151
30
0
41
1
10
31.2050781250001
20
2.18704928970632
30
0
41
1
10
31.1660156249999
20
2.20842600645739
30
0
41
1
10
31.1416015625001
20
2.2140840805217
30
0
41
1
10
31.1228841145831
20
2.22961886757503
30
0
41
1
10
31.1118977864584
20
2.22653158858861
30
0
41
1
10
31.1045735677083
20
2.23568344418223
30
0
41
1
10
31.1000976562501
20
2.23329201056117
30
0
41
1
10
31.096435546875
20
2.23625118258241
30
0
41
1
10
31.091552734375
20
2.23760822393098
30
0
41
1
10
31.0838216145834
20
2.24177163788241
30
0
41
1
10
31.0724283854167
20
2.24599357767258
30
0
41
1
10
31.0537109375
20
2.25506521546015
30
0
41
1
10
31.0227864583335
20
2.2681547268655
30
0
41
1
10
30.9772135416666
20
2.28922292073872
30
0
41
1
10
30.9023437500001
20
2.32178758379283
30
0
41
1
10
30.8046875
20
2.36559043137248
30
0
41
1
10
30.6744791666668
20
2.42284355970466
30
0
41
1
10
30.4791666666666
20
2.50907572499315
30
0
41
1
10
30.0625000000001
20
2.6914827835449
30
0
41
1
10
29.3854166666666
20
2.9845147648104
30
0
41
1
10
28.3958333333334
20
3.40149655663254
30
0
41
1
10
27.2500000000001
20
3.86727691886358
30
0
41
1
10
26.0000000000001
20
4.35018964322501
30
0
41
1
10
24.7500000000001
20
4.80478373812181
30
0
41
1
10
23.0833333333333
20
5.36872836739926
30
0
41
1
10
21.8333333333334
20
5.73937769554277
30
0
41
1
10
21.0000000000001
20
5.95892479342695
30
0
0
SPLINE
5
F5
100
AcDbEntity
8
1
62
256
6
ByLayer
370
18
48
1
60
0
100
AcDbSpline
70
4
71
3
72
15
73
11
40
0
40
0
40
0
40
0
40
0.125
40
0.25
40
0.375
40
0.5
40
0.625
40
0.75
40
0.875
40
1
40
1
40
1
40
1
41
1
10
21.0000000000001
20
5.95892479342695
30
0
41
1
10
21.0000000000001
20
5.95502387921081
30
0
41
1
10
21.0000000000001
20
5.91620063292768
30
0
41
1
10
21.0000000000001
20
5.76516465114921
30
0
41
1
10
21.0000000000001
20
5.52159069821579
30
0
41
1
10
21.0000000000001
20
5.19157781561776
30
0
41
1
10
21.0000000000001
20
4.78122504484548
30
0
41
1
10
21.0000000000001
20
4.30167054370989
30
0
41
1
10
21.0000000000001
20
3.76405247002194
30
0
41
1
10
21.0000000000001
20
3.37629560155435
30
0
41
1
10
21.0000000000001
20
3.17742201974147
30
0
0
SPLINE
5
F6
100
AcDbEntity
8
1
62
256
6
ByLayer
370
18
48
1
60
0
100
AcDbSpline
70
4
71
3
72
27
73
23
40
0
40
0
40
0
40
0
40
0.0625
40
0.0625
40
0.125
40
0.125
40
0.25
40
0.25
40
0.375
40
0.375
40
0.40625
40
0.40625
40
0.4375
40
0.499999999999999
40
0.499999999999999
40
0.625
40
0.625
40
0.75
40
0.75
40
0.875
40
0.875
40
1
40
1
40
1
40
1
41
1
10
54.9564097625323
20
5.31666385615458
30
0
41
1
10
55.011693729605
20
5.27658985494631
30
0
41
1
10
55.0685941272986
20
5.23427466170733
30
0
41
1
10
55.1851803924686
20
5.14578222368385
30
0
41
1
10
55.2448679536839
20
5.09960262482534
30
0
41
1
10
55.4276246252145
20
4.95594210199175
30
0
41
1
10
55.5543625633601
20
4.85337433625639
30
0
41
1
10
55.8159165156597
20
4.63703852603635
30
0
41
1
10
55.9507468128015
20
4.52325067814246
30
0
41
1
10
56.1236989120181
20
4.37489552703863
30
0
41
1
10
56.1585443674542
20
4.34488822972071
30
0
41
1
10
56.2284973341271
20
4.28442223860901
30
0
41
1
10
56.3337444570247
20
4.19311192497355
30
0
41
1
10
56.4399017443195
20
4.10005009881681
30
0
41
1
10
56.6533364349533
20
3.91177090484223
30
0
41
1
10
56.7971153772498
20
3.78338573757597
30
0
41
1
10
57.0872889224743
20
3.52158184826888
30
0
41
1
10
57.2336852817326
20
3.38815974636106
30
0
41
1
10
57.5288555964445
20
3.11674011692
30
0
41
1
10
57.6776305059056
20
2.97874075350291
30
0
41
1
10
57.9773997261613
20
2.69847102987177
30
0
41
1
10
58.128394571814
20
2.5561996403811
30
0
41
1
10
58.2804494101491
20
2.4118884101089
30
0
0
SPLINE
5
F7
100
AcDbEntity
8
1
62
256
6
ByLayer
370
18
48
1
60
0
100
AcDbSpline
70
4
71
3
72
9
73
5
40
0
40
0
40
0
40
0
40
0.40308314702973
40
1
40
1
40
1
40
1
41
1
10
54.9564097403512
20
5.31666386837622
30
0
41
1
10
54.4709398269008
20
5.51151657318459
30
0
41
1
10
53.2665483334143
20
5.96846055486168
30
0
41
1
10
52.0621568399278
20
6.35755509101807
30
0
41
1
10
51.3432352598916
20
6.55982200561681
30
0
0
SPLINE
5
F8
100
AcDbEntity
8
1
62
256
6
ByLayer
370
18
48
1
60
0
100
AcDbSpline
70
4
71
3
72
22
73
18
40
0
40
0
40
0
40
0
40
0.250000000000013
40
0.250000000000013
40
0.375000000000008
40
0.375000000000008
40
0.500000000000003
40
0.500000000000003
40
0.624999999999999
40
0.624999999999999
40
0.749999999999994
40
0.749999999999994
40
0.874999999999989
40
0.874999999999989
40
0.937499999999995
40
0.937499999999995
40
1
40
1
40
1
40
1
41
1
10
59.7414681514357
20
-7.37908445399131
30
0
41
1
10
59.7629401745729
20
-7.35481003805799
30
0
41
1
10
59.7840098808275
20
-7.33337938006324
30
0
41
1
10
59.8149514979295
20
-7.30591939084343
30
0
41
1
10
59.8251629726985
20
-7.29754946067231
30
0
41
1
10
59.8451769638021
20
-7.28265635832892
30
0
41
1
10
59.8549992170912
20
-7.27611344400546
30
0
41
1
10
59.8742349716506
20
-7.26502695963671
30
0
41
1
10
59.8836620166096
20
-7.26048437006281
30
0
41
1
10
59.9017892393476
20
-7.25377392569231
30
0
41
1
10
59.9105216094998
20
-7.25158272809318
30
0
41
1
10
59.9272325436801
20
-7.24984930534754
30
0
41
1
10
59.9352123333511
20
-7.25030277313368
30
0
41
1
10
59.9465020506047
20
-7.25337246790548
30
0
41
1
10
59.950159491619
20
-7.25480185751363
30
0
41
1
10
59.9571533649919
20
-7.25852545144315
30
0
41
1
10
59.9604951086766
20
-7.26081872899621
30
0
41
1
10
59.963666454013
20
-7.26358576176656
30
0
0
SPLINE
5
F9
100
AcDbEntity
8
1
62
256
6
ByLayer
370
13
48
1
60
0
100
AcDbSpline
70
4
71
3
72
82
73
78
40
0
40
0
40
0
40
0
40
0.032906579332974
40
0.0740594908507197
40
0.135788858127338
40
0.176941769645084
40
0.21809468116283
40
0.259247592680576
40
0.300400504198322
40
0.341553415716067
40
0.382706327233813
40
0.423859238751559
40
0.465012150269305
40
0.495876833907614
40
0.516453289666487
40
0.526741517545923
40
0.53702974542536
40
0.547317973304796
40
0.557606201184233
40
0.56532237209381
40
0.570466486033528
40
0.572395528760923
40
0.574324571488317
40
0.575289092852014
40
0.576253614215711
40
0.57673587489756
40
0.5771377587991
40
0.577378889140025
40
0.577620019480949
40
0.577861149821873
40
0.578504164064338
40
0.579468685428035
40
0.580754713912965
40
0.582040742397894
40
0.583969785125289
40
0.585898827852683
40
0.589756913307472
40
0.59361499876226
40
0.598759112701979
40
0.603903226641697
40
0.611619397551274
40
0.619335568460851
40
0.627051739370429
40
0.634767910280006
40
0.639912024219724
40
0.645056138159443
40
0.650200252099161
40
0.654058337553949
40
0.657916423008738
40
0.660488479978597
40
0.662417522705992
40
0.664346565433386
40
0.665311086797083
40
0.66627560816078
40
0.666757868842629
40
0.667159752744169
40
0.66736069469494
40
0.667481259865402
40
0.667601825035864
40
0.667722390206326
40
0.66796352054725
40
0.668365404448791
40
0.668847665130639
40
0.669812186494336
40
0.671419722100498
40
0.673348764827893
40
0.677206850282681
40
0.68106493573747
40
0.686209049677188
40
0.696497277556625
40
0.722217847255216
40
0.753082530893525
40
0.794235442411271
40
0.835388353929017
40
0.876541265446763
40
0.917694176964509
40
1
40
1
40
1
40
1
41
1
10
51.3745216048924
20
-8.79097055729267
30
0
41
1
10
51.041347736595
20
-8.79703660070408
30
0
41
1
10
50.2915072016308
20
-8.79678338163995
30
0
41
1
10
48.9166666666666
20
-8.73927467945799
30
0
41
1
10
47.4583333333334
20
-8.59446078888868
30
0
41
1
10
45.9999999999999
20
-8.36722227752045
30
0
41
1
10
44.75
20
-8.11706963438676
30
0
41
1
10
43.5
20
-7.81317844149456
30
0
41
1
10
42.2499999999999
20
-7.45772137065964
30
0
41
1
10
41
20
-7.0532433667083
30
0
41
1
10
39.75
20
-6.60312284755574
30
0
41
1
10
38.4999999999999
20
-6.109760542169
30
0
41
1
10
37.3541666666667
20
-5.62038768547924
30
0
41
1
10
36.4166666666666
20
-5.19555361041296
30
0
41
1
10
35.7916666666666
20
-4.90156592122867
30
0
41
1
10
35.375
20
-4.70152349043297
30
0
41
1
10
35.0625
20
-4.54953298186285
30
0
41
1
10
34.7499999999999
20
-4.39565213366654
30
0
41
1
10
34.4635416666665
20
-4.25292621328171
30
0
41
1
10
34.2291666666667
20
-4.13500313516471
30
0
41
0.999999999999999
10
34.0794270833332
20
-4.05915625279792
30
0
41
1
10
33.98828125
20
-4.01282251686888
30
0
41
1
10
33.939453125
20
-3.98795275522948
30
0
41
1
10
33.9003906249999
20
-3.96802832157783
30
0
41
1
10
33.8759765624999
20
-3.95556367513094
30
0
41
1
10
33.8572591145832
20
-3.94600064741511
30
0
41
1
10
33.8458658854167
20
-3.94017715052055
30
0
41
1
10
33.8369140624999
20
-3.9356001064416
30
0
41
1
10
33.8295898437501
20
-3.93185436990873
30
0
41
1
10
33.8181966145832
20
-3.92602629769448
30
0
41
1
10
33.7994791666667
20
-3.91644748301888
30
0
41
1
10
33.7701822916666
20
-3.90144285210744
30
0
41
1
10
33.7343749999999
20
-3.88308392108752
30
0
41
0.999999999999999
10
33.6888020833334
20
-3.8596891804684
30
0
41
1
10
33.6367187499999
20
-3.83291139652794
30
0
41
1
10
33.55859375
20
-3.79267169854469
30
0
41
1
10
33.4609374999999
20
-3.74223641032651
30
0
41
0.999999999999999
10
33.3307291666668
20
-3.67475263855721
30
0
41
1
10
33.1875
20
-3.60022245178269
30
0
41
1
10
33.0052083333333
20
-3.50494355115109
30
0
41
1
10
32.7968749999999
20
-3.39546618238358
30
0
41
1
10
32.5625
20
-3.27154416415019
30
0
41
1
10
32.3281249999999
20
-3.146895019879
30
0
41
1
10
32.1197916666666
20
-3.03547882671907
30
0
41
1
10
31.9375
20
-2.93756102555318
30
0
41
0.999999999999999
10
31.78125
20
-2.85334770302927
30
0
41
0.999999999999999
10
31.6380208333334
20
-2.77589873695334
30
0
41
1
10
31.5078124999999
20
-2.7052933883638
30
0
41
1
10
31.4036458333333
20
-2.64867632521919
30
0
41
1
10
31.3190104166666
20
-2.60258669918221
30
0
41
1
10
31.25390625
20
-2.56708621465308
30
0
41
1
10
31.205078125
20
-2.54043097556868
30
0
41
0.999999999999999
10
31.166015625
20
-2.51908903494743
30
0
41
1
10
31.1416015625
20
-2.50574296337029
30
0
41
0.999999999999998
10
31.1228841145832
20
-2.49550676518834
30
0
41
1
10
31.1118977864583
20
-2.48949705563648
30
0
41
0.999999999999999
10
31.1045735677082
20
-2.4854898993834
30
0
41
1
10
31.1000976562501
20
-2.48304085923217
30
0
41
0.999999999999999
10
31.0964355468749
20
-2.48103696269712
30
0
41
1
10
31.0915527343749
20
-2.47836491888577
30
0
41
1
10
31.0838216145832
20
-2.47413375143566
30
0
41
1
10
31.0724283854167
20
-2.467897217965
30
0
41
1
10
31.0537109375
20
-2.45764893997386
30
0
41
1
10
31.0227864583334
20
-2.4407101411625
30
0
41
0.999999999999999
10
30.9772135416665
20
-2.41572981837084
30
0
41
1
10
30.90234375
20
-2.37465067438754
30
0
41
1
10
30.8046874999999
20
-2.32098462560302
30
0
41
1
10
30.6744791666667
20
-2.24928283891703
30
0
41
1
10
30.4791666666665
20
-2.14147861645682
30
0
41
1
10
30.0625
20
-1.91060510048996
30
0
41
0.999999999999997
10
29.3854166666667
20
-1.53227893999131
30
0
41
1
10
28.3958333333334
20
-0.973451235365842
30
0
41
0.999999999999999
10
27.25
20
-0.320339665733229
30
0
41
1
10
26
20
0.39491535807889
30
0
41
1
10
24.75
20
1.10783689400614
30
0
41
1
10
23.0833333333332
20
2.04833649719566
30
0
41
0.999999999999999
10
21.8333333333334
20
2.73465284992375
30
0
41
1
10
21
20
3.17742201974147
30
0
0
SPLINE
5
FA
100
AcDbEntity
8
1
62
256
6
ByLayer
370
13
48
1
60
0
100
AcDbSpline
70
4
71
3
72
13
73
9
40
0
40
0
40
0
40
0
40
0.0973670126484043
40
0.306418531095924
40
0.515470049543444
40
0.724521567990964
40
0.933573086438484
40
1
40
1
40
1
40
1
41
1
10
59.6643901629067
20
-0.90279829482887
30
0
41
1
10
59.2762601086045
20
-0.647237999901279
30
0
41
1
10
58.0547967209689
20
0.160348612542009
30
0
41
1
10
56
20
1.52873303073918
30
0
41
1
10
53.5
20
3.1250889985204
30
0
41
1
10
51
20
4.62951805104154
30
0
41
1
10
49.0685385032725
20
5.65308093535108
30
0
41
1
10
47.9704103398784
20
6.17573014473805
30
0
41
1
10
47.7056155098176
20
6.29807648317265
30
0
0
SPLINE
5
FB
100
AcDbEntity
8
1
62
256
6
ByLayer
370
18
48
1
60
0
100
AcDbSpline
70
4
71
3
72
8
73
4
40
0
40
0
40
0
40
0
40
1
40
1
40
1
40
1
41
1
10
60.4496161593314
20
-4.92298344693469
30
0
41
1
10
60.3971841890482
20
-4.61640767091825
30
0
41
1
10
60.3447522187651
20
-4.30983189490181
30
0
41
1
10
60.2923202484819
20
-4.00325611888533
30
0
0
SPLINE
5
FC
100
AcDbEntity
8
1
62
256
6
ByLayer
370
18
48
1
60
0
100
AcDbSpline
70
4
71
3
72
25
73
21
40
0
40
0
40
0
40
0
40
0.0625000000000006
40
0.0937500000000009
40
0.0937500000000009
40
0.125000000000001
40
0.125000000000001
40
0.25
40
0.25
40
0.374999999999999
40
0.374999999999999
40
0.499999999999997
40
0.499999999999997
40
0.624999999999996
40
0.624999999999996
40
0.687499999999997
40
0.687499999999997
40
0.749999999999999
40
0.749999999999999
40
1
40
1
40
1
40
1
41
1
10
58.2804494101488
20
2.4118884101089
30
0
41
1
10
58.3034092282526
20
2.34824875701131
30
0
41
1
10
58.3387064295672
20
2.25162263935266
30
0
41
1
10
58.3752624668677
20
2.15328381012316
30
0
41
1
10
58.3999107591989
20
2.08734690037124
30
0
41
1
10
58.4123871721768
20
2.05415409981049
30
0
41
1
10
58.4752230531073
20
1.8878732733468
30
0
41
1
10
58.5270151385131
20
1.75362933972528
30
0
41
1
10
58.6333869471011
20
1.48291032302035
30
0
41
1
10
58.6879676569716
20
1.34643445021805
30
0
41
1
10
58.7997495981451
20
1.07138531052911
30
0
41
1
10
58.8569513752967
20
0.932811606759969
30
0
41
1
10
58.9738750164781
20
0.653647190221506
30
0
41
1
10
59.0335971610354
20
0.51305625292602
30
0
41
1
10
59.1250362543439
20
0.300684453927772
30
0
41
1
10
59.1558684204596
20
0.229548618805183
30
0
41
1
10
59.2178484663037
20
0.0874731987345285
30
0
41
1
10
59.2490127895932
20
0.0164939918209086
30
0
41
1
10
59.4056866510283
20
-0.338115990611868
30
0
41
1
10
59.5337366308181
20
-0.62089407845977
30
0
41
1
10
59.664390160399
20
-0.902798296762683
30
0
0
SPLINE
5
FD
100
AcDbEntity
8
1
62
256
6
ByLayer
370
18
48
1
60
0
100
AcDbSpline
70
4
71
3
72
18
73
14
40
0
40
0
40
0
40
0
40
0.249999999999988
40
0.249999999999988
40
0.499999999999976
40
0.499999999999976
40
0.624999999999982
40
0.624999999999982
40
0.749999999999988
40
0.749999999999988
40
0.874999999999994
40
0.874999999999994
40
1
40
1
40
1
40
1
41
1
10
59.664390162077
20
-0.902798296058364
30
0
41
1
10
59.6867434859276
20
-0.951028871193955
30
0
41
1
10
59.7086088906669
20
-0.999247431902006
30
0
41
1
10
59.7512803532436
20
-1.09565846498589
30
0
41
1
10
59.7720902899028
20
-1.14385103364057
30
0
41
1
10
59.8023189776989
20
-1.21611560065881
30
0
41
1
10
59.8122243701189
20
-1.24019245469404
30
0
41
1
10
59.831360471971
20
-1.28763260993239
30
0
41
1
10
59.8406262473637
20
-1.31107776666781
30
0
41
1
10
59.8584402567274
20
-1.35731547316246
30
0
41
1
10
59.8669268056059
20
-1.37995062560071
30
0
41
1
10
59.8827652432739
20
-1.42370648906777
30
0
41
1
10
59.8901402669105
20
-1.4448832767828
30
0
41
1
10
59.8968254730502
20
-1.46517129989081
30
0
0
SPLINE
5
FE
100
AcDbEntity
8
1
62
256
6
ByLayer
370
13
48
1
60
0
100
AcDbSpline
70
4
71
3
72
8
73
4
40
0
40
0
40
0
40
0
40
1
40
1
40
1
40
1
41
1
10
60.4946750744419
20
-4.92386954124132
30
0
41
1
10
60.4443106705662
20
-4.62938306441424
30
0
41
1
10
60.3939462666905
20
-4.33489658758717
30
0
41
1
10
60.3435818628149
20
-4.04041011076009
30
0
0
SPLINE
5
FF
100
AcDbEntity
8
1
62
256
6
ByLayer
370
18
48
1
60
0
100
AcDbSpline
70
4
71
5
72
34
73
28
40
0
40
0
40
0
40
0
40
0
40
0
40
0.0119107453903066
40
0.0443369392304369
40
0.109263905425583
40
0.17254118805097
40
0.205033344752177
40
0.237667403343394
40
0.303142907121872
40
0.335909092019538
40
0.368023395792455
40
0.40001171123019
40
0.432604669261679
40
0.498109425574873
40
0.563791296067056
40
0.595856253489742
40
0.62791407046348
40
0.660598425708049
40
0.72627474614447
40
0.792098904304621
40
0.823944510199785
40
0.855956804004188
40
0.888705399636523
40
0.954500121806999
40
1
40
1
40
1
40
1
40
1
40
1
41
1
10
60.9956890774027
20
-4.73319270470151
30
0
41
1
10
60.9956739620101
20
-4.73407221986832
30
0
41
1
10
60.9955874996957
20
-4.73734297095197
30
0
41
1
10
60.9950976359745
20
-4.74537255007917
30
0
41
1
10
60.9932514714836
20
-4.75791039280591
30
0
41
1
10
60.9890602043649
20
-4.772511851757
30
0
41
1
10
60.9819340890552
20
-4.78826798576563
30
0
41
1
10
60.9711023378854
20
-4.80555854747706
30
0
41
1
10
60.9593361465057
20
-4.82002020807403
30
0
41
1
10
60.9475459954041
20
-4.8320104259243
30
0
41
1
10
60.9341140714447
20
-4.84350638301092
30
0
41
1
10
60.9190335161806
20
-4.85449480386686
30
0
41
1
10
60.9027627018364
20
-4.86498303412273
30
0
41
1
10
60.8821769746879
20
-4.87641315335236
30
0
41
1
10
60.8597639219186
20
-4.88684566615956
30
0
41
1
10
60.8354874079759
20
-4.89631613060962
30
0
41
1
10
60.8092554170841
20
-4.90480966805288
30
0
41
1
10
60.7817721349372
20
-4.91236498492492
30
0
41
1
10
60.7532618256038
20
-4.91893088659359
30
0
41
1
10
60.723610840526
20
-4.92430668068545
30
0
41
1
10
60.6927500799566
20
-4.9285206252963
30
0
41
1
10
60.6605992506901
20
-4.93154502286006
30
0
41
1
10
60.6278518587165
20
-4.93353343263709
30
0
41
1
10
60.5977102719257
20
-4.93439572434195
30
0
41
1
10
60.5719279573968
20
-4.93426954446656
30
0
41
1
10
60.5506236796447
20
-4.93359695182343
30
0
41
1
10
60.5340384752761
20
-4.93273146935246
30
0
41
1
10
60.5272402368186
20
-4.93231971607307
30
0
0
SPLINE
5
100
100
AcDbEntity
8
1
62
256
6
ByLayer
370
13
48
1
60
0
100
AcDbSpline
70
4
71
1
72
4
73
2
40
0
40
0
40
1
40
1
41
1
10
60.7851089555224
20
-3.49815868160843
30
0
41
1
10
60.995613101342
20
-4.72900069480599
30
0
0
SPLINE
5
101
100
AcDbEntity
8
1
62
256
6
ByLayer
370
13
48
1
60
0
100
AcDbSpline
70
4
71
3
72
9
73
5
40
0
40
0
40
0
40
0
40
0.874630524138081
40
1
40
1
40
1
40
1
41
1
10
21
20
-2.29635730234537
30
0
41
1
10
22.6666666666666
20
-2.70226045945429
30
0
41
1
10
24.5722332123908
20
-3.11929595161732
30
0
41
1
10
26.4777997581149
20
-3.45955111030918
30
0
41
1
10
26.7166996371723
20
-3.50095167021604
30
0
0
SPLINE
5
102
100
AcDbEntity
8
1
62
256
6
ByLayer
370
13
48
1
60
0
100
AcDbSpline
70
4
71
3
72
78
73
74
40
0
40
0
40
0
40
0
40
0.0225671023194207
40
0.0539766216112436
40
0.0665404293279729
40
0.0728223331863374
40
0.0775337610801109
40
0.0822451889738843
40
0.0846009029207711
40
0.08656399787651
40
0.0877418548499533
40
0.0883307833366751
40
0.0888215570756098
40
0.0891160213189706
40
0.0892632534406511
40
0.0894104855623314
40
0.0895577176840119
40
0.0898031045534793
40
0.090293878292414
40
0.0908828067791356
40
0.092060663752579
40
0.0932385207260224
40
0.0955942346729091
40
0.0979499486197958
40
0.101090900548978
40
0.105802328442752
40
0.110513756336525
40
0.11679566019489
40
0.123077564053254
40
0.129359467911619
40
0.138782323699166
40
0.148205179486713
40
0.15762803527426
40
0.167050891061806
40
0.173332794920171
40
0.179614698778536
40
0.184326126672309
40
0.189037554566083
40
0.191393268512969
40
0.193748982459856
40
0.195319458424447
40
0.196889934389038
40
0.198067791362482
40
0.198853029344777
40
0.199147493588138
40
0.199441957831499
40
0.19973642207486
40
0.200227195813794
40
0.200816124300516
40
0.20199398127396
40
0.203171838247403
40
0.20552755219429
40
0.207883266141176
40
0.214165169999541
40
0.223588025787088
40
0.236151833503817
40
0.248715641220546
40
0.261279448937275
40
0.273843256654005
40
0.298970872087463
40
0.336662295237651
40
0.386917526104567
40
0.437172756971484
40
0.487427987838401
40
0.537683218705318
40
0.587938449572234
40
0.638193680439151
40
0.688448911306068
40
0.738704142172985
40
0.81408698847336
40
0.864342219340277
40
0.939725065640652
40
1
40
1
40
1
40
1
41
0.999999999999999
10
28.8761877263787
20
4.23801747454647
30
0
41
0.999999999999999
10
29.0632918175858
20
4.22133641923279
30
0
41
0.999999999999998
10
29.5108125754595
20
4.1784118022352
30
0
41
1
10
30.0625
20
4.11668311301744
30
0
41
1
10
30.4791666666666
20
4.06476454622566
30
0
41
1
10
30.6744791666668
20
4.03937507474714
30
0
41
1
10
30.8046875
20
4.02204172974098
30
0
41
1
10
30.9023437500001
20
4.00878121727462
30
0
41
0.999999999999999
10
30.9772135416666
20
3.99846571164713
30
0
41
1
10
31.0227864583335
20
3.99213137455814
30
0
41
1
10
31.0537109375
20
3.9878058112694
30
0
41
1
10
31.0724283854168
20
3.98517843333658
30
0
41
1
10
31.0838216145834
20
3.98357571169163
30
0
41
1
10
31.091552734375
20
3.98248644954583
30
0
41
0.999999999999999
10
31.096435546875
20
3.98179789033023
30
0
41
1
10
31.1000976562501
20
3.98128116886479
30
0
41
0.999999999999999
10
31.1045735677083
20
3.98064925127202
30
0
41
1
10
31.1118977864583
20
3.97961439900822
30
0
41
0.999999999999998
10
31.1228841145832
20
3.97805985615265
30
0
41
1
10
31.1416015625001
20
3.97540571952672
30
0
41
0.999999999999999
10
31.1660156250001
20
3.97193173516883
30
0
41
1
10
31.205078125
20
3.96634764084038
30
0
41
1
10
31.25390625
20
3.95931934363279
30
0
41
1
10
31.3190104166667
20
3.9498627880312
30
0
41
1
10
31.4036458333334
20
3.93743984639466
30
0
41
1
10
31.5078125
20
3.92192310114433
30
0
41
0.999999999999999
10
31.6380208333334
20
3.9021880413568
30
0
41
0.999999999999999
10
31.7812500000001
20
3.88004600419976
30
0
41
1
10
31.9375
20
3.85535359559071
30
0
41
1
10
32.1197916666667
20
3.82592233078302
30
0
41
1
10
32.328125
20
3.79140121364222
30
0
41
1
10
32.5625
20
3.75138075478722
30
0
41
1
10
32.796875
20
3.7101877387274
30
0
41
1
10
33.0052083333334
20
3.67254024623222
30
0
41
1
10
33.1875000000001
20
3.63885484207677
30
0
41
0.999999999999999
10
33.3307291666668
20
3.61192376848149
30
0
41
1
10
33.4609374999999
20
3.58707484537786
30
0
41
1
10
33.5585937500001
20
3.56820423637356
30
0
41
1
10
33.63671875
20
3.55296828918398
30
0
41
0.999999999999999
10
33.6888020833334
20
3.54274920968681
30
0
41
1
10
33.734375
20
3.53376261400484
30
0
41
1
10
33.7701822916666
20
3.52667355629168
30
0
41
1
10
33.7994791666668
20
3.52085330236391
30
0
41
1
10
33.8181966145833
20
3.51712564246259
30
0
41
1
10
33.8295898437501
20
3.51485356749919
30
0
41
1
10
33.8369140625
20
3.51339187374131
30
0
41
1
10
33.8458658854167
20
3.51160404687204
30
0
41
1
10
33.8572591145832
20
3.50932640491431
30
0
41
1
10
33.8759765625001
20
3.50557953989627
30
0
41
1
10
33.900390625
20
3.50068160928822
30
0
41
1
10
33.939453125
20
3.49282210027582
30
0
41
1
10
33.9882812500001
20
3.4829550006466
30
0
41
0.999999999999999
10
34.0794270833333
20
3.46443047804326
30
0
41
1
10
34.2291666666668
20
3.43367939282041
30
0
41
1
10
34.4635416666666
20
3.38465115853461
30
0
41
1
10
34.75
20
3.32321748259085
30
0
41
1
10
35.0625000000001
20
3.2543558326168
30
0
41
1
10
35.375
20
3.18369275514973
30
0
41
1
10
35.7916666666667
20
3.08713048060801
30
0
41
1
10
36.4166666666667
20
2.93714852059864
30
0
41
1
10
37.3541666666668
20
2.69994864546848
30
0
41
1
10
38.5
20
2.39055936833125
30
0
41
1
10
39.7500000000001
20
2.03167923944059
30
0
41
1
10
41
20
1.6547872355986
30
0
41
1
10
42.25
20
1.26352996275344
30
0
41
1
10
43.5
20
0.860936511989053
30
0
41
1
10
44.75
20
0.450507805340152
30
0
41
1
10
46
20
0.0360992859475004
30
0
41
1
10
47.4583333333334
20
-0.447364829605931
30
0
41
1
10
48.9166666666667
20
-0.926152296554307
30
0
41
1
10
50.5833333333333
20
-1.45897635501032
30
0
41
1
10
52.1247401374907
20
-1.93218894763493
30
0
41
1
10
53.2494802749815
20
-2.25645122433582
30
0
41
1
10
53.7492204124722
20
-2.39545565721082
30
0
0
SPLINE
5
103
100
AcDbEntity
8
1
62
256
6
ByLayer
370
18
48
1
60
0
100
AcDbSpline
70
4
71
3
72
36
73
32
40
0
40
0
40
0
40
0
40
0.125000000000055
40
0.125000000000055
40
0.187500000000086
40
0.187500000000086
40
0.218750000000101
40
0.218750000000101
40
0.250000000000117
40
0.250000000000117
40
0.375000000000177
40
0.375000000000177
40
0.406250000000188
40
0.406250000000188
40
0.437500000000199
40
0.500000000000221
40
0.562500000000244
40
0.562500000000244
40
0.593750000000255
40
0.593750000000255
40
0.625000000000267
40
0.625000000000267
40
0.750000000000243
40
0.750000000000243
40
0.781250000000219
40
0.781250000000219
40
0.812500000000195
40
0.812500000000195
40
0.875000000000121
40
0.875000000000121
40
1
40
1
40
1
40
1
41
1
10
53.7492204124722
20
-2.39545565721079
30
0
41
1
10
53.7577254927164
20
-2.33929327442686
30
0
41
1
10
53.7736234783829
20
-2.28587410973262
30
0
41
1
10
53.8075608678769
20
-2.20988450002008
30
0
41
1
10
53.8205721743038
20
-2.18524839310695
30
0
41
1
10
53.8426586646787
20
-2.14937430926463
30
0
41
1
10
53.8504239786833
20
-2.13764337395858
30
0
41
1
10
53.8666217110108
20
-2.11480407848521
30
0
41
1
10
53.8750710466258
20
-2.10366786432547
30
0
41
1
10
53.9190234419629
20
-2.04937160388292
30
0
41
1
10
53.9595839105041
20
-2.01033102874001
30
0
41
1
10
54.0169243244888
20
-1.96688334626253
30
0
41
1
10
54.0287265404458
20
-1.95846840879966
30
0
41
1
10
54.0527427771933
20
-1.94234985310683
30
0
41
1
10
54.0894784818969
20
-1.91916720962016
30
0
41
1
10
54.1541750472994
20
-1.88533707628852
30
0
41
1
10
54.2095636115933
20
-1.86317206958412
30
0
41
1
10
54.2524799434863
20
-1.84834267354506
30
0
41
1
10
54.2670500505237
20
-1.84368905461486
30
0
41
1
10
54.2964702720906
20
-1.83503155116821
30
0
41
1
10
54.3113023086421
20
-1.83103082694433
30
0
41
1
10
54.3860613949849
20
-1.81259998866014
30
0
41
1
10
54.4477721821934
20
-1.80285467158768
30
0
41
1
10
54.5272620014625
20
-1.79622580650792
30
0
41
1
10
54.543278305628
20
-1.79517963640748
30
0
41
1
10
54.5755498283477
20
-1.79363631083459
30
0
41
1
10
54.5918381320369
20
-1.79313916963198
30
0
41
1
10
54.6407410787659
20
-1.79246136337386
30
0
41
1
10
54.6734239953908
20
-1.79308580250029
30
0
41
1
10
54.7717307157036
20
-1.79791495674502
30
0
41
1
10
54.8376119072043
20
-1.80505818168257
30
0
41
1
10
54.9038835386291
20
-1.81565921080735
30
0
0
SPLINE
5
104
100
AcDbEntity
8
1
62
256
6
ByLayer
370
18
48
1
60
0
100
AcDbSpline
70
4
71
3
72
10
73
6
40
0
40
0
40
0
40
0
40
0.272197764248937
40
0.272197764248937
40
1
40
1
40
1
40
1
41
1
10
56.3627508374727
20
-2.06827264559388
30
0
41
1
10
56.231240404665
20
-2.04346950062089
30
0
41
1
10
56.0994585094945
20
-2.01926320954371
30
0
41
1
10
55.6144509921511
20
-1.93224096545103
30
0
41
1
10
55.2597856420039
20
-1.87259048716709
30
0
41
1
10
54.9038835386329
20
-1.81565921080795
30
0
0
SPLINE
5
105
100
AcDbEntity
8
1
62
256
6
ByLayer
370
18
48
1
60
0
100
AcDbSpline
70
4
71
3
72
26
73
22
40
0
40
0
40
0
40
0
40
0.250000000000039
40
0.250000000000039
40
0.375000000000037
40
0.375000000000037
40
0.500000000000036
40
0.500000000000036
40
0.625000000000034
40
0.625000000000034
40
0.687500000000028
40
0.687500000000028
40
0.750000000000022
40
0.750000000000022
40
0.812500000000017
40
0.812500000000017
40
0.875000000000011
40
0.875000000000011
40
0.937500000000006
40
0.937500000000006
40
1
40
1
40
1
40
1
41
1
10
60.62746217996
20
-3.33081660461684
30
0
41
1
10
60.6439764018405
20
-3.35698112388272
30
0
41
1
10
60.6603181304868
20
-3.38214303570385
30
0
41
1
10
60.6842847532103
20
-3.4173980470959
30
0
41
1
10
60.692187733588
20
-3.42874027723863
30
0
41
1
10
60.7077681023668
20
-3.45034938180706
30
0
41
1
10
60.7154661860803
20
-3.46064550534942
30
0
41
1
10
60.730452589594
20
-3.47961327692445
30
0
41
1
10
60.7377149695452
20
-3.48826002710626
30
0
41
1
10
60.7480991694566
20
-3.49938278888942
30
0
41
1
10
60.7514816827107
20
-3.50278361350419
30
0
41
1
10
60.7579396848288
20
-3.50871597102682
30
0
41
1
10
60.7610251415268
20
-3.51125971826193
30
0
41
1
10
60.7668415164466
20
-3.51530385419369
30
0
41
1
10
60.769573407757
20
-3.51680710655751
30
0
41
1
10
60.7745781403428
20
-3.51846268947432
30
0
41
1
10
60.7768444989038
20
-3.51859555213497
30
0
41
1
10
60.7806196322069
20
-3.51713750476043
30
0
41
1
10
60.7821519319599
20
-3.51555881952379
30
0
41
1
10
60.7843650209972
20
-3.51036496407346
30
0
41
1
10
60.7850090184141
20
-3.50682760012953
30
0
41
1
10
60.7851836582145
20
-3.50234324595985
30
0
0
SPLINE
5
106
100
AcDbEntity
8
1
62
256
6
ByLayer
370
18
48
1
60
0
100
AcDbSpline
70
4
71
1
72
4
73
2
40
0
40
0
40
1
40
1
41
1
10
60.7851836582144
20
-3.50234324595979
30
0
41
1
10
60.7851089555224
20
-3.49815868160843
30
0
0
SPLINE
5
107
100
AcDbEntity
8
1
62
256
6
ByLayer
370
18
48
1
60
0
100
AcDbSpline
70
4
71
1
72
4
73
2
40
0
40
0
40
1
40
1
41
1
10
60.7851089555224
20
-3.49815868160843
30
0
41
1
10
60.7842789895462
20
-3.45166710354872
30
0
0
SPLINE
5
108
100
AcDbEntity
8
1
62
256
6
ByLayer
370
18
48
1
60
0
100
AcDbSpline
70
4
71
3
72
8
73
4
40
0
40
0
40
0
40
0
40
1
40
1
40
1
40
1
41
1
10
18.569370825478
20
3.86161319206113
30
0
41
1
10
18.827062427321
20
3.76800417060014
30
0
41
1
10
19.089597434005
20
3.66758010091945
30
0
41
1
10
19.3571725664722
20
3.56006418131614
30
0
0
SPLINE
5
109
100
AcDbEntity
8
1
62
256
6
ByLayer
370
18
48
1
60
0
100
AcDbSpline
70
4
71
3
72
8
73
4
40
0
40
0
40
0
40
0
40
1
40
1
40
1
40
1
41
1
10
18.3843164103481
20
1.96130139304674
30
0
41
0.999999935923465
10
18.3859025120424
20
1.96018638315484
30
0
41
0.999999935923465
10
18.3874887253842
20
1.959071307441
30
0
41
1
10
18.3890750500686
20
1.95795616611957
30
0
0
SPLINE
5
10A
100
AcDbEntity
8
1
62
256
6
ByLayer
370
18
48
1
60
0
100
AcDbSpline
70
4
71
3
72
8
73
4
40
0
40
0
40
0
40
0
40
1
40
1
40
1
40
1
41
1
10
18.5265312158536
20
2.58544100084447
30
0
41
0.999911849434278
10
18.5865777947907
20
2.54319420045816
30
0
41
0.999911849434278
10
18.6468052885878
20
2.50083809777364
30
0
41
1
10
18.7071977699819
20
2.45838389393416
30
0
0
SPLINE
5
10B
100
AcDbEntity
8
1
62
256
6
ByLayer
370
18
48
1
60
0
100
AcDbSpline
70
4
71
3
72
17
73
13
40
0
40
0
40
0
40
0
40
0.100214803340407
40
0.200379905136537
40
0.300496061868498
40
0.400564019179594
40
0.500584512014001
40
0.600558264752112
40
0.70048599134355
40
0.800368395437815
40
0.900206170512597
40
1
40
1
40
1
40
1
41
1
10
18.7071977699823
20
2.4583838939339
30
0
41
1
10
18.6964486586227
20
2.44160030393471
30
0
41
1
10
18.6749557669264
20
2.4080414477599
30
0
41
1
10
18.6428220136093
20
2.35776665786494
30
0
41
1
10
18.6107758243828
20
2.30755492278613
30
0
41
1
10
18.5788241852374
20
2.25741026559049
30
0
41
1
10
18.5469651801965
20
2.20733209736272
30
0
41
1
10
18.5151994417238
20
2.15732114867191
30
0
41
1
10
18.4835263078556
20
2.1073774184666
30
0
41
1
10
18.4519477487699
20
2.05750245012155
30
0
41
1
10
18.420456508643
20
2.0076922820619
30
0
41
1
10
18.3995340010119
20
1.97453243823736
30
0
41
1
10
18.389075050068
20
1.95795616611997
30
0
0
SPLINE
5
10C
100
AcDbEntity
8
1
62
256
6
ByLayer
370
18
48
1
60
0
100
AcDbSpline
70
4
71
3
72
38
73
34
40
0
40
0
40
0
40
0
40
0.125000000000022
40
0.125000000000022
40
0.250000000000044
40
0.250000000000044
40
0.375000000000066
40
0.375000000000066
40
0.43750000000006
40
0.43750000000006
40
0.500000000000053
40
0.500000000000053
40
0.562500000000047
40
0.562500000000047
40
0.62500000000004
40
0.62500000000004
40
0.656250000000037
40
0.656250000000037
40
0.687500000000033
40
0.687500000000033
40
0.718750000000029
40
0.718750000000029
40
0.750000000000026
40
0.750000000000026
40
0.781250000000022
40
0.781250000000022
40
0.812500000000019
40
0.812500000000019
40
0.875000000000012
40
0.875000000000012
40
0.937500000000006
40
0.937500000000006
40
1
40
1
40
1
40
1
41
1
10
12.6668167535209
20
7.31742122974023
30
0
41
1
10
12.6474469640036
20
7.33036895193789
30
0
41
1
10
12.6284822805843
20
7.34352758107266
30
0
41
1
10
12.5916461571362
20
7.37043005879116
30
0
41
1
10
12.5737681675023
20
7.38417006365825
30
0
41
1
10
12.5396083837732
20
7.4125272821762
30
0
41
1
10
12.5233351756648
20
7.42712138157037
30
0
41
1
10
12.5012220139995
20
7.44980496928468
30
0
41
1
10
12.4942286045396
20
7.45750851858077
30
0
41
1
10
12.4812929693881
20
7.47331841825604
30
0
41
1
10
12.4753239420481
20
7.48145298421235
30
0
41
1
10
12.4650732333011
20
7.49820153578568
30
0
41
1
10
12.4608100914824
20
7.50675305179797
30
0
41
1
10
12.4551027406607
20
7.52439833684414
30
0
41
1
10
12.4537191347422
20
7.53325903077612
30
0
41
1
10
12.4552161174064
20
7.54665957071799
30
0
41
1
10
12.4563409811764
20
7.55112987089623
30
0
41
1
10
12.4599613238265
20
7.55970274853252
30
0
41
1
10
12.4624907677404
20
7.56388975879352
30
0
41
1
10
12.4689546552592
20
7.57178531046679
30
0
41
1
10
12.4728179711106
20
7.57542908964098
30
0
41
1
10
12.4816888234439
20
7.58216823247909
30
0
41
1
10
12.4867269021844
20
7.58526789154388
30
0
41
1
10
12.497371096403
20
7.59076162918657
30
0
41
1
10
12.5030230525272
20
7.593196233881
30
0
41
1
10
12.514849790472
20
7.59757180269216
30
0
41
1
10
12.5210477133815
20
7.59951530318313
30
0
41
1
10
12.539844977574
20
7.60463307377475
30
0
41
1
10
12.5527818570195
20
7.60716972853729
30
0
41
1
10
12.5791608678244
20
7.61115567792146
30
0
41
1
10
12.5926410418356
20
7.61259450726982
30
0
41
1
10
12.6196393370417
20
7.61467178392428
30
0
41
1
10
12.6331986303933
20
7.61531448881033
30
0
41
1
10
12.6468018454628
20
7.61566835439029
30
0
0
SPLINE
5
10D
100
AcDbEntity
8
1
62
256
6
ByLayer
370
18
48
1
60
0
100
AcDbSpline
70
4
71
3
72
59
73
55
40
0
40
0
40
0
40
0
40
0.0625000000000231
40
0.0625000000000231
40
0.125000000000046
40
0.125000000000046
40
0.156250000000054
40
0.156250000000054
40
0.187500000000063
40
0.187500000000063
40
0.21875000000007
40
0.21875000000007
40
0.250000000000079
40
0.250000000000079
40
0.265625000000079
40
0.265625000000079
40
0.28125000000008
40
0.312500000000088
40
0.312500000000088
40
0.328125000000091
40
0.328125000000091
40
0.335937500000091
40
0.335937500000091
40
0.343750000000091
40
0.37500000000009
40
0.40625000000009
40
0.40625000000009
40
0.421875000000088
40
0.421875000000088
40
0.437500000000086
40
0.437500000000086
40
0.468750000000082
40
0.468750000000082
40
0.500000000000078
40
0.500000000000078
40
0.515625000000076
40
0.515625000000076
40
0.531250000000073
40
0.531250000000073
40
0.562500000000068
40
0.562500000000068
40
0.625000000000058
40
0.625000000000058
40
0.687500000000048
40
0.687500000000048
40
0.718750000000044
40
0.718750000000044
40
0.750000000000039
40
0.750000000000039
40
0.812500000000029
40
0.812500000000029
40
0.875000000000019
40
0.875000000000019
40
1
40
1
40
1
40
1
41
1
10
12.6468018454629
20
7.61566835439029
30
0
41
1
10
12.7688561465561
20
7.61884339910017
30
0
41
1
10
12.8903884435627
20
7.6245686297035
30
0
41
1
10
13.1320742965875
20
7.64269370150893
30
0
41
1
10
13.2522321562261
20
7.65507606370767
30
0
41
1
10
13.4310389025757
20
7.6804551380593
30
0
41
1
10
13.4905188129253
20
7.69008568553744
30
0
41
1
10
13.6075790765087
20
7.71180407772428
30
0
41
1
10
13.6652903891375
20
7.72390556029464
30
0
41
1
10
13.7788104993093
20
7.75094638039937
30
0
41
1
10
13.8346200317895
20
7.76588498800314
30
0
41
1
10
13.9440035647479
20
7.7990296096435
30
0
41
1
10
13.9975787008056
20
7.81723452735378
30
0
41
1
10
14.0759426557083
20
7.84739263845552
30
0
41
1
10
14.1015582805819
20
7.85785766779773
30
0
41
1
10
14.1515053600932
20
7.8795375135812
30
0
41
1
10
14.2246094739611
20
7.91322361656574
30
0
41
1
10
14.2920716314791
20
7.95046574060453
30
0
41
1
10
14.3555038659589
20
7.99013526421328
30
0
41
1
10
14.3759761564509
20
8.00376278332783
30
0
41
1
10
14.4056420295383
20
8.02481547817845
30
0
41
1
10
14.4153745945451
20
8.03194877571269
30
0
41
1
10
14.4343622966339
20
8.04632416602357
30
0
41
1
10
14.4806755804261
20
8.08255687106859
30
0
41
1
10
14.5538336515602
20
8.15030644677768
30
0
41
1
10
14.6053795217505
20
8.21349690757239
30
0
41
1
10
14.6393357306599
20
8.2617799461693
30
0
41
1
10
14.6498920707751
20
8.27806523432363
30
0
41
1
10
14.6692795108859
20
8.31052044341322
30
0
41
1
10
14.6781399858175
20
8.32672540789585
30
0
41
1
10
14.7024313518667
20
8.37524187001509
30
0
41
1
10
14.7155796012714
20
8.40745396011428
30
0
41
1
10
14.7366902735561
20
8.47147896784998
30
0
41
1
10
14.7446503613795
20
8.50329220194993
30
0
41
1
10
14.7532185363392
20
8.55063289776103
30
0
41
1
10
14.7555111720153
20
8.56635012357074
30
0
41
1
10
14.7590413449707
20
8.59764713799504
30
0
41
1
10
14.7602792602567
20
8.61325310040007
30
0
41
1
10
14.7624972899887
20
8.65957380529591
30
0
41
1
10
14.7620008162205
20
8.68983711954951
30
0
41
1
10
14.7555180035011
20
8.77886636777933
30
0
41
1
10
14.7445866641112
20
8.83587623424779
30
0
41
1
10
14.7127443853956
20
8.94553366033523
30
0
41
1
10
14.6918061383482
20
8.99817881298131
30
0
41
1
10
14.6543239434346
20
9.07401918980017
30
0
41
1
10
14.6408086392588
20
9.09877927353264
30
0
41
1
10
14.611910953194
20
9.14726482132264
30
0
41
1
10
14.5965936533071
20
9.17088199172343
30
0
41
1
10
14.5482887062239
20
9.23994406423185
30
0
41
1
10
14.512960505767
20
9.28360311974916
30
0
41
1
10
14.4370055247768
20
9.36651018227138
30
0
41
1
10
14.3963733364147
20
9.40575665850056
30
0
41
1
10
14.2674220531995
20
9.51725644824083
30
0
41
1
10
14.1721147519783
20
9.58328879501374
30
0
41
1
10
14.068685363761
20
9.64169170610657
30
0
0
SPLINE
5
10E
100
AcDbEntity
8
1
62
256
6
ByLayer
370
18
48
1
60
0
100
AcDbSpline
70
4
71
3
72
38
73
34
40
0
40
0
40
0
40
0
40
0.124999999999982
40
0.124999999999982
40
0.249999999999964
40
0.249999999999964
40
0.374999999999945
40
0.374999999999945
40
0.437499999999933
40
0.437499999999933
40
0.499999999999921
40
0.499999999999921
40
0.562499999999908
40
0.562499999999908
40
0.5937499999999
40
0.5937499999999
40
0.624999999999892
40
0.624999999999892
40
0.656249999999884
40
0.656249999999884
40
0.687499999999877
40
0.687499999999877
40
0.718749999999869
40
0.718749999999869
40
0.749999999999861
40
0.749999999999861
40
0.812499999999896
40
0.812499999999896
40
0.87499999999993
40
0.87499999999993
40
0.937499999999965
40
0.937499999999965
40
1
40
1
40
1
40
1
41
1
10
13.2606655811537
20
-8.92986339798196
30
0
41
1
10
13.2426629952894
20
-8.92127283135773
30
0
41
1
10
13.2250718648778
20
-8.91248079075675
30
0
41
1
10
13.1909886960375
20
-8.89437804768741
30
0
41
1
10
13.1744907329809
20
-8.88506976028884
30
0
41
1
10
13.1430758525599
20
-8.86573439682923
30
0
41
1
10
13.1281160674573
20
-8.85568896714148
30
0
41
1
10
13.1078739773885
20
-8.83998174872895
30
0
41
1
10
13.1014885021303
20
-8.83463326695178
30
0
41
1
10
13.0897053827942
20
-8.82363601348811
30
0
41
1
10
13.0842834648754
20
-8.81796234003394
30
0
41
1
10
13.0750233453027
20
-8.80635120391767
30
0
41
1
10
13.071165067892
20
-8.80041458558708
30
0
41
1
10
13.067181718513
20
-8.79121505388315
30
0
41
1
10
13.0661608338634
20
-8.78808943766282
30
0
41
1
10
13.0649393510674
20
-8.78184466354799
30
0
41
1
10
13.0647302656633
20
-8.77871246707255
30
0
41
1
10
13.0653202968261
20
-8.77242621440973
30
0
41
1
10
13.0661372604047
20
-8.76924295561685
30
0
41
1
10
13.0689666045349
20
-8.76306607686067
30
0
41
1
10
13.0709701019601
20
-8.7600601150518
30
0
41
1
10
13.0763038934172
20
-8.75423735697436
30
0
41
1
10
13.0796374427477
20
-8.7514418246073
30
0
41
1
10
13.087323570024
20
-8.74630925710071
30
0
41
1
10
13.091718920154
20
-8.74393041239631
30
0
41
1
10
13.1063139855646
20
-8.73737367754615
30
0
41
1
10
13.1173753195663
20
-8.73397352440028
30
0
41
1
10
13.1412037266542
20
-8.72842777427198
30
0
41
1
10
13.1536131334309
20
-8.72637094798648
30
0
41
1
10
13.1788603348413
20
-8.72316489439248
30
0
41
1
10
13.1917655849897
20
-8.7220158413638
30
0
41
1
10
13.2178283166287
20
-8.72035914351082
30
0
41
1
10
13.2309187867183
20
-8.71985662102344
30
0
41
1
10
13.2440518175238
20
-8.71958910127921
30
0
0
SPLINE
5
10F
100
AcDbEntity
8
1
62
256
6
ByLayer
370
18
48
1
60
0
100
AcDbSpline
70
4
71
3
72
54
73
50
40
0
40
0
40
0
40
0
40
0.0624999999999818
40
0.0624999999999818
40
0.124999999999964
40
0.124999999999964
40
0.140624999999959
40
0.140624999999959
40
0.156249999999955
40
0.156249999999955
40
0.187499999999945
40
0.187499999999945
40
0.249999999999935
40
0.249999999999935
40
0.265624999999933
40
0.265624999999933
40
0.281249999999931
40
0.281249999999931
40
0.312499999999932
40
0.343749999999934
40
0.359374999999935
40
0.359374999999935
40
0.374999999999936
40
0.374999999999936
40
0.43749999999994
40
0.43749999999994
40
0.453124999999941
40
0.453124999999941
40
0.468749999999942
40
0.468749999999942
40
0.499999999999947
40
0.499999999999947
40
0.562499999999954
40
0.562499999999954
40
0.593749999999958
40
0.593749999999958
40
0.624999999999961
40
0.624999999999961
40
0.687499999999968
40
0.687499999999968
40
0.749999999999975
40
0.749999999999975
40
0.812499999999982
40
0.812499999999982
40
0.843749999999985
40
0.843749999999985
40
0.874999999999989
40
0.874999999999989
40
1
40
1
40
1
40
1
41
1
10
13.2440518175238
20
-8.71958910127924
30
0
41
1
10
13.3474289095266
20
-8.71748331064947
30
0
41
1
10
13.4503652161109
20
-8.71377551815263
30
0
41
1
10
13.655107604012
20
-8.7022043241405
30
0
41
1
10
13.7569161074368
20
-8.69435197015503
30
0
41
1
10
13.8832375368473
20
-8.68101035865217
30
0
41
1
10
13.9084544334873
20
-8.67816384152394
30
0
41
1
10
13.9587855761185
20
-8.67208210153015
30
0
41
1
10
13.983899164687
20
-8.66884619489923
30
0
41
1
10
14.0586644809379
20
-8.65856077100759
30
0
41
1
10
14.1078735633525
20
-8.65091993591059
30
0
41
1
10
14.2533460331752
20
-8.62528555029357
30
0
41
1
10
14.347478017109
20
-8.60462095274815
30
0
41
1
10
14.4604591671017
20
-8.57263392663887
30
0
41
1
10
14.4828193767653
20
-8.5659255094584
30
0
41
1
10
14.5270314233891
20
-8.55182980657986
30
0
41
1
10
14.5488838630245
20
-8.54443873604734
30
0
41
1
10
14.6128630005743
20
-8.52144328745521
30
0
41
1
10
14.6944796823527
20
-8.48843229112362
30
0
41
1
10
14.7868461548591
20
-8.4407897985167
30
0
41
1
10
14.8377287342283
20
-8.40908512424306
30
0
41
1
10
14.870620923816
20
-8.38722538394504
30
0
41
1
10
14.8865432591422
20
-8.37593376995881
30
0
41
1
10
14.9625650361733
20
-8.31838956196364
30
0
41
1
10
15.012820459496
20
-8.26830788975633
30
0
41
1
10
15.064320084484
20
-8.20077712150808
30
0
41
1
10
15.0740525483093
20
-8.18702422053101
30
0
41
1
10
15.0924237680204
20
-8.15902691226287
30
0
41
1
10
15.1010539140199
20
-8.14478911025043
30
0
41
1
10
15.1251427417147
20
-8.10178517569122
30
0
41
1
10
15.1389039519184
20
-8.0725839138222
30
0
41
1
10
15.1742666535987
20
-7.9834472510629
30
0
41
1
10
15.189994403547
20
-7.92198267514317
30
0
41
1
10
15.2045417304855
20
-7.82688738456199
30
0
41
1
10
15.2078708915934
20
-7.79468959845838
30
0
41
1
10
15.2118087674041
20
-7.72940477916589
30
0
41
1
10
15.2124054436164
20
-7.6965650652229
30
0
41
1
10
15.2106503566865
20
-7.59742934667403
30
0
41
1
10
15.2047815899382
20
-7.53051549515212
30
0
41
1
10
15.1857462433669
20
-7.39495431050599
30
0
41
1
10
15.1725653686915
20
-7.32630770855295
30
0
41
1
10
15.1402136508317
20
-7.18722950574772
30
0
41
1
10
15.121035591418
20
-7.11679826458078
30
0
41
1
10
15.0884287646149
20
-7.00978695304349
30
0
41
1
10
15.076907058728
20
-6.97385992309333
30
0
41
1
10
15.0527099646806
20
-6.90169506413207
30
0
41
1
10
15.0400437390288
20
-6.86548147209933
30
0
41
1
10
14.9740766188397
20
-6.6837402279165
30
0
41
1
10
14.9129697698743
20
-6.5361800305453
30
0
41
1
10
14.8451462582652
20
-6.38635132426623
30
0
0
SPLINE
5
110
100
AcDbEntity
8
1
62
256
6
ByLayer
370
18
48
1
60
0
100
AcDbSpline
70
4
71
3
72
13
73
9
40
0
40
0
40
0
40
0
40
0.250000000000001
40
0.500000000000002
40
0.500000000000002
40
0.750000000000003
40
0.750000000000003
40
1
40
1
40
1
40
1
41
1
10
14.8451462582652
20
-6.38635132426623
30
0
41
1
10
14.5925485717505
20
-6.18637712560886
30
0
41
1
10
14.0884474391564
20
-5.77498893192643
30
0
41
1
10
13.5814540578265
20
-5.34545386625055
30
0
41
1
10
13.0704285824405
20
-4.90947361089786
30
0
41
1
10
12.8128998855305
20
-4.68826011330535
30
0
41
1
10
12.2911760073764
20
-4.24229506100008
30
0
41
1
10
12.0269805579827
20
-4.01754281540519
30
0
41
1
10
11.7581110272357
20
-3.7926267295814
30
0
0
SPLINE
5
111
100
AcDbEntity
8
1
62
256
6
ByLayer
370
18
48
1
60
0
100
AcDbSpline
70
4
71
3
72
36
73
32
40
0
40
0
40
0
40
0
40
0.125
40
0.125
40
0.249999999999999
40
0.249999999999999
40
0.312500000000002
40
0.312500000000002
40
0.343750000000007
40
0.343750000000007
40
0.375000000000011
40
0.375000000000011
40
0.500000000000014
40
0.500000000000014
40
0.562500000000014
40
0.562500000000014
40
0.593750000000012
40
0.593750000000012
40
0.62500000000001
40
0.62500000000001
40
0.750000000000009
40
0.750000000000009
40
0.781250000000008
40
0.781250000000008
40
0.812500000000007
40
0.875000000000007
40
0.937500000000006
40
0.937500000000006
40
0.968750000000003
40
0.968750000000003
40
1
40
1
40
1
40
1
41
1
10
11.7581110272357
20
-3.79262672958146
30
0
41
1
10
11.6989596817368
20
-3.74314514993259
30
0
41
1
10
11.6419107526795
20
-3.69183491978455
30
0
41
1
10
11.5328222948885
20
-3.58484326607123
30
0
41
1
10
11.4807745035313
20
-3.52916900084207
30
0
41
1
10
11.4073769632192
20
-3.44157191039477
30
0
41
1
10
11.3836941412836
20
-3.41168846384915
30
0
41
1
10
11.3495119051395
20
-3.36568999831456
30
0
41
1
10
11.3383419312873
20
-3.35016124722151
30
0
41
1
10
11.3164844412753
20
-3.31868195438361
30
0
41
1
10
11.305780658735
20
-3.30270574930324
30
0
41
1
10
11.2537925990734
20
-3.22203911817297
30
0
41
1
10
11.217111810073
20
-3.15514877945665
30
0
41
1
10
11.1714784751359
20
-3.05031597193121
30
0
41
1
10
11.1578414691295
20
-3.01461773211048
30
0
41
1
10
11.1401285670032
20
-2.95975924283505
30
0
41
1
10
11.1347017869891
20
-2.94130365849009
30
0
41
1
10
11.1249325482013
20
-2.90434151678826
30
0
41
1
10
11.1205759475986
20
-2.88579228713783
30
0
41
1
10
11.1015261638115
20
-2.79269472312313
30
0
41
1
10
11.094970295143
20
-2.71709878604668
30
0
41
1
10
11.0996748149155
20
-2.62097746364796
30
0
41
1
10
11.1012742583806
20
-2.60159833908483
30
0
41
1
10
11.1057970599624
20
-2.5630276916869
30
0
41
1
10
11.1145247047968
20
-2.50567957243729
30
0
41
1
10
11.1385604735237
20
-2.4125864904951
30
0
41
1
10
11.1675565658187
20
-2.34068855992749
30
0
41
1
10
11.1928808574671
20
-2.28771548641157
30
0
41
1
10
11.201938155619
20
-2.27018568706546
30
0
41
1
10
11.2210676730045
20
-2.23573192298846
30
0
41
1
10
11.2311517072173
20
-2.21877808228248
30
0
41
1
10
11.2417324492463
20
-2.20208595115423
30
0
0
SPLINE
5
112
100
AcDbEntity
8
1
62
256
6
ByLayer
370
18
48
1
60
0
100
AcDbSpline
70
4
71
3
72
8
73
4
40
0
40
0
40
0
40
0
40
1
40
1
40
1
40
1
41
1
10
60.2982933686827
20
-4.04044500945889
30
0
41
1
10
60.3424599744214
20
-4.30005885046072
30
0
41
1
10
60.3865974710485
20
-4.55872188989198
30
0
41
1
10
60.4306992834834
20
-4.8163966482835
30
0
0
SPLINE
5
113
100
AcDbEntity
8
1
62
256
6
ByLayer
370
18
48
1
60
0
100
AcDbSpline
70
4
71
3
72
8
73
4
40
0
40
0
40
0
40
0
40
1
40
1
40
1
40
1
41
1
10
60.0178822611146
20
-7.3096976861178
30
0
41
1
10
60.0491634842354
20
-7.35907139489018
30
0
41
1
10
60.0810545193671
20
-7.40702712535432
30
0
41
1
10
60.1135891939911
20
-7.45348621944231
30
0
0
SPLINE
5
114
100
AcDbEntity
8
1
62
256
6
ByLayer
370
18
48
1
60
0
100
AcDbSpline
70
4
71
3
72
8
73
4
40
0
40
0
40
0
40
0
40
1
40
1
40
1
40
1
41
1
10
59.9636664580597
20
-7.26358575724282
30
0
41
1
10
59.9816283389745
20
-7.27925177234675
30
0
41
1
10
59.9996997262367
20
-7.29462387911025
30
0
41
1
10
60.0178822611146
20
-7.3096976861178
30
0
0
SPLINE
5
115
100
AcDbEntity
8
1
62
256
6
ByLayer
370
13
48
1
60
0
100
AcDbSpline
70
4
71
3
72
8
73
4
40
0
40
0
40
0
40
0
40
1
40
1
40
1
40
1
41
1
10
59.9636664603034
20
-7.26358575799409
30
0
41
1
10
59.9127296275311
20
-7.28121518241471
30
0
41
1
10
59.8617927947587
20
-7.29872396491243
30
0
41
1
10
59.8108559619864
20
-7.31611144443517
30
0
0
SPLINE
5
116
100
AcDbEntity
8
1
62
256
6
ByLayer
370
13
48
1
60
0
100
AcDbSpline
70
4
71
3
72
84
73
80
40
0
40
0
40
0
40
0
40
0.0089856008143507
40
0.0650807554852365
40
0.121175910156122
40
0.158572679936713
40
0.214667834607599
40
0.252064604388189
40
0.28946137416878
40
0.32685814394937
40
0.364254913729961
40
0.401651683510551
40
0.439048453291142
40
0.476445223071732
40
0.513841992852323
40
0.541889570187766
40
0.560587955078061
40
0.569937147523209
40
0.579286339968356
40
0.588635532413504
40
0.597984724858652
40
0.604996619192512
40
0.609671215415086
40
0.611424188998551
40
0.613177162582017
40
0.614053649373749
40
0.614930136165482
40
0.615368379561348
40
0.615733582391237
40
0.61595270408917
40
0.616171825787103
40
0.616390947485036
40
0.616975272012858
40
0.61785175880459
40
0.619020407860234
40
0.620189056915877
40
0.621942030499342
40
0.623695004082808
40
0.627200951249738
40
0.630706898416668
40
0.635381494639242
40
0.640056090861816
40
0.647067985195677
40
0.654079879529538
40
0.661091773863398
40
0.668103668197259
40
0.672778264419833
40
0.677452860642407
40
0.68212745686498
40
0.685633404031911
40
0.689139351198841
40
0.691476649310128
40
0.693229622893593
40
0.694982596477059
40
0.695859083268791
40
0.696735570060524
40
0.69717381345639
40
0.697539016286279
40
0.697721617701223
40
0.697831178550189
40
0.697940739399156
40
0.698050300248123
40
0.698269421946056
40
0.698634624775944
40
0.69907286817181
40
0.699949354963543
40
0.701410166283097
40
0.703163139866563
40
0.706669087033493
40
0.710175034200423
40
0.714849630422997
40
0.724198822868145
40
0.747571803981014
40
0.775619381316457
40
0.813016151097047
40
0.850412920877638
40
0.887809690658228
40
0.925206460438819
40
1
40
1
40
1
40
1
41
1
10
54.4253468236385
20
-8.6738495992447
30
0
41
1
10
54.3252312157591
20
-8.68966508669678
30
0
41
1
10
53.6001156078796
20
-8.80024981164379
30
0
41
1
10
52.2500000000001
20
-8.95242399202823
30
0
41
1
10
50.5833333333334
20
-9.02139878098987
30
0
41
1
10
48.9166666666667
20
-8.99192186794369
30
0
41
1
10
47.4583333333335
20
-8.87995248505354
30
0
41
1
10
46.0000000000001
20
-8.6827817406492
30
0
41
1
10
44.7500000000001
20
-8.45632111712658
30
0
41
1
10
43.5000000000002
20
-8.17388236973127
30
0
41
1
10
42.2500000000001
20
-7.83749978944203
30
0
41
1
10
41.0000000000001
20
-7.449602259595
30
0
41
1
10
39.7500000000001
20
-7.01344794116514
30
0
41
1
10
38.5000000000001
20
-6.53135479074078
30
0
41
1
10
37.3541666666668
20
-6.04976985621221
30
0
41
1
10
36.4166666666667
20
-5.629448535705
30
0
41
1
10
35.7916666666667
20
-5.33757411026579
30
0
41
1
10
35.3750000000001
20
-5.13858062560735
30
0
41
1
10
35.0625000000001
20
-4.9871965599834
30
0
41
1
10
34.7500000000001
20
-4.83374165304232
30
0
41
1
10
34.4635416666667
20
-4.69124059002615
30
0
41
1
10
34.2291666666669
20
-4.573382907335
30
0
41
1
10
34.0794270833334
20
-4.49752369873761
30
0
41
1
10
33.9882812500001
20
-4.45116435008279
30
0
41
1
10
33.9394531250001
20
-4.42627557611681
30
0
41
1
10
33.9003906250001
20
-4.40633275827383
30
0
41
1
10
33.8759765625001
20
-4.39385529916223
30
0
41
1
10
33.8572591145833
20
-4.38428168799578
30
0
41
1
10
33.8458658854168
20
-4.37845146615476
30
0
41
1
10
33.8369140625001
20
-4.37386897656813
30
0
41
1
10
33.8295898437502
20
-4.37011868544536
30
0
41
1
10
33.8181966145834
20
-4.36428337404485
30
0
41
1
10
33.7994791666669
20
-4.35469220178774
30
0
41
1
10
33.7701822916667
20
-4.3396669063726
30
0
41
1
10
33.7343750000001
20
-4.32128045649671
30
0
41
1
10
33.6888020833334
20
-4.29784740174509
30
0
41
1
10
33.6367187500001
20
-4.27102113063071
30
0
41
1
10
33.5585937500002
20
-4.23070024433792
30
0
41
1
10
33.4609375
20
-4.18014761626992
30
0
41
1
10
33.3307291666669
20
-4.11247921912238
30
0
41
1
10
33.1875000000002
20
-4.0377098094647
30
0
41
1
10
33.0052083333334
20
-3.94207392547759
30
0
41
1
10
32.7968750000001
20
-3.83211361721394
30
0
41
1
10
32.5625000000001
20
-3.70754724988464
30
0
41
1
10
32.328125
20
-3.5821528865221
30
0
41
1
10
32.1197916666668
20
-3.46998478079243
30
0
41
1
10
31.9375000000001
20
-3.37134393069408
30
0
41
1
10
31.7812500000001
20
-3.28646625806155
30
0
41
1
10
31.6380208333335
20
-3.20836748542371
30
0
41
1
10
31.5078125000001
20
-3.13713898257924
30
0
41
1
10
31.4036458333335
20
-3.08000119066824
30
0
41
1
10
31.3190104166667
20
-3.0334734560584
30
0
41
1
10
31.2539062500001
20
-2.99762788599091
30
0
41
1
10
31.2050781250001
20
-2.97070864250932
30
0
41
1
10
31.1660156250001
20
-2.94915238628474
30
0
41
1
10
31.1416015625002
20
-2.93567107118844
30
0
41
1
10
31.1228841145833
20
-2.92533044120773
30
0
41
1
10
31.1118977864585
20
-2.9192591675116
30
0
41
1
10
31.1045735677084
20
-2.91521084705005
30
0
41
1
10
31.1000976562502
20
-2.91273661141409
30
0
41
1
10
31.0964355468751
20
-2.91071207610523
30
0
41
1
10
31.0915527343751
20
-2.90801248154833
30
0
41
1
10
31.0838216145834
20
-2.90373761518436
30
0
41
1
10
31.0724283854167
20
-2.8974364818622
30
0
41
1
10
31.0537109375001
20
-2.88708162054388
30
0
41
1
10
31.0227864583335
20
-2.86996549763589
30
0
41
1
10
30.9772135416667
20
-2.84472063405002
30
0
41
1
10
30.9023437500002
20
-2.80319961547516
30
0
41
1
10
30.8046875
20
-2.74894169878817
30
0
41
1
10
30.6744791666669
20
-2.67642322311957
30
0
41
1
10
30.4791666666667
20
-2.56734586133143
30
0
41
1
10
30.0625000000001
20
-2.33358076523851
30
0
41
1
10
29.3854166666666
20
-1.94989319402092
30
0
41
1
10
28.3958333333334
20
-1.3817284134926
30
0
41
1
10
27.2500000000001
20
-0.715639064683359
30
0
41
1
10
26.0000000000001
20
0.016378550772572
30
0
41
1
10
24.7500000000001
20
0.748550932712789
30
0
41
1
10
23.0833333333334
20
1.71786144324906
30
0
41
1
10
21.8333333333335
20
2.42911405372695
30
0
41
1
10
21.0000000000001
20
2.88980927616126
30
0
0
SPLINE
5
117
100
AcDbEntity
8
1
62
256
6
ByLayer
370
18
48
1
60
0
100
AcDbSpline
70
4
71
3
72
8
73
4
40
0
40
0
40
0
40
0
40
1
40
1
40
1
40
1
41
1
10
60.632948165942
20
-6.74459778079961
30
0
41
1
10
60.4586488259787
20
-6.98946850180238
30
0
41
1
10
60.285533849626
20
-7.22573062422379
30
0
41
1
10
60.1135891939911
20
-7.45348621944231
30
0
0
SPLINE
5
118
100
AcDbEntity
8
1
62
256
6
ByLayer
370
18
48
1
60
0
100
AcDbSpline
70
4
71
3
72
8
73
4
40
0
40
0
40
0
40
0
40
1
40
1
40
1
40
1
41
1
10
60.1135891939911
20
-7.45348621944231
30
0
41
1
10
59.8764739328916
20
-7.54713155410309
30
0
41
1
10
59.6394364202189
20
-7.63810318749796
30
0
41
1
10
59.4024151848404
20
-7.72633269597722
30
0
0
SPLINE
5
119
100
AcDbEntity
8
1
62
256
6
ByLayer
370
18
48
1
60
0
100
AcDbSpline
70
4
71
3
72
96
73
92
40
0
40
0
40
0
40
0
40
0.0140044692620908
40
0.0140044692620908
40
0.0307162579186645
40
0.0307162579186645
40
0.0474280465752382
40
0.0474280465752382
40
0.064139835231812
40
0.064139835231812
40
0.0975634125449594
40
0.0975634125449594
40
0.130986989858107
40
0.130986989858107
40
0.147698778514681
40
0.147698778514681
40
0.164410567171255
40
0.164410567171255
40
0.197834144484404
40
0.197834144484404
40
0.231257721797553
40
0.231257721797553
40
0.264681299110702
40
0.264681299110702
40
0.281393087767277
40
0.281393087767277
40
0.298104876423851
40
0.298104876423851
40
0.331528453737
40
0.331528453737
40
0.348240242393574
40
0.348240242393574
40
0.364952031050149
40
0.364952031050149
40
0.398375608363299
40
0.398375608363299
40
0.406731502691586
40
0.406731502691586
40
0.415087397019874
40
0.415087397019874
40
0.431799185676449
40
0.431799185676449
40
0.448510974333023
40
0.448510974333023
40
0.465222762989598
40
0.465222762989598
40
0.498646340302747
40
0.498646340302747
40
0.532069917615896
40
0.532069917615896
40
0.540425811944183
40
0.540425811944183
40
0.548781706272471
40
0.548781706272471
40
0.565493494929045
40
0.565493494929045
40
0.598917072242194
40
0.598917072242194
40
0.632340649555344
40
0.632340649555344
40
0.665764226868493
40
0.665764226868493
40
0.674120121196781
40
0.674120121196781
40
0.682476015525069
40
0.682476015525069
40
0.699187804181644
40
0.699187804181644
40
0.732611381494796
40
0.732611381494796
40
0.766034958807947
40
0.766034958807947
40
0.799458536121099
40
0.799458536121099
40
0.807814430449386
40
0.807814430449386
40
0.816170324777674
40
0.816170324777674
40
0.83288211343425
40
0.83288211343425
40
0.8663056907474
40
0.8663056907474
40
0.883017479403975
40
0.883017479403975
40
0.899729268060551
40
0.899729268060551
40
0.9331528453737
40
0.9331528453737
40
0.96657642268685
40
0.96657642268685
40
1
40
1
40
1
40
1
41
1
10
57.5680819882058
20
-8.35300313042163
30
0
41
1
10
57.3970616858796
20
-8.40605668057734
30
0
41
1
10
57.225965663903
20
-8.4575882877208
30
0
41
1
10
56.8504750551443
20
-8.56720228869395
30
0
41
1
10
56.6462901084587
20
-8.62455104773409
30
0
41
1
10
56.2382704678743
20
-8.73453189554152
30
0
41
1
10
56.0343978473401
20
-8.78717559425303
30
0
41
1
10
55.6268551821986
20
-8.88767279249183
30
0
41
1
10
55.4231923905945
20
-8.93551578369528
30
0
41
1
10
54.8123189544784
20
-9.07213631123727
30
0
41
1
10
54.4052523317111
20
-9.15397101343163
30
0
41
1
10
53.59114718081
20
-9.29858050177384
30
0
41
1
10
53.1840738525108
20
-9.36134003759719
30
0
41
1
10
52.5726011512527
20
-9.4404518629045
30
0
41
1
10
52.3686351451883
20
-9.4643038447806
30
0
41
1
10
51.9602617550325
20
-9.50694654845523
30
0
41
1
10
51.7562091444302
20
-9.52571243345906
30
0
41
1
10
51.1443313066257
20
-9.57453812909469
30
0
41
1
10
50.7367706037643
20
-9.59713786772753
30
0
41
1
10
49.9218759756419
20
-9.62233582367321
30
0
41
1
10
49.5145421824032
20
-9.62494637887355
30
0
41
1
10
48.6996573109149
20
-9.60977774892302
30
0
41
1
10
48.2921351524387
20
-9.59184316377474
30
0
41
1
10
47.6800679970278
20
-9.54999316568114
30
0
41
1
10
47.4758789407699
20
-9.53357411839863
30
0
41
1
10
47.0672933000142
20
-9.49573803090158
30
0
41
1
10
46.8631863530956
20
-9.47434298108476
30
0
41
1
10
46.2513144863325
20
-9.40269722954554
30
0
41
1
10
45.8439811682907
20
-9.34504726019554
30
0
41
1
10
45.2333340297446
20
-9.24379618853555
30
0
41
1
10
45.0298491269706
20
-9.20756146448329
30
0
41
1
10
44.6229124434951
20
-9.13013564573819
30
0
41
1
10
44.4194539484085
20
-9.08896818523647
30
0
41
1
10
43.8088843509386
20
-8.95850396145244
30
0
41
1
10
43.4015602778687
20
-8.86235433951296
30
0
41
1
10
42.8916975941598
20
-8.73046053496626
30
0
41
1
10
42.7896893784484
20
-8.70349697207979
30
0
41
1
10
42.585590551604
20
-8.64840064728045
30
0
41
1
10
42.4834715201327
20
-8.62025982785141
30
0
41
1
10
42.177198108827
20
-8.53414663720852
30
0
41
1
10
41.9731882287683
20
-8.47450652004545
30
0
41
1
10
41.5654356806315
20
-8.35076320577539
30
0
41
1
10
41.3616964479071
20
-8.28664762097168
30
0
41
1
10
40.9543908547932
20
-8.15398164697152
30
0
41
1
10
40.7507964674771
20
-8.08551866730789
30
0
41
1
10
40.1399567707715
20
-7.874325359642
30
0
41
1
10
39.7327322912292
20
-7.72554594981338
30
0
41
1
10
38.9178747621744
20
-7.41206735851571
30
0
41
1
10
38.5102425569859
20
-7.24735932900691
30
0
41
1
10
38.0000950991785
20
-7.03159319709422
30
0
41
1
10
37.8980344760544
20
-6.98794804849459
30
0
41
1
10
37.693840033666
20
-6.89968097023382
30
0
41
1
10
37.5916795105355
20
-6.85504692730504
30
0
41
1
10
37.2853946803123
20
-6.7198341133643
30
0
41
1
10
37.0813978411987
20
-6.62791908326784
30
0
41
1
10
36.4698128451705
20
-6.34713285086644
30
0
41
1
10
36.0626179683937
20
-6.15326328274008
30
0
41
1
10
35.2485519268944
20
-5.75305961127066
30
0
41
1
10
34.8416736221106
20
-5.54673992111998
30
0
41
1
10
34.0273500791867
20
-5.12304225454156
30
0
41
1
10
33.6199257001853
20
-4.90560132693651
30
0
41
1
10
33.1098862063439
20
-4.62718052652789
30
0
41
1
10
33.007840223143
20
-4.57116531960926
30
0
41
1
10
32.8036607567419
20
-4.45848186962772
30
0
41
1
10
32.7015220637347
20
-4.40181037793363
30
0
41
1
10
32.3953204646863
20
-4.23103862764034
30
0
41
1
10
32.1913567203368
20
-4.11610251639758
30
0
41
1
10
31.5797622810942
20
-3.76841323174344
30
0
41
1
10
31.1723938060674
20
-3.53285811996895
30
0
41
1
10
30.3577111328888
20
-3.05542767521769
30
0
41
1
10
29.950428592809
20
-2.81347956625285
30
0
41
1
10
29.1355501643528
20
-2.32354753443048
30
0
41
1
10
28.7279835853257
20
-2.0754649461897
30
0
41
1
10
28.2177952128671
20
-1.76250019250983
30
0
41
1
10
28.1157232678485
20
-1.69975752273021
30
0
41
1
10
27.911498678287
20
-1.57399179424598
30
0
41
1
10
27.8093889978176
20
-1.51099597547369
30
0
41
1
10
27.5033244889114
20
-1.32187694746688
30
0
41
1
10
27.2995217136625
20
-1.19555582118124
30
0
41
1
10
26.6886767115526
20
-0.816117497891895
30
0
41
1
10
26.2822122948
20
-0.562503450920644
30
0
41
1
10
25.6732148589215
20
-0.181845813198123
30
0
41
1
10
25.470331857195
20
-0.0549211864374684
30
0
41
1
10
25.0647195265184
20
0.198874107491776
30
0
41
1
10
24.8620001316639
20
0.325758672102182
30
0
41
1
10
24.2538785583623
20
0.706025496110925
30
0
41
1
10
23.8483956907773
20
0.95885738557601
30
0
41
1
10
23.0366198891837
20
1.46207306842436
30
0
41
1
10
22.6303401437593
20
1.71247563978733
30
0
41
1
10
21.8163840761156
20
2.20985492262398
30
0
41
1
10
21.4087170129713
20
2.45684315990445
30
0
41
1
10
21.0000000000001
20
2.7015399455442
30
0
0
SPLINE
5
11A
100
AcDbEntity
8
1
62
256
6
ByLayer
370
18
48
1
60
0
100
AcDbSpline
70
4
71
3
72
10
73
6
40
0
40
0
40
0
40
0
40
0.5
40
0.5
40
1
40
1
40
1
40
1
41
1
10
21.0000000000001
20
2.70153994554423
30
0
41
1
10
20.7241113760641
20
2.84350414817158
30
0
41
1
10
20.4492045201264
20
2.98599280009654
30
0
41
1
10
19.9015436637017
20
3.27212013484089
30
0
41
1
10
19.6288147967161
20
3.41577224369109
30
0
41
1
10
19.3572938425764
20
3.56006960584403
30
0
0
SPLINE
5
11B
100
AcDbEntity
8
1
62
256
6
ByLayer
370
18
48
1
60
0
100
AcDbSpline
70
4
71
3
72
29
73
25
40
0
40
0
40
0
40
0
40
0.0452891605811622
40
0.0905919123812534
40
0.135908601645494
40
0.181239570107998
40
0.226585154935383
40
0.271945688673667
40
0.317321499198486
40
0.362712909668512
40
0.408120238482093
40
0.45354379923705
40
0.498983900693534
40
0.544440846740002
40
0.58991493636212
40
0.635406463614745
40
0.680915717596697
40
0.726442982428497
40
0.771988537232851
40
0.817552655587117
40
0.86313560303714
40
0.90873763964179
40
0.954359021338814
40
1
40
1
40
1
40
1
41
1
10
19.3572562819381
20
3.56000719115892
30
0
41
1
10
19.3470761119136
20
3.54308207056584
30
0
41
1
10
19.3267127168086
20
3.5092267501727
30
0
41
1
10
19.2962917945516
20
3.45853619971803
30
0
41
1
10
19.2659560686248
20
3.40790417201708
30
0
41
1
10
19.2357147804161
20
3.35733806293942
30
0
41
1
10
19.2055654526964
20
3.30683618750231
30
0
41
1
10
19.175508748956
20
3.25639927932198
30
0
41
1
10
19.1455444900024
20
3.20602740803363
30
0
41
1
10
19.1156727218383
20
3.15572080579941
30
0
41
1
10
19.0858934293972
20
3.10547964587022
30
0
41
1
10
19.0562066133082
20
3.05530410208971
30
0
41
1
10
19.0266122693043
20
3.00519433305206
30
0
41
1
10
18.9971103938581
20
2.95515048656608
30
0
41
1
10
18.9677009823092
20
2.90517269827231
30
0
41
1
10
18.9383840307868
20
2.85526109332898
30
0
41
1
10
18.9091595304563
20
2.80541578166415
30
0
41
1
10
18.8800274886897
20
2.75563687590272
30
0
41
1
10
18.8509878502728
20
2.7059244251698
30
0
41
1
10
18.8220407927243
20
2.65627866455469
30
0
41
1
10
18.793185621738
20
2.60669908353387
30
0
41
1
10
18.7644248779785
20
2.55718788838655
30
0
41
1
10
18.7357490248459
20
2.50773710419597
30
0
41
1
10
18.7167162172549
20
2.4748373189023
30
0
41
1
10
18.7071977699815
20
2.45838389393441
30
0
0
SPLINE
5
11C
100
AcDbEntity
8
1
62
256
6
ByLayer
370
18
48
1
60
0
100
AcDbSpline
70
4
71
3
72
46
73
42
40
0
40
0
40
0
40
0
40
0.0043572659838856
40
0.0334790186989462
40
0.0626007714140068
40
0.0771616477715371
40
0.0917225241290674
40
0.149966029559189
40
0.179087782274249
40
0.19364865863178
40
0.20820953498931
40
0.266453040419431
40
0.295574793134492
40
0.310135669492022
40
0.324696545849552
40
0.353818298564613
40
0.368379174922143
40
0.382940051279674
40
0.397500927637204
40
0.412061803994734
40
0.426622680352265
40
0.441183556709795
40
0.499427062139916
40
0.528548814854977
40
0.557670567570037
40
0.586792320285098
40
0.615914073000159
40
0.67415757843028
40
0.68871845478781
40
0.70327933114534
40
0.732401083860401
40
0.761522836575462
40
0.790644589290522
40
0.805205465648053
40
0.819766342005583
40
0.848888094720644
40
0.878009847435704
40
0.907131600150765
40
0.936253352865826
40
0.965375105580886
40
1
40
1
40
1
40
1
41
1
10
18.7071977699816
20
2.45838389393438
30
0
41
1
10
18.7538218680896
20
2.42924896412012
30
0
41
1
10
19.1120732458664
20
2.20512320800307
30
0
41
1
10
19.7821699728252
20
1.78232375207497
30
0
41
1
10
20.561826698417
20
1.28485082339395
30
0
41
1
10
21.1857168080938
20
0.884596372649867
30
0
41
1
10
22.12169478497
20
0.282440899670405
30
0
41
1
10
23.2139746654917
20
-0.423410103863631
30
0
41
1
10
24.3061202532824
20
-1.12507062575722
30
0
41
1
10
24.9301025845806
20
-1.52371548813176
30
0
41
1
10
25.865948634609
20
-2.11878854187972
30
0
41
1
10
26.9573981587398
20
-2.80293229533683
30
0
41
1
10
28.0483355220196
20
-3.4675727710314
30
0
41
1
10
28.6715993708958
20
-3.84057520652215
30
0
41
1
10
29.2947622763697
20
-4.20898597014877
30
0
41
1
10
29.9177932503482
20
-4.56957532584642
30
0
41
1
10
30.5406579888485
20
-4.92153006202449
30
0
41
1
10
31.0077272800759
20
-5.18095367343474
30
0
41
1
10
31.4747007999567
20
-5.43562689910976
30
0
41
1
10
31.9415921968642
20
-5.6852169660778
30
0
41
1
10
32.4084019240183
20
-5.92954744613539
30
0
41
1
10
33.3418772516368
20
-6.40715158430791
30
0
41
1
10
34.4305529338122
20
-6.9309278764255
30
0
41
1
10
35.6745127369437
20
-7.47780155178157
30
0
41
1
10
36.6074334703343
20
-7.86049685359353
30
0
41
1
10
37.5403580116682
20
-8.21434926843307
30
0
41
1
10
38.7843618290485
20
-8.64581972825761
30
0
41
1
10
39.873033567344
20
-8.96843340955422
30
0
41
1
10
40.8064019127358
20
-9.20352162241568
30
0
41
1
10
41.4287140919498
20
-9.34911680917514
30
0
41
1
10
42.2067282562891
20
-9.50941624611383
30
0
41
1
10
43.1404840859736
20
-9.66679183349657
30
0
41
1
10
43.9187236277854
20
-9.76840285642783
30
0
41
1
10
44.5413661221556
20
-9.83190611462194
30
0
41
1
10
45.1640332587834
20
-9.88329636724259
30
0
41
1
10
45.9424289607962
20
-9.92466592887436
30
0
41
1
10
46.8765504953672
20
-9.93780371296253
30
0
41
1
10
47.8106836936263
20
-9.91441604100089
30
0
41
1
10
48.7447498987536
20
-9.85478167892157
30
0
41
1
10
49.737708692692
20
-9.75256071025092
30
0
41
1
10
50.4195818776429
20
-9.65369702848182
30
0
41
1
10
50.7901203807456
20
-9.59166239739952
30
0
0
SPLINE
5
11D
100
AcDbEntity
8
1
62
256
6
ByLayer
370
18
48
1
60
0
100
AcDbSpline
70
4
71
3
72
8
73
4
40
0
40
0
40
0
40
0
40
1
40
1
40
1
40
1
41
1
10
59.9659471142715
20
-1.67393442177593
30
0
41
1
10
59.994914228006
20
-1.80640589993149
30
0
41
1
10
60.0245155386518
20
-1.93977636161964
30
0
41
1
10
60.054790736443
20
-2.07410206833643
30
0
0
SPLINE
5
11E
100
AcDbEntity
8
1
62
256
6
ByLayer
370
18
48
1
60
0
100
AcDbSpline
70
4
71
3
72
8
73
4
40
0
40
0
40
0
40
0
40
1
40
1
40
1
40
1
41
1
10
59.8968254731682
20
-1.46517129991861
30
0
41
1
10
59.9196561198345
20
-1.53445789508075
30
0
41
1
10
59.9426951335028
20
-1.60404340276233
30
0
41
1
10
59.9659471142715
20
-1.67393442177593
30
0
0
SPLINE
5
11F
100
AcDbEntity
8
1
62
256
6
ByLayer
370
13
48
1
60
0
100
AcDbSpline
70
4
71
3
72
12
73
8
40
0
40
0
40
0
40
0
40
0.138820163387302
40
0.387276692227922
40
0.635733221068542
40
0.884189749909162
40
1
40
1
40
1
40
1
41
1
10
59.8968254732034
20
-1.46517129986859
30
0
41
1
10
59.4312169821357
20
-1.15363599630405
30
0
41
1
10
58.1322751577346
20
-0.277808836736313
30
0
41
1
10
56.0000000000001
20
1.18010874116334
30
0
41
1
10
53.5000000000001
20
2.83304244496327
30
0
41
1
10
51.4449010301346
20
4.12500698426638
30
0
41
1
10
50.2231353936023
20
4.83151038469362
30
0
41
1
10
49.8347030904034
20
5.04943743188414
30
0
0
SPLINE
5
120
100
AcDbEntity
8
1
62
256
6
ByLayer
370
18
48
1
60
0
100
AcDbSpline
70
4
71
3
72
8
73
4
40
0
40
0
40
0
40
0
40
1
40
1
40
1
40
1
41
1
10
60.2923202484819
20
-4.00325611888536
30
0
41
1
10
60.2943111923155
20
-4.01565342734864
30
0
41
1
10
60.2963022322658
20
-4.02804972656028
30
0
41
1
10
60.298293367287
20
-4.04044500978242
30
0
0
SPLINE
5
121
100
AcDbEntity
8
1
62
256
6
ByLayer
370
18
48
1
60
0
100
AcDbSpline
70
4
71
3
72
12
73
8
40
0
40
0
40
0
40
0
40
0.351415379126113
40
0.351415379126113
40
0.67570648567726
40
0.67570648567726
40
1
40
1
40
1
40
1
41
1
10
60.2923202484819
20
-4.00325611888533
30
0
41
1
10
60.2983445955572
20
-4.00758507197674
30
0
41
1
10
60.3043621446953
20
-4.01192211410367
30
0
41
1
10
60.3159194798278
20
-4.02027712033055
30
0
41
1
10
60.3214603024814
20
-4.02429388180508
30
0
41
1
10
60.332530048725
20
-4.0323414403039
30
0
41
1
10
60.338058982518
20
-4.03637224491607
30
0
41
1
10
60.3435818628149
20
-4.04041011076009
30
0
0
SPLINE
5
122
100
AcDbEntity
8
1
62
256
6
ByLayer
370
18
48
1
60
0
100
AcDbSpline
70
4
71
3
72
42
73
38
40
0
40
0
40
0
40
0
40
0.0312499999999799
40
0.0312499999999799
40
0.0624999999999599
40
0.0624999999999599
40
0.0937499999999398
40
0.0937499999999398
40
0.109374999999951
40
0.109374999999951
40
0.124999999999963
40
0.124999999999963
40
0.140624999999974
40
0.140624999999974
40
0.156249999999986
40
0.156249999999986
40
0.171874999999998
40
0.171874999999998
40
0.187500000000009
40
0.187500000000009
40
0.21875
40
0.21875
40
0.249999999999991
40
0.249999999999991
40
0.281249999999982
40
0.281249999999982
40
0.312499999999973
40
0.312499999999973
40
0.37499999999997
40
0.37499999999997
40
0.499999999999977
40
0.499999999999977
40
0.624999999999983
40
0.624999999999983
40
0.749999999999989
40
0.749999999999989
40
1
40
1
40
1
40
1
41
1
10
60.3435818628147
20
-4.04041011075998
30
0
41
1
10
60.3511762094219
20
-4.04596245865162
30
0
41
1
10
60.3590076977391
20
-4.05112386376649
30
0
41
1
10
60.3753330512755
20
-4.06035912972894
30
0
41
1
10
60.3838948607505
20
-4.06445837623775
30
0
41
1
10
60.4014989369141
20
-4.07084326226325
30
0
41
1
10
60.4105586283237
20
-4.07316021797536
30
0
41
1
10
60.4247172087545
20
-4.07471212938873
30
0
41
1
10
60.4295309401131
20
-4.07489527798276
30
0
41
1
10
60.4390265304372
20
-4.07449792566308
30
0
41
1
10
60.4437491703949
20
-4.07392367341035
30
0
41
1
10
60.4531406539698
20
-4.0719664602758
30
0
41
1
10
60.4578184846183
20
-4.07057021665122
30
0
41
1
10
60.466770332659
20
-4.0670775015279
30
0
41
1
10
60.4710909542548
20
-4.06497475403586
30
0
41
1
10
60.4794487905984
20
-4.06011849241906
30
0
41
1
10
60.4834990931332
20
-4.05734919358099
30
0
41
1
10
60.491124165205
20
-4.0514034567295
30
0
41
1
10
60.494731704715
20
-4.04821121670426
30
0
41
1
10
60.5050492494853
20
-4.03809397039018
30
0
41
1
10
60.511301568914
20
-4.03056936329477
30
0
41
1
10
60.5225755802915
20
-4.01489094816176
30
0
41
1
10
60.5276214619243
20
-4.00672794838533
30
0
41
1
10
60.536897120941
20
-3.9899550752078
30
0
41
1
10
60.5411228393214
20
-3.9813429748844
30
0
41
1
10
60.5489615301864
20
-3.96378332913702
30
0
41
1
10
60.5525660484644
20
-3.95484587899969
30
0
41
1
10
60.5625512875256
20
-3.92797354066289
30
0
41
1
10
60.5681768647451
20
-3.90985479494023
30
0
41
1
10
60.583127254535
20
-3.85511791195887
30
0
41
1
10
60.5905608466068
20
-3.81812604712778
30
0
41
1
10
60.6027956994761
20
-3.74362043004834
30
0
41
1
10
60.6075430411152
20
-3.70603486482122
30
0
41
1
10
60.6152240750547
20
-3.63097688586734
30
0
41
1
10
60.6181520557991
20
-3.5934536408283
30
0
41
1
10
60.6249935602461
20
-3.48089066042977
30
0
41
1
10
60.6270057180729
20
-3.40585725354785
30
0
41
1
10
60.6274621799599
20
-3.33081660461684
30
0
0
SPLINE
5
123
100
AcDbEntity
8
1
62
256
6
ByLayer
370
18
48
1
60
0
100
AcDbSpline
70
4
71
3
72
8
73
4
40
0
40
0
40
0
40
0
40
1
40
1
40
1
40
1
41
1
10
60.6274621799599
20
-3.33081660461687
30
0
41
1
10
60.4349501226775
20
-2.91609271877209
30
0
41
1
10
60.2440651276305
20
-2.49717372829957
30
0
41
1
10
60.0547907364418
20
-2.07410206833922
30
0
0
SPLINE
5
124
100
AcDbEntity
8
1
62
256
6
ByLayer
370
18
48
1
60
0
100
AcDbSpline
70
4
71
3
72
73
73
69
40
0
40
0
40
0
40
0
40
0.0538575465813641
40
0.0538575465813641
40
0.0807863198720462
40
0.0807863198720462
40
0.107715093162728
40
0.107715093162728
40
0.121179479808069
40
0.121179479808069
40
0.13464386645341
40
0.13464386645341
40
0.161572639744092
40
0.161572639744092
40
0.215430186325456
40
0.215430186325456
40
0.269287732906821
40
0.269287732906821
40
0.296216506197503
40
0.296216506197503
40
0.323145279488186
40
0.323145279488186
40
0.377002826069551
40
0.377002826069551
40
0.403931599360234
40
0.403931599360234
40
0.430860372650916
40
0.457789145941599
40
0.457789145941599
40
0.471253532586941
40
0.471253532586941
40
0.484717919232283
40
0.484717919232283
40
0.511646692522968
40
0.511646692522968
40
0.538575465813653
40
0.538575465813653
40
0.592433012395022
40
0.592433012395022
40
0.619361785685706
40
0.619361785685706
40
0.646290558976391
40
0.646290558976391
40
0.673219332267075
40
0.673219332267075
40
0.700148105557759
40
0.700148105557759
40
0.754005652139128
40
0.754005652139128
40
0.780934425429813
40
0.780934425429813
40
0.794398812075156
40
0.794398812075156
40
0.807863198720499
40
0.807863198720499
40
0.834791972011185
40
0.834791972011185
40
0.861720745301872
40
0.861720745301872
40
0.915578291883247
40
0.915578291883247
40
0.942507065173935
40
0.942507065173935
40
0.969435838464623
40
0.969435838464623
40
0.996364611755311
40
0.996364611755311
40
1
40
1
40
1
40
1
41
1
10
60.0547907364222
20
-2.0741020683306
30
0
41
1
10
59.6456720318466
20
-1.78458073051718
30
0
41
1
10
59.2368367573961
20
-1.49271985631273
30
0
41
1
10
58.6236095738272
20
-1.05195434843125
30
0
41
1
10
58.4192136113443
20
-0.904523341161621
30
0
41
1
10
58.0103266163762
20
-0.608797279890723
30
0
41
1
10
57.8058285449831
20
-0.460510899836805
30
0
41
1
10
57.4988288061446
20
-0.237683974984975
30
0
41
1
10
57.3964533108951
20
-0.163342385281822
30
0
41
1
10
57.1915887924229
20
-0.0145680587795027
30
0
41
1
10
57.0890822821248
20
0.0598769530000425
30
0
41
1
10
56.7820469458087
20
0.282784133577792
30
0
41
1
10
56.5777753479607
20
0.430984995511864
30
0
41
1
10
55.9659012490947
20
0.873946517124438
30
0
41
1
10
55.5591529905341
20
1.16693566395256
30
0
41
1
10
54.7470848805442
20
1.74729354637776
30
0
41
1
10
54.3418294495093
20
2.03474298145508
30
0
41
1
10
53.7348251022113
20
2.46137822965531
30
0
41
1
10
53.5326370855262
20
2.6028353089439
30
0
41
1
10
53.1284500797835
20
2.88409365307817
30
0
41
1
10
52.9264399448731
20
3.02387986906956
30
0
41
1
10
52.32033494423
20
3.44023622872316
30
0
41
1
10
51.9161905216321
20
3.71379832303461
30
0
41
1
10
51.3082857842916
20
4.11620705745761
30
0
41
1
10
51.105366218464
20
4.24902187094199
30
0
41
1
10
50.6987444494409
20
4.5117266029909
30
0
41
1
10
50.2913589680579
20
4.77153032002556
30
0
41
1
10
49.8822973247505
20
5.02529395470899
30
0
41
1
10
49.5748054895623
20
5.21324107202005
30
0
41
1
10
49.472136733113
20
5.27552673107792
30
0
41
1
10
49.2671496622704
20
5.39892829674687
30
0
41
1
10
49.1647694571958
20
5.46008253935057
30
0
41
1
10
48.8579527500844
20
5.64188813089888
30
0
41
1
10
48.6538449315339
20
5.76087918700594
30
0
41
1
10
48.2463791721619
20
5.99434951595035
30
0
41
1
10
48.0430120766834
20
6.10883315546047
30
0
41
1
10
47.4336900430063
20
6.44544574343556
30
0
41
1
10
47.0285032005018
20
6.66077565089344
30
0
41
1
10
46.4215991411678
20
6.96908271487874
30
0
41
1
10
46.2194338313195
20
7.06941096598086
30
0
41
1
10
45.8151949003466
20
7.26508552065525
30
0
41
1
10
45.6131178347893
20
7.3604399048682
30
0
41
1
10
45.2089374422732
20
7.54598693434315
30
0
41
1
10
45.0068387382407
20
7.6361702409269
30
0
41
1
10
44.60248268932
20
7.81116337790206
30
0
41
1
10
44.4002068404454
20
7.89601004306746
30
0
41
1
10
43.7927998173718
20
8.14251517854413
30
0
41
1
10
43.387131124027
20
8.29607937577231
30
0
41
1
10
42.7766655262629
20
8.50890082290843
30
0
41
1
10
42.572834124773
20
8.57695992524421
30
0
41
1
10
42.2664287776995
20
8.67469606766406
30
0
41
1
10
42.1641857185838
20
8.70654313659321
30
0
41
1
10
41.9594660668752
20
8.76874243571001
30
0
41
1
10
41.8569315638322
20
8.79911146787543
30
0
41
1
10
41.5494330039424
20
8.88779443817805
30
0
41
1
10
41.3446316114936
20
8.94366736534772
30
0
41
1
10
40.9353403781274
20
9.04882021254954
30
0
41
1
10
40.7308329142996
20
9.09814273159245
30
0
41
1
10
40.1174786183228
20
9.23650243917078
30
0
41
1
10
39.7088837022227
20
9.31577846539506
30
0
41
1
10
39.0957478580618
20
9.4143464881931
30
0
41
1
10
38.8913052111483
20
9.44386284638935
30
0
41
1
10
38.482050286821
20
9.49639279716919
30
0
41
1
10
38.2772514597266
20
9.5193515247939
30
0
41
1
10
37.8671682431017
20
9.55849698826569
30
0
41
1
10
37.6625322186413
20
9.57462764046142
30
0
41
1
10
37.4307383774215
20
9.58902601727311
30
0
41
1
10
37.4031752205864
20
9.59067590307259
30
0
41
1
10
37.3756189735279
20
9.59226313736949
30
0
0
SPLINE
5
125
100
AcDbEntity
8
1
62
256
6
ByLayer
370
18
48
1
60
0
100
AcDbSpline
70
4
71
3
72
39
73
35
40
0
40
0
40
0
40
0
40
0.0048470875375402
40
0.0230849919320372
40
0.0413228963265342
40
0.0777987051155281
40
0.114274513904522
40
0.150750322693516
40
0.168988227088013
40
0.18722613148251
40
0.223701940271503
40
0.241939844666
40
0.260177749060498
40
0.296653557849491
40
0.314891462243988
40
0.333129366638485
40
0.369605175427479
40
0.387843079821976
40
0.406080984216473
40
0.442556793005467
40
0.479032601794461
40
0.515508410583454
40
0.551984219372448
40
0.588460028161442
40
0.66141164573943
40
0.697887454528424
40
0.734363263317418
40
0.770839072106412
40
0.807314880895406
40
0.8437906896844
40
0.880266498473393
40
0.916742307262387
40
0.953218116051381
40
1
40
1
40
1
40
1
41
1
10
34.6094624582752
20
9.91772763571279
30
0
41
1
10
34.6506122885755
20
9.91606536210097
30
0
41
1
10
34.8465919059223
20
9.90747060580836
30
0
41
1
10
35.197380714285
20
9.88631078337093
30
0
41
1
10
35.8166228296072
20
9.83302309307476
30
0
41
1
10
36.5906541782328
20
9.7359626974729
30
0
41
1
10
37.5195347357037
20
9.57168281243659
30
0
41
1
10
38.2937394432037
20
9.3956706228862
30
0
41
1
10
38.9132050806217
20
9.23198625558092
30
0
41
1
10
39.532746709397
20
9.05332742362347
30
0
41
1
10
40.1524104207034
20
8.85214575207294
30
0
41
1
10
40.7722108956443
20
8.6293462225307
30
0
41
1
10
41.3921080926993
20
8.39247271994375
30
0
41
1
10
42.0121640392926
20
8.13466282156713
30
0
41
1
10
42.632353079336
20
7.85703578202501
30
0
41
1
10
43.252623542437
20
7.56657657538426
30
0
41
1
10
43.8730044255737
20
7.25716437234033
30
0
41
1
10
44.4934732696377
20
6.93012203142265
30
0
41
1
10
45.1139917197561
20
6.59174006510935
30
0
41
1
10
45.8897269825064
20
6.14802371700034
30
0
41
1
10
46.8206800782937
20
5.58541716434681
30
0
41
1
10
47.7516443996601
20
4.99524698346511
30
0
41
1
10
48.682501145972
20
4.38073429031581
30
0
41
1
10
49.9237553296559
20
3.5323196823536
30
0
41
1
10
51.1663484544445
20
2.64615172120125
30
0
41
1
10
52.4125606185039
20
1.73357544245121
30
0
41
1
10
53.3494999092367
20
1.03871150346606
30
0
41
1
10
54.2893243534841
20
0.33652417367486
30
0
41
1
10
55.2325920405486
20
-0.369910862050631
30
0
41
1
10
56.1799823521732
20
-1.07754846269421
30
0
41
1
10
57.1319799441919
20
-1.7831161605595
30
0
41
1
10
58.0892385659697
20
-2.48336211606042
30
0
41
1
10
59.1429490945946
20
-3.23995794108609
30
0
41
1
10
59.8813400223204
20
-3.75539852192591
30
0
41
1
10
60.2982933740896
20
-4.0404450119982
30
0
0
SPLINE
5
126
100
AcDbEntity
8
1
62
256
6
ByLayer
370
18
48
1
60
0
100
AcDbSpline
70
4
71
3
72
8
73
4
40
0
40
0
40
0
40
0
40
1
40
1
40
1
40
1
41
1
10
60.4306992837839
20
-4.81639664542709
30
0
41
1
10
60.4370065662401
20
-4.85195139557268
30
0
41
1
10
60.4433122017077
20
-4.88748038703216
30
0
41
1
10
60.4496161593314
20
-4.92298344693467
30
0
0
SPLINE
5
127
100
AcDbEntity
8
1
62
256
6
ByLayer
370
18
48
1
60
0
100
AcDbSpline
70
4
71
3
72
8
73
4
40
0
40
0
40
0
40
0
40
1
40
1
40
1
40
1
41
1
10
60.4188020561721
20
-4.92288885931805
30
0
41
1
10
60.4549474962769
20
-4.92599316540691
30
0
41
1
10
60.4910935564697
20
-4.92913678288076
30
0
41
1
10
60.5272402368186
20
-4.93231971607307
30
0
0
SPLINE
5
128
100
AcDbEntity
8
1
62
256
6
ByLayer
370
18
48
1
60
0
100
AcDbSpline
70
4
71
3
72
10
73
6
40
0
40
0
40
0
40
0
40
0.5
40
0.5
40
1
40
1
40
1
40
1
41
1
10
60.5272402368187
20
-4.93231971607284
30
0
41
1
10
60.5222203287697
20
-4.92997399484238
30
0
41
1
10
60.5170228691711
20
-4.92797183828503
30
0
41
1
10
60.5061013088322
20
-4.92498919388606
30
0
41
1
10
60.500436206987
20
-4.92403838451435
30
0
41
1
10
60.49467507445
20
-4.92386954121537
30
0
0
SPLINE
5
129
100
AcDbEntity
8
1
62
256
6
ByLayer
370
18
48
1
60
0
100
AcDbSpline
70
4
71
3
72
12
73
8
40
0
40
0
40
0
40
0
40
0.254394537315976
40
0.254394537315976
40
0.508789141421534
40
0.508789141421534
40
1
40
1
40
1
40
1
41
1
10
60.4946750744419
20
-4.92386954124132
30
0
41
1
10
60.4908553517068
20
-4.92375759544274
30
0
41
1
10
60.4870352510247
20
-4.92365473132946
30
0
41
1
10
60.4793944322549
20
-4.92346759107619
30
0
41
1
10
60.4755736877516
20
-4.92338331428709
30
0
41
1
10
60.4643747752692
20
-4.92316418531752
30
0
41
1
10
60.4569957385116
20
-4.92305527512173
30
0
41
1
10
60.4496161593315
20
-4.92298344693467
30
0
0
SPLINE
5
12A
100
AcDbEntity
8
1
62
256
6
ByLayer
370
13
48
1
60
0
100
AcDbSpline
70
4
71
3
72
82
73
78
40
0
40
0
40
0
40
0
40
0.0298620970112926
40
0.0714725888955015
40
0.133888326721815
40
0.175498818606024
40
0.217109310490233
40
0.258719802374442
40
0.300330294258651
40
0.34194078614286
40
0.383551278027069
40
0.425161769911278
40
0.466772261795487
40
0.497980130708643
40
0.518785376650748
40
0.5291879996218
40
0.539590622592852
40
0.549993245563905
40
0.560395868534957
40
0.568197835763246
40
0.573399147248772
40
0.575349639055844
40
0.577300130862917
40
0.578275376766453
40
0.579250622669989
40
0.579738245621757
40
0.580144598081564
40
0.580388409557448
40
0.580632221033332
40
0.580876032509216
40
0.581526196444907
40
0.582501442348443
40
0.583801770219824
40
0.585102098091206
40
0.587052589898278
40
0.58900308170535
40
0.592904065319495
40
0.59680504893364
40
0.602006360419166
40
0.607207671904692
40
0.615009639132981
40
0.62281160636127
40
0.630613573589559
40
0.638415540817849
40
0.643616852303375
40
0.648818163788901
40
0.654019475274427
40
0.657920458888571
40
0.661821442502716
40
0.664422098245479
40
0.666372590052551
40
0.668323081859624
40
0.66929832776316
40
0.670273573666696
40
0.670761196618464
40
0.671167549078271
40
0.671370725308174
40
0.671492631046116
40
0.671614536784058
40
0.671736442522
40
0.671980253997884
40
0.672386606457691
40
0.672874229409459
40
0.673849475312995
40
0.675474885152222
40
0.677425376959295
40
0.681326360573439
40
0.685227344187584
40
0.69042865567311
40
0.700831278644162
40
0.726837836071793
40
0.758045704984949
40
0.799656196869158
40
0.841266688753367
40
0.882877180637576
40
0.924487672521785
40
1
40
1
40
1
40
1
41
1
10
51.272072338582
20
1.73661939914655
30
0
41
1
10
50.9730482257213
20
1.94274167324778
30
0
41
1
10
50.257357446194
20
2.43289494138983
30
0
41
1
10
48.9166666666667
20
3.33171661615714
30
0
41
1
10
47.4583333333334
20
4.26848088262605
30
0
41
1
10
46
20
5.1484869719084
30
0
41
1
10
44.7500000000001
20
5.85661211520599
30
0
41
1
10
43.5000000000001
20
6.51298783566665
30
0
41
1
10
42.25
20
7.11203030766748
30
0
41
1
10
41
20
7.64812145540211
30
0
41
1
10
39.75
20
8.11558560722153
30
0
41
1
10
38.4999999999999
20
8.5112918241924
30
0
41
1
10
37.3541666666667
20
8.80532784195739
30
0
41
1
10
36.4166666666667
20
8.9946673145181
30
0
41
1
10
35.7916666666666
20
9.09565350387402
30
0
41
1
10
35.375
20
9.15278483055573
30
0
41
1
10
35.0625
20
9.19053820527768
30
0
41
1
10
34.75
20
9.22319074119349
30
0
41
1
10
34.4635416666666
20
9.24844275811236
30
0
41
1
10
34.2291666666668
20
9.26575031995949
30
0
41
0.999999999999999
10
34.0794270833332
20
9.27527664013989
30
0
41
1
10
33.9882812500001
20
9.28056237319657
30
0
41
1
10
33.939453125
20
9.28324411609284
30
0
41
1
10
33.900390625
20
9.28529955393239
30
0
41
1
10
33.8759765625
20
9.2865467172388
30
0
41
1
10
33.8572591145832
20
9.28748131969434
30
0
41
1
10
33.8458658854167
20
9.28804218932592
30
0
41
1
10
33.8369140625
20
9.2884782902467
30
0
41
1
10
33.8295898437501
20
9.28883228812165
30
0
41
1
10
33.8181966145833
20
9.28937857720561
30
0
41
1
10
33.7994791666667
20
9.29026287691424
30
0
41
1
10
33.7701822916666
20
9.29160950116452
30
0
41
1
10
33.734375
20
9.29319120760657
30
0
41
0.999999999999999
10
33.6888020833334
20
9.2951109419858
30
0
41
1
10
33.63671875
20
9.29717155498548
30
0
41
1
10
33.5585937500001
20
9.30002236397081
30
0
41
1
10
33.4609374999999
20
9.30313558101119
30
0
41
0.999999999999999
10
33.3307291666668
20
9.30648570100127
30
0
41
1
10
33.1875000000001
20
9.30914268489284
30
0
41
1
10
33.0052083333334
20
9.31102800557844
30
0
41
1
10
32.796875
20
9.31104391645277
30
0
41
1
10
32.5625
20
9.30817207214486
30
0
41
1
10
32.328125
20
9.30240795848522
30
0
41
1
10
32.1197916666667
20
9.29471109068516
30
0
41
1
10
31.9375000000001
20
9.28609829865672
30
0
41
0.999999999999999
10
31.78125
20
9.27742730215994
30
0
41
0.999999999999999
10
31.6380208333334
20
9.2682969150873
30
0
41
1
10
31.5078125
20
9.25905574682121
30
0
41
1
10
31.4036458333334
20
9.25101736296057
30
0
41
1
10
31.3190104166667
20
9.24404893530857
30
0
41
1
10
31.25390625
20
9.23845309008056
30
0
41
1
10
31.205078125
20
9.23410476457795
30
0
41
0.999999999999999
10
31.166015625
20
9.23053521613685
30
0
41
1
10
31.1416015625001
20
9.22826637351604
30
0
41
0.999999999999998
10
31.1228841145833
20
9.22650514668768
30
0
41
1
10
31.1118977864584
20
9.22546356992925
30
0
41
0.999999999999999
10
31.1045735677083
20
9.22476563378622
30
0
41
1
10
31.1000976562501
20
9.22433795965266
30
0
41
0.999999999999999
10
31.096435546875
20
9.22398733409461
30
0
41
1
10
31.091552734375
20
9.22351888619155
30
0
41
1
10
31.0838216145833
20
9.22277492747287
30
0
41
1
10
31.0724283854168
20
9.2216726735395
30
0
41
1
10
31.0537109375
20
9.21984851356748
30
0
41
1
10
31.0227864583334
20
9.21679868632435
30
0
41
0.999999999999999
10
30.9772135416666
20
9.21220987700543
30
0
41
1
10
30.9023437500001
20
9.20445808864943
30
0
41
1
10
30.8046874999999
20
9.19389317208769
30
0
41
1
10
30.6744791666667
20
9.17900206735734
30
0
41
1
10
30.4791666666666
20
9.15526174429817
30
0
41
1
10
30.0625
20
9.09950293721609
30
0
41
0.999999999999997
10
29.3854166666667
20
8.98966538790634
30
0
41
1
10
28.3958333333334
20
8.785858919338
30
0
41
0.999999999999999
10
27.25
20
8.48764805747832
30
0
41
1
10
26
20
8.08726981453452
30
0
41
1
10
24.75
20
7.61430677455255
30
0
41
1
10
23.1605239642408
20
6.92720445299912
30
0
41
0.999999999999999
10
21.9877145951486
20
6.33801602262765
30
0
41
1
10
21.2315718927228
20
5.92903459462704
30
0
0
SPLINE
5
12B
100
AcDbEntity
8
1
62
256
6
ByLayer
370
18
48
1
60
0
100
AcDbSpline
70
4
71
3
72
43
73
39
40
0
40
0
40
0
40
0
40
0.015691820092956
40
0.0477117929905243
40
0.0797317658880927
40
0.0957417523368769
40
0.111751738785661
40
0.175791684580798
40
0.207811657478366
40
0.22382164392715
40
0.239831630375935
40
0.303871576171071
40
0.33589154906864
40
0.351901535517424
40
0.367911521966208
40
0.399931494863776
40
0.41594148131256
40
0.431951467761345
40
0.447961454210129
40
0.463971440658913
40
0.479981427107697
40
0.495991413556482
40
0.560031359351618
40
0.592051332249187
40
0.624071305146755
40
0.656091278044323
40
0.688111250941892
40
0.752151196737028
40
0.768161183185813
40
0.784171169634597
40
0.816191142532165
40
0.848211115429734
40
0.880231088327302
40
0.896241074776086
40
0.91225106122487
40
0.944271034122439
40
0.976291007020007
40
1
40
1
40
1
40
1
41
1
10
18.389075050068
20
1.95795616611997
30
0
41
1
10
18.5417545156778
20
1.86074307474908
30
0
41
1
10
19.0060508360028
20
1.56424310733914
30
0
41
1
10
19.7822594334274
20
1.06474363109356
30
0
41
1
10
20.5619164584563
20
0.559729060477792
30
0
41
1
10
21.1858102882454
20
0.154767198394922
30
0
41
1
10
22.1217904363372
20
-0.45306126646085
30
0
41
1
10
23.2140749516296
20
-1.1615756223292
30
0
41
1
10
24.3062289189575
20
-1.86118299675357
30
0
41
1
10
24.9302057895561
20
-2.25726486476626
30
0
41
1
10
25.8660409697152
20
-2.8471343631856
30
0
41
1
10
26.9574803318988
20
-3.52133229730302
30
0
41
1
10
28.0484367729054
20
-4.17137381043869
30
0
41
1
10
28.6717043289404
20
-4.53477208446964
30
0
41
1
10
29.2948685794229
20
-4.89265438993962
30
0
41
1
10
29.9178891715533
20
-5.24153642047591
30
0
41
1
10
30.5407470033894
20
-5.58055756656717
30
0
41
1
10
31.0078133187177
20
-5.82966454869941
30
0
41
1
10
31.4747919410454
20
-6.07339357043855
30
0
41
1
10
31.941689721846
20
-6.31144577597402
30
0
41
1
10
32.408502904787
20
-6.54364835838868
30
0
41
1
10
33.3419790512421
20
-6.99593049702582
30
0
41
1
10
34.4306530278846
20
-7.48713011480493
30
0
41
1
10
35.6746108535052
20
-7.9925820848936
30
0
41
1
10
36.607526632865
20
-8.3423020117765
30
0
41
1
10
37.5404539972308
20
-8.66136723268454
30
0
41
1
10
38.7844543563987
20
-9.04438616814056
30
0
41
1
10
39.873136694801
20
-9.3221615968634
30
0
41
1
10
40.8065073090103
20
-9.5170384371518
30
0
41
1
10
41.4288157772784
20
-9.63531010333676
30
0
41
1
10
42.2068194429894
20
-9.7609864730363
30
0
41
1
10
43.1405751022766
20
-9.87599566247786
30
0
41
1
10
43.9188184374118
20
-9.94165118664435
30
0
41
1
10
44.541464301557
20
-9.97593545946756
30
0
41
1
10
45.1641349982697
20
-9.99790692934499
30
0
41
1
10
45.9425264704502
20
-10.0023606380655
30
0
41
1
10
46.7958260042173
20
-9.97365269655327
30
0
41
1
10
47.3377621046676
20
-9.93692912291962
30
0
41
1
10
47.5683157630151
20
-9.91797242303014
30
0
0
SPLINE
5
12C
100
AcDbEntity
8
1
62
256
6
ByLayer
370
18
48
1
60
0
100
AcDbSpline
70
4
71
3
72
54
73
50
40
0
40
0
40
0
40
0
40
0.108518718988527
40
0.108518718988527
40
0.122083558862094
40
0.122083558862094
40
0.13564839873566
40
0.13564839873566
40
0.162778078482793
40
0.162778078482793
40
0.217037437977061
40
0.217037437977061
40
0.271296797471328
40
0.271296797471328
40
0.325556156965596
40
0.325556156965596
40
0.352685836712729
40
0.352685836712729
40
0.379815516459863
40
0.379815516459863
40
0.434074875954129
40
0.434074875954129
40
0.488334235448395
40
0.488334235448395
40
0.542593594942662
40
0.542593594942662
40
0.569723274689794
40
0.569723274689794
40
0.596852954436926
40
0.651112313931192
40
0.651112313931192
40
0.705371673425458
40
0.705371673425458
40
0.732501353172591
40
0.746066193046157
40
0.746066193046157
40
0.759631032919723
40
0.759631032919723
40
0.86814975190825
40
0.86814975190825
40
0.922409111402514
40
0.922409111402514
40
0.949538791149645
40
0.949538791149645
40
0.963103631023211
40
0.963103631023211
40
0.976668470896778
40
0.976668470896778
40
1
40
1
40
1
40
1
41
1
10
21.0000000000002
20
0.145418026888052
30
0
41
1
10
21.8217696123854
20
-0.388193223019726
30
0
41
1
10
22.6416339272744
20
-0.92130271698008
30
0
41
1
10
23.5652411515629
20
-1.5152672084489
30
0
41
1
10
23.6678822830591
20
-1.58118185746591
30
0
41
1
10
23.873213674524
20
-1.71282831763884
30
0
41
1
10
23.9759235057582
20
-1.77857259291272
30
0
41
1
10
24.2838648763138
20
-1.97532072522824
30
0
41
1
10
24.4889810983424
20
-2.10588630644139
30
0
41
1
10
25.1039533464602
20
-2.49554779671766
30
0
41
1
10
25.513433943019
20
-2.75260884413689
30
0
41
1
10
26.3322182145536
20
-3.26014344778341
30
0
41
1
10
26.7415213520476
20
-3.51061926441559
30
0
41
1
10
27.560757143968
20
-4.00381732646119
30
0
41
1
10
27.9706894295021
20
-4.24653843644165
30
0
41
1
10
28.5866742848708
20
-4.60385700811531
30
0
41
1
10
28.7922335023964
20
-4.72188137367439
30
0
41
1
10
29.2028263302683
20
-4.95502967848924
30
0
41
1
10
29.4079765743891
20
-5.07020837534282
30
0
41
1
10
30.023124971511
20
-5.41140115105446
30
0
41
1
10
30.4328230958167
20
-5.63308006014688
30
0
41
1
10
31.2520721385826
20
-6.06411204898785
30
0
41
1
10
31.6616131492823
20
-6.27346293616677
30
0
41
1
10
32.4812716364168
20
-6.67880722341505
30
0
41
1
10
32.8913873494156
20
-6.87482333281798
30
0
41
1
10
33.5075799486457
20
-7.15813324057186
30
0
41
1
10
33.7128849631551
20
-7.25066178369067
30
0
41
1
10
34.1230950208048
20
-7.43166437631101
30
0
41
1
10
34.737962437347
20
-7.69715748115402
30
0
41
1
10
35.3519547621746
20
-7.94416406587519
30
0
41
1
10
36.1706734321576
20
-8.25626539045339
30
0
41
1
10
36.5800644908861
20
-8.4036966588387
30
0
41
1
10
37.1948209875261
20
-8.611349472874
30
0
41
1
10
37.5023663441053
20
-8.71180430806638
30
0
41
1
10
37.810276781719
20
-8.80709907091267
30
0
41
1
10
38.0156437848406
20
-8.8694726237012
30
0
41
1
10
38.1183931841742
20
-8.90008646201835
30
0
41
1
10
39.0425408721571
20
-9.17005236869301
30
0
41
1
10
39.8614898828008
20
-9.37109073318192
30
0
41
1
10
41.0904237481117
20
-9.61217508811183
30
0
41
1
10
41.5001481190056
20
-9.68242845430464
30
0
41
1
10
42.1153485459758
20
-9.77240870579368
30
0
41
1
10
42.3205184782372
20
-9.79983838467382
30
0
41
1
10
42.6285002797355
20
-9.83710119614227
30
0
41
1
10
42.731226823762
20
-9.84887796101626
30
0
41
1
10
42.9366261124782
20
-9.87111452883732
30
0
41
1
10
43.039277360152
20
-9.88157242228283
30
0
41
1
10
43.3183747923528
20
-9.9082201373183
30
0
41
1
10
43.4947390876699
20
-9.92311812271956
30
0
41
1
10
43.6710125240891
20
-9.93605900083767
30
0
0
SPLINE
5
12D
100
AcDbEntity
8
1
62
256
6
ByLayer
370
18
48
1
60
0
100
AcDbSpline
70
4
71
1
72
4
73
2
40
0
40
0
40
1
40
1
41
1
10
60.9956131013422
20
-5.32795664425743
30
0
41
1
10
60.9956890774028
20
-5.33282804370438
30
0
0
SPLINE
5
12E
100
AcDbEntity
8
1
62
256
6
ByLayer
370
18
48
1
60
0
100
AcDbSpline
70
4
71
1
72
4
73
2
40
0
40
0
40
1
40
1
41
1
10
60.995613101342
20
9.48914109926127
30
0
41
1
10
60.995689077403
20
9.49769278815148
30
0
0
SPLINE
5
12F
100
AcDbEntity
8
1
62
256
6
ByLayer
370
18
48
1
60
0
100
AcDbSpline
70
4
71
1
72
4
73
2
40
0
40
0
40
1
40
1
41
1
10
60.995613101342
20
-4.72900069480599
30
0
41
1
10
60.995689077403
20
-4.73319270470151
30
0
0
SPLINE
5
130
100
AcDbEntity
8
1
62
256
6
ByLayer
370
18
48
1
60
0
100
AcDbSpline
70
4
71
3
72
16
73
12
40
0
40
0
40
0
40
0
40
0.249999999999992
40
0.249999999999992
40
0.374999999999988
40
0.374999999999988
40
0.499999999999984
40
0.499999999999984
40
0.749999999999992
40
0.749999999999992
40
1
40
1
40
1
40
1
41
1
10
18.3843164103812
20
1.96130139302335
30
0
41
1
10
18.3860902567883
20
2.0153068912982
30
0
41
1
10
18.3906303375885
20
2.06890069363897
30
0
41
1
10
18.4013087388133
20
2.14871080139673
30
0
41
1
10
18.405514217772
20
2.17521724978994
30
0
41
1
10
18.4151841424017
20
2.22804082239631
30
0
41
1
10
18.420653112536
20
2.25437216202286
30
0
41
1
10
18.4388318602569
20
2.33277893382146
30
0
41
1
10
18.4533409242358
20
2.38441436241854
30
0
41
1
10
18.4867583546723
20
2.48617965192159
30
0
41
1
10
18.5056289772959
20
2.53620971990173
30
0
41
1
10
18.5265312158586
20
2.58544100084089
30
0
0
SPLINE
5
131
100
AcDbEntity
8
1
62
256
6
ByLayer
370
18
48
1
60
0
100
AcDbSpline
70
4
71
3
72
18
73
14
40
0
40
0
40
0
40
0
40
0.249999999999998
40
0.249999999999998
40
0.499999999999997
40
0.499999999999997
40
0.624999999999996
40
0.624999999999996
40
0.687499999999995
40
0.687499999999995
40
0.749999999999995
40
0.749999999999995
40
1
40
1
40
1
40
1
41
1
10
18.5265312158577
20
2.58544100084146
30
0
41
1
10
18.5006044592381
20
2.69369422286775
30
0
41
1
10
18.4828223745368
20
2.80171639146465
30
0
41
1
10
18.4620691508532
20
3.01721971175002
30
0
41
1
10
18.4591051932303
20
3.12470122413364
30
0
41
1
10
18.4652415098668
20
3.28548126503199
30
0
41
1
10
18.4690559173345
20
3.339001103523
30
0
41
1
10
18.4774081046958
20
3.41916755742443
30
0
41
1
10
18.4806308876181
20
3.44587083482259
30
0
41
1
10
18.4879535267418
20
3.4992392517083
30
0
41
1
10
18.4920434968029
20
3.5258251174744
30
0
41
1
10
18.5145106826616
20
3.65781287037831
30
0
41
1
10
18.5389769897075
20
3.76086718138774
30
0
41
1
10
18.5693708254819
20
3.86161319207398
30
0
0
SPLINE
5
132
100
AcDbEntity
8
1
62
256
6
ByLayer
370
18
48
1
60
0
100
AcDbSpline
70
4
71
3
72
18
73
14
40
0
40
0
40
0
40
0
40
0.265234471301731
40
0.265234471301731
40
0.397851706952593
40
0.397851706952593
40
0.530468942603456
40
0.530468942603456
40
0.795703413905188
40
0.795703413905188
40
0.92832064955605
40
0.92832064955605
40
1
40
1
40
1
40
1
41
1
10
14.0686853637609
20
9.64169170610657
30
0
41
1
10
13.9809183467098
20
9.70583504252426
30
0
41
1
10
13.8910052128467
20
9.76116837312674
30
0
41
1
10
13.7522672481453
20
9.83125529553652
30
0
41
1
10
13.7053751817726
20
9.85246386391077
30
0
41
1
10
13.6101728383089
20
9.8906069137725
30
0
41
1
10
13.5618435782331
20
9.90754393410054
30
0
41
1
10
13.4149298807896
20
9.95187440601813
30
0
41
1
10
13.314306299997
20
9.97284689499128
30
0
41
1
10
13.1585117201798
20
9.99182018675745
30
0
41
1
10
13.1057456517349
20
9.99606345424201
30
0
41
1
10
13.0231663072173
20
9.99943161501722
30
0
41
1
10
12.9939651643242
20
10.0000123228075
30
0
41
1
10
12.9645245814829
20
9.99999984806468
30
0
0
SPLINE
5
133
100
AcDbEntity
8
1
62
256
6
ByLayer
370
18
48
1
60
0
100
AcDbSpline
70
4
71
3
72
12
73
8
40
0
40
0
40
0
40
0
40
0.0906993183101094
40
0.0906993183101094
40
0.272559454648088
40
0.272559454648088
40
1
40
1
40
1
40
1
41
1
10
18.588055816649
20
-9.99999998088654
30
0
41
1
10
18.5900491739906
20
-9.99999912120245
30
0
41
1
10
18.5921475067835
20
-9.9999698198088
30
0
41
1
10
18.5987687557258
20
-9.99979621949561
30
0
41
1
10
18.603600509051
20
-9.99956586150921
30
0
41
1
10
18.6296763551963
20
-9.9978600307478
30
0
41
1
10
18.6567405722967
20
-9.99472310497532
30
0
41
1
10
18.6895005733796
20
-9.99000208162138
30
0
0
SPLINE
5
134
100
AcDbEntity
8
1
62
256
6
ByLayer
370
18
48
1
60
0
100
AcDbSpline
70
4
71
3
72
44
73
40
40
0
40
0
40
0
40
0
40
0.0312500000000007
40
0.0312500000000007
40
0.0625000000000013
40
0.0625000000000013
40
0.093750000000002
40
0.093750000000002
40
0.125000000000003
40
0.125000000000003
40
0.140625000000004
40
0.140625000000004
40
0.156250000000005
40
0.156250000000005
40
0.187500000000006
40
0.187500000000006
40
0.250000000000007
40
0.250000000000007
40
0.312500000000004
40
0.312500000000004
40
0.343750000000005
40
0.343750000000005
40
0.375000000000006
40
0.375000000000006
40
0.437500000000003
40
0.437500000000003
40
0.5
40
0.5
40
0.562499999999997
40
0.562499999999997
40
0.624999999999995
40
0.624999999999995
40
0.749999999999993
40
0.749999999999993
40
0.812499999999995
40
0.812499999999995
40
0.874999999999997
40
0.874999999999997
40
1
40
1
40
1
40
1
41
1
10
11.2417324492463
20
-2.20208595115423
30
0
41
1
10
11.2938635595527
20
-2.11984414555076
30
0
41
1
10
11.3502565867268
20
-2.0414592173592
30
0
41
1
10
11.4700466508368
20
-1.89105467011035
30
0
41
1
10
11.5334508682845
20
-1.81904142755624
30
0
41
1
10
11.6662080722509
20
-1.680445016465
30
0
41
1
10
11.7355650558089
20
-1.61386539797701
30
0
41
1
10
11.879453103809
20
-1.48545077631098
30
0
41
1
10
11.9539865480866
20
-1.42361788693907
30
0
41
1
10
12.069228752147
20
-1.33403992374573
30
0
41
1
10
12.1082177751343
20
-1.30471030777272
30
0
41
1
10
12.1872854068269
20
-1.24705736208517
30
0
41
1
10
12.2272986617679
20
-1.2187843578044
30
0
41
1
10
12.3480918790783
20
-1.13592185078946
30
0
41
1
10
12.4298580767404
20
-1.08310986154163
30
0
41
1
10
12.6783764117227
20
-0.93100740902841
30
0
41
1
10
12.8483233309192
20
-0.838001920838309
30
0
41
1
10
13.1950107983989
20
-0.665405070501578
30
0
41
1
10
13.371765036575
20
-0.585840299512199
30
0
41
1
10
13.6412124507158
20
-0.475046398317687
30
0
41
1
10
13.7317515847793
20
-0.439548398123321
30
0
41
1
10
13.9141820410825
20
-0.371236686862232
30
0
41
1
10
14.0061297982627
20
-0.33840422045148
30
0
41
1
10
14.2835045585348
20
-0.243845349998281
30
0
41
1
10
14.4699676361023
20
-0.186200098057725
30
0
41
1
10
14.8456464912638
20
-0.0805164601417516
30
0
41
1
10
15.0349155449618
20
-0.0324719786736409
30
0
41
1
10
15.4157728461853
20
0.0547077081227485
30
0
41
1
10
15.6070373367503
20
0.0937690685825032
30
0
41
1
10
15.9911302821587
20
0.163421348212665
30
0
41
1
10
16.1840080004775
20
0.194016545956117
30
0
41
1
10
16.7645846998873
20
0.273569496721905
30
0
41
1
10
17.1528971789106
20
0.310196685019434
30
0
41
1
10
17.7371705438161
20
0.341683544134042
30
0
41
1
10
17.9322790367902
20
0.348250864813309
30
0
41
1
10
18.3228993160605
20
0.353514184093285
30
0
41
1
10
18.518026782722
20
0.35220640411805
30
0
41
1
10
19.1028610162205
20
0.336461132303583
30
0
41
1
10
19.4920213079255
20
0.310239112320886
30
0
41
1
10
19.8804281560852
20
0.267757207372512
30
0
0
SPLINE
5
135
100
AcDbEntity
8
1
62
256
6
ByLayer
370
18
48
1
60
0
100
AcDbSpline
70
4
71
3
72
8
73
4
40
0
40
0
40
0
40
0
40
1
40
1
40
1
40
1
41
1
10
18.3289361679528
20
1.86735315527807
30
0
41
1
10
18.3463758928867
20
1.89927844092159
30
0
41
1
10
18.3648550398811
20
1.93058262133334
30
0
41
1
10
18.3843164103827
20
1.96130139302244
30
0
0
SPLINE
5
136
100
AcDbEntity
8
1
62
256
6
ByLayer
370
18
48
1
60
0
100
AcDbSpline
70
4
71
3
72
9
73
5
40
0
40
0
40
0
40
0
40
0.499756984846426
40
1
40
1
40
1
40
1
41
1
10
18.3289267757057
20
1.86733807602081
30
0
41
1
10
18.3389340200831
20
1.88243044125247
30
0
41
1
10
18.3589582412163
20
1.91262984954344
30
0
41
1
10
18.3790328614936
20
1.9428424991728
30
0
41
1
10
18.3890750500692
20
1.95795616611917
30
0
0
SPLINE
5
137
100
AcDbEntity
8
1
62
256
6
ByLayer
370
18
48
1
60
0
100
AcDbSpline
70
4
71
3
72
12
73
8
40
0
40
0
40
0
40
0
40
0.25
40
0.25
40
0.5
40
0.5
40
1
40
1
40
1
40
1
41
1
10
18.3289174364157
20
1.8673239893987
30
0
41
1
10
18.5517942791786
20
1.72621185133906
30
0
41
1
10
18.7747158029444
20
1.58474067631448
30
0
41
1
10
19.2202542865932
20
1.3004788917282
30
0
41
1
10
19.442929305994
20
1.15777660998629
30
0
41
1
10
20.1106558313323
20
0.727920635419366
30
0
41
1
10
20.5552980442481
20
0.438846169812791
30
0
41
1
10
20.999999999998
20
0.148100038977674
30
0
0
SPLINE
5
138
100
AcDbEntity
8
1
62
256
6
ByLayer
370
18
48
1
60
0
100
AcDbSpline
70
4
71
1
72
4
73
2
40
0
40
0
40
1
40
1
41
1
10
20.9999998306309
20
0.148100038997285
30
0
41
1
10
21.0000001693691
20
0.145418026845988
30
0
0
SPLINE
5
139
100
AcDbEntity
8
1
62
256
6
ByLayer
370
18
48
1
60
0
100
AcDbSpline
70
4
71
3
72
39
73
35
40
0
40
0
40
0
40
0
40
0.0462410453479485
40
0.0636338938261005
40
0.0810267423042523
40
0.115812439260556
40
0.15059813621686
40
0.185383833173164
40
0.202776681651316
40
0.220169530129467
40
0.254955227085771
40
0.272348075563923
40
0.289740924042075
40
0.324526620998379
40
0.341919469476531
40
0.359312317954682
40
0.394098014910986
40
0.411490863389138
40
0.42888371186729
40
0.463669408823594
40
0.498455105779898
40
0.533240802736201
40
0.568026499692505
40
0.602812196648809
40
0.672383590561417
40
0.70716928751772
40
0.741954984474024
40
0.776740681430328
40
0.811526378386632
40
0.846312075342936
40
0.881097772299239
40
0.915883469255543
40
0.950669166211847
40
1
40
1
40
1
40
1
41
1
10
33.497921377602
20
9.98890710509733
30
0
41
1
10
33.9097021704287
20
9.97527382462437
30
0
41
1
10
34.4762308686992
20
9.93669940050472
30
0
41
1
10
35.1974849379886
20
9.85315754993135
30
0
41
1
10
35.8167279304449
20
9.76535754662584
30
0
41
1
10
36.5907513902944
20
9.62550960486493
30
0
41
1
10
37.5196379774122
20
9.41052648254518
30
0
41
1
10
38.2938465108655
20
9.19296297641145
30
0
41
1
10
38.9133128185597
20
8.99650320969437
30
0
41
1
10
39.5328504832215
20
8.78533284003191
30
0
41
1
10
40.1525101838641
20
8.55238763799596
30
0
41
1
10
40.7723112065094
20
8.29856535567086
30
0
41
1
10
41.3922120156352
20
8.03113712538095
30
0
41
1
10
42.0122681733805
20
7.74373375561993
30
0
41
1
10
42.6324569308974
20
7.43745059396082
30
0
41
1
10
43.2527251637363
20
7.11895115595436
30
0
41
1
10
43.8731057137127
20
6.78266961707166
30
0
41
1
10
44.4935766995997
20
6.42989082301634
30
0
41
1
10
45.1140977267981
20
6.06653894719321
30
0
41
1
10
45.8898326259476
20
5.59333739850825
30
0
41
1
10
46.8207829998917
20
4.99798097545533
30
0
41
1
10
47.7517492191613
20
4.37801808579505
30
0
41
1
10
48.6826043902364
20
3.73660314626372
30
0
41
1
10
49.9238579796762
20
2.85671540001817
30
0
41
1
10
51.1664794581524
20
1.9456354271054
30
0
41
1
10
52.4126546133944
20
1.01494123925187
30
0
41
1
10
53.349599176422
20
0.310094031619315
30
0
41
1
10
54.2894261631744
20
-0.398466322556288
30
0
41
1
10
55.2327120784079
20
-1.1076026214123
30
0
41
1
10
56.1800796459841
20
-1.81419766998587
30
0
41
1
10
57.1320874844931
20
-2.51494736159134
30
0
41
1
10
58.0893246483299
20
-3.20653810817697
30
0
41
1
10
59.1866182493842
20
-3.98015308750215
30
0
41
1
10
59.9692346068128
20
-4.51171939260215
30
0
41
1
10
60.4306992916781
20
-4.81639665001961
30
0
0
SPLINE
5
13A
100
AcDbEntity
8
1
62
256
6
ByLayer
370
18
48
1
60
0
100
AcDbSpline
70
4
71
3
72
77
73
73
40
0
40
0
40
0
40
0
40
0.0312499999999968
40
0.0312499999999968
40
0.0624999999999937
40
0.0624999999999937
40
0.0781249999999917
40
0.0781249999999917
40
0.0937499999999898
40
0.0937499999999898
40
0.124999999999987
40
0.124999999999987
40
0.156249999999983
40
0.156249999999983
40
0.18749999999998
40
0.18749999999998
40
0.249999999999974
40
0.249999999999974
40
0.257812499999973
40
0.257812499999973
40
0.261718749999973
40
0.261718749999973
40
0.265624999999973
40
0.281249999999974
40
0.281249999999974
40
0.312499999999975
40
0.312499999999975
40
0.343749999999976
40
0.343749999999976
40
0.374999999999977
40
0.374999999999977
40
0.406249999999978
40
0.406249999999978
40
0.437499999999979
40
0.437499999999979
40
0.445312499999979
40
0.445312499999979
40
0.453124999999979
40
0.453124999999979
40
0.468749999999981
40
0.468749999999981
40
0.499999999999983
40
0.499999999999983
40
0.562499999999987
40
0.562499999999987
40
0.624999999999992
40
0.624999999999992
40
0.632812499999993
40
0.636718749999993
40
0.636718749999993
40
0.640624999999993
40
0.640624999999993
40
0.656249999999994
40
0.656249999999994
40
0.687499999999995
40
0.687499999999995
40
0.718749999999997
40
0.718749999999997
40
0.749999999999998
40
0.749999999999998
40
0.812500000000001
40
0.812500000000001
40
0.828125000000002
40
0.828125000000002
40
0.835937500000002
40
0.835937500000002
40
0.843750000000002
40
0.875000000000002
40
0.875000000000002
40
0.937500000000001
40
0.937500000000001
40
1
40
1
40
1
40
1
41
1
10
21.0000000000002
20
6.33356915406662
30
0
41
1
10
21.4143257319406
20
6.57517653587237
30
0
41
1
10
21.8279041596213
20
6.80709462207165
30
0
41
1
10
22.6548824368578
20
7.25043615831876
30
0
41
1
10
23.0682834851194
20
7.46184526950213
30
0
41
1
10
23.6892589981269
20
7.76259798717655
30
0
41
1
10
23.8965646670509
20
7.86019257618713
30
0
41
1
10
24.3099495509782
20
8.04899255904263
30
0
41
1
10
24.5161986204239
20
8.14028183690252
30
0
41
1
10
25.1338688895908
20
8.40471970863598
30
0
41
1
10
25.5442192403201
20
8.56845966099587
30
0
41
1
10
26.3632975847403
20
8.87053372765925
30
0
41
1
10
26.77201537924
20
9.00887907124201
30
0
41
1
10
27.5890679013042
20
9.25956329155881
30
0
41
1
10
27.9974017584784
20
9.37190343530187
30
0
41
1
10
29.2238011683666
20
9.66854924978151
30
0
41
1
10
30.0432550579278
20
9.81280289897683
30
0
41
1
10
30.9729370852836
20
9.91146378228669
30
0
41
1
10
31.0763429212238
20
9.92154155128691
30
0
41
1
10
31.2316297617095
20
9.93531529944738
30
0
41
1
10
31.2834343835663
20
9.93968342387109
30
0
41
1
10
31.3869479355191
20
9.94795628887357
30
0
41
1
10
31.6455801353682
20
9.96748782106087
30
0
41
1
10
31.9034879792639
20
9.9812679932397
30
0
41
1
10
32.5213364205237
20
10.0034570408168
30
0
41
1
10
32.931729872815
20
10.0037432741605
30
0
41
1
10
33.7508389761502
20
9.97588045787458
30
0
41
1
10
34.1595540111638
20
9.94774177698329
30
0
41
1
10
34.9765789052972
20
9.86340521602889
30
0
41
1
10
35.3848891291153
20
9.80720092814587
30
0
41
1
10
36.2023319782725
20
9.66686205620448
30
0
41
1
10
36.6114557762374
20
9.58274035006281
30
0
41
1
10
37.4317547961478
20
9.38683405982346
30
0
41
1
10
37.8429346869335
20
9.27504733971998
30
0
41
1
10
38.3590358954871
20
9.11808646696488
30
0
41
1
10
38.4623626248098
20
9.08583255654588
30
0
41
1
10
38.6692508759271
20
9.0196009429535
30
0
41
1
10
38.7728825803422
20
8.98559889744234
30
0
41
1
10
39.0832752852561
20
8.88130919241075
30
0
41
1
10
39.2897350107614
20
8.80867835504284
30
0
41
1
10
39.9079637452105
20
8.58172770618972
30
0
41
1
10
40.3185875712299
20
8.41836830889332
30
0
41
1
10
41.5477720419794
20
7.89411715854027
30
0
41
1
10
42.3635809970656
20
7.4990212981964
30
0
41
1
10
43.9980777964478
20
6.62698478530311
30
0
41
1
10
44.8167892611781
20
6.15006302141984
30
0
41
1
10
45.7452758367257
20
5.5722017080985
30
0
41
1
10
45.9001781773708
20
5.47502930448155
30
0
41
1
10
46.0553347669496
20
5.37657918510899
30
0
41
1
10
46.158831507143
20
5.310663753569
30
0
41
1
10
46.2106298067704
20
5.27755191732359
30
0
41
1
10
46.4694793804725
20
5.11148292442451
30
0
41
1
10
46.6760709731253
20
4.97702049658912
30
0
41
1
10
47.2946369968432
20
4.56915414833202
30
0
41
1
10
47.70540380528
20
4.29127480738711
30
0
41
1
10
48.5250550560373
20
3.72535025291805
30
0
41
1
10
48.9339409983318
20
3.43730536800331
30
0
41
1
10
49.7511287628704
20
2.8527723205537
30
0
41
1
10
50.1594303835019
20
2.55628924410183
30
0
41
1
10
51.3852471240812
20
1.65650871967011
30
0
41
1
10
52.2036389590763
20
1.04281759044517
30
0
41
1
10
53.2345710592917
20
0.26654598576269
30
0
41
1
10
53.4411572438561
20
0.110837525210911
30
0
41
1
10
53.7517664949674
20
-0.123243954626503
30
0
41
1
10
53.8553099849003
20
-0.201271110680437
30
0
41
1
10
54.0620649757257
20
-0.357021044519854
30
0
41
1
10
54.5784013346243
20
-0.745847056321168
30
0
41
1
10
55.092262624785
20
-1.13158426050424
30
0
41
1
10
56.322708624252
20
-2.04901299332653
30
0
41
1
10
57.1391825953895
20
-2.6496098729329
30
0
41
1
10
58.7745549655403
20
-3.81589454943975
30
0
41
1
10
59.5934589097763
20
-4.38160109334268
30
0
41
1
10
60.418802056172
20
-4.92288885931805
30
0
0
SPLINE
5
13B
100
AcDbEntity
8
1
62
256
6
ByLayer
370
18
48
1
60
0
100
AcDbSpline
70
4
71
3
72
23
73
19
40
0
40
0
40
0
40
0
40
0.0737467654854254
40
0.142260133636104
40
0.208082251036818
40
0.272292920504827
40
0.334978930306702
40
0.41459763424161
40
0.489359145873314
40
0.560191873577358
40
0.646491140463945
40
0.731420252648214
40
0.806273677762355
40
0.84238670008228
40
0.880873629672501
40
0.936399101548408
40
0.990542336164579
40
1
40
1
40
1
40
1
41
1
10
21.6429040829087
20
-8.79160467410617
30
0
41
1
10
21.9539778459205
20
-8.78307089993939
30
0
41
1
10
22.5434216544458
20
-8.76318244746327
30
0
41
1
10
23.3973782331864
20
-8.71748117938782
30
0
41
1
10
24.1444436855967
20
-8.67815167072521
30
0
41
1
10
24.8886726649308
20
-8.62169099272754
30
0
41
1
10
25.6958249263441
20
-8.54748047097618
30
0
41
1
10
26.5592838611702
20
-8.4530874721296
30
0
41
1
10
27.4572512414887
20
-8.33925970052235
30
0
41
1
10
28.3866645093196
20
-8.20657069211282
30
0
41
1
10
29.3545046137921
20
-8.05192598238057
30
0
41
1
10
30.3408522518777
20
-7.87713161645107
30
0
41
1
10
31.1331183248373
20
-7.72364338029476
30
0
41
1
10
31.727862090567
20
-7.6027248083486
30
0
41
1
10
32.2406076795704
20
-7.49519842417226
30
0
41
1
10
32.8310711769777
20
-7.36637881066088
30
0
41
1
10
33.3063231264862
20
-7.25850599791031
30
0
41
1
10
33.5603110221654
20
-7.19962741512532
30
0
41
1
10
33.5980849342778
20
-7.19084389490465
30
0
0
SPLINE
5
13C
100
AcDbEntity
8
1
62
256
6
ByLayer
370
18
48
1
60
0
100
AcDbSpline
70
4
71
2
72
6
73
3
40
0
40
0
40
0
40
1
40
1
40
1
41
1
10
54.813861191888
20
5.37942471752748
30
0
41
1
10
54.5455943658783
20
5.47981967668372
30
0
41
1
10
54.2749065250232
20
5.58315514164565
30
0
0
SPLINE
5
13D
100
AcDbEntity
8
1
62
256
6
ByLayer
370
18
48
1
60
0
100
AcDbSpline
70
4
71
3
72
25
73
21
40
0
40
0
40
0
40
0
40
0.0991641261023598
40
0.17868004811668
40
0.23874537107382
40
0.282905932091829
40
0.32094923558325
40
0.363058334380792
40
0.40593073326517
40
0.454962030675846
40
0.498150756423348
40
0.538901050099652
40
0.577210424796185
40
0.614838642672192
40
0.65029146751125
40
0.697213970665634
40
0.755632575607375
40
0.825563668191277
40
0.907017618629752
40
1
40
1
40
1
40
1
41
1
10
30.7179292161874
20
3.8753372208939
30
0
41
1
10
30.4019923345435
20
3.9352175813481
30
0
41
1
10
29.8300530085335
20
4.045719005161
30
0
41
1
10
29.0615189358991
20
4.19912004349013
30
0
41
1
10
28.4633708228465
20
4.32165201720656
30
0
41
1
10
27.9987128180439
20
4.4184339949806
30
0
41
1
10
27.5926139367379
20
4.50354657471632
30
0
41
1
10
27.1963331655657
20
4.58786821922189
30
0
41
1
10
26.7662342489632
20
4.68026695808118
30
0
41
1
10
26.3286231120838
20
4.77524967140764
30
0
41
1
10
25.89781147474
20
4.86972728385416
30
0
41
1
10
25.5017428394551
20
4.95731776463199
30
0
41
1
10
25.1236273677266
20
5.04152829632545
30
0
41
1
10
24.7626556688688
20
5.12242682232841
30
0
41
1
10
24.3722265508588
20
5.21037672739416
30
0
41
1
10
23.9143307161302
20
5.31394085154275
30
0
41
1
10
23.3443792791133
20
5.44326451497079
30
0
41
1
10
22.6624464200271
20
5.59822234258382
30
0
41
1
10
21.8684930451115
20
5.77848369212722
30
0
41
1
10
21.3019380778493
20
5.90630580832496
30
0
41
1
10
21.0000000000001
20
5.97425868755275
30
0
0
SPLINE
5
13E
100
AcDbEntity
8
1
62
256
6
ByLayer
370
18
48
1
60
0
100
AcDbSpline
70
4
71
3
72
20
73
16
40
0
40
0
40
0
40
0
40
0.146321462437732
40
0.266157053440652
40
0.360048110269348
40
0.439740721766768
40
0.510634372105769
40
0.58983607505307
40
0.667575265004776
40
0.740283321933998
40
0.796880494009288
40
0.839161742841618
40
0.895346805485467
40
0.975156275197222
40
1
40
1
40
1
40
1
41
1
10
51.3700011548606
20
-8.79105248127865
30
0
41
1
10
51.722212781315
20
-8.7845564012884
30
0
41
1
10
52.3596287898091
20
-8.76701112292784
30
0
41
1
10
53.219016499573
20
-8.7284259360039
30
0
41
1
10
53.9066937753281
20
-8.68885095265711
30
0
41
1
10
54.4808438623767
20
-8.64951809179004
30
0
41
1
10
55.0292901504682
20
-8.60705928491734
30
0
41
1
10
55.5748224279417
20
-8.55981614439548
30
0
41
1
10
56.121135976129
20
-8.50725487368726
30
0
41
1
10
56.6138815261407
20
-8.45542559608157
30
0
41
1
10
57.0221840491954
20
-8.40938021477393
30
0
41
1
10
57.3911175785325
20
-8.36573642744119
30
0
41
1
10
57.8152599290977
20
-8.31293952984524
30
0
41
1
10
58.1979302746391
20
-8.263471844902
30
0
41
1
10
58.4469309681752
20
-8.22814112316186
30
0
41
1
10
58.5060418928893
20
-8.21963102422919
30
0
0
SPLINE
5
13F
100
AcDbEntity
8
1
62
256
6
ByLayer
370
18
48
1
60
0
100
AcDbSpline
70
4
71
3
72
19
73
15
40
0
40
0
40
0
40
0
40
0.116914415798881
40
0.20983919001978
40
0.279356047745481
40
0.330276520708768
40
0.379952306001302
40
0.430320291894084
40
0.510937710024978
40
0.599242349478407
40
0.705429204001453
40
0.841228525944775
40
0.965209124100582
40
1
40
1
40
1
40
1
41
1
10
51.3940260759112
20
6.54548230767173
30
0
41
1
10
51.0694275897504
20
6.63723011181068
30
0
41
1
10
50.4874507646625
20
6.7977176566167
30
0
41
1
10
49.7130657276646
20
7.00072502446659
30
0
41
1
10
49.1239286387511
20
7.15073960828917
30
0
41
1
10
48.6740209973021
20
7.26420279672638
30
0
41
1
10
48.2696387731669
20
7.36255438074065
30
0
41
1
10
47.782089351783
20
7.47768548479957
30
0
41
1
10
47.183921089101
20
7.6135614880555
30
0
41
1
10
46.4280189733184
20
7.77656148917038
30
0
41
1
10
45.5216649577716
20
7.95905675648513
30
0
41
1
10
44.5164280625594
20
8.14246317892952
30
0
41
1
10
43.7084824343775
20
8.27241848472852
30
0
41
1
10
43.2729089790097
20
8.33635230694188
30
0
41
1
10
43.1774558607274
20
8.35006497479534
30
0
0
SPLINE
5
140
100
AcDbEntity
8
1
62
256
6
ByLayer
370
18
48
1
60
0
100
AcDbSpline
70
4
71
2
72
6
73
3
40
0
40
0
40
0
40
1
40
1
40
1
41
1
10
60.7615511170342
20
-6.43412562826018
30
0
41
1
10
60.7628486061593
20
-6.42800821179404
30
0
41
1
10
60.7641460952843
20
-6.4218907953279
30
0
0
SPLINE
5
141
100
AcDbEntity
8
1
62
256
6
ByLayer
370
18
48
1
60
0
100
AcDbSpline
70
4
71
2
72
6
73
3
40
0
40
0
40
0
40
1
40
1
40
1
41
1
10
60.7851481577795
20
-6.32287003249434
30
0
41
1
10
60.8828963844345
20
-5.86200558305387
30
0
41
1
10
60.9806446110893
20
-5.40114113361338
30
0
0
LINE
5
77
100
AcDbEntity
8
80
62
256
6
ByLayer
370
18
48
1
60
0
100
AcDbLine
10
0
20
0
30
0
11
-5
21
0
31
0
39
0
210
0
220
0
230
1
0
LINE
5
78
100
AcDbEntity
8
4
62
256
6
ByLayer
370
18
48
0.05
60
0
100
AcDbLine
10
0
20
0
30
0
11
61
21
0
31
0
39
0
210
0
220
0
230
1
0
LINE
5
7A
100
AcDbEntity
8
SK4
62
256
6
ByLayer
370
18
48
0.05
60
0
100
AcDbLine
10
-50
20
0
30
0
11
61
21
0
31
0
39
0
210
0
220
0
230
1
0
LINE
5
7C
100
AcDbEntity
8
81
62
256
6
ByLayer
370
18
48
1
60
0
100
AcDbLine
10
61
20
0
30
0
11
66
21
0
31
0
39
0
210
0
220
0
230
1
0
LINE
5
7D
100
AcDbEntity
8
1
62
256
6
ByLayer
370
18
48
1
60
0
100
AcDbLine
10
0
20
10
30
0
11
0
21
0
31
0
39
0
210
0
220
0
230
1
0
LINE
5
7E
100
AcDbEntity
8
1
62
256
6
ByLayer
370
18
48
1
60
0
100
AcDbLine
10
0
20
0
30
0
11
0
21
-10
31
0
39
0
210
0
220
0
230
1
0
LINE
5
7F
100
AcDbEntity
8
1
62
256
6
ByLayer
370
18
48
1
60
0
100
AcDbLine
10
60.988259
20
-4.856403
30
0
11
60.995613
21
-5.327957
31
0
39
0
210
0
220
0
230
1
0
LINE
5
80
100
AcDbEntity
8
1
62
256
6
ByLayer
370
18
48
1
60
0
100
AcDbLine
10
60.784279
20
-6.266255
30
0
11
60.779379
21
-5.946327
31
0
39
0
210
0
220
0
230
1
0
LINE
5
81
100
AcDbEntity
8
1
62
256
6
ByLayer
370
18
48
1
60
0
100
AcDbLine
10
60.977013
20
-4.785362
30
0
11
60.988259
21
-4.856403
31
0
39
0
210
0
220
0
230
1
0
LINE
5
82
100
AcDbEntity
8
1
62
256
6
ByLayer
370
18
48
1
60
0
100
AcDbLine
10
60.779379
20
-5.946327
30
0
11
60.988259
21
-4.856403
31
0
39
0
210
0
220
0
230
1
0
LINE
5
83
100
AcDbEntity
8
1
62
256
6
ByLayer
370
18
48
1
60
0
100
AcDbLine
10
60.017882
20
-7.309698
30
0
11
60.779379
21
-5.946327
31
0
39
0
210
0
220
0
230
1
0
LINE
5
84
100
AcDbEntity
8
1
62
256
6
ByLayer
370
18
48
1
60
0
100
AcDbLine
10
60.779379
20
-5.946327
30
0
11
60.623705
21
-4.932476
31
0
39
0
210
0
220
0
230
1
0
LINE
5
85
100
AcDbEntity
8
1
62
256
6
ByLayer
370
18
48
1
60
0
100
AcDbLine
10
59.882923
20
0.029575
30
0
11
60.214271
21
-0.03152
31
0
39
0
210
0
220
0
230
1
0
LINE
5
86
100
AcDbEntity
8
1
62
256
6
ByLayer
370
18
48
1
60
0
100
AcDbLine
10
60.214271
20
-0.03152
30
0
11
60.988259
21
8.661335
31
0
39
0
210
0
220
0
230
1
0
LINE
5
87
100
AcDbEntity
8
1
62
256
6
ByLayer
370
18
48
1
60
0
100
AcDbLine
10
60.988259
20
8.661335
30
0
11
60.995613
21
9.489141
31
0
39
0
210
0
220
0
230
1
0
LINE
5
88
100
AcDbEntity
8
1
62
256
6
ByLayer
370
18
48
1
60
0
100
AcDbLine
10
58.602468
20
-8.206241
30
0
11
59.754187
21
-4.633463
31
0
39
0
210
0
220
0
230
1
0
LINE
5
89
100
AcDbEntity
8
1
62
256
6
ByLayer
370
18
48
1
60
0
100
AcDbLine
10
59.754187
20
-4.633463
30
0
11
59.823653
21
-4.519399
31
0
39
0
210
0
220
0
230
1
0
LINE
5
8A
100
AcDbEntity
8
1
62
256
6
ByLayer
370
18
48
1
60
0
100
AcDbLine
10
54.857653
20
-5.351406
30
0
11
59.754187
21
-4.633463
31
0
39
0
210
0
220
0
230
1
0
LINE
5
8B
100
AcDbEntity
8
1
62
256
6
ByLayer
370
13
48
1
60
0
100
AcDbLine
10
55.819984
20
-1.975952
30
0
11
53.851583
21
-2.948546
31
0
39
0
210
0
220
0
230
1
0
LINE
5
8C
100
AcDbEntity
8
1
62
256
6
ByLayer
370
18
48
1
60
0
100
AcDbLine
10
21
20
-9.004631
30
0
11
21
21
-9.597384
31
0
39
0
210
0
220
0
230
1
0
LINE
5
8D
100
AcDbEntity
8
1
62
256
6
ByLayer
370
13
48
1
60
0
100
AcDbLine
10
13.260666
20
-8.929863
30
0
11
21
21
-9.004631
31
0
39
0
210
0
220
0
230
1
0
LINE
5
8E
100
AcDbEntity
8
1
62
256
6
ByLayer
370
18
48
1
60
0
100
AcDbLine
10
21
20
-9.004631
30
0
11
21
21
-8.794517
31
0
39
0
210
0
220
0
230
1
0
LINE
5
8F
100
AcDbEntity
8
1
62
256
6
ByLayer
370
13
48
1
60
0
100
AcDbLine
10
13.244052
20
-8.719589
30
0
11
21
21
-8.794517
31
0
39
0
210
0
220
0
230
1
0
LINE
5
90
100
AcDbEntity
8
1
62
256
6
ByLayer
370
18
48
1
60
0
100
AcDbLine
10
21
20
-8.794517
30
0
11
21
21
-6.445811
31
0
39
0
210
0
220
0
230
1
0
LINE
5
91
100
AcDbEntity
8
1
62
256
6
ByLayer
370
18
48
1
60
0
100
AcDbLine
10
60.568138
20
-1.976479
30
0
11
60.988259
21
-4.323213
31
0
39
0
210
0
220
0
230
1
0
LINE
5
92
100
AcDbEntity
8
1
62
256
6
ByLayer
370
18
48
1
60
0
100
AcDbLine
10
60.383566
20
-0.965563
30
0
11
60.568138
21
-1.976479
31
0
39
0
210
0
220
0
230
1
0
LINE
5
93
100
AcDbEntity
8
1
62
256
6
ByLayer
370
13
48
1
60
0
100
AcDbLine
10
12.646802
20
7.615668
30
0
11
21
21
3.177422
31
0
39
0
210
0
220
0
230
1
0
LINE
5
94
100
AcDbEntity
8
1
62
256
6
ByLayer
370
18
48
1
60
0
100
AcDbLine
10
14.068685
20
9.641692
30
0
11
21
21
5.958925
31
0
39
0
210
0
220
0
230
1
0
LINE
5
95
100
AcDbEntity
8
1
62
256
6
ByLayer
370
18
48
1
60
0
100
AcDbLine
10
60.988259
20
-4.323213
30
0
11
60.995613
21
-4.729001
31
0
39
0
210
0
220
0
230
1
0
LINE
5
96
100
AcDbEntity
8
1
62
256
6
ByLayer
370
18
48
1
60
0
100
AcDbLine
10
60.779379
20
-3.177185
30
0
11
60.988259
21
-4.323213
31
0
39
0
210
0
220
0
230
1
0
LINE
5
97
100
AcDbEntity
8
1
62
256
6
ByLayer
370
18
48
1
60
0
100
AcDbLine
10
21
20
2.889809
30
0
11
21
21
3.177422
31
0
39
0
210
0
220
0
230
1
0
LINE
5
98
100
AcDbEntity
8
1
62
256
6
ByLayer
370
18
48
1
60
0
100
AcDbLine
10
60.779379
20
-3.177185
30
0
11
60.383566
21
-0.965563
31
0
39
0
210
0
220
0
230
1
0
LINE
5
99
100
AcDbEntity
8
1
62
256
6
ByLayer
370
18
48
1
60
0
100
AcDbLine
10
59.801755
20
0.190922
30
0
11
60.383566
21
-0.965563
31
0
39
0
210
0
220
0
230
1
0
LINE
5
9A
100
AcDbEntity
8
1
62
256
6
ByLayer
370
18
48
1
60
0
100
AcDbLine
10
58.280449
20
2.411888
30
0
11
59.801755
21
0.190922
31
0
39
0
210
0
220
0
230
1
0
LINE
5
9B
100
AcDbEntity
8
1
62
256
6
ByLayer
370
13
48
1
60
0
100
AcDbLine
10
12.666817
20
7.317421
30
0
11
21
21
2.889809
31
0
39
0
210
0
220
0
230
1
0
LINE
5
9C
100
AcDbEntity
8
1
62
256
6
ByLayer
370
18
48
1
60
0
100
AcDbLine
10
14.845146
20
-6.386351
30
0
11
21
21
-6.445811
31
0
39
0
210
0
220
0
230
1
0
LINE
5
9D
100
AcDbEntity
8
1
62
256
6
ByLayer
370
18
48
1
60
0
100
AcDbLine
10
21
20
-6.445811
30
0
11
21
21
-3.88191
31
0
39
0
210
0
220
0
230
1
0
LINE
5
9E
100
AcDbEntity
8
1
62
256
6
ByLayer
370
18
48
1
60
0
100
AcDbLine
10
60.784279
20
-3.451667
30
0
11
60.779379
21
-3.177185
31
0
39
0
210
0
220
0
230
1
0
LINE
5
9F
100
AcDbEntity
8
1
62
256
6
ByLayer
370
18
48
1
60
0
100
AcDbLine
10
59.965947
20
-1.673934
30
0
11
60.779379
21
-3.177185
31
0
39
0
210
0
220
0
230
1
0
LINE
5
A0
100
AcDbEntity
8
1
62
256
6
ByLayer
370
13
48
1
60
0
100
AcDbLine
10
11.758111
20
-3.792627
30
0
11
21
21
-3.88191
31
0
39
0
210
0
220
0
230
1
0
LINE
5
A1
100
AcDbEntity
8
1
62
256
6
ByLayer
370
18
48
1
60
0
100
AcDbLine
10
21
20
-3.88191
30
0
11
21
21
-2.296357
31
0
39
0
210
0
220
0
230
1
0
LINE
5
A2
100
AcDbEntity
8
1
62
256
6
ByLayer
370
13
48
1
60
0
100
AcDbLine
10
11.241732
20
-2.202086
30
0
11
21
21
-2.296357
31
0
39
0
210
0
220
0
230
1
0
LINE
5
A3
100
AcDbEntity
8
1
62
256
6
ByLayer
370
18
48
1
60
0
100
AcDbLine
10
21
20
0.145403
30
0
11
21
21
-2.296357
31
0
39
0
210
0
220
0
230
1
0
LINE
5
A4
100
AcDbEntity
8
1
62
256
6
ByLayer
370
18
48
1
60
0
100
AcDbLine
10
21
20
2.889809
30
0
11
21
21
2.70154
31
0
39
0
210
0
220
0
230
1
0
LINE
5
A5
100
AcDbEntity
8
1
62
256
6
ByLayer
370
18
48
1
60
0
100
AcDbLine
10
21
20
6.333557
30
0
11
21
21
6.333569
31
0
39
0
210
0
220
0
230
1
0
LINE
5
A6
100
AcDbEntity
8
1
62
256
6
ByLayer
370
18
48
1
60
0
100
AcDbLine
10
21
20
6.333557
30
0
11
21
21
5.982023
31
0
39
0
210
0
220
0
230
1
0
LINE
5
A7
100
AcDbEntity
8
SK1
62
256
6
ByLayer
370
18
48
1
60
0
100
AcDbLine
10
0
20
10
30
0
11
0
21
0
31
0
39
0
210
0
220
0
230
1
0
LINE
5
A9
100
AcDbEntity
8
SK1
62
256
6
ByLayer
370
18
48
1
60
0
100
AcDbLine
10
0
20
0
30
0
11
0
21
-10
31
0
39
0
210
0
220
0
230
1
0
LINE
5
AA
100
AcDbEntity
8
SK1
62
256
6
ByLayer
370
18
48
1
60
0
100
AcDbLine
10
-30.5
20
8.2
30
0
11
-32.3
21
10
31
0
39
0
210
0
220
0
230
1
0
LINE
5
AB
100
AcDbEntity
8
SK1
62
256
6
ByLayer
370
18
48
1
60
0
100
AcDbLine
10
-17.7
20
10
30
0
11
-19.5
21
8.2
31
0
39
0
210
0
220
0
230
1
0
LINE
5
AC
100
AcDbEntity
8
SK1
62
256
6
ByLayer
370
18
48
1
60
0
100
AcDbLine
10
-30.5
20
8.2
30
0
11
-19.5
21
8.2
31
0
39
0
210
0
220
0
230
1
0
LINE
5
AD
100
AcDbEntity
8
SK1
62
256
6
ByLayer
370
18
48
1
60
0
100
AcDbLine
10
-49
20
10
30
0
11
-49
21
-10
31
0
39
0
210
0
220
0
230
1
0
LINE
5
AE
100
AcDbEntity
8
SK1
62
256
6
ByLayer
370
18
48
1
60
0
100
AcDbLine
10
-50
20
-9
30
0
11
-50
21
9
31
0
39
0
210
0
220
0
230
1
0
LINE
5
AF
100
AcDbEntity
8
1
62
256
6
ByLayer
370
18
48
1
60
0
100
AcDbLine
10
12.959472
20
10
30
0
11
0
21
10
31
0
39
0
210
0
220
0
230
1
0
LINE
5
B0
100
AcDbEntity
8
1
62
256
6
ByLayer
370
18
48
1
60
0
100
AcDbLine
10
0
20
-10
30
0
11
18.592258
21
-10
31
0
39
0
210
0
220
0
230
1
0
LINE
5
B1
100
AcDbEntity
8
1
62
256
6
ByLayer
370
18
48
1
60
0
100
AcDbLine
10
21.001427
20
5.981258
30
0
11
13.836637
21
9.788076
31
0
39
0
210
0
220
0
230
1
0
LINE
5
B2
100
AcDbEntity
8
SK1
62
256
6
ByLayer
370
18
48
1
60
0
100
AcDbLine
10
0
20
10
30
0
11
-17.7
21
10
31
0
39
0
210
0
220
0
230
1
0
LINE
5
B3
100
AcDbEntity
8
SK1
62
256
6
ByLayer
370
18
48
1
60
0
100
AcDbLine
10
-32.3
20
10
30
0
11
-49
21
10
31
0
39
0
210
0
220
0
230
1
0
LINE
5
B4
100
AcDbEntity
8
SK1
62
256
6
ByLayer
370
18
48
1
60
0
100
AcDbLine
10
-49
20
-10
30
0
11
0
21
-10
31
0
39
0
210
0
220
0
230
1
0
LINE
5
B5
100
AcDbEntity
8
SK1
62
256
6
ByLayer
370
18
48
1
60
0
100
AcDbLine
10
-50
20
-9
30
0
11
-49
21
-10
31
0
39
0
210
0
220
0
230
1
0
LINE
5
B6
100
AcDbEntity
8
SK1
62
256
6
ByLayer
370
18
48
1
60
0
100
AcDbLine
10
-49
20
10
30
0
11
-50
21
9
31
0
39
0
210
0
220
0
230
1
0
LINE
5
B7
100
AcDbEntity
8
SK2
62
256
6
ByLayer
370
18
48
1
60
0
100
AcDbLine
10
-57.25
20
10
30
0
11
-57.25
21
-28.930932
31
0
39
0
210
0
220
0
230
1
0
LINE
5
B9
100
AcDbEntity
8
SK2
62
256
6
ByLayer
370
18
48
1
60
0
100
AcDbLine
10
-50.5875
20
10
30
0
11
-59.25
21
10
31
0
39
0
210
0
220
0
230
1
0
LINE
5
BA
100
AcDbEntity
8
SK2
62
256
6
ByLayer
370
18
48
1
60
0
100
AcDbLine
10
-50.5875
20
-10
30
0
11
-59.25
21
-10
31
0
39
0
210
0
220
0
230
1
0
LINE
5
BB
100
AcDbEntity
8
1
62
256
6
ByLayer
370
18
48
1
60
1
100
AcDbLine
10
-57.25
20
10
30
0
11
-56.789216
21
6.500002
31
0
39
0
210
0
220
0
230
1
0
LINE
5
BC
100
AcDbEntity
8
1
62
256
6
ByLayer
370
18
48
1
60
1
100
AcDbLine
10
-56.789216
20
6.500002
30
0
11
-57.710784
21
6.499998
31
0
39
0
210
0
220
0
230
1
0
LINE
5
BD
100
AcDbEntity
8
1
62
256
6
ByLayer
370
18
48
1
60
1
100
AcDbLine
10
-57.710784
20
6.499998
30
0
11
-57.25
21
10
31
0
39
0
210
0
220
0
230
1
0
LINE
5
BE
100
AcDbEntity
8
1
62
256
6
ByLayer
370
18
48
1
60
1
100
AcDbLine
10
-57.25
20
-10
30
0
11
-57.710784
21
-6.500002
31
0
39
0
210
0
220
0
230
1
0
LINE
5
BF
100
AcDbEntity
8
1
62
256
6
ByLayer
370
18
48
1
60
1
100
AcDbLine
10
-57.710784
20
-6.500002
30
0
11
-56.789216
21
-6.499998
31
0
39
0
210
0
220
0
230
1
0
LINE
5
C0
100
AcDbEntity
8
1
62
256
6
ByLayer
370
18
48
1
60
1
100
AcDbLine
10
-56.789216
20
-6.499998
30
0
11
-57.25
21
-10
31
0
39
0
210
0
220
0
230
1
0
LINE
5
C1
100
AcDbEntity
8
2
62
256
6
ByLayer
370
18
48
1
60
0
100
AcDbLine
10
73
20
-10.0001
30
0
11
73
21
28.931032
31
0
39
0
210
0
220
0
230
1
0
LINE
5
C3
100
AcDbEntity
8
2
62
256
6
ByLayer
370
18
48
1
60
0
100
AcDbLine
10
62.5875
20
10.0001
30
0
11
75
21
10.0001
31
0
39
0
210
0
220
0
230
1
0
LINE
5
C4
100
AcDbEntity
8
2
62
256
6
ByLayer
370
18
48
1
60
0
100
AcDbLine
10
62.5875
20
-10.0001
30
0
11
75
21
-10.0001
31
0
39
0
210
0
220
0
230
1
0
LINE
5
C5
100
AcDbEntity
8
1
62
256
6
ByLayer
370
18
48
1
60
1
100
AcDbLine
10
73
20
10.0001
30
0
11
73.460784
21
6.500102
31
0
39
0
210
0
220
0
230
1
0
LINE
5
C6
100
AcDbEntity
8
1
62
256
6
ByLayer
370
18
48
1
60
1
100
AcDbLine
10
73.460784
20
6.500102
30
0
11
72.539216
21
6.500098
31
0
39
0
210
0
220
0
230
1
0
LINE
5
C7
100
AcDbEntity
8
1
62
256
6
ByLayer
370
18
48
1
60
1
100
AcDbLine
10
72.539216
20
6.500098
30
0
11
73
21
10.0001
31
0
39
0
210
0
220
0
230
1
0
LINE
5
C8
100
AcDbEntity
8
1
62
256
6
ByLayer
370
18
48
1
60
1
100
AcDbLine
10
73
20
-10.0001
30
0
11
72.539216
21
-6.500102
31
0
39
0
210
0
220
0
230
1
0
LINE
5
C9
100
AcDbEntity
8
1
62
256
6
ByLayer
370
18
48
1
60
1
100
AcDbLine
10
72.539216
20
-6.500102
30
0
11
73.460784
21
-6.500098
31
0
39
0
210
0
220
0
230
1
0
LINE
5
CA
100
AcDbEntity
8
1
62
256
6
ByLayer
370
18
48
1
60
1
100
AcDbLine
10
73.460784
20
-6.500098
30
0
11
73
21
-10.0001
31
0
39
0
210
0
220
0
230
1
0
LINE
5
CB
100
AcDbEntity
8
SK2
62
256
6
ByLayer
370
18
48
1
60
0
100
AcDbLine
10
61
20
-41.389508
30
0
11
-50
21
-41.389508
31
0
39
0
210
0
220
0
230
1
0
LINE
5
CC
100
AcDbEntity
8
SK2
62
256
6
ByLayer
370
18
48
1
60
0
100
AcDbLine
10
-50
20
-10.5875
30
0
11
-50
21
-43.389508
31
0
39
0
210
0
220
0
230
1
0
LINE
5
CD
100
AcDbEntity
8
SK2
62
256
6
ByLayer
370
18
48
1
60
0
100
AcDbLine
10
61
20
-11.5876
30
0
11
61
21
-43.389508
31
0
39
0
210
0
220
0
230
1
0
LINE
5
CE
100
AcDbEntity
8
1
62
256
6
ByLayer
370
18
48
1
60
1
100
AcDbLine
10
-50
20
-41.389508
30
0
11
-46.500002
21
-40.928724
31
0
39
0
210
0
220
0
230
1
0
LINE
5
CF
100
AcDbEntity
8
1
62
256
6
ByLayer
370
18
48
1
60
1
100
AcDbLine
10
-46.500002
20
-40.928724
30
0
11
-46.499998
21
-41.850292
31
0
39
0
210
0
220
0
230
1
0
LINE
5
D0
100
AcDbEntity
8
1
62
256
6
ByLayer
370
18
48
1
60
1
100
AcDbLine
10
-46.499998
20
-41.850292
30
0
11
-50
21
-41.389508
31
0
39
0
210
0
220
0
230
1
0
LINE
5
D1
100
AcDbEntity
8
1
62
256
6
ByLayer
370
18
48
1
60
1
100
AcDbLine
10
61
20
-41.389508
30
0
11
57.500002
21
-41.850292
31
0
39
0
210
0
220
0
230
1
0
LINE
5
D2
100
AcDbEntity
8
1
62
256
6
ByLayer
370
18
48
1
60
1
100
AcDbLine
10
57.500002
20
-41.850292
30
0
11
57.499998
21
-40.928724
31
0
39
0
210
0
220
0
230
1
0
LINE
5
D3
100
AcDbEntity
8
1
62
256
6
ByLayer
370
18
48
1
60
1
100
AcDbLine
10
57.499998
20
-40.928724
30
0
11
61
21
-41.389508
31
0
39
0
210
0
220
0
230
1
0
LINE
5
146
100
AcDbEntity
8
1
62
256
6
ByLayer
370
18
48
1
60
1
100
AcDbLine
10
-57.25
20
10
30
0
11
-56.789216
21
6.500002
31
0
39
0
210
0
220
0
230
1
0
LINE
5
147
100
AcDbEntity
8
1
62
256
6
ByLayer
370
18
48
1
60
1
100
AcDbLine
10
-56.789216
20
6.500002
30
0
11
-57.710784
21
6.499998
31
0
39
0
210
0
220
0
230
1
0
LINE
5
148
100
AcDbEntity
8
1
62
256
6
ByLayer
370
18
48
1
60
1
100
AcDbLine
10
-57.710784
20
6.499998
30
0
11
-57.25
21
10
31
0
39
0
210
0
220
0
230
1
0
LINE
5
14A
100
AcDbEntity
8
1
62
256
6
ByLayer
370
18
48
1
60
1
100
AcDbLine
10
-57.25
20
-10
30
0
11
-57.710784
21
-6.500002
31
0
39
0
210
0
220
0
230
1
0
LINE
5
14B
100
AcDbEntity
8
1
62
256
6
ByLayer
370
18
48
1
60
1
100
AcDbLine
10
-57.710784
20
-6.500002
30
0
11
-56.789216
21
-6.499998
31
0
39
0
210
0
220
0
230
1
0
LINE
5
14C
100
AcDbEntity
8
1
62
256
6
ByLayer
370
18
48
1
60
1
100
AcDbLine
10
-56.789216
20
-6.499998
30
0
11
-57.25
21
-10
31
0
39
0
210
0
220
0
230
1
0
LINE
5
150
100
AcDbEntity
8
1
62
256
6
ByLayer
370
18
48
1
60
1
100
AcDbLine
10
73
20
10.0001
30
0
11
73.460784
21
6.500102
31
0
39
0
210
0
220
0
230
1
0
LINE
5
151
100
AcDbEntity
8
1
62
256
6
ByLayer
370
18
48
1
60
1
100
AcDbLine
10
73.460784
20
6.500102
30
0
11
72.539216
21
6.500098
31
0
39
0
210
0
220
0
230
1
0
LINE
5
152
100
AcDbEntity
8
1
62
256
6
ByLayer
370
18
48
1
60
1
100
AcDbLine
10
72.539216
20
6.500098
30
0
11
73
21
10.0001
31
0
39
0
210
0
220
0
230
1
0
LINE
5
154
100
AcDbEntity
8
1
62
256
6
ByLayer
370
18
48
1
60
1
100
AcDbLine
10
73
20
-10.0001
30
0
11
72.539216
21
-6.500102
31
0
39
0
210
0
220
0
230
1
0
LINE
5
155
100
AcDbEntity
8
1
62
256
6
ByLayer
370
18
48
1
60
1
100
AcDbLine
10
72.539216
20
-6.500102
30
0
11
73.460784
21
-6.500098
31
0
39
0
210
0
220
0
230
1
0
LINE
5
156
100
AcDbEntity
8
1
62
256
6
ByLayer
370
18
48
1
60
1
100
AcDbLine
10
73.460784
20
-6.500098
30
0
11
73
21
-10.0001
31
0
39
0
210
0
220
0
230
1
0
LINE
5
159
100
AcDbEntity
8
1
62
256
6
ByLayer
370
18
48
1
60
1
100
AcDbLine
10
-50
20
-41.389508
30
0
11
-46.500002
21
-40.928724
31
0
39
0
210
0
220
0
230
1
0
LINE
5
15A
100
AcDbEntity
8
1
62
256
6
ByLayer
370
18
48
1
60
1
100
AcDbLine
10
-46.500002
20
-40.928724
30
0
11
-46.499998
21
-41.850292
31
0
39
0
210
0
220
0
230
1
0
LINE
5
15B
100
AcDbEntity
8
1
62
256
6
ByLayer
370
18
48
1
60
1
100
AcDbLine
10
-46.499998
20
-41.850292
30
0
11
-50
21
-41.389508
31
0
39
0
210
0
220
0
230
1
0
LINE
5
15D
100
AcDbEntity
8
1
62
256
6
ByLayer
370
18
48
1
60
1
100
AcDbLine
10
61
20
-41.389508
30
0
11
57.500002
21
-41.850292
31
0
39
0
210
0
220
0
230
1
0
LINE
5
15E
100
AcDbEntity
8
1
62
256
6
ByLayer
370
18
48
1
60
1
100
AcDbLine
10
57.500002
20
-41.850292
30
0
11
57.499998
21
-40.928724
31
0
39
0
210
0
220
0
230
1
0
LINE
5
15F
100
AcDbEntity
8
1
62
256
6
ByLayer
370
18
48
1
60
1
100
AcDbLine
10
57.499998
20
-40.928724
30
0
11
61
21
-41.389508
31
0
39
0
210
0
220
0
230
1
0
MTEXT
5
142
100
AcDbEntity
8
SK2
62
256
6
ByLayer
370
18
48
1
60
0
100
AcDbMText
10
-58.814634
20
-26.996089
30
0
210
0
220
0
230
1
1
%%c
40
3.5
41
0
44
1.084337
50
90
71
7
72
5
7
iso_b_vert
0
MTEXT
5
145
100
AcDbEntity
8
SK2
62
256
6
ByLayer
370
18
48
1
60
0
100
AcDbMText
10
-58.814634
20
-20.023432
30
0
210
0
220
0
230
1
1
\W0.6740;20
40
3.5
41
0
44
1.084337
50
90
71
7
72
5
7
iso_b_vert
0
MTEXT
5
14E
100
AcDbEntity
8
2
62
256
6
ByLayer
370
18
48
1
60
0
100
AcDbMText
10
71.435366
20
17.934944
30
0
210
0
220
0
230
1
1
%%c
40
3.5
41
0
44
1.084337
50
90
71
7
72
5
7
iso_b_vert
0
MTEXT
5
14F
100
AcDbEntity
8
2
62
256
6
ByLayer
370
18
48
1
60
0
100
AcDbMText
10
71.435366
20
24.9076
30
0
210
0
220
0
230
1
1
\W0.6740;20
40
3.5
41
0
44
1.084337
50
90
71
7
72
5
7
iso_b_vert
0
MTEXT
5
158
100
AcDbEntity
8
SK2
62
256
6
ByLayer
370
18
48
1
60
0
100
AcDbMText
10
3.5996
20
-40.356874
30
0
210
0
220
0
230
1
1
\W0.4890;111
40
3.5
41
0
44
1.084337
50
0
71
7
72
5
7
iso_b_vert
0
MTEXT
5
161
100
AcDbEntity
8
SK6
62
256
6
ByLayer
370
18
48
1
60
0
100
AcDbMText
10
-19.894897
20
-61.908488
30
0
210
0
220
0
230
1
1
\W0.7129;1K233-2000-050-NB   H10F
40
3
41
0
44
1.084337
50
0
71
7
72
5
7
iso_b_vert
0
HATCH
5
149
100
AcDbEntity
8
SK2
62
256
6
ByLayer
370
13
48
1
60
0
100
AcDbHatch
10
0
20
0
30
0
210
0
220
0
230
1
2
ANSI31
70
0
71
0
91
1
92
5
93
3
72
1
10
-57.2500000000001
20
9.99999999999994
11
-56.7892162584473
21
6.50000169255313
72
1
10
-56.7892162584473
20
6.50000169255313
11
-57.7107837415528
21
6.49999830744676
72
1
10
-57.7107837415528
20
6.49999830744676
11
-57.2500000000001
21
9.99999999999994
97
0
75
0
76
1
52
0
41
0.0062
77
0
78
1
53
45
43
0
44
0
45
-0.0139193969876572
46
0.0139193969876572
79
0
47
0
98
1
10
0
20
0
0
HATCH
5
14D
100
AcDbEntity
8
SK2
62
256
6
ByLayer
370
13
48
1
60
0
100
AcDbHatch
10
0
20
0
30
0
210
0
220
0
230
1
2
ANSI31
70
0
71
0
91
1
92
5
93
3
72
1
10
-57.2500000000001
20
-10.0000000000001
11
-57.7107837415528
21
-6.50000169255324
72
1
10
-57.7107837415528
20
-6.50000169255324
11
-56.7892162584473
21
-6.49999830744687
72
1
10
-56.7892162584473
20
-6.49999830744687
11
-57.2500000000001
21
-10.0000000000001
97
0
75
0
76
1
52
0
41
0.0062
77
0
78
1
53
45
43
0
44
0
45
-0.0139193969876572
46
0.0139193969876572
79
0
47
0
98
1
10
0
20
0
0
HATCH
5
153
100
AcDbEntity
8
2
62
256
6
ByLayer
370
13
48
1
60
0
100
AcDbHatch
10
0
20
0
30
0
210
0
220
0
230
1
2
ANSI31
70
0
71
0
91
1
92
5
93
3
72
1
10
73
20
10.0000999999998
11
73.4607837415528
21
6.50010169255299
72
1
10
73.4607837415528
20
6.50010169255299
11
72.5392162584472
21
6.50009830744662
72
1
10
72.5392162584472
20
6.50009830744662
11
73
21
10.0000999999998
97
0
75
0
76
1
52
0
41
0.0062
77
0
78
1
53
45
43
0
44
0
45
-0.0139193969876572
46
0.0139193969876572
79
0
47
0
98
1
10
0
20
0
0
HATCH
5
157
100
AcDbEntity
8
2
62
256
6
ByLayer
370
13
48
1
60
0
100
AcDbHatch
10
0
20
0
30
0
210
0
220
0
230
1
2
ANSI31
70
0
71
0
91
1
92
5
93
3
72
1
10
73
20
-10.0001000000002
11
72.5392162584472
21
-6.50010169255339
72
1
10
72.5392162584472
20
-6.50010169255339
11
73.4607837415528
21
-6.50009830744702
72
1
10
73.4607837415528
20
-6.50009830744702
11
73
21
-10.0001000000002
97
0
75
0
76
1
52
0
41
0.0062
77
0
78
1
53
45
43
0
44
0
45
-0.0139193969876572
46
0.0139193969876572
79
0
47
0
98
1
10
0
20
0
0
HATCH
5
15C
100
AcDbEntity
8
SK2
62
256
6
ByLayer
370
13
48
1
60
0
100
AcDbHatch
10
0
20
0
30
0
210
0
220
0
230
1
2
ANSI31
70
0
71
0
91
1
92
5
93
3
72
1
10
-50
20
-41.3895078854245
11
-46.5000016925532
21
-40.9287241438717
72
1
10
-46.5000016925532
20
-40.9287241438717
11
-46.4999983074468
21
-41.8502916269773
72
1
10
-46.4999983074468
20
-41.8502916269773
11
-50
21
-41.3895078854245
97
0
75
0
76
1
52
0
41
0.0062
77
0
78
1
53
45
43
0
44
0
45
-0.0139193969876572
46
0.0139193969876572
79
0
47
0
98
1
10
0
20
0
0
HATCH
5
160
100
AcDbEntity
8
SK2
62
256
6
ByLayer
370
13
48
1
60
0
100
AcDbHatch
10
0
20
0
30
0
210
0
220
0
230
1
2
ANSI31
70
0
71
0
91
1
92
5
93
3
72
1
10
61
20
-41.3895078854245
11
57.5000016925532
21
-41.8502916269773
72
1
10
57.5000016925532
20
-41.8502916269773
11
57.4999983074468
21
-40.9287241438717
72
1
10
57.4999983074468
20
-40.9287241438717
11
61
21
-41.3895078854245
97
0
75
0
76
1
52
0
41
0.0062
77
0
78
1
53
45
43
0
44
0
45
-0.0139193969876572
46
0.0139193969876572
79
0
47
0
98
1
10
0
20
0
0
DIMENSION
5
164
100
AcDbEntity
8
2
62
256
6
ByLayer
370
18
48
1
60
0
100
AcDbDimension
2
_U0
10
21
20
-25.389508
30
0
11
41
21
-25.389508
31
0
70
32
71
1
72
1
41
1
210
0
220
0
230
1
3
Standard
100
AcDbAlignedDimension
13
61
23
-10.0001
33
0
14
21
24
-10.0001
34
0
50
0
100
AcDbRotatedDimension
1001
ACAD
1000
DSTYLE
1002
{
1070
   371
1070
    13
1070
   372
1070
    13
1070
   170
1070
     0
1070
   144
1040
1.0
1070
   277
1070
     2
1070
   284
1070
     8
1070
   278
1070
    46
1070
   146
1040
1.0
1070
   345
1005
16
1070
   347
1005
16
1070
   346
1005
16
1070
   344
1005
0
1070
   343
1005
0
1070
   172
1070
     1
1070
    76
1070
     0
1070
    75
1070
     0
1070
   282
1070
     0
1070
   281
1070
     0
1070
    71
1070
     0
1070
    74
1070
     0
1070
   279
1070
     0
1070
   173
1070
     1
1070
   340
1005
143
1070
   271
1070
     2
1070
   272
1070
     2
1070
    77
1070
     1
1070
    73
1070
     1
1070
   171
1070
     3
1070
   274
1070
     4
1070
   177
1070
     2
1070
   176
1070
     2
1070
   178
1070
     2
1070
    78
1070
     8
1070
    48
1040
-0.1
1070
    41
1040
3.5
1070
   147
1040
1.75
1070
    42
1040
1.5875
1070
    44
1040
2.0
1070
   140
1040
3.5
1002
}
1001
ACAD_DSTYLE_DIM_LINETYPE
1070
   380
1005
16
1001
ACAD_DSTYLE_DIM_EXT1_LINETYPE
1070
   381
1005
16
1001
ACAD_DSTYLE_DIM_EXT2_LINETYPE
1070
   382
1005
16
0
ENDSEC
0
SECTION
2
OBJECTS
0
DICTIONARY
5
1ed
330
0
100
AcDbDictionary
280
0
281
1
3
ACAD_GROUP
350
1ee
3
ACAD_MLINESTYLE
350
1ef
0
DICTIONARY
5
1ee
330
0
100
AcDbDictionary
280
0
281
1
0
DICTIONARY
5
1ef
330
0
100
AcDbDictionary
280
0
281
1
3
Standard
350
18
0
MLINESTYLE
5
18
330
1ef
100
AcDbMlineStyle
2
Standard
70
0
3

62
256
51
90
52
90
71
2
49
-0.5
62
256
6
ByLayer
49
0.5
62
256
6
ByLayer
0
RASTERVARIABLES
5
1db
330

100
AcDbRasterVariables
90
0
70
1
71
1
72
1
0
ENDSEC
0
EOF
