0
SECTION
2
HEADER
9
$ACADVER
1
AC1015
9
$DWGCODEPAGE
3
ANSI_1252
9
$HANDSEED
5
204
9
$ANGBASE
50
0
9
$ANGDIR
70
0
9
$ATTMODE
70
1
9
$AUNITS
70
0
9
$AUPREC
70
0
9
$CECOLOR
62
256
9
$CELTSCALE
40
1
9
$CELTYPE
6
ByLayer
9
$CELWEIGHT
370
18
9
$CLAYER
8
0
9
$CMLJUST
70
0
9
$CMLSCALE
40
1
9
$CMLSTYLE
2
Standard
9
$DIMSTYLE
2
Standard
9
$TEXTSIZE
40
0.2
9
$TEXTSTYLE
7
Standard
9
$LUNITS
70
2
9
$LUPREC
70
4
9
$EXTNAMES
290
1
9
$INSUNITS
70
4
9
$LTSCALE
40
1
9
$LWDISPLAY
290
1
9
$PDMODE
70
0
9
$PDSIZE
40
0
9
$PLINEGEN
70
0
0
ENDSEC
0
SECTION
2
CLASSES
0
CLASS
1
RASTERVARIABLES
2
AcDbRasterVariables
3
ISM
90
0
280
0
281
0
0
ENDSEC
0
SECTION
2
TABLES
0
TABLE
2
VPORT
5
1fa
100
AcDbSymbolTable
0
VPORT
5
1
100
AcDbSymbolTableRecord
100
AcDbViewportTableRecord
2
*Active
70
0
10
0
20
0
11
1
21
1
12
-1
22
1
13
0
23
0
14
0.5
24
0.5
15
10
25
10
16
0
26
0
36
1
17
0
27
0
37
0
0
ENDTAB
0
TABLE
2
LTYPE
5
1fb
100
AcDbSymbolTable
0
LTYPE
5
14
100
AcDbSymbolTableRecord
100
AcDbLinetypeTableRecord
70
0
2
ByBlock
3

72
65
73
0
40
0
0
LTYPE
5
15
100
AcDbSymbolTableRecord
100
AcDbLinetypeTableRecord
70
0
2
ByLayer
3

72
65
73
0
40
0
0
LTYPE
5
16
100
AcDbSymbolTableRecord
100
AcDbLinetypeTableRecord
70
0
2
Continuous
3
Solid line
72
65
73
0
40
0
0
LTYPE
5
6E
100
AcDbSymbolTableRecord
100
AcDbLinetypeTableRecord
70
0
2
CENTER
3
____ _ ____ _ ____ _ ____
72
65
73
4
40
47.5
49
22
74
0
49
-8.5
74
0
49
8.5
74
0
49
-8.5
74
0
0
LTYPE
5
6F
100
AcDbSymbolTableRecord
100
AcDbLinetypeTableRecord
70
0
2
DASHED
3
__ __ __ __ __ __ __ __ __
72
65
73
2
40
25.72
49
12.86
74
0
49
-12.86
74
0
0
ENDTAB
0
TABLE
2
LAYER
5
1fc
100
AcDbSymbolTable
0
LAYER
5
10
100
AcDbSymbolTableRecord
100
AcDbLayerTableRecord
2
0
70
0
62
7
6
Continuous
290
1
370
-3
390
0
0
LAYER
5
71
100
AcDbSymbolTableRecord
100
AcDbLayerTableRecord
2
81
70
0
62
-3
6
Continuous
290
1
370
-3
390
0
0
LAYER
5
73
100
AcDbSymbolTableRecord
100
AcDbLayerTableRecord
2
80
70
0
62
-6
6
Continuous
290
1
370
-3
390
0
0
LAYER
5
75
100
AcDbSymbolTableRecord
100
AcDbLayerTableRecord
2
1
70
0
62
4
6
Continuous
290
1
370
-3
390
0
0
LAYER
5
79
100
AcDbSymbolTableRecord
100
AcDbLayerTableRecord
2
4
70
0
62
-2
6
CENTER
290
1
370
-3
390
0
0
LAYER
5
C5
100
AcDbSymbolTableRecord
100
AcDbLayerTableRecord
2
2
70
0
62
7
6
Continuous
290
1
370
-3
390
0
0
LAYER
5
171
100
AcDbSymbolTableRecord
100
AcDbLayerTableRecord
2
Defpoints
70
0
62
7
6
Continuous
290
0
370
-3
390
0
0
LAYER
5
1e6
100
AcDbSymbolTableRecord
100
AcDbLayerTableRecord
2
SK4
70
0
62
2
6
CENTER
290
1
370
-3
390
0
0
LAYER
5
1e7
100
AcDbSymbolTableRecord
100
AcDbLayerTableRecord
2
SK1
70
0
62
4
6
Continuous
290
1
370
-3
390
0
0
LAYER
5
1e8
100
AcDbSymbolTableRecord
100
AcDbLayerTableRecord
2
SK2
70
0
62
7
6
Continuous
290
1
370
-3
390
0
0
LAYER
5
1e9
100
AcDbSymbolTableRecord
100
AcDbLayerTableRecord
2
SK6
70
0
62
5
6
Continuous
290
1
370
-3
390
0
0
ENDTAB
0
TABLE
2
STYLE
5
1fd
100
AcDbSymbolTable
0
STYLE
5
11
100
AcDbSymbolTableRecord
100
AcDbTextStyleTableRecord
2
Standard
3
txt
70
0
71
0
40
0
41
1
42
0
50
0
0
STYLE
5
14D
100
AcDbSymbolTableRecord
100
AcDbTextStyleTableRecord
2
iso_b_vert
3
simplex.shx
70
0
71
0
40
0
41
1
42
0
50
0
0
STYLE
5
14E
100
AcDbSymbolTableRecord
100
AcDbTextStyleTableRecord
2
DWGDirectTextStyle
3
simplex
70
0
71
0
40
0
41
1
42
0
50
0
0
ENDTAB
0
TABLE
2
DIMSTYLE
5
1fe
100
AcDbSymbolTable
100
AcDbDimStyleTable
0
DIMSTYLE
105
27
100
AcDbSymbolTableRecord
100
AcDbDimStyleTableRecord
2
Standard
70
0
3
<>
41
0.18
42
0.0625
44
0.18
140
0.18
147
0.09
73
0
74
0
77
1
271
2
275
0
278
52
280
0
340
11
0
ENDTAB
0
TABLE
2
VIEW
5
1ff
100
AcDbSymbolTable
0
ENDTAB
0
TABLE
2
UCS
5
200
100
AcDbSymbolTable
0
ENDTAB
0
TABLE
2
APPID
5
201
100
AcDbSymbolTable
0
APPID
5
12
100
AcDbSymbolTableRecord
100
AcDbRegAppTableRecord
2
ACAD
70
0
0
APPID
5
16D
100
AcDbSymbolTableRecord
100
AcDbRegAppTableRecord
2
ACAD_DSTYLE_DIMBREAK
70
0
0
APPID
5
1A5
100
AcDbSymbolTableRecord
100
AcDbRegAppTableRecord
2
ACAD_DSTYLE_DIM_LINETYPE
70
0
0
APPID
5
1A6
100
AcDbSymbolTableRecord
100
AcDbRegAppTableRecord
2
ACAD_DSTYLE_DIM_EXT1_LINETYPE
70
0
0
APPID
5
1A7
100
AcDbSymbolTableRecord
100
AcDbRegAppTableRecord
2
ACAD_DSTYLE_DIM_EXT2_LINETYPE
70
0
0
APPID
5
1E2
100
AcDbSymbolTableRecord
100
AcDbRegAppTableRecord
2
ACAD_MLEADERVER
70
0
0
ENDTAB
0
TABLE
2
BLOCK_RECORD
5
202
100
AcDbSymbolTable
0
BLOCK_RECORD
5
1F
100
AcDbSymbolTableRecord
100
AcDbBlockTableRecord
2
*Model_Space
340
0
70
0
0
BLOCK_RECORD
5
1B
100
AcDbSymbolTableRecord
100
AcDbBlockTableRecord
2
*Paper_Space
340
0
70
0
0
BLOCK_RECORD
5
23
100
AcDbSymbolTableRecord
100
AcDbBlockTableRecord
2
*Paper_Space0
340
0
70
0
0
BLOCK_RECORD
5
172
100
AcDbSymbolTableRecord
100
AcDbBlockTableRecord
2
*D1
340
0
70
0
0
BLOCK_RECORD
5
17E
100
AcDbSymbolTableRecord
100
AcDbBlockTableRecord
2
_U0
340
0
70
0
0
ENDTAB
0
ENDSEC
0
SECTION
2
BLOCKS
0
BLOCK
5
20
100
AcDbEntity
8
0
100
AcDbBlockBegin
2
*Model_Space
70
0
10
0
20
0
30
0
3
*Model_Space
0
ENDBLK
5
21
100
AcDbEntity
8
0
100
AcDbBlockEnd
0
BLOCK
5
1C
100
AcDbEntity
8
0
100
AcDbBlockBegin
2
*Paper_Space
70
0
10
0
20
0
30
0
3
*Paper_Space
0
ENDBLK
5
1D
100
AcDbEntity
8
0
100
AcDbBlockEnd
0
BLOCK
5
24
100
AcDbEntity
8
0
100
AcDbBlockBegin
2
*Paper_Space0
70
0
10
0
20
0
30
0
3
*Paper_Space0
0
ENDBLK
5
25
100
AcDbEntity
8
0
100
AcDbBlockEnd
0
BLOCK
5
173
100
AcDbEntity
8
0
100
AcDbBlockBegin
2
*D1
70
1
10
0
20
0
30
0
3
*D1
0
LINE
5
175
100
AcDbEntity
8
0
62
256
6
ByLayer
370
-2
48
1
60
0
100
AcDbLine
10
50
20
-9.5876
30
0
11
50
21
-25.529343
31
0
39
0
210
0
220
0
230
1
0
LINE
5
176
100
AcDbEntity
8
0
62
256
6
ByLayer
370
-2
48
1
60
0
100
AcDbLine
10
18
20
-9.5876
30
0
11
18
21
-25.529343
31
0
39
0
210
0
220
0
230
1
0
LINE
5
177
100
AcDbEntity
8
0
62
256
6
ByLayer
370
-2
48
1
60
0
100
AcDbLine
10
46.5
20
-23.529343
30
0
11
21.5
21
-23.529343
31
0
39
0
210
0
220
0
230
1
0
SOLID
5
178
100
AcDbEntity
8
0
62
256
6
ByLayer
370
-1
48
1
60
0
100
AcDbTrace
10
46.5
20
-24.112676
30
0
11
46.5
21
-22.946009
31
0
12
50
22
-23.529343
32
0
13
50
23
-23.529343
33
0
39
0
210
0
220
0
230
1
0
SOLID
5
179
100
AcDbEntity
8
0
62
256
6
ByLayer
370
-1
48
1
60
0
100
AcDbTrace
10
21.5
20
-22.946009
30
0
11
21.5
21
-24.112676
31
0
12
18
22
-23.529343
32
0
13
18
23
-23.529343
33
0
39
0
210
0
220
0
230
1
0
MTEXT
5
17A
100
AcDbEntity
8
0
62
256
6
ByLayer
370
18
48
1
60
0
100
AcDbMText
10
34
20
-16.529343
30
0
210
0
220
0
230
1
1
\A1;32
40
3.5
41
0
44
1
50
0
71
5
72
5
7
iso_b_vert
0
POINT
5
17B
100
AcDbEntity
8
Defpoints
62
0
6
ByLayer
370
-1
48
1
60
0
100
AcDbPoint
10
50
20
-8.0001
30
0
39
0
210
0
220
0
230
1
50
360
0
POINT
5
17C
100
AcDbEntity
8
Defpoints
62
0
6
ByLayer
370
-1
48
1
60
0
100
AcDbPoint
10
18
20
-8.0001
30
0
39
0
210
0
220
0
230
1
50
360
0
POINT
5
17D
100
AcDbEntity
8
Defpoints
62
0
6
ByLayer
370
-1
48
1
60
0
100
AcDbPoint
10
18
20
-23.529343
30
0
39
0
210
0
220
0
230
1
50
360
0
ENDBLK
5
174
100
AcDbEntity
8
0
100
AcDbBlockEnd
0
BLOCK
5
185
100
AcDbEntity
8
0
100
AcDbBlockBegin
2
_U0
70
0
10
0
20
0
30
0
3
_U0
0
MTEXT
5
17F
100
AcDbEntity
8
2
62
256
6
ByLayer
370
18
48
1
60
0
100
AcDbMText
10
32.095034
20
-22.496709
30
0
210
0
220
0
230
1
1
\W0.6740;32
40
3.5
41
0
44
1.084337
50
0
71
7
72
5
7
iso_b_vert
0
LINE
5
180
100
AcDbEntity
8
2
62
256
6
ByLayer
370
13
48
1
60
0
100
AcDbLine
10
50
20
-9.5876
30
0
11
50
21
-25.529343
31
0
39
0
210
0
220
0
230
1
0
LINE
5
181
100
AcDbEntity
8
2
62
256
6
ByLayer
370
13
48
1
60
0
100
AcDbLine
10
18
20
-9.5876
30
0
11
18
21
-25.529343
31
0
39
0
210
0
220
0
230
1
0
LINE
5
182
100
AcDbEntity
8
2
62
256
6
ByLayer
370
13
48
1
60
0
100
AcDbLine
10
50
20
-23.529343
30
0
11
18
21
-23.529343
31
0
39
0
210
0
220
0
230
1
0
SOLID
5
183
100
AcDbEntity
8
2
62
256
6
ByLayer
370
18
48
1
60
0
100
AcDbTrace
10
50
20
-23.529343
30
0
11
46.500002
21
-23.990127
31
0
12
46.499998
22
-23.068559
32
0
13
46.499998
23
-23.068559
33
0
39
0
210
0
220
0
230
1
0
SOLID
5
184
100
AcDbEntity
8
2
62
256
6
ByLayer
370
18
48
1
60
0
100
AcDbTrace
10
18
20
-23.529343
30
0
11
21.499998
21
-23.068559
31
0
12
21.500002
22
-23.990127
32
0
13
21.500002
23
-23.990127
33
0
39
0
210
0
220
0
230
1
0
ENDBLK
5
186
100
AcDbEntity
8
0
100
AcDbBlockEnd
0
ENDSEC
0
SECTION
2
ENTITIES
0
ELLIPSE
5
D7
100
AcDbEntity
8
1
62
256
6
ByLayer
370
18
48
1
60
0
100
AcDbEllipse
10
26.688767
20
0
30
0
11
17.360232234142
21
-7.8123104364663
31
0
210
0
220
0
230
1
40
0.099234
41
-2.60887624216879
42
-2.18534370644833
0
ELLIPSE
5
D8
100
AcDbEntity
8
1
62
256
6
ByLayer
370
18
48
1
60
0
100
AcDbEllipse
10
10.705376
20
0
30
0
11
42.0012454686548
21
-5.32542057232316
31
0
210
0
220
0
230
1
40
0.142137
41
1.41433919267961
42
1.43195346867026
0
ELLIPSE
5
D9
100
AcDbEntity
8
1
62
256
6
ByLayer
370
18
48
1
60
0
100
AcDbEllipse
10
26.074805
20
0
30
0
11
16.0267047766914
21
5.39736294373588
31
0
210
0
220
0
230
1
40
0.368445
41
-2.77830241480372
42
-2.35672226683537
0
ELLIPSE
5
DA
100
AcDbEntity
8
1
62
256
6
ByLayer
370
18
48
1
60
0
100
AcDbEllipse
10
30.927447
20
-3E-06
30
0
11
74.4453825697013
21
-7.90017767134694
31
0
210
0
220
0
230
1
40
0.016929
41
-1.75577870459692
42
-1.74357088833056
0
POINT
5
70
100
AcDbEntity
8
81
62
256
6
ByLayer
370
18
48
1
60
0
100
AcDbPoint
10
50
20
0
30
0
39
0
210
0
220
0
230
1
50
360
0
POINT
5
72
100
AcDbEntity
8
80
62
256
6
ByLayer
370
18
48
1
60
0
100
AcDbPoint
10
0
20
0
30
0
39
0
210
0
220
0
230
1
50
360
0
POINT
5
74
100
AcDbEntity
8
1
62
256
6
ByLayer
370
18
48
1
60
1
100
AcDbPoint
10
50
20
-8.0001
30
0
39
0
210
0
220
0
230
1
50
360
0
POINT
5
76
100
AcDbEntity
8
1
62
256
6
ByLayer
370
18
48
1
60
1
100
AcDbPoint
10
18
20
-8.0001
30
0
39
0
210
0
220
0
230
1
50
360
0
SPLINE
5
DB
100
AcDbEntity
8
1
62
256
6
ByLayer
370
18
48
1
60
0
100
AcDbSpline
70
4
71
3
72
10
73
6
40
0
40
0
40
0
40
0
40
0.713967739369196
40
0.713967739369196
40
1
40
1
40
1
40
1
41
1
10
49.9732266995148
20
-3.02428007778676
30
0
41
1
10
49.9743696891261
20
-3.10449685851717
30
0
41
1
10
49.9676302507072
20
-3.18442440171941
30
0
41
1
10
49.9478581544506
20
-3.2959936506544
30
0
41
1
10
49.9410188244452
20
-3.32786261416288
30
0
41
1
10
49.9330004914531
20
-3.35968831537613
30
0
0
SPLINE
5
DC
100
AcDbEntity
8
1
62
256
6
ByLayer
370
13
48
1
60
0
100
AcDbSpline
70
4
71
3
72
8
73
4
40
0
40
0
40
0
40
0
40
1
40
1
40
1
40
1
41
1
10
49.9732266995379
20
-3.0242800777489
30
0
41
1
10
49.9172055070799
20
-3.27120533709433
30
0
41
1
10
49.8611843146219
20
-3.51813059643979
30
0
41
1
10
49.8051631221639
20
-3.76505585578522
30
0
0
SPLINE
5
DD
100
AcDbEntity
8
1
62
256
6
ByLayer
370
18
48
1
60
0
100
AcDbSpline
70
4
71
3
72
8
73
4
40
0
40
0
40
0
40
0
40
1
40
1
40
1
40
1
41
1
10
49.788794225068
20
-3.96947886659126
30
0
41
1
10
49.8003615246375
20
-3.89293814752736
30
0
41
1
10
49.8059957880538
20
-3.82455252764072
30
0
41
1
10
49.8051631221524
20
-3.76505585577246
30
0
0
SPLINE
5
DE
100
AcDbEntity
8
1
62
256
6
ByLayer
370
18
48
1
60
0
100
AcDbSpline
70
4
71
3
72
8
73
4
40
0
40
0
40
0
40
0
40
1
40
1
40
1
40
1
41
1
10
48.3733400909937
20
-6.4227420346534
30
0
41
1
10
48.369597508033
20
-6.45588950877664
30
0
41
1
10
48.3655249932122
20
-6.48946898032165
30
0
41
1
10
48.3611520628791
20
-6.5234418019563
30
0
0
SPLINE
5
DF
100
AcDbEntity
8
1
62
256
6
ByLayer
370
18
48
1
60
0
100
AcDbSpline
70
4
71
3
72
24
73
20
40
0
40
0
40
0
40
0
40
0.0544375875924745
40
0.108985022541795
40
0.163638822905893
40
0.218395530357246
40
0.27325172517911
40
0.328204025249078
40
0.383249074227129
40
0.438383518736928
40
0.493603974232953
40
0.548906986164785
40
0.604289050017672
40
0.659746713723246
40
0.715276617396617
40
0.77087544918847
40
0.826539894100109
40
0.882266632728977
40
1
40
1
40
1
40
1
41
1
10
49.7888173175559
20
-3.96937353866005
30
0
41
1
10
49.7871981959211
20
-3.981203321012
30
0
41
1
10
49.7839566854929
20
-4.00488675654452
30
0
41
1
10
49.7778338422668
20
-4.04057997408168
30
0
41
1
10
49.7707804488171
20
-4.07642557547834
30
0
41
1
10
49.7627042758882
20
-4.11242035129638
30
0
41
1
10
49.7536282100474
20
-4.14854775208471
30
0
41
1
10
49.7435446340763
20
-4.18479461960158
30
0
41
1
10
49.7324547005263
20
-4.22114665712252
30
0
41
1
10
49.7203579291258
20
-4.25758961102213
30
0
41
1
10
49.7072551474544
20
-4.29410891985483
30
0
41
1
10
49.6931478709365
20
-4.33068978638917
30
0
41
1
10
49.6780383778574
20
-4.36731721879698
30
0
41
1
10
49.6619291805031
20
-4.40397613029907
30
0
41
1
10
49.6448229420645
20
-4.44065142600306
30
0
41
1
10
49.6267228835224
20
-4.47732770243744
30
0
41
1
10
49.6076322540436
20
-4.51399018626097
30
0
41
1
10
49.5801179946736
20
-4.56419475535859
30
0
41
1
10
49.5577326366114
20
-4.60207745436955
30
0
41
1
10
49.5418348278995
20
-4.6277107117769
30
0
0
SPLINE
5
E0
100
AcDbEntity
8
1
62
256
6
ByLayer
370
18
48
1
60
0
100
AcDbSpline
70
4
71
3
72
8
73
4
40
0
40
0
40
0
40
0
40
1
40
1
40
1
40
1
41
1
10
48.4971472423213
20
-6.10462551385649
30
0
41
1
10
48.9277157995915
20
-5.39438099580912
30
0
41
1
10
49.3582843570461
20
-4.68235864385503
30
0
41
1
10
49.7888506685244
20
-3.96938540207597
30
0
0
SPLINE
5
E1
100
AcDbEntity
8
1
62
256
6
ByLayer
370
18
48
1
60
0
100
AcDbSpline
70
4
71
3
72
23
73
19
40
0
40
0
40
0
40
0
40
0.250000000000042
40
0.250000000000042
40
0.375000000000063
40
0.375000000000063
40
0.500000000000084
40
0.500000000000084
40
0.625000000000105
40
0.625000000000105
40
0.656250000000103
40
0.656250000000103
40
0.6875000000001
40
0.75000000000008
40
0.75000000000008
40
0.87500000000004
40
0.87500000000004
40
1
40
1
40
1
40
1
41
1
10
46.9850070791856
20
7.72100237912417
30
0
41
1
10
47.137565418028
20
7.74855428802877
30
0
41
1
10
47.2892866506961
20
7.7644819168261
30
0
41
1
10
47.5164569836568
20
7.77052645077274
30
0
41
1
10
47.5921108645663
20
7.76954806088344
30
0
41
1
10
47.7434190272675
20
7.76127946331818
30
0
41
1
10
47.8190729983715
20
7.75399086215052
30
0
41
1
10
47.9705306907761
20
7.73257221075261
30
0
41
1
10
48.0463339868932
20
7.71844560973244
30
0
41
1
10
48.1412881508028
20
7.69600545959963
30
0
41
1
10
48.1603096504248
20
7.6912718060959
30
0
41
1
10
48.1982264644141
20
7.68134836465177
30
0
41
1
10
48.2549393919985
20
7.66577405245943
30
0
41
1
10
48.311168171362
20
7.6481030111263
30
0
41
1
10
48.4229824013556
20
7.60986602551381
30
0
41
1
10
48.4966695761079
20
7.58052449473749
30
0
41
1
10
48.6422971321437
20
7.51340422579892
30
0
41
1
10
48.7142383021725
20
7.47562968874996
30
0
41
1
10
48.7852501729258
20
7.43309180465388
30
0
0
SPLINE
5
E2
100
AcDbEntity
8
1
62
256
6
ByLayer
370
18
48
1
60
0
100
AcDbSpline
70
4
71
3
72
8
73
4
40
0
40
0
40
0
40
0
40
1
40
1
40
1
40
1
41
1
10
46.8191202560062
20
7.69074245415214
30
0
41
1
10
46.8744272301773
20
7.70093194158414
30
0
41
1
10
46.9297233681384
20
7.71101818696377
30
0
41
1
10
46.9850070791871
20
7.72100237912446
30
0
0
SPLINE
5
E3
100
AcDbEntity
8
1
62
256
6
ByLayer
370
18
48
1
60
0
100
AcDbSpline
70
4
71
3
72
8
73
4
40
0
40
0
40
0
40
0
40
1
40
1
40
1
40
1
41
1
10
46.8191202562263
20
7.6907424541927
30
0
41
1
10
46.8134276727304
20
7.68969368033802
30
0
41
1
10
46.8077471937199
20
7.68900416422221
30
0
41
1
10
46.8020797977064
20
7.68868000892536
30
0
0
SPLINE
5
E4
100
AcDbEntity
8
1
62
256
6
ByLayer
370
18
48
1
60
0
100
AcDbSpline
70
4
71
3
72
14
73
10
40
0
40
0
40
0
40
0
40
0.0815155042685332
40
0.0815155042685332
40
0.387677002845689
40
0.387677002845689
40
0.693838501422844
40
0.693838501422844
40
1
40
1
40
1
40
1
41
1
10
40.9409757605296
20
5.61535900759111
30
0
41
1
10
41.1013772251183
20
5.69521379971346
30
0
41
1
10
41.2615118676359
20
5.77326935306124
30
0
41
1
10
42.0220252833868
20
6.13581325634874
30
0
41
1
10
42.6194191700187
20
6.3963989056642
30
0
41
1
10
43.8121571147916
20
6.86338427874961
30
0
41
1
10
44.4075063157609
20
7.06981833747892
30
0
41
1
10
45.6012012261874
20
7.42417626405449
30
0
41
1
10
46.1995709959512
20
7.57205619070794
30
0
41
1
10
46.8020797977063
20
7.6886800089253
30
0
0
SPLINE
5
E5
100
AcDbEntity
8
1
62
256
6
ByLayer
370
18
48
1
60
0
100
AcDbSpline
70
4
71
3
72
29
73
25
40
0
40
0
40
0
40
0
40
0.125000000000001
40
0.125000000000001
40
0.250000000000003
40
0.375000000000004
40
0.375000000000004
40
0.406250000000003
40
0.406250000000003
40
0.437500000000001
40
0.437500000000001
40
0.500000000000003
40
0.500000000000003
40
0.62500000000001
40
0.62500000000001
40
0.750000000000016
40
0.750000000000016
40
0.781250000000017
40
0.781250000000017
40
0.812500000000019
40
0.812500000000019
40
0.875000000000012
40
0.875000000000012
40
1
40
1
40
1
40
1
41
1
10
49.9732266995147
20
4.95100563502359
30
0
41
1
10
49.9743041869619
20
5.07163202122612
30
0
41
1
10
49.9684333347528
20
5.1909263422732
30
0
41
1
10
49.943635747291
20
5.42701204294534
30
0
41
1
10
49.9057906642223
20
5.66059641016926
30
0
41
1
10
49.8421647482491
20
5.88923833773976
30
0
41
1
10
49.7940817902868
20
6.03054513755308
30
0
41
1
10
49.7840476305342
20
6.05872644558565
30
0
41
1
10
49.7631306561024
20
6.11492636614068
30
0
41
1
10
49.7522473013054
20
6.14294096893971
30
0
41
1
10
49.7185414400921
20
6.22617179248303
30
0
41
1
10
49.6945948827769
20
6.2807673519394
30
0
41
1
10
49.6183895126133
20
6.44191666822624
30
0
41
1
10
49.5617821001302
20
6.54584339240017
30
0
41
1
10
49.4368707875194
20
6.74663087524419
30
0
41
1
10
49.3685696114375
20
6.84349327953763
30
0
41
1
10
49.2754650654065
20
6.95990267672195
30
0
41
1
10
49.2564561729337
20
6.98295017157594
30
0
41
1
10
49.217645151865
20
7.02856595938559
30
0
41
1
10
49.1978329606112
20
7.05114239788423
30
0
41
1
10
49.1376284968759
20
7.1176523793915
30
0
41
1
10
49.0963309752688
20
7.16053451754948
30
0
41
1
10
48.9689759999262
20
7.28483403280447
30
0
41
1
10
48.8794703351816
20
7.36192233752496
30
0
41
1
10
48.7852501729258
20
7.43309180465383
30
0
0
SPLINE
5
E6
100
AcDbEntity
8
1
62
256
6
ByLayer
370
18
48
1
60
0
100
AcDbSpline
70
4
71
3
72
8
73
4
40
0
40
0
40
0
40
0
40
1
40
1
40
1
40
1
41
1
10
48.7852501729258
20
7.43309180465388
30
0
41
1
10
48.7895021930588
20
7.42060608938428
30
0
41
1
10
48.7937777361476
20
7.40812804134325
30
0
41
1
10
48.7980771541029
20
7.39565777523464
30
0
0
SPLINE
5
E7
100
AcDbEntity
8
1
62
256
6
ByLayer
370
18
48
1
60
0
100
AcDbSpline
70
4
71
3
72
10
73
6
40
0
40
0
40
0
40
0
40
0.190054698080733
40
0.672736153797747
40
1
40
1
40
1
40
1
41
1
10
16.4111072498967
20
-7.89626408437741
30
0
41
1
10
16.5174884767441
20
-7.88775793915906
30
0
41
1
10
16.8940695559261
20
-7.85401778124404
30
0
41
1
10
17.4539158974052
20
-7.78484610157713
30
0
41
1
10
17.9072758974773
20
-7.71048474407147
30
0
41
1
10
18.0904309136695
20
-7.67749789300413
30
0
0
SPLINE
5
E8
100
AcDbEntity
8
1
62
256
6
ByLayer
370
13
48
1
60
0
100
AcDbSpline
70
4
71
3
72
8
73
4
40
0
40
0
40
0
40
0
40
1
40
1
40
1
40
1
41
1
10
20.7514259737797
20
-6.94648879405736
30
0
41
1
10
19.8342839825199
20
-7.10075218894227
30
0
41
1
10
18.91714199126
20
-7.18790411586073
30
0
41
1
10
18.0000000000001
20
-7.20372105006757
30
0
0
SPLINE
5
E9
100
AcDbEntity
8
1
62
256
6
ByLayer
370
18
48
1
60
0
100
AcDbSpline
70
4
71
3
72
23
73
19
40
0
40
0
40
0
40
0
40
0.0169794257944963
40
0.0169794257944963
40
0.106344932540451
40
0.106344932540451
40
0.285075946032361
40
0.285075946032361
40
0.374441452778316
40
0.374441452778316
40
0.463806959524271
40
0.642537973016181
40
0.642537973016181
40
0.821268986508091
40
0.821268986508091
40
0.910634493254045
40
0.910634493254045
40
1
40
1
40
1
40
1
41
1
10
23.1639534688387
20
-6.67053718575141
30
0
41
1
10
23.1345664705031
20
-6.68044912960556
30
0
41
1
10
23.1051840979862
20
-6.69029365754344
30
0
41
1
10
22.9212481552278
20
-6.75150558621968
30
0
41
1
10
22.766911227893
20
-6.80103222917649
30
0
41
1
10
22.3044826169524
20
-6.94376559780898
30
0
41
1
10
21.9969879470283
20
-7.03108582965854
30
0
41
1
10
21.5363422496548
20
-7.15015396400051
30
0
41
1
10
21.3828926825913
20
-7.18786008534576
30
0
41
1
10
21.0760480095086
20
-7.25943046870665
30
0
41
1
10
20.6158523127366
20
-7.36105933196393
30
0
41
1
10
20.1556485951293
20
-7.44505329527343
30
0
41
1
10
19.5414627796679
20
-7.54083247328833
30
0
41
1
10
19.2340792124074
20
-7.58061936506616
30
0
41
1
10
18.7721236035964
20
-7.62760034796719
30
0
41
1
10
18.6179976280208
20
-7.64111076006444
30
0
41
1
10
18.3093361052386
20
-7.66397977355655
30
0
41
1
10
18.1547925210714
20
-7.67338217083361
30
0
41
1
10
18.0000000000001
20
-7.68073363507574
30
0
0
SPLINE
5
EA
100
AcDbEntity
8
1
62
256
6
ByLayer
370
18
48
1
60
0
100
AcDbSpline
70
4
71
3
72
50
73
46
40
0
40
0
40
0
40
0
40
0.0715819630161019
40
0.0715819630161019
40
0.107372944524153
40
0.107372944524153
40
0.125268435278179
40
0.125268435278179
40
0.143163926032206
40
0.143163926032206
40
0.214745889048309
40
0.214745889048309
40
0.250536870556361
40
0.250536870556361
40
0.268432361310387
40
0.268432361310387
40
0.286327852064413
40
0.286327852064413
40
0.357909815080526
40
0.357909815080526
40
0.393700796588585
40
0.393700796588585
40
0.429491778096643
40
0.429491778096643
40
0.501073741112755
40
0.501073741112755
40
0.536864722620812
40
0.536864722620812
40
0.55476021337484
40
0.55476021337484
40
0.572655704128868
40
0.572655704128868
40
0.644237667144987
40
0.644237667144987
40
0.715819630161107
40
0.715819630161107
40
0.787401593177226
40
0.787401593177226
40
0.858983556193345
40
0.858983556193345
40
0.894774537701409
40
0.894774537701409
40
0.930565519209472
40
0.930565519209472
40
1
40
1
40
1
40
1
41
1
10
48.798077154103
20
7.39565777523467
30
0
41
1
10
48.8394682023921
20
7.27560541917106
30
0
41
1
10
48.8741359938778
20
7.15403852563077
30
0
41
1
10
48.9135591136488
20
6.9688546312299
30
0
41
1
10
48.9245927793901
20
6.90665194156489
30
0
41
1
10
48.9375374876966
20
6.81253563636136
30
0
41
1
10
48.9412503138894
20
6.78102790578436
30
0
41
1
10
48.9473820949191
20
6.71772097626669
30
0
41
1
10
48.9498037813127
20
6.68584603401817
30
0
41
1
10
48.9583687514878
20
6.52692642538349
30
0
41
1
10
48.9540055216705
20
6.4009884304329
30
0
41
1
10
48.9279197267107
20
6.21416825112652
30
0
41
1
10
48.9159596010347
20
6.15224351835249
30
0
41
1
10
48.8927038086112
20
6.05992408206578
30
0
41
1
10
48.8840653643974
20
6.02924560899331
30
0
41
1
10
48.8649385039384
20
5.96808622467933
30
0
41
1
10
48.8544282865209
20
5.93756981793322
30
0
41
1
10
48.7979905975948
20
5.78778273307216
30
0
41
1
10
48.7398916283962
20
5.67505681766528
30
0
41
1
10
48.6352360158573
20
5.51557241361184
30
0
41
1
10
48.5974314335525
20
5.46401252339899
30
0
41
1
10
48.516288184497
20
5.36392875490463
30
0
41
1
10
48.4736245333455
20
5.31622719725377
30
0
41
1
10
48.3403271434329
20
5.17926934872025
30
0
41
1
10
48.2443817610616
20
5.09606189883058
30
0
41
1
10
48.0923840824919
20
4.98049121443805
30
0
41
1
10
48.0403606454001
20
4.94352025047226
30
0
41
1
10
47.960527359385
20
4.89012029200535
30
0
41
1
10
47.9336006694225
20
4.87265543822508
30
0
41
1
10
47.8795041565877
20
4.83856926940848
30
0
41
1
10
47.8522948484151
20
4.82192077788881
30
0
41
1
10
47.7155071749075
20
4.74049416930754
30
0
41
1
10
47.6037281632109
20
4.68110785566964
30
0
41
1
10
47.3766926300896
20
4.57085547461998
30
0
41
1
10
47.2614279045002
20
4.52000950823171
30
0
41
1
10
47.0282027282158
20
4.42492237125833
30
0
41
1
10
46.9102381943658
20
4.38069120481091
30
0
41
1
10
46.6721589744638
20
4.29749695960493
30
0
41
1
10
46.5520420534572
20
4.25853935670864
30
0
41
1
10
46.3705517927963
20
4.20332453763592
30
0
41
1
10
46.3098349163882
20
4.18545892092783
30
0
41
1
10
46.18800118165
20
4.1507076831781
30
0
41
1
10
46.1269016230549
20
4.13382773426511
30
0
41
1
10
45.9471464524855
20
4.08562037037879
30
0
41
1
10
45.8282404765266
20
4.05558259449819
30
0
41
1
10
45.7090914745997
20
4.02701988547764
30
0
0
SPLINE
5
EB
100
AcDbEntity
8
1
62
256
6
ByLayer
370
13
48
1
60
0
100
AcDbSpline
70
4
71
3
72
12
73
8
40
0
40
0
40
0
40
0
40
0.11057041054899
40
0.387662443519812
40
0.664754476490634
40
0.941846509461456
40
1
40
1
40
1
40
1
41
1
10
48.798077154103
20
7.39565777523467
30
0
41
1
10
48.5320514360687
20
7.37467703685908
30
0
41
1
10
47.5993590513677
20
7.27979397204163
30
0
41
1
10
46
20
6.99233114449388
30
0
41
1
10
44
20
6.42474964201869
30
0
41
1
10
42.5267528868416
20
5.86382820087968
30
0
41
1
10
41.7201724403498
20
5.51282235911645
30
0
41
1
10
41.5802586605247
20
5.45066883745719
30
0
0
SPLINE
5
EC
100
AcDbEntity
8
1
62
256
6
ByLayer
370
18
48
1
60
0
100
AcDbSpline
70
4
71
3
72
8
73
4
40
0
40
0
40
0
40
0
40
1
40
1
40
1
40
1
41
1
10
48.3589958786754
20
-6.38810047272108
30
0
41
1
10
48.363818763704
20
-6.39960247665991
30
0
41
1
10
48.368599282913
20
-6.41115062784871
30
0
41
1
10
48.3733400909867
20
-6.42274203465487
30
0
0
SPLINE
5
ED
100
AcDbEntity
8
1
62
256
6
ByLayer
370
18
48
1
60
0
100
AcDbSpline
70
4
71
3
72
8
73
4
40
0
40
0
40
0
40
0
40
1
40
1
40
1
40
1
41
1
10
48.3589958786753
20
-6.38810047272119
30
0
41
1
10
48.4066381739678
20
-6.29471956625991
30
0
41
1
10
48.4527306149965
20
-6.2002572104162
30
0
41
1
10
48.4971472423213
20
-6.10462551385638
30
0
0
SPLINE
5
EE
100
AcDbEntity
8
1
62
256
6
ByLayer
370
13
48
1
60
0
100
AcDbSpline
70
4
71
3
72
8
73
4
40
0
40
0
40
0
40
0
40
1
40
1
40
1
40
1
41
1
10
18.5136078995193
20
-7.03333424588067
30
0
41
1
10
18.3424052663462
20
-7.03650583987013
30
0
41
1
10
18.1712026331731
20
-7.03727038856528
30
0
41
1
10
17.9999999999999
20
-7.03560524412188
30
0
0
SPLINE
5
EF
100
AcDbEntity
8
1
62
256
6
ByLayer
370
13
48
1
60
0
100
AcDbSpline
70
4
71
3
72
10
73
6
40
0
40
0
40
0
40
0
40
0.0972937636310822
40
0.398195842420722
40
1
40
1
40
1
40
1
41
1
10
24.6466805681266
20
-4.02025937299115
30
0
41
1
10
24.4311203787511
20
-4.0079795142131
30
0
41
1
10
23.5488935227089
20
-3.95045672893679
30
0
41
1
10
21.3333333333333
20
-3.73209153825539
30
0
41
1
10
19.3333333333333
20
-3.39132094594944
30
0
41
1
10
18
20
-3.10575150387732
30
0
0
SPLINE
5
F0
100
AcDbEntity
8
1
62
256
6
ByLayer
370
18
48
1
60
0
100
AcDbSpline
70
4
71
3
72
11
73
7
40
0
40
0
40
0
40
0
40
0.194655725097703
40
0.395991793823277
40
0.597327862548852
40
1
40
1
40
1
40
1
41
1
10
27.9336398721783
20
-5.71751650132433
30
0
41
1
10
27.2890932481189
20
-5.82616937190068
30
0
41
1
10
25.9778799573928
20
-5.99113265343783
30
0
41
1
10
24
20
-6.05935758868353
30
0
41
1
10
21.3333333333333
20
-5.90837324616953
30
0
41
1
10
19.3333333333333
20
-5.52567851254409
30
0
41
1
10
18
20
-5.15639730857143
30
0
0
SPLINE
5
F1
100
AcDbEntity
8
1
62
256
6
ByLayer
370
18
48
1
60
0
100
AcDbSpline
70
4
71
3
72
8
73
4
40
0
40
0
40
0
40
0
40
1
40
1
40
1
40
1
41
1
10
16.1416650038637
20
-7.99175390283798
30
0
41
1
10
16.3420894620856
20
-7.88893475360226
30
0
41
1
10
16.5456191856072
20
-7.79378121449355
30
0
41
1
10
16.7523800899075
20
-7.7066041185256
30
0
0
SPLINE
5
F2
100
AcDbEntity
8
1
62
256
6
ByLayer
370
18
48
1
60
0
100
AcDbSpline
70
4
71
3
72
8
73
4
40
0
40
0
40
0
40
0
40
1
40
1
40
1
40
1
41
1
10
18.0000000000001
20
-7.68073363507574
30
0
41
1
10
17.5804896362274
20
-7.70101798529524
30
0
41
1
10
17.164414517869
20
-7.710331889841
30
0
41
1
10
16.7525089607038
20
-7.70633031352875
30
0
0
SPLINE
5
F3
100
AcDbEntity
8
1
62
256
6
ByLayer
370
18
48
1
60
0
100
AcDbSpline
70
4
71
3
72
20
73
16
40
0
40
0
40
0
40
0
40
0.125
40
0.125
40
0.25
40
0.25
40
0.5
40
0.5
40
0.625
40
0.625
40
0.75
40
0.75
40
0.875
40
0.875
40
1
40
1
40
1
40
1
41
1
10
44.3490704148831
20
-2.15935900674725
30
0
41
1
10
44.3743324111367
20
-2.19115111336748
30
0
41
1
10
44.3993208847276
20
-2.22338723135249
30
0
41
1
10
44.4486861026333
20
-2.28885249198896
30
0
41
1
10
44.4730806739911
20
-2.32210704413134
30
0
41
1
10
44.5450170967792
20
-2.42326755632422
30
0
41
1
10
44.5913700017425
20
-2.49259462164403
30
0
41
1
10
44.6577094422303
20
-2.60033573627126
30
0
41
1
10
44.6793233983113
20
-2.63694544543347
30
0
41
1
10
44.7210790706346
20
-2.7113099544718
30
0
41
1
10
44.7412070165048
20
-2.74903172390481
30
0
41
1
10
44.7796876584882
20
-2.82575248122589
30
0
41
1
10
44.7980422542122
20
-2.86475010242307
30
0
41
1
10
44.8325880655007
20
-2.94430180697387
30
0
41
1
10
44.848783083682
20
-2.98485315477464
30
0
41
1
10
44.8636047979189
20
-3.0263925374436
30
0
0
SPLINE
5
F4
100
AcDbEntity
8
1
62
256
6
ByLayer
370
18
48
1
60
0
100
AcDbSpline
70
4
71
3
72
10
73
6
40
0
40
0
40
0
40
0
40
0.5
40
0.5
40
1
40
1
40
1
40
1
41
1
10
44.3490704148828
20
-2.15935900674748
30
0
41
1
10
44.3195562433943
20
-2.12221555706324
30
0
41
1
10
44.2940909747279
20
-2.0835408395518
30
0
41
1
10
44.2508452783569
20
-2.00405368033739
30
0
41
1
10
44.2330612136851
20
-1.96324076367654
30
0
41
1
10
44.2190401696325
20
-1.92182456916561
30
0
0
SPLINE
5
F5
100
AcDbEntity
8
1
62
256
6
ByLayer
370
18
48
1
60
0
100
AcDbSpline
70
4
71
3
72
12
73
8
40
0
40
0
40
0
40
0
40
0.0063344569655357
40
0.0063344569655357
40
0.503167228482768
40
0.503167228482768
40
1
40
1
40
1
40
1
41
1
10
45.5288094269163
20
4.12901021792104
30
0
41
1
10
45.5293471513298
20
4.12881319835631
30
0
41
1
10
45.5298854989687
20
4.12861537350429
30
0
41
1
10
45.5726970905118
20
4.11283780754607
30
0
41
1
10
45.6189767908546
20
4.09226773071489
30
0
41
1
10
45.7186790536523
20
4.04223055367206
30
0
41
1
10
45.7721041396866
20
4.01276031013441
30
0
41
1
10
45.8287855080545
20
3.9792340986107
30
0
0
SPLINE
5
F6
100
AcDbEntity
8
1
62
256
6
ByLayer
370
18
48
1
60
0
100
AcDbSpline
70
4
71
3
72
19
73
15
40
0
40
0
40
0
40
0
40
0.125000000000001
40
0.125000000000001
40
0.250000000000003
40
0.250000000000003
40
0.500000000000002
40
0.500000000000002
40
0.625000000000002
40
0.6875
40
0.6875
40
0.749999999999999
40
0.749999999999999
40
1
40
1
40
1
40
1
41
1
10
45.4203698058296
20
-4.1074675761266
30
0
41
1
10
45.411066757488
20
-4.16838140984294
30
0
41
1
10
45.4030856573192
20
-4.22950613024287
30
0
41
1
10
45.3899666069137
20
-4.35220913077558
30
0
41
1
10
45.384905663958
20
-4.41310817276505
30
0
41
1
10
45.3742389006799
20
-4.59427279816353
30
0
41
1
10
45.3731272869497
20
-4.71308738935105
30
0
41
1
10
45.3805477121449
20
-4.88833759745532
30
0
41
1
10
45.3865328264036
20
-4.97521882040351
30
0
41
1
10
45.3959737841495
20
-5.06097000036493
30
0
41
1
10
45.4030424597522
20
-5.11788412953678
30
0
41
1
10
45.4069687245081
20
-5.146244395564
30
0
41
1
10
45.4285006255048
20
-5.28705799669137
30
0
41
1
10
45.4516624151597
20
-5.39577363738206
30
0
41
1
10
45.4804685943467
20
-5.50074752919167
30
0
0
SPLINE
5
F7
100
AcDbEntity
8
1
62
256
6
ByLayer
370
18
48
1
60
0
100
AcDbSpline
70
4
71
3
72
18
73
14
40
0
40
0
40
0
40
0
40
0.25
40
0.25
40
0.5
40
0.5
40
0.75
40
0.75
40
0.812499999999995
40
0.812499999999995
40
0.874999999999992
40
0.874999999999992
40
1
40
1
40
1
40
1
41
1
10
44.8636047993958
20
-3.02639253629195
30
0
41
1
10
44.8988542023482
20
-3.12517685346231
30
0
41
1
10
44.9372795995726
20
-3.22151968617709
30
0
41
1
10
45.0198305180244
20
-3.40982349178287
30
0
41
1
10
45.0639580724188
20
-3.50178290151303
30
0
41
1
10
45.1574332876856
20
-3.68168886494428
30
0
41
1
10
45.206782215123
20
-3.76963444499808
30
0
41
1
10
45.2715044117747
20
-3.8772325249895
30
0
41
1
10
45.284600895429
20
-3.89863525985047
30
0
41
1
10
45.3110931630967
20
-3.94121064820226
30
0
41
1
10
45.3245027401549
20
-3.96240458043727
30
0
41
1
10
45.3650611417416
20
-4.02547235275807
30
0
41
1
10
45.3925189893801
20
-4.06680443295781
30
0
41
1
10
45.4203698058266
20
-4.10746757612051
30
0
0
SPLINE
5
F8
100
AcDbEntity
8
1
62
256
6
ByLayer
370
13
48
1
60
0
100
AcDbSpline
70
4
71
3
72
26
73
22
40
0
40
0
40
0
40
0
40
0.0450002579868457
40
0.149215190551155
40
0.253430123115464
40
0.357645055679773
40
0.461859988244082
40
0.566074920808391
40
0.6702898533727
40
0.748451052795932
40
0.800558519078087
40
0.826612252219164
40
0.852665985360241
40
0.872206285216049
40
0.891746585071857
40
0.911286884927665
40
0.930827184783473
40
0.950367484639281
40
0.969907784495089
40
0.989448084350897
40
1
40
1
40
1
40
1
41
1
10
44.8636047998031
20
-3.02639253618185
30
0
41
1
10
44.575736533202
20
-2.95033590791274
30
0
41
1
10
43.6212015999343
20
-2.68768176771422
30
0
41
1
10
42
20
-2.18632148111615
30
0
41
1
10
40.0000000000001
20
-1.49552386624106
30
0
41
1
10
38
20
-0.763196603839305
30
0
41
1
10
36
20
-0.0136218613944834
30
0
41
1
10
34
20
0.724486036125995
30
0
41
1
10
32.1666666666667
20
1.36940413190388
30
0
41
1
10
30.6666666666667
20
1.85543211171227
30
0
41
1
10
29.6666666666667
20
2.15482842149731
30
0
41
1
10
29
20
2.34332841074186
30
0
41
1
10
28.5416666666667
20
2.46752147188411
30
0
41
1
10
28.125
20
2.57590564471707
30
0
41
1
10
27.75
20
2.66984409337076
30
0
41
1
10
27.375
20
2.76006218606571
30
0
41
1
10
27.0000000000001
20
2.8464540037572
30
0
41
1
10
26.625
20
2.92892186021777
30
0
41
1
10
26.25
20
3.00737286905155
30
0
41
1
10
25.9324990166031
20
3.07032266183978
30
0
41
1
10
25.7399980332062
20
3.10683506455129
30
0
41
1
10
25.6724970498093
20
3.11943223069392
30
0
0
SPLINE
5
F9
100
AcDbEntity
8
1
62
256
6
ByLayer
370
18
48
1
60
0
100
AcDbSpline
70
4
71
3
72
11
73
7
40
0
40
0
40
0
40
0
40
0.5
40
0.75
40
0.75
40
1
40
1
40
1
40
1
41
1
10
48.3816889312798
20
1.44856870566878
30
0
41
1
10
48.3772425132785
20
1.43449876561479
30
0
41
1
10
48.3694731292883
20
1.41567283815627
30
0
41
1
10
48.3601950790152
20
1.39997325977183
30
0
41
1
10
48.3536900761715
20
1.39016924312901
30
0
41
1
10
48.3502735802434
20
1.38559431067034
30
0
41
1
10
48.3467193623739
20
1.38134919113648
30
0
0
SPLINE
5
FA
100
AcDbEntity
8
1
62
256
6
ByLayer
370
18
48
1
60
0
100
AcDbSpline
70
4
71
3
72
8
73
4
40
0
40
0
40
0
40
0
40
1
40
1
40
1
40
1
41
1
10
48.3015873067818
20
-6.53298607171169
30
0
41
1
10
48.3214940727752
20
-6.52985049006415
30
0
41
1
10
48.3413488340437
20
-6.52667022517375
30
0
41
1
10
48.3611520628791
20
-6.52344180195618
30
0
0
SPLINE
5
FB
100
AcDbEntity
8
1
62
256
6
ByLayer
370
18
48
1
60
0
100
AcDbSpline
70
4
71
3
72
8
73
4
40
0
40
0
40
0
40
0
40
1
40
1
40
1
40
1
41
1
10
48.3341709166142
20
-6.52338534438266
30
0
41
1
10
48.3430557573362
20
-6.5237548304884
30
0
41
1
10
48.3520502974858
20
-6.52377099337099
30
0
41
1
10
48.3611520628791
20
-6.52344180195618
30
0
0
SPLINE
5
FC
100
AcDbEntity
8
1
62
256
6
ByLayer
370
18
48
1
60
0
100
AcDbSpline
70
4
71
3
72
34
73
30
40
0
40
0
40
0
40
0
40
0.0625000000000072
40
0.0625000000000072
40
0.125000000000014
40
0.125000000000014
40
0.187500000000022
40
0.187500000000022
40
0.250000000000029
40
0.250000000000029
40
0.312500000000036
40
0.312500000000036
40
0.343750000000037
40
0.343750000000037
40
0.375000000000038
40
0.375000000000038
40
0.500000000000035
40
0.500000000000035
40
0.625000000000032
40
0.625000000000032
40
0.75000000000003
40
0.75000000000003
40
0.781250000000026
40
0.781250000000026
40
0.812500000000022
40
0.812500000000022
40
0.875000000000015
40
0.875000000000015
40
1
40
1
40
1
40
1
41
1
10
45.4804686005699
20
-5.50074752921427
30
0
41
1
10
45.5223252964698
20
-5.56212206879638
30
0
41
1
10
45.5664363912658
20
-5.61931257708991
30
0
41
1
10
45.6584129764859
20
-5.72672566635694
30
0
41
1
10
45.7062827757014
20
-5.77694024791722
30
0
41
1
10
45.8052753447395
20
-5.87133209328059
30
0
41
1
10
45.8564003602834
20
-5.91550518916009
30
0
41
1
10
45.9615469590166
20
-5.99847552561863
30
0
41
1
10
46.0155696327313
20
-6.03727074224815
30
0
41
1
10
46.1262519007055
20
-6.10996720960617
30
0
41
1
10
46.1829124949717
20
-6.14386660438231
30
0
41
1
10
46.2697386036108
20
-6.19130964375097
30
0
41
1
10
46.2988954123873
20
-6.20650471575348
30
0
41
1
10
46.3575055667053
20
-6.23566650088199
30
0
41
1
10
46.3869769783237
20
-6.24964305520732
30
0
41
1
10
46.5351227243686
20
-6.31666030942651
30
0
41
1
10
46.6561455402961
20
-6.36116833857946
30
0
41
1
10
46.9023606361052
20
-6.43503560262104
30
0
41
1
10
47.0275599525534
20
-6.46436927175435
30
0
41
1
10
47.2816438104481
20
-6.50964718732035
30
0
41
1
10
47.4105315659509
20
-6.52557975621488
30
0
41
1
10
47.573760364162
20
-6.53779618792063
30
0
41
1
10
47.6065124441196
20
-6.53985318369752
30
0
41
1
10
47.6722258872872
20
-6.54320679238938
30
0
41
1
10
47.7052069222202
20
-6.54450347397534
30
0
41
1
10
47.8041542346839
20
-6.54726311727674
30
0
41
1
10
47.8702084129303
20
-6.54760278621876
30
0
41
1
10
48.0686255234812
20
-6.54434549434814
30
0
41
1
10
48.2012428064957
20
-6.53647601604536
30
0
41
1
10
48.3341709166142
20
-6.52338534438266
30
0
0
SPLINE
5
FD
100
AcDbEntity
8
1
62
256
6
ByLayer
370
18
48
1
60
0
100
AcDbSpline
70
4
71
3
72
32
73
28
40
0
40
0
40
0
40
0
40
0.0538734843823814
40
0.126652447122198
40
0.199431409862015
40
0.272210372601832
40
0.344989335341649
40
0.417768298081465
40
0.490547260821282
40
0.545131482876145
40
0.581520964246053
40
0.599715704931008
40
0.617910445615962
40
0.631556501129677
40
0.645202556643393
40
0.658848612157109
40
0.672494667670824
40
0.68614072318454
40
0.699786778698256
40
0.713432834211971
40
0.727078889725687
40
0.754371000753118
40
0.78166311178055
40
0.818052593150458
40
0.872636815205321
40
0.927221037260183
40
1
40
1
40
1
40
1
41
1
10
45.4804685957116
20
-5.50074752870128
30
0
41
1
10
44.9869790638077
20
-5.43039274239996
30
0
41
1
10
43.8268228652371
20
-5.23473034929316
30
0
41
1
10
42
20
-4.81390002915779
30
0
41
1
10
40
20
-4.22424349789588
30
0
41
1
10
38
20
-3.52519631849359
30
0
41
1
10
36
20
-2.73541377031569
30
0
41
1
10
34
20
-1.8738156581779
30
0
41
1
10
32.1666666666667
20
-1.03647224936961
30
0
41
1
10
30.6666666666667
20
-0.335011148227039
30
0
41
1
10
29.6666666666667
20
0.135215054042561
30
0
41
1
10
29
20
0.447246501979691
30
0
41
1
10
28.5416666666667
20
0.662351972853514
30
0
41
1
10
28.125
20
0.853141440285896
30
0
41
1
10
27.75
20
1.02835424088002
30
0
41
1
10
27.375
20
1.19959709177141
30
0
41
1
10
27
20
1.37412172576237
30
0
41
1
10
26.625
20
1.54392039627081
30
0
41
1
10
26.25
20
1.71352127729517
30
0
41
1
10
25.875
20
1.87732346974354
30
0
41
1
10
25.3750000000001
20
2.09976480402898
30
0
41
1
10
24.75
20
2.36905206715244
30
0
41
1
10
23.9166666666667
20
2.72134139348577
30
0
41
1
10
22.8333333333334
20
3.16128321782259
30
0
41
1
10
21.4999999999999
20
3.67006554434636
30
0
41
1
10
19.8333333333333
20
4.24573117413667
30
0
41
1
10
18.6666666666667
20
4.591953303069
30
0
41
1
10
18
20
4.7677188523819
30
0
0
SPLINE
5
FE
100
AcDbEntity
8
1
62
256
6
ByLayer
370
18
48
1
60
0
100
AcDbSpline
70
4
71
3
72
15
73
11
40
0
40
0
40
0
40
0
40
0.125
40
0.25
40
0.375
40
0.5
40
0.625
40
0.75
40
0.875
40
1
40
1
40
1
40
1
41
1
10
18
20
4.7677188523819
30
0
41
1
10
18
20
4.76462877589663
30
0
41
1
10
18
20
4.73363173567694
30
0
41
1
10
18
20
4.61289386212803
30
0
41
1
10
18
20
4.41812202388775
30
0
41
1
10
18
20
4.15419340066546
30
0
41
1
10
18
20
3.82598517217065
30
0
41
1
10
18
20
3.44240629380181
30
0
41
1
10
18
20
3.0123657209576
30
0
41
1
10
18
20
2.70218836308931
30
0
41
1
10
18
20
2.54310147858166
30
0
0
SPLINE
5
FF
100
AcDbEntity
8
1
62
256
6
ByLayer
370
18
48
1
60
0
100
AcDbSpline
70
4
71
3
72
8
73
4
40
0
40
0
40
0
40
0
40
1
40
1
40
1
40
1
41
1
10
48.281172745969
20
1.37410569665369
30
0
41
1
10
48.3030616117031
20
1.3763429861481
30
0
41
1
10
48.3249105331687
20
1.37875956864761
30
0
41
1
10
48.3467193623738
20
1.38134919113634
30
0
0
SPLINE
5
100
100
AcDbEntity
8
1
62
256
6
ByLayer
370
18
48
1
60
0
100
AcDbSpline
70
4
71
3
72
10
73
6
40
0
40
0
40
0
40
0
40
0.5
40
0.5
40
1
40
1
40
1
40
1
41
1
10
48.1452534274987
20
2.01720740210445
30
0
41
1
10
48.1746246410644
20
1.91642460022985
30
0
41
1
10
48.2061899224381
20
1.81293284940011
30
0
41
1
10
48.273418770097
20
1.60088931970094
30
0
41
1
10
48.3090834464478
20
1.49233617026715
30
0
41
1
10
48.3467193623739
20
1.38134919113648
30
0
0
SPLINE
5
101
100
AcDbEntity
8
1
62
256
6
ByLayer
370
18
48
1
60
0
100
AcDbSpline
70
4
71
3
72
23
73
19
40
0
40
0
40
0
40
0
40
0.125000000000006
40
0.125000000000006
40
0.250000000000012
40
0.250000000000012
40
0.375000000000018
40
0.375000000000018
40
0.500000000000024
40
0.500000000000024
40
0.562500000000027
40
0.562500000000027
40
0.593750000000029
40
0.593750000000029
40
0.62500000000003
40
0.75000000000002
40
0.75000000000002
40
1
40
1
40
1
40
1
41
1
10
45.8287854799073
20
3.97923411606325
30
0
41
1
10
45.9142924749373
20
3.91763527355852
30
0
41
1
10
46.001970687851
20
3.85224807066885
30
0
41
1
10
46.1808870343843
20
3.71526215959358
30
0
41
1
10
46.2721291546305
20
3.64365652945975
30
0
41
1
10
46.4576681660292
20
3.49511522973128
30
0
41
1
10
46.5519677202564
20
3.41817491353865
30
0
41
1
10
46.7432805562201
20
3.25955930260489
30
0
41
1
10
46.8402952665834
20
3.17788151516055
30
0
41
1
10
46.9876753378395
20
3.05212293990078
30
0
41
1
10
47.0371123962188
20
3.00966187715801
30
0
41
1
10
47.1117165700637
20
2.94518757866885
30
0
41
1
10
47.136672422872
20
2.92355426990241
30
0
41
1
10
47.1866015774159
20
2.88014393927421
30
0
41
1
10
47.3115335435162
20
2.77120199297514
30
0
41
1
10
47.4369939295821
20
2.66024421888832
30
0
41
1
10
47.7390218542283
20
2.39042448823071
30
0
41
1
10
47.9415981404564
20
2.20587404286067
30
0
41
1
10
48.1452534274987
20
2.01720740210445
30
0
0
SPLINE
5
102
100
AcDbEntity
8
1
62
256
6
ByLayer
370
18
48
1
60
0
100
AcDbSpline
70
4
71
3
72
9
73
5
40
0
40
0
40
0
40
0
40
0.514470800490585
40
1
40
1
40
1
40
1
41
1
10
45.8287855144891
20
3.97923409654359
30
0
41
1
10
45.2191903429928
20
4.23889183393817
30
0
41
1
10
44.0342928309958
20
4.70229439588957
30
0
41
1
10
42.8493953189989
20
5.08581069753936
30
0
41
1
10
42.2740929784983
20
5.24786052254714
30
0
0
SPLINE
5
103
100
AcDbEntity
8
1
62
256
6
ByLayer
370
13
48
1
60
0
100
AcDbSpline
70
4
71
3
72
31
73
27
40
0
40
0
40
0
40
0
40
0.0122195121553369
40
0.0945345528090589
40
0.176849593462781
40
0.259164634116503
40
0.341479674770225
40
0.423794715423947
40
0.485530995914238
40
0.526688516241099
40
0.547267276404529
40
0.56784603656796
40
0.583280106690533
40
0.598714176813106
40
0.614148246935678
40
0.629582317058251
40
0.645016387180824
40
0.660450457303397
40
0.67588452742597
40
0.691318597548543
40
0.722186737793688
40
0.753054878038834
40
0.794212398365695
40
0.855948678855987
40
0.917684959346278
40
1
40
1
40
1
40
1
41
1
10
42.2968962186811
20
-7.03287756757982
30
0
41
1
10
42.1979308124541
20
-7.03465495214744
30
0
41
1
10
41.4322987395604
20
-7.04314984221369
30
0
41
1
10
40
20
-6.98311610444742
30
0
41
1
10
38
20
-6.71611772672864
30
0
41
1
10
36
20
-6.2714045717423
30
0
41
1
10
34
20
-5.66046567996676
30
0
41
1
10
32.1666666666666
20
-4.96695153152445
30
0
41
0.999999999999999
10
30.6666666666667
20
-4.31430729233441
30
0
41
1
10
29.6666666666666
20
-3.84358859323379
30
0
41
1
10
29
20
-3.51722842579821
30
0
41
1
10
28.5416666666666
20
-3.28752055032061
30
0
41
1
10
28.1249999999999
20
-3.07479443879461
30
0
41
1
10
27.75
20
-2.88053560033887
30
0
41
1
10
27.3749999999999
20
-2.68367831483997
30
0
41
1
10
27
20
-2.48443010418242
30
0
41
1
10
26.625
20
-2.28300420616412
30
0
41
1
10
26.2499999999999
20
-2.07959162025
30
0
41
1
10
25.875
20
-1.87432483558416
30
0
41
1
10
25.375
20
-1.59835864087967
30
0
41
1
10
24.75
20
-1.24951296531347
30
0
41
1
10
23.9166666666667
20
-0.77895062604074
30
0
41
1
10
22.8333333333333
20
-0.16145602919525
30
0
41
1
10
21.4999999999999
20
0.6023590509038
30
0
41
1
10
19.8333333333333
20
1.54751384450827
30
0
41
1
10
18.6666666666667
20
2.18854837334467
30
0
41
1
10
18
20
2.54310147858166
30
0
0
SPLINE
5
104
100
AcDbEntity
8
1
62
256
6
ByLayer
370
13
48
1
60
0
100
AcDbSpline
70
4
71
3
72
13
73
9
40
0
40
0
40
0
40
0
40
0.0534771872514162
40
0.275482573906451
40
0.497487960561485
40
0.71949334721652
40
0.941498733871554
40
1
40
1
40
1
40
1
41
1
10
48.481764772082
20
-0.425832456803931
30
0
41
1
10
48.3211765147213
20
-0.319831167728211
30
0
41
1
10
47.493921590694
20
0.227281283776904
30
0
41
1
10
46
20
1.22512466046948
30
0
41
1
10
44
20
2.49829183163229
30
0
41
1
10
42
20
3.70405733603877
30
0
41
1
10
40.4909914514241
20
4.50316243335456
30
0
41
1
10
39.6486495695149
20
4.90573039314259
30
0
41
1
10
39.4729743542723
20
4.98769058544136
30
0
0
SPLINE
5
105
100
AcDbEntity
8
1
62
256
6
ByLayer
370
13
48
1
60
0
100
AcDbSpline
70
4
71
3
72
9
73
5
40
0
40
0
40
0
40
0
40
0.875095677463014
40
1
40
1
40
1
40
1
41
1
10
18
20
-1.83708584187633
30
0
41
1
10
19.3333333333333
20
-2.16180827609992
30
0
41
1
10
20.8569762533838
20
-2.49525953915318
30
0
41
1
10
22.3806191734344
20
-2.7673514612097
30
0
41
1
10
22.5709287601516
20
-2.80033995841831
30
0
0
SPLINE
5
106
100
AcDbEntity
8
1
62
256
6
ByLayer
370
13
48
1
60
0
100
AcDbSpline
70
4
71
3
72
28
73
24
40
0
40
0
40
0
40
0
40
0.0143026879003647
40
0.0522744100619858
40
0.0712602711427962
40
0.0902461322236067
40
0.109231993304417
40
0.128217854385228
40
0.147203715466038
40
0.166189576546849
40
0.185175437627659
40
0.20416129870847
40
0.22947578014955
40
0.254790261590631
40
0.305419224472792
40
0.381362668796034
40
0.482620594560357
40
0.583878520324679
40
0.685136446089002
40
0.786394371853325
40
0.887652297617647
40
0.98891022338197
40
1
40
1
40
1
40
1
41
1
10
24.4674998837394
20
3.37514841026299
30
0
41
1
10
24.5616665891596
20
3.36628181422375
30
0
41
1
10
24.9058332945798
20
3.3324180770864
30
0
41
1
10
25.3750000000001
20
3.27904992394505
30
0
41
1
10
25.8750000000001
20
3.21404153687405
30
0
41
1
10
26.25
20
3.16129182540783
30
0
41
1
10
26.625
20
3.10461025133833
30
0
41
1
10
27
20
3.04405822875353
30
0
41
1
10
27.375
20
2.97970455389495
30
0
41
1
10
27.75
20
2.91162383754741
30
0
41
1
10
28.125
20
2.839898417272
30
0
41
1
10
28.5416666666667
20
2.75625299965751
30
0
41
1
10
29
20
2.65931172028803
30
0
41
1
10
29.6666666666667
20
2.51043838233002
30
0
41
0.999999999999999
10
30.6666666666667
20
2.27026243937209
30
0
41
1
10
32.1666666666667
20
1.87175616694574
30
0
41
1
10
34
20
1.32963149294065
30
0
41
1
10
36
20
0.691920317727124
30
0
41
1
10
38
20
0.0289142888163383
30
0
41
1
10
40.0000000000001
20
-0.634292335950988
30
0
41
1
10
42
20
-1.27584365072468
30
0
41
1
10
43.4063467232109
20
-1.69469032206959
30
0
41
1
10
44.146026779755
20
-1.90154178484033
30
0
41
1
10
44.2190401696325
20
-1.92182456916561
30
0
0
SPLINE
5
107
100
AcDbEntity
8
1
62
256
6
ByLayer
370
18
48
1
60
0
100
AcDbSpline
70
4
71
3
72
39
73
35
40
0
40
0
40
0
40
0
40
0.125000000000008
40
0.125000000000008
40
0.15625000000001
40
0.15625000000001
40
0.187500000000012
40
0.187500000000012
40
0.250000000000015
40
0.312500000000019
40
0.312500000000019
40
0.343750000000021
40
0.343750000000021
40
0.375000000000022
40
0.375000000000022
40
0.437500000000025
40
0.437500000000025
40
0.500000000000028
40
0.500000000000028
40
0.625000000000017
40
0.625000000000017
40
0.65625000000002
40
0.65625000000002
40
0.687500000000023
40
0.687500000000023
40
0.750000000000029
40
0.750000000000029
40
0.812500000000035
40
0.812500000000035
40
0.843750000000038
40
0.843750000000038
40
0.875000000000042
40
0.875000000000042
40
1
40
1
40
1
40
1
41
1
10
44.2190401696325
20
-1.92182456916561
30
0
41
1
10
44.2020146545856
20
-1.87153595650085
30
0
41
1
10
44.1925309516086
20
-1.82094166147743
30
0
41
1
10
44.1901721231431
20
-1.75784911312147
30
0
41
1
10
44.1901800643536
20
-1.74523803512406
30
0
41
1
10
44.1911789169408
20
-1.7200440424518
30
0
41
1
10
44.1921746100763
20
-1.70746257610108
30
0
41
1
10
44.1965928055342
20
-1.67033164238705
30
0
41
1
10
44.2062951213384
20
-1.62208172861088
30
0
41
1
10
44.2233885109629
20
-1.5764514437808
30
0
41
1
10
44.2390229103929
20
-1.5432775910275
30
0
41
1
10
44.2447286367475
20
-1.53235581535927
30
0
41
1
10
44.2569662065728
20
-1.51111086548843
30
0
41
1
10
44.2634931970809
20
-1.50078618998594
30
0
41
1
10
44.2842654845291
20
-1.4706880234682
30
0
41
1
10
44.2996972384445
20
-1.45178791520002
30
0
41
1
10
44.333675337066
20
-1.4162884378481
30
0
41
1
10
44.3522591030165
20
-1.39966054268075
30
0
41
1
10
44.4126067984491
20
-1.3534812821722
30
0
41
1
10
44.4575094663249
20
-1.32861755121138
30
0
41
1
10
44.5192765494131
20
-1.30426467679575
30
0
41
1
10
44.5319159750596
20
-1.29973437113489
30
0
41
1
10
44.557777540695
20
-1.29135209361957
30
0
41
1
10
44.5709590103637
20
-1.28751589910229
30
0
41
1
10
44.6108838852761
20
-1.27713316449373
30
0
41
1
10
44.6381466461234
20
-1.27166266355891
30
0
41
1
10
44.6939406513284
20
-1.26339969710881
30
0
41
1
10
44.7224721732325
20
-1.26060808355393
30
0
41
1
10
44.7662349062627
20
-1.2583279451718
30
0
41
1
10
44.7810248891255
20
-1.25788660135544
30
0
41
1
10
44.8106866493928
20
-1.25763033188102
30
0
41
1
10
44.8255577935658
20
-1.2578130274855
30
0
41
1
10
44.900117337332
20
-1.26019163498731
30
0
41
1
10
44.9604142274944
20
-1.2667394812816
30
0
41
1
10
45.0214183893422
20
-1.2771942578068
30
0
0
SPLINE
5
108
100
AcDbEntity
8
1
62
256
6
ByLayer
370
18
48
1
60
0
100
AcDbSpline
70
4
71
3
72
10
73
6
40
0
40
0
40
0
40
0
40
0.251426671796839
40
0.251426671796839
40
1
40
1
40
1
40
1
41
1
10
46.0131984609292
20
-1.46013611863992
30
0
41
1
10
45.9306623982199
20
-1.44364621015595
30
0
41
1
10
45.8479556574117
20
-1.42749470699928
30
0
41
1
10
45.518408044275
20
-1.36444067857587
30
0
41
1
10
45.2703944607857
20
-1.31986330051169
30
0
41
1
10
45.0214183893422
20
-1.27719425780677
30
0
0
SPLINE
5
109
100
AcDbEntity
8
1
62
256
6
ByLayer
370
13
48
1
60
0
100
AcDbSpline
70
4
71
3
72
8
73
4
40
0
40
0
40
0
40
0
40
1
40
1
40
1
40
1
41
0.999981435763062
10
46.8200251504147
20
-2.04782480387891
30
0
41
0.999981435763062
10
46.8186520887305
20
-2.03958266999461
30
0
41
0.999981435763062
10
46.8172790270462
20
-2.03134053611032
30
0
41
0.999981435763062
10
46.8159059653621
20
-2.02309840222602
30
0
0
SPLINE
5
10A
100
AcDbEntity
8
1
62
256
6
ByLayer
370
18
48
1
60
0
100
AcDbSpline
70
4
71
3
72
8
73
4
40
0
40
0
40
0
40
0
40
1
40
1
40
1
40
1
41
1
10
16.0456459084651
20
3.0969589903201
30
0
41
1
10
16.2565227391397
20
3.01833332520772
30
0
41
1
10
16.4701728502481
20
2.93551233559231
30
0
41
1
10
16.6866646564705
20
2.84839252606776
30
0
0
SPLINE
5
10B
100
AcDbEntity
8
1
62
256
6
ByLayer
370
18
48
1
60
0
100
AcDbSpline
70
4
71
3
72
18
73
14
40
0
40
0
40
0
40
0
40
0.249999999999998
40
0.249999999999998
40
0.374999999999998
40
0.374999999999998
40
0.437499999999997
40
0.437499999999997
40
0.499999999999997
40
0.499999999999997
40
0.749999999999999
40
0.749999999999999
40
1
40
1
40
1
40
1
41
1
10
48.2811727459691
20
1.3741056966538
30
0
41
1
10
48.2959017041015
20
1.23438036152709
30
0
41
1
10
48.306028010229
20
1.09092512359138
30
0
41
1
10
48.3203475779154
20
0.870091177230336
30
0
41
1
10
48.3249767737338
20
0.795539712734694
30
0
41
1
10
48.3324916087114
20
0.682312101168975
30
0
41
1
10
48.3350889554614
20
0.644308379279749
30
0
41
1
10
48.3405558396399
20
0.568314199024712
30
0
41
1
10
48.3434313671867
20
0.530268842941069
30
0
41
1
10
48.3588209206319
20
0.339844887923846
30
0
41
1
10
48.374488959288
20
0.186888342854928
30
0
41
1
10
48.4181721560967
20
-0.119358849540078
30
0
41
1
10
48.4461780291717
20
-0.272648537789337
30
0
41
1
10
48.481764772082
20
-0.425832456803931
30
0
0
SPLINE
5
10C
100
AcDbEntity
8
1
62
256
6
ByLayer
370
18
48
1
60
0
100
AcDbSpline
70
4
71
3
72
29
73
25
40
0
40
0
40
0
40
0
40
0.124999999999999
40
0.124999999999999
40
0.249999999999999
40
0.249999999999999
40
0.374999999999998
40
0.374999999999998
40
0.437499999999999
40
0.437499999999999
40
0.499999999999999
40
0.499999999999999
40
0.562499999999999
40
0.562499999999999
40
0.624999999999999
40
0.624999999999999
40
0.687499999999999
40
0.687499999999999
40
0.749999999999999
40
0.812499999999999
40
0.812499999999999
40
0.875
40
0.875
40
1
40
1
40
1
40
1
41
1
10
48.481764772082
20
-0.425832456803931
30
0
41
1
10
48.4852379522789
20
-0.440782447799762
30
0
41
1
10
48.4881546758896
20
-0.455775242519422
30
0
41
1
10
48.4925509659257
20
-0.485873021721346
30
0
41
1
10
48.4940386183614
20
-0.500978616200655
30
0
41
1
10
48.494985957576
20
-0.531345895853804
30
0
41
1
10
48.4944310706294
20
-0.546186198259051
30
0
41
1
10
48.491515928285
20
-0.567768501371745
30
0
41
1
10
48.4901779906701
20
-0.57490138782947
30
0
41
1
10
48.4867459011368
20
-0.588555158465908
30
0
41
1
10
48.4846573377991
20
-0.595086677605821
30
0
41
1
10
48.4796735367817
20
-0.607517853656731
30
0
41
1
10
48.4767517589442
20
-0.613459942676684
30
0
41
1
10
48.4701457420673
20
-0.624451811843471
30
0
41
1
10
48.466500982606
20
-0.62945415928894
30
0
41
1
10
48.4585619408728
20
-0.638534470801375
30
0
41
1
10
48.4542647117973
20
-0.642614518601391
30
0
41
1
10
48.4450542352847
20
-0.649885692091146
30
0
41
1
10
48.4354471966529
20
-0.656101166267206
30
0
41
1
10
48.4251593260595
20
-0.660543351845178
30
0
41
1
10
48.4145705269532
20
-0.664218279900552
30
0
41
1
10
48.4091033519269
20
-0.665675650961902
30
0
41
1
10
48.3924886423109
20
-0.668998563034705
30
0
41
1
10
48.3811387478841
20
-0.6698449795621
30
0
41
1
10
48.3695749601188
20
-0.669697598282994
30
0
0
SPLINE
5
10D
100
AcDbEntity
8
1
62
256
6
ByLayer
370
18
48
1
60
0
100
AcDbSpline
70
4
71
3
72
8
73
4
40
0
40
0
40
0
40
0
40
1
40
1
40
1
40
1
41
1
10
48.381688931279
20
1.44856870566645
30
0
41
1
10
48.8507530664965
20
0.531875659194583
30
0
41
1
10
49.3198178466918
20
-0.383451099726955
30
0
41
1
10
49.7888794808226
20
-1.29806950562181
30
0
0
SPLINE
5
10E
100
AcDbEntity
8
1
62
256
6
ByLayer
370
18
48
1
60
0
100
AcDbSpline
70
4
71
3
72
8
73
4
40
0
40
0
40
0
40
0
40
1
40
1
40
1
40
1
41
1
10
15.9193400891636
20
1.58695925067539
30
0
41
0.999999965527014
10
15.9206182143654
20
1.58606074989193
30
0
41
0.999999965527014
10
15.9218964054832
20
1.58516221025578
30
0
41
1
10
15.9231746623847
20
1.5842636318599
30
0
0
SPLINE
5
10F
100
AcDbEntity
8
1
62
256
6
ByLayer
370
18
48
1
60
0
100
AcDbSpline
70
4
71
3
72
8
73
4
40
0
40
0
40
0
40
0
40
1
40
1
40
1
40
1
41
1
10
16.0286064401447
20
2.06373770882743
30
0
41
0.999956870173022
10
16.0744677291657
20
2.0314794528768
30
0
41
0.999956870173022
10
16.120421666294
20
1.99916560169544
30
0
41
1
10
16.1664623055735
20
1.96680033635579
30
0
0
SPLINE
5
110
100
AcDbEntity
8
1
62
256
6
ByLayer
370
13
48
1
60
0
100
AcDbSpline
70
4
71
3
72
12
73
8
40
0
40
0
40
0
40
0
40
0.500000000000003
40
0.500000000000003
40
0.750000000000001
40
0.750000000000001
40
1
40
1
40
1
40
1
41
1
10
46.6209204144323
20
-0.735585948193233
30
0
41
1
10
46.6443418494411
20
-0.904115716654388
30
0
41
1
10
46.6677619431323
20
-1.07264585831299
30
0
41
1
10
46.7028901167882
20
-1.3254416179297
30
0
41
1
10
46.7145131737961
20
-1.40971883150098
30
0
41
1
10
46.7378445246923
20
-1.57826125733885
30
0
41
1
10
46.7495107777784
20
-1.66253232551469
30
0
41
1
10
46.7611776016051
20
-1.74680325067672
30
0
0
SPLINE
5
111
100
AcDbEntity
8
1
62
256
6
ByLayer
370
13
48
1
60
0
100
AcDbSpline
70
4
71
3
72
8
73
4
40
0
40
0
40
0
40
0
40
1
40
1
40
1
40
1
41
1
10
46.9847903699714
20
-2.16682576478544
30
0
41
1
10
46.9815945175323
20
-2.14764188981465
30
0
41
1
10
46.9783986650933
20
-2.12845801484383
30
0
41
1
10
46.9752028126542
20
-2.10927413987304
30
0
0
SPLINE
5
112
100
AcDbEntity
8
1
62
256
6
ByLayer
370
18
48
1
60
0
100
AcDbSpline
70
4
71
3
72
8
73
4
40
0
40
0
40
0
40
0
40
1
40
1
40
1
40
1
41
1
10
48.8354588233041
20
-3.1440894256699
30
0
41
1
10
48.8626368774766
20
-3.15015046539207
30
0
41
1
10
48.8895147180912
20
-3.15568220215579
30
0
41
1
10
48.9160863526041
20
-3.1606913087123
30
0
0
SPLINE
5
113
100
AcDbEntity
8
1
62
256
6
ByLayer
370
18
48
1
60
0
100
AcDbSpline
70
4
71
3
72
29
73
25
40
0
40
0
40
0
40
0
40
0.125000000000004
40
0.125000000000004
40
0.250000000000008
40
0.375000000000011
40
0.375000000000011
40
0.406250000000011
40
0.406250000000011
40
0.437500000000011
40
0.437500000000011
40
0.500000000000011
40
0.500000000000011
40
0.62500000000001
40
0.62500000000001
40
0.75000000000001
40
0.75000000000001
40
0.81250000000001
40
0.81250000000001
40
0.843750000000005
40
0.843750000000005
40
0.874999999999999
40
0.874999999999999
40
1
40
1
40
1
40
1
41
1
10
49.9732266995148
20
-2.22298644886669
30
0
41
1
10
49.9742442560196
20
-2.27230640939388
30
0
41
1
10
49.9691175643283
20
-2.32059266265873
30
0
41
1
10
49.9472805148712
20
-2.41521633514236
30
0
41
1
10
49.9138723696918
20
-2.50789328844121
30
0
41
1
10
49.8576225657283
20
-2.59672736493442
30
0
41
1
10
49.8151360824107
20
-2.65101540491739
30
0
41
1
10
49.8062708432946
20
-2.66181111033808
30
0
41
1
10
49.7877942260545
20
-2.68327699087914
30
0
41
1
10
49.7781705713107
20
-2.69395912900597
30
0
41
1
10
49.7483400426398
20
-2.72563126115182
30
0
41
1
10
49.7271346364597
20
-2.74629819645693
30
0
41
1
10
49.6596181748553
20
-2.80697419816062
30
0
41
1
10
49.6094208264106
20
-2.84566319878968
30
0
41
1
10
49.4986036373601
20
-2.91950096901982
30
0
41
1
10
49.4379856131743
20
-2.95465035560829
30
0
41
1
10
49.3388534025112
20
-3.00458736571005
30
0
41
1
10
49.3044380019844
20
-3.02076723293763
30
0
41
1
10
49.250669928421
20
-3.04430844611983
30
0
41
1
10
49.2323756457383
20
-3.05203858896408
30
0
41
1
10
49.1953166715468
20
-3.06714605802202
30
0
41
1
10
49.1765225166702
20
-3.07453676450396
30
0
41
1
10
49.081232635152
20
-3.11067776333098
30
0
41
1
10
49.0007942399124
20
-3.1369994806536
30
0
41
1
10
48.9160863526045
20
-3.16069130871773
30
0
0
SPLINE
5
114
100
AcDbEntity
8
1
62
256
6
ByLayer
370
13
48
1
60
0
100
AcDbSpline
70
4
71
3
72
8
73
4
40
0
40
0
40
0
40
0
40
1
40
1
40
1
40
1
41
1
10
49.9732266995252
20
-2.22298644889108
30
0
41
1
10
49.9172055070679
20
-1.88670573121155
30
0
41
1
10
49.8611843146107
20
-1.55042501353205
30
0
41
1
10
49.8051631221534
20
-1.21414429585255
30
0
0
SPLINE
5
115
100
AcDbEntity
8
1
62
256
6
ByLayer
370
18
48
1
60
0
100
AcDbSpline
70
4
71
3
72
12
73
8
40
0
40
0
40
0
40
0
40
0.499999999999996
40
0.499999999999996
40
0.749999999999998
40
0.749999999999998
40
1
40
1
40
1
40
1
41
1
10
49.7888178230643
20
-1.29794927978759
30
0
41
1
10
49.7945692421788
20
-1.29052031002101
30
0
41
1
10
49.7988670898874
20
-1.27993748291323
30
0
41
1
10
49.8030008659038
20
-1.259044666655
30
0
41
1
10
49.8039930161852
20
-1.25124336689211
30
0
41
1
10
49.8051805303527
20
-1.23391195610054
30
0
41
1
10
49.8053718442516
20
-1.2244119682405
30
0
41
1
10
49.8051631221524
20
-1.21414429588376
30
0
0
SPLINE
5
116
100
AcDbEntity
8
1
62
256
6
ByLayer
370
18
48
1
60
0
100
AcDbSpline
70
4
71
3
72
41
73
37
40
0
40
0
40
0
40
0
40
0.0142443545127404
40
0.0285214927725181
40
0.0428299240158606
40
0.057168164550361
40
0.0715347432853269
40
0.0859282018810805
40
0.100347091643787
40
0.114789967124275
40
0.129255376305865
40
0.143741848110481
40
0.158247896932737
40
0.172772061476704
40
0.187312914926588
40
0.201869050484613
40
0.21643906668222
40
0.23102156614825
40
0.304958222194727
40
0.380633995756559
40
0.457848686785384
40
0.536415447309054
40
0.592403480502913
40
0.651014550335533
40
0.712155181788319
40
0.775744994035306
40
0.841722241020388
40
0.860948289516316
40
0.880145953584329
40
0.899316684937447
40
0.918462006121071
40
0.937583513185665
40
0.956682882075326
40
0.975761873817453
40
0.994822337383484
40
1
40
1
40
1
40
1
41
1
10
49.7888440704521
20
-1.29809361347736
30
0
41
1
10
49.7872722338407
20
-1.3055664513308
30
0
41
1
10
49.7841249429958
20
-1.32052932596557
30
0
41
1
10
49.7782100209512
20
-1.34271468625104
30
0
41
1
10
49.7714125702296
20
-1.36473113985764
30
0
41
1
10
49.7636451116989
20
-1.38654815765347
30
0
41
1
10
49.7549292131073
20
-1.40816057081855
30
0
41
1
10
49.7452575739151
20
-1.42955656444232
30
0
41
1
10
49.7346312589471
20
-1.45072636391029
30
0
41
1
10
49.7230498621401
20
-1.47165998730975
30
0
41
1
10
49.7105143147793
20
-1.49234793378503
30
0
41
1
10
49.6970263336266
20
-1.51278111685932
30
0
41
1
10
49.6825885394794
20
-1.53295091444394
30
0
41
1
10
49.6672036532015
20
-1.55284873235209
30
0
41
1
10
49.6508745117932
20
-1.57246608727397
30
0
41
1
10
49.6336045001081
20
-1.59179459464068
30
0
41
1
10
49.6153971361795
20
-1.61082668293844
30
0
41
1
10
49.5702958574429
20
-1.65495659962485
30
0
41
1
10
49.4880246853661
20
-1.72158295839745
30
0
41
1
10
49.3508256741186
20
-1.80391168455549
30
0
41
1
10
49.1871486976869
20
-1.87686354423647
30
0
41
1
10
49.0163164499824
20
-1.93248750582134
30
0
41
1
10
48.8449659036334
20
-1.97401861293082
30
0
41
1
10
48.6776190698551
20
-2.00420302446062
30
0
41
1
10
48.4914151951933
20
-2.02688963301503
30
0
41
1
10
48.2862981271614
20
-2.04057487241431
30
0
41
1
10
48.118043482333
20
-2.04308077436104
30
0
41
1
10
47.9969019788232
20
-2.04099592288699
30
0
41
1
10
47.9293366314361
20
-2.03884691680148
30
0
41
1
10
47.861184650245
20
-2.0357286914535
30
0
41
1
10
47.7924913965034
20
-2.03165252817746
30
0
41
1
10
47.723303560706
20
-2.02663374779803
30
0
41
1
10
47.653668450712
20
-2.02069177441283
30
0
41
1
10
47.5836303813077
20
-2.01382931710211
30
0
41
1
10
47.5303130039539
20
-2.00798602314956
30
0
41
1
10
47.5003723818754
20
-2.00443743652471
30
0
41
1
10
47.4939765722949
20
-2.0036794000259
30
0
0
SPLINE
5
117
100
AcDbEntity
8
1
62
256
6
ByLayer
370
18
48
1
60
0
100
AcDbSpline
70
4
71
3
72
10
73
6
40
0
40
0
40
0
40
0
40
0.5
40
0.5
40
1
40
1
40
1
40
1
41
1
10
15.9193400974075
20
1.5869592455692
30
0
41
1
10
15.9231604135283
20
1.66938595962495
30
0
41
1
10
15.9346076445884
20
1.75055202870499
30
0
41
1
10
15.9716412786072
20
1.91039188642409
30
0
41
1
10
15.9971011837953
20
1.98833452267616
30
0
41
1
10
16.0286064333229
20
2.06373771362578
30
0
0
SPLINE
5
118
100
AcDbEntity
8
1
62
256
6
ByLayer
370
18
48
1
60
0
100
AcDbSpline
70
4
71
3
72
16
73
12
40
0
40
0
40
0
40
0
40
0.249999999999999
40
0.249999999999999
40
0.499999999999998
40
0.499999999999998
40
0.624999999999997
40
0.624999999999997
40
0.749999999999996
40
0.749999999999996
40
1
40
1
40
1
40
1
41
1
10
16.0286064409923
20
2.06373770922772
30
0
41
1
10
16.0063528029895
20
2.15103784867875
30
0
41
1
10
15.9902872527417
20
2.23825578802695
30
0
41
1
10
15.969974583112
20
2.4124719567815
30
0
41
1
10
15.965728937138
20
2.49947033062455
30
0
41
1
10
15.9681249609693
20
2.62977930477706
30
0
41
1
10
15.9703875288329
20
2.67318436579637
30
0
41
1
10
15.9778614360727
20
2.75992990673311
30
0
41
1
10
15.9830994550392
20
2.80338473778332
30
0
41
1
10
16.0029648793393
20
2.93178930629657
30
0
41
1
10
16.0217440072728
20
3.01532417584346
30
0
41
1
10
16.0456459084676
20
3.09695899032872
30
0
0
SPLINE
5
119
100
AcDbEntity
8
1
62
256
6
ByLayer
370
18
48
1
60
0
100
AcDbSpline
70
4
71
3
72
38
73
34
40
0
40
0
40
0
40
0
40
0.125000000000002
40
0.125000000000002
40
0.250000000000005
40
0.250000000000005
40
0.375000000000007
40
0.375000000000007
40
0.437500000000008
40
0.437500000000008
40
0.50000000000001
40
0.50000000000001
40
0.562500000000011
40
0.562500000000011
40
0.625000000000012
40
0.625000000000012
40
0.656250000000011
40
0.656250000000011
40
0.68750000000001
40
0.68750000000001
40
0.718750000000009
40
0.718750000000009
40
0.750000000000008
40
0.750000000000008
40
0.781250000000007
40
0.781250000000007
40
0.812500000000006
40
0.812500000000006
40
0.875000000000004
40
0.875000000000004
40
0.937500000000002
40
0.937500000000002
40
1
40
1
40
1
40
1
41
1
10
11.3404004617379
20
5.85483078080077
30
0
41
1
10
11.3249189311052
20
5.86518793786706
30
0
41
1
10
11.3097615459903
20
5.8757135691753
30
0
41
1
10
11.2803213985971
20
5.89723226129695
30
0
41
1
10
11.2660334048394
20
5.90822225633198
30
0
41
1
10
11.2387341236896
20
5.93090276858811
30
0
41
1
10
11.2257287997221
20
5.94257561099474
30
0
41
1
10
11.2080571053539
20
5.96071728091235
30
0
41
1
10
11.2024684416326
20
5.96687815744033
30
0
41
1
10
11.1921312210641
20
5.97952141831482
30
0
41
1
10
11.1873610596595
20
5.98602675864385
30
0
41
1
10
11.1791699648688
20
5.99941741033439
30
0
41
1
10
11.1757625974393
20
6.00625491085319
30
0
41
1
10
11.1711983269819
20
6.0203607702866
30
0
41
1
10
11.1700892545738
20
6.02744428019332
30
0
41
1
10
11.1712755200943
20
6.03815743409126
30
0
41
1
10
11.1721703682357
20
6.04173213567856
30
0
41
1
10
11.175054404494
20
6.04858800283856
30
0
41
1
10
11.1770700340111
20
6.0519361295689
30
0
41
1
10
11.182226537889
20
6.05825382631289
30
0
41
1
10
11.1853095656784
20
6.06116977624532
30
0
41
1
10
11.1923907934882
20
6.06656330443292
30
0
41
1
10
11.1964146281277
20
6.06904514247648
30
0
41
1
10
11.204918451673
20
6.0734442174556
30
0
41
1
10
11.2094345635806
20
6.07539374697814
30
0
41
1
10
11.2188855636485
20
6.07889756559069
30
0
41
1
10
11.2238397421457
20
6.08045415229526
30
0
41
1
10
11.2388669152286
20
6.08455315843852
30
0
41
1
10
11.2492099275042
20
6.08658463628728
30
0
41
1
10
11.2703007751573
20
6.08977669120137
30
0
41
1
10
11.28107935318
20
6.09092890782429
30
0
41
1
10
11.302667573583
20
6.09259233273417
30
0
41
1
10
11.313509885656
20
6.09310693689929
30
0
41
1
10
11.3243873909488
20
6.09339024842919
30
0
0
SPLINE
5
11A
100
AcDbEntity
8
1
62
256
6
ByLayer
370
18
48
1
60
0
100
AcDbSpline
70
4
71
3
72
57
73
53
40
0
40
0
40
0
40
0
40
0.0625000000000074
40
0.0625000000000074
40
0.125000000000015
40
0.125000000000015
40
0.156250000000016
40
0.156250000000016
40
0.187500000000018
40
0.187500000000018
40
0.21875000000002
40
0.21875000000002
40
0.250000000000021
40
0.250000000000021
40
0.26562500000002
40
0.26562500000002
40
0.281250000000019
40
0.312500000000014
40
0.312500000000014
40
0.328125000000011
40
0.328125000000011
40
0.33593750000001
40
0.33593750000001
40
0.343750000000009
40
0.37500000000001
40
0.406250000000012
40
0.406250000000012
40
0.421875000000011
40
0.421875000000011
40
0.437500000000011
40
0.437500000000011
40
0.500000000000009
40
0.500000000000009
40
0.515625000000008
40
0.515625000000008
40
0.531250000000008
40
0.531250000000008
40
0.562500000000007
40
0.562500000000007
40
0.625000000000006
40
0.625000000000006
40
0.687500000000004
40
0.687500000000004
40
0.718750000000004
40
0.718750000000004
40
0.750000000000003
40
0.750000000000003
40
0.812500000000002
40
0.812500000000002
40
0.875000000000001
40
0.875000000000001
40
1
40
1
40
1
40
1
41
1
10
11.3243873909488
20
6.09339024842916
30
0
41
1
10
11.4219970809649
20
6.09593255476381
30
0
41
1
10
11.5191884299783
20
6.10051745806621
30
0
41
1
10
11.7124659958368
20
6.11503420753198
30
0
41
1
10
11.8085556691252
20
6.12495202558921
30
0
41
1
10
11.9515436634234
20
6.14528166551472
30
0
41
1
10
11.9991048316597
20
6.1529959279072
30
0
41
1
10
12.092700206892
20
6.17039183940446
30
0
41
1
10
12.1388416641343
20
6.18008487048633
30
0
41
1
10
12.2295998041881
20
6.20174404035961
30
0
41
1
10
12.2742170760723
20
6.21370959501138
30
0
41
1
10
12.3616599138851
20
6.24025783005084
30
0
41
1
10
12.4044863900375
20
6.2548396331313
30
0
41
1
10
12.4671241442424
20
6.2789956476436
30
0
41
1
10
12.487587531253
20
6.28737345154809
30
0
41
1
10
12.527495558217
20
6.30473239045975
30
0
41
1
10
12.5859031232335
20
6.33170379084709
30
0
41
1
10
12.6397937308947
20
6.36151929888413
30
0
41
1
10
12.6904588730258
20
6.39327549778855
30
0
41
1
10
12.7068095710422
20
6.40418416704514
30
0
41
1
10
12.7305012995039
20
6.42103588944835
30
0
41
1
10
12.7382729039969
20
6.42674516309975
30
0
41
1
10
12.7534302568052
20
6.43824726859268
30
0
41
1
10
12.7903998177422
20
6.46723730587391
30
0
41
1
10
12.8487894878358
20
6.52143832474425
30
0
41
1
10
12.8899186748892
20
6.5719840565032
30
0
41
1
10
12.917008825287
20
6.61060256736766
30
0
41
1
10
12.9254285820361
20
6.62362584247251
30
0
41
1
10
12.9408887833515
20
6.6495753405882
30
0
41
1
10
12.9479539670257
20
6.6625317882702
30
0
41
1
10
12.9802340233903
20
6.72718197611641
30
0
41
1
10
12.9964211991314
20
6.77846514799691
30
0
41
1
10
13.0077872047086
20
6.84154287314283
30
0
41
1
10
13.0096107105558
20
6.85410792978621
30
0
41
1
10
13.0124155673755
20
6.87912795447994
30
0
41
1
10
13.0133971612115
20
6.89160351724993
30
0
41
1
10
13.0151482427859
20
6.9286298086258
30
0
41
1
10
13.0147395053596
20
6.95282085513921
30
0
41
1
10
13.0095279596001
20
7.02398690498899
30
0
41
1
10
13.0007783869106
20
7.06955850620935
30
0
41
1
10
12.9753120203322
20
7.15721488210645
30
0
41
1
10
12.9585734778597
20
7.19929774033949
30
0
41
1
10
12.9286149681587
20
7.25992205915495
30
0
41
1
10
12.9178136868779
20
7.27971389680442
30
0
41
1
10
12.8947188530336
20
7.31847272552318
30
0
41
1
10
12.8824778373291
20
7.33735217071737
30
0
41
1
10
12.8438753131424
20
7.39256028242079
30
0
41
1
10
12.8156442948257
20
7.42746158882292
30
0
41
1
10
12.7549493270918
20
7.49373807608202
30
0
41
1
10
12.7224810666528
20
7.52511203747204
30
0
41
1
10
12.619439727169
20
7.61424548783145
30
0
41
1
10
12.5432831981344
20
7.66703144331763
30
0
41
1
10
12.4606361408968
20
7.71371683830583
30
0
0
SPLINE
5
11B
100
AcDbEntity
8
1
62
256
6
ByLayer
370
18
48
1
60
0
100
AcDbSpline
70
4
71
3
72
38
73
34
40
0
40
0
40
0
40
0
40
0.125000000000008
40
0.125000000000008
40
0.250000000000016
40
0.250000000000016
40
0.375000000000024
40
0.375000000000024
40
0.437500000000018
40
0.437500000000018
40
0.500000000000011
40
0.500000000000011
40
0.562500000000005
40
0.562500000000005
40
0.593749999999996
40
0.593749999999996
40
0.624999999999988
40
0.624999999999988
40
0.656249999999979
40
0.656249999999979
40
0.687499999999971
40
0.687499999999971
40
0.718749999999962
40
0.718749999999962
40
0.749999999999954
40
0.749999999999954
40
0.812499999999965
40
0.812499999999965
40
0.874999999999977
40
0.874999999999977
40
0.937499999999988
40
0.937499999999988
40
1
40
1
40
1
40
1
41
1
10
11.8007829469342
20
-7.14342646441779
30
0
41
1
10
11.7863659664498
20
-7.13655270312546
30
0
41
1
10
11.7722781486831
20
-7.12951756135126
30
0
41
1
10
11.7449819708225
20
-7.11503171941482
30
0
41
1
10
11.7317688591592
20
-7.10758295932482
30
0
41
1
10
11.7066081339822
20
-7.09210932369049
30
0
41
1
10
11.6946268772153
20
-7.08407020687673
30
0
41
1
10
11.6784155187467
20
-7.07149950616872
30
0
41
1
10
11.6733015615826
20
-7.06721887807487
30
0
41
1
10
11.6638650885477
20
-7.0584167523229
30
0
41
1
10
11.6595229834828
20
-7.05387523225042
30
0
41
1
10
11.6521079165517
20
-7.04457942075442
30
0
41
1
10
11.6490192087043
20
-7.03982627790111
30
0
41
1
10
11.6458340369412
20
-7.03245974653606
30
0
41
1
10
11.645019066587
20
-7.02995781463326
30
0
41
1
10
11.6440470611462
20
-7.02495939295338
30
0
41
1
10
11.6438832032794
20
-7.02245212417401
30
0
41
1
10
11.6443647892873
20
-7.01741955892709
30
0
41
1
10
11.6450247158884
20
-7.01487120934164
30
0
41
1
10
11.6473025927838
20
-7.00992850288489
30
0
41
1
10
11.6489137894561
20
-7.00752314927115
30
0
41
1
10
11.653200722516
20
-7.00286387430512
30
0
41
1
10
11.6558762084119
20
-7.00062948155087
30
0
41
1
10
11.6620433474582
20
-6.99652628283275
30
0
41
1
10
11.6655720361802
20
-6.99462330196718
30
0
41
1
10
11.6772674351297
20
-6.98938636997985
30
0
41
1
10
11.68612849765
20
-6.98667008973419
30
0
41
1
10
11.7052152716306
20
-6.98223973376415
30
0
41
1
10
11.7151440370222
20
-6.98059825577047
30
0
41
1
10
11.7353546840197
20
-6.97803764234857
30
0
41
1
10
11.7456868543085
20
-6.97711972746845
30
0
41
1
10
11.7665464125703
20
-6.97579670407691
30
0
41
1
10
11.7770235240795
20
-6.97539538563842
30
0
41
1
10
11.7875347326671
20
-6.97518180420181
30
0
0
SPLINE
5
11C
100
AcDbEntity
8
1
62
256
6
ByLayer
370
18
48
1
60
0
100
AcDbSpline
70
4
71
3
72
54
73
50
40
0
40
0
40
0
40
0
40
0.0624999999999799
40
0.0624999999999799
40
0.12499999999996
40
0.12499999999996
40
0.140624999999957
40
0.140624999999957
40
0.156249999999955
40
0.156249999999955
40
0.18749999999995
40
0.18749999999995
40
0.24999999999994
40
0.24999999999994
40
0.265624999999938
40
0.265624999999938
40
0.281249999999937
40
0.281249999999937
40
0.312499999999939
40
0.343749999999941
40
0.359374999999943
40
0.359374999999943
40
0.374999999999946
40
0.374999999999946
40
0.437499999999954
40
0.437499999999954
40
0.453124999999955
40
0.453124999999955
40
0.468749999999955
40
0.468749999999955
40
0.499999999999958
40
0.499999999999958
40
0.562499999999963
40
0.562499999999963
40
0.593749999999965
40
0.593749999999965
40
0.624999999999968
40
0.624999999999968
40
0.687499999999974
40
0.687499999999974
40
0.749999999999979
40
0.749999999999979
40
0.812499999999985
40
0.812499999999985
40
0.843749999999987
40
0.843749999999987
40
0.874999999999989
40
0.874999999999989
40
1
40
1
40
1
40
1
41
1
10
11.787534732667
20
-6.97518180420181
30
0
41
1
10
11.8702699439457
20
-6.97350067446908
30
0
41
1
10
11.9526534969291
20
-6.97053988195614
30
0
41
1
10
12.1165190671696
20
-6.9612995053503
30
0
41
1
10
12.1980030122385
20
-6.95502872331974
30
0
41
1
10
12.2991089477833
20
-6.94437489211438
30
0
41
1
10
12.3192923432884
20
-6.94210185447997
30
0
41
1
10
12.3595772789305
20
-6.93724546111974
30
0
41
1
10
12.3796807860339
20
-6.93466124807659
30
0
41
1
10
12.4395320432447
20
-6.92644716455342
30
0
41
1
10
12.4789265314092
20
-6.92034506561782
30
0
41
1
10
12.5953903053049
20
-6.89987302014092
30
0
41
1
10
12.6707585645109
20
-6.88336992964267
30
0
41
1
10
12.7612306870999
20
-6.85782484158901
30
0
41
1
10
12.7791367412134
20
-6.85246745917209
30
0
41
1
10
12.8145431055902
20
-6.84121057631947
30
0
41
1
10
12.8320499845994
20
-6.83530605377521
30
0
41
1
10
12.8833100114492
20
-6.81693442298336
30
0
41
1
10
12.9487086145694
20
-6.79055960402252
30
0
41
1
10
13.0227388316377
20
-6.75248966111977
30
0
41
1
10
13.0635285392455
20
-6.72715251692432
30
0
41
1
10
13.0898982374614
20
-6.7096824165755
30
0
41
1
10
13.1026696335251
20
-6.70065416107815
30
0
41
1
10
13.1636495749232
20
-6.65464229142597
30
0
41
1
10
13.2039717544837
20
-6.61459153472538
30
0
41
1
10
13.2453019369427
20
-6.56057905274739
30
0
41
1
10
13.2531131707444
20
-6.54957885489029
30
0
41
1
10
13.2678589898734
20
-6.52718463010228
30
0
41
1
10
13.2747891986012
20
-6.5157918019375
30
0
41
1
10
13.2941332707066
20
-6.48138111330874
30
0
41
1
10
13.3051853700301
20
-6.45801432301337
30
0
41
1
10
13.3335911217262
20
-6.38668561898814
30
0
41
1
10
13.346232121486
20
-6.33749834648671
30
0
41
1
10
13.3579383819396
20
-6.26139524174127
30
0
41
1
10
13.3606210187493
20
-6.23563015902235
30
0
41
1
10
13.3638047483547
20
-6.18337632634353
30
0
41
1
10
13.3642954918028
20
-6.15709160154668
30
0
41
1
10
13.3629236118934
20
-6.07774417259964
30
0
41
1
10
13.3582394699482
20
-6.02418719235868
30
0
41
1
10
13.3430182071655
20
-5.915686133299
30
0
41
1
10
13.332469588395
20
-5.86074264280577
30
0
41
1
10
13.3065692463559
20
-5.7494271781907
30
0
41
1
10
13.2912117222177
20
-5.69305549331642
30
0
41
1
10
13.265096970305
20
-5.60740596621605
30
0
41
1
10
13.2558685944063
20
-5.57865043634348
30
0
41
1
10
13.236487794106
20
-5.52089321199878
30
0
41
1
10
13.2263423524098
20
-5.49190980562355
30
0
41
1
10
13.1735023535227
20
-5.34645474861475
30
0
41
1
10
13.1245513026059
20
-5.22835881964386
30
0
41
1
10
13.0702181257822
20
-5.10844945436571
30
0
0
SPLINE
5
11D
100
AcDbEntity
8
1
62
256
6
ByLayer
370
18
48
1
60
0
100
AcDbSpline
70
4
71
3
72
13
73
9
40
0
40
0
40
0
40
0
40
0.25
40
0.5
40
0.5
40
0.75
40
0.75
40
1
40
1
40
1
40
1
41
1
10
13.0702181257822
20
-5.10844945436574
30
0
41
1
10
12.8679052261661
20
-4.94848298025604
30
0
41
1
10
12.4641539366995
20
-4.6194017790292
30
0
41
1
10
12.0580891087983
20
-4.27581297450712
30
0
41
1
10
11.6487998890077
20
-3.92707453354274
30
0
41
1
10
11.4425431435412
20
-3.75012988629285
30
0
41
1
10
11.0246992960588
20
-3.3934181644959
30
0
41
1
10
10.813111969519
20
-3.21365055159583
30
0
41
1
10
10.5977879215447
20
-3.03375639443976
30
0
0
SPLINE
5
11E
100
AcDbEntity
8
1
62
256
6
ByLayer
370
18
48
1
60
0
100
AcDbSpline
70
4
71
3
72
34
73
30
40
0
40
0
40
0
40
0
40
0.125000000000007
40
0.125000000000007
40
0.250000000000013
40
0.250000000000013
40
0.312500000000016
40
0.312500000000016
40
0.375000000000019
40
0.375000000000019
40
0.500000000000019
40
0.500000000000019
40
0.562500000000019
40
0.562500000000019
40
0.593750000000017
40
0.593750000000017
40
0.625000000000015
40
0.625000000000015
40
0.750000000000008
40
0.750000000000008
40
0.781250000000007
40
0.781250000000007
40
0.812500000000005
40
0.875000000000004
40
0.937500000000002
40
0.937500000000002
40
0.968750000000001
40
0.968750000000001
40
1
40
1
40
1
40
1
41
1
10
10.5977879215448
20
-3.03375639443979
30
0
41
1
10
10.5504172914731
20
-2.9941802316709
30
0
41
1
10
10.5047274589181
20
-2.95314032294829
30
0
41
1
10
10.4173534801371
20
-2.86756083057773
30
0
41
1
10
10.3756627092511
20
-2.82302699349941
30
0
41
1
10
10.316865157376
20
-2.75295427356733
30
0
41
1
10
10.2978922790515
20
-2.72904859124645
30
0
41
1
10
10.2613779703105
20
-2.67998417968946
30
0
41
1
10
10.2437997994508
20
-2.6547695159052
30
0
41
1
10
10.1938111348751
20
-2.57732362831149
30
0
41
1
10
10.1644147766069
20
-2.5238033807673
30
0
41
1
10
10.1278378319608
20
-2.43991550556942
30
0
41
1
10
10.1169060499538
20
-2.41134807299557
30
0
41
1
10
10.102705416692
20
-2.36744480653314
30
0
41
1
10
10.0983551422808
20
-2.35267673939239
30
0
41
1
10
10.0905228278773
20
-2.32309759905019
30
0
41
1
10
10.0870296916384
20
-2.30825306402781
30
0
41
1
10
10.0717541119018
20
-2.23374694057839
30
0
41
1
10
10.0664917115765
20
-2.1732404106605
30
0
41
1
10
10.0702580501276
20
-2.09629418181109
30
0
41
1
10
10.0715398017748
20
-2.08077808397644
30
0
41
1
10
10.0751628685208
20
-2.04991248651214
30
0
41
1
10
10.0821550229274
20
-2.00401979523343
30
0
41
1
10
10.1014148471723
20
-1.92951907092657
30
0
41
1
10
10.1246531965532
20
-1.87197748325104
30
0
41
1
10
10.1449503740491
20
-1.82958093761712
30
0
41
1
10
10.1522090243965
20
-1.81555287975613
30
0
41
1
10
10.1675367797062
20
-1.78798646918582
30
0
41
1
10
10.175616578758
20
-1.77442196908001
30
0
41
1
10
10.1840941915405
20
-1.76106708044807
30
0
0
SPLINE
5
11F
100
AcDbEntity
8
1
62
256
6
ByLayer
370
18
48
1
60
0
100
AcDbSpline
70
4
71
3
72
44
73
40
40
0
40
0
40
0
40
0
40
0.0312500000000014
40
0.0312500000000014
40
0.0625000000000027
40
0.0625000000000027
40
0.0937500000000041
40
0.0937500000000041
40
0.125000000000005
40
0.125000000000005
40
0.140625000000005
40
0.140625000000005
40
0.156250000000005
40
0.156250000000005
40
0.187500000000004
40
0.187500000000004
40
0.250000000000002
40
0.250000000000002
40
0.3125
40
0.3125
40
0.34375
40
0.34375
40
0.375000000000001
40
0.375000000000001
40
0.437500000000001
40
0.437500000000001
40
0.500000000000002
40
0.500000000000002
40
0.562500000000003
40
0.562500000000003
40
0.625000000000004
40
0.625000000000004
40
0.750000000000002
40
0.750000000000002
40
0.812500000000002
40
0.812500000000002
40
0.875000000000001
40
0.875000000000001
40
1
40
1
40
1
40
1
41
1
10
10.1840941915404
20
-1.7610670804481
30
0
41
1
10
10.2258863407888
20
-1.69523138905475
30
0
41
1
10
10.2710929346688
20
-1.63249061490956
30
0
41
1
10
10.3671144193847
20
-1.51211411160008
30
0
41
1
10
10.4179350993237
20
-1.45448353194482
30
0
41
1
10
10.5243379274978
20
-1.34357561527636
30
0
41
1
10
10.5799232944567
20
-1.29030114183223
30
0
41
1
10
10.6952341230342
20
-1.18755469158791
30
0
41
1
10
10.7549614993438
20
-1.13808441830318
30
0
41
1
10
10.8473060312331
20
-1.0664199779946
30
0
41
1
10
10.8785474823507
20
-1.04295624553785
30
0
41
1
10
10.9419019079638
20
-0.996834949226098
30
0
41
1
10
10.9739618081421
20
-0.974218144432115
30
0
41
1
10
11.0707440285331
20
-0.907933579515912
30
0
41
1
10
11.1362544462417
20
-0.865689176758025
30
0
41
1
10
11.3353586022325
20
-0.744026120740784
30
0
41
1
10
11.4715052744173
20
-0.669638715778575
30
0
41
1
10
11.7492262221234
20
-0.531599838195717
30
0
41
1
10
11.8908114573331
20
-0.467969692191673
30
0
41
1
10
12.1066369983678
20
-0.379368953834927
30
0
41
1
10
12.1791566485848
20
-0.350982337054233
30
0
41
1
10
12.3252760185844
20
-0.296356986760742
30
0
41
1
10
12.3989199216029
20
-0.270103595488308
30
0
41
1
10
12.6210822017799
20
-0.194491885230349
30
0
41
1
10
12.7704248670169
20
-0.148399455248835
30
0
41
1
10
13.0713072688356
20
-0.0638998682008491
30
0
41
1
10
13.2228873229453
20
-0.0254883719333918
30
0
41
1
10
13.5279082569564
20
0.0442102640566588
30
0
41
1
10
13.6810852610053
20
0.075437190683175
30
0
41
1
10
13.9886863897295
20
0.131115754657174
30
0
41
1
10
14.1431463885062
20
0.155570330553843
30
0
41
1
10
14.6080987610168
20
0.219153209730706
30
0
41
1
10
14.9190708622442
20
0.248417998144163
30
0
41
1
10
15.3869651756856
20
0.273556967429982
30
0
41
1
10
15.5432070822208
20
0.278794787042273
30
0
41
1
10
15.8560204139732
20
0.282975419240103
30
0
41
1
10
16.0122806802613
20
0.281915099189547
30
0
41
1
10
16.4806221609787
20
0.269279312068733
30
0
41
1
10
16.7922654117553
20
0.248278910879776
30
0
41
1
10
17.1033048378654
20
0.214274521193374
30
0
0
SPLINE
5
120
100
AcDbEntity
8
1
62
256
6
ByLayer
370
18
48
1
60
0
100
AcDbSpline
70
4
71
3
72
16
73
12
40
0
40
0
40
0
40
0
40
0.111339364253686
40
0.222619507475846
40
0.333841373985879
40
0.445005894831572
40
0.556113988017258
40
0.667166558725766
40
0.778164499534867
40
0.889108690628105
40
1
40
1
40
1
40
1
41
1
10
16.1664623017704
20
1.9668003390293
30
0
41
1
10
16.1573347266386
20
1.9525495570241
30
0
41
1
10
16.1390844313014
20
1.92405557295643
30
0
41
1
10
16.111804151457
20
1.88137189612723
30
0
41
1
10
16.0846029307762
20
1.83874530517909
30
0
41
1
10
16.0574870334398
20
1.79617942298015
30
0
41
1
10
16.0304549122781
20
1.75367384361093
30
0
41
1
10
16.0035065593701
20
1.71122890022951
30
0
41
1
10
15.9766436144473
20
1.66884593598175
30
0
41
1
10
15.9498595950969
20
1.62652146074211
30
0
41
1
10
15.9320682291985
20
1.59834733445857
30
0
41
1
10
15.9231746668253
20
1.5842636294274
30
0
0
SPLINE
5
121
100
AcDbEntity
8
1
62
256
6
ByLayer
370
18
48
1
60
0
100
AcDbSpline
70
4
71
3
72
26
73
22
40
0
40
0
40
0
40
0
40
0.124999999999991
40
0.124999999999991
40
0.187500000000031
40
0.187500000000031
40
0.25000000000007
40
0.25000000000007
40
0.375000000000059
40
0.375000000000059
40
0.437500000000054
40
0.437500000000054
40
0.500000000000048
40
0.500000000000048
40
0.625000000000036
40
0.625000000000036
40
0.750000000000024
40
0.750000000000024
40
0.875000000000012
40
0.875000000000012
40
1
40
1
40
1
40
1
41
1
10
47.0983250612691
20
-2.12526825384862
30
0
41
1
10
47.1159617793331
20
-2.13213203409043
30
0
41
1
10
47.1338547293235
20
-2.13808001695168
30
0
41
1
10
47.1611918184908
20
-2.14523705729792
30
0
41
1
10
47.1703875570627
20
-2.14732709200445
30
0
41
1
10
47.1889716723234
20
-2.15082649440731
30
0
41
1
10
47.1983987838609
20
-2.15223966156111
30
0
41
1
10
47.2267223859447
20
-2.15526109606077
30
0
41
1
10
47.2455394345055
20
-2.15565459199323
30
0
41
1
10
47.2736523246429
20
-2.15338112229296
30
0
41
1
10
47.2830044726816
20
-2.15214500703851
30
0
41
1
10
47.3016682117187
20
-2.1486301665376
30
0
41
1
10
47.3110457770972
20
-2.14632714041014
30
0
41
1
10
47.3384139057864
20
-2.13794732072341
30
0
41
1
10
47.3557504823997
20
-2.13041454749373
30
0
41
1
10
47.388770104246
20
-2.11180834802315
30
0
41
1
10
47.4045476150579
20
-2.10061718502664
30
0
41
1
10
47.4334586200917
20
-2.07614419271576
30
0
41
1
10
47.4467731038658
20
-2.06279172612707
30
0
41
1
10
47.4716461687717
20
-2.0343714031778
30
0
41
1
10
47.4832424678623
20
-2.01923236242652
30
0
41
1
10
47.4939663048382
20
-2.00367817035706
30
0
0
SPLINE
5
122
100
AcDbEntity
8
1
62
256
6
ByLayer
370
18
48
1
60
0
100
AcDbSpline
70
4
71
3
72
24
73
20
40
0
40
0
40
0
40
0
40
0.25
40
0.25
40
0.375
40
0.375
40
0.5
40
0.5
40
0.625
40
0.625
40
0.75
40
0.75
40
0.8125
40
0.8125
40
0.875
40
0.875
40
0.9375
40
0.9375
40
1
40
1
40
1
40
1
41
1
10
47.4940077375561
20
-2.00366137405857
30
0
41
1
10
47.4561047654031
20
-1.96504704442819
30
0
41
1
10
47.4172530964526
20
-1.92737140870307
30
0
41
1
10
47.3565480111533
20
-1.8733393737578
30
0
41
1
10
47.3359025948204
20
-1.85574846911879
30
0
41
1
10
47.2934920861658
20
-1.82172618250479
30
0
41
1
10
47.2718445127935
20
-1.80538709622607
30
0
41
1
10
47.2273846612686
20
-1.77460517985546
30
0
41
1
10
47.2045706427216
20
-1.76015004932097
30
0
41
1
10
47.1572573764524
20
-1.73396220247219
30
0
41
1
10
47.1327698468549
20
-1.72221012772727
30
0
41
1
10
47.0940853085306
20
-1.70775950038296
30
0
41
1
10
47.0809254574915
20
-1.70351391440664
30
0
41
1
10
47.0544091171497
20
-1.69653281454993
30
0
41
1
10
47.0409970417276
20
-1.69377513759758
30
0
41
1
10
47.0138083441509
20
-1.69000350177401
30
0
41
1
10
46.9999502566201
20
-1.68899094699122
30
0
41
1
10
46.9722078193615
20
-1.68905499794784
30
0
41
1
10
46.9583937581384
20
-1.69012102035404
30
0
41
1
10
46.9446416156217
20
-1.69229685802711
30
0
0
SPLINE
5
123
100
AcDbEntity
8
1
62
256
6
ByLayer
370
18
48
1
60
0
100
AcDbSpline
70
4
71
3
72
10
73
6
40
0
40
0
40
0
40
0
40
0.5
40
0.5
40
1
40
1
40
1
40
1
41
1
10
46.9446416156222
20
-1.69229685802725
30
0
41
1
10
46.9130979000468
20
-1.69791760420898
30
0
41
1
10
46.8819785545898
20
-1.7051195682001
30
0
41
1
10
46.8207149208378
20
-1.72315352107532
30
0
41
1
10
46.7904525957552
20
-1.73404742388269
30
0
41
1
10
46.761177601605
20
-1.74680325067669
30
0
0
SPLINE
5
124
100
AcDbEntity
8
1
62
256
6
ByLayer
370
18
48
1
60
0
100
AcDbSpline
70
4
71
3
72
32
73
28
40
0
40
0
40
0
40
0
40
0.24999999999998
40
0.24999999999998
40
0.499999999999959
40
0.499999999999959
40
0.62499999999995
40
0.62499999999995
40
0.749999999999941
40
0.749999999999941
40
0.812499999999937
40
0.812499999999937
40
0.874999999999932
40
0.874999999999932
40
0.90624999999993
40
0.90624999999993
40
0.937499999999928
40
0.937499999999928
40
0.953124999999946
40
0.953124999999946
40
0.968749999999964
40
0.968749999999964
40
0.984374999999982
40
0.984374999999982
40
0.992187499999991
40
0.992187499999991
40
1
40
1
40
1
40
1
41
1
10
46.5913661921954
20
-1.19405720345219
30
0
41
1
10
46.6001613985895
20
-1.24261825501577
30
0
41
1
10
46.6093730970013
20
-1.29108425013018
30
0
41
1
10
46.6290218943223
20
-1.38774405028158
30
0
41
1
10
46.6394395645716
20
-1.43594848758494
30
0
41
1
10
46.6566365385168
20
-1.50784698140319
30
0
41
1
10
46.6626356844395
20
-1.53174997085841
30
0
41
1
10
46.6754353390231
20
-1.5793187235904
30
0
41
1
10
46.6822233501413
20
-1.60300145485567
30
0
41
1
10
46.6934705363334
20
-1.63816950428026
30
0
41
1
10
46.6974012550137
20
-1.64983678904167
30
0
41
1
10
46.705820626698
20
-1.67295883261323
30
0
41
1
10
46.7102996543614
20
-1.68442658922342
30
0
41
1
10
46.7177806961343
20
-1.70128573957408
30
0
41
1
10
46.72040490071
20
-1.70685085353918
30
0
41
1
10
46.7260601408953
20
-1.71776775132304
30
0
41
1
10
46.7290864079201
20
-1.72313404026434
30
0
41
1
10
46.7341782708835
20
-1.73080731156489
30
0
41
1
10
46.7359676682894
20
-1.73330009269139
30
0
41
1
10
46.7398532927061
20
-1.7380694246259
30
0
41
1
10
46.7419318771912
20
-1.74033491248326
30
0
41
1
10
46.746570687382
20
-1.74433710662945
30
0
41
1
10
46.7491820967562
20
-1.74612805439756
30
0
41
1
10
46.7535890211088
20
-1.74759615078682
30
0
41
1
10
46.7551023798648
20
-1.74786360390436
30
0
41
1
10
46.7582369482692
20
-1.74778076788368
30
0
41
1
10
46.7597373511811
20
-1.74743080280763
30
0
41
1
10
46.7611776016087
20
-1.7468032506751
30
0
0
SPLINE
5
125
100
AcDbEntity
8
1
62
256
6
ByLayer
370
13
48
1
60
0
100
AcDbSpline
70
4
71
3
72
32
73
28
40
0
40
0
40
0
40
0
40
0.0309732086472858
40
0.105513731059033
40
0.18005425347078
40
0.254594775882527
40
0.329135298294275
40
0.403675820706022
40
0.478216343117769
40
0.53412173492658
40
0.571391996132453
40
0.59002712673539
40
0.608662257338327
40
0.62263860529053
40
0.636614953242732
40
0.650591301194935
40
0.664567649147137
40
0.67854399709934
40
0.692520345051543
40
0.706496693003745
40
0.720473040955948
40
0.748425736860353
40
0.776378432764758
40
0.813648693970632
40
0.869554085779442
40
0.925459477588253
40
1
40
1
40
1
40
1
41
1
10
44.8310435088233
20
-6.92439452905467
30
0
41
1
10
44.5540290058822
20
-6.96951861658425
30
0
41
1
10
43.6103478362745
20
-7.10537290110838
30
0
41
1
10
42.0000000000001
20
-7.22893234705762
30
0
41
1
10
40.0000000000001
20
-7.19348632011025
30
0
41
1
10
38.0000000000001
20
-6.96939557679878
30
0
41
1
10
36.0000000000001
20
-6.56091989471568
30
0
41
1
10
34.0000000000001
20
-5.97858882570978
30
0
41
1
10
32.1666666666668
20
-5.30364362458877
30
0
41
1
10
30.6666666666668
20
-4.66036770248138
30
0
41
1
10
29.6666666666668
20
-4.19303214978771
30
0
41
1
10
29.0000000000001
20
-3.86777276382998
30
0
41
1
10
28.5416666666668
20
-3.63829168403802
30
0
41
1
10
28.1250000000001
20
-3.42535030592336
30
0
41
1
10
27.7500000000001
20
-3.23057307704556
30
0
41
1
10
27.3750000000001
20
-3.0328734872796
30
0
41
1
10
27.0000000000001
20
-2.83246002242365
30
0
41
1
10
26.6250000000001
20
-2.629547092309
30
0
41
1
10
26.2500000000001
20
-2.4243269822646
30
0
41
1
10
25.8750000000001
20
-2.21693366064412
30
0
41
1
10
25.3750000000001
20
-1.93770903447063
30
0
41
1
10
24.7500000000001
20
-1.58400202595399
30
0
41
1
10
23.9166666666668
20
-1.10557831285885
30
0
41
1
10
22.8333333333335
20
-0.475814540578455
30
0
41
1
10
21.5000000000001
20
0.306579336232801
30
0
41
1
10
19.8333333333334
20
1.27981997026819
30
0
41
1
10
18.6666666666667
20
1.94414851248646
30
0
41
1
10
18.0000000000001
20
2.31305823691224
30
0
0
SPLINE
5
126
100
AcDbEntity
8
1
62
256
6
ByLayer
370
18
48
1
60
0
100
AcDbSpline
70
4
71
3
72
89
73
85
40
0
40
0
40
0
40
0
40
0.0085141896101502
40
0.0085141896101502
40
0.0242520596163395
40
0.0242520596163395
40
0.0557277996287182
40
0.0557277996287182
40
0.0872035396410969
40
0.0872035396410969
40
0.118679279653476
40
0.118679279653476
40
0.134417149659665
40
0.134417149659665
40
0.150155019665853
40
0.150155019665853
40
0.181630759678231
40
0.181630759678231
40
0.213106499690609
40
0.213106499690609
40
0.228844369696798
40
0.228844369696798
40
0.244582239702988
40
0.244582239702988
40
0.276057979715365
40
0.276057979715365
40
0.307533719727743
40
0.307533719727743
40
0.33900945974012
40
0.33900945974012
40
0.346878394743214
40
0.346878394743214
40
0.354747329746308
40
0.370485199752495
40
0.370485199752495
40
0.40196093976487
40
0.40196093976487
40
0.433436679777244
40
0.433436679777244
40
0.464912419789619
40
0.464912419789619
40
0.472781354792713
40
0.472781354792713
40
0.480650289795806
40
0.480650289795806
40
0.496388159801993
40
0.496388159801993
40
0.512126029808179
40
0.512126029808179
40
0.527863899814365
40
0.527863899814365
40
0.559339639826739
40
0.559339639826739
40
0.590815379839113
40
0.590815379839113
40
0.6065532498453
40
0.6065532498453
40
0.622291119851488
40
0.622291119851488
40
0.685242599876236
40
0.685242599876236
40
0.71671833988861
40
0.71671833988861
40
0.732456209894797
40
0.732456209894797
40
0.740325144897891
40
0.740325144897891
40
0.748194079900985
40
0.748194079900985
40
0.779669819913361
40
0.779669819913361
40
0.811145559925738
40
0.811145559925738
40
0.842621299938115
40
0.842621299938115
40
0.874097039950492
40
0.874097039950492
40
0.905572779962869
40
0.905572779962869
40
0.921310649969057
40
0.921310649969057
40
0.937048519975246
40
0.937048519975246
40
1
40
1
40
1
40
1
41
1
10
47.2923847649138
20
-6.67209898934479
30
0
41
1
10
47.2089442337777
20
-6.69807150419535
30
0
41
1
10
47.1254795387288
20
-6.72359493733154
30
0
41
1
10
46.8876672677161
20
-6.79501221685064
30
0
41
1
10
46.7332060583755
20
-6.83983106520438
30
0
41
1
10
46.2703519697386
20
-6.96939004502408
30
0
41
1
10
45.962332473638
20
-7.04930393820081
30
0
41
1
10
45.3471361049248
20
-7.19567369095441
30
0
41
1
10
45.0398737703519
20
-7.26215198592016
30
0
41
1
10
44.4250456764242
20
-7.38152225327326
30
0
41
1
10
44.1174846966327
20
-7.43438134318498
30
0
41
1
10
43.6553327290959
20
-7.50316073777327
30
0
41
1
10
43.501121575941
20
-7.5243412809441
30
0
41
1
10
43.1929454410447
20
-7.56310742812167
30
0
41
1
10
43.038916341374
20
-7.58070253604399
30
0
41
1
10
42.5769441607378
20
-7.62807072009323
30
0
41
1
10
42.2691333777997
20
-7.65236803557738
30
0
41
1
10
41.6533199009779
20
-7.68665595685451
30
0
41
1
10
41.3453058477604
20
-7.69670981532158
30
0
41
1
10
40.8828834957204
20
-7.70108820227554
30
0
41
1
10
40.7286760097636
20
-7.70076110976615
30
0
41
1
10
40.4200846911878
20
-7.69650513901354
30
0
41
1
10
40.2656986320666
20
-7.69257409254078
30
0
41
1
10
39.8030481217031
20
-7.67536833306181
30
0
41
1
10
39.4950215109277
20
-7.65666268038694
30
0
41
1
10
38.8793409285532
20
-7.60469529213353
30
0
41
1
10
38.5716554053235
20
-7.57153335731709
30
0
41
1
10
37.9559996933625
20
-7.49136734943218
30
0
41
1
10
37.6480578797773
20
-7.44425218803622
30
0
41
1
10
37.2627014657349
20
-7.37649324040663
30
0
41
1
10
37.1855932969302
20
-7.36249772384835
30
0
41
1
10
37.0314700552822
20
-7.33365606187164
30
0
41
1
10
36.8003810498165
20
-7.28911225713404
30
0
41
1
10
36.5695463897271
20
-7.24074016144286
30
0
41
1
10
36.1081409132707
20
-7.13887439454615
30
0
41
1
10
35.8009190000368
20
-7.06402683357632
30
0
41
1
10
35.186499694889
20
-6.90147460955055
30
0
41
1
10
34.8792733640617
20
-6.81389009478579
30
0
41
1
10
34.2642903034835
20
-6.62632300991547
30
0
41
1
10
33.9565270539052
20
-6.52633658810996
30
0
41
1
10
33.5712270992621
20
-6.39357603050263
30
0
41
1
10
33.4941383284095
20
-6.3666336332808
30
0
41
1
10
33.3398987675883
20
-6.31196358744151
30
0
41
1
10
33.26274471951
20
-6.2842344815248
30
0
41
1
10
33.0314447525357
20
-6.19995883530495
30
0
41
1
10
32.8773812305758
20
-6.14227172464501
30
0
41
1
10
32.5694452376514
20
-6.02404047273282
30
0
41
1
10
32.4155519323979
20
-5.96356376660151
30
0
41
1
10
32.1078273221906
20
-5.84008863747661
30
0
41
1
10
31.9540071027066
20
-5.77705433257196
30
0
41
1
10
31.4926257595889
20
-5.5840574173005
30
0
41
1
10
31.1851421779845
20
-5.45021359741409
30
0
41
1
10
30.5700290047033
20
-5.17227567366371
30
0
41
1
10
30.262402725903
20
-5.02817096253392
30
0
41
1
10
29.8005179341324
20
-4.80443828946238
30
0
41
1
10
29.6464846209921
20
-4.72858175275897
30
0
41
1
10
29.338184196358
20
-4.57446220746186
30
0
41
1
10
29.1841328346879
20
-4.49637461948097
30
0
41
1
10
28.4142559875855
20
-4.10146791535249
30
0
41
1
10
27.7996242756372
20
-3.77056344597486
30
0
41
1
10
26.8771155721353
20
-3.25410611697518
30
0
41
1
10
26.5694875691256
20
-3.07866616147857
30
0
41
1
10
26.1074480567202
20
-2.81130862915987
30
0
41
1
10
25.953345651322
20
-2.7214591217726
30
0
41
1
10
25.7220108025064
20
-2.58568093229101
30
0
41
1
10
25.6448390081171
20
-2.54024091404571
30
0
41
1
10
25.4905783486794
20
-2.44915009580947
30
0
41
1
10
25.4135026371762
20
-2.40350511989681
30
0
41
1
10
25.0283932217226
20
-2.17478831011735
30
0
41
1
10
24.721183704803
20
-1.99021279451407
30
0
41
1
10
24.1082515028973
20
-1.61828571415666
30
0
41
1
10
23.8025231465931
20
-1.43094359832816
30
0
41
1
10
23.1921411316249
20
-1.05414596850324
30
0
41
1
10
22.8874653442038
20
-0.864727363255952
30
0
41
1
10
22.2784001630911
20
-0.485079640384754
30
0
41
1
10
21.9740524021831
20
-0.294780073419702
30
0
41
1
10
21.3653098210567
20
0.0861000856540954
30
0
41
1
10
21.0609123836861
20
0.27667623772706
30
0
41
1
10
20.6039429066191
20
0.562207671215845
30
0
41
1
10
20.4515578059446
20
0.657329876298377
30
0
41
1
10
20.1466060538554
20
0.847372183757386
30
0
41
1
10
19.9940339109038
20
0.942282808443963
30
0
41
1
10
19.2304280313645
20
1.41584044987928
30
0
41
1
10
18.617243604645
20
1.79164485774109
30
0
41
1
10
18.0000000000001
20
2.16157246094218
30
0
0
SPLINE
5
127
100
AcDbEntity
8
1
62
256
6
ByLayer
370
18
48
1
60
0
100
AcDbSpline
70
4
71
3
72
10
73
6
40
0
40
0
40
0
40
0
40
0.5
40
0.5
40
1
40
1
40
1
40
1
41
1
10
18.0000000000001
20
2.16157246094218
30
0
41
1
10
17.779413449652
20
2.27512712112625
30
0
41
1
10
17.5596294158176
20
2.38910994207134
30
0
41
1
10
17.1218468421472
20
2.61802818550447
30
0
41
1
10
16.9038647481867
20
2.73297238224026
30
0
41
1
10
16.6868167277401
20
2.84841492838024
30
0
0
SPLINE
5
128
100
AcDbEntity
8
1
62
256
6
ByLayer
370
18
48
1
60
0
100
AcDbSpline
70
4
71
3
72
27
73
23
40
0
40
0
40
0
40
0
40
0.0498458514724179
40
0.0997054089866799
40
0.149579122917736
40
0.19946743608158
40
0.249370783872649
40
0.299289594398289
40
0.349224288610199
40
0.399175280433042
40
0.449142976890252
40
0.49912777822693
40
0.549130078030058
40
0.599150263345996
40
0.649188714795248
40
0.699245806684621
40
0.749321907116813
40
0.799417378097411
40
0.849532575639362
40
0.899667849865086
40
0.949823545106046
40
1
40
1
40
1
40
1
41
1
10
16.6867609795218
20
2.84832231326564
30
0
41
1
10
16.6777938963253
20
2.83341682733578
30
0
41
1
10
16.6598572642666
20
2.80360175693616
30
0
41
1
10
16.6330733262183
20
2.75897045158203
30
0
41
1
10
16.6063734057992
20
2.71439863258445
30
0
41
1
10
16.5797664582592
20
2.66989344948982
30
0
41
1
10
16.5532500915859
20
2.62545320675787
30
0
41
1
10
16.5268249557733
20
2.58107856817108
30
0
41
1
10
16.5004908855405
20
2.53676955333313
30
0
41
1
10
16.4742479343511
20
2.49252634284261
30
0
41
1
10
16.4480960971877
20
2.44834906244699
30
0
41
1
10
16.4220353849607
20
2.40423784100909
30
0
41
1
10
16.396065804189
20
2.36019279468371
30
0
41
1
10
16.3701873638045
20
2.31621403232162
30
0
41
1
10
16.3444000682302
20
2.27230164978624
30
0
41
1
10
16.3187039382402
20
2.22845574739498
30
0
41
1
10
16.2930989343731
20
2.18467636591072
30
0
41
1
10
16.2675852425389
20
2.14096372536974
30
0
41
1
10
16.2421622075742
20
2.09731733340436
30
0
41
1
10
16.2168323155786
20
2.05373931507023
30
0
41
1
10
16.1915863226481
20
2.01022197835567
30
0
41
1
10
16.174838136116
20
1.98127621191389
30
0
41
1
10
16.1664623101724
20
1.96680033411914
30
0
0
SPLINE
5
129
100
AcDbEntity
8
1
62
256
6
ByLayer
370
18
48
1
60
0
100
AcDbSpline
70
4
71
3
72
42
73
38
40
0
40
0
40
0
40
0
40
0.0217015994928543
40
0.0374557342491536
40
0.0532098690054528
40
0.11622640803065
40
0.147734677543248
40
0.163488812299548
40
0.179242947055847
40
0.242259486081044
40
0.258013620837343
40
0.273767755593642
40
0.289521890349941
40
0.305276025106241
40
0.32103015986254
40
0.336784294618839
40
0.368292564131438
40
0.384046698887737
40
0.399800833644036
40
0.431309103156635
40
0.494325642181832
40
0.510079776938131
40
0.52583391169443
40
0.557342181207029
40
0.620358720232225
40
0.636112854988525
40
0.651866989744824
40
0.683375259257422
40
0.746391798282619
40
0.777900067795218
40
0.809408337307816
40
0.840916606820415
40
0.872424876333013
40
0.903933145845612
40
0.93544141535821
40
0.998457954383407
40
1
40
1
40
1
40
1
41
1
10
16.1664623101724
20
1.96680033411914
30
0
41
1
10
16.3520200785221
20
1.85079154698224
30
0
41
1
10
16.6722505354168
20
1.649430539875
30
0
41
1
10
17.1270828175751
20
1.36112192069618
30
0
41
1
10
17.934947319155
20
0.846052618468974
30
0
41
1
10
18.8771413908733
20
0.238393983236932
30
0
41
1
10
19.8191940297496
20
-0.3695839312619
30
0
41
1
10
20.3575132199543
20
-0.716033926359046
30
0
41
1
10
21.1649971746203
20
-1.23420037841012
30
0
41
1
10
21.9725334223795
20
-1.74713217357572
30
0
41
1
10
22.7802831979023
20
-2.24946418795969
30
0
41
1
10
23.1842099721909
20
-2.49826397700059
30
0
41
1
10
23.588199848306
20
-2.74438963106991
30
0
41
1
10
23.9922559026419
20
-2.9876152236848
30
0
41
1
10
24.3963732908664
20
-3.22762612520347
30
0
41
1
10
24.9352858094004
20
-3.54307115586002
30
0
41
1
10
25.474347630037
20
-3.8511249445221
30
0
41
1
10
26.0135712331573
20
-4.15101156776777
30
0
41
1
10
26.5529021397257
20
-4.44477798974103
30
0
41
1
10
27.4970590109006
20
-4.94282733642976
30
0
41
1
10
28.4418785951277
20
-5.40453519665647
30
0
41
1
10
29.2522628036549
20
-5.77052872468201
30
0
41
1
10
29.7926659684859
20
-6.00637641091268
30
0
41
1
10
30.7387309592495
20
-6.39641892160771
30
0
41
1
10
31.685066885017
20
-6.73869850082895
30
0
41
1
10
32.4958639132417
20
-6.99502519059467
30
0
41
1
10
33.0362641742421
20
-7.15591168550063
30
0
41
1
10
33.9815972184239
20
-7.40996617726685
30
0
41
1
10
35.0610826766348
20
-7.63645223310456
30
0
41
1
10
36.1396568834957
20
-7.79702967566391
30
0
41
1
10
36.9481526959812
20
-7.88352553967729
30
0
41
1
10
37.7561787822063
20
-7.93609784484966
30
0
41
1
10
38.5637324848555
20
-7.9545384316051
30
0
41
1
10
39.3707701442178
20
-7.93903214735417
30
0
41
1
10
40.4464340304049
20
-7.8726956351644
30
0
41
1
10
41.2665992804322
20
-7.77056110915879
30
0
41
1
10
41.8185046712954
20
-7.67871402986185
30
0
41
1
10
41.8316879070993
20
-7.67650693180155
30
0
0
SPLINE
5
12A
100
AcDbEntity
8
1
62
256
6
ByLayer
370
18
48
1
60
0
100
AcDbSpline
70
4
71
3
72
16
73
12
40
0
40
0
40
0
40
0
40
0.25
40
0.25
40
0.5
40
0.5
40
0.625000000000001
40
0.625000000000001
40
0.750000000000001
40
0.750000000000001
40
1
40
1
40
1
40
1
41
1
10
48.3695749601185
20
-0.669697598282767
30
0
41
1
10
48.3006316401279
20
-0.668825582133877
30
0
41
1
10
48.2296927745326
20
-0.661007064707718
30
0
41
1
10
48.0843508945838
20
-0.633830535516267
30
0
41
1
10
48.009929863451
20
-0.614422687209924
30
0
41
1
10
47.8957478790821
20
-0.577501582673364
30
0
41
1
10
47.8571418793085
20
-0.563839154903718
30
0
41
1
10
47.7800701616301
20
-0.534415773684231
30
0
41
1
10
47.7415169968795
20
-0.518628705477113
30
0
41
1
10
47.6257569813018
20
-0.468290834176628
30
0
41
1
10
47.5484562134421
20
-0.430838872431849
30
0
41
1
10
47.4709021165076
20
-0.389973758856485
30
0
0
SPLINE
5
12B
100
AcDbEntity
8
1
62
256
6
ByLayer
370
13
48
1
60
0
100
AcDbSpline
70
4
71
3
72
12
73
8
40
0
40
0
40
0
40
0
40
0.0510877027141608
40
0.327555040749069
40
0.604022378783977
40
0.880489716818885
40
1
40
1
40
1
40
1
41
1
10
48.3695749601186
20
-0.669697598282795
30
0
41
1
10
48.2463833067458
20
-0.586592815305266
30
0
41
1
10
47.4565249867063
20
-0.0525651653089199
30
0
41
1
10
46.0000000000001
20
0.946264809721868
30
0
41
1
10
44.0000000000001
20
2.26461900257002
30
0
41
1
10
42.3784824540685
20
3.28584522754457
30
0
41
1
10
41.4236315748035
20
3.8391508139639
30
0
41
1
10
41.1354473622052
20
4.00151684759311
30
0
0
SPLINE
5
12C
100
AcDbEntity
8
1
62
256
6
ByLayer
370
18
48
1
60
0
100
AcDbSpline
70
4
71
3
72
12
73
8
40
0
40
0
40
0
40
0
40
0.25
40
0.25
40
0.5
40
0.5
40
1
40
1
40
1
40
1
41
1
10
46.6209204144323
20
-0.735585948193233
30
0
41
1
10
46.6512609058278
20
-0.765617488138133
30
0
41
1
10
46.6808235895327
20
-0.796347057784573
30
0
41
1
10
46.7385408262617
20
-0.859067751916172
30
0
41
1
10
46.7668069069469
20
-0.890957893907682
30
0
41
1
10
46.8496370878376
20
-0.988389201337441
30
0
41
1
10
46.9022252255973
20
-1.05569832814575
30
0
41
1
10
46.9517258985859
20
-1.125772873758
30
0
0
SPLINE
5
12D
100
AcDbEntity
8
1
62
256
6
ByLayer
370
18
48
1
60
0
100
AcDbSpline
70
4
71
3
72
52
73
48
40
0
40
0
40
0
40
0
40
0.0625000000000248
40
0.0625000000000248
40
0.0937500000000471
40
0.0937500000000471
40
0.125000000000069
40
0.125000000000069
40
0.156250000000092
40
0.156250000000092
40
0.187500000000114
40
0.187500000000114
40
0.218750000000136
40
0.218750000000136
40
0.234375000000134
40
0.234375000000134
40
0.250000000000132
40
0.250000000000132
40
0.265625000000129
40
0.265625000000129
40
0.281250000000127
40
0.281250000000127
40
0.296875000000124
40
0.296875000000124
40
0.312500000000122
40
0.312500000000122
40
0.32812500000012
40
0.32812500000012
40
0.343750000000117
40
0.343750000000117
40
0.375000000000112
40
0.375000000000112
40
0.406250000000108
40
0.406250000000108
40
0.437500000000103
40
0.437500000000103
40
0.500000000000093
40
0.500000000000093
40
0.562500000000083
40
0.562500000000083
40
0.625000000000073
40
0.625000000000073
40
0.750000000000049
40
0.750000000000049
40
0.875000000000024
40
0.875000000000024
40
1
40
1
40
1
40
1
41
1
10
46.95172589859
20
-1.12577287375297
30
0
41
1
10
46.9694374553808
20
-1.14873699560533
30
0
41
1
10
46.9877008418517
20
-1.17121290447557
30
0
41
1
10
47.0163291886307
20
-1.20384031551006
30
0
41
1
10
47.0260798124576
20
-1.21453303864701
30
0
41
1
10
47.0461159650066
20
-1.23544823646611
30
0
41
1
10
47.0563925345866
20
-1.24566082886079
30
0
41
1
10
47.0774863531845
20
-1.26529848122618
30
0
41
1
10
47.0883172632595
20
-1.27474308340552
30
0
41
1
10
47.1107742303777
20
-1.29258786460721
30
0
41
1
10
47.1223944018396
20
-1.30099570753362
30
0
41
1
10
47.146847085387
20
-1.31622347291415
30
0
41
1
10
47.1598120346213
20
-1.32310496094564
30
0
41
1
10
47.1799567847886
20
-1.33101797196753
30
0
41
1
10
47.1868038460551
20
-1.33326323966782
30
0
41
1
10
47.2008421066085
20
-1.33673461962553
30
0
41
1
10
47.2080691664933
20
-1.33795331738406
30
0
41
1
10
47.2224314218146
20
-1.33901417048395
30
0
41
1
10
47.2296204353054
20
-1.33887522108091
30
0
41
1
10
47.2440182580042
20
-1.33702131614461
30
0
41
1
10
47.251063918332
20
-1.33531280255033
30
0
41
1
10
47.26454905997
20
-1.33045722132229
30
0
41
1
10
47.2710945563015
20
-1.32726914650317
30
0
41
1
10
47.2834546249755
20
-1.31969216556075
30
0
41
1
10
47.289201862805
20
-1.31536641073305
30
0
41
1
10
47.3000174230069
20
-1.305871240008
30
0
41
1
10
47.3051040728973
20
-1.30067804771585
30
0
41
1
10
47.3146399237685
20
-1.28970891496195
30
0
41
1
10
47.3190484531894
20
-1.28398799013544
30
0
41
1
10
47.3314633163813
20
-1.26629168047032
30
0
41
1
10
47.3386724448526
20
-1.25379163066924
30
0
41
1
10
47.3517404116127
20
-1.22790185105708
30
0
41
1
10
47.357553752861
20
-1.21456616813487
30
0
41
1
10
47.3680811080932
20
-1.18772539417813
30
0
41
1
10
47.372821142064
20
-1.17415408662768
30
0
41
1
10
47.3859314092965
20
-1.13312007000923
30
0
41
1
10
47.3932136737483
20
-1.10534355794257
30
0
41
1
10
47.406078788381
20
-1.04929993497888
30
0
41
1
10
47.411640413637
20
-1.02102672509804
30
0
41
1
10
47.4216047542564
20
-0.964145700146645
30
0
41
1
10
47.4259884124816
20
-0.935595036414099
30
0
41
1
10
47.4378198258582
20
-0.849890208702902
30
0
41
1
10
47.4440053389672
20
-0.792593026051804
30
0
41
1
10
47.4544165730586
20
-0.677814374605902
30
0
41
1
10
47.458616350646
20
-0.620330461856639
30
0
41
1
10
47.4656804149507
20
-0.505237916255169
30
0
41
1
10
47.4685366500427
20
-0.447628523158954
30
0
41
1
10
47.4709021165075
20
-0.389973758856485
30
0
0
SPLINE
5
12E
100
AcDbEntity
8
1
62
256
6
ByLayer
370
18
48
1
60
0
100
AcDbSpline
70
4
71
3
72
65
73
61
40
0
40
0
40
0
40
0
40
0.0281096268063072
40
0.0281096268063072
40
0.0421644402094608
40
0.0421644402094608
40
0.0562192536126144
40
0.0562192536126144
40
0.0843288804189216
40
0.0843288804189216
40
0.112438507225229
40
0.112438507225229
40
0.168657760837845
40
0.168657760837845
40
0.196767387644153
40
0.196767387644153
40
0.224877014450461
40
0.224877014450461
40
0.281096268063077
40
0.281096268063077
40
0.337315521675693
40
0.337315521675693
40
0.393534775288309
40
0.393534775288309
40
0.407589588691463
40
0.407589588691463
40
0.421644402094616
40
0.449754028900924
40
0.449754028900924
40
0.562192536126158
40
0.562192536126158
40
0.618411789738776
40
0.618411789738776
40
0.646521416545084
40
0.646521416545084
40
0.674631043351393
40
0.674631043351393
40
0.702740670157701
40
0.702740670157701
40
0.73085029696401
40
0.73085029696401
40
0.758959923770318
40
0.758959923770318
40
0.773014737173473
40
0.773014737173473
40
0.787069550576627
40
0.787069550576627
40
0.815179177382935
40
0.815179177382935
40
0.843288804189244
40
0.843288804189244
40
0.899508057801861
40
0.899508057801861
40
0.927617684608171
40
0.927617684608171
40
0.95572731141448
40
0.95572731141448
40
0.983836938220789
40
0.983836938220789
40
1
40
1
40
1
40
1
41
1
10
47.4709021165076
20
-0.389973758856513
30
0
41
1
10
47.3165288454724
20
-0.277858656625796
30
0
41
1
10
47.1620870955725
20
-0.165481490655367
30
0
41
1
10
46.9301872636088
20
0.0032957511540417
30
0
41
1
10
46.8528492237639
20
0.0595883225529974
30
0
41
1
10
46.6984021052282
20
0.171959789143472
30
0
41
1
10
46.6212505202788
20
0.228069310473529
30
0
41
1
10
46.3899691755992
20
0.396117635391931
30
0
41
1
10
46.2360147173689
20
0.507777434060216
30
0
41
1
10
45.9283884766449
20
0.730112580792763
30
0
41
1
10
45.7747056925655
20
0.840773297136707
30
0
41
1
10
45.3140292357593
20
1.17122593438825
30
0
41
1
10
45.0074171185731
20
1.38950745787943
30
0
41
1
10
44.5482757376663
20
1.7139053307236
30
0
41
1
10
44.3953588035142
20
1.82153291561582
30
0
41
1
10
44.0897859622914
20
2.03575657450452
30
0
41
1
10
43.9371417762482
20
2.14236504181031
30
0
41
1
10
43.479463440174
20
2.46046216062459
30
0
41
1
10
43.1746243658177
20
2.6701584739003
30
0
41
1
10
42.5640097098375
20
3.08289131032541
30
0
41
1
10
42.2582447557981
20
3.28592964504222
30
0
41
1
10
41.6444284389866
20
3.68354519905884
30
0
41
1
10
41.3364091041489
20
3.8781680848486
30
0
41
1
10
40.9497459683588
20
4.11580619267755
30
0
41
1
10
40.8723007173379
20
4.16306937849336
30
0
41
1
10
40.7173705843599
20
4.2569367848275
30
0
41
1
10
40.4852192840872
20
4.39656643109419
30
0
41
1
10
40.2537465083053
20
4.53267305168501
30
0
41
1
10
39.4834490399676
20
4.9784809548718
30
0
41
1
10
38.8713809081203
20
5.31003379291883
30
0
41
1
10
37.9551972331253
20
5.76514869743957
30
0
41
1
10
37.6501228416216
20
5.90977979139004
30
0
41
1
10
37.1923289396881
20
6.11557317217145
30
0
41
1
10
37.0396958877448
20
6.18232029491034
30
0
41
1
10
36.7342343426938
20
6.31206278196362
30
0
41
1
10
36.5814072445063
20
6.37505747861479
30
0
41
1
10
36.2754790687124
20
6.49712923596891
30
0
41
1
10
36.1223801502622
20
6.55619965985773
30
0
41
1
10
35.8158071091837
20
6.67026737606065
30
0
41
1
10
35.6623240481031
20
6.72529008041681
30
0
41
1
10
35.354838021539
20
6.83129491175958
30
0
41
1
10
35.2008395828033
20
6.88226464677098
30
0
41
1
10
34.9693900259996
20
6.95554960226241
30
0
41
1
10
34.8921648390381
20
6.97944931117559
30
0
41
1
10
34.7375516943208
20
7.02616850484881
30
0
41
1
10
34.6601098635363
20
7.04900304392709
30
0
41
1
10
34.4281049949256
20
7.1156841942433
30
0
41
1
10
34.2737791544909
20
7.15771757527355
30
0
41
1
10
33.9656003102132
20
7.23715465030784
30
0
41
1
10
33.8117391569588
20
7.27457553485036
30
0
41
1
10
33.3507769611662
20
7.3798416510534
30
0
41
1
10
33.0443121977312
20
7.44067837427622
30
0
41
1
10
32.5854774196977
20
7.51755550154797
30
0
41
1
10
32.4326549820551
20
7.54083407113618
30
0
41
1
10
32.1271254133031
20
7.58280131086241
30
0
41
1
10
31.9744295875054
20
7.6014603599705
30
0
41
1
10
31.6691086518628
20
7.63402667211682
30
0
41
1
10
31.5164821536904
20
7.64793785583527
30
0
41
1
10
31.2760811405748
20
7.66604094575666
30
0
41
1
10
31.188314614916
20
7.67184241361804
30
0
41
1
10
31.100530833256
20
7.6768554112073
30
0
0
SPLINE
5
12F
100
AcDbEntity
8
1
62
256
6
ByLayer
370
18
48
1
60
0
100
AcDbSpline
70
4
71
3
72
31
73
27
40
0
40
0
40
0
40
0
40
0.0193985731866459
40
0.0422334141862706
40
0.0879030961855202
40
0.110737937185145
40
0.13357277818477
40
0.179242460184019
40
0.202077301183644
40
0.224912142183269
40
0.270581824182518
40
0.293416665182143
40
0.316251506181768
40
0.361921188181017
40
0.384756029180642
40
0.407590870180267
40
0.453260552179516
40
0.498930234178766
40
0.544599916178015
40
0.635939280176514
40
0.681608962175764
40
0.727278644175013
40
0.818618008173512
40
0.864287690172762
40
0.909957372172011
40
1
40
1
40
1
40
1
41
1
10
28.8867161692359
20
7.93753388985706
30
0
41
1
10
29.0012194392534
20
7.93290755140552
30
0
41
1
10
29.2505330499857
20
7.91981522978125
30
0
41
1
10
29.7695338176349
20
7.87905471778325
30
0
41
1
10
30.3089369058263
20
7.81362233833548
30
0
41
1
10
30.8483561545375
20
7.72557775358328
30
0
41
1
10
31.3877544521223
20
7.62271123305553
30
0
41
1
10
31.9270926618473
20
7.49747908176442
30
0
41
1
10
32.4662830154418
20
7.3506702178893
30
0
41
1
10
33.0053463124781
20
7.18979159516334
30
0
41
1
10
33.5441894877755
20
7.00785911287628
30
0
41
1
10
34.0827210552774
20
6.80595208421784
30
0
41
1
10
34.6210162258502
20
6.59109679598959
30
0
41
1
10
35.1589251389259
20
6.35702350261343
30
0
41
1
10
35.6963073885779
20
6.10510567449325
30
0
41
1
10
36.2332936987694
20
5.84171785531223
30
0
41
1
10
36.903747097883
20
5.49149052359931
30
0
41
1
10
37.7067762311471
20
5.0407720618287
30
0
41
1
10
38.7757400109748
20
4.40226953312015
30
0
41
1
10
39.8436199173123
20
3.71244172653249
30
0
41
1
10
40.9132903127879
20
2.98132102341853
30
0
41
1
10
41.9850324511888
20
2.22581815344202
30
0
41
1
10
43.0613841882484
20
1.43938127871081
30
0
41
1
10
44.145522406748
20
0.632785381774823
30
0
41
1
10
45.2277303025292
20
-0.17764136758197
30
0
41
1
10
46.0449480099818
20
-0.789647274575884
30
0
41
1
10
46.5913661921954
20
-1.19405720345219
30
0
0
SPLINE
5
130
100
AcDbEntity
8
1
62
256
6
ByLayer
370
18
48
1
60
0
100
AcDbSpline
70
4
71
3
72
32
73
28
40
0
40
0
40
0
40
0
40
0.0156250000000123
40
0.0156250000000123
40
0.0312500000000246
40
0.0312500000000246
40
0.0468750000000369
40
0.0468750000000369
40
0.0625000000000492
40
0.0625000000000492
40
0.0781250000000615
40
0.0781250000000615
40
0.0937500000000738
40
0.0937500000000738
40
0.125000000000072
40
0.125000000000072
40
0.187500000000069
40
0.187500000000069
40
0.250000000000066
40
0.250000000000066
40
0.375000000000055
40
0.375000000000055
40
0.500000000000043
40
0.500000000000043
40
0.750000000000022
40
0.750000000000022
40
1
40
1
40
1
40
1
41
1
10
46.6209204144323
20
-0.735585948193233
30
0
41
1
10
46.6190546510223
20
-0.733739183496994
30
0
41
1
10
46.6170523713003
20
-0.7320440419862
30
0
41
1
10
46.6125315561463
20
-0.72938999560921
30
0
41
1
10
46.6100000416559
20
-0.72846902460708
30
0
41
1
10
46.6048008142829
20
-0.728571911402895
30
0
41
1
10
46.6023248488372
20
-0.729671852552457
30
0
41
1
10
46.5983193347943
20
-0.732893432895253
30
0
41
1
10
46.5967105041096
20
-0.734940800307101
30
0
41
1
10
46.5939464499396
20
-0.739273863273468
30
0
41
1
10
46.5927877813617
20
-0.74158534098126
30
0
41
1
10
46.5907506365137
20
-0.746263632646389
30
0
41
1
10
46.5898656568951
20
-0.748652673532348
30
0
41
1
10
46.5874612651406
20
-0.755913343390773
30
0
41
1
10
46.586184762012
20
-0.760890976569243
30
0
41
1
10
46.5828935736054
20
-0.775913037644472
30
0
41
1
10
46.5814127191994
20
-0.78600102815264
30
0
41
1
10
46.5790464415723
20
-0.806238303317372
30
0
41
1
10
46.5781904175591
20
-0.816390613728856
30
0
41
1
10
46.5762045440271
20
-0.846907776141251
30
0
41
1
10
46.5756485222498
20
-0.86734131552484
30
0
41
1
10
46.5753193554716
20
-0.908250700648892
30
0
41
1
10
46.5755663016221
20
-0.928691738274665
30
0
41
1
10
46.5770988642401
20
-0.989990185992326
30
0
41
1
10
46.5791634514786
20
-1.03082340959981
30
0
41
1
10
46.584455210877
20
-1.11246006347321
30
0
41
1
10
46.5877049184384
20
-1.15326268054935
30
0
41
1
10
46.5913661921954
20
-1.19405720345219
30
0
0
SPLINE
5
131
100
AcDbEntity
8
1
62
256
6
ByLayer
370
18
48
1
60
0
100
AcDbSpline
70
4
71
3
72
8
73
4
40
0
40
0
40
0
40
0
40
1
40
1
40
1
40
1
41
1
10
46.8159059653619
20
-2.02309840222605
30
0
41
1
10
46.8690527343764
20
-2.0517791329965
30
0
41
1
10
46.9221643031952
20
-2.08048293149113
30
0
41
1
10
46.9752028126542
20
-2.10927413987301
30
0
0
SPLINE
5
132
100
AcDbEntity
8
1
62
256
6
ByLayer
370
18
48
1
60
0
100
AcDbSpline
70
4
71
3
72
16
73
12
40
0
40
0
40
0
40
0
40
0.25
40
0.25
40
0.5
40
0.5
40
0.625
40
0.625
40
0.75
40
0.75
40
1
40
1
40
1
40
1
41
1
10
46.9752028126537
20
-2.10927413987278
30
0
41
1
10
46.9846300018941
20
-2.11439155687125
30
0
41
1
10
46.9942853002169
20
-2.11901230293168
30
0
41
1
10
47.0142712424845
20
-2.12678801795889
30
0
41
1
10
47.0246792670735
20
-2.12995123996691
30
0
41
1
10
47.0404389101044
20
-2.13284636346435
30
0
41
1
10
47.0457337062484
20
-2.13350971311354
30
0
41
1
10
47.0564239011464
20
-2.13410736568142
30
0
41
1
10
47.0618549341396
20
-2.13403849945757
30
0
41
1
10
47.0780958221793
20
-2.13250906188585
30
0
41
1
10
47.0884537374116
20
-2.12977563919014
30
0
41
1
10
47.0983250612688
20
-2.12526825384845
30
0
0
SPLINE
5
133
100
AcDbEntity
8
1
62
256
6
ByLayer
370
18
48
1
60
0
100
AcDbSpline
70
4
71
3
72
8
73
4
40
0
40
0
40
0
40
0
40
1
40
1
40
1
40
1
41
1
10
17.997684980956
20
5.06719169747342
30
0
41
1
10
17.9984566466623
20
5.06706622482017
30
0
41
1
10
17.9992283196772
20
5.06694082533096
30
0
41
1
10
18.0000000000001
20
5.06681549899901
30
0
0
SPLINE
5
134
100
AcDbEntity
8
1
62
256
6
ByLayer
370
18
48
1
60
0
100
AcDbSpline
70
4
71
3
72
23
73
19
40
0
40
0
40
0
40
0
40
0.249999999999976
40
0.249999999999976
40
0.374999999999972
40
0.374999999999972
40
0.499999999999968
40
0.499999999999968
40
0.562499999999966
40
0.593749999999965
40
0.593749999999965
40
0.624999999999964
40
0.624999999999964
40
0.749999999999976
40
0.749999999999976
40
0.874999999999988
40
0.874999999999988
40
1
40
1
40
1
40
1
41
1
10
46.9847903699709
20
-2.16682576478496
30
0
41
1
10
47.141349447633
20
-2.27986298114473
30
0
41
1
10
47.2970946867796
20
-2.38730653848813
30
0
41
1
10
47.5305031478046
20
-2.53867171482616
30
0
41
1
10
47.6082701489161
20
-2.58748286477996
30
0
41
1
10
47.7639048684657
20
-2.68141884638712
30
0
41
1
10
47.8417721276392
20
-2.72654540056669
30
0
41
1
10
47.9587909319458
20
-2.79105918466701
30
0
41
1
10
48.0173550877474
20
-2.82252004897049
30
0
41
1
10
48.0760315813642
20
-2.8526868404854
30
0
41
1
10
48.1151778787454
20
-2.8724974115957
30
0
41
1
10
48.1347704023289
20
-2.88225451345653
30
0
41
1
10
48.2323721437109
20
-2.93004213350082
30
0
41
1
10
48.3096462579216
20
-2.96526512891239
30
0
41
1
10
48.4626188920784
20
-3.0290060448915
30
0
41
1
10
48.5383178538709
20
-3.05752716862583
30
0
41
1
10
48.6881152469458
20
-3.10689877915146
30
0
41
1
10
48.7622147300805
20
-3.12775504103129
30
0
41
1
10
48.835458823304
20
-3.14408942566976
30
0
0
SPLINE
5
135
100
AcDbEntity
8
1
62
256
6
ByLayer
370
18
48
1
60
0
100
AcDbSpline
70
4
71
3
72
8
73
4
40
0
40
0
40
0
40
0
40
1
40
1
40
1
40
1
41
1
10
46.8200251504146
20
-2.04782480387885
30
0
41
1
10
46.8749589107612
20
-2.08751468096651
30
0
41
1
10
46.9298812429346
20
-2.12718082713198
30
0
41
1
10
46.9847903699715
20
-2.16682576478542
30
0
0
SPLINE
5
136
100
AcDbEntity
8
1
62
256
6
ByLayer
370
18
48
1
60
0
100
AcDbSpline
70
4
71
3
72
8
73
4
40
0
40
0
40
0
40
0
40
1
40
1
40
1
40
1
41
1
10
46.8200251504147
20
-2.04782480387897
30
0
41
1
10
46.8128795935299
20
-2.04266210843099
30
0
41
1
10
46.8057422457264
20
-2.03773821217743
30
0
41
1
10
46.7986150125301
20
-2.03305838227777
30
0
0
SPLINE
5
137
100
AcDbEntity
8
1
62
256
6
ByLayer
370
13
48
1
60
0
100
AcDbSpline
70
4
71
3
72
31
73
27
40
0
40
0
40
0
40
0
40
0.0091262444167186
40
0.092347277989537
40
0.175568311562355
40
0.258789345135174
40
0.342010378707992
40
0.42523141228081
40
0.487647187460424
40
0.529257704246833
40
0.550062962640038
40
0.570868221033243
40
0.586472164828146
40
0.602076108623049
40
0.617680052417953
40
0.633283996212856
40
0.64888794000776
40
0.664491883802663
40
0.680095827597567
40
0.69569977139247
40
0.726907658982277
40
0.758115546572084
40
0.799726063358493
40
0.862141838538107
40
0.92455761371772
40
1
40
1
40
1
40
1
41
1
10
42.2193254283181
20
1.38815077568859
30
0
41
1
10
42.1462169522121
20
1.43854616896445
30
0
41
1
10
41.4064418094394
20
1.94748022633388
30
0
41
1
10
40
20
2.89347064348576
30
0
41
1
10
38
20
4.13725469188137
30
0
41
1
10
36
20
5.23331542122355
30
0
41
1
10
34
20
6.14595863538716
30
0
41
1
10
32.1666666666667
20
6.78118369627981
30
0
41
0.999999999999999
10
30.6666666666667
20
7.14384671845622
30
0
41
1
10
29.6666666666667
20
7.3054969579683
30
0
41
1
10
29
20
7.38059333594493
30
0
41
1
10
28.5416666666667
20
7.41725443000727
30
0
41
1
10
28.125
20
7.43864762457227
30
0
41
1
10
27.75
20
7.44868218960454
30
0
41
1
10
27.375
20
7.44948247343603
30
0
41
1
10
27
20
7.4410331338984
30
0
41
1
10
26.625
20
7.42331678726768
30
0
41
1
10
26.25
20
7.3963183024716
30
0
41
1
10
25.875
20
7.36001353987422
30
0
41
1
10
25.3750000000001
20
7.29921496289589
30
0
41
1
10
24.75
20
7.20031607209867
30
0
41
1
10
23.9166666666667
20
7.02868295071909
30
0
41
1
10
22.8333333333334
20
6.7467651469949
30
0
41
1
10
21.4999999999999
20
6.29952627878981
30
0
41
1
10
19.8956464846813
20
5.62563407760635
30
0
41
1
10
18.7912929693627
20
5.07100396106668
30
0
41
1
10
18.186939454044
20
4.74414616741259
30
0
0
SPLINE
5
138
100
AcDbEntity
8
1
62
256
6
ByLayer
370
18
48
1
60
0
100
AcDbSpline
70
4
71
3
72
9
73
5
40
0
40
0
40
0
40
0
40
0.49970974026769
40
1
40
1
40
1
40
1
41
1
10
15.8644676411442
20
1.49585597848235
30
0
41
1
10
15.8742314815754
20
1.51057816608736
30
0
41
1
10
15.8937705052214
20
1.54003964425891
30
0
41
1
10
15.9133694815919
20
1.56951660046465
30
0
41
1
10
15.9231746585708
20
1.58426363454092
30
0
0
SPLINE
5
139
100
AcDbEntity
8
1
62
256
6
ByLayer
370
18
48
1
60
0
100
AcDbSpline
70
4
71
3
72
34
73
30
40
0
40
0
40
0
40
0
40
0.0377459039865737
40
0.0590537175196388
40
0.0803615310527037
40
0.122977158118834
40
0.144284971651899
40
0.165592785184964
40
0.208208412251094
40
0.229516225784159
40
0.250824039317224
40
0.293439666383354
40
0.314747479916419
40
0.336055293449484
40
0.378670920515614
40
0.399978734048679
40
0.421286547581744
40
0.463902174647874
40
0.506517801714004
40
0.549133428780134
40
0.634364682912394
40
0.676980309978524
40
0.719595937044654
40
0.804827191176914
40
0.847442818243044
40
0.890058445309174
40
0.975289699441434
40
0.996597512974499
40
1
40
1
40
1
40
1
41
1
10
28.1098238524449
20
7.98833237001003
30
0
41
1
10
28.3484609213354
20
7.97913391971031
30
0
41
1
10
28.7219239732944
20
7.95528864909809
30
0
41
1
10
29.2303081272978
20
7.90272422697288
30
0
41
1
10
29.7695983189285
20
7.83170959953191
30
0
41
1
10
30.3089990925709
20
7.73783418752515
30
0
41
1
10
30.8484192880286
20
7.62158310857544
30
0
41
1
10
31.3878199885023
20
7.49060696006688
30
0
41
1
10
31.9271555647671
20
7.33774927116545
30
0
41
1
10
32.4663455869574
20
7.16378669838855
30
0
41
1
10
33.0054097042383
20
6.97603074736642
30
0
41
1
10
33.5442507511902
20
6.76794679486918
30
0
41
1
10
34.0827847357529
20
6.54057621176463
30
0
41
1
10
34.6210852015582
20
6.30070040331728
30
0
41
1
10
35.1589892525254
20
6.04257491090632
30
0
41
1
10
35.6963693881814
20
5.76750926305976
30
0
41
1
10
36.2333544200826
20
5.48158172221062
30
0
41
1
10
36.9038047650888
20
5.10460361941946
30
0
41
1
10
37.7068492358739
20
4.62389606911529
30
0
41
1
10
38.7758091566106
20
3.94877345914361
30
0
41
1
10
39.8436945490624
20
3.22748091527822
30
0
41
1
10
40.9133443176205
20
2.47030199415491
30
0
41
1
10
41.985102279886
20
1.69270460194576
30
0
41
1
10
43.0614965735701
20
0.890139744564806
30
0
41
1
10
44.145542567519
20
0.0736975448545252
30
0
41
1
10
45.2355299013054
20
-0.747939159828945
30
0
41
1
10
46.1982237121401
20
-1.46776645859569
30
0
41
1
10
46.914688941992
20
-1.99177938066231
30
0
41
1
10
47.0760933317276
20
-2.10911966564743
30
0
41
1
10
47.0983250612691
20
-2.12526825384864
30
0
0
SPLINE
5
13A
100
AcDbEntity
8
1
62
256
6
ByLayer
370
18
48
1
60
0
100
AcDbSpline
70
4
71
3
72
14
73
10
40
0
40
0
40
0
40
0
40
0.25
40
0.25
40
0.5
40
0.5
40
0.75
40
0.75
40
1
40
1
40
1
40
1
41
1
10
46.815905965359
20
-2.02309840220801
30
0
41
1
10
46.814199095451
20
-2.02217728739339
30
0
41
1
10
46.8122968353419
20
-2.02156044748043
30
0
41
1
10
46.8084023785778
20
-2.02172749142375
30
0
41
1
10
46.8065480369288
20
-2.02256317536393
30
0
41
1
10
46.8035483662727
20
-2.02495337449614
30
0
41
1
10
46.8023392820836
20
-2.02646053325947
30
0
41
1
10
46.8002646582837
20
-2.0296351885454
30
0
41
1
10
46.7993894067907
20
-2.03133098421145
30
0
41
1
10
46.7986150125303
20
-2.03305838227729
30
0
0
SPLINE
5
13B
100
AcDbEntity
8
1
62
256
6
ByLayer
370
18
48
1
60
0
100
AcDbSpline
70
4
71
3
72
46
73
42
40
0
40
0
40
0
40
0
40
0.09635535971779
40
0.09635535971779
40
0.120444199647237
40
0.120444199647237
40
0.144533039576683
40
0.144533039576683
40
0.192710719435578
40
0.192710719435578
40
0.28906607915337
40
0.28906607915337
40
0.313154919082818
40
0.313154919082818
40
0.337243759012267
40
0.337243759012267
40
0.385421438871165
40
0.385421438871165
40
0.433599118730063
40
0.433599118730063
40
0.481776798588961
40
0.481776798588961
40
0.50586563851841
40
0.517910058483134
40
0.517910058483134
40
0.529954478447858
40
0.529954478447858
40
0.578132158306754
40
0.578132158306754
40
0.674487518024546
40
0.674487518024546
40
0.770842877742337
40
0.770842877742337
40
0.867198237460129
40
0.867198237460129
40
0.915375917319024
40
0.915375917319024
40
0.939464757248472
40
0.939464757248472
40
0.96355359717792
40
1
40
1
40
1
40
1
41
1
10
18.0000000000001
20
0.116344722372133
30
0
41
1
10
18.6030181950276
20
-0.275221749144293
30
0
41
1
10
19.2047471627192
20
-0.666471378028575
30
0
41
1
10
19.9576459599523
20
-1.15151060513571
30
0
41
1
10
20.1082643765351
20
-1.24831420115876
30
0
41
1
10
20.4096413801652
20
-1.44141645880904
30
0
41
1
10
20.5603244707153
20
-1.53766667757469
30
0
41
1
10
21.011905648122
20
-1.82502689420275
30
0
41
1
10
21.3125522031486
20
-2.0148853962915
30
0
41
1
10
22.2140324372018
20
-2.57822385395434
30
0
41
1
10
22.8144060282492
20
-2.94547481862338
30
0
41
1
10
23.5666436825107
20
-3.39036676398371
30
0
41
1
10
23.7171785854605
20
-3.47864080685181
30
0
41
1
10
24.0184826280002
20
-3.65369484442436
30
0
41
1
10
24.1693238174487
20
-3.74051315759706
30
0
41
1
10
24.6213839178919
20
-3.99808946524834
30
0
41
1
10
24.9223445765987
20
-4.16608929993802
30
0
41
1
10
25.523876448285
20
-4.4941428530914
30
0
41
1
10
25.8244427774409
20
-4.6542325249109
30
0
41
1
10
26.4255966992623
20
-4.96582627695537
30
0
41
1
10
26.7261809442898
20
-5.11737213665396
30
0
41
1
10
27.1774056537416
20
-5.33792554034665
30
0
41
1
10
27.403106649928
20
-5.44650228414005
30
0
41
1
10
27.6290093110807
20
-5.55244026274272
30
0
41
1
10
27.7796635446956
20
-5.62247019911072
30
0
41
1
10
27.8550431769639
20
-5.65719931687192
30
0
41
1
10
28.2317732391816
20
-5.82918575612931
30
0
41
1
10
28.5321380676937
20
-5.96125229393729
30
0
41
1
10
29.4309504814197
20
-6.34032914556408
30
0
41
1
10
30.0271236511094
20
-6.57010536953194
30
0
41
1
10
31.2174553429275
20
-6.98124633814561
30
0
41
1
10
31.811610175048
20
-7.16271060045494
30
0
41
1
10
33.0016204808684
20
-7.47463630542134
30
0
41
1
10
33.5974968869982
20
-7.60501081160174
30
0
41
1
10
34.4950093092185
20
-7.76064712387924
30
0
41
1
10
34.794792899408
20
-7.8058669739199
30
0
41
1
10
35.2457413106547
20
-7.86338807542017
30
0
41
1
10
35.396300911393
20
-7.88084501855357
30
0
41
1
10
35.697783802183
20
-7.91224780316193
30
0
41
1
10
36.07626290741
20
-7.94721524182191
30
0
41
1
10
36.4541016550819
20
-7.97088766193878
30
0
41
1
10
36.6814653157848
20
-7.98105033768937
30
0
0
SPLINE
5
13C
100
AcDbEntity
8
1
62
256
6
ByLayer
370
18
48
1
60
0
100
AcDbSpline
70
4
71
3
72
8
73
4
40
0
40
0
40
0
40
0
40
1
40
1
40
1
40
1
41
1
10
37.0816907942806
20
-7.99471872806629
30
0
41
1
10
37.3035427717655
20
-7.999954679133
30
0
41
1
10
37.5253409902531
20
-8.00129571738148
30
0
41
1
10
37.7471884570212
20
-7.99874606836369
30
0
0
SPLINE
5
13D
100
AcDbEntity
8
1
62
256
6
ByLayer
370
18
48
1
60
0
100
AcDbSpline
70
4
71
3
72
39
73
35
40
0
40
0
40
0
40
0
40
0.0343226383747668
40
0.0516589242517802
40
0.0689952101287937
40
0.138340353636847
40
0.173012925390874
40
0.190349211267888
40
0.207685497144901
40
0.277030640652955
40
0.294366926529968
40
0.311703212406982
40
0.329039498283995
40
0.346375784161008
40
0.363712070038022
40
0.381048355915035
40
0.415720927669062
40
0.433057213546076
40
0.450393499423089
40
0.485066071177116
40
0.55441121468517
40
0.571747500562183
40
0.589083786439196
40
0.623756358193223
40
0.693101501701277
40
0.71043778757829
40
0.727774073455304
40
0.76244664520933
40
0.831791788717384
40
0.866464360471411
40
0.901136932225438
40
0.935809503979465
40
0.970482075733491
40
1
40
1
40
1
40
1
41
1
10
15.9231746668253
20
1.5842636294274
30
0
41
1
10
16.1898851045246
20
1.4145182904447
30
0
41
1
10
16.591261483949
20
1.15738524908156
30
0
41
1
10
17.1272071000861
20
0.811768291260677
30
0
41
1
10
17.9350729320709
20
0.28904032850275
30
0
41
1
10
18.8772667682746
20
-0.324051395736376
30
0
41
1
10
19.8193234351006
20
-0.9332878377094
30
0
41
1
10
20.357637302692
20
-1.27923152166554
30
0
41
1
10
21.1651146651573
20
-1.79541364985195
30
0
41
1
10
21.9726538966758
20
-2.30337292813621
30
0
41
1
10
22.7804092668101
20
-2.79775460593424
30
0
41
1
10
23.1843376361007
20
-3.04197003453075
30
0
41
1
10
23.5883254538448
20
-3.28292544331441
30
0
41
1
10
23.9923777542369
20
-3.5204012414658
30
0
41
1
10
24.396494081706
20
-3.75411320980126
30
0
41
1
10
24.9354081261381
20
-4.06041089764318
30
0
41
1
10
25.474472440459
20
-4.35821584167726
30
0
41
1
10
26.0136979295213
20
-4.64666526193025
30
0
41
1
10
26.5530305680455
20
-4.92833764886609
30
0
41
1
10
27.4971751544517
20
-5.40324660154354
30
0
41
1
10
28.4420009925113
20
-5.83856767565325
30
0
41
1
10
29.2523911550045
20
-6.17948138218728
30
0
41
1
10
29.7927943728477
20
-6.39790222529277
30
0
41
1
10
30.7388475063497
20
-6.756108828724
30
0
41
1
10
31.6851893996609
20
-7.06401139913163
30
0
41
1
10
32.4959944231305
20
-7.28897663471108
30
0
41
1
10
33.0363966815341
20
-7.42839735616994
30
0
41
1
10
33.9817167181782
20
-7.64409723609967
30
0
41
1
10
35.0612004505383
20
-7.82495278599359
30
0
41
1
10
36.1397878520836
20
-7.93797730704912
30
0
41
1
10
36.9482781494197
20
-7.98839198993426
30
0
41
1
10
37.7562995681047
20
-8.00444944582028
30
0
41
1
10
38.5238355852426
20
-7.98705217076448
30
0
41
1
10
39.0218934796781
20
-7.95619442731206
30
0
41
1
10
39.2508852957091
20
-7.9378856395584
30
0
0
SPLINE
5
13E
100
AcDbEntity
8
1
62
256
6
ByLayer
370
18
48
1
60
0
100
AcDbSpline
70
4
71
3
72
18
73
14
40
0
40
0
40
0
40
0
40
0.265339960007881
40
0.265339960007881
40
0.398009940011823
40
0.398009940011823
40
0.530679920015765
40
0.530679920015765
40
0.796019880023649
40
0.796019880023649
40
0.928689860027591
40
0.928689860027591
40
1
40
1
40
1
40
1
41
1
10
12.4606361408968
20
7.71371683830583
30
0
41
1
10
12.3904843785879
20
7.76498565782114
30
0
41
1
10
12.3186190949715
20
7.809210565569
30
0
41
1
10
12.2077317420666
20
7.86522297711358
30
0
41
1
10
12.1702532957295
20
7.88217170951484
30
0
41
1
10
12.0941636244117
20
7.91265165473152
30
0
41
1
10
12.0555373002466
20
7.92618486923934
30
0
41
1
10
11.9381199403381
20
7.96160272113124
30
0
41
1
10
11.8576999727982
20
7.97835321838639
30
0
41
1
10
11.7331878154378
20
7.99349512123294
30
0
41
1
10
11.6910168992063
20
7.99687824189658
30
0
41
1
10
11.6251482435287
20
7.9995509177138
30
0
41
1
10
11.6019412861225
20
8.00000996275287
30
0
41
1
10
11.5785451743972
20
7.99999987317679
30
0
0
SPLINE
5
13F
100
AcDbEntity
8
1
62
256
6
ByLayer
370
18
48
1
60
0
100
AcDbSpline
70
4
71
3
72
10
73
6
40
0
40
0
40
0
40
0
40
0.275730101542011
40
0.275730101542011
40
1
40
1
40
1
40
1
41
1
10
16.0644353520079
20
-7.99999958834692
30
0
41
1
10
16.0687641595842
20
-7.99999739020015
30
0
41
1
10
16.0739070035879
20
-7.99977793622608
30
0
41
1
10
16.0953101793089
20
-7.99821348814686
30
0
41
1
10
16.1160502313764
20
-7.99563082233357
30
0
41
1
10
16.1416650038666
20
-7.99175390283759
30
0
0
SPLINE
5
140
100
AcDbEntity
8
1
62
256
6
ByLayer
370
18
48
1
60
0
100
AcDbSpline
70
4
71
3
72
8
73
4
40
0
40
0
40
0
40
0
40
1
40
1
40
1
40
1
41
1
10
15.8644884468243
20
1.49588840435746
30
0
41
1
10
15.8815721631069
20
1.52697674151688
30
0
41
1
10
15.8998820115061
20
1.5573170623218
30
0
41
1
10
15.9193400891765
20
1.5869592506663
30
0
0
SPLINE
5
141
100
AcDbEntity
8
1
62
256
6
ByLayer
370
18
48
1
60
0
100
AcDbSpline
70
4
71
3
72
66
73
62
40
0
40
0
40
0
40
0
40
0.0625000000000004
40
0.0625000000000004
40
0.0703125000000002
40
0.0703125000000002
40
0.078125
40
0.078125
40
0.0937499999999996
40
0.0937499999999996
40
0.124999999999999
40
0.124999999999999
40
0.187499999999997
40
0.187499999999997
40
0.249999999999994
40
0.249999999999994
40
0.281249999999993
40
0.281249999999993
40
0.289062499999993
40
0.289062499999993
40
0.296874999999993
40
0.312499999999993
40
0.343749999999993
40
0.343749999999993
40
0.374999999999992
40
0.374999999999992
40
0.437499999999991
40
0.437499999999991
40
0.468749999999991
40
0.468749999999991
40
0.48437499999999
40
0.48437499999999
40
0.49218749999999
40
0.49218749999999
40
0.499999999999991
40
0.499999999999991
40
0.562499999999995
40
0.562499999999995
40
0.624999999999999
40
0.624999999999999
40
0.687500000000003
40
0.687500000000003
40
0.695312500000003
40
0.695312500000003
40
0.703125000000003
40
0.703125000000003
40
0.718750000000003
40
0.750000000000003
40
0.750000000000003
40
0.812500000000002
40
0.812500000000002
40
0.875000000000001
40
0.875000000000001
40
0.90625
40
0.90625
40
0.9140625
40
0.9140625
40
0.921875
40
0.9375
40
0.9375
40
1
40
1
40
1
40
1
41
1
10
18.0000000000001
20
5.06681549899901
30
0
41
1
10
18.6052591552106
20
5.41974342627287
30
0
41
1
10
19.2085280131658
20
5.74700444876626
30
0
41
1
10
19.8886091077085
20
6.08274760710231
30
0
41
1
10
19.9641935890721
20
6.11960045746895
30
0
41
1
10
20.1154156403188
20
6.19238825946229
30
0
41
1
10
20.1910850974983
20
6.22833837549959
30
0
41
1
10
20.4179585219819
20
6.33468578947634
30
0
41
1
10
20.5688886913187
20
6.40351606845681
30
0
41
1
10
21.0208804172974
20
6.60377971748258
30
0
41
1
10
21.3211455442301
20
6.72899344022369
30
0
41
1
10
22.2198967746309
20
7.07931862874651
30
0
41
1
10
22.8163278939213
20
7.27924338891799
30
0
41
1
10
24.0098411656072
20
7.60873024972096
30
0
41
1
10
24.6069404818639
20
7.73830674115197
30
0
41
1
10
25.507821321555
20
7.87711260468146
30
0
41
1
10
25.8089720365408
20
7.91418731829248
30
0
41
1
10
26.1869986372323
20
7.94852352215236
30
0
41
1
10
26.2626872488125
20
7.95479039619889
30
0
41
1
10
26.4137983926851
20
7.96609178527373
30
0
41
1
10
26.6402301562481
20
7.98121158241779
30
0
41
1
10
27.1670653723276
20
8.00375240035203
30
0
41
1
10
27.6165179697327
20
8.0014613997069
30
0
41
1
10
28.2147177593286
20
7.97929530605469
30
0
41
1
10
28.5132812802185
20
7.95874542077107
30
0
41
1
10
29.4085310494737
20
7.86896392785758
30
0
41
1
10
30.0047817355472
20
7.77161981683548
30
0
41
1
10
30.9027198315513
20
7.5702085111318
30
0
41
1
10
31.2026254781492
20
7.49382998567495
30
0
41
1
10
31.6539884509607
20
7.36542504817092
30
0
41
1
10
31.8046935029848
20
7.32031944813798
30
0
41
1
10
32.0312064867931
20
7.24921065877462
30
0
41
1
10
32.1067973906648
20
7.22492904659762
30
0
41
1
10
32.258100906071
20
7.17522990423907
30
0
41
1
10
32.3336714647605
20
7.14985924011992
30
0
41
1
10
33.0131352623893
20
6.91689599725845
30
0
41
1
10
33.6123761170177
20
6.67696816678489
30
0
41
1
10
34.8075463597419
20
6.1377385425059
30
0
41
1
10
35.4034428388424
20
5.83838435949511
30
0
41
1
10
36.5981018195268
20
5.18587129464973
30
0
41
1
10
37.1968694280148
20
4.83272927345018
30
0
41
1
10
37.8756419583245
20
4.40794163528247
30
0
41
1
10
37.9511327483184
20
4.36036037793448
30
0
41
1
10
38.1022694739496
20
4.26444173951069
30
0
41
1
10
38.1779671623306
20
4.21607087419352
30
0
41
1
10
38.4047538640278
20
4.07019950579581
30
0
41
1
10
38.8573691395205
20
3.77525780339718
30
0
41
1
10
39.3075790775985
20
3.47135967982672
30
0
41
1
10
40.2060131146302
20
2.85324356940294
30
0
41
1
10
40.8023428908945
20
2.42742385479846
30
0
41
1
10
41.9959316877269
20
1.55643512375059
30
0
41
1
10
42.5931141792922
20
1.11119131148425
30
0
41
1
10
43.4940880826366
20
0.434487802243211
30
0
41
1
10
43.7952917265339
20
0.20745732266127
30
0
41
1
10
44.1734169865056
20
-0.077502706282587
30
0
41
1
10
44.2490752043885
20
-0.134517065716096
30
0
41
1
10
44.4001496962772
20
-0.248331944923166
30
0
41
1
10
44.6265380649945
20
-0.418838794943525
30
0
41
1
10
44.8523157377745
20
-0.588627591798428
30
0
41
1
10
45.6038034859264
20
-1.15268488678805
30
0
41
1
10
46.2014652024927
20
-1.59784476231749
30
0
41
1
10
46.7986150125301
20
-2.03305838227774
30
0
0
SPLINE
5
142
100
AcDbEntity
8
1
62
256
6
ByLayer
370
18
48
1
60
0
100
AcDbSpline
70
4
71
3
72
12
73
8
40
0
40
0
40
0
40
0
40
0.5
40
0.5
40
0.75
40
0.75
40
1
40
1
40
1
40
1
41
1
10
15.8644464799608
20
1.49582405761169
30
0
41
1
10
16.2204963555281
20
1.26968399779912
30
0
41
1
10
16.5762790524142
20
1.04171990313094
30
0
41
1
10
17.1090472684505
20
0.696229587648133
30
0
41
1
10
17.2865271818427
20
0.580537488392565
30
0
41
1
10
17.6416869841182
20
0.348735543158483
30
0
41
1
10
17.8194156667045
20
0.232606844825085
30
0
41
1
10
17.99732314914
20
0.116632605352464
30
0
0
SPLINE
5
143
100
AcDbEntity
8
1
62
256
6
ByLayer
370
18
48
1
60
0
100
AcDbSpline
70
4
71
3
72
8
73
4
40
0
40
0
40
0
40
0
40
1
40
1
40
1
40
1
41
1
10
17.9973231491024
20
0.116632605356529
30
0
41
1
10
17.9982154325436
20
0.116536651212584
30
0
41
1
10
17.9991077161762
20
0.116440690217445
30
0
41
1
10
18.0000000000001
20
0.116344722372133
30
0
0
SPLINE
5
144
100
AcDbEntity
8
1
62
256
6
ByLayer
370
18
48
1
60
0
100
AcDbSpline
70
4
71
2
72
6
73
3
40
0
40
0
40
0
40
1
40
1
40
1
41
1
10
48.3695502410556
20
-6.45331162697997
30
0
41
1
10
48.951755297369
20
-5.54657663875875
30
0
41
1
10
49.541929426159
20
-4.62758756917256
30
0
0
SPLINE
5
145
100
AcDbEntity
8
1
62
256
6
ByLayer
370
18
48
1
60
0
100
AcDbSpline
70
4
71
2
72
6
73
3
40
0
40
0
40
0
40
1
40
1
40
1
41
1
10
49.7556095084652
20
-4.14157325268141
30
0
41
1
10
49.8441903243388
20
-3.75113456380407
30
0
41
1
10
49.9327711402125
20
-3.36069587492676
30
0
0
SPLINE
5
146
100
AcDbEntity
8
1
62
256
6
ByLayer
370
18
48
1
60
0
100
AcDbSpline
70
4
71
3
72
21
73
17
40
0
40
0
40
0
40
0
40
0.0801091427878367
40
0.166422531115021
40
0.249805259697735
40
0.330862797783877
40
0.409288595818547
40
0.48244322469769
40
0.551373602645567
40
0.63608157316371
40
0.719624346980636
40
0.793234834165134
40
0.828707190804704
40
0.866716963797373
40
0.923269058208528
40
1
40
1
40
1
40
1
41
1
10
18.5126809981334
20
-7.03335139356327
30
0
41
1
10
18.7844717387908
20
-7.02534352966671
30
0
41
1
10
19.3376673000433
20
-7.00560946599492
30
0
41
1
10
20.1415558401517
20
-6.96387677854702
30
0
41
1
10
20.8938721987307
20
-6.91693286313807
30
0
41
1
10
21.6520887189626
20
-6.84892949884431
30
0
41
1
10
22.385325147914
20
-6.76939227208209
30
0
41
1
10
23.0891012901347
20
-6.68093967145853
30
0
41
1
10
23.8222119830568
20
-6.57764551660284
30
0
41
1
10
24.5824534974841
20
-6.45777300904675
30
0
41
1
10
25.3580188993065
20
-6.32249436490048
30
0
41
1
10
25.9812662414629
20
-6.20378398654904
30
0
41
1
10
26.450706670673
20
-6.10976556571811
30
0
41
1
10
26.8624200592733
20
-6.02465162617705
30
0
41
1
10
27.4091141670532
20
-5.90684232210279
30
0
41
1
10
27.8348337145177
20
-5.81028166170279
30
0
41
1
10
28.0800558327761
20
-5.75313667714795
30
0
0
SPLINE
5
147
100
AcDbEntity
8
1
62
256
6
ByLayer
370
18
48
1
60
0
100
AcDbSpline
70
4
71
2
72
6
73
3
40
0
40
0
40
0
40
1
40
1
40
1
41
1
10
45.5342355104233
20
4.1280180012196
30
0
41
1
10
45.0739223457267
20
4.29250825060353
30
0
41
1
10
44.6130968391548
20
4.46891759367133
30
0
0
SPLINE
5
148
100
AcDbEntity
8
1
62
256
6
ByLayer
370
18
48
1
60
0
100
AcDbSpline
70
4
71
3
72
22
73
18
40
0
40
0
40
0
40
0
40
0.0738944316613352
40
0.140995181691676
40
0.218307088608623
40
0.291106458609383
40
0.358395624700021
40
0.412294222959762
40
0.457085606537414
40
0.524804448789469
40
0.610320905935916
40
0.687628171665491
40
0.72817621625201
40
0.770468834345869
40
0.829227364256704
40
0.905641406579541
40
1
40
1
40
1
40
1
41
1
10
25.7719618463889
20
3.10072112649911
30
0
41
1
10
25.6045836502053
20
3.13129664113546
30
0
41
1
10
25.2720189654329
20
3.19387093230628
30
0
41
1
10
24.6998648052689
20
3.3043968984411
30
0
41
1
10
24.1299232387863
20
3.42469523305303
30
0
41
1
10
23.5583092728649
20
3.54301626164863
30
0
41
1
10
23.0509727464909
20
3.65012790778965
30
0
41
1
10
22.6183521243826
20
3.7429566675151
30
0
41
1
10
22.1863979311509
20
3.83683189529822
30
0
41
1
10
21.6673533511932
20
3.95094348938375
30
0
41
1
10
21.0639877863088
20
4.08491615087999
30
0
41
1
10
20.5319486986822
20
4.20497083546374
30
0
41
1
10
20.1184423318959
20
4.29960563206271
30
0
41
1
10
19.7522350529912
20
4.38353065320891
30
0
41
1
10
19.2863773358256
20
4.49006813549997
30
0
41
1
10
18.6880762354969
20
4.62649914986096
30
0
41
1
10
18.2444364788599
20
4.72566196776157
30
0
41
1
10
18
20
4.77983826436133
30
0
0
SPLINE
5
149
100
AcDbEntity
8
1
62
256
6
ByLayer
370
18
48
1
60
0
100
AcDbSpline
70
4
71
3
72
21
73
17
40
0
40
0
40
0
40
0
40
0.151888845622032
40
0.271949678766863
40
0.364664095686648
40
0.437450216375594
40
0.506906224701021
40
0.582411661105446
40
0.664202507446961
40
0.722484219769885
40
0.742175738980948
40
0.769906063550788
40
0.815821569981666
40
0.879923205188712
40
0.962220908207378
40
1
40
1
40
1
40
1
41
1
10
42.2966518063713
20
-7.03288195575948
30
0
41
1
10
42.607343449626
20
-7.02702887907134
30
0
41
1
10
43.1578094579527
20
-7.01133100305137
30
0
41
1
10
43.8877239192063
20
-6.97730083699594
30
0
41
1
10
44.4427956890979
20
-6.94360423034169
30
0
41
1
10
44.9128218337105
20
-6.90988338749511
30
0
41
1
10
45.3538539352103
20
-6.87436284971628
30
0
41
1
10
45.8087363285289
20
-6.83346363407839
30
0
41
1
10
46.2409886551806
20
-6.79047445210961
30
0
41
1
10
46.5614360687054
20
-6.75589902721541
30
0
41
1
10
46.7734183359445
20
-6.73203571914004
30
0
41
1
10
46.960602098748
20
-6.71042787149756
30
0
41
1
10
47.2368792831555
20
-6.67734603060623
30
0
41
1
10
47.6226043243814
20
-6.62843154977631
30
0
41
1
10
47.9919842287392
20
-6.57910990144802
30
0
41
1
10
48.2327361229066
20
-6.54387363019833
30
0
41
1
10
48.3084779550347
20
-6.53255319368265
30
0
0
SPLINE
5
14A
100
AcDbEntity
8
1
62
256
6
ByLayer
370
18
48
1
60
0
100
AcDbSpline
70
4
71
3
72
17
73
13
40
0
40
0
40
0
40
0
40
0.121726249691746
40
0.248783583260126
40
0.379090817228703
40
0.500413966040055
40
0.609606324107917
40
0.703827126992333
40
0.789300872863287
40
0.874419658417298
40
0.987515964191726
40
1
40
1
40
1
40
1
41
1
10
42.3154144816096
20
5.23617970667155
30
0
41
1
10
42.0427900596164
20
5.31092574443599
30
0
41
1
10
41.4909991327678
20
5.46015388134308
30
0
41
1
10
40.6537344961025
20
5.6808451623362
30
0
41
1
10
39.861578282747
20
5.88118082262162
30
0
41
1
10
39.072447652747
20
6.06329484270299
30
0
41
1
10
38.3593865154618
20
6.21732976998894
30
0
41
1
10
37.7243330497466
20
6.34492204819674
30
0
41
1
10
37.1413564391065
20
6.45396120791585
30
0
41
1
10
36.516929717938
20
6.5620710893877
30
0
41
1
10
36.0548265002044
20
6.63445551862503
30
0
41
1
10
35.7763797096216
20
6.67478731418257
30
0
41
1
10
35.7486770968435
20
6.67876806260753
30
0
0
SPLINE
5
14B
100
AcDbEntity
8
1
62
256
6
ByLayer
370
18
48
1
60
0
100
AcDbSpline
70
4
71
1
72
4
73
2
40
0
40
0
40
1
40
1
41
1
10
41.134611781948
20
4.00198760938039
30
0
41
1
10
41.1346105790591
20
4.00197640649333
30
0
0
LINE
5
77
100
AcDbEntity
8
80
62
256
6
ByLayer
370
18
48
1
60
0
100
AcDbLine
10
0
20
0
30
0
11
-5
21
0
31
0
39
0
210
0
220
0
230
1
0
LINE
5
78
100
AcDbEntity
8
4
62
256
6
ByLayer
370
18
48
0.05
60
0
100
AcDbLine
10
0
20
0
30
0
11
50
21
0
31
0
39
0
210
0
220
0
230
1
0
LINE
5
7A
100
AcDbEntity
8
81
62
256
6
ByLayer
370
18
48
1
60
0
100
AcDbLine
10
50
20
0
30
0
11
55
21
0
31
0
39
0
210
0
220
0
230
1
0
LINE
5
7B
100
AcDbEntity
8
SK4
62
256
6
ByLayer
370
18
48
0.05
60
0
100
AcDbLine
10
-48
20
0
30
0
11
50
21
0
31
0
39
0
210
0
220
0
230
1
0
LINE
5
7D
100
AcDbEntity
8
1
62
256
6
ByLayer
370
18
48
1
60
0
100
AcDbLine
10
0
20
8
30
0
11
0
21
0
31
0
39
0
210
0
220
0
230
1
0
LINE
5
7E
100
AcDbEntity
8
1
62
256
6
ByLayer
370
18
48
1
60
0
100
AcDbLine
10
0
20
0
30
0
11
0
21
-8
31
0
39
0
210
0
220
0
230
1
0
LINE
5
7F
100
AcDbEntity
8
1
62
256
6
ByLayer
370
18
48
1
60
0
100
AcDbLine
10
49.96499
20
-2.446201
30
0
11
49.973227
21
-3.02428
31
0
39
0
210
0
220
0
230
1
0
LINE
5
80
100
AcDbEntity
8
1
62
256
6
ByLayer
370
18
48
1
60
0
100
AcDbLine
10
49.950431
20
-2.345365
30
0
11
49.96499
21
-2.446201
31
0
39
0
210
0
220
0
230
1
0
LINE
5
81
100
AcDbEntity
8
1
62
256
6
ByLayer
370
18
48
1
60
0
100
AcDbLine
10
49.798295
20
-3.2743
30
0
11
49.96499
21
-2.446201
31
0
39
0
210
0
220
0
230
1
0
LINE
5
82
100
AcDbEntity
8
1
62
256
6
ByLayer
370
18
48
1
60
0
100
AcDbLine
10
49.798295
20
-3.2743
30
0
11
49.780973
21
-3.150838
31
0
39
0
210
0
220
0
230
1
0
LINE
5
83
100
AcDbEntity
8
1
62
256
6
ByLayer
370
18
48
1
60
0
100
AcDbLine
10
49.805163
20
-3.765056
30
0
11
49.798295
21
-3.2743
31
0
39
0
210
0
220
0
230
1
0
LINE
5
84
100
AcDbEntity
8
1
62
256
6
ByLayer
370
18
48
1
60
0
100
AcDbLine
10
49.203507
20
-4.289668
30
0
11
49.798295
21
-3.2743
31
0
39
0
210
0
220
0
230
1
0
LINE
5
85
100
AcDbEntity
8
1
62
256
6
ByLayer
370
18
48
1
60
0
100
AcDbLine
10
49.595817
20
-0.09742
30
0
11
49.96499
21
4.028871
31
0
39
0
210
0
220
0
230
1
0
LINE
5
86
100
AcDbEntity
8
1
62
256
6
ByLayer
370
18
48
1
60
0
100
AcDbLine
10
49.96499
20
4.028871
30
0
11
49.973227
21
4.951006
31
0
39
0
210
0
220
0
230
1
0
LINE
5
87
100
AcDbEntity
8
1
62
256
6
ByLayer
370
18
48
1
60
0
100
AcDbLine
10
49.460525
20
-0.073564
30
0
11
49.595817
21
-0.09742
31
0
39
0
210
0
220
0
230
1
0
LINE
5
88
100
AcDbEntity
8
1
62
256
6
ByLayer
370
18
48
1
60
0
100
AcDbLine
10
48.497147
20
-6.104626
30
0
11
49.203507
21
-4.289668
31
0
39
0
210
0
220
0
230
1
0
LINE
5
89
100
AcDbEntity
8
1
62
256
6
ByLayer
370
18
48
1
60
0
100
AcDbLine
10
49.203507
20
-4.289668
30
0
11
49.360692
21
-3.801953
31
0
39
0
210
0
220
0
230
1
0
LINE
5
8A
100
AcDbEntity
8
1
62
256
6
ByLayer
370
18
48
1
60
0
100
AcDbLine
10
48.334171
20
-6.523385
30
0
11
48.37334
21
-6.422742
31
0
39
0
210
0
220
0
230
1
0
LINE
5
8B
100
AcDbEntity
8
1
62
256
6
ByLayer
370
18
48
1
60
0
100
AcDbLine
10
49.360692
20
-3.801953
30
0
11
49.780973
21
-3.150838
31
0
39
0
210
0
220
0
230
1
0
LINE
5
8C
100
AcDbEntity
8
1
62
256
6
ByLayer
370
18
48
1
60
0
100
AcDbLine
10
49.780973
20
-3.150838
30
0
11
49.862667
21
-2.564018
31
0
39
0
210
0
220
0
230
1
0
LINE
5
8D
100
AcDbEntity
8
1
62
256
6
ByLayer
370
18
48
1
60
0
100
AcDbLine
10
45.42037
20
-4.107468
30
0
11
49.360692
21
-3.801953
31
0
39
0
210
0
220
0
230
1
0
LINE
5
8E
100
AcDbEntity
8
1
62
256
6
ByLayer
370
18
48
1
60
0
100
AcDbLine
10
18
20
-7.203721
30
0
11
18
21
-7.680734
31
0
39
0
210
0
220
0
230
1
0
LINE
5
8F
100
AcDbEntity
8
1
62
256
6
ByLayer
370
13
48
1
60
0
100
AcDbLine
10
46.012321
20
-1.461603
30
0
11
44.34907
21
-2.159359
31
0
39
0
210
0
220
0
230
1
0
LINE
5
90
100
AcDbEntity
8
1
62
256
6
ByLayer
370
13
48
1
60
0
100
AcDbLine
10
11.800783
20
-7.143426
30
0
11
18
21
-7.203721
31
0
39
0
210
0
220
0
230
1
0
LINE
5
91
100
AcDbEntity
8
1
62
256
6
ByLayer
370
18
48
1
60
0
100
AcDbLine
10
18
20
-7.203721
30
0
11
18
21
-7.035605
31
0
39
0
210
0
220
0
230
1
0
LINE
5
92
100
AcDbEntity
8
1
62
256
6
ByLayer
370
18
48
1
60
0
100
AcDbLine
10
49.96499
20
-1.823752
30
0
11
49.973227
21
-2.222986
31
0
39
0
210
0
220
0
230
1
0
LINE
5
93
100
AcDbEntity
8
1
62
256
6
ByLayer
370
18
48
1
60
0
100
AcDbLine
10
49.798295
20
-0.876277
30
0
11
49.96499
21
-1.823752
31
0
39
0
210
0
220
0
230
1
0
LINE
5
94
100
AcDbEntity
8
1
62
256
6
ByLayer
370
18
48
1
60
0
100
AcDbLine
10
48.849081
20
0.943323
30
0
11
49.378775
21
0.092305
31
0
39
0
210
0
220
0
230
1
0
LINE
5
95
100
AcDbEntity
8
1
62
256
6
ByLayer
370
18
48
1
60
0
100
AcDbLine
10
49.798295
20
-0.876277
30
0
11
49.757464
21
-0.675923
31
0
39
0
210
0
220
0
230
1
0
LINE
5
96
100
AcDbEntity
8
1
62
256
6
ByLayer
370
18
48
1
60
0
100
AcDbLine
10
49.378775
20
0.092305
30
0
11
49.757464
21
-0.675923
31
0
39
0
210
0
220
0
230
1
0
LINE
5
97
100
AcDbEntity
8
1
62
256
6
ByLayer
370
13
48
1
60
0
100
AcDbLine
10
11.787535
20
-6.975182
30
0
11
18
21
-7.035605
31
0
39
0
210
0
220
0
230
1
0
LINE
5
98
100
AcDbEntity
8
1
62
256
6
ByLayer
370
18
48
1
60
0
100
AcDbLine
10
18
20
-7.035605
30
0
11
18
21
-5.156397
31
0
39
0
210
0
220
0
230
1
0
LINE
5
99
100
AcDbEntity
8
1
62
256
6
ByLayer
370
18
48
1
60
0
100
AcDbLine
10
49.805163
20
-1.214144
30
0
11
49.798295
21
-0.876277
31
0
39
0
210
0
220
0
230
1
0
LINE
5
9A
100
AcDbEntity
8
1
62
256
6
ByLayer
370
18
48
1
60
0
100
AcDbLine
10
48.849081
20
0.943323
30
0
11
49.798295
21
-0.876277
31
0
39
0
210
0
220
0
230
1
0
LINE
5
9B
100
AcDbEntity
8
1
62
256
6
ByLayer
370
18
48
1
60
0
100
AcDbLine
10
48.145253
20
2.017207
30
0
11
48.849081
21
0.943323
31
0
39
0
210
0
220
0
230
1
0
LINE
5
9C
100
AcDbEntity
8
1
62
256
6
ByLayer
370
13
48
1
60
0
100
AcDbLine
10
11.324387
20
6.09339
30
0
11
18
21
2.543101
31
0
39
0
210
0
220
0
230
1
0
LINE
5
9D
100
AcDbEntity
8
1
62
256
6
ByLayer
370
18
48
1
60
0
100
AcDbLine
10
12.460636
20
7.713717
30
0
11
18
21
4.767719
31
0
39
0
210
0
220
0
230
1
0
LINE
5
9E
100
AcDbEntity
8
1
62
256
6
ByLayer
370
18
48
1
60
0
100
AcDbLine
10
48.301587
20
-6.532986
30
0
11
48.309873
21
-6.533183
31
0
39
0
210
0
220
0
230
1
0
LINE
5
9F
100
AcDbEntity
8
1
62
256
6
ByLayer
370
18
48
1
60
0
100
AcDbLine
10
18
20
2.313058
30
0
11
18
21
2.543101
31
0
39
0
210
0
220
0
230
1
0
LINE
5
A0
100
AcDbEntity
8
1
62
256
6
ByLayer
370
13
48
1
60
0
100
AcDbLine
10
11.3404
20
5.854831
30
0
11
18
21
2.313058
31
0
39
0
210
0
220
0
230
1
0
LINE
5
A1
100
AcDbEntity
8
1
62
256
6
ByLayer
370
18
48
1
60
0
100
AcDbLine
10
13.070218
20
-5.108449
30
0
11
18
21
-5.156397
31
0
39
0
210
0
220
0
230
1
0
LINE
5
A2
100
AcDbEntity
8
1
62
256
6
ByLayer
370
18
48
1
60
0
100
AcDbLine
10
18
20
-5.156397
30
0
11
18
21
-3.105752
31
0
39
0
210
0
220
0
230
1
0
LINE
5
A3
100
AcDbEntity
8
1
62
256
6
ByLayer
370
18
48
1
60
0
100
AcDbLine
10
46.944642
20
-1.692297
30
0
11
46.951726
21
-1.125773
31
0
39
0
210
0
220
0
230
1
0
LINE
5
A4
100
AcDbEntity
8
1
62
256
6
ByLayer
370
13
48
1
60
0
100
AcDbLine
10
10.597788
20
-3.033756
30
0
11
18
21
-3.105752
31
0
39
0
210
0
220
0
230
1
0
LINE
5
A5
100
AcDbEntity
8
1
62
256
6
ByLayer
370
18
48
1
60
0
100
AcDbLine
10
18
20
-3.105752
30
0
11
18
21
-1.837086
31
0
39
0
210
0
220
0
230
1
0
LINE
5
A6
100
AcDbEntity
8
1
62
256
6
ByLayer
370
13
48
1
60
0
100
AcDbLine
10
10.184094
20
-1.761067
30
0
11
18
21
-1.837086
31
0
39
0
210
0
220
0
230
1
0
LINE
5
A7
100
AcDbEntity
8
1
62
256
6
ByLayer
370
18
48
1
60
0
100
AcDbLine
10
18
20
0.142751
30
0
11
18
21
-1.837086
31
0
39
0
210
0
220
0
230
1
0
LINE
5
A8
100
AcDbEntity
8
1
62
256
6
ByLayer
370
18
48
1
60
0
100
AcDbLine
10
18
20
2.313058
30
0
11
18
21
2.161572
31
0
39
0
210
0
220
0
230
1
0
LINE
5
A9
100
AcDbEntity
8
1
62
256
6
ByLayer
370
18
48
1
60
0
100
AcDbLine
10
18
20
5.066815
30
0
11
18
21
4.786079
31
0
39
0
210
0
220
0
230
1
0
LINE
5
AA
100
AcDbEntity
8
SK1
62
256
6
ByLayer
370
18
48
1
60
0
100
AcDbLine
10
-48
20
-7.2
30
0
11
-48
21
7.2
31
0
39
0
210
0
220
0
230
1
0
LINE
5
AC
100
AcDbEntity
8
SK1
62
256
6
ByLayer
370
18
48
1
60
0
100
AcDbLine
10
0
20
8
30
0
11
0
21
0
31
0
39
0
210
0
220
0
230
1
0
LINE
5
AD
100
AcDbEntity
8
SK1
62
256
6
ByLayer
370
18
48
1
60
0
100
AcDbLine
10
0
20
0
30
0
11
0
21
-8
31
0
39
0
210
0
220
0
230
1
0
LINE
5
AE
100
AcDbEntity
8
SK1
62
256
6
ByLayer
370
18
48
1
60
0
100
AcDbLine
10
-47.2
20
8
30
0
11
-47.2
21
-8
31
0
39
0
210
0
220
0
230
1
0
LINE
5
AF
100
AcDbEntity
8
SK1
62
256
6
ByLayer
370
18
48
1
60
0
100
AcDbLine
10
-29
20
6.2
30
0
11
-30.8
21
8
31
0
39
0
210
0
220
0
230
1
0
LINE
5
B0
100
AcDbEntity
8
SK1
62
256
6
ByLayer
370
18
48
1
60
0
100
AcDbLine
10
-17.2
20
8
30
0
11
-19
21
6.2
31
0
39
0
210
0
220
0
230
1
0
LINE
5
B1
100
AcDbEntity
8
SK1
62
256
6
ByLayer
370
18
48
1
60
0
100
AcDbLine
10
-29
20
6.2
30
0
11
-19
21
6.2
31
0
39
0
210
0
220
0
230
1
0
LINE
5
B2
100
AcDbEntity
8
1
62
256
6
ByLayer
370
18
48
1
60
0
100
AcDbLine
10
11.574535
20
8
30
0
11
0
21
8
31
0
39
0
210
0
220
0
230
1
0
LINE
5
B3
100
AcDbEntity
8
1
62
256
6
ByLayer
370
18
48
1
60
0
100
AcDbLine
10
0
20
-8
30
0
11
16.067448
21
-8
31
0
39
0
210
0
220
0
230
1
0
LINE
5
B4
100
AcDbEntity
8
1
62
256
6
ByLayer
370
18
48
1
60
0
100
AcDbLine
10
18.009975
20
4.780771
30
0
11
12.275732
21
7.830411
31
0
39
0
210
0
220
0
230
1
0
LINE
5
B5
100
AcDbEntity
8
SK1
62
256
6
ByLayer
370
18
48
1
60
0
100
AcDbLine
10
-48
20
-7.2
30
0
11
-47.2
21
-8
31
0
39
0
210
0
220
0
230
1
0
LINE
5
B6
100
AcDbEntity
8
SK1
62
256
6
ByLayer
370
18
48
1
60
0
100
AcDbLine
10
-47.2
20
8
30
0
11
-48
21
7.2
31
0
39
0
210
0
220
0
230
1
0
LINE
5
B7
100
AcDbEntity
8
SK1
62
256
6
ByLayer
370
18
48
1
60
0
100
AcDbLine
10
0
20
8
30
0
11
-17.2
21
8
31
0
39
0
210
0
220
0
230
1
0
LINE
5
B8
100
AcDbEntity
8
SK1
62
256
6
ByLayer
370
18
48
1
60
0
100
AcDbLine
10
-30.8
20
8
30
0
11
-47.2
21
8
31
0
39
0
210
0
220
0
230
1
0
LINE
5
B9
100
AcDbEntity
8
SK1
62
256
6
ByLayer
370
18
48
1
60
0
100
AcDbLine
10
-47.2
20
-8
30
0
11
0
21
-8
31
0
39
0
210
0
220
0
230
1
0
LINE
5
BA
100
AcDbEntity
8
SK2
62
256
6
ByLayer
370
18
48
1
60
0
100
AcDbLine
10
-55.45
20
8
30
0
11
-55.45
21
-26.056066
31
0
39
0
210
0
220
0
230
1
0
LINE
5
BC
100
AcDbEntity
8
SK2
62
256
6
ByLayer
370
18
48
1
60
0
100
AcDbLine
10
-48.7875
20
8
30
0
11
-57.45
21
8
31
0
39
0
210
0
220
0
230
1
0
LINE
5
BD
100
AcDbEntity
8
SK2
62
256
6
ByLayer
370
18
48
1
60
0
100
AcDbLine
10
-48.7875
20
-8
30
0
11
-57.45
21
-8
31
0
39
0
210
0
220
0
230
1
0
LINE
5
BE
100
AcDbEntity
8
1
62
256
6
ByLayer
370
18
48
1
60
1
100
AcDbLine
10
-55.45
20
8
30
0
11
-54.989216
21
4.500002
31
0
39
0
210
0
220
0
230
1
0
LINE
5
BF
100
AcDbEntity
8
1
62
256
6
ByLayer
370
18
48
1
60
1
100
AcDbLine
10
-54.989216
20
4.500002
30
0
11
-55.910784
21
4.499998
31
0
39
0
210
0
220
0
230
1
0
LINE
5
C0
100
AcDbEntity
8
1
62
256
6
ByLayer
370
18
48
1
60
1
100
AcDbLine
10
-55.910784
20
4.499998
30
0
11
-55.45
21
8
31
0
39
0
210
0
220
0
230
1
0
LINE
5
C1
100
AcDbEntity
8
1
62
256
6
ByLayer
370
18
48
1
60
1
100
AcDbLine
10
-55.45
20
-8
30
0
11
-55.910784
21
-4.500002
31
0
39
0
210
0
220
0
230
1
0
LINE
5
C2
100
AcDbEntity
8
1
62
256
6
ByLayer
370
18
48
1
60
1
100
AcDbLine
10
-55.910784
20
-4.500002
30
0
11
-54.989216
21
-4.499998
31
0
39
0
210
0
220
0
230
1
0
LINE
5
C3
100
AcDbEntity
8
1
62
256
6
ByLayer
370
18
48
1
60
1
100
AcDbLine
10
-54.989216
20
-4.499998
30
0
11
-55.45
21
-8
31
0
39
0
210
0
220
0
230
1
0
LINE
5
C4
100
AcDbEntity
8
2
62
256
6
ByLayer
370
18
48
1
60
0
100
AcDbLine
10
62
20
-8.0001
30
0
11
62
21
26.056166
31
0
39
0
210
0
220
0
230
1
0
LINE
5
C6
100
AcDbEntity
8
2
62
256
6
ByLayer
370
18
48
1
60
0
100
AcDbLine
10
51.5875
20
8.0001
30
0
11
64
21
8.0001
31
0
39
0
210
0
220
0
230
1
0
LINE
5
C7
100
AcDbEntity
8
2
62
256
6
ByLayer
370
18
48
1
60
0
100
AcDbLine
10
51.5875
20
-8.0001
30
0
11
64
21
-8.0001
31
0
39
0
210
0
220
0
230
1
0
LINE
5
C8
100
AcDbEntity
8
1
62
256
6
ByLayer
370
18
48
1
60
1
100
AcDbLine
10
62
20
8.0001
30
0
11
62.460784
21
4.500102
31
0
39
0
210
0
220
0
230
1
0
LINE
5
C9
100
AcDbEntity
8
1
62
256
6
ByLayer
370
18
48
1
60
1
100
AcDbLine
10
62.460784
20
4.500102
30
0
11
61.539216
21
4.500098
31
0
39
0
210
0
220
0
230
1
0
LINE
5
CA
100
AcDbEntity
8
1
62
256
6
ByLayer
370
18
48
1
60
1
100
AcDbLine
10
61.539216
20
4.500098
30
0
11
62
21
8.0001
31
0
39
0
210
0
220
0
230
1
0
LINE
5
CB
100
AcDbEntity
8
1
62
256
6
ByLayer
370
18
48
1
60
1
100
AcDbLine
10
62
20
-8.0001
30
0
11
61.539216
21
-4.500102
31
0
39
0
210
0
220
0
230
1
0
LINE
5
CC
100
AcDbEntity
8
1
62
256
6
ByLayer
370
18
48
1
60
1
100
AcDbLine
10
61.539216
20
-4.500102
30
0
11
62.460784
21
-4.500098
31
0
39
0
210
0
220
0
230
1
0
LINE
5
CD
100
AcDbEntity
8
1
62
256
6
ByLayer
370
18
48
1
60
1
100
AcDbLine
10
62.460784
20
-4.500098
30
0
11
62
21
-8.0001
31
0
39
0
210
0
220
0
230
1
0
LINE
5
CE
100
AcDbEntity
8
SK2
62
256
6
ByLayer
370
18
48
1
60
0
100
AcDbLine
10
50
20
-39.529343
30
0
11
-48
21
-39.529343
31
0
39
0
210
0
220
0
230
1
0
LINE
5
CF
100
AcDbEntity
8
SK2
62
256
6
ByLayer
370
18
48
1
60
0
100
AcDbLine
10
-48
20
-8.7875
30
0
11
-48
21
-41.529343
31
0
39
0
210
0
220
0
230
1
0
LINE
5
D0
100
AcDbEntity
8
SK2
62
256
6
ByLayer
370
18
48
1
60
0
100
AcDbLine
10
50
20
-9.5876
30
0
11
50
21
-41.529343
31
0
39
0
210
0
220
0
230
1
0
LINE
5
D1
100
AcDbEntity
8
1
62
256
6
ByLayer
370
18
48
1
60
1
100
AcDbLine
10
-48
20
-39.529343
30
0
11
-44.500002
21
-39.068559
31
0
39
0
210
0
220
0
230
1
0
LINE
5
D2
100
AcDbEntity
8
1
62
256
6
ByLayer
370
18
48
1
60
1
100
AcDbLine
10
-44.500002
20
-39.068559
30
0
11
-44.499998
21
-39.990127
31
0
39
0
210
0
220
0
230
1
0
LINE
5
D3
100
AcDbEntity
8
1
62
256
6
ByLayer
370
18
48
1
60
1
100
AcDbLine
10
-44.499998
20
-39.990127
30
0
11
-48
21
-39.529343
31
0
39
0
210
0
220
0
230
1
0
LINE
5
D4
100
AcDbEntity
8
1
62
256
6
ByLayer
370
18
48
1
60
1
100
AcDbLine
10
50
20
-39.529343
30
0
11
46.500002
21
-39.990127
31
0
39
0
210
0
220
0
230
1
0
LINE
5
D5
100
AcDbEntity
8
1
62
256
6
ByLayer
370
18
48
1
60
1
100
AcDbLine
10
46.500002
20
-39.990127
30
0
11
46.499998
21
-39.068559
31
0
39
0
210
0
220
0
230
1
0
LINE
5
D6
100
AcDbEntity
8
1
62
256
6
ByLayer
370
18
48
1
60
1
100
AcDbLine
10
46.499998
20
-39.068559
30
0
11
50
21
-39.529343
31
0
39
0
210
0
220
0
230
1
0
LINE
5
150
100
AcDbEntity
8
1
62
256
6
ByLayer
370
18
48
1
60
1
100
AcDbLine
10
-55.45
20
8
30
0
11
-54.989216
21
4.500002
31
0
39
0
210
0
220
0
230
1
0
LINE
5
151
100
AcDbEntity
8
1
62
256
6
ByLayer
370
18
48
1
60
1
100
AcDbLine
10
-54.989216
20
4.500002
30
0
11
-55.910784
21
4.499998
31
0
39
0
210
0
220
0
230
1
0
LINE
5
152
100
AcDbEntity
8
1
62
256
6
ByLayer
370
18
48
1
60
1
100
AcDbLine
10
-55.910784
20
4.499998
30
0
11
-55.45
21
8
31
0
39
0
210
0
220
0
230
1
0
LINE
5
154
100
AcDbEntity
8
1
62
256
6
ByLayer
370
18
48
1
60
1
100
AcDbLine
10
-55.45
20
-8
30
0
11
-55.910784
21
-4.500002
31
0
39
0
210
0
220
0
230
1
0
LINE
5
155
100
AcDbEntity
8
1
62
256
6
ByLayer
370
18
48
1
60
1
100
AcDbLine
10
-55.910784
20
-4.500002
30
0
11
-54.989216
21
-4.499998
31
0
39
0
210
0
220
0
230
1
0
LINE
5
156
100
AcDbEntity
8
1
62
256
6
ByLayer
370
18
48
1
60
1
100
AcDbLine
10
-54.989216
20
-4.499998
30
0
11
-55.45
21
-8
31
0
39
0
210
0
220
0
230
1
0
LINE
5
15A
100
AcDbEntity
8
1
62
256
6
ByLayer
370
18
48
1
60
1
100
AcDbLine
10
62
20
8.0001
30
0
11
62.460784
21
4.500102
31
0
39
0
210
0
220
0
230
1
0
LINE
5
15B
100
AcDbEntity
8
1
62
256
6
ByLayer
370
18
48
1
60
1
100
AcDbLine
10
62.460784
20
4.500102
30
0
11
61.539216
21
4.500098
31
0
39
0
210
0
220
0
230
1
0
LINE
5
15C
100
AcDbEntity
8
1
62
256
6
ByLayer
370
18
48
1
60
1
100
AcDbLine
10
61.539216
20
4.500098
30
0
11
62
21
8.0001
31
0
39
0
210
0
220
0
230
1
0
LINE
5
15E
100
AcDbEntity
8
1
62
256
6
ByLayer
370
18
48
1
60
1
100
AcDbLine
10
62
20
-8.0001
30
0
11
61.539216
21
-4.500102
31
0
39
0
210
0
220
0
230
1
0
LINE
5
15F
100
AcDbEntity
8
1
62
256
6
ByLayer
370
18
48
1
60
1
100
AcDbLine
10
61.539216
20
-4.500102
30
0
11
62.460784
21
-4.500098
31
0
39
0
210
0
220
0
230
1
0
LINE
5
160
100
AcDbEntity
8
1
62
256
6
ByLayer
370
18
48
1
60
1
100
AcDbLine
10
62.460784
20
-4.500098
30
0
11
62
21
-8.0001
31
0
39
0
210
0
220
0
230
1
0
LINE
5
163
100
AcDbEntity
8
1
62
256
6
ByLayer
370
18
48
1
60
1
100
AcDbLine
10
-48
20
-39.529343
30
0
11
-44.500002
21
-39.068559
31
0
39
0
210
0
220
0
230
1
0
LINE
5
164
100
AcDbEntity
8
1
62
256
6
ByLayer
370
18
48
1
60
1
100
AcDbLine
10
-44.500002
20
-39.068559
30
0
11
-44.499998
21
-39.990127
31
0
39
0
210
0
220
0
230
1
0
LINE
5
165
100
AcDbEntity
8
1
62
256
6
ByLayer
370
18
48
1
60
1
100
AcDbLine
10
-44.499998
20
-39.990127
30
0
11
-48
21
-39.529343
31
0
39
0
210
0
220
0
230
1
0
LINE
5
167
100
AcDbEntity
8
1
62
256
6
ByLayer
370
18
48
1
60
1
100
AcDbLine
10
50
20
-39.529343
30
0
11
46.500002
21
-39.990127
31
0
39
0
210
0
220
0
230
1
0
LINE
5
168
100
AcDbEntity
8
1
62
256
6
ByLayer
370
18
48
1
60
1
100
AcDbLine
10
46.500002
20
-39.990127
30
0
11
46.499998
21
-39.068559
31
0
39
0
210
0
220
0
230
1
0
LINE
5
169
100
AcDbEntity
8
1
62
256
6
ByLayer
370
18
48
1
60
1
100
AcDbLine
10
46.499998
20
-39.068559
30
0
11
50
21
-39.529343
31
0
39
0
210
0
220
0
230
1
0
MTEXT
5
14C
100
AcDbEntity
8
SK2
62
256
6
ByLayer
370
18
48
1
60
0
100
AcDbMText
10
-57.014634
20
-24.121222
30
0
210
0
220
0
230
1
1
%%c
40
3.5
41
0
44
1.084337
50
90
71
7
72
5
7
iso_b_vert
0
MTEXT
5
14F
100
AcDbEntity
8
SK2
62
256
6
ByLayer
370
18
48
1
60
0
100
AcDbMText
10
-57.014634
20
-17.148566
30
0
210
0
220
0
230
1
1
\W0.5321;16
40
3.5
41
0
44
1.084337
50
90
71
7
72
5
7
iso_b_vert
0
MTEXT
5
158
100
AcDbEntity
8
2
62
256
6
ByLayer
370
18
48
1
60
0
100
AcDbMText
10
60.435366
20
15.934944
30
0
210
0
220
0
230
1
1
%%c
40
3.5
41
0
44
1.084337
50
90
71
7
72
5
7
iso_b_vert
0
MTEXT
5
159
100
AcDbEntity
8
2
62
256
6
ByLayer
370
18
48
1
60
0
100
AcDbMText
10
60.435366
20
22.9076
30
0
210
0
220
0
230
1
1
\W0.5321;16
40
3.5
41
0
44
1.084337
50
90
71
7
72
5
7
iso_b_vert
0
MTEXT
5
162
100
AcDbEntity
8
SK2
62
256
6
ByLayer
370
18
48
1
60
0
100
AcDbMText
10
-0.904966
20
-38.496709
30
0
210
0
220
0
230
1
1
\W0.6740;98
40
3.5
41
0
44
1.084337
50
0
71
7
72
5
7
iso_b_vert
0
MTEXT
5
16B
100
AcDbEntity
8
SK6
62
256
6
ByLayer
370
18
48
1
60
0
100
AcDbMText
10
-24.041517
20
-62.228976
30
0
210
0
220
0
230
1
1
\W0.7025;1K233-1600-300-NB   H10F
40
3
41
0
44
1.084337
50
0
71
7
72
5
7
iso_b_vert
0
HATCH
5
153
100
AcDbEntity
8
SK2
62
256
6
ByLayer
370
13
48
1
60
0
100
AcDbHatch
10
0
20
0
30
0
210
0
220
0
230
1
2
ANSI31
70
0
71
0
91
1
92
5
93
3
72
1
10
-55.45
20
7.99999999999994
11
-54.9892162584472
21
4.50000169255313
72
1
10
-54.9892162584472
20
4.50000169255313
11
-55.9107837415528
21
4.49999830744676
72
1
10
-55.9107837415528
20
4.49999830744676
11
-55.45
21
7.99999999999994
97
0
75
0
76
1
52
0
41
0.0062
77
0
78
1
53
45
43
0
44
0
45
-0.0139193969876572
46
0.0139193969876572
79
0
47
0
98
1
10
0
20
0
0
HATCH
5
157
100
AcDbEntity
8
SK2
62
256
6
ByLayer
370
13
48
1
60
0
100
AcDbHatch
10
0
20
0
30
0
210
0
220
0
230
1
2
ANSI31
70
0
71
0
91
1
92
5
93
3
72
1
10
-55.45
20
-8.00000000000006
11
-55.9107837415528
21
-4.50000169255324
72
1
10
-55.9107837415528
20
-4.50000169255324
11
-54.9892162584472
21
-4.49999830744687
72
1
10
-54.9892162584472
20
-4.49999830744687
11
-55.45
21
-8.00000000000006
97
0
75
0
76
1
52
0
41
0.0062
77
0
78
1
53
45
43
0
44
0
45
-0.0139193969876572
46
0.0139193969876572
79
0
47
0
98
1
10
0
20
0
0
HATCH
5
15D
100
AcDbEntity
8
2
62
256
6
ByLayer
370
13
48
1
60
0
100
AcDbHatch
10
0
20
0
30
0
210
0
220
0
230
1
2
ANSI31
70
0
71
0
91
1
92
5
93
3
72
1
10
62
20
8.0000999999998
11
62.4607837415528
21
4.50010169255299
72
1
10
62.4607837415528
20
4.50010169255299
11
61.5392162584472
21
4.50009830744662
72
1
10
61.5392162584472
20
4.50009830744662
11
62
21
8.0000999999998
97
0
75
0
76
1
52
0
41
0.0062
77
0
78
1
53
45
43
0
44
0
45
-0.0139193969876572
46
0.0139193969876572
79
0
47
0
98
1
10
0
20
0
0
HATCH
5
161
100
AcDbEntity
8
2
62
256
6
ByLayer
370
13
48
1
60
0
100
AcDbHatch
10
0
20
0
30
0
210
0
220
0
230
1
2
ANSI31
70
0
71
0
91
1
92
5
93
3
72
1
10
62
20
-8.00010000000017
11
61.5392162584472
21
-4.50010169255336
72
1
10
61.5392162584472
20
-4.50010169255336
11
62.4607837415528
21
-4.50009830744699
72
1
10
62.4607837415528
20
-4.50009830744699
11
62
21
-8.00010000000017
97
0
75
0
76
1
52
0
41
0.0062
77
0
78
1
53
45
43
0
44
0
45
-0.0139193969876572
46
0.0139193969876572
79
0
47
0
98
1
10
0
20
0
0
HATCH
5
166
100
AcDbEntity
8
SK2
62
256
6
ByLayer
370
13
48
1
60
0
100
AcDbHatch
10
0
20
0
30
0
210
0
220
0
230
1
2
ANSI31
70
0
71
0
91
1
92
5
93
3
72
1
10
-48
20
-39.5293428123505
11
-44.5000016925532
21
-39.0685590707977
72
1
10
-44.5000016925532
20
-39.0685590707977
11
-44.4999983074468
21
-39.9901265539032
72
1
10
-44.4999983074468
20
-39.9901265539032
11
-48
21
-39.5293428123505
97
0
75
0
76
1
52
0
41
0.0062
77
0
78
1
53
45
43
0
44
0
45
-0.0139193969876572
46
0.0139193969876572
79
0
47
0
98
1
10
0
20
0
0
HATCH
5
16A
100
AcDbEntity
8
SK2
62
256
6
ByLayer
370
13
48
1
60
0
100
AcDbHatch
10
0
20
0
30
0
210
0
220
0
230
1
2
ANSI31
70
0
71
0
91
1
92
5
93
3
72
1
10
50
20
-39.5293428123505
11
46.5000016925532
21
-39.9901265539032
72
1
10
46.5000016925532
20
-39.9901265539032
11
46.4999983074468
21
-39.0685590707977
72
1
10
46.4999983074468
20
-39.0685590707977
11
50
21
-39.5293428123505
97
0
75
0
76
1
52
0
41
0.0062
77
0
78
1
53
45
43
0
44
0
45
-0.0139193969876572
46
0.0139193969876572
79
0
47
0
98
1
10
0
20
0
0
DIMENSION
5
16E
100
AcDbEntity
8
2
62
256
6
ByLayer
370
18
48
1
60
0
100
AcDbDimension
2
_U0
10
18
20
-23.529343
30
0
11
34
21
-23.529343
31
0
70
32
71
1
72
1
41
1
210
0
220
0
230
1
3
Standard
100
AcDbAlignedDimension
13
50
23
-8.0001
33
0
14
18
24
-8.0001
34
0
50
0
100
AcDbRotatedDimension
1001
ACAD
1000
DSTYLE
1002
{
1070
   371
1070
    13
1070
   372
1070
    13
1070
   170
1070
     0
1070
   144
1040
1.0
1070
   277
1070
     2
1070
   284
1070
     8
1070
   278
1070
    46
1070
   146
1040
1.0
1070
   345
1005
16
1070
   347
1005
16
1070
   346
1005
16
1070
   344
1005
0
1070
   343
1005
0
1070
   172
1070
     1
1070
    76
1070
     0
1070
    75
1070
     0
1070
   282
1070
     0
1070
   281
1070
     0
1070
    71
1070
     0
1070
    74
1070
     0
1070
   279
1070
     0
1070
   173
1070
     1
1070
   340
1005
14D
1070
   271
1070
     2
1070
   272
1070
     2
1070
    77
1070
     1
1070
    73
1070
     1
1070
   171
1070
     3
1070
   274
1070
     4
1070
   177
1070
     2
1070
   176
1070
     2
1070
   178
1070
     2
1070
    78
1070
     8
1070
    48
1040
-0.1
1070
    41
1040
3.5
1070
   147
1040
1.75
1070
    42
1040
1.5875
1070
    44
1040
2.0
1070
   140
1040
3.5
1002
}
1001
ACAD_DSTYLE_DIM_LINETYPE
1070
   380
1005
16
1001
ACAD_DSTYLE_DIM_EXT1_LINETYPE
1070
   381
1005
16
1001
ACAD_DSTYLE_DIM_EXT2_LINETYPE
1070
   382
1005
16
0
ENDSEC
0
SECTION
2
OBJECTS
0
DICTIONARY
5
1f7
330
0
100
AcDbDictionary
280
0
281
1
3
ACAD_GROUP
350
1f8
3
ACAD_MLINESTYLE
350
1f9
0
DICTIONARY
5
1f8
330
0
100
AcDbDictionary
280
0
281
1
0
DICTIONARY
5
1f9
330
0
100
AcDbDictionary
280
0
281
1
3
Standard
350
18
0
MLINESTYLE
5
18
330
1f9
100
AcDbMlineStyle
2
Standard
70
0
3

62
256
51
90
52
90
71
2
49
-0.5
62
256
6
ByLayer
49
0.5
62
256
6
ByLayer
0
RASTERVARIABLES
5
1e5
330

100
AcDbRasterVariables
90
0
70
1
71
1
72
1
0
ENDSEC
0
EOF
