0
SECTION
2
HEADER
9
$ACADVER
1
AC1015
9
$DWGCODEPAGE
3
ANSI_1252
9
$HANDSEED
5
204
9
$ANGBASE
50
0
9
$ANGDIR
70
0
9
$ATTMODE
70
1
9
$AUNITS
70
0
9
$AUPREC
70
0
9
$CECOLOR
62
256
9
$CELTSCALE
40
1
9
$CELTYPE
6
ByLayer
9
$CELWEIGHT
370
18
9
$CLAYER
8
0
9
$CMLJUST
70
0
9
$CMLSCALE
40
1
9
$CMLSTYLE
2
Standard
9
$DIMSTYLE
2
Standard
9
$TEXTSIZE
40
0.2
9
$TEXTSTYLE
7
Standard
9
$LUNITS
70
2
9
$LUPREC
70
4
9
$EXTNAMES
290
1
9
$INSUNITS
70
4
9
$LTSCALE
40
1
9
$LWDISPLAY
290
1
9
$PDMODE
70
0
9
$PDSIZE
40
0
9
$PLINEGEN
70
0
0
ENDSEC
0
SECTION
2
CLASSES
0
CLASS
1
RASTERVARIABLES
2
AcDbRasterVariables
3
ISM
90
0
280
0
281
0
0
ENDSEC
0
SECTION
2
TABLES
0
TABLE
2
VPORT
5
1fa
100
AcDbSymbolTable
0
VPORT
5
1
100
AcDbSymbolTableRecord
100
AcDbViewportTableRecord
2
*Active
70
0
10
0
20
0
11
1
21
1
12
-1
22
1
13
0
23
0
14
0.5
24
0.5
15
10
25
10
16
0
26
0
36
1
17
0
27
0
37
0
0
ENDTAB
0
TABLE
2
LTYPE
5
1fb
100
AcDbSymbolTable
0
LTYPE
5
14
100
AcDbSymbolTableRecord
100
AcDbLinetypeTableRecord
70
0
2
ByBlock
3

72
65
73
0
40
0
0
LTYPE
5
15
100
AcDbSymbolTableRecord
100
AcDbLinetypeTableRecord
70
0
2
ByLayer
3

72
65
73
0
40
0
0
LTYPE
5
16
100
AcDbSymbolTableRecord
100
AcDbLinetypeTableRecord
70
0
2
Continuous
3
Solid line
72
65
73
0
40
0
0
LTYPE
5
6E
100
AcDbSymbolTableRecord
100
AcDbLinetypeTableRecord
70
0
2
CENTER
3
____ _ ____ _ ____ _ ____
72
65
73
4
40
47.5
49
22
74
0
49
-8.5
74
0
49
8.5
74
0
49
-8.5
74
0
0
LTYPE
5
6F
100
AcDbSymbolTableRecord
100
AcDbLinetypeTableRecord
70
0
2
DASHED
3
__ __ __ __ __ __ __ __ __
72
65
73
2
40
25.72
49
12.86
74
0
49
-12.86
74
0
0
ENDTAB
0
TABLE
2
LAYER
5
1fc
100
AcDbSymbolTable
0
LAYER
5
10
100
AcDbSymbolTableRecord
100
AcDbLayerTableRecord
2
0
70
0
62
7
6
Continuous
290
1
370
-3
390
0
0
LAYER
5
71
100
AcDbSymbolTableRecord
100
AcDbLayerTableRecord
2
81
70
0
62
-3
6
Continuous
290
1
370
-3
390
0
0
LAYER
5
73
100
AcDbSymbolTableRecord
100
AcDbLayerTableRecord
2
80
70
0
62
-6
6
Continuous
290
1
370
-3
390
0
0
LAYER
5
75
100
AcDbSymbolTableRecord
100
AcDbLayerTableRecord
2
1
70
0
62
4
6
Continuous
290
1
370
-3
390
0
0
LAYER
5
79
100
AcDbSymbolTableRecord
100
AcDbLayerTableRecord
2
4
70
0
62
-2
6
CENTER
290
1
370
-3
390
0
0
LAYER
5
C0
100
AcDbSymbolTableRecord
100
AcDbLayerTableRecord
2
2
70
0
62
7
6
Continuous
290
1
370
-3
390
0
0
LAYER
5
171
100
AcDbSymbolTableRecord
100
AcDbLayerTableRecord
2
Defpoints
70
0
62
7
6
Continuous
290
0
370
-3
390
0
0
LAYER
5
1e6
100
AcDbSymbolTableRecord
100
AcDbLayerTableRecord
2
SK4
70
0
62
2
6
CENTER
290
1
370
-3
390
0
0
LAYER
5
1e7
100
AcDbSymbolTableRecord
100
AcDbLayerTableRecord
2
SK1
70
0
62
4
6
Continuous
290
1
370
-3
390
0
0
LAYER
5
1e8
100
AcDbSymbolTableRecord
100
AcDbLayerTableRecord
2
SK2
70
0
62
7
6
Continuous
290
1
370
-3
390
0
0
LAYER
5
1e9
100
AcDbSymbolTableRecord
100
AcDbLayerTableRecord
2
SK6
70
0
62
5
6
Continuous
290
1
370
-3
390
0
0
ENDTAB
0
TABLE
2
STYLE
5
1fd
100
AcDbSymbolTable
0
STYLE
5
11
100
AcDbSymbolTableRecord
100
AcDbTextStyleTableRecord
2
Standard
3
txt
70
0
71
0
40
0
41
1
42
0
50
0
0
STYLE
5
14D
100
AcDbSymbolTableRecord
100
AcDbTextStyleTableRecord
2
iso_b_vert
3
simplex.shx
70
0
71
0
40
0
41
1
42
0
50
0
0
STYLE
5
14E
100
AcDbSymbolTableRecord
100
AcDbTextStyleTableRecord
2
DWGDirectTextStyle
3
simplex
70
0
71
0
40
0
41
1
42
0
50
0
0
ENDTAB
0
TABLE
2
DIMSTYLE
5
1fe
100
AcDbSymbolTable
100
AcDbDimStyleTable
0
DIMSTYLE
105
27
100
AcDbSymbolTableRecord
100
AcDbDimStyleTableRecord
2
Standard
70
0
3
<>
41
0.18
42
0.0625
44
0.18
140
0.18
147
0.09
73
0
74
0
77
1
271
2
275
0
278
52
280
0
340
11
0
ENDTAB
0
TABLE
2
VIEW
5
1ff
100
AcDbSymbolTable
0
ENDTAB
0
TABLE
2
UCS
5
200
100
AcDbSymbolTable
0
ENDTAB
0
TABLE
2
APPID
5
201
100
AcDbSymbolTable
0
APPID
5
12
100
AcDbSymbolTableRecord
100
AcDbRegAppTableRecord
2
ACAD
70
0
0
APPID
5
16D
100
AcDbSymbolTableRecord
100
AcDbRegAppTableRecord
2
ACAD_DSTYLE_DIMBREAK
70
0
0
APPID
5
1A5
100
AcDbSymbolTableRecord
100
AcDbRegAppTableRecord
2
ACAD_DSTYLE_DIM_LINETYPE
70
0
0
APPID
5
1A6
100
AcDbSymbolTableRecord
100
AcDbRegAppTableRecord
2
ACAD_DSTYLE_DIM_EXT1_LINETYPE
70
0
0
APPID
5
1A7
100
AcDbSymbolTableRecord
100
AcDbRegAppTableRecord
2
ACAD_DSTYLE_DIM_EXT2_LINETYPE
70
0
0
APPID
5
1E2
100
AcDbSymbolTableRecord
100
AcDbRegAppTableRecord
2
ACAD_MLEADERVER
70
0
0
ENDTAB
0
TABLE
2
BLOCK_RECORD
5
202
100
AcDbSymbolTable
0
BLOCK_RECORD
5
1F
100
AcDbSymbolTableRecord
100
AcDbBlockTableRecord
2
*Model_Space
340
0
70
0
0
BLOCK_RECORD
5
1B
100
AcDbSymbolTableRecord
100
AcDbBlockTableRecord
2
*Paper_Space
340
0
70
0
0
BLOCK_RECORD
5
23
100
AcDbSymbolTableRecord
100
AcDbBlockTableRecord
2
*Paper_Space0
340
0
70
0
0
BLOCK_RECORD
5
172
100
AcDbSymbolTableRecord
100
AcDbBlockTableRecord
2
*D1
340
0
70
0
0
BLOCK_RECORD
5
17E
100
AcDbSymbolTableRecord
100
AcDbBlockTableRecord
2
_U0
340
0
70
0
0
ENDTAB
0
ENDSEC
0
SECTION
2
BLOCKS
0
BLOCK
5
20
100
AcDbEntity
8
0
100
AcDbBlockBegin
2
*Model_Space
70
0
10
0
20
0
30
0
3
*Model_Space
0
ENDBLK
5
21
100
AcDbEntity
8
0
100
AcDbBlockEnd
0
BLOCK
5
1C
100
AcDbEntity
8
0
100
AcDbBlockBegin
2
*Paper_Space
70
0
10
0
20
0
30
0
3
*Paper_Space
0
ENDBLK
5
1D
100
AcDbEntity
8
0
100
AcDbBlockEnd
0
BLOCK
5
24
100
AcDbEntity
8
0
100
AcDbBlockBegin
2
*Paper_Space0
70
0
10
0
20
0
30
0
3
*Paper_Space0
0
ENDBLK
5
25
100
AcDbEntity
8
0
100
AcDbBlockEnd
0
BLOCK
5
173
100
AcDbEntity
8
0
100
AcDbBlockBegin
2
*D1
70
1
10
0
20
0
30
0
3
*D1
0
LINE
5
175
100
AcDbEntity
8
0
62
256
6
ByLayer
370
-2
48
1
60
0
100
AcDbLine
10
38
20
-7.5876
30
0
11
38
21
-23.10012
31
0
39
0
210
0
220
0
230
1
0
LINE
5
176
100
AcDbEntity
8
0
62
256
6
ByLayer
370
-2
48
1
60
0
100
AcDbLine
10
12
20
-7.5876
30
0
11
12
21
-23.10012
31
0
39
0
210
0
220
0
230
1
0
LINE
5
177
100
AcDbEntity
8
0
62
256
6
ByLayer
370
-2
48
1
60
0
100
AcDbLine
10
34.5
20
-21.10012
30
0
11
15.5
21
-21.10012
31
0
39
0
210
0
220
0
230
1
0
SOLID
5
178
100
AcDbEntity
8
0
62
256
6
ByLayer
370
-1
48
1
60
0
100
AcDbTrace
10
34.5
20
-21.683454
30
0
11
34.5
21
-20.516787
31
0
12
38
22
-21.10012
32
0
13
38
23
-21.10012
33
0
39
0
210
0
220
0
230
1
0
SOLID
5
179
100
AcDbEntity
8
0
62
256
6
ByLayer
370
-1
48
1
60
0
100
AcDbTrace
10
15.5
20
-20.516787
30
0
11
15.5
21
-21.683454
31
0
12
12
22
-21.10012
32
0
13
12
23
-21.10012
33
0
39
0
210
0
220
0
230
1
0
MTEXT
5
17A
100
AcDbEntity
8
0
62
256
6
ByLayer
370
18
48
1
60
0
100
AcDbMText
10
25
20
-14.10012
30
0
210
0
220
0
230
1
1
\A1;26
40
3.5
41
0
44
1
50
0
71
5
72
5
7
iso_b_vert
0
POINT
5
17B
100
AcDbEntity
8
Defpoints
62
0
6
ByLayer
370
-1
48
1
60
0
100
AcDbPoint
10
38
20
-6.0001
30
0
39
0
210
0
220
0
230
1
50
360
0
POINT
5
17C
100
AcDbEntity
8
Defpoints
62
0
6
ByLayer
370
-1
48
1
60
0
100
AcDbPoint
10
12
20
-6.0001
30
0
39
0
210
0
220
0
230
1
50
360
0
POINT
5
17D
100
AcDbEntity
8
Defpoints
62
0
6
ByLayer
370
-1
48
1
60
0
100
AcDbPoint
10
12
20
-21.10012
30
0
39
0
210
0
220
0
230
1
50
360
0
ENDBLK
5
174
100
AcDbEntity
8
0
100
AcDbBlockEnd
0
BLOCK
5
185
100
AcDbEntity
8
0
100
AcDbBlockBegin
2
_U0
70
0
10
0
20
0
30
0
3
_U0
0
MTEXT
5
17F
100
AcDbEntity
8
2
62
256
6
ByLayer
370
18
48
1
60
0
100
AcDbMText
10
23.095034
20
-20.067487
30
0
210
0
220
0
230
1
1
\W0.6740;26
40
3.5
41
0
44
1.084337
50
0
71
7
72
5
7
iso_b_vert
0
LINE
5
180
100
AcDbEntity
8
2
62
256
6
ByLayer
370
13
48
1
60
0
100
AcDbLine
10
38
20
-7.5876
30
0
11
38
21
-23.10012
31
0
39
0
210
0
220
0
230
1
0
LINE
5
181
100
AcDbEntity
8
2
62
256
6
ByLayer
370
13
48
1
60
0
100
AcDbLine
10
12
20
-7.5876
30
0
11
12
21
-23.10012
31
0
39
0
210
0
220
0
230
1
0
LINE
5
182
100
AcDbEntity
8
2
62
256
6
ByLayer
370
13
48
1
60
0
100
AcDbLine
10
38
20
-21.10012
30
0
11
12
21
-21.10012
31
0
39
0
210
0
220
0
230
1
0
SOLID
5
183
100
AcDbEntity
8
2
62
256
6
ByLayer
370
18
48
1
60
0
100
AcDbTrace
10
38
20
-21.10012
30
0
11
34.500002
21
-21.560904
31
0
12
34.499998
22
-20.639337
32
0
13
34.499998
23
-20.639337
33
0
39
0
210
0
220
0
230
1
0
SOLID
5
184
100
AcDbEntity
8
2
62
256
6
ByLayer
370
18
48
1
60
0
100
AcDbTrace
10
12
20
-21.10012
30
0
11
15.499998
21
-20.639337
31
0
12
15.500002
22
-21.560904
32
0
13
15.500002
23
-21.560904
33
0
39
0
210
0
220
0
230
1
0
ENDBLK
5
186
100
AcDbEntity
8
0
100
AcDbBlockEnd
0
ENDSEC
0
SECTION
2
ENTITIES
0
ELLIPSE
5
D2
100
AcDbEntity
8
1
62
256
6
ByLayer
370
18
48
1
60
0
100
AcDbEllipse
10
18.521743
20
0
30
0
11
13.0430812056266
21
-5.99583365903066
31
0
210
0
220
0
230
1
40
0.01714
41
-2.64695801602604
42
-2.22361076088193
0
ELLIPSE
5
D3
100
AcDbEntity
8
1
62
256
6
ByLayer
370
18
48
1
60
0
100
AcDbEllipse
10
18.038189
20
0
30
0
11
12.0127576189608
21
2.80337781544773
31
0
210
0
220
0
230
1
40
0.441599
41
-2.75760422148428
42
-2.33781265018347
0
ELLIPSE
5
D4
100
AcDbEntity
8
1
62
256
6
ByLayer
370
18
48
1
60
0
100
AcDbEllipse
10
20.814884
20
-2.5E-05
30
0
11
50.7624121247145
21
-5.99074909050612
31
0
210
0
220
0
230
1
40
0.006581
41
1.74617897276277
42
1.75953554363224
0
POINT
5
70
100
AcDbEntity
8
81
62
256
6
ByLayer
370
18
48
1
60
0
100
AcDbPoint
10
38
20
0
30
0
39
0
210
0
220
0
230
1
50
360
0
POINT
5
72
100
AcDbEntity
8
80
62
256
6
ByLayer
370
18
48
1
60
0
100
AcDbPoint
10
0
20
0
30
0
39
0
210
0
220
0
230
1
50
360
0
POINT
5
74
100
AcDbEntity
8
1
62
256
6
ByLayer
370
18
48
1
60
1
100
AcDbPoint
10
38
20
-6.0001
30
0
39
0
210
0
220
0
230
1
50
360
0
POINT
5
76
100
AcDbEntity
8
1
62
256
6
ByLayer
370
18
48
1
60
1
100
AcDbPoint
10
12
20
-6.0001
30
0
39
0
210
0
220
0
230
1
50
360
0
SPLINE
5
D5
100
AcDbEntity
8
1
62
256
6
ByLayer
370
18
48
1
60
0
100
AcDbSpline
70
4
71
5
72
15
73
9
40
0
40
0
40
0
40
0
40
0
40
0
40
0.0747362940698932
40
0.278101097007843
40
0.685320740832168
40
1
40
1
40
1
40
1
40
1
40
1
41
1
10
37.9956886815786
20
-3.14280993023368
30
0
41
1
10
37.9956735589984
20
-3.14386750569477
30
0
41
1
10
37.9955870708456
20
-3.14780492348564
30
0
41
1
10
37.9950970924169
20
-3.15752486469694
30
0
41
1
10
37.993390872999
20
-3.17174417410641
30
0
41
1
10
37.9902494070077
20
-3.18598735074934
30
0
41
1
10
37.9860914771628
20
-3.19921578196622
30
0
41
1
10
37.9821220686621
20
-3.20947889019152
30
0
41
1
10
37.9802564219777
20
-3.21393687705677
30
0
0
SPLINE
5
D6
100
AcDbEntity
8
1
62
256
6
ByLayer
370
18
48
1
60
0
100
AcDbSpline
70
4
71
3
72
32
73
28
40
0
40
0
40
0
40
0
40
0.125
40
0.125
40
0.249999999999999
40
0.249999999999999
40
0.374999999999998
40
0.374999999999998
40
0.499999999999998
40
0.499999999999998
40
0.624999999999997
40
0.624999999999997
40
0.687499999999984
40
0.687499999999984
40
0.749999999999971
40
0.749999999999971
40
0.812499999999958
40
0.812499999999958
40
0.843749999999962
40
0.843749999999962
40
0.874999999999966
40
0.874999999999966
40
0.937499999999988
40
0.937499999999988
40
0.968749999999994
40
0.968749999999994
40
1
40
1
40
1
40
1
41
1
10
37.6711019152906
20
-4.24261776751629
30
0
41
1
10
37.6811398160309
20
-4.22232532731328
30
0
41
1
10
37.6911455690349
20
-4.20183899383787
30
0
41
1
10
37.7110792051872
20
-4.16039666949328
30
0
41
1
10
37.7210191401948
20
-4.13941514807621
30
0
41
1
10
37.7407155486273
20
-4.09704782683329
30
0
41
1
10
37.7504767041532
20
-4.07565514294546
30
0
41
1
10
37.769773550784
20
-4.03232838494969
30
0
41
1
10
37.7793326409906
20
-4.01034120436296
30
0
41
1
10
37.7979544068442
20
-3.96604744847872
30
0
41
1
10
37.8070322981615
20
-3.94371807838809
30
0
41
1
10
37.820128746663
20
-3.90981642564373
30
0
41
1
10
37.8244065831587
20
-3.89844722516196
30
0
41
1
10
37.8327358029595
20
-3.87553145332296
30
0
41
1
10
37.8368036074219
20
-3.86393462862679
30
0
41
1
10
37.844491092761
20
-3.84092915601286
30
0
41
1
10
37.8481240833994
20
-3.82949001467267
30
0
41
1
10
37.853154413406
20
-3.81245778404721
30
0
41
1
10
37.854767147307
20
-3.80677718663529
30
0
41
1
10
37.8577820832873
20
-3.79563004882974
30
0
41
1
10
37.8591867507516
20
-3.79015729485136
30
0
41
1
10
37.8630566653022
20
-3.77407647469804
30
0
41
1
10
37.8651810425747
20
-3.76380269441984
30
0
41
1
10
37.8674931807183
20
-3.7492495621463
30
0
41
1
10
37.8681109530408
20
-3.74456815667227
30
0
41
1
10
37.86899847057
20
-3.73578986474203
30
0
41
1
10
37.869273986374
20
-3.73165881579274
30
0
41
1
10
37.8693792029009
20
-3.72778901839956
30
0
0
SPLINE
5
D7
100
AcDbEntity
8
1
62
256
6
ByLayer
370
18
48
1
60
0
100
AcDbSpline
70
4
71
1
72
4
73
2
40
0
40
0
40
1
40
1
41
1
10
37.8693792029009
20
-3.72778901839951
30
0
41
1
10
37.8693044886918
20
-3.7227736529949
30
0
0
SPLINE
5
D8
100
AcDbEntity
8
1
62
256
6
ByLayer
370
18
48
1
60
0
100
AcDbSpline
70
4
71
1
72
4
73
2
40
0
40
0
40
1
40
1
41
1
10
37.8693044886918
20
-3.7227736529949
30
0
41
1
10
37.8684778324512
20
-3.66728242635764
30
0
0
SPLINE
5
D9
100
AcDbEntity
8
1
62
256
6
ByLayer
370
18
48
1
60
0
100
AcDbSpline
70
4
71
5
72
34
73
28
40
0
40
0
40
0
40
0
40
0
40
0
40
0.0116660793879525
40
0.0434106280903096
40
0.106976218739171
40
0.169019496481368
40
0.200838384577438
40
0.232793990941496
40
0.296909015500023
40
0.328993993601689
40
0.360428067937149
40
0.391740422726483
40
0.423657562228488
40
0.4878048227694
40
0.552122423138395
40
0.583482096487174
40
0.614839613911785
40
0.646839942808837
40
0.711143168370765
40
0.775589016069761
40
0.806760723955275
40
0.838093412364237
40
0.870149093837801
40
0.934550765816876
40
1
40
1
40
1
40
1
40
1
40
1
41
1
10
37.9956886815788
20
5.49761802405845
30
0
41
1
10
37.9956735589987
20
5.49941694458414
30
0
41
1
10
37.9955870708461
20
5.5061098422444
30
0
41
1
10
37.9950970924179
20
5.52258991676112
30
0
41
1
10
37.9932496184967
20
5.54853153377434
30
0
41
1
10
37.9890548382868
20
5.57910920685461
30
0
41
1
10
37.9819230993502
20
5.61257239775867
30
0
41
1
10
37.9710833181903
20
5.64983623443692
30
0
41
1
10
37.9593074862143
20
5.681494080661
30
0
41
1
10
37.9475136162931
20
5.70809736311244
30
0
41
1
10
37.9340793697724
20
5.73398592520391
30
0
41
1
10
37.9189969807751
20
5.75913620871393
30
0
41
1
10
37.9027244030919
20
5.78348098484554
30
0
41
1
10
37.8821365376871
20
5.81052781915733
30
0
41
1
10
37.8597240267612
20
5.83586524741409
30
0
41
1
10
37.8354510683478
20
5.85957311219585
30
0
41
1
10
37.8092241800002
20
5.88163997944582
30
0
41
1
10
37.7817474198202
20
5.90201789837303
30
0
41
1
10
37.753244974311
20
5.92056209368843
30
0
41
1
10
37.7235980415793
20
5.93688574293867
30
0
41
1
10
37.6927379656124
20
5.95105752188238
30
0
41
1
10
37.660587913682
20
5.96303341884752
30
0
41
1
10
37.6278429905396
20
5.9730013989066
30
0
41
1
10
37.5946078543767
20
5.98093987308141
30
0
41
1
10
37.5656643645733
20
5.98563606995111
30
0
41
1
10
37.5411290778344
20
5.98809098607776
30
0
41
1
10
37.5212756071492
20
5.9890810509377
30
0
41
1
10
37.5112440906611
20
5.98932936770746
30
0
0
SPLINE
5
DA
100
AcDbEntity
8
1
62
256
6
ByLayer
370
18
48
1
60
0
100
AcDbSpline
70
4
71
3
72
8
73
4
40
0
40
0
40
0
40
0
40
1
40
1
40
1
40
1
41
1
10
37.4896117243963
20
5.9894069012781
30
0
41
1
10
37.4968224801171
20
5.98937661011112
30
0
41
1
10
37.5040332688725
20
5.98935076563433
30
0
41
1
10
37.5112440906612
20
5.98932936770734
30
0
0
SPLINE
5
DB
100
AcDbEntity
8
1
62
256
6
ByLayer
370
18
48
1
60
0
100
AcDbSpline
70
4
71
3
72
12
73
8
40
0
40
0
40
0
40
0
40
0.428263884883073
40
0.428263884883073
40
0.796069256943054
40
0.796069256943054
40
1
40
1
40
1
40
1
41
1
10
37.4457572906494
20
5.98402868111538
30
0
41
1
10
37.4519693593126
20
5.98479393504783
30
0
41
1
10
37.4581805094082
20
5.9855593608286
30
0
41
1
10
37.4697242449294
20
5.98698248149097
30
0
41
1
10
37.475057074679
20
5.98764013049384
30
0
41
1
10
37.4833456291096
20
5.98866261849332
30
0
41
1
10
37.4863018341639
20
5.98902736677266
30
0
41
1
10
37.4892578247717
20
5.98939215565886
30
0
0
SPLINE
5
DC
100
AcDbEntity
8
1
62
256
6
ByLayer
370
18
48
1
60
0
100
AcDbSpline
70
4
71
3
72
8
73
4
40
0
40
0
40
0
40
0
40
1
40
1
40
1
40
1
41
1
10
37.4457572906494
20
5.98402868111538
30
0
41
1
10
37.4458359124697
20
5.98518991100624
30
0
41
1
10
37.4459145394249
20
5.98635113500012
30
0
41
1
10
37.4459931715158
20
5.98751235309257
30
0
0
SPLINE
5
DD
100
AcDbEntity
8
1
62
256
6
ByLayer
370
18
48
1
60
0
100
AcDbSpline
70
4
71
3
72
8
73
4
40
0
40
0
40
0
40
0
40
1
40
1
40
1
40
1
41
1
10
37.489611724396
20
5.98940690127793
30
0
41
1
10
37.5326084230717
20
5.85104264463641
30
0
41
1
10
37.5788091064495
20
5.71378960263888
30
0
41
1
10
37.6289397040056
20
5.57789954623098
30
0
0
SPLINE
5
DE
100
AcDbEntity
8
1
62
256
6
ByLayer
370
18
48
1
60
0
100
AcDbSpline
70
4
71
3
72
8
73
4
40
0
40
0
40
0
40
0
40
1
40
1
40
1
40
1
41
1
10
37.4892578245778
20
5.98939215568257
30
0
41
1
10
37.4893757909296
20
5.98939707256602
30
0
41
1
10
37.4894937576005
20
5.98940198775662
30
0
41
1
10
37.4896117245903
20
5.98940690125437
30
0
0
SPLINE
5
DF
100
AcDbEntity
8
1
62
256
6
ByLayer
370
18
48
1
60
0
100
AcDbSpline
70
4
71
3
72
18
73
14
40
0
40
0
40
0
40
0
40
0.236689752831466
40
0.236689752831466
40
0.363908127359556
40
0.363908127359556
40
0.427517314623599
40
0.427517314623599
40
0.491126501887641
40
0.491126501887641
40
0.745563250943821
40
0.745563250943821
40
1
40
1
40
1
40
1
41
1
10
31.2015865683388
20
4.20866927084333
30
0
41
1
10
31.6913388440439
20
4.4530807206275
30
0
41
1
10
32.1808167843716
20
4.67680266104423
30
0
41
1
10
32.9366153950801
20
4.98501949636807
30
0
41
1
10
33.2014478173898
20
5.08605042492513
30
0
41
1
10
33.6001911434753
20
5.22693085663553
30
0
41
1
10
33.7333548127715
20
5.27211267442894
30
0
41
1
10
34.000279213237
20
5.35880839583686
30
0
41
1
10
34.1335652873173
20
5.40016692593557
30
0
41
1
10
34.7988480628485
20
5.59678784155497
30
0
41
1
10
35.3279153706373
20
5.72166960683262
30
0
41
1
10
36.3856919685441
20
5.90497832503766
30
0
41
1
10
36.9144088950081
20
5.9634757104655
30
0
41
1
10
37.4459931715158
20
5.98751235309254
30
0
0
SPLINE
5
E0
100
AcDbEntity
8
1
62
256
6
ByLayer
370
18
48
1
60
0
100
AcDbSpline
70
4
71
3
72
15
73
11
40
0
40
0
40
0
40
0
40
0.125331629509146
40
0.250564748910557
40
0.375701282626984
40
0.500743119059177
40
0.625692110591467
40
0.750550073615081
40
0.875318788569347
40
1
40
1
40
1
40
1
41
1
10
10.6636761415869
20
-5.90523796492158
30
0
41
1
10
10.6554352891003
20
-5.90793523009185
30
0
41
1
10
10.6389600614009
20
-5.91332764039387
30
0
41
1
10
10.614359559099
20
-5.92175404694743
30
0
41
1
10
10.5898538041717
20
-5.93042115993242
30
0
41
1
10
10.5654502726008
20
-5.93935203988045
30
0
41
1
10
10.5411464470277
20
-5.9485364778717
30
0
41
1
10
10.5169449060153
20
-5.95798052147703
30
0
41
1
10
10.4928378378968
20
-5.96765844317582
30
0
41
1
10
10.4768429836452
20
-5.97432528637131
30
0
41
1
10
10.4688483619043
20
-5.97765753865164
30
0
0
SPLINE
5
E1
100
AcDbEntity
8
1
62
256
6
ByLayer
370
18
48
1
60
0
100
AcDbSpline
70
4
71
3
72
48
73
44
40
0
40
0
40
0
40
0
40
0.0692580790146705
40
0.0692580790146705
40
0.103887118522006
40
0.103887118522006
40
0.138516158029341
40
0.138516158029341
40
0.207774237044011
40
0.207774237044011
40
0.225088756797679
40
0.225088756797679
40
0.242403276551347
40
0.277032316058682
40
0.311661355566017
40
0.311661355566017
40
0.328975875319685
40
0.328975875319685
40
0.346290395073353
40
0.346290395073353
40
0.415548474088019
40
0.415548474088019
40
0.432862993841683
40
0.432862993841683
40
0.450177513595348
40
0.450177513595348
40
0.484806553102685
40
0.484806553102685
40
0.554064632117367
40
0.554064632117367
40
0.623322711132049
40
0.623322711132049
40
0.657951750639389
40
0.657951750639389
40
0.69258079014673
40
0.69258079014673
40
0.761838869161412
40
0.761838869161412
40
0.831096948176094
40
0.831096948176094
40
0.969613106205458
40
0.969613106205458
40
1
40
1
40
1
40
1
41
1
10
37.628939671078
20
5.57789953475609
30
0
41
1
10
37.665915918954
20
5.47766577171583
30
0
41
1
10
37.6970033389823
20
5.37596559030021
30
0
41
1
10
37.7322275462372
20
5.22057479711202
30
0
41
1
10
37.7420552472057
20
5.16830132151782
30
0
41
1
10
37.7572381463728
20
5.06264064031836
30
0
41
1
10
37.7625866193116
20
5.00906019555853
30
0
41
1
10
37.7705914264835
20
4.84923883197769
30
0
41
1
10
37.7654342863006
20
4.74321459506317
30
0
41
1
10
37.7426273031991
20
4.61150022967163
30
0
41
1
10
37.7372320047006
20
4.5851536843106
30
0
41
1
10
37.7247382069682
20
4.5327392792093
30
0
41
1
10
37.7036047336503
20
4.45518040241197
30
0
41
1
10
37.6565294105505
20
4.33117995522963
30
0
41
1
10
37.6064801746539
20
4.23748205346118
30
0
41
1
10
37.5644037542004
20
4.16922480348936
30
0
41
1
10
37.5495957327431
20
4.14677148090763
30
0
41
1
10
37.5185985184865
20
4.10268689989354
30
0
41
1
10
37.5025259771482
20
4.08121555491701
30
0
41
1
10
37.4195078010779
20
3.97650047144006
30
0
41
1
10
37.3446654686046
20
3.90111230976791
30
0
41
1
10
37.2432086405485
20
3.81473986166026
30
0
41
1
10
37.2225180398176
20
3.79786252819935
30
0
41
1
10
37.1803896590368
20
3.76485114976794
30
0
41
1
10
37.1589147820381
20
3.74869170038858
30
0
41
1
10
37.0938973087247
20
3.70158149210329
30
0
41
1
10
37.0496646729166
20
3.67190605002099
30
0
41
1
10
36.9147568583311
20
3.58719013548367
30
0
41
1
10
36.8218938388082
20
3.53641703431612
30
0
41
1
10
36.6319527472931
20
3.4430922685361
30
0
41
1
10
36.5348623691225
20
3.40056460705677
30
0
41
1
10
36.3868263186458
20
3.34145524409834
30
0
41
1
10
36.3370055414468
20
3.32251404531203
30
0
41
1
10
36.2371116271476
20
3.28618119607842
30
0
41
1
10
36.1870233248795
20
3.26878047406009
30
0
41
1
10
36.0363908402739
20
3.21856957081451
30
0
41
1
10
35.9354815522773
20
3.18773726016948
30
0
41
1
10
35.7329097730931
20
3.13015293289138
30
0
41
1
10
35.6312461625538
20
3.10340698007212
30
0
41
1
10
35.3253535431056
20
3.02805433655774
30
0
41
1
10
35.1202347054434
20
2.9842680754316
30
0
41
1
10
34.8691403819665
20
2.9361725282759
30
0
41
1
10
34.823927787137
20
2.9277304669796
30
0
41
1
10
34.7786786380408
20
2.9194864294796
30
0
0
SPLINE
5
E2
100
AcDbEntity
8
1
62
256
6
ByLayer
370
13
48
1
60
0
100
AcDbSpline
70
4
71
3
72
11
73
7
40
0
40
0
40
0
40
0
40
0.211203909126529
40
0.484906351873953
40
0.758608794621377
40
1
40
1
40
1
40
1
41
1
10
37.6289396758228
20
5.5778995342406
30
0
41
1
10
37.2109597838819
20
5.56241401614907
30
0
41
1
10
36.2513132252743
20
5.48097236077919
30
0
41
1
10
34.75
20
5.19366881300249
30
0
41
1
10
33.188945064084
20
4.71427499042778
30
0
41
1
10
32.1695567948347
20
4.30281829998097
30
0
41
1
10
31.691835192252
20
4.09076640356341
30
0
0
SPLINE
5
E3
100
AcDbEntity
8
1
62
256
6
ByLayer
370
18
48
1
60
0
100
AcDbSpline
70
4
71
3
72
8
73
4
40
0
40
0
40
0
40
0
40
1
40
1
40
1
40
1
41
1
10
10.5616334129605
20
-5.93544477475916
30
0
41
0.999978837416441
10
10.5956004295394
20
-5.92504232110425
30
0
41
0.999978837416441
10
10.6296153922592
20
-5.91497317140258
30
0
41
1
10
10.6636761415863
20
-5.90523796492175
30
0
0
SPLINE
5
E4
100
AcDbEntity
8
1
62
256
6
ByLayer
370
18
48
1
60
0
100
AcDbSpline
70
4
71
3
72
25
73
21
40
0
40
0
40
0
40
0
40
0.0553656408245573
40
0.110749625820333
40
0.166152753278706
40
0.221575808157298
40
0.277019562219977
40
0.332484774175299
40
0.387972189813143
40
0.443482542139762
40
0.499016551511221
40
0.554574925765263
40
0.610158360351639
40
0.665767538461017
40
0.721403131152324
40
0.77706579747881
40
0.832756184612684
40
0.888474929073822
40
0.944222661151638
40
1
40
1
40
1
40
1
41
1
10
11.0656735137228
20
-5.58666378761782
30
0
41
1
10
11.0579497223393
20
-5.59182804247155
30
0
41
1
10
11.042499580466
20
-5.60215826323972
30
0
41
1
10
11.019451877622
20
-5.6179824218238
30
0
41
1
10
10.9964928012343
20
-5.63404827304498
30
0
41
1
10
10.9736317694168
20
-5.65037772747007
30
0
41
1
10
10.950866250418
20
-5.66696279900896
30
0
41
1
10
10.9281969165071
20
-5.68380352119024
30
0
41
1
10
10.9056235812986
20
-5.70089778203379
30
0
41
1
10
10.883146289044
20
-5.7182440495053
30
0
41
1
10
10.8607650221961
20
-5.73584064000374
30
0
41
1
10
10.8384797812467
20
-5.75368591746363
30
0
41
1
10
10.8162905579378
20
-5.7717782288081
30
0
41
1
10
10.7941973625177
20
-5.79011596290249
30
0
41
1
10
10.7722001414336
20
-5.8086973791591
30
0
41
1
10
10.7502990794714
20
-5.82752123452045
30
0
41
1
10
10.7284934725622
20
-5.84658444540048
30
0
41
1
10
10.706785936047
20
-5.86589082011136
30
0
41
1
10
10.6851666875371
20
-5.8854184566469
30
0
41
1
10
10.6708409245985
20
-5.89863029303959
30
0
41
1
10
10.6636761415856
20
-5.90523796492147
30
0
0
SPLINE
5
E5
100
AcDbEntity
8
1
62
256
6
ByLayer
370
18
48
1
60
0
100
AcDbSpline
70
4
71
3
72
13
73
9
40
0
40
0
40
0
40
0
40
0.0184590158378246
40
0.226847395093314
40
0.435235774348803
40
0.643624153604292
40
0.852012532859782
40
1
40
1
40
1
40
1
41
1
10
10.6636761415856
20
-5.90523796492147
30
0
41
1
10
10.6846061113883
20
-5.90720131128913
30
0
41
1
10
10.9418161428405
20
-5.93067830705175
30
0
41
1
10
11.4352295793476
20
-5.96035078849559
30
0
41
1
10
12.1439548614234
20
-5.96230124643478
30
0
41
1
10
12.852861369736
20
-5.9234067768499
30
0
41
1
10
13.4936275852862
20
-5.85166160995817
30
0
41
1
10
13.8982580205691
20
-5.78683658971352
30
0
41
1
10
14.0663484464881
20
-5.75657205773592
30
0
0
SPLINE
5
E6
100
AcDbEntity
8
1
62
256
6
ByLayer
370
13
48
1
60
0
100
AcDbSpline
70
4
71
3
72
9
73
5
40
0
40
0
40
0
40
0
40
0.190449498211989
40
1
40
1
40
1
40
1
41
1
10
16.0145735106358
20
-5.21767079070031
30
0
41
1
10
15.7597156737573
20
-5.25964447358723
30
0
41
1
10
14.4215245035453
20
-5.4438335901377
30
0
41
1
10
13.0833333333334
20
-5.43189725776247
30
0
41
1
10
12.0000000000001
20
-5.29189027416055
30
0
0
SPLINE
5
E7
100
AcDbEntity
8
1
62
256
6
ByLayer
370
18
48
1
60
0
100
AcDbSpline
70
4
71
3
72
28
73
24
40
0
40
0
40
0
40
0
40
0.0139408844931389
40
0.0139408844931389
40
0.0479429229588912
40
0.0479429229588912
40
0.1839510768219
40
0.1839510768219
40
0.319959230684909
40
0.319959230684909
40
0.387963307616415
40
0.387963307616415
40
0.42196534608217
40
0.42196534608217
40
0.455967384547924
40
0.455967384547924
40
0.591975538410943
40
0.591975538410943
40
0.727983692273962
40
0.727983692273962
40
0.863991846136981
40
0.863991846136981
40
1
40
1
40
1
40
1
41
1
10
17.877475104597
20
-5.00113398548891
30
0
41
1
10
17.8500606116332
20
-5.01034577489696
30
0
41
1
10
17.8226448242456
20
-5.01948189581483
30
0
41
1
10
17.7283940916319
20
-5.05062785932503
30
0
41
1
10
17.6615808835552
20
-5.07225297941307
30
0
41
1
10
17.327651206443
20
-5.17804238869022
30
0
41
1
10
17.060961451142
20
-5.25517640328869
30
0
41
1
10
16.5279348258198
20
-5.39389237377472
30
0
41
1
10
16.2615406146876
20
-5.45561469726405
30
0
41
1
10
15.8616288013372
20
-5.53621618871765
30
0
41
1
10
15.7282728689237
20
-5.56107601193364
30
0
41
1
10
15.5280734646179
20
-5.5953534009343
30
0
41
1
10
15.4613127118981
20
-5.60627742514961
30
0
41
1
10
15.3277215482455
20
-5.62712352083284
30
0
41
1
10
15.2608880088435
20
-5.63704715905268
30
0
41
1
10
14.9270739635431
20
-5.68405290716368
30
0
41
1
10
14.6607507239629
20
-5.71327609868564
30
0
41
1
10
14.1287279625209
20
-5.75520965691138
30
0
41
1
10
13.8630760152895
20
-5.7677818421958
30
0
41
1
10
13.3317102587268
20
-5.77620601279352
30
0
41
1
10
13.0659943377057
20
-5.77206385845304
30
0
41
1
10
12.5337551451091
20
-5.74713659150075
30
0
41
1
10
12.2672372378558
20
-5.72633827544482
30
0
41
1
10
12.0000000000001
20
-5.69704759342923
30
0
0
SPLINE
5
E8
100
AcDbEntity
8
1
62
256
6
ByLayer
370
18
48
1
60
0
100
AcDbSpline
70
4
71
3
72
14
73
10
40
0
40
0
40
0
40
0
40
0.249999999999999
40
0.249999999999999
40
0.499999999999999
40
0.499999999999999
40
0.749999999999999
40
0.749999999999999
40
1
40
1
40
1
40
1
41
1
10
33.7235122924547
20
-1.75789545678373
30
0
41
1
10
33.7445593176289
20
-1.79228309027263
30
0
41
1
10
33.7648654759697
20
-1.82731159728908
30
0
41
1
10
33.8036860285049
20
-1.89891854466617
30
0
41
1
10
33.8222034870242
20
-1.93549433428797
30
0
41
1
10
33.8569820744259
20
-2.01059771089641
30
0
41
1
10
33.87326022754
20
-2.0491463144194
30
0
41
1
10
33.9027584963308
20
-2.12874317982428
30
0
41
1
10
33.915788297749
20
-2.16926539735326
30
0
41
1
10
33.9265374038533
20
-2.21074771550502
30
0
0
SPLINE
5
E9
100
AcDbEntity
8
1
62
256
6
ByLayer
370
18
48
1
60
0
100
AcDbSpline
70
4
71
3
72
16
73
12
40
0
40
0
40
0
40
0
40
0.249999999999991
40
0.249999999999991
40
0.499999999999981
40
0.499999999999981
40
0.624999999999986
40
0.624999999999986
40
0.749999999999991
40
0.749999999999991
40
1
40
1
40
1
40
1
41
1
10
33.7235122924543
20
-1.75789545678313
30
0
41
1
10
33.708132201627
20
-1.73276673089362
30
0
41
1
10
33.6953009512135
20
-1.70681591633405
30
0
41
1
10
33.6742990933295
20
-1.65371659157069
30
0
41
1
10
33.6661273270006
20
-1.62656774188096
30
0
41
1
10
33.6572060584663
20
-1.5852292428269
30
0
41
1
10
33.6548071437751
20
-1.57140453593223
30
0
41
1
10
33.6511483180902
20
-1.54404404661437
30
0
41
1
10
33.6498771558309
20
-1.53045831618823
30
0
41
1
10
33.6476455484615
20
-1.49003670488358
30
0
41
1
10
33.6482557691117
20
-1.46353604040766
30
0
41
1
10
33.6508564121631
20
-1.43761691927969
30
0
0
SPLINE
5
EA
100
AcDbEntity
8
1
62
256
6
ByLayer
370
13
48
1
60
0
100
AcDbSpline
70
4
71
3
72
11
73
7
40
0
40
0
40
0
40
0
40
0.067240828513635
40
0.300430621385226
40
0.533620414256818
40
1
40
1
40
1
40
1
41
1
10
18.968572594834
20
-3.01469524441237
30
0
41
1
10
18.8123817298893
20
-3.00589440507392
30
0
41
1
10
18.114524198278
20
-2.96094200323375
30
0
41
1
10
16.875
20
-2.83580330904883
30
0
41
1
10
14.7083333333333
20
-2.50218996564916
30
0
41
1
10
13.0833333333333
20
-2.13525206765718
30
0
41
1
10
12
20
-1.84811363684628
30
0
0
SPLINE
5
EB
100
AcDbEntity
8
1
62
256
6
ByLayer
370
18
48
1
60
0
100
AcDbSpline
70
4
71
3
72
12
73
8
40
0
40
0
40
0
40
0
40
0.14157665891538
40
0.313261327132304
40
0.484945995349228
40
0.656630663566152
40
1
40
1
40
1
40
1
41
1
10
21.4650268825799
20
-4.28530087843802
30
0
41
1
10
21.0183512550532
20
-4.36107927296555
30
0
41
1
10
20.03000896086
20
-4.4899874681376
30
0
41
1
10
18.5
20
-4.55028827846544
30
0
41
1
10
16.875
20
-4.44923957378478
30
0
41
1
10
14.7083333333333
20
-4.10604458542218
30
0
41
1
10
13.0833333333333
20
-3.62601633237151
30
0
41
1
10
12
20
-3.21913619395622
30
0
0
SPLINE
5
EC
100
AcDbEntity
8
1
62
256
6
ByLayer
370
13
48
1
60
0
100
AcDbSpline
70
4
71
3
72
8
73
4
40
0
40
0
40
0
40
0
40
1
40
1
40
1
40
1
41
1
10
14.396187946581
20
-5.27449993834068
30
0
41
1
10
13.597458631054
20
-5.29023467516618
30
0
41
1
10
12.798729315527
20
-5.23731989679578
30
0
41
1
10
11.9999999999999
20
-5.11579416564012
30
0
0
SPLINE
5
ED
100
AcDbEntity
8
1
62
256
6
ByLayer
370
18
48
1
60
0
100
AcDbSpline
70
4
71
3
72
12
73
8
40
0
40
0
40
0
40
0
40
0.0316370239151351
40
0.0316370239151351
40
0.354424682610078
40
0.354424682610078
40
1
40
1
40
1
40
1
41
1
10
34.3804129421385
20
3.19380922627369
30
0
41
1
10
34.3814940736512
20
3.19345158611159
30
0
41
1
10
34.3825822508743
20
3.19308638738491
30
0
41
1
10
34.3948518101161
20
3.18891050283543
30
0
41
1
10
34.4067879593409
20
3.18430771907961
30
0
41
1
10
34.4444810942456
20
3.16828677507033
30
0
41
1
10
34.4721492876713
20
3.15466009128639
30
0
41
1
10
34.5021608531796
20
3.13831481183036
30
0
0
SPLINE
5
EE
100
AcDbEntity
8
1
62
256
6
ByLayer
370
18
48
1
60
0
100
AcDbSpline
70
4
71
3
72
8
73
4
40
0
40
0
40
0
40
0
40
1
40
1
40
1
40
1
41
1
10
10.5927712794864
20
-5.76490190296244
30
0
41
1
10
10.7491580950971
20
-5.69993790134231
30
0
41
1
10
10.9067657590984
20
-5.64056995724215
30
0
41
1
10
11.0656015595232
20
-5.58683147714498
30
0
0
SPLINE
5
EF
100
AcDbEntity
8
1
62
256
6
ByLayer
370
18
48
1
60
0
100
AcDbSpline
70
4
71
3
72
10
73
6
40
0
40
0
40
0
40
0
40
0.5
40
0.5
40
1
40
1
40
1
40
1
41
1
10
12
20
-5.69704759342923
30
0
41
1
10
11.8428910902904
20
-5.68351986912791
30
0
41
1
10
11.686442219101
20
-5.66768339170011
30
0
41
1
10
11.3749684751473
20
-5.63102942328968
30
0
41
1
10
11.2199419432599
20
-5.61021773576493
30
0
41
1
10
11.0657054506117
20
-5.586642564735
30
0
0
SPLINE
5
F0
100
AcDbEntity
8
1
62
256
6
ByLayer
370
18
48
1
60
0
100
AcDbSpline
70
4
71
3
72
15
73
11
40
0
40
0
40
0
40
0
40
0.125
40
0.125
40
0.25
40
0.375
40
0.375
40
0.500000000000001
40
0.500000000000001
40
1
40
1
40
1
40
1
41
1
10
34.3746360463932
20
-3.20374603340056
30
0
41
1
10
34.3673749281684
20
-3.24183536025475
30
0
41
1
10
34.3608115352531
20
-3.27995103972643
30
0
41
1
10
34.349172651652
20
-3.35593398943828
30
0
41
1
10
34.3390037970189
20
-3.43175668310701
30
0
41
1
10
34.3318531962365
20
-3.50725034011748
30
0
41
1
10
34.3262583606011
20
-3.58257439450659
30
0
41
1
10
34.3242485735408
20
-3.62006172828734
30
0
41
1
10
34.318207053372
20
-3.80554286549142
30
0
41
1
10
34.3260620681766
20
-3.94872360237233
30
0
41
1
10
34.3468296912523
20
-4.08660813632923
30
0
0
SPLINE
5
F1
100
AcDbEntity
8
1
62
256
6
ByLayer
370
18
48
1
60
0
100
AcDbSpline
70
4
71
3
72
16
73
12
40
0
40
0
40
0
40
0
40
0.250000000000007
40
0.250000000000007
40
0.500000000000014
40
0.500000000000014
40
0.62500000000001
40
0.62500000000001
40
0.750000000000006
40
0.750000000000006
40
1
40
1
40
1
40
1
41
1
10
33.9265374091541
20
-2.21074771745046
30
0
41
1
10
33.9501738555949
20
-2.3019536938568
30
0
41
1
10
33.9777445252581
20
-2.39087103810729
30
0
41
1
10
34.0399490550573
20
-2.56459690043135
30
0
41
1
10
34.074586115273
20
-2.64940355657524
30
0
41
1
10
34.1314234615611
20
-2.77377370653281
30
0
41
1
10
34.1511844749242
20
-2.81475618364991
30
0
41
1
10
34.1922835905739
20
-2.89580370751966
30
0
41
1
10
34.2136505949975
20
-2.93591417274718
30
0
41
1
10
34.2795333621734
20
-3.0540181689727
30
0
41
1
10
34.3259624127419
20
-3.13007939814258
30
0
41
1
10
34.3746360463932
20
-3.20374603340056
30
0
0
SPLINE
5
F2
100
AcDbEntity
8
1
62
256
6
ByLayer
370
13
48
1
60
0
100
AcDbSpline
70
4
71
3
72
49
73
45
40
0
40
0
40
0
40
0
40
0.0569263102660041
40
0.17233608778569
40
0.287745865305375
40
0.40315564282506
40
0.489712975964824
40
0.576270309104589
40
0.633975197864431
40
0.691680086624274
40
0.749384975384117
40
0.807089864143959
40
0.850368530713841
40
0.879220975093763
40
0.900860308378704
40
0.915286530568664
40
0.936925863853605
40
0.947745530496076
40
0.958565197138546
40
0.965778308233527
40
0.971188141554762
40
0.976597974875997
40
0.979302891536615
40
0.98110616931036
40
0.981782398475515
40
0.982458627640669
40
0.982796742223246
40
0.983134856805823
40
0.983360266527541
40
0.98358567624926
40
0.983754733540548
40
0.983923790831837
40
0.984008319477481
40
0.984064671907911
40
0.984106936230733
40
0.984205552983984
40
0.984487315136132
40
0.984938134579568
40
0.986065183188159
40
0.987417641518468
40
0.989220919292213
40
0.991024197065958
40
0.992827474839703
40
1
40
1
40
1
40
1
41
1
10
33.9265374101772
20
-2.21074771722209
30
0
41
1
10
33.6593582734515
20
-2.13820467203547
30
0
41
1
10
32.850512470059
20
-1.90789687186489
30
0
41
1
10
31.5
20
-1.47317005364721
30
0
41
1
10
29.875
20
-0.895723252485226
30
0
41
1
10
28.3854166666667
20
-0.342110729876367
30
0
41
1
10
27.03125
20
0.163904847256958
30
0
41
1
10
25.9479166666667
20
0.560348708070165
30
0
41
1
10
25
20
0.894423777665281
30
0
41
1
10
24.1875
20
1.16937471941415
30
0
41
1
10
23.375
20
1.42959556768571
30
0
41
1
10
22.6302083333333
20
1.65197609125289
30
0
41
1
10
22.0208333333333
20
1.82079832161773
30
0
41
1
10
21.5807291666667
20
1.93548564715277
30
0
41
1
10
21.2760416666667
20
2.01120262649951
30
0
41
1
10
21.0052083333334
20
2.07607785230357
30
0
41
1
10
20.78515625
20
2.12677064211832
30
0
41
1
10
20.58203125
20
2.17183377298673
30
0
41
1
10
20.4466145833333
20
2.20109577589179
30
0
41
1
10
20.3365885416667
20
2.22433572731194
30
0
41
1
10
20.251953125
20
2.24192180661333
30
0
41
1
10
20.1884765625
20
2.25492324154538
30
0
41
1
10
20.1419270833334
20
2.26435352683461
30
0
41
1
10
20.1175944010417
20
2.26925267289337
30
0
41
1
10
20.102783203125
20
2.27222459083041
30
0
41
1
10
20.0948486328125
20
2.27381371551615
30
0
41
1
10
20.0885009765625
20
2.27508322943865
30
0
41
1
10
20.0842692057292
20
2.27592877806481
30
0
41
1
10
20.08056640625
20
2.27666805395253
30
0
41
1
10
20.0776570638021
20
2.27724854944716
30
0
41
1
10
20.0750122070313
20
2.27777598290427
30
0
41
1
10
20.0730285644532
20
2.27817137171499
30
0
41
1
10
20.0715738932291
20
2.27846122103588
30
0
41
1
10
20.0707143147787
20
2.27863246199121
30
0
41
1
10
20.0697886149088
20
2.27881684996427
30
0
41
1
10
20.067804972331
20
2.27921188940272
30
0
41
1
10
20.0639038085929
20
2.27998838795074
30
0
41
1
10
20.0551757812515
20
2.28172386166364
30
0
41
1
10
20.041422526039
20
2.28445251265305
30
0
41
1
10
20.0213216145847
20
2.2884266642005
30
0
41
1
10
19.9980468749997
20
2.29300783421977
30
0
41
1
10
19.9726562500002
20
2.29797989377957
30
0
41
1
10
19.9220654868756
20
2.30783564742032
30
0
41
1
10
19.8799382654184
20
2.31593657051587
30
0
41
1
10
19.8462745856277
20
2.3223417972022
30
0
0
SPLINE
5
F3
100
AcDbEntity
8
1
62
256
6
ByLayer
370
18
48
1
60
0
100
AcDbSpline
70
4
71
3
72
24
73
20
40
0
40
0
40
0
40
0
40
0.125000000000015
40
0.125000000000015
40
0.250000000000031
40
0.250000000000031
40
0.375000000000046
40
0.375000000000046
40
0.406250000000046
40
0.406250000000046
40
0.437500000000045
40
0.437500000000045
40
0.500000000000044
40
0.500000000000044
40
0.625000000000033
40
0.625000000000033
40
0.750000000000022
40
0.750000000000022
40
1
40
1
40
1
40
1
41
1
10
34.5021608464151
20
3.13831481609253
30
0
41
1
10
34.5669810573629
20
3.09159632716478
30
0
41
1
10
34.6347647367014
20
3.04055242780675
30
0
41
1
10
34.7749733817526
20
2.93169029612318
30
0
41
1
10
34.8474113769946
20
2.8738530512023
30
0
41
1
10
34.9961835888242
20
2.75249171951799
30
0
41
1
10
35.0725227553011
20
2.68896040800317
30
0
41
1
10
35.1700821901064
20
2.60642937220712
30
0
41
1
10
35.1897013545087
20
2.58976658517545
30
0
41
1
10
35.2291484233085
20
2.55613633865309
30
0
41
1
10
35.2489940608849
20
2.53915359874128
30
0
41
1
10
35.3086570513424
20
2.487914001761
30
0
41
1
10
35.3486214859432
20
2.45334861980353
30
0
41
1
10
35.4690405663644
20
2.34852464201055
30
0
41
1
10
35.5500191196732
20
2.27714222368516
30
0
41
1
10
35.7132102335514
20
2.1317303450615
30
0
41
1
10
35.7954235214722
20
2.05769932453788
30
0
41
1
10
36.0437485731675
20
1.83199140320448
30
0
41
1
10
36.2115338101262
20
1.67672477168466
30
0
41
1
10
36.3813029000241
20
1.51720262063455
30
0
0
SPLINE
5
F4
100
AcDbEntity
8
1
62
256
6
ByLayer
370
18
48
1
60
0
100
AcDbSpline
70
4
71
3
72
9
73
5
40
0
40
0
40
0
40
0
40
0.597085632055235
40
1
40
1
40
1
40
1
41
1
10
34.502160850527
20
3.13831481275193
30
0
41
1
10
34.0431072336846
20
3.32544959578129
30
0
41
1
10
33.2742834801098
20
3.61154326795466
30
0
41
1
10
32.5054597265349
20
3.85064494812874
30
0
41
1
10
32.1956895898024
20
3.93800847288969
30
0
0
SPLINE
5
F5
100
AcDbEntity
8
1
62
256
6
ByLayer
370
18
48
1
60
0
100
AcDbSpline
70
4
71
3
72
8
73
4
40
0
40
0
40
0
40
0
40
1
40
1
40
1
40
1
41
1
10
10.5174181991735
20
3.46442604260011
30
0
41
1
10
10.6815548387592
20
3.39083976466719
30
0
41
1
10
10.8473832109612
20
3.3161785078573
30
0
41
1
10
11.0149391131842
20
3.24041952539966
30
0
0
SPLINE
5
F6
100
AcDbEntity
8
1
62
256
6
ByLayer
370
18
48
1
60
0
100
AcDbSpline
70
4
71
3
72
14
73
10
40
0
40
0
40
0
40
0
40
0.499999999999976
40
0.499999999999976
40
0.624999999999969
40
0.624999999999969
40
0.749999999999963
40
0.749999999999963
40
1
40
1
40
1
40
1
41
1
10
37.3754378202121
20
-4.34615610065435
30
0
41
1
10
37.3867537111727
20
-4.33778413080572
30
0
41
1
10
37.3972552522935
20
-4.33226182223663
30
0
41
1
10
37.408972468899
20
-4.33029194594045
30
0
41
1
10
37.4112522001273
20
-4.33015222368982
30
0
41
1
10
37.415598252166
20
-4.3304424611409
30
0
41
1
10
37.4176634552105
20
-4.33086970861561
30
0
41
1
10
37.4235102463232
20
-4.33306416553017
30
0
41
1
10
37.4269476759273
20
-4.33573189730186
30
0
41
1
10
37.4298144590431
20
-4.33989277819148
30
0
0
SPLINE
5
F7
100
AcDbEntity
8
1
62
256
6
ByLayer
370
18
48
1
60
0
100
AcDbSpline
70
4
71
3
72
10
73
6
40
0
40
0
40
0
40
0
40
0.5
40
0.5
40
1
40
1
40
1
40
1
41
1
10
37.3096195301665
20
-4.40694143325356
30
0
41
1
10
37.3209678407798
20
-4.39404035146509
30
0
41
1
10
37.3321475393122
20
-4.38244156319186
30
0
41
1
10
37.3541454976557
20
-4.36203554050061
30
0
41
1
10
37.364974384494
20
-4.35322791160985
30
0
41
1
10
37.3754378202113
20
-4.34615610065435
30
0
0
SPLINE
5
F8
100
AcDbEntity
8
1
62
256
6
ByLayer
370
13
48
1
60
0
100
AcDbSpline
70
4
71
3
72
12
73
8
40
0
40
0
40
0
40
0
40
0.125421055582815
40
0.35397823985644
40
0.582535424130067
40
0.811092608403692
40
1
40
1
40
1
40
1
41
1
10
37.2667208880123
20
-0.586465869816124
30
0
41
1
10
36.9694805920082
20
-0.390916934187658
30
0
41
1
10
36.1305736293374
20
0.163941042680051
30
0
41
1
10
34.75
20
1.082647807201
30
0
41
1
10
33.125
20
2.10706389129729
30
0
41
1
10
31.5939676042204
20
3.00543579865942
30
0
41
1
10
30.6046018751074
20
3.50763470133143
30
0
41
1
10
30.1569028126611
20
3.71743624246039
30
0
0
SPLINE
5
F9
100
AcDbEntity
8
1
62
256
6
ByLayer
370
18
48
1
60
0
100
AcDbSpline
70
4
71
3
72
12
73
8
40
0
40
0
40
0
40
0
40
0.500000000000039
40
0.500000000000039
40
0.750000000000019
40
0.750000000000019
40
1
40
1
40
1
40
1
41
1
10
37.2667208870315
20
-0.586465871269098
30
0
41
1
10
37.2821886268175
20
-0.619594230993016
30
0
41
1
10
37.2973050523029
20
-0.652728926272005
30
0
41
1
10
37.319399283223
20
-0.702441433585136
30
0
41
1
10
37.3266664273366
20
-0.719014029224496
30
0
41
1
10
37.3409817599017
20
-0.752163168607495
30
0
41
1
10
37.3480547687941
20
-0.768798865086353
30
0
41
1
10
37.3549348344953
20
-0.785284480777705
30
0
0
SPLINE
5
FA
100
AcDbEntity
8
1
62
256
6
ByLayer
370
18
48
1
60
0
100
AcDbSpline
70
4
71
3
72
24
73
20
40
0
40
0
40
0
40
0
40
0.124999999999986
40
0.124999999999986
40
0.187499999999981
40
0.187499999999981
40
0.249999999999977
40
0.249999999999977
40
0.374999999999975
40
0.374999999999975
40
0.499999999999973
40
0.499999999999973
40
0.624999999999971
40
0.624999999999971
40
0.687499999999974
40
0.687499999999974
40
0.749999999999976
40
0.749999999999976
40
1
40
1
40
1
40
1
41
1
10
36.3813029000243
20
1.51720262063475
30
0
41
1
10
36.4101851724532
20
1.4375903736935
30
0
41
1
10
36.4405901325602
20
1.35588520623696
30
0
41
1
10
36.48837027904
20
1.23034108976245
30
0
41
1
10
36.5046946793793
20
1.18790585991377
30
0
41
1
10
36.537784324819
20
1.10275405611449
30
0
41
1
10
36.554569206744
20
1.05998395228406
30
0
41
1
10
36.6056104177106
20
0.931118226615894
30
0
41
1
10
36.6405515479824
20
0.844468617602075
30
0
41
1
10
36.7121321791767
20
0.669795459927542
30
0
41
1
10
36.7487721570594
20
0.581771525417594
30
0
41
1
10
36.8236739310935
20
0.404411645725332
30
0
41
1
10
36.8619359704958
20
0.31507550375909
30
0
41
1
10
36.9205182620993
20
0.18010923127278
30
0
41
1
10
36.9402527350433
20
0.134940473410154
30
0
41
1
10
36.9800819087523
20
0.0443636684679802
30
0
41
1
10
37.0001044406898
20
-0.0008805338037234
30
0
41
1
10
37.1007438628164
20
-0.226885852105966
30
0
41
1
10
37.1829297527154
20
-0.407004510849788
30
0
41
1
10
37.2667208850673
20
-0.586465872110182
30
0
0
SPLINE
5
FB
100
AcDbEntity
8
1
62
256
6
ByLayer
370
18
48
1
60
0
100
AcDbSpline
70
4
71
3
72
8
73
4
40
0
40
0
40
0
40
0
40
1
40
1
40
1
40
1
41
1
10
10.5147161132755
20
2.76080882551031
30
0
41
0.999976742843708
10
10.5512398031435
20
2.73410657360713
30
0
41
0.999976742843708
10
10.5878162325454
20
2.70745370996481
30
0
41
1
10
10.6244428494902
20
2.68085209419272
30
0
0
SPLINE
5
FC
100
AcDbEntity
8
1
62
256
6
ByLayer
370
18
48
1
60
0
100
AcDbSpline
70
4
71
3
72
8
73
4
40
0
40
0
40
0
40
0
40
1
40
1
40
1
40
1
41
1
10
10.4317893615378
20
2.41409496290123
30
0
41
0.999999986742529
10
10.4326524351423
20
2.41346802083343
30
0
41
0.999999986742529
10
10.4335155363171
20
2.41284110808476
30
0
41
1
10
10.4343786650279
20
2.41221422468013
30
0
0
SPLINE
5
FD
100
AcDbEntity
8
1
62
256
6
ByLayer
370
18
48
1
60
0
100
AcDbSpline
70
4
71
3
72
8
73
4
40
0
40
0
40
0
40
0
40
1
40
1
40
1
40
1
41
1
10
37.4402710718409
20
-2.80953839471664
30
0
41
1
10
37.4072124184097
20
-2.61472396786036
30
0
41
1
10
37.3741537649784
20
-2.41990954100407
30
0
41
1
10
37.3410951115472
20
-2.22509511414779
30
0
0
SPLINE
5
FE
100
AcDbEntity
8
1
62
256
6
ByLayer
370
13
48
1
60
0
100
AcDbSpline
70
4
71
3
72
51
73
47
40
0
40
0
40
0
40
0
40
0.0333775428632441
40
0.0473685517601213
40
0.0561129323206696
40
0.0578618084327792
40
0.0596106845448889
40
0.0613595606569985
40
0.0626712177410808
40
0.0637642653111493
40
0.0642014843391767
40
0.0644747462316938
40
0.0645703878940748
40
0.0646113771779524
40
0.0646660295564558
40
0.0647480081242109
40
0.0649119652597212
40
0.0650759223952315
40
0.0652945319092452
40
0.065513141423259
40
0.0658410556942795
40
0.0661689699653
40
0.0668247985073412
40
0.0674806270493823
40
0.0692295031614919
40
0.0718528173296564
40
0.0770994456659854
40
0.0823460740023143
40
0.089341578450753
40
0.0998348351234109
40
0.110328091796069
40
0.131314605141385
40
0.145305614038262
40
0.166292127383578
40
0.194274145177332
40
0.236247171867964
40
0.292211207455473
40
0.348175243042981
40
0.40413927863049
40
0.460103314217999
40
0.544049367599263
40
0.627995420980526
40
0.739923492155544
40
0.851851563330561
40
0.963779634505579
40
1
40
1
40
1
40
1
41
0.999999999999992
10
19.1326039046323
20
2.50323660477502
30
0
41
0.999999999999987
10
19.2941317697545
20
2.48622991316563
30
0
41
0.999999999999974
10
19.5233679682072
20
2.45990146861033
30
0
41
1.00000000000001
10
19.7949218750014
20
2.42510064150393
30
0
41
0.999999999999995
10
19.9134114583331
20
2.40916689221463
30
0
41
1
10
19.9726562500002
20
2.40102839820042
30
0
41
0.999999999999991
10
19.9980468749997
20
2.39751598979011
30
0
41
1.00000000000002
10
20.0213216145847
20
2.39427387181369
30
0
41
0.999999999999968
10
20.041422526039
20
2.39145695022764
30
0
41
1.00000000000003
10
20.0551757812515
20
2.38952050172234
30
0
41
0.999999999999983
10
20.0639038085929
20
2.38828793770732
30
0
41
1
10
20.067804972331
20
2.38773625886463
30
0
41
0.999999999999999
10
20.0697886149088
20
2.38745554357249
30
0
41
1
10
20.0707143147787
20
2.38732450842951
30
0
41
0.999999999999998
10
20.0715738932291
20
2.38720281040273
30
0
41
1
10
20.0730285644532
20
2.38699680541359
30
0
41
0.999999999999999
10
20.0750122070313
20
2.38671575579949
30
0
41
1
10
20.0776570638021
20
2.38634078528966
30
0
41
1
10
20.08056640625
20
2.3859280127345
30
0
41
1
10
20.0842692057292
20
2.38540222230051
30
0
41
1
10
20.0885009765625
20
2.38480068542896
30
0
41
1
10
20.0948486328125
20
2.38389724010773
30
0
41
1
10
20.102783203125
20
2.38276579652995
30
0
41
0.999999999999999
10
20.1175944010417
20
2.38064845294085
30
0
41
1
10
20.1419270833334
20
2.37715395893633
30
0
41
1
10
20.1884765625
20
2.37041326896025
30
0
41
1
10
20.251953125
20
2.36108533197003
30
0
41
1
10
20.3365885416667
20
2.34840729464398
30
0
41
0.999999999999999
10
20.4466145833333
20
2.33156244172977
30
0
41
1
10
20.58203125
20
2.31019568467042
30
0
41
1
10
20.78515625
20
2.27701546020916
30
0
41
1
10
21.0052083333334
20
2.23925464093455
30
0
41
1
10
21.2760416666666
20
2.19035854879209
30
0
41
1
10
21.5807291666667
20
2.13267558433739
30
0
41
1
10
22.0208333333333
20
2.04411009292602
30
0
41
1
10
22.6302083333333
20
1.91150461361096
30
0
41
1
10
23.375
20
1.7332910431241
30
0
41
0.999999999999999
10
24.1875
20
1.5207138279464
30
0
41
1
10
25
20
1.29231424782986
30
0
41
1
10
25.9479166666666
20
1.01045015173801
30
0
41
1
10
27.03125
20
0.669895626780032
30
0
41
0.999999999999999
10
28.3854166666667
20
0.226496667767293
30
0
41
1
10
29.875
20
-0.269578202846645
30
0
41
1
10
31.5
20
-0.800394284338239
30
0
41
1
10
32.7586188040543
20
-1.18517727996982
30
0
41
1
10
33.4755709414421
20
-1.38885850821566
30
0
41
1
10
33.6508564121631
20
-1.43761691927969
30
0
0
SPLINE
5
FF
100
AcDbEntity
8
1
62
256
6
ByLayer
370
18
48
1
60
0
100
AcDbSpline
70
4
71
3
72
30
73
26
40
0
40
0
40
0
40
0
40
0.124999999999902
40
0.124999999999902
40
0.18749999999986
40
0.18749999999986
40
0.249999999999818
40
0.249999999999818
40
0.374999999999754
40
0.374999999999754
40
0.499999999999691
40
0.499999999999691
40
0.562499999999659
40
0.562499999999659
40
0.593749999999661
40
0.593749999999661
40
0.624999999999664
40
0.624999999999664
40
0.749999999999749
40
0.749999999999749
40
0.812499999999811
40
0.812499999999811
40
0.874999999999874
40
0.874999999999874
40
1
40
1
40
1
40
1
41
1
10
33.6508564121632
20
-1.43761691927969
30
0
41
1
10
33.6542784816911
20
-1.40348167546369
30
0
41
1
10
33.6622831782724
20
-1.3708338368215
30
0
41
1
10
33.6806137607773
20
-1.32417305688182
30
0
41
1
10
33.6877881780558
20
-1.30900659412651
30
0
41
1
10
33.704294926362
20
-1.27948737786605
30
0
41
1
10
33.7134846550172
20
-1.2653922111387
30
0
41
1
10
33.7436445132846
20
-1.22510371361986
30
0
41
1
10
33.7671996996806
20
-1.20084816906282
30
0
41
1
10
33.8211600263198
20
-1.15748094852341
30
0
41
1
10
33.850721143267
20
-1.13905878639179
30
0
41
1
10
33.8985718569061
20
-1.11592122222638
30
0
41
1
10
33.9151194322004
20
-1.10895799379406
30
0
41
1
10
33.9408506645841
20
-1.09961808077742
30
0
41
1
10
33.9495767875177
20
-1.09669178737855
30
0
41
1
10
33.9671531698292
20
-1.09125837328156
30
0
41
1
10
33.9760254334707
20
-1.08874293180494
30
0
41
1
10
34.0208003358558
20
-1.07713319324421
30
0
41
1
10
34.0579343802694
20
-1.0709206237745
30
0
41
1
10
34.1155995259581
20
-1.06574876701581
30
0
41
1
10
34.1352142877626
20
-1.06472377749455
30
0
41
1
10
34.1744401497458
20
-1.06402166454561
30
0
41
1
10
34.1941207913474
20
-1.06433395255584
30
0
41
1
10
34.2533731357883
20
-1.06709409262032
30
0
41
1
10
34.2931546228295
20
-1.07135448777297
30
0
41
1
10
34.3332436284392
20
-1.07775315993982
30
0
0
SPLINE
5
100
100
AcDbEntity
8
1
62
256
6
ByLayer
370
18
48
1
60
0
100
AcDbSpline
70
4
71
3
72
10
73
6
40
0
40
0
40
0
40
0
40
0.277065295856054
40
0.277065295856054
40
1
40
1
40
1
40
1
41
1
10
35.1989646519549
20
-1.22733702196569
30
0
41
1
10
35.1195574933327
20
-1.21238722978296
30
0
41
1
10
35.0399717318131
20
-1.1978082288245
30
0
41
1
10
34.7521812948769
20
-1.14632016904332
30
0
41
1
10
34.5430678260097
20
-1.11124354545839
30
0
41
1
10
34.3332436284392
20
-1.07775315993982
30
0
0
SPLINE
5
101
100
AcDbEntity
8
1
62
256
6
ByLayer
370
18
48
1
60
0
100
AcDbSpline
70
4
71
1
72
4
73
2
40
0
40
0
40
1
40
1
41
1
10
37.8693044886919
20
-1.93539879130165
30
0
41
1
10
37.8684778324513
20
-1.89072414505802
30
0
0
SPLINE
5
102
100
AcDbEntity
8
1
62
256
6
ByLayer
370
18
48
1
60
0
100
AcDbSpline
70
4
71
3
72
12
73
8
40
0
40
0
40
0
40
0
40
0.500000000000032
40
0.500000000000032
40
0.750000000000016
40
0.750000000000016
40
1
40
1
40
1
40
1
41
1
10
37.3549348344954
20
-0.785284480777705
30
0
41
1
10
37.3633507897814
20
-0.808902676278564
30
0
41
1
10
37.3710960657278
20
-0.831895089296609
30
0
41
1
10
37.3814077927356
20
-0.865164961144757
30
0
41
1
10
37.3846252283634
20
-0.87604982609875
30
0
41
1
10
37.3905209728303
20
-0.897316519637059
30
0
41
1
10
37.3931866892507
20
-0.907663205961455
30
0
41
1
10
37.3954525807401
20
-0.917432910190939
30
0
0
SPLINE
5
103
100
AcDbEntity
8
1
62
256
6
ByLayer
370
13
48
1
60
0
100
AcDbSpline
70
4
71
3
72
10
73
6
40
0
40
0
40
0
40
0
40
0.598130992312805
40
0.897196488469207
40
1
40
1
40
1
40
1
41
1
10
12
20
-0.861981637037445
30
0
41
1
10
13.0833333333333
20
-1.15419985910916
30
0
41
1
10
14.7083333333333
20
-1.56507897224466
30
0
41
1
10
16.5195307921782
20
-1.93832423066763
30
0
41
1
10
17.2473949176897
20
-2.06937576962977
30
0
41
1
10
17.4335923765347
20
-2.1016039935553
30
0
0
SPLINE
5
104
100
AcDbEntity
8
1
62
256
6
ByLayer
370
18
48
1
60
0
100
AcDbSpline
70
4
71
3
72
30
73
26
40
0
40
0
40
0
40
0
40
0.250000000000011
40
0.250000000000011
40
0.375000000000016
40
0.375000000000016
40
0.500000000000021
40
0.500000000000021
40
0.625000000000026
40
0.625000000000026
40
0.687500000000028
40
0.687500000000028
40
0.750000000000031
40
0.750000000000031
40
0.812500000000033
40
0.812500000000033
40
0.843750000000027
40
0.843750000000027
40
0.875000000000021
40
0.875000000000021
40
0.937500000000008
40
0.937500000000008
40
0.968750000000004
40
0.968750000000004
40
1
40
1
40
1
40
1
41
1
10
37.666817481871
20
-1.6862278616353
30
0
41
1
10
37.6871589612716
20
-1.72043559903986
30
0
41
1
10
37.7073104092802
20
-1.75355678665562
30
0
41
1
10
37.7371139180923
20
-1.80081617272413
30
0
41
1
10
37.7469770444582
20
-1.81616118885066
30
0
41
1
10
37.7665176204201
20
-1.84578956990245
30
0
41
1
10
37.7761960377458
20
-1.86007846805478
30
0
41
1
10
37.7952911424182
20
-1.88715976080522
30
0
41
1
10
37.8047610068735
20
-1.90002459163233
30
0
41
1
10
37.8183483651095
20
-1.91716821119905
30
0
41
1
10
37.8227801196314
20
-1.92253086873677
30
0
41
1
10
37.8313946574346
20
-1.93235638743479
30
0
41
1
10
37.835584873343
20
-1.93682437996898
30
0
41
1
10
37.843497328307
20
-1.94443571497419
30
0
41
1
10
37.847236419569
20
-1.94760153079457
30
0
41
1
10
37.8524162867271
20
-1.95108676640277
30
0
41
1
10
37.8540709823985
20
-1.95203655972938
30
0
41
1
10
37.857209966661
20
-1.9534339949827
30
0
41
1
10
37.8586999680874
20
-1.95388042333721
30
0
41
1
10
37.8627792808316
20
-1.9543081564241
30
0
41
1
10
37.8650051592669
20
-1.95340304165666
30
0
41
1
10
37.8674172750013
20
-1.94981100160865
30
0
41
1
10
37.8680613106839
20
-1.94823606906098
30
0
41
1
10
37.8689855339177
20
-1.94437900293505
30
0
41
1
10
37.869271532227
20
-1.94209018122425
30
0
41
1
10
37.8693792029009
20
-1.93943654084308
30
0
0
SPLINE
5
105
100
AcDbEntity
8
1
62
256
6
ByLayer
370
13
48
1
60
0
100
AcDbSpline
70
4
71
3
72
8
73
4
40
0
40
0
40
0
40
0
40
1
40
1
40
1
40
1
41
1
10
37.4913835729572
20
-2.8460976628345
30
0
41
1
10
37.4582617113849
20
-2.65091075081944
30
0
41
1
10
37.4251398498126
20
-2.45572383880437
30
0
41
1
10
37.3920179882403
20
-2.26053692678934
30
0
0
SPLINE
5
106
100
AcDbEntity
8
1
62
256
6
ByLayer
370
18
48
1
60
0
100
AcDbSpline
70
4
71
5
72
34
73
28
40
0
40
0
40
0
40
0
40
0
40
0
40
0.0119910692637564
40
0.0446199474381185
40
0.109956327955289
40
0.173727987460337
40
0.206433275951429
40
0.239279091364251
40
0.305180211744995
40
0.338159002891853
40
0.370468757603825
40
0.40265340194554
40
0.435459678898779
40
0.501393933281579
40
0.567503272764841
40
0.59973655385128
40
0.6319676189545
40
0.664859402766309
40
0.730953966993734
40
0.797195126480049
40
0.829235205821522
40
0.861440750230324
40
0.894389428612994
40
0.960585181746329
40
1
40
1
40
1
40
1
40
1
40
1
41
1
10
37.9956886815786
20
-2.68377746648485
30
0
41
1
10
37.9956735589984
20
-2.68462645630061
30
0
41
1
10
37.9955870708457
20
-2.68778242931128
30
0
41
1
10
37.9950970924173
20
-2.69552870601882
30
0
41
1
10
37.9932496184963
20
-2.70762613353429
30
0
41
1
10
37.9890548382867
20
-2.72170530248056
30
0
41
1
10
37.9819230993501
20
-2.73688606484205
30
0
41
1
10
37.9710833181904
20
-2.75353211143843
30
0
41
1
10
37.959307486214
20
-2.76744461098511
30
0
41
1
10
37.947513616293
20
-2.7789662318645
30
0
41
1
10
37.9340793697723
20
-2.79000346306358
30
0
41
1
10
37.9189969807752
20
-2.80054447495442
30
0
41
1
10
37.9027244030916
20
-2.81059840064134
30
0
41
1
10
37.8821365376872
20
-2.82154406468811
30
0
41
1
10
37.8597240267613
20
-2.83151869418586
30
0
41
1
10
37.8354510683476
20
-2.84055683191676
30
0
41
1
10
37.8092241800003
20
-2.84864472169807
30
0
41
1
10
37.7817474198199
20
-2.85582259526066
30
0
41
1
10
37.753244974311
20
-2.86204204599997
30
0
41
1
10
37.7235980415792
20
-2.86710961155833
30
0
41
1
10
37.6927379656121
20
-2.87105162116325
30
0
41
1
10
37.660587913682
20
-2.87384040677634
30
0
41
1
10
37.6278429905395
20
-2.87562691652937
30
0
41
1
10
37.5986217429173
20
-2.87631568462609
30
0
41
1
10
37.5737768787565
20
-2.8761266173529
30
0
41
1
10
37.553426793801
20
-2.875470025391
30
0
41
1
10
37.5378048105161
20
-2.87467279058072
30
0
41
1
10
37.5319605008082
20
-2.87433380403286
30
0
0
SPLINE
5
107
100
AcDbEntity
8
1
62
256
6
ByLayer
370
13
48
1
60
0
100
AcDbSpline
70
4
71
1
72
4
73
2
40
0
40
0
40
1
40
1
41
1
10
37.8693044886919
20
-1.93539879130165
30
0
41
1
10
37.9956126938047
20
-2.67973221182211
30
0
0
SPLINE
5
108
100
AcDbEntity
8
1
62
256
6
ByLayer
370
18
48
1
60
0
100
AcDbSpline
70
4
71
1
72
4
73
2
40
0
40
0
40
1
40
1
41
1
10
37.8693792029009
20
-1.93943654084299
30
0
41
1
10
37.8693044886919
20
-1.93539879130165
30
0
0
SPLINE
5
109
100
AcDbEntity
8
1
62
256
6
ByLayer
370
18
48
1
60
0
100
AcDbSpline
70
4
71
3
72
22
73
18
40
0
40
0
40
0
40
0
40
0.125000000000001
40
0.125000000000001
40
0.187500000000002
40
0.187500000000002
40
0.250000000000003
40
0.250000000000003
40
0.499999999999998
40
0.499999999999998
40
0.624999999999992
40
0.624999999999992
40
0.687499999999993
40
0.687499999999993
40
0.749999999999994
40
0.749999999999994
40
1
40
1
40
1
40
1
41
1
10
36.5715389066988
20
-4.92255672631211
30
0
41
1
10
36.5980304824508
20
-4.91990107874949
30
0
41
1
10
36.6253199011389
20
-4.91457921547325
30
0
41
1
10
36.6674157637505
20
-4.90271415896106
30
0
41
1
10
36.6816469579912
20
-4.89810706927213
30
0
41
1
10
36.7103125260001
20
-4.8876802304907
30
0
41
1
10
36.7247687522097
20
-4.88185506665275
30
0
41
1
10
36.7976493636141
20
-4.84975839338594
30
0
41
1
10
36.8578666435404
20
-4.81460180778873
30
0
41
1
10
36.9508459033978
20
-4.74871773145023
30
0
41
1
10
36.9822813597998
20
-4.72456411389157
30
0
41
1
10
37.0300840642563
20
-4.68511485196393
30
0
41
1
10
37.0461266839863
20
-4.67142797320642
30
0
41
1
10
37.0784278812588
20
-4.64298399021729
30
0
41
1
10
37.0946962971336
20
-4.62821694705403
30
0
41
1
10
37.1762695221619
20
-4.55200034114387
30
0
41
1
10
37.2424790810462
20
-4.48326831614153
30
0
41
1
10
37.3096195322447
20
-4.40694143089112
30
0
0
SPLINE
5
10A
100
AcDbEntity
8
1
62
256
6
ByLayer
370
18
48
1
60
0
100
AcDbSpline
70
4
71
3
72
29
73
25
40
0
40
0
40
0
40
0
40
0.0625000000000035
40
0.0625000000000035
40
0.125000000000007
40
0.125000000000007
40
0.18750000000001
40
0.18750000000001
40
0.250000000000014
40
0.250000000000014
40
0.375000000000021
40
0.375000000000021
40
0.500000000000028
40
0.500000000000028
40
0.531250000000028
40
0.531250000000028
40
0.562500000000028
40
0.625000000000021
40
0.625000000000021
40
0.750000000000014
40
0.750000000000014
40
0.875000000000007
40
0.875000000000007
40
1
40
1
40
1
40
1
41
1
10
34.3468297038884
20
-4.08660813738504
30
0
41
1
10
34.3750427334233
20
-4.13995411830251
30
0
41
1
10
34.4057982139355
20
-4.18959650060737
30
0
41
1
10
34.4715345589612
20
-4.28272614735303
30
0
41
1
10
34.5065208919551
20
-4.32620544145334
30
0
41
1
10
34.5801658252936
20
-4.40781462930909
30
0
41
1
10
34.6188271729287
20
-4.4459405210803
30
0
41
1
10
34.6994400758159
20
-4.51739945157576
30
0
41
1
10
34.7409724708909
20
-4.55036012404366
30
0
41
1
10
34.8684964007216
20
-4.64190417887644
30
0
41
1
10
34.9575067005767
20
-4.69329662457034
30
0
41
1
10
35.1418805312994
20
-4.78075345075533
30
0
41
1
10
35.2372501419283
20
-4.8168031629655
30
0
41
1
10
35.3598563401577
20
-4.85367635369718
30
0
41
1
10
35.3845753123003
20
-4.86064526578323
30
0
41
1
10
35.4342071794837
20
-4.87374631250245
30
0
41
1
10
35.5088952048979
20
-4.89213193525686
30
0
41
1
10
35.5842699385313
20
-4.90689871010147
30
0
41
1
10
35.7358634623972
20
-4.93198420984046
30
0
41
1
10
35.8380475594672
20
-4.94279643583849
30
0
41
1
10
36.0443967983227
20
-4.95398108337588
30
0
41
1
10
36.148564636492
20
-4.95433929538268
30
0
41
1
10
36.3587172638862
20
-4.94548066357802
30
0
41
1
10
36.4647023062647
20
-4.93626248568648
30
0
41
1
10
36.5715389066983
20
-4.9225567263122
30
0
0
SPLINE
5
10B
100
AcDbEntity
8
1
62
256
6
ByLayer
370
18
48
1
60
0
100
AcDbSpline
70
4
71
3
72
56
73
52
40
0
40
0
40
0
40
0
40
0.0610742321616143
40
0.142301286817506
40
0.223528341473397
40
0.304755396129288
40
0.365675687121207
40
0.426595978113125
40
0.467209505441071
40
0.507823032769016
40
0.548436560096962
40
0.589050087424908
40
0.619510232920867
40
0.63981699658484
40
0.655047069332819
40
0.665200451164806
40
0.680430523912786
40
0.688045560286775
40
0.695660596660765
40
0.700737287576758
40
0.704544805763753
40
0.708352323950748
40
0.710256083044246
40
0.711525255773244
40
0.712001195546618
40
0.712477135319993
40
0.71271510520668
40
0.712953075093367
40
0.713111721684492
40
0.713270368275617
40
0.71338935321896
40
0.713508338162304
40
0.713567830633975
40
0.713607492281757
40
0.713637238517593
40
0.71370664640121
40
0.713904954640116
40
0.714222247822365
40
0.715015480777989
40
0.715967360324738
40
0.717236533053736
40
0.718505705782735
40
0.719774878511733
40
0.726120742156724
40
0.736274123988711
40
0.761657578568677
40
0.792117724064636
40
0.832731251392582
40
0.8936515423845
40
0.954571833376419
40
1
40
1
40
1
40
1
41
1
10
34.3468296931123
20
-4.08660813616714
30
0
41
1
10
33.9395531287416
20
-4.02360955495652
30
0
41
1
10
32.9906098977041
20
-3.84992059691339
30
0
41
1
10
31.5
20
-3.47520037958742
30
0
41
1
10
29.875
20
-2.96060057863738
30
0
41
1
10
28.3854166666667
20
-2.407143589252
30
0
41
1
10
27.03125
20
-1.85194143496025
30
0
41
1
10
25.9479166666667
20
-1.37891912552314
30
0
41
1
10
25
20
-0.948456972741724
30
0
41
1
10
24.1875
20
-0.572601810704356
30
0
41
1
10
23.375
20
-0.192010514040987
30
0
41
1
10
22.6302083333333
20
0.15617015518842
30
0
41
1
10
22.0208333333333
20
0.445367552421146
30
0
41
1
10
21.5807291666667
20
0.64559643542546
30
0
41
1
10
21.2760416666666
20
0.787502856594017
30
0
41
1
10
21.0052083333334
20
0.912771993550336
30
0
41
1
10
20.78515625
20
1.01388634365483
30
0
41
1
10
20.58203125
20
1.10783011553389
30
0
41
1
10
20.4466145833333
20
1.16863119819672
30
0
41
1
10
20.3365885416667
20
1.21801705827573
30
0
41
1
10
20.2519531249999
20
1.25628400967918
30
0
41
1
10
20.1884765625
20
1.28492773741783
30
0
41
1
10
20.1419270833333
20
1.3057994698035
30
0
41
1
10
20.1175944010417
20
1.31678754392428
30
0
41
1
10
20.102783203125
20
1.3233946143539
30
0
41
1
10
20.0948486328125
20
1.32700579023828
30
0
41
1
10
20.0885009765625
20
1.32978293727172
30
0
41
1
10
20.0842692057291
20
1.3317838365036
30
0
41
1
10
20.08056640625
20
1.3332579279845
30
0
41
1
10
20.0776570638021
20
1.33512327263762
30
0
41
1
10
20.0750122070313
20
1.33470674068576
30
0
41
1
10
20.0730285644532
20
1.3381426539342
30
0
41
1
10
20.0715738932291
20
1.33547917146348
30
0
41
1
10
20.0707143147787
20
1.33922567300459
30
0
41
1
10
20.0697886149088
20
1.33297449351403
30
0
41
1
10
20.067804972331
20
1.35128991042936
30
0
41
1
10
20.0639038085929
20
1.26655609685423
30
0
41
1
10
20.0551757812515
20
1.52252670131153
30
0
41
1
10
20.041422526039
20
1.11908669043257
30
0
41
1
10
20.0213216145847
20
1.4493027819212
30
0
41
1
10
19.9980468749996
20
1.34125695236364
30
0
41
1
10
19.9726562500002
20
1.38703681580441
30
0
41
1
10
19.9134114583331
20
1.39294908898165
30
0
41
1
10
19.7949218750013
20
1.53458516751667
30
0
41
1
10
19.5156249999969
20
1.39469578371637
30
0
41
1
10
19.0755208333381
20
2.01236872805504
30
0
41
1
10
18.4322916666646
20
1.94951131529839
30
0
41
1
10
17.5520833333336
20
2.4482341795923
30
0
41
1
10
16.4687499999991
20
2.77305192643061
30
0
41
1
10
15.3533100043048
20
3.190371463009
30
0
41
1
10
14.6441200086098
20
3.40405747383292
30
0
41
1
10
14.3411800129148
20
3.48782066242654
30
0
0
SPLINE
5
10C
100
AcDbEntity
8
1
62
256
6
ByLayer
370
18
48
1
60
0
100
AcDbSpline
70
4
71
3
72
11
73
7
40
0
40
0
40
0
40
0
40
0.0991367540308965
40
0.399424502687264
40
0.699712251343632
40
1
40
1
40
1
40
1
41
1
10
12
20
4.0718944945597
30
0
41
1
10
12
20
4.0725450303346
30
0
41
1
10
12
20
4.05868711234336
30
0
41
1
10
12
20
3.91562763260805
30
0
41
1
10
12
20
3.51515314129139
30
0
41
1
10
12
20
3.1311711832918
30
0
41
1
10
12
20
2.91988161165372
30
0
0
SPLINE
5
10D
100
AcDbEntity
8
1
62
256
6
ByLayer
370
13
48
1
60
0
100
AcDbSpline
70
4
71
3
72
55
73
51
40
0
40
0
40
0
40
0
40
0.0385048847939089
40
0.11862947772775
40
0.198754070661591
40
0.258847515361971
40
0.318940960062352
40
0.359003256529273
40
0.399065552996193
40
0.439127849463114
40
0.479190145930034
40
0.509236868280224
40
0.529268016513685
40
0.54429137768878
40
0.55430695180551
40
0.569330312980605
40
0.576841993568153
40
0.5843536741557
40
0.589361461214065
40
0.593117301507839
40
0.596873141801613
40
0.5987510619485
40
0.600003008713091
40
0.600472488749813
40
0.600941968786535
40
0.601176708804895
40
0.601411448823256
40
0.60156794216883
40
0.601724435514404
40
0.601841805523584
40
0.601959175532765
40
0.602017860537355
40
0.602056983873749
40
0.602086326376044
40
0.602154792214732
40
0.6023504088967
40
0.602663395587847
40
0.603445862315717
40
0.60438482238916
40
0.605636769153752
40
0.606888715918343
40
0.608140662682934
40
0.614400396505891
40
0.624415970622621
40
0.649454905914446
40
0.679501628264636
40
0.719563924731557
40
0.779657369431938
40
0.839750814132318
40
1
40
1
40
1
40
1
41
1
10
32.2809142673807
20
-5.27363733947064
30
0
41
1
10
32.0206095115871
20
-5.27921173931418
30
0
41
1
10
31.2186380891269
20
-5.27700836210397
30
0
41
1
10
29.875
20
-5.17457537417079
30
0
41
0.999999999999999
10
28.3854166666666
20
-4.91411239334906
30
0
41
1
10
27.03125
20
-4.56655416802587
30
0
41
1
10
25.9479166666666
20
-4.21797953341516
30
0
41
1
10
25
20
-3.86629403190437
30
0
41
0.999999999999999
10
24.1875
20
-3.5354580977978
30
0
41
1
10
23.375
20
-3.17739745116688
30
0
41
1
10
22.6302083333333
20
-2.82644194191633
30
0
41
1
10
22.0208333333333
20
-2.52486754076511
30
0
41
1
10
21.5807291666666
20
-2.30040707760551
30
0
41
1
10
21.2760416666666
20
-2.1420607062573
30
0
41
1
10
21.0052083333334
20
-1.99957271046759
30
0
41
1
10
20.7851562499999
20
-1.88246802565982
30
0
41
1
10
20.58203125
20
-1.77336264602587
30
0
41
0.999999999999999
10
20.4466145833333
20
-1.70019985877474
30
0
41
1
10
20.3365885416667
20
-1.64048210799058
30
0
41
1
10
20.2519531249999
20
-1.59440394950789
30
0
41
1
10
20.1884765625
20
-1.55975710880827
30
0
41
1
10
20.1419270833333
20
-1.53430239260055
30
0
41
0.999999999999999
10
20.1175944010417
20
-1.52098307645042
30
0
41
1
10
20.1027832031249
20
-1.51287121499621
30
0
41
1
10
20.0948486328125
20
-1.50852427944491
30
0
41
1
10
20.0885009765625
20
-1.50504595690075
30
0
41
1
10
20.0842692057291
20
-1.50272673186763
30
0
41
1
10
20.08056640625
20
-1.50069716013061
30
0
41
1
10
20.0776570638021
20
-1.49910233980168
30
0
41
0.999999999999999
10
20.0750122070313
20
-1.49765237856724
30
0
41
1
10
20.0730285644531
20
-1.49656482764263
30
0
41
0.999999999999998
10
20.0715738932291
20
-1.49576724634437
30
0
41
1
10
20.0707143147787
20
-1.49529593388271
30
0
41
0.999999999999999
10
20.0697886149088
20
-1.49478835574843
30
0
41
1
10
20.067804972331
20
-1.49370065505655
30
0
41
0.999999999999983
10
20.0639038085929
20
-1.49156133385938
30
0
41
1.00000000000003
10
20.0551757812515
20
-1.48677429669193
30
0
41
0.999999999999968
10
20.0414225260376
20
-1.47922851706052
30
0
41
1.00000000000002
10
20.0213216145837
20
-1.46819420953994
30
0
41
0.999999999999991
10
19.9980468749999
20
-1.45540907959268
30
0
41
1
10
19.9726562500001
20
-1.44145111002564
30
0
41
0.999999999999995
10
19.9134114583331
20
-1.40885816922424
30
0
41
1.00000000000001
10
19.7949218750008
20
-1.34352791757822
30
0
41
0.999999999999973
10
19.5156249999951
20
-1.18884138637896
30
0
41
1
10
19.0755208333375
20
-0.942974847501887
30
0
41
1
10
18.4322916666651
20
-0.58013688600232
30
0
41
1.00000000000001
10
17.5520833333338
20
-0.0793551335912917
30
0
41
1
10
16.4687499999991
20
0.539695259785814
30
0
41
1
10
14.5729166666668
20
1.61090129449488
30
0
41
0.999999999999998
10
13.083333333333
20
2.40555832512093
30
0
41
1
10
12
20
2.91988161165372
30
0
0
SPLINE
5
10E
100
AcDbEntity
8
1
62
256
6
ByLayer
370
18
48
1
60
0
100
AcDbSpline
70
4
71
3
72
32
73
28
40
0
40
0
40
0
40
0
40
0.249999999999914
40
0.249999999999914
40
0.374999999999887
40
0.374999999999887
40
0.437499999999861
40
0.437499999999861
40
0.499999999999834
40
0.499999999999834
40
0.562499999999808
40
0.562499999999808
40
0.593749999999798
40
0.593749999999798
40
0.624999999999788
40
0.624999999999788
40
0.687499999999774
40
0.687499999999774
40
0.71874999999978
40
0.71874999999978
40
0.749999999999786
40
0.749999999999786
40
0.81249999999984
40
0.81249999999984
40
0.874999999999894
40
0.874999999999894
40
1
40
1
40
1
40
1
41
1
10
6.99319124924656
20
5.17106045337903
30
0
41
1
10
6.97003391057265
20
5.18261039510733
30
0
41
1
10
6.94778402284109
20
5.19446846955955
30
0
41
1
10
6.91717990669804
20
5.21330105636051
30
0
41
1
10
6.9074704099211
20
5.21974627162928
30
0
41
1
10
6.89428775198286
20
5.22974163758025
30
0
41
1
10
6.89012108511926
20
5.23313236988182
30
0
41
1
10
6.88242139755059
20
5.24008257543809
30
0
41
1
10
6.87887268646082
20
5.24365384756618
30
0
41
1
10
6.87278817555179
20
5.25100292451714
30
0
41
1
10
6.87028639320434
20
5.25472911629316
30
0
41
1
10
6.86779484616818
20
5.26044657378975
30
0
41
1
10
6.86717712167516
20
5.262374049676
30
0
41
1
10
6.86650804574091
20
5.26628823554259
30
0
41
1
10
6.86646469058496
20
5.26827550414663
30
0
41
1
10
6.86743688261362
20
5.27411788175016
30
0
41
1
10
6.86965450891463
20
5.27798422608706
30
0
41
1
10
6.87549561153165
20
5.28307647149325
30
0
41
1
10
6.87788883406711
20
5.28469269508227
30
0
41
1
10
6.88328411221161
20
5.2876183212436
30
0
41
1
10
6.88627942845841
20
5.28893590342116
30
0
41
1
10
6.8960114932365
20
5.29252661216972
30
0
41
1
10
6.90323612236583
20
5.29435673692535
30
0
41
1
10
6.91832861469643
20
5.29729247459468
30
0
41
1
10
6.92624322173666
20
5.29839796859741
30
0
41
1
10
6.94999867895277
20
5.30094752302304
30
0
41
1
10
6.96615810640529
20
5.30170597662996
30
0
41
1
10
6.98247731727642
20
5.30200046374466
30
0
0
SPLINE
5
10F
100
AcDbEntity
8
1
62
256
6
ByLayer
370
18
48
1
60
0
100
AcDbSpline
70
4
71
3
72
10
73
6
40
0
40
0
40
0
40
0
40
0.5
40
0.5
40
1
40
1
40
1
40
1
41
1
10
10.4663774388561
20
-5.97836439199804
30
0
41
1
10
10.4714319469604
20
-5.97292633850952
30
0
41
1
10
10.4820769253817
20
-5.96654365471144
30
0
41
1
10
10.5141965087425
20
-5.95207010066784
30
0
41
1
10
10.5355580553007
20
-5.9440408993454
30
0
41
1
10
10.5616334129628
20
-5.93544477475842
30
0
0
SPLINE
5
110
100
AcDbEntity
8
1
62
256
6
ByLayer
370
18
48
1
60
0
100
AcDbSpline
70
4
71
3
72
15
73
11
40
0
40
0
40
0
40
0
40
0.250000000000001
40
0.500000000000002
40
0.500000000000002
40
0.625000000000002
40
0.625000000000002
40
0.750000000000002
40
0.750000000000002
40
1
40
1
40
1
40
1
41
1
10
10.5616334129619
20
-5.93544477475822
30
0
41
1
10
10.5475550749529
20
-5.92564884877587
30
0
41
1
10
10.5276546856427
20
-5.90380622276314
30
0
41
1
10
10.5242764523855
20
-5.87740941674664
30
0
41
1
10
10.5281020463213
20
-5.85587685700958
30
0
41
1
10
10.5304388227816
20
-5.84841009622861
30
0
41
1
10
10.5372848785623
20
-5.83289248595955
30
0
41
1
10
10.5418148526207
20
-5.8248197307106
30
0
41
1
10
10.5584721529611
20
-5.80009301948158
30
0
41
1
10
10.5736825102408
20
-5.78283453014561
30
0
41
1
10
10.59277127949
20
-5.76490190295894
30
0
0
SPLINE
5
111
100
AcDbEntity
8
1
62
256
6
ByLayer
370
18
48
1
60
0
100
AcDbSpline
70
4
71
3
72
32
73
28
40
0
40
0
40
0
40
0
40
0.25000000000004
40
0.25000000000004
40
0.375000000000077
40
0.375000000000077
40
0.437500000000081
40
0.437500000000081
40
0.500000000000086
40
0.500000000000086
40
0.56250000000009
40
0.56250000000009
40
0.625000000000094
40
0.625000000000094
40
0.656250000000095
40
0.656250000000095
40
0.687500000000096
40
0.687500000000096
40
0.718750000000097
40
0.718750000000097
40
0.750000000000098
40
0.750000000000098
40
0.81250000000006
40
0.81250000000006
40
0.875000000000022
40
0.875000000000022
40
1
40
1
40
1
40
1
41
1
10
7.36399529611171
20
-4.58652758078142
30
0
41
1
10
7.34243328298263
20
-4.57175994332582
30
0
41
1
10
7.32179753856431
20
-4.55640263128936
30
0
41
1
10
7.29358653956425
20
-4.53171117327176
30
0
41
1
10
7.28463112042928
20
-4.52317916033772
30
0
41
1
10
7.27251531190868
20
-4.50987460788267
30
0
41
1
10
7.26869369034799
20
-4.50535010327044
30
0
41
1
10
7.26164249690447
20
-4.49606026902657
30
0
41
1
10
7.25839847608276
20
-4.4912740217793
30
0
41
1
10
7.25285911266135
20
-4.48149435047199
30
0
41
1
10
7.25055160934869
20
-4.47650124015772
30
0
41
1
10
7.24737558539053
20
-4.46620141291154
30
0
41
1
10
7.24652697662472
20
-4.46092227686066
30
0
41
1
10
7.24705596835091
20
-4.45302688272557
30
0
41
1
10
7.24754420037655
20
-4.45036348848387
30
0
41
1
10
7.24923601339668
20
-4.44519697390933
30
0
41
1
10
7.25043401707379
20
-4.44268465333988
30
0
41
1
10
7.25362288332107
20
-4.43782142821905
30
0
41
1
10
7.25561778154309
20
-4.43548568726183
30
0
41
1
10
7.26021739920458
20
-4.43120051676516
30
0
41
1
10
7.26284536017298
20
-4.42921718458777
30
0
41
1
10
7.27158786579568
20
-4.42374381081422
30
0
41
1
10
7.2782141879494
20
-4.42090941477392
30
0
41
1
10
7.29248839530575
20
-4.41628864785221
30
0
41
1
10
7.29993128932367
20
-4.41457425250346
30
0
41
1
10
7.32263112074378
20
-4.41057076528378
30
0
41
1
10
7.33839765179815
20
-4.40937622051041
30
0
41
1
10
7.35414389925452
20
-4.40893259375571
30
0
0
SPLINE
5
112
100
AcDbEntity
8
1
62
256
6
ByLayer
370
18
48
1
60
0
100
AcDbSpline
70
4
71
3
72
49
73
45
40
0
40
0
40
0
40
0
40
0.0625000000000257
40
0.0625000000000257
40
0.125000000000051
40
0.125000000000051
40
0.156250000000061
40
0.156250000000061
40
0.18750000000007
40
0.18750000000007
40
0.250000000000083
40
0.250000000000083
40
0.281250000000085
40
0.281250000000085
40
0.296875000000084
40
0.296875000000084
40
0.312500000000082
40
0.375000000000072
40
0.375000000000072
40
0.390625000000072
40
0.390625000000072
40
0.406250000000073
40
0.437500000000071
40
0.468750000000069
40
0.468750000000069
40
0.484375000000067
40
0.484375000000067
40
0.500000000000065
40
0.500000000000065
40
0.562500000000056
40
0.562500000000056
40
0.625000000000047
40
0.625000000000047
40
0.656250000000043
40
0.656250000000043
40
0.687500000000039
40
0.687500000000039
40
0.750000000000031
40
0.750000000000031
40
0.875000000000016
40
0.875000000000016
40
0.937500000000008
40
0.937500000000008
40
1
40
1
40
1
40
1
41
1
10
7.35414389926257
20
-4.4089325937527
30
0
41
1
10
7.41605416911486
20
-4.40718836533739
30
0
41
1
10
7.47770019784056
20
-4.40411336566339
30
0
41
1
10
7.60031480722273
20
-4.39452749759533
30
0
41
1
10
7.66128483678781
20
-4.38802505623866
30
0
41
1
10
7.75206447015731
20
-4.37480178443946
30
0
41
1
10
7.78230306335431
20
-4.36979283396735
30
0
41
1
10
7.84195655071983
20
-4.35850245416381
30
0
41
1
10
7.87137143237496
20
-4.35222590176599
30
0
41
1
10
7.95822747231546
20
-4.33124306630216
30
0
41
1
10
8.01429272177336
20
-4.31440858046719
30
0
41
1
10
8.09483215475493
20
-4.28348657351299
30
0
41
1
10
8.12108271841899
20
-4.27222865552963
30
0
41
1
10
8.15943128205177
20
-4.25367426136299
30
0
41
1
10
8.17207419568598
20
-4.24719361413651
30
0
41
1
10
8.19684612254477
20
-4.23370711116982
30
0
41
1
10
8.25718624868674
20
-4.19885397133345
30
0
41
1
10
8.30949459899094
20
-4.15819643244257
30
0
41
1
10
8.3552082140358
20
-4.11249158193095
30
0
41
1
10
8.36404413674717
20
-4.10307191700761
30
0
41
1
10
8.38094299059551
20
-4.08384568725825
30
0
41
1
10
8.40506604354803
20
-4.05451220275111
30
0
41
1
10
8.43946122539884
20
-4.00322121657626
30
0
41
1
10
8.46136836094104
20
-3.9597501772916
30
0
41
1
10
8.47588523523331
20
-3.92627072878756
30
0
41
1
10
8.48041400266379
20
-3.91493919709069
30
0
41
1
10
8.4888110034899
20
-3.89213056644599
30
0
41
1
10
8.49267861506317
20
-3.8806611291271
30
0
41
1
10
8.51049316680118
20
-3.8229976598077
30
0
41
1
10
8.51991898485076
20
-3.77585859205482
30
0
41
1
10
8.53155387002221
20
-3.67973210194316
30
0
41
1
10
8.53374498466781
20
-3.6307433469108
30
0
41
1
10
8.53273384517721
20
-3.55594459116068
30
0
41
1
10
8.53167510388226
20
-3.53089614931139
30
0
41
1
10
8.52830776530604
20
-3.48078653022398
30
0
41
1
10
8.52599836954758
20
-3.45568849725072
30
0
41
1
10
8.51741638153143
20
-3.38024226951609
30
0
41
1
10
8.50950063542925
20
-3.32974082913145
30
0
41
1
10
8.48044114532252
20
-3.17749996721068
30
0
41
1
10
8.45405907268892
20
-3.07501672183687
30
0
41
1
10
8.40673645495752
20
-2.91954893622253
30
0
41
1
10
8.38962536485698
20
-2.86738168113985
30
0
41
1
10
8.35321265461189
20
-2.76296232383589
30
0
41
1
10
8.33389741529987
20
-2.71066046620626
30
0
41
1
10
8.31357536967337
20
-2.65825099812983
30
0
0
SPLINE
5
113
100
AcDbEntity
8
1
62
256
6
ByLayer
370
18
48
1
60
0
100
AcDbSpline
70
4
71
3
72
12
73
8
40
0
40
0
40
0
40
0
40
0.25
40
0.5
40
0.75
40
0.75
40
1
40
1
40
1
40
1
41
1
10
8.31357536967178
20
-2.65825099813091
30
0
41
1
10
8.16261327715588
20
-2.52449571725867
30
0
41
1
10
7.86111166981178
20
-2.25310091104913
30
0
41
1
10
7.40612629596015
20
-1.83855751086622
30
0
41
1
10
7.09825821919279
20
-1.56022749578346
30
0
41
1
10
6.78673230413838
20
-1.28251503281743
30
0
41
1
10
6.62914014067246
20
-1.14396762197819
30
0
41
1
10
6.46901666240055
20
-1.00658099112394
30
0
0
SPLINE
5
114
100
AcDbEntity
8
1
62
256
6
ByLayer
370
18
48
1
60
0
100
AcDbSpline
70
4
71
3
72
32
73
28
40
0
40
0
40
0
40
0
40
0.125000000000007
40
0.125000000000007
40
0.250000000000013
40
0.250000000000013
40
0.37500000000002
40
0.37500000000002
40
0.437500000000023
40
0.437500000000023
40
0.468750000000025
40
0.468750000000025
40
0.500000000000027
40
0.500000000000027
40
0.625000000000028
40
0.625000000000028
40
0.656250000000026
40
0.656250000000026
40
0.687500000000025
40
0.75000000000002
40
0.812500000000015
40
0.812500000000015
40
0.87500000000001
40
0.87500000000001
40
0.937500000000005
40
0.937500000000005
40
1
40
1
40
1
40
1
41
1
10
6.46901666240055
20
-1.00658099112397
30
0
41
1
10
6.43117988197346
20
-0.974116871299969
30
0
41
1
10
6.39467136262451
20
-0.940527283616831
30
0
41
1
10
6.32479543772533
20
-0.870682879118192
30
0
41
1
10
6.2914232071503
20
-0.834432145181438
30
0
41
1
10
6.22855454995059
20
-0.758639540606367
30
0
41
1
10
6.19904714653578
20
-0.719106950650172
30
0
41
1
10
6.15859846616036
20
-0.656570336697456
30
0
41
1
10
6.14575547776315
20
-0.635181369637593
30
0
41
1
10
6.12762971541227
20
-0.602131075784655
30
0
41
1
10
6.12176778495885
20
-0.590929845231244
30
0
41
1
10
6.11056088525697
20
-0.568376476747034
30
0
41
1
10
6.10520554065346
20
-0.557007414155294
30
0
41
1
10
6.07974243754353
20
-0.499673114359837
30
0
41
1
10
6.06351741961751
20
-0.45226231225638
30
0
41
1
10
6.05008770202735
20
-0.390451914467661
30
0
41
1
10
6.04775790776236
20
-0.377991571715654
30
0
41
1
10
6.0438858489492
20
-0.353125521383902
30
0
41
1
10
6.03923544010885
20
-0.315800586789095
30
0
41
1
10
6.03742153050931
20
-0.253460380750255
30
0
41
1
10
6.04272121123321
20
-0.203439891472669
30
0
41
1
10
6.05167241476025
20
-0.153340274700497
30
0
41
1
10
6.05785745143405
20
-0.128909258947147
30
0
41
1
10
6.07342929105207
20
-0.0812294631205646
30
0
41
1
10
6.08281715787305
20
-0.0579770966811282
30
0
41
1
10
6.10464237688407
20
-0.0125911765374838
30
0
41
1
10
6.11713645292178
20
0.0096178032046055
30
0
41
1
10
6.13089963754561
20
0.0309951185514876
30
0
0
SPLINE
5
115
100
AcDbEntity
8
1
62
256
6
ByLayer
370
18
48
1
60
0
100
AcDbSpline
70
4
71
3
72
38
73
34
40
0
40
0
40
0
40
0
40
0.03125
40
0.03125
40
0.0624999999999999
40
0.0624999999999999
40
0.125
40
0.125
40
0.140625
40
0.140625
40
0.15625
40
0.15625
40
0.1875
40
0.1875
40
0.25
40
0.25
40
0.3125
40
0.3125
40
0.375
40
0.375
40
0.4375
40
0.4375
40
0.5
40
0.5
40
0.5625
40
0.5625
40
0.625
40
0.625
40
0.75
40
0.75
40
0.875
40
0.875
40
1
40
1
40
1
40
1
41
1
10
6.13089963754561
20
0.0309951185514876
30
0
41
1
10
6.16309889660511
20
0.0810077961158697
30
0
41
1
10
6.19778029185611
20
0.128489839736289
30
0
41
1
10
6.27121741871153
20
0.219304989249025
30
0
41
1
10
6.3099774014901
20
0.262633737900245
30
0
41
1
10
6.43144416702344
20
0.387344800522868
30
0
41
1
10
6.51928919912632
20
0.463501654105897
30
0
41
1
10
6.63569035252684
20
0.552009076995603
30
0
41
1
10
6.65930452690506
20
0.569371828471617
30
0
41
1
10
6.70716566236658
20
0.6034559198784
30
0
41
1
10
6.73140965946644
20
0.620172909383399
30
0
41
1
10
6.80455230296892
20
0.669094089895964
30
0
41
1
10
6.85402451126808
20
0.700191591482024
30
0
41
1
10
7.00429127344486
20
0.789547221221994
30
0
41
1
10
7.10692170226656
20
0.843899451461709
30
0
41
1
10
7.31609258214539
20
0.944340051744973
30
0
41
1
10
7.42264084381688
20
0.990411423543833
30
0
41
1
10
7.63905426231241
20
1.07558985296126
30
0
41
1
10
7.74892307985741
20
1.11468894480487
30
0
41
1
10
7.97159773805413
20
1.18676018693043
30
0
41
1
10
8.08388778131672
20
1.21956109300535
30
0
41
1
10
8.30994343974345
20
1.27937478762433
30
0
41
1
10
8.42374919614011
20
1.30639675108944
30
0
41
1
10
8.6527944354369
20
1.35516379100795
30
0
41
1
10
8.76778066023951
20
1.37685097136259
30
0
41
1
10
8.99829155535016
20
1.41517099736211
30
0
41
1
10
9.11387063929016
20
1.43181389517687
30
0
41
1
10
9.46153477534466
20
1.47457609244509
30
0
41
1
10
9.69456101421105
20
1.49357341665743
30
0
41
1
10
10.1629186210692
20
1.51327511853006
30
0
41
1
10
10.3967396642142
20
1.51390418641859
30
0
41
1
10
10.863672962236
20
1.4968970343221
30
0
41
1
10
11.0967848468272
20
1.47925162108035
30
0
41
1
10
11.3295296214032
20
1.45208072871037
30
0
0
SPLINE
5
116
100
AcDbEntity
8
1
62
256
6
ByLayer
370
18
48
1
60
0
100
AcDbSpline
70
4
71
3
72
15
73
11
40
0
40
0
40
0
40
0
40
0.125356343277198
40
0.25060799490686
40
0.375756428447529
40
0.500803089930085
40
0.625749398355544
40
0.750596746182155
40
0.875346499800859
40
1
40
1
40
1
40
1
41
1
10
10.6244428494907
20
2.68085209419235
30
0
41
1
10
10.616411445653
20
2.66951518776259
30
0
41
1
10
10.6003553454235
20
2.64685084294732
30
0
41
1
10
10.5763718612034
20
2.6129813173888
30
0
41
1
10
10.5524749753076
20
2.57922309688686
30
0
41
1
10
10.5286712927009
20
2.54558448148694
30
0
41
1
10
10.504958595444
20
2.51206278405684
30
0
41
1
10
10.4813391554155
20
2.47866091932184
30
0
41
1
10
10.4578061037394
20
2.44537031848344
30
0
41
1
10
10.4421858000792
20
2.42326341283223
30
0
41
1
10
10.4343786624593
20
2.41221422591983
30
0
0
SPLINE
5
117
100
AcDbEntity
8
1
62
256
6
ByLayer
370
18
48
1
60
0
100
AcDbSpline
70
4
71
3
72
8
73
4
40
0
40
0
40
0
40
0
40
1
40
1
40
1
40
1
41
1
10
37.347501273552
20
-2.26521307547364
30
0
41
1
10
37.3738921579395
20
-2.42191777659667
30
0
41
1
10
37.4002675572766
20
-2.5781008547776
30
0
41
1
10
37.4266235790986
20
-2.73373998533842
30
0
0
SPLINE
5
118
100
AcDbEntity
8
1
62
256
6
ByLayer
370
18
48
1
60
0
100
AcDbSpline
70
4
71
3
72
8
73
4
40
0
40
0
40
0
40
0
40
1
40
1
40
1
40
1
41
1
10
37.3954525871767
20
-0.917432917295571
30
0
41
1
10
37.4231193399286
20
-1.03673266771315
30
0
41
1
10
37.4516610538664
20
-1.1572639651973
30
0
41
1
10
37.4811572786086
20
-1.27913876954338
30
0
0
SPLINE
5
119
100
AcDbEntity
8
1
62
256
6
ByLayer
370
13
48
1
60
0
100
AcDbSpline
70
4
71
3
72
12
73
8
40
0
40
0
40
0
40
0
40
0.168889435007775
40
0.437834153329856
40
0.706778871651938
40
0.975723589974019
40
1
40
1
40
1
40
1
41
1
10
37.3954525807382
20
-0.917432910189603
30
0
41
1
10
37.0553017204921
20
-0.690080478386847
30
0
41
1
10
36.1734841935795
20
-0.0950907269765082
30
0
41
1
10
34.7500000000001
20
0.878466562103398
30
0
41
1
10
33.1250000000001
20
1.94115208306601
30
0
41
1
10
31.9927728933314
20
2.63719900437212
30
0
41
1
10
31.4022124533292
20
2.97327883668504
30
0
41
1
10
31.3533186799938
20
3.0009166821157
30
0
0
SPLINE
5
11A
100
AcDbEntity
8
1
62
256
6
ByLayer
370
18
48
1
60
0
100
AcDbSpline
70
4
71
3
72
8
73
4
40
0
40
0
40
0
40
0
40
1
40
1
40
1
40
1
41
1
10
37.3410951115473
20
-2.22509511414788
30
0
41
1
10
37.3432303028344
20
-2.2384694039165
30
0
41
1
10
37.3453656909087
20
-2.25184206252601
30
0
41
1
10
37.3475012722076
20
-2.26521306700349
30
0
0
SPLINE
5
11B
100
AcDbEntity
8
1
62
256
6
ByLayer
370
18
48
1
60
0
100
AcDbSpline
70
4
71
3
72
12
73
8
40
0
40
0
40
0
40
0
40
0.360171093699152
40
0.360171093699152
40
0.680082911092444
40
0.680082911092444
40
1
40
1
40
1
40
1
41
1
10
37.3410951115472
20
-2.22509511414779
30
0
41
1
10
37.3472372940255
20
-2.22931445444027
30
0
41
1
10
37.3533694577617
20
-2.23354646379897
30
0
41
1
10
37.3649288738062
20
-2.24156172282446
30
0
41
1
10
37.3703583255558
20
-2.24534227394287
30
0
41
1
10
37.3812006715864
20
-2.25292403261943
30
0
41
1
10
37.3866135879934
20
-2.25672525619004
30
0
41
1
10
37.3920179882403
20
-2.26053692678934
30
0
0
SPLINE
5
11C
100
AcDbEntity
8
1
62
256
6
ByLayer
370
18
48
1
60
0
100
AcDbSpline
70
4
71
3
72
40
73
36
40
0
40
0
40
0
40
0
40
0.0312499999999899
40
0.0312499999999899
40
0.0624999999999799
40
0.0624999999999799
40
0.0937499999999698
40
0.0937499999999698
40
0.109374999999965
40
0.109374999999965
40
0.124999999999959
40
0.124999999999959
40
0.140624999999954
40
0.140624999999954
40
0.156249999999949
40
0.156249999999949
40
0.187499999999937
40
0.187499999999937
40
0.218749999999926
40
0.218749999999926
40
0.249999999999915
40
0.249999999999915
40
0.312499999999922
40
0.312499999999922
40
0.37499999999993
40
0.37499999999993
40
0.437499999999937
40
0.437499999999937
40
0.499999999999945
40
0.499999999999945
40
0.62499999999996
40
0.62499999999996
40
0.749999999999975
40
0.749999999999975
40
1
40
1
40
1
40
1
41
1
10
37.3920179882403
20
-2.26053692678937
30
0
41
1
10
37.3985189729215
20
-2.26512200765754
30
0
41
1
10
37.4051848754935
20
-2.26942133270123
30
0
41
1
10
37.4189537657013
20
-2.2772667670734
30
0
41
1
10
37.42609284083
20
-2.28083055711028
30
0
41
1
10
37.4408095207397
20
-2.28683088894218
30
0
41
1
10
37.4483273232897
20
-2.28924919485505
30
0
41
1
10
37.4599281900875
20
-2.29170264838615
30
0
41
1
10
37.4638495536211
20
-2.2923234488498
30
0
41
1
10
37.471822278964
20
-2.29309591094275
30
0
41
1
10
37.4758791466145
20
-2.29324241164284
30
0
41
1
10
37.4838910510001
20
-2.29299366906932
30
0
41
1
10
37.4878751791094
20
-2.29260260543535
30
0
41
1
10
37.4957973098686
20
-2.29125253983679
30
0
41
1
10
37.4997637094321
20
-2.29028366610234
30
0
41
1
10
37.5113775001144
20
-2.28653998692911
30
0
41
1
10
37.5186408723314
20
-2.28298408485156
30
0
41
1
10
37.5323499820655
20
-2.27406030099226
30
0
41
1
10
37.538621980558
20
-2.26880188768206
30
0
41
1
10
37.5500936947407
20
-2.25733676430954
30
0
41
1
10
37.5553689302164
20
-2.2510529140703
30
0
41
1
10
37.5698828620501
20
-2.23134911376164
30
0
41
1
10
37.5777860833923
20
-2.21726710385048
30
0
41
1
10
37.5916977837213
20
-2.18809265524234
30
0
41
1
10
37.5976760366269
20
-2.17293833875198
30
0
41
1
10
37.6081885750865
20
-2.14255022164591
30
0
41
1
10
37.6127556140831
20
-2.12722636701676
30
0
41
1
10
37.6209655038389
20
-2.09640468469877
30
0
41
1
10
37.6246027947062
20
-2.08090580053241
30
0
41
1
10
37.6344896540967
20
-2.03421595858933
30
0
41
1
10
37.6397322701694
20
-2.00283520470526
30
0
41
1
10
37.6485586827854
20
-1.93975908993588
30
0
41
1
10
37.6521268740867
20
-1.90803840703174
30
0
41
1
10
37.6610234825688
20
-1.81299805360982
30
0
41
1
10
37.6646040176906
20
-1.74962294368763
30
0
41
1
10
37.666817481871
20
-1.68622786163527
30
0
0
SPLINE
5
11D
100
AcDbEntity
8
1
62
256
6
ByLayer
370
18
48
1
60
0
100
AcDbSpline
70
4
71
3
72
8
73
4
40
0
40
0
40
0
40
0
40
1
40
1
40
1
40
1
41
1
10
37.666817481871
20
-1.6862278616353
30
0
41
1
10
37.6046707152157
20
-1.5512539550484
30
0
41
1
10
37.5427842522705
20
-1.41555683676677
30
0
41
1
10
37.4811572786077
20
-1.27913876954577
30
0
0
SPLINE
5
11E
100
AcDbEntity
8
1
62
256
6
ByLayer
370
18
48
1
60
0
100
AcDbSpline
70
4
71
3
72
58
73
54
40
0
40
0
40
0
40
0
40
0.0583141380779132
40
0.0583141380779132
40
0.116628276155826
40
0.116628276155826
40
0.145785345194782
40
0.145785345194782
40
0.174942414233738
40
0.174942414233738
40
0.204099483272693
40
0.204099483272693
40
0.233256552311649
40
0.233256552311649
40
0.291570690389562
40
0.291570690389562
40
0.320727759428518
40
0.320727759428518
40
0.349884828467474
40
0.349884828467474
40
0.408198966545385
40
0.408198966545385
40
0.437356035584342
40
0.437356035584342
40
0.466513104623298
40
0.466513104623298
40
0.524827242701214
40
0.524827242701214
40
0.583141380779129
40
0.583141380779129
40
0.641455518857044
40
0.641455518857044
40
0.699769656934959
40
0.699769656934959
40
0.758083795012875
40
0.758083795012875
40
0.787240864051832
40
0.787240864051832
40
0.801819398571311
40
0.801819398571311
40
0.81639793309079
40
0.81639793309079
40
0.874712071168705
40
0.874712071168705
40
0.903869140207663
40
0.903869140207663
40
0.93302620924662
40
0.93302620924662
40
0.962183278285578
40
0.962183278285578
40
0.991340347324535
40
0.991340347324535
40
1
40
1
40
1
40
1
41
1
10
37.4811572785913
20
-1.27913876953883
30
0
41
1
10
37.2139841321445
20
-1.09035590458251
30
0
41
1
10
36.9470731820277
20
-0.899809621927488
30
0
41
1
10
36.4132316546952
20
-0.515959853271852
30
0
41
1
10
36.1463570451581
20
-0.322580210041792
30
0
41
1
10
35.7453402403767
20
-0.0313700387583822
30
0
41
1
10
35.6114374226941
20
0.0659540797549028
30
0
41
1
10
35.3444934406138
20
0.259782641043614
30
0
41
1
10
35.2113084471566
20
0.356389795424349
30
0
41
1
10
34.945327559639
20
0.548751952177753
30
0
41
1
10
34.8125290922814
20
0.644503950308973
30
0
41
1
10
34.5471537810352
20
0.834940443602477
30
0
41
1
10
34.4145863944564
20
0.929637976674087
30
0
41
1
10
34.0172118820144
20
1.21212955020761
30
0
41
1
10
33.7527384712479
20
1.39832970344563
30
0
41
1
10
33.3564442838569
20
1.67413464888537
30
0
41
1
10
33.2244156753316
20
1.76548663746055
30
0
41
1
10
32.9604581095165
20
1.94695383431375
30
0
41
1
10
32.8285239605942
20
2.0370618487369
30
0
41
1
10
32.4325682788865
20
2.30510995498017
30
0
41
1
10
32.1683899144407
20
2.48076960243748
30
0
41
1
10
31.7706044299192
20
2.73812490359842
30
0
41
1
10
31.6377570901254
20
2.82288839371483
30
0
41
1
10
31.3713644164044
20
2.99011708603462
30
0
41
1
10
31.2378196646054
20
3.07258184841882
30
0
41
1
10
30.8360442254092
20
3.31639194484708
30
0
41
1
10
30.5692926861702
20
3.4725703597567
30
0
41
1
10
30.0374460389715
20
3.77199545533494
30
0
41
1
10
29.772367372987
20
3.91525220840145
30
0
41
1
10
29.2432367831742
20
4.18817927332205
30
0
41
1
10
28.9791684773918
20
4.31783292256637
30
0
41
1
10
28.4511498431277
20
4.56251604196396
30
0
41
1
10
28.1872163092825
20
4.67746909276542
30
0
41
1
10
27.6582778351319
20
4.89230559075105
30
0
41
1
10
27.3933209994568
20
4.99215112674929
30
0
41
1
10
26.9945386654956
20
5.12944023448682
30
0
41
1
10
26.8613881079674
20
5.17310082695033
30
0
41
1
10
26.6611938698179
20
5.23546856801798
30
0
41
1
10
26.5943841223788
20
5.25574012781183
30
0
41
1
10
26.4605931681686
20
5.29522676764256
30
0
41
1
10
26.3937001909751
20
5.31441492531891
30
0
41
1
10
26.0597636542506
20
5.4073967222665
30
0
41
1
10
25.7937871594
20
5.47243114462296
30
0
41
1
10
25.3959556577415
20
5.55556725257279
30
0
41
1
10
25.2635079862993
20
5.58092722061153
30
0
41
1
10
24.9988047653756
20
5.62709599724025
30
0
41
1
10
24.866562952314
20
5.64787759032086
30
0
41
1
10
24.6022529591859
20
5.68474159013203
30
0
41
1
10
24.4701837815422
20
5.70082659260447
30
0
41
1
10
24.2061473462525
20
5.72819740174603
30
0
41
1
10
24.0741892274336
20
5.73945258256458
30
0
41
1
10
23.9029989573773
20
5.75101549952467
30
0
41
1
10
23.8637945619301
20
5.75346069031153
30
0
41
1
10
23.8245852327931
20
5.75570162150234
30
0
0
SPLINE
5
11F
100
AcDbEntity
8
1
62
256
6
ByLayer
370
18
48
1
60
0
100
AcDbSpline
70
4
71
3
72
33
73
29
40
0
40
0
40
0
40
0
40
0.0184075752393366
40
0.042155371100658
40
0.0896509628233007
40
0.113398758684622
40
0.137146554545943
40
0.184642146268586
40
0.208389942129908
40
0.232137737991229
40
0.25588553385255
40
0.279633329713872
40
0.303381125575193
40
0.327128921436515
40
0.374624513159157
40
0.398372309020478
40
0.4221201048818
40
0.469615696604443
40
0.564606880049728
40
0.612102471772371
40
0.659598063495014
40
0.707093655217656
40
0.754589246940299
40
0.802084838662942
40
0.849580430385585
40
0.897076022108227
40
0.94457161383087
40
1
40
1
40
1
40
1
41
1
10
22.166215218388
20
5.95101288798779
30
0
41
1
10
22.2577425113204
20
5.94730632517641
30
0
41
1
10
22.4673910358317
20
5.93612209524596
30
0
41
1
10
22.9134585217011
20
5.89930183484213
30
0
41
1
10
23.3864753735785
20
5.83661144304247
30
0
41
1
10
23.8597610417862
20
5.75082448153108
30
0
41
1
10
24.3331969522423
20
5.64991138345223
30
0
41
1
10
24.8068128122892
20
5.52617759774122
30
0
41
1
10
25.280506729245
20
5.3806315473131
30
0
41
1
10
25.635797393986
20
5.26083250831792
30
0
41
1
10
25.9910783066498
20
5.13047123972856
30
0
41
1
10
26.3463165898495
20
4.98987875306713
30
0
41
1
10
26.7014703780948
20
4.83944022918192
30
0
41
1
10
27.1748554800625
20
4.62618092449617
30
0
41
1
10
27.647956277246
20
4.39429866212512
30
0
41
1
10
28.1206370171774
20
4.145537327044
30
0
41
1
10
28.5929762103099
20
3.8860823076775
30
0
41
1
10
29.4189494863808
20
3.40479643588509
30
0
41
1
10
30.3634784979066
20
2.79840907141141
30
0
41
1
10
31.3126210835724
20
2.14715000223632
30
0
41
1
10
32.0276949821483
20
1.63907804412341
30
0
41
1
10
32.7470919310935
20
1.11464109331408
30
0
41
1
10
33.4717959320541
20
0.577128190439765
30
0
41
1
10
34.2030345367226
20
0.0299823092556721
30
0
41
1
10
34.9417803042522
20
-0.523105672043954
30
0
41
1
10
35.6893629173088
20
-1.07826244685521
30
0
41
1
10
36.4889160816192
20
-1.66194122282411
30
0
41
1
10
37.0450054854952
20
-2.05587763167077
30
0
41
1
10
37.3475012725539
20
-2.26521307563632
30
0
0
SPLINE
5
120
100
AcDbEntity
8
1
62
256
6
ByLayer
370
18
48
1
60
0
100
AcDbSpline
70
4
71
3
72
12
73
8
40
0
40
0
40
0
40
0
40
0.355282282975001
40
0.355282282975001
40
0.677641115594194
40
0.677641115594194
40
1
40
1
40
1
40
1
41
1
10
37.440271071841
20
-2.80953839471664
30
0
41
1
10
37.4463270636494
20
-2.81386461075039
30
0
41
1
10
37.4523820486066
20
-2.81819202194396
30
0
41
1
10
37.4639289660579
20
-2.82644813824948
30
0
41
1
10
37.4694210791624
20
-2.83037662961795
30
0
41
1
10
37.4804036057907
20
-2.83823562844759
30
0
41
1
10
37.4858940195352
20
-2.84216613606719
30
0
41
1
10
37.4913835729572
20
-2.8460976628345
30
0
0
SPLINE
5
121
100
AcDbEntity
8
1
62
256
6
ByLayer
370
13
48
1
60
0
100
AcDbSpline
70
4
71
3
72
55
73
51
40
0
40
0
40
0
40
0
40
0.036843577136362
40
0.127089320645221
40
0.21733506415408
40
0.285019371785724
40
0.352703679417368
40
0.397826551171797
40
0.442949422926227
40
0.488072294680656
40
0.533195166435086
40
0.567037320250908
40
0.589598756128123
40
0.606519833036033
40
0.617800550974641
40
0.634721627882552
40
0.643182166336507
40
0.651642704790463
40
0.657283063759767
40
0.661513332986744
40
0.665743602213722
40
0.667858736827211
40
0.669268826569537
40
0.669797610222909
40
0.670326393876281
40
0.670590785702967
40
0.670855177529653
40
0.671031438747444
40
0.671207699965235
40
0.671339895878578
40
0.671472091791921
40
0.671538189748593
40
0.67158225505304
40
0.671615304031376
40
0.67169241831416
40
0.671912744836398
40
0.67226526727198
40
0.673146573360933
40
0.674204140667678
40
0.675614230410004
40
0.677024320152329
40
0.678434409894655
40
0.685484858606285
40
0.696765576544892
40
0.724967371391411
40
0.758809525207233
40
0.803932396961662
40
0.871616704593306
40
0.93930101222495
40
1
40
1
40
1
40
1
41
1
10
32.1634197970867
20
1.04186351749104
30
0
41
1
10
31.9422798647245
20
1.19431431319504
30
0
41
1
10
31.1794732656956
20
1.71599602319776
30
0
41
1
10
29.875
20
2.57240082919424
30
0
41
0.999999999999999
10
28.3854166666667
20
3.45352145797836
30
0
41
1
10
27.03125
20
4.14645522710432
30
0
41
1
10
25.9479166666666
20
4.61536442143782
30
0
41
1
10
25
20
4.95504660364338
30
0
41
0.999999999999999
10
24.1875
20
5.19391849059074
30
0
41
1
10
23.375
20
5.37891961707686
30
0
41
1
10
22.6302083333333
20
5.49762368433392
30
0
41
1
10
22.0208333333333
20
5.55727210486057
30
0
41
1
10
21.5807291666667
20
5.58051478741808
30
0
41
1
10
21.2760416666666
20
5.58697311287739
30
0
41
1
10
21.0052083333334
20
5.58663854891969
30
0
41
1
10
20.78515625
20
5.58144533099053
30
0
41
1
10
20.58203125
20
5.5725850290419
30
0
41
0.999999999999999
10
20.4466145833333
20
5.56487542084995
30
0
41
1
10
20.3365885416667
20
5.55739389517348
30
0
41
1
10
20.2519531249999
20
5.55098442650689
30
0
41
1
10
20.1884765625
20
5.54575714076946
30
0
41
1
10
20.1419270833334
20
5.54169298768599
30
0
41
0.999999999999999
10
20.1175944010417
20
5.5395015578836
30
0
41
1
10
20.1027832031249
20
5.53814522766342
30
0
41
1
10
20.0948486328125
20
5.53741207295869
30
0
41
1
10
20.0885009765625
20
5.53682162027184
30
0
41
1
10
20.0842692057291
20
5.53642623909573
30
0
41
1
10
20.08056640625
20
5.53607900750359
30
0
41
1
10
20.0776570638021
20
5.53580538251179
30
0
41
0.999999999999999
10
20.0750122070313
20
5.53555599605404
30
0
41
1
10
20.0730285644532
20
5.5353685470705
30
0
41
0.999999999999998
10
20.0715738932291
20
5.53523085946419
30
0
41
1
10
20.0707143147787
20
5.53514942473773
30
0
41
0.999999999999999
10
20.0697886149088
20
5.53506167011699
30
0
41
1
10
20.067804972331
20
5.53487345403986
30
0
41
0.999999999999983
10
20.0639038085929
20
5.53450239062643
30
0
41
1.00000000000003
10
20.0551757812515
20
5.53366831504308
30
0
41
0.999999999999968
10
20.0414225260377
20
5.53234077978153
30
0
41
1.00000000000002
10
20.0213216145837
20
5.53037014847734
30
0
41
0.999999999999991
10
19.9980468749999
20
5.52804359729369
30
0
41
1
10
19.9726562500001
20
5.52544975049388
30
0
41
0.999999999999995
10
19.9134114583331
20
5.51926731626426
30
0
41
1.00000000000001
10
19.7949218750008
20
5.50612202057041
30
0
41
0.999999999999973
10
19.5156249999951
20
5.47115912627047
30
0
41
1
10
19.0755208333375
20
5.40261049761722
30
0
41
1
10
18.4322916666651
20
5.27176592443711
30
0
41
1.00000000000001
10
17.5520833333339
20
5.0398112511639
30
0
41
1
10
16.4687499999992
20
4.66653043754054
30
0
41
1
10
15.2919267964913
20
4.15657706649158
30
0
41
1
10
14.5213535929829
20
3.76389340508325
30
0
41
1
10
14.1570303894744
20
3.56707064505582
30
0
0
SPLINE
5
122
100
AcDbEntity
8
1
62
256
6
ByLayer
370
18
48
1
60
0
100
AcDbSpline
70
4
71
3
72
8
73
4
40
0
40
0
40
0
40
0
40
1
40
1
40
1
40
1
41
1
10
37.4913835729572
20
-2.8460976628345
30
0
41
1
10
37.5048984407452
20
-2.8557767861401
30
0
41
1
10
37.5184229053977
20
-2.86519206183419
30
0
41
1
10
37.531960500807
20
-2.87433380404519
30
0
0
SPLINE
5
123
100
AcDbEntity
8
1
62
256
6
ByLayer
370
18
48
1
60
0
100
AcDbSpline
70
4
71
3
72
8
73
4
40
0
40
0
40
0
40
0
40
1
40
1
40
1
40
1
41
1
10
37.4266235793305
20
-2.73373998619334
30
0
41
1
10
37.4313484352181
20
-2.76073940684071
30
0
41
1
10
37.4360718187183
20
-2.78771618013428
30
0
41
1
10
37.4407936925876
20
-2.8146701038178
30
0
0
SPLINE
5
124
100
AcDbEntity
8
1
62
256
6
ByLayer
370
18
48
1
60
0
100
AcDbSpline
70
4
71
3
72
8
73
4
40
0
40
0
40
0
40
0
40
1
40
1
40
1
40
1
41
1
10
37.429814462185
20
-4.33989277610874
30
0
41
1
10
37.4571708010273
20
-4.37957792365103
30
0
41
1
10
37.4852365495276
20
-4.41757945480518
30
0
41
1
10
37.5140627013126
20
-4.4537763560073
30
0
0
SPLINE
5
125
100
AcDbEntity
8
1
62
256
6
ByLayer
370
13
48
1
60
0
100
AcDbSpline
70
4
71
3
72
8
73
4
40
0
40
0
40
0
40
0
40
1
40
1
40
1
40
1
41
1
10
37.4298144456561
20
-4.33989278286342
30
0
41
1
10
37.4045170451819
20
-4.34872121796525
30
0
41
1
10
37.3792196447078
20
-4.35750216846279
30
0
41
1
10
37.3539222442336
20
-4.36623512933897
30
0
0
SPLINE
5
126
100
AcDbEntity
8
1
62
256
6
ByLayer
370
13
48
1
60
0
100
AcDbSpline
70
4
71
3
72
56
73
52
40
0
40
0
40
0
40
0
40
0.0435200216655441
40
0.117095404614348
40
0.190670787563153
40
0.264246170511957
40
0.31942770772356
40
0.374609244935164
40
0.411396936409566
40
0.448184627883968
40
0.48497231935837
40
0.521760010832772
40
0.549350779438574
40
0.567744625175775
40
0.581540009478675
40
0.590736932347276
40
0.604532316650177
40
0.611430008801627
40
0.618327700953078
40
0.622926162387378
40
0.626375008463103
40
0.629823854538828
40
0.631548277576691
40
0.632697892935266
40
0.633128998694732
40
0.633560104454197
40
0.63377565733393
40
0.633991210213663
40
0.634134912133485
40
0.634278614053307
40
0.634386390493173
40
0.63449416693304
40
0.634548055152973
40
0.634583980632928
40
0.634610924742895
40
0.634673794332817
40
0.634853421732594
40
0.635140825572238
40
0.635859335171348
40
0.636721546690279
40
0.637871162048854
40
0.639020777407429
40
0.640170392766004
40
0.645918469558879
40
0.65511539242748
40
0.678107699598981
40
0.705698468204783
40
0.742486159679185
40
0.797667696890788
40
0.852849234102391
40
1
40
1
40
1
40
1
41
1
10
34.0861915340723
20
-5.19933421092369
30
0
41
1
10
33.7657943560482
20
-5.2507434389203
30
0
41
1
10
32.9037305113575
20
-5.36404711856551
30
0
41
1
10
31.5000000000001
20
-5.43253565137212
30
0
41
1
10
29.8750000000001
20
-5.34644994941542
30
0
41
1
10
28.3854166666668
20
-5.11578202822551
30
0
41
1
10
27.0312500000001
20
-4.79069820007859
30
0
41
1
10
25.9479166666667
20
-4.456639762745
30
0
41
1
10
25.0000000000001
20
-4.11497313971461
30
0
41
1
10
24.1875000000001
20
-3.79079401166109
30
0
41
1
10
23.3750000000001
20
-3.43741460392462
30
0
41
1
10
22.6302083333334
20
-3.08890725072226
30
0
41
1
10
22.0208333333334
20
-2.78800270583685
30
0
41
1
10
21.5807291666667
20
-2.56333632639516
30
0
41
1
10
21.2760416666667
20
-2.4045134292339
30
0
41
1
10
21.0052083333335
20
-2.26139026341775
30
0
41
1
10
20.7851562500001
20
-2.14359795339797
30
0
41
1
10
20.5820312500001
20
-2.03371594948979
30
0
41
1
10
20.4466145833334
20
-1.95997251908986
30
0
41
1
10
20.3365885416668
20
-1.89974053765022
30
0
41
1
10
20.2519531250001
20
-1.85324400416238
30
0
41
1
10
20.1884765625001
20
-1.81826874142209
30
0
41
1
10
20.1419270833335
20
-1.79256514409579
30
0
41
1
10
20.1175944010418
20
-1.77911339875703
30
0
41
1
10
20.1027832031251
20
-1.77092014791489
30
0
41
1
10
20.0948486328126
20
-1.7665293829439
30
0
41
1
10
20.0885009765626
20
-1.76301586011851
30
0
41
1
10
20.0842692057293
20
-1.76067310746259
30
0
41
1
10
20.0805664062501
20
-1.75862290475027
30
0
41
1
10
20.0776570638022
20
-1.75701184652243
30
0
41
1
10
20.0750122070313
20
-1.75554710141248
30
0
41
1
10
20.0730285644533
20
-1.75444844834328
30
0
41
1
10
20.0715738932292
20
-1.75364271764192
30
0
41
1
10
20.0707143147788
20
-1.75316658705339
30
0
41
1
10
20.0697886149089
20
-1.75265381822933
30
0
41
1
10
20.0678049723311
20
-1.7515549886991
30
0
41
1
10
20.0639038085934
20
-1.74939374928962
30
0
41
1
10
20.0551757812506
20
-1.74455753906636
30
0
41
1
10
20.041422526038
20
-1.73693381413074
30
0
41
1
10
20.0213216145847
20
-1.72578452936676
30
0
41
1
10
19.9980468749997
20
-1.71286471065918
30
0
41
1
10
19.9726562500002
20
-1.69875786768336
30
0
41
1
10
19.9134114583333
20
-1.66581303136434
30
0
41
1
10
19.7949218750012
20
-1.59975186103748
30
0
41
1
10
19.5156249999978
20
-1.4432043696288
30
0
41
1
10
19.0755208333368
20
-1.19393942472382
30
0
41
1
10
18.4322916666655
20
-0.825080807459898
30
0
41
1
10
17.5520833333341
20
-0.314261973681141
30
0
41
1
10
16.4687499999996
20
0.320195317044835
30
0
41
1
10
14.5729166666673
20
1.42431613516774
30
0
41
1
10
13.0833333333331
20
2.25253634685123
30
0
41
1
10
12.0000000000001
20
2.79402814716741
30
0
0
SPLINE
5
127
100
AcDbEntity
8
1
62
256
6
ByLayer
370
18
48
1
60
0
100
AcDbSpline
70
4
71
3
72
8
73
4
40
0
40
0
40
0
40
0
40
1
40
1
40
1
40
1
41
1
10
37.6711019152967
20
-4.24261776754224
30
0
41
1
10
37.6185907735968
20
-4.31430305902413
30
0
41
1
10
37.5662446041039
20
-4.38468740067015
30
0
41
1
10
37.5140627013126
20
-4.45377635600732
30
0
0
SPLINE
5
128
100
AcDbEntity
8
1
62
256
6
ByLayer
370
18
48
1
60
0
100
AcDbSpline
70
4
71
3
72
8
73
4
40
0
40
0
40
0
40
0
40
1
40
1
40
1
40
1
41
1
10
37.5140627013125
20
-4.45377635600735
30
0
41
1
10
37.3828882928951
20
-4.50595091581278
30
0
41
1
10
37.2518159657712
20
-4.55679495896345
30
0
41
1
10
37.1207765483749
20
-4.60624787065359
30
0
0
SPLINE
5
129
100
AcDbEntity
8
1
62
256
6
ByLayer
370
18
48
1
60
0
100
AcDbSpline
70
4
71
3
72
89
73
85
40
0
40
0
40
0
40
0
40
0.0009657383554674
40
0.0009657383554674
40
0.009291023869171
40
0.009291023869171
40
0.0176163093828747
40
0.0176163093828747
40
0.0342668804102819
40
0.0342668804102819
40
0.0509174514376892
40
0.0509174514376892
40
0.0675680224650964
40
0.0675680224650964
40
0.100869164519911
40
0.100869164519911
40
0.134170306574725
40
0.134170306574725
40
0.16747144862954
40
0.16747144862954
40
0.200772590684354
40
0.200772590684354
40
0.217423161711762
40
0.217423161711762
40
0.234073732739169
40
0.234073732739169
40
0.267374874793983
40
0.267374874793983
40
0.300676016848798
40
0.300676016848798
40
0.333977158903612
40
0.333977158903612
40
0.35062772993102
40
0.35062772993102
40
0.367278300958427
40
0.367278300958427
40
0.400579443013243
40
0.400579443013243
40
0.433880585068058
40
0.433880585068058
40
0.450531156095467
40
0.450531156095467
40
0.458856441609172
40
0.458856441609172
40
0.467181727122877
40
0.467181727122877
40
0.500482869177697
40
0.500482869177697
40
0.533784011232518
40
0.533784011232518
40
0.567085153287339
40
0.567085153287339
40
0.60038629534216
40
0.60038629534216
40
0.633687437396981
40
0.633687437396981
40
0.666988579451802
40
0.666988579451802
40
0.700289721506622
40
0.700289721506622
40
0.716940292534033
40
0.716940292534033
40
0.733590863561443
40
0.733590863561443
40
0.766892005616264
40
0.766892005616264
40
0.800193147671085
40
0.800193147671085
40
0.816843718698496
40
0.825169004212201
40
0.825169004212201
40
0.833494289725906
40
0.833494289725906
40
0.866795431780725
40
0.866795431780725
40
0.900096573835544
40
0.900096573835544
40
0.933397715890363
40
0.933397715890363
40
0.966698857945182
40
0.966698857945182
40
0.983349428972591
40
0.983349428972591
40
1
40
1
40
1
40
1
41
1
10
35.9381358512488
20
-5.01301666778338
30
0
41
1
10
35.9303920942036
20
-5.01541183014146
30
0
41
1
10
35.9226480130004
20
-5.01780175305294
30
0
41
1
10
35.8481418624456
20
-5.04074391877799
30
0
41
1
10
35.7813561039794
20
-5.06091153679714
30
0
41
1
10
35.6477369685302
20
-5.10046233286428
30
0
41
1
10
35.5808774575594
20
-5.11985312077135
30
0
41
1
10
35.3804833935654
20
-5.17677544847666
30
0
41
1
10
35.2471064081383
20
-5.21306702560412
30
0
41
1
10
34.9807754597447
20
-5.28235879427683
30
0
41
1
10
34.8478210218459
20
-5.31536166522642
30
0
41
1
10
34.5823300945182
20
-5.37804906302534
30
0
41
1
10
34.4497892062431
20
-5.40772942121495
30
0
41
1
10
34.0525874822033
20
-5.49163847798533
30
0
41
1
10
33.7883456828999
20
-5.54071957814054
30
0
41
1
10
33.259801880106
20
-5.62506712068151
30
0
41
1
10
32.9954552426003
20
-5.66032220591114
30
0
41
1
10
32.466035278251
20
-5.7167958765605
30
0
41
1
10
32.2010092036583
20
-5.73805146275191
30
0
41
1
10
31.6700628628412
20
-5.76650553728751
30
0
41
1
10
31.4041651344341
20
-5.77364180553582
30
0
41
1
10
31.0043796054977
20
-5.77342000480658
30
0
41
1
10
30.8709547729846
20
-5.77154180233026
30
0
41
1
10
30.6037013978674
20
-5.76421507915421
30
0
41
1
10
30.4701584097494
20
-5.75877791853765
30
0
41
1
10
30.0699031627629
20
-5.73716250457005
30
0
41
1
10
29.8034725846677
20
-5.71567838542555
30
0
41
1
10
29.2709256953094
20
-5.65853254463892
30
0
41
1
10
29.0048095848892
20
-5.62287395148195
30
0
41
1
10
28.472354207184
20
-5.53725159560804
30
0
41
1
10
28.2060277506453
20
-5.48719775717368
30
0
41
1
10
27.805810949926
20
-5.40190406318484
30
0
41
1
10
27.6722820505422
20
-5.37178667775856
30
0
41
1
10
27.4055832646277
20
-5.30834066280153
30
0
41
1
10
27.2723310831535
20
-5.27499081919041
30
0
41
1
10
26.8727833260693
20
-5.17004238756221
30
0
41
1
10
26.6066919934768
20
-5.09354336244425
30
0
41
1
10
26.074395879858
20
-4.92828707599705
30
0
41
1
10
25.8082082803072
20
-4.83948345387543
30
0
41
1
10
25.4085141106128
20
-4.69703893834853
30
0
41
1
10
25.2752086738715
20
-4.64803670586841
30
0
41
1
10
25.0750681634642
20
-4.57236177193909
30
0
41
1
10
25.0083241042195
20
-4.54677528771256
30
0
41
1
10
24.8747641291843
20
-4.49489502473833
30
0
41
1
10
24.8079776956719
20
-4.46861084286567
30
0
41
1
10
24.4744636175042
20
-4.33565721167864
30
0
41
1
10
24.2085817353919
20
-4.22417744982943
30
0
41
1
10
23.6782483259545
20
-3.99152479536681
30
0
41
1
10
23.4137521549926
20
-3.87047055053904
30
0
41
1
10
22.8856106400637
20
-3.619582391671
30
0
41
1
10
22.6219995070713
20
-3.48964520828412
30
0
41
1
10
22.0951284346289
20
-3.22159399542741
30
0
41
1
10
21.8318443144994
20
-3.08356525350774
30
0
41
1
10
21.3051113687449
20
-2.79994633456664
30
0
41
1
10
21.0416715529302
20
-2.65430228871401
30
0
41
1
10
20.5138751591061
20
-2.35685269711885
30
0
41
1
10
20.2495597418431
20
-2.20489961030535
30
0
41
1
10
19.7195269642146
20
-1.89519916066479
30
0
41
1
10
19.4538078842019
20
-1.7374561274008
30
0
41
1
10
19.053708014078
20
-1.49711591022825
30
0
41
1
10
18.9200091533699
20
-1.41633555404619
30
0
41
1
10
18.6530538002901
20
-1.25419617231697
30
0
41
1
10
18.5196920861398
20
-1.17275723804187
30
0
41
1
10
18.119814544591
20
-0.927573682568408
30
0
41
1
10
17.8534197655097
20
-0.763129145523408
30
0
41
1
10
17.3206935764417
20
-0.432738502101444
30
0
41
1
10
17.0543628421996
20
-0.266790565647227
30
0
41
1
10
16.6545800823437
20
-0.017249081409858
30
0
41
1
10
16.454616253323
20
0.107675497633295
30
0
41
1
10
16.2544720352807
20
0.23272259647419
30
0
41
1
10
16.1209933396607
20
0.316100650368924
30
0
41
1
10
16.0542080077773
20
0.357810500027142
30
0
41
1
10
15.7206144542838
20
0.566050524011871
30
0
41
1
10
15.4545064818803
20
0.731805272113803
30
0
41
1
10
14.9229524256422
20
1.0604843046965
30
0
41
1
10
14.657506384914
20
1.22341833974284
30
0
41
1
10
14.1268590808996
20
1.54571791437272
30
0
41
1
10
13.8616650433248
20
1.70508621764822
30
0
41
1
10
13.3310056731134
20
2.0193527437155
30
0
41
1
10
13.0655467776391
20
2.17424760986853
30
0
41
1
10
12.6666479212798
20
2.40250126828991
30
0
41
1
10
12.5335578315362
20
2.47790380242486
30
0
41
1
10
12.2670386967752
20
2.62724385242706
30
0
41
1
10
12.1336144982313
20
2.70118250224999
30
0
41
1
10
12.0000000000001
20
2.7743404994138
30
0
0
SPLINE
5
12A
100
AcDbEntity
8
1
62
256
6
ByLayer
370
18
48
1
60
0
100
AcDbSpline
70
4
71
3
72
8
73
4
40
0
40
0
40
0
40
0
40
1
40
1
40
1
40
1
41
1
10
12.0000000000001
20
2.77434049941383
30
0
41
1
10
11.6691574318294
20
2.93041772913219
30
0
41
1
10
11.3406322549515
20
3.0858250088086
30
0
41
1
10
11.0149998102435
20
3.24039600932645
30
0
0
SPLINE
5
12B
100
AcDbEntity
8
1
62
256
6
ByLayer
370
18
48
1
60
0
100
AcDbSpline
70
4
71
3
72
24
73
20
40
0
40
0
40
0
40
0
40
0.0586115387958263
40
0.117246152157185
40
0.175904564126967
40
0.234587487197693
40
0.293295622440363
40
0.352029659631376
40
0.410790277377353
40
0.469578143238054
40
0.52839391384741
40
0.587238235032531
40
0.646111741930928
40
0.705015059105923
40
0.763948800838292
40
0.822913574369133
40
0.881909977782142
40
0.94093859582868
40
1
40
1
40
1
40
1
41
1
10
11.0149835390375
20
3.24037278230969
30
0
41
1
10
11.0070721638025
20
3.22907803492274
30
0
41
1
10
10.9912462987317
20
3.20648409356048
30
0
41
1
10
10.9676317115948
20
3.17275308898021
30
0
41
1
10
10.9441022698179
20
3.13913087280139
30
0
41
1
10
10.9206672286593
20
3.10562937556642
30
0
41
1
10
10.8973241139819
20
3.07224535673146
30
0
41
1
10
10.8740735962747
20
3.03897962626238
30
0
41
1
10
10.850915502796
20
3.00583189120286
30
0
41
1
10
10.8278498864292
20
2.97280213698767
30
0
41
1
10
10.8048767405021
20
2.93989025893674
30
0
41
1
10
10.7819960700221
20
2.90709615437959
30
0
41
1
10
10.7592078921298
20
2.8744197231745
30
0
41
1
10
10.7365121629433
20
2.84186077360204
30
0
41
1
10
10.7139090694566
20
2.8094193980836
30
0
41
1
10
10.6913979330151
20
2.77709455999221
30
0
41
1
10
10.6689813152505
20
2.74488935533242
30
0
41
1
10
10.6466496746657
20
2.71279137736874
30
0
41
1
10
10.6318464945171
20
2.69150049229529
30
0
41
1
10
10.6244428494897
20
2.68085209419294
30
0
0
SPLINE
5
12C
100
AcDbEntity
8
1
62
256
6
ByLayer
370
18
48
1
60
0
100
AcDbSpline
70
4
71
3
72
8
73
4
40
0
40
0
40
0
40
0
40
1
40
1
40
1
40
1
41
1
10
37.4402710718411
20
-2.80953839471664
30
0
41
1
10
37.4404452512326
20
-2.81124882058305
30
0
41
1
10
37.4406194581448
20
-2.81295939027061
30
0
41
1
10
37.4407936925876
20
-2.81467010381783
30
0
0
SPLINE
5
12D
100
AcDbEntity
8
1
62
256
6
ByLayer
370
18
48
1
60
0
100
AcDbSpline
70
4
71
3
72
39
73
35
40
0
40
0
40
0
40
0
40
0.0148734707725656
40
0.0879941507261396
40
0.106274320714533
40
0.124554490702926
40
0.14283466069132
40
0.161114830679713
40
0.1976751706565
40
0.234235510633287
40
0.252515680621681
40
0.270795850610074
40
0.289076020598468
40
0.307356190586861
40
0.380476870540435
40
0.398757040528829
40
0.417037210517222
40
0.453597550494009
40
0.490157890470796
40
0.526718230447583
40
0.544998400435977
40
0.56327857042437
40
0.599838910401157
40
0.636399250377944
40
0.672959590354731
40
0.709519930331518
40
0.746080270308305
40
0.782640610285092
40
0.819200950261879
40
0.855761290238666
40
0.892321630215453
40
0.92888197019224
40
0.965442310169027
40
1
40
1
40
1
40
1
41
1
10
10.4343786624594
20
2.41221422591977
30
0
41
1
10
10.5314984631007
20
2.35447283883309
30
0
41
1
10
11.1059857162035
20
2.01054268935471
30
0
41
1
10
11.7991883698929
20
1.57986510980931
30
0
41
1
10
12.5139788552993
20
1.12569698603593
30
0
41
1
10
12.8712495957868
20
0.897009565870718
30
0
41
1
10
13.2283991745437
20
0.667060226783263
30
0
41
1
10
13.7044376980338
20
0.359200850100962
30
0
41
1
10
14.2991738773643
20
-0.0270457355984774
30
0
41
1
10
14.8935148860505
20
-0.412900515722356
30
0
41
1
10
15.368743508619
20
-0.71998371391777
30
0
41
1
10
15.7250500136743
20
-0.949115043573215
30
0
41
1
10
16.0812421085359
20
-1.17676676300906
30
0
41
1
10
16.7934267497928
20
-1.62844977983653
30
0
41
1
10
17.5051845277424
20
-2.06944415935593
30
0
41
1
10
18.2167973600013
20
-2.49344819015425
30
0
41
1
10
18.6911839612334
20
-2.77117766100537
30
0
41
1
10
19.2841646738316
20
-3.10828769277921
30
0
41
1
10
19.9958228734358
20
-3.49442151160511
30
0
41
1
10
20.5890103480044
20
-3.7990049050199
30
0
41
1
10
21.0636571055958
20
-4.03128564884085
30
0
41
1
10
21.5383728637004
20
-4.25562777161252
30
0
41
1
10
22.1319079472642
20
-4.52051103822433
30
0
41
1
10
22.8444084772956
20
-4.8116204351374
30
0
41
1
10
23.5571863495999
20
-5.07421463210119
30
0
41
1
10
24.2701819854887
20
-5.30670864734438
30
0
41
1
10
24.9833481577523
20
-5.50764908795384
30
0
41
1
10
25.6966281228009
20
-5.67582249815388
30
0
41
1
10
26.4099779171698
20
-5.81014785061981
30
0
41
1
10
27.1233513374658
20
-5.90990601754245
30
0
41
1
10
27.8366972676573
20
-5.97446921915841
30
0
41
1
10
28.5498636851523
20
-6.00343359726369
30
0
41
1
10
29.249978698266
20
-5.99666099709461
30
0
41
1
10
29.7126931475945
20
-5.96969233481502
30
0
41
1
10
29.9376761936221
20
-5.95129310837558
30
0
0
SPLINE
5
12E
100
AcDbEntity
8
1
62
256
6
ByLayer
370
18
48
1
60
0
100
AcDbSpline
70
4
71
3
72
41
73
37
40
0
40
0
40
0
40
0
40
0.0047435503185694
40
0.0718895201246146
40
0.088676012576126
40
0.105462505027637
40
0.122248997479149
40
0.13903548993066
40
0.172608474833682
40
0.206181459736705
40
0.222967952188216
40
0.239754444639728
40
0.256540937091239
40
0.27332742954275
40
0.340473399348796
40
0.357259891800307
40
0.374046384251818
40
0.407619369154841
40
0.441192354057863
40
0.474765338960886
40
0.491551831412397
40
0.508338323863909
40
0.541911308766931
40
0.575484293669954
40
0.609057278572976
40
0.642630263475999
40
0.676203248379022
40
0.709776233282044
40
0.743349218185067
40
0.77692220308809
40
0.810495187991112
40
0.844068172894135
40
0.877641157797157
40
0.944787127603202
40
0.978360112506225
40
1
40
1
40
1
40
1
41
1
10
10.6244428494897
20
2.68085209419294
30
0
41
1
10
10.6581662856242
20
2.66142288955271
30
0
41
1
10
11.1692250996665
20
2.3661650798044
30
0
41
1
10
11.7991117091309
20
1.98732363734311
30
0
41
1
10
12.5138955686923
20
1.54435041270887
30
0
41
1
10
12.8711632542473
20
1.3206558163443
30
0
41
1
10
13.2283152966812
20
1.09507148692407
30
0
41
1
10
13.7043624145342
20
0.792121265802081
30
0
41
1
10
14.2991011707148
20
0.410395542324977
30
0
41
1
10
14.8934428052669
20
0.0269006028533454
30
0
41
1
10
15.3686622079682
20
-0.27961082044007
30
0
41
1
10
15.7249627501822
20
-0.508949479894795
30
0
41
1
10
16.0811544951275
20
-0.737485772263597
30
0
41
1
10
16.793345359877
20
-1.19225056422238
30
0
41
1
10
17.5051066347564
20
-1.63951178627642
30
0
41
1
10
18.2167163628928
20
-2.07295748530299
30
0
41
1
10
18.6911031217888
20
-2.35786554922987
30
0
41
1
10
19.2840911929131
20
-2.70546849774902
30
0
41
1
10
19.9957440560183
20
-3.10653546683219
30
0
41
1
10
20.5889275966682
20
-3.42545622850429
30
0
41
1
10
21.0635733953746
20
-3.67032197369758
30
0
41
1
10
21.5382929273184
20
-3.90802579731184
30
0
41
1
10
22.1318316700019
20
-4.19085353431021
30
0
41
1
10
22.8443274551446
20
-4.50550661107738
30
0
41
1
10
23.5571048674184
20
-4.79340196681525
30
0
41
1
10
24.2701026141198
20
-5.05295712922489
30
0
41
1
10
24.9832701160529
20
-5.28239230699609
30
0
41
1
10
25.6965442601628
20
-5.48053079127655
30
0
41
1
10
26.4098969129325
20
-5.64584600189238
30
0
41
1
10
27.1232737560893
20
-5.77764855171304
30
0
41
1
10
27.8366180063517
20
-5.87496218216506
30
0
41
1
10
28.5497833118988
20
-5.93749041218936
30
0
41
1
10
29.5006346690429
20
-5.97332467864828
30
0
41
1
10
30.4524490899903
20
-5.9381138902979
30
0
41
1
10
31.3223692237236
20
-5.84150747414822
30
0
41
1
10
31.7157676914561
20
-5.78186439096856
30
0
41
1
10
31.8701103402601
20
-5.75604929236866
30
0
0
SPLINE
5
12F
100
AcDbEntity
8
1
62
256
6
ByLayer
370
18
48
1
60
0
100
AcDbSpline
70
4
71
1
72
4
73
2
40
0
40
0
40
1
40
1
41
1
10
37.9956126938046
20
-3.13780046309026
30
0
41
1
10
37.9956886815791
20
-3.14280993023363
30
0
0
SPLINE
5
130
100
AcDbEntity
8
1
62
256
6
ByLayer
370
13
48
1
60
0
100
AcDbSpline
70
4
71
1
72
4
73
2
40
0
40
0
40
1
40
1
41
1
10
37.8693044886918
20
-3.72277365299487
30
0
41
1
10
37.9956126938046
20
-3.13780046309026
30
0
0
SPLINE
5
131
100
AcDbEntity
8
1
62
256
6
ByLayer
370
18
48
1
60
0
100
AcDbSpline
70
4
71
1
72
4
73
2
40
0
40
0
40
1
40
1
41
1
10
37.9956126938048
20
5.4890745322715
30
0
41
1
10
37.9956886815788
20
5.49761802405848
30
0
0
SPLINE
5
132
100
AcDbEntity
8
1
62
256
6
ByLayer
370
18
48
1
60
0
100
AcDbSpline
70
4
71
3
72
9
73
5
40
0
40
0
40
0
40
0
40
0.49973443937387
40
1
40
1
40
1
40
1
41
1
10
10.4318121699852
20
-5.98277330444063
30
0
41
1
10
10.4379730181544
20
-5.98188504827766
30
0
41
1
10
10.4503012622852
20
-5.98010759190689
30
0
41
1
10
10.4626638066961
20
-5.97847451219127
30
0
41
1
10
10.4688483619065
20
-5.97765753865178
30
0
0
SPLINE
5
133
100
AcDbEntity
8
1
62
256
6
ByLayer
370
18
48
1
60
0
100
AcDbSpline
70
4
71
3
72
9
73
5
40
0
40
0
40
0
40
0
40
0.343540325922912
40
1
40
1
40
1
40
1
41
1
10
10.4688483618919
20
-5.97765753865093
30
0
41
1
10
10.5547475608842
20
-5.9827431775972
30
0
41
1
10
10.8047713770176
20
-5.99492293432704
30
0
41
1
10
11.0547578159711
20
-5.99944918023812
30
0
41
1
10
11.2188583715071
20
-5.99912051027553
30
0
0
SPLINE
5
134
100
AcDbEntity
8
1
62
256
6
ByLayer
370
18
48
1
60
0
100
AcDbSpline
70
4
71
3
72
8
73
4
40
0
40
0
40
0
40
0
40
1
40
1
40
1
40
1
41
1
10
10.4663774388556
20
-5.97836439199895
30
0
41
0.999999987297926
10
10.4672010533498
20
-5.97812857619827
30
0
41
0.999999987297926
10
10.4680246943768
20
-5.97789295841298
30
0
41
1
10
10.4688483619055
20
-5.9776575386521
30
0
0
SPLINE
5
135
100
AcDbEntity
8
1
62
256
6
ByLayer
370
18
48
1
60
0
100
AcDbSpline
70
4
71
1
72
4
73
2
40
0
40
0
40
1
40
1
41
1
10
37.9956126938047
20
-2.67973221182209
30
0
41
1
10
37.995688681579
20
-2.68377746648491
30
0
0
SPLINE
5
136
100
AcDbEntity
8
1
62
256
6
ByLayer
370
18
48
1
60
0
100
AcDbSpline
70
4
71
3
72
10
73
6
40
0
40
0
40
0
40
0
40
0.5
40
0.5
40
1
40
1
40
1
40
1
41
1
10
10.4317893567392
20
2.41409496576105
30
0
41
1
10
10.4340485017179
20
2.47447344974972
30
0
41
1
10
10.4422930719885
20
2.53374084834866
30
0
41
1
10
10.47032188965
20
2.65003217622734
30
0
41
1
10
10.4900069095638
20
2.70649020881044
30
0
41
1
10
10.5147161132781
20
2.76080882550843
30
0
0
SPLINE
5
137
100
AcDbEntity
8
1
62
256
6
ByLayer
370
18
48
1
60
0
100
AcDbSpline
70
4
71
3
72
15
73
11
40
0
40
0
40
0
40
0
40
0.25
40
0.499999999999999
40
0.499999999999999
40
0.625
40
0.625
40
0.75
40
0.75
40
1
40
1
40
1
40
1
41
1
10
10.5147161132767
20
2.76080882550932
30
0
41
1
10
10.4975203726739
20
2.82118003122264
30
0
41
1
10
10.4717831509085
20
2.94136265307176
30
0
41
1
10
10.4633031524982
20
3.06036035639963
30
0
41
1
10
10.4635680332105
20
3.14914774932507
30
0
41
1
10
10.4647623043687
20
3.17866681322542
30
0
41
1
10
10.469412098428
20
3.23754970087549
30
0
41
1
10
10.472885887753
20
3.26697573354318
30
0
41
1
10
10.4865382153197
20
3.35368482457341
30
0
41
1
10
10.4999512579221
20
3.40982542948456
30
0
41
1
10
10.5174181991755
20
3.46442604260642
30
0
0
SPLINE
5
138
100
AcDbEntity
8
1
62
256
6
ByLayer
370
18
48
1
60
0
100
AcDbSpline
70
4
71
3
72
51
73
47
40
0
40
0
40
0
40
0
40
0.0624999999999855
40
0.0624999999999855
40
0.124999999999971
40
0.124999999999971
40
0.156249999999967
40
0.156249999999967
40
0.187499999999962
40
0.187499999999962
40
0.249999999999954
40
0.249999999999954
40
0.265624999999951
40
0.265624999999951
40
0.281249999999949
40
0.312499999999945
40
0.328124999999945
40
0.328124999999945
40
0.343749999999945
40
0.343749999999945
40
0.374999999999948
40
0.406249999999952
40
0.406249999999952
40
0.421874999999954
40
0.421874999999954
40
0.437499999999956
40
0.437499999999956
40
0.49999999999996
40
0.49999999999996
40
0.515624999999961
40
0.515624999999961
40
0.531249999999962
40
0.531249999999962
40
0.562499999999965
40
0.562499999999965
40
0.62499999999997
40
0.62499999999997
40
0.687499999999975
40
0.687499999999975
40
0.74999999999998
40
0.74999999999998
40
0.812499999999985
40
0.812499999999985
40
0.87499999999999
40
0.87499999999999
40
1
40
1
40
1
40
1
41
1
10
6.98247731727642
20
5.30200046374463
30
0
41
1
10
7.05571059970399
20
5.30332198953479
30
0
41
1
10
7.12863558969704
20
5.30574391499212
30
0
41
1
10
7.27367172618855
20
5.31345132420526
30
0
41
1
10
7.34578539778002
20
5.31873022116133
30
0
41
1
10
7.45311236059379
20
5.32953642158171
30
0
41
1
10
7.48882435204229
20
5.33363574832256
30
0
41
1
10
7.5591305838268
20
5.3428699342067
30
0
41
1
10
7.59379671797998
20
5.34800981996455
30
0
41
1
10
7.69609809644598
20
5.36520155601428
30
0
41
1
10
7.76206624443623
20
5.37900860376718
30
0
41
1
10
7.84060266389432
20
5.40008489149872
30
0
41
1
10
7.85603066239219
20
5.40447194216549
30
0
41
1
10
7.88610172436182
20
5.41353766798264
30
0
41
1
10
7.93012384733052
20
5.42759809486711
30
0
41
1
10
7.98432768061826
20
5.44819815029402
30
0
41
1
10
8.02136837300051
20
5.46502282741869
30
0
41
1
10
8.04523114517022
20
5.47654025251697
30
0
41
1
10
8.05674591228237
20
5.48245272760943
30
0
41
1
10
8.089509258258
20
5.50034239404857
30
0
41
1
10
8.12883473789711
20
5.52478032824604
30
0
41
1
10
8.16005779618658
20
5.55005191657952
30
0
41
1
10
8.18064779988279
20
5.56919803177496
30
0
41
1
10
8.18705535214323
20
5.57563091745158
30
0
41
1
10
8.19883689382189
20
5.58840113230465
30
0
41
1
10
8.20422503020652
20
5.59474860911311
30
0
41
1
10
8.22886376030866
20
5.62627321098401
30
0
41
1
10
8.24129182669452
20
5.65080359430533
30
0
41
1
10
8.25013085669926
20
5.68030926718455
30
0
41
1
10
8.2515590855823
20
5.68615301538594
30
0
41
1
10
8.25377973633664
20
5.69772002217741
30
0
41
1
10
8.254572589715
20
5.70345317039036
30
0
41
1
10
8.25604907594584
20
5.72036930972649
30
0
41
1
10
8.25584142235326
20
5.73127836693379
30
0
41
1
10
8.25220693125036
20
5.76294330686875
30
0
41
1
10
8.24579787591588
20
5.78263913103598
30
0
41
1
10
8.22696744451849
20
5.81935666328559
30
0
41
1
10
8.21452949147834
20
5.83637727681162
30
0
41
1
10
8.18477758887522
20
5.86783675072334
30
0
41
1
10
8.16740519963602
20
5.88229738859951
30
0
41
1
10
8.12896433984483
20
5.90842524498626
30
0
41
1
10
8.10786294519883
20
5.92013787580387
30
0
41
1
10
8.06247294449673
20
5.94103670579429
30
0
41
1
10
8.03818106370898
20
5.95022220439634
30
0
41
1
10
7.9610641016047
20
5.97418271012612
30
0
41
1
10
7.90403782589217
20
5.98537023115429
30
0
41
1
10
7.84213244767327
20
5.99213476686143
30
0
0
SPLINE
5
139
100
AcDbEntity
8
1
62
256
6
ByLayer
370
18
48
1
60
0
100
AcDbSpline
70
4
71
3
72
8
73
4
40
0
40
0
40
0
40
0
40
1
40
1
40
1
40
1
41
1
10
7.84213244767327
20
5.9921347668614
30
0
41
1
10
7.80748148970335
20
5.99741730152215
30
0
41
1
10
7.77209342996335
20
6.00002149314631
30
0
41
1
10
7.73589393418368
20
6.00000071911282
30
0
0
SPLINE
5
13A
100
AcDbEntity
8
1
62
256
6
ByLayer
370
18
48
1
60
0
100
AcDbSpline
70
4
71
3
72
8
73
4
40
0
40
0
40
0
40
0
40
1
40
1
40
1
40
1
41
1
10
10.4317995368658
20
-5.98277515140811
30
0
41
1
10
10.6218268593244
20
-5.99285142143694
30
0
41
1
10
10.8117660506293
20
-5.9985066860701
30
0
41
1
10
11.0017597250653
20
-5.99974141563175
30
0
0
SPLINE
5
13B
100
AcDbEntity
8
1
62
256
6
ByLayer
370
18
48
1
60
0
100
AcDbSpline
70
4
71
3
72
8
73
4
40
0
40
0
40
0
40
0
40
1
40
1
40
1
40
1
41
1
10
10.4318248686609
20
-5.98277234663334
30
0
41
1
10
10.442775256854
20
-5.98135946183172
30
0
41
1
10
10.4543017991882
20
-5.97988736972292
30
0
41
1
10
10.4663774388579
20
-5.97836439199833
30
0
0
SPLINE
5
13C
100
AcDbEntity
8
1
62
256
6
ByLayer
370
18
48
1
60
0
100
AcDbSpline
70
4
71
3
72
8
73
4
40
0
40
0
40
0
40
0
40
1
40
1
40
1
40
1
41
1
10
10.398980145385
20
2.36255921006031
30
0
41
1
10
10.4093291588963
20
2.38008802906919
30
0
41
1
10
10.4202753893526
20
2.39726008166281
30
0
41
1
10
10.4317893615826
20
2.41409496296052
30
0
0
SPLINE
5
13D
100
AcDbEntity
8
1
62
256
6
ByLayer
370
18
48
1
60
0
100
AcDbSpline
70
4
71
3
72
9
73
5
40
0
40
0
40
0
40
0
40
0.49977880090912
40
1
40
1
40
1
40
1
41
1
10
10.3989606988154
20
2.36253083782597
30
0
41
1
10
10.4048537507224
20
2.3707990361421
30
0
41
1
10
10.4166450709953
20
2.38734275168406
30
0
41
1
10
10.4284657253964
20
2.4039212878119
30
0
41
1
10
10.434378667315
20
2.41221422303295
30
0
0
SPLINE
5
13E
100
AcDbEntity
8
1
62
256
6
ByLayer
370
18
48
1
60
0
100
AcDbSpline
70
4
71
3
72
14
73
10
40
0
40
0
40
0
40
0
40
0.25
40
0.25
40
0.5
40
0.5
40
0.75
40
0.75
40
1
40
1
40
1
40
1
41
1
10
10.3989415926082
20
2.36250402985863
30
0
41
1
10
10.5318894793727
20
2.28228673054122
30
0
41
1
10
10.6646471363525
20
2.20119331056148
30
0
41
1
10
10.9302271483779
20
2.03788879158944
30
0
41
1
10
11.0630517071948
20
1.95568146119129
30
0
41
1
10
11.329047558066
20
1.79057449548304
30
0
41
1
10
11.462217600971
20
1.70767365704884
30
0
41
1
10
11.7290024938186
20
1.5413458573033
30
0
41
1
10
11.8626173963791
20
1.4579195199893
30
0
41
1
10
11.9964260086909
20
1.37419572523092
30
0
0
SPLINE
5
13F
100
AcDbEntity
8
1
62
256
6
ByLayer
370
18
48
1
60
0
100
AcDbSpline
70
4
71
3
72
8
73
4
40
0
40
0
40
0
40
0
40
1
40
1
40
1
40
1
41
1
10
11.9964260086767
20
1.37419572523981
30
0
41
1
10
11.9976173387286
20
1.37405588687204
30
0
41
1
10
11.9988086691697
20
1.37391605391352
30
0
41
1
10
12.0000000000001
20
1.37377622636305
30
0
0
SPLINE
5
140
100
AcDbEntity
8
1
62
256
6
ByLayer
370
18
48
1
60
0
100
AcDbSpline
70
4
71
3
72
55
73
51
40
0
40
0
40
0
40
0
40
0.0473305560053718
40
0.0473305560053718
40
0.0946611120107436
40
0.0946611120107436
40
0.11832639001343
40
0.11832639001343
40
0.141991668016116
40
0.141991668016116
40
0.189322224021489
40
0.189322224021489
40
0.236652780026861
40
0.236652780026861
40
0.260318058029548
40
0.260318058029548
40
0.283983336032234
40
0.283983336032234
40
0.37864444804298
40
0.37864444804298
40
0.425975004048353
40
0.425975004048353
40
0.44964028205104
40
0.44964028205104
40
0.473305560053726
40
0.473305560053726
40
0.567966672064473
40
0.567966672064473
40
0.591631950067159
40
0.603464589068502
40
0.603464589068502
40
0.615297228069845
40
0.615297228069845
40
0.662627784075215
40
0.662627784075215
40
0.757288896085958
40
0.757288896085958
40
0.769121535087301
40
0.769121535087301
40
0.780954174088644
40
0.780954174088644
40
0.80461945209133
40
0.80461945209133
40
0.851950008096701
40
0.851950008096701
40
0.899280564102071
40
0.899280564102071
40
0.946611120107441
40
0.946611120107441
40
1
40
1
40
1
40
1
41
1
10
12.0000000000001
20
1.37377622636302
30
0
41
1
10
12.2657578521726
20
1.20577444694831
30
0
41
1
10
12.5311834947761
20
1.03626403940467
30
0
41
1
10
13.061924877877
20
0.695054303342687
30
0
41
1
10
13.3272441685802
20
0.523358222230996
30
0
41
1
10
13.7255798488271
20
0.264855182430495
30
0
41
1
10
13.8584522813182
20
0.178506312052946
30
0
41
1
10
14.1238427480742
20
0.0059661127735069
30
0
41
1
10
14.2564258612354
20
-0.0802673567255283
30
0
41
1
10
14.653955738352
20
-0.338679016192827
30
0
41
1
10
14.9186824438364
20
-0.510570780265141
30
0
41
1
10
15.4481740474554
20
-0.852628455642503
30
0
41
1
10
15.7129447813895
20
-1.02277855922162
30
0
41
1
10
16.110604524181
20
-1.27597594626988
30
0
41
1
10
16.2432413494243
20
-1.36003785389138
30
0
41
1
10
16.5087569343839
20
-1.52737352411506
30
0
41
1
10
16.6417088896447
20
-1.61069226128788
30
0
41
1
10
17.305690210352
20
-2.02406924741965
30
0
41
1
10
17.835286919143
20
-2.34501935971292
30
0
41
1
10
18.6304147508053
20
-2.80738091461228
30
0
41
1
10
18.8955654452004
20
-2.95833340265975
30
0
41
1
10
19.2938544492447
20
-3.17944437414047
30
0
41
1
10
19.4267979839599
20
-3.25230669496273
30
0
41
1
10
19.692410108728
20
-3.39586372178283
30
0
41
1
10
19.8250883389586
20
-3.46656543934495
30
0
41
1
10
20.488029317408
20
-3.81446981792604
30
0
41
1
10
21.016928602773
20
-4.07489319996245
30
0
41
1
10
21.6793997482391
20
-4.37425445583654
30
0
41
1
10
21.8782427836312
20
-4.46210118139371
30
0
41
1
10
22.0773278073147
20
-4.54690313114989
30
0
41
1
10
22.2101149376186
20
-4.60274918002554
30
0
41
1
10
22.2765564508205
20
-4.6303343646583
30
0
41
1
10
22.6085419205434
20
-4.76634680540195
30
0
41
1
10
22.8736832360621
20
-4.86914498888126
30
0
41
1
10
23.6686813194628
20
-5.15883915544882
30
0
41
1
10
24.1981394148877
20
-5.32704322677697
30
0
41
1
10
24.79556116485
20
-5.48637605008244
30
0
41
1
10
24.8619656925645
20
-5.50366444197272
30
0
41
1
10
24.9948312147255
20
-5.53740340490361
30
0
41
1
10
25.0613135635744
20
-5.55385893496953
30
0
41
1
10
25.2606763211412
20
-5.60191532760803
30
0
41
1
10
25.3934541538694
20
-5.63220372700198
30
0
41
1
10
25.7914868761411
20
-5.71779108807166
30
0
41
1
10
26.0564415446348
20
-5.76780647018032
30
0
41
1
10
26.5861388402776
20
-5.85354383904098
30
0
41
1
10
26.85088462524
20
-5.88926278480417
30
0
41
1
10
27.3807942727697
20
-5.94614842689035
30
0
41
1
10
27.6460060447917
20
-5.96731826548336
30
0
41
1
10
28.2112894400119
20
-5.99656235591698
30
0
41
1
10
28.5102878075916
20
-6.00254058340781
30
0
41
1
10
28.809091064097
20
-5.99909248517039
30
0
0
SPLINE
5
141
100
AcDbEntity
8
1
62
256
6
ByLayer
370
18
48
1
60
0
100
AcDbSpline
70
4
71
3
72
34
73
30
40
0
40
0
40
0
40
0
40
0.0209680076163846
40
0.0439841080033385
40
0.0670002083902925
40
0.1130324091642
40
0.136048509551154
40
0.159064609938108
40
0.205096810712016
40
0.22811291109897
40
0.251129011485924
40
0.274145111872878
40
0.297161212259832
40
0.320177312646786
40
0.34319341303374
40
0.389225613807648
40
0.412241714194602
40
0.435257814581555
40
0.481290015355463
40
0.573354416903279
40
0.619386617677187
40
0.665418818451095
40
0.711451019225003
40
0.757483219998911
40
0.803515420772819
40
0.849547621546727
40
0.895579822320635
40
0.941612023094542
40
1
40
1
40
1
40
1
41
1
10
21.7641395219477
20
5.98142961328765
30
0
41
1
10
21.8716528156545
20
5.97520622841941
30
0
41
1
10
22.0972297789592
20
5.95871747614868
30
0
41
1
10
22.4410112032896
20
5.9226606829861
30
0
41
1
10
22.9136495227082
20
5.85746326092234
30
0
41
1
10
23.3866645464952
20
5.76885223363811
30
0
41
1
10
23.8599519396676
20
5.65740549910547
30
0
41
1
10
24.3333870595546
20
5.53094655157074
30
0
41
1
10
24.807000935674
20
5.38224909042316
30
0
41
1
10
25.2806974122337
20
5.21229456097191
30
0
41
1
10
25.6359884695155
20
5.07444301104309
30
0
41
1
10
25.9912683259489
20
4.92647580759314
30
0
41
1
10
26.3465051646715
20
4.76871752346355
30
0
41
1
10
26.7016609397794
20
4.60153383921406
30
0
41
1
10
27.1750488754672
20
4.36650130790539
30
0
41
1
10
27.6481453284307
20
4.1139955889079
30
0
41
1
10
28.1208260718998
20
3.84569522339896
30
0
41
1
10
28.5931645957578
20
3.56742897831603
30
0
41
1
10
29.4191346758436
20
3.05556580914333
30
0
41
1
10
30.3636988489284
20
2.41966525410336
30
0
41
1
10
31.312801419665
20
1.74475191829555
30
0
41
1
10
32.0278860758682
20
1.22215145306981
30
0
41
1
10
32.7472712008406
20
0.686479352190759
30
0
41
1
10
33.4720105441617
20
0.141180500699761
30
0
41
1
10
34.2032148372912
20
-0.410176108505908
30
0
41
1
10
34.9419866216538
20
-0.963747323905068
30
0
41
1
10
35.6895059486512
20
-1.51553526427375
30
0
41
1
10
36.5147740918971
20
-2.10989189739786
30
0
41
1
10
37.0973408877807
20
-2.51293740153238
30
0
41
1
10
37.4266235792155
20
-2.73373998604683
30
0
0
SPLINE
5
142
100
AcDbEntity
8
1
62
256
6
ByLayer
370
18
48
1
60
0
100
AcDbSpline
70
4
71
3
72
70
73
66
40
0
40
0
40
0
40
0
40
0.0024310447410421
40
0.0024310447410421
40
0.0108139771381769
40
0.027579841932447
40
0.027579841932447
40
0.0611115715209873
40
0.0611115715209873
40
0.0946433011095276
40
0.0946433011095276
40
0.128175030698068
40
0.128175030698068
40
0.161706760286608
40
0.161706760286608
40
0.178472625080879
40
0.178472625080879
40
0.186855557478013
40
0.186855557478013
40
0.195238489875148
40
0.195238489875148
40
0.262301949052224
40
0.262301949052224
40
0.3293654082293
40
0.3293654082293
40
0.362897137817838
40
0.362897137817838
40
0.371280070214972
40
0.371280070214972
40
0.379663002612106
40
0.379663002612106
40
0.396428867406374
40
0.396428867406374
40
0.463492326583444
40
0.463492326583444
40
0.530555785760515
40
0.530555785760515
40
0.56408751534905
40
0.56408751534905
40
0.572470447746184
40
0.572470447746184
40
0.580853380143319
40
0.597619244937587
40
0.597619244937587
40
0.66468270411466
40
0.66468270411466
40
0.731746163291733
40
0.731746163291733
40
0.748512028086001
40
0.748512028086001
40
0.756894960483134
40
0.756894960483134
40
0.765277892880267
40
0.7988096224688
40
0.7988096224688
40
0.865873081645865
40
0.865873081645865
40
0.93293654082293
40
0.93293654082293
40
0.941319473220064
40
0.941319473220064
40
0.949702405617197
40
0.949702405617197
40
0.966468270411465
40
1
40
1
40
1
40
1
41
1
10
13.743739959517
20
3.6489063350574
30
0
41
1
10
13.7631047479068
20
3.6604918625238
30
0
41
1
10
13.7824635212276
20
3.67204135219171
30
0
41
1
10
13.8685329191923
20
3.72324480664977
30
0
41
1
10
14.068456201583
20
3.84101291746114
30
0
41
1
10
14.26773781091
20
3.9548005679718
30
0
41
1
10
14.6656319772377
20
4.17694904908902
30
0
41
1
10
14.9300069966231
20
4.31781016046924
30
0
41
1
10
15.4578865412832
20
4.58452750948894
30
0
41
1
10
15.721387342126
20
4.71030412228652
30
0
41
1
10
16.2484443695563
20
4.94608043056493
30
0
41
1
10
16.5119953957214
20
5.05611315156901
30
0
41
1
10
17.0401265443628
20
5.25949050103441
30
0
41
1
10
17.3047130293482
20
5.35281400289034
30
0
41
1
10
17.7030872010083
20
5.47971824692766
30
0
41
1
10
17.836127537531
20
5.5198379850155
30
0
41
1
10
18.0361540701875
20
5.5766501171079
30
0
41
1
10
18.1029303746664
20
5.59503108546508
30
0
41
1
10
18.2365589067746
20
5.63061835253885
30
0
41
1
10
18.3032884011745
20
5.64779142424152
30
0
41
1
10
18.9031609781483
20
5.79680436992115
30
0
41
1
10
19.4314447559739
20
5.89008556232872
30
0
41
1
10
20.4859647084464
20
5.99826362997817
30
0
41
1
10
21.0122182770607
20
6.01318976297785
30
0
41
1
10
21.8057055524668
20
5.97600675205101
30
0
41
1
10
22.0708731350269
20
5.95367742809384
30
0
41
1
10
22.4037685582507
20
5.91317544825006
30
0
41
1
10
22.4704198991392
20
5.90444504736672
30
0
41
1
10
22.6038835981253
20
5.88571829022294
30
0
41
1
10
22.6707436442562
20
5.87571371262234
30
0
41
1
10
22.8709686486127
20
5.84389413582406
30
0
41
1
10
23.0041248911101
20
5.8202553258258
30
0
41
1
10
23.6685957093349
20
5.69022155589047
30
0
41
1
10
24.1960196395485
20
5.54837481038183
30
0
41
1
10
25.2501906049571
20
5.19447999305365
30
0
41
1
10
25.7768311483088
20
4.98237078252873
30
0
41
1
10
26.5718093463836
20
4.61466289631892
30
0
41
1
10
26.8376438998372
20
4.48384335356317
30
0
41
1
10
27.1716361375479
20
4.31027226994507
30
0
41
1
10
27.2384325740577
20
4.27510071018182
30
0
41
1
10
27.3717963808954
20
4.20398955791154
30
0
41
1
10
27.5716094567477
20
4.09611292607178
30
0
41
1
10
27.7707957199962
20
3.98469961358796
30
0
41
1
10
28.4336549917978
20
3.6058337872459
30
0
41
1
10
28.960408457736
20
3.27873469092054
30
0
41
1
10
30.0143987669328
20
2.58569649127355
30
0
41
1
10
30.5416485153059
20
2.21978016497201
30
0
41
1
10
31.205843594666
20
1.74344276744409
30
0
41
1
10
31.3389388541663
20
1.64722650433859
30
0
41
1
10
31.5390541494346
20
1.50157137813986
30
0
41
1
10
31.6058917962232
20
1.45275819718449
30
0
41
1
10
31.7394560239082
20
1.35491281811761
30
0
41
1
10
32.0729464308536
20
1.10985747084584
30
0
41
1
10
32.4045379550787
20
0.86286167545677
30
0
41
1
10
33.1982181896462
20
0.268360520484521
30
0
41
1
10
33.7245088384452
20
-0.130225195755088
30
0
41
1
10
34.77904974597
20
-0.921674636284564
30
0
41
1
10
35.3072155640019
20
-1.31465173774237
30
0
41
1
10
35.9066657652114
20
-1.74791940727172
30
0
41
1
10
35.9733453853656
20
-1.79593630810635
30
0
41
1
10
36.1068690621957
20
-1.891700088302
30
0
41
1
10
36.1737161685832
20
-1.93944880886565
30
0
41
1
10
36.3740433476877
20
-2.08191248974674
30
0
41
1
10
36.7743248121292
20
-2.36405871556602
30
0
41
1
10
37.1740595761297
20
-2.63718366659529
30
0
41
1
10
37.4407936925875
20
-2.81467010381783
30
0
0
SPLINE
5
143
100
AcDbEntity
8
1
62
256
6
ByLayer
370
18
48
1
60
0
100
AcDbSpline
70
4
71
3
72
18
73
14
40
0
40
0
40
0
40
0
40
0.0827132318980088
40
0.160023108321846
40
0.238141776745079
40
0.316195437283686
40
0.393549364237517
40
0.504429840855755
40
0.611035951658194
40
0.709612274292386
40
0.797531732204433
40
0.888778920093444
40
1
40
1
40
1
40
1
41
1
10
14.3934644087656
20
-5.2745533251865
30
0
41
1
10
14.6069315151947
20
-5.26626852229907
30
0
41
1
10
15.0088530201274
20
-5.24936625751434
30
0
41
1
10
15.5725475269623
20
-5.22384870674168
30
0
41
1
10
16.099930206528
20
-5.19219282088841
30
0
41
1
10
16.6482591426163
20
-5.14508385763321
30
0
41
1
10
17.2812551119608
20
-5.07893730816559
30
0
41
1
10
17.9899261220874
20
-4.989675433163
30
0
41
1
10
18.7557519593185
20
-4.87477584789633
30
0
41
1
10
19.460465651968
20
-4.75368556945065
30
0
41
1
10
20.137546650162
20
-4.62427302821899
30
0
41
1
10
20.8309609674019
20
-4.48050101577607
30
0
41
1
10
21.3051291311846
20
-4.37355609326929
30
0
41
1
10
21.5644580867078
20
-4.31197256881504
30
0
0
SPLINE
5
144
100
AcDbEntity
8
1
62
256
6
ByLayer
370
18
48
1
60
0
100
AcDbSpline
70
4
71
2
72
6
73
3
40
0
40
0
40
0
40
1
40
1
40
1
41
1
10
34.3850208783852
20
3.19234527287753
30
0
41
1
10
34.1694462959851
20
3.27162625796726
30
0
41
1
10
33.9526800001979
20
3.35449391451471
30
0
0
SPLINE
5
145
100
AcDbEntity
8
1
62
256
6
ByLayer
370
18
48
1
60
0
100
AcDbSpline
70
4
71
3
72
34
73
30
40
0
40
0
40
0
40
0
40
0.0350896452265298
40
0.065669784648561
40
0.0805066100997376
40
0.0910157813651096
40
0.0951325570292759
40
0.0969867662178806
40
0.0993348201864814
40
0.102924959747342
40
0.113525210392149
40
0.127161487932695
40
0.156460229597355
40
0.181285396333586
40
0.211335783889901
40
0.252304183476254
40
0.283228095451567
40
0.311126364983656
40
0.357221406179659
40
0.396303440584973
40
0.443761147627183
40
0.499857188840845
40
0.573879216985839
40
0.631368791139392
40
0.673987630117251
40
0.734953797533699
40
0.826237904593285
40
0.948195107395846
40
1
40
1
40
1
40
1
41
1
10
19.8846026173075
20
2.31501964217745
30
0
41
1
10
19.8071217681578
20
2.3301244252408
30
0
41
1
10
19.6645365967083
20
2.35736772677308
30
0
41
1
10
19.5363551110569
20
2.37362086241421
30
0
41
1
10
19.4076064593167
20
2.39904426045609
30
0
41
1
10
19.3445984042445
20
2.41503995942716
30
0
41
1
10
19.3124954045881
20
2.42390404767229
30
0
41
1
10
19.2910716438149
20
2.43011479987385
30
0
41
1
10
19.2902325874969
20
2.42979492848932
30
0
41
1
10
19.2478808114097
20
2.44244081712301
30
0
41
1
10
19.2021889712088
20
2.4591568690351
30
0
41
1
10
19.1088667707697
20
2.49245964129159
30
0
41
1
10
18.955260614212
20
2.53526366239865
30
0
41
1
10
18.777941926072
20
2.5608878997696
30
0
41
1
10
18.5987594440653
20
2.57663639928018
30
0
41
1
10
18.3853362666525
20
2.60014082001251
30
0
41
1
10
18.1623834973672
20
2.64437846001135
30
0
41
1
10
17.9359045011237
20
2.6976463948711
30
0
41
1
10
17.6909815411431
20
2.75996860252499
30
0
41
1
10
17.4007453424126
20
2.82497549959598
30
0
41
1
10
17.0919104835709
20
2.88919735007534
30
0
41
1
10
16.7068819580338
20
2.97096659205963
30
0
41
1
10
16.299450862239
20
3.06884774513992
30
0
41
1
10
15.9209201175585
20
3.15700290532172
30
0
41
1
10
15.5687162231137
20
3.23381024578376
30
0
41
1
10
15.1411586952302
20
3.32386111576341
30
0
41
1
10
14.5406371694608
20
3.45748717442117
30
0
41
1
10
13.9635321942067
20
3.59726994057402
30
0
41
1
10
13.584183632956
20
3.68422135603194
30
0
41
1
10
13.4710227199559
20
3.70982467655077
30
0
0
SPLINE
5
146
100
AcDbEntity
8
1
62
256
6
ByLayer
370
18
48
1
60
0
100
AcDbSpline
70
4
71
3
72
8
73
4
40
0
40
0
40
0
40
0
40
1
40
1
40
1
40
1
41
1
10
13.3150714201479
20
3.74490791763068
30
0
41
1
10
13.1480404559979
20
3.78227842609695
30
0
41
1
10
12.9808981872605
20
3.81904881264734
30
0
41
1
10
12.8137283421036
20
3.85552955898413
30
0
0
SPLINE
5
147
100
AcDbEntity
8
1
62
256
6
ByLayer
370
18
48
1
60
0
100
AcDbSpline
70
4
71
3
72
15
73
11
40
0
40
0
40
0
40
0
40
0.13810818698296
40
0.274773084224747
40
0.407822277542372
40
0.522659542249714
40
0.624238155547858
40
0.724743315570588
40
0.848321354920886
40
1
40
1
40
1
40
1
41
1
10
32.2370453133576
20
3.9262918473589
30
0
41
1
10
32.0044753560625
20
3.99134387002528
30
0
41
1
10
31.5464338028904
20
4.11664912286238
30
0
41
1
10
30.8699941665088
20
4.29318248966976
30
0
41
1
10
30.2642491710969
20
4.44332970949105
30
0
41
1
10
29.6926853095061
20
4.57274610605631
30
0
41
1
10
29.1665691479405
20
4.68456387245877
30
0
41
1
10
28.6288562600366
20
4.79073050518664
30
0
41
1
10
28.0084003141851
20
4.90246956486274
30
0
41
1
10
27.554465937222
20
4.97379351412465
30
0
41
1
10
27.3041181079227
20
5.0097812346695
30
0
0
SPLINE
5
148
100
AcDbEntity
8
1
62
256
6
ByLayer
370
18
48
1
60
0
100
AcDbSpline
70
4
71
3
72
10
73
6
40
0
40
0
40
0
40
0
40
0.507735683077156
40
0.753274435826125
40
1
40
1
40
1
40
1
41
1
10
14.4756583149161
20
3.45013743763485
30
0
41
1
10
14.0575424468146
20
3.56084348367074
30
0
41
1
10
13.4367761206406
20
3.7214462700189
30
0
41
1
10
12.5979758511108
20
3.89529526987747
30
0
41
1
10
12.1984180232644
20
4.01033482802077
30
0
41
1
10
12
20
4.07187246688463
30
0
0
SPLINE
5
149
100
AcDbEntity
8
1
62
256
6
ByLayer
370
18
48
1
60
0
100
AcDbSpline
70
4
71
3
72
19
73
15
40
0
40
0
40
0
40
0
40
0.139316800739415
40
0.259201179265133
40
0.359424013681112
40
0.434752746280069
40
0.485557486650847
40
0.549129437923048
40
0.640383195300215
40
0.729686908012858
40
0.79835606947382
40
0.847740644715582
40
0.930984621420916
40
1
40
1
40
1
40
1
41
1
10
32.2228759278812
20
-5.2747760341509
30
0
41
1
10
32.4281173772202
20
-5.27100499974452
30
0
41
1
10
32.8072812352738
20
-5.26070330225608
30
0
41
1
10
33.3295572462775
20
-5.23744684274226
30
0
41
1
10
33.748803687688
20
-5.21316094882584
30
0
41
1
10
34.0711173240142
20
-5.19077829675072
30
0
41
1
10
34.3477769715196
20
-5.16954741275475
30
0
41
1
10
34.6471084508317
20
-5.1444548559964
30
0
41
1
10
35.0006877546931
20
-5.11154535352199
30
0
41
1
10
35.3618539485144
20
-5.07406752673597
30
0
41
1
10
35.662350793706
20
-5.04011573497758
30
0
41
1
10
35.9540200173454
20
-5.00507349432812
30
0
41
1
10
36.2461909788777
20
-4.96805069028321
30
0
41
1
10
36.4667282096978
20
-4.9372024395494
30
0
41
1
10
36.5666818691313
20
-4.92271455463538
30
0
0
SPLINE
5
14A
100
AcDbEntity
8
1
62
256
6
ByLayer
370
18
48
1
60
0
100
AcDbSpline
70
4
71
1
72
4
73
2
40
0
40
0
40
1
40
1
41
1
10
31.3523614672003
20
3.00145773529545
30
0
41
1
10
31.3523658932008
20
3.00144526549573
30
0
0
SPLINE
5
14B
100
AcDbEntity
8
1
62
256
6
ByLayer
370
18
48
1
60
0
100
AcDbSpline
70
4
71
2
72
6
73
3
40
0
40
0
40
0
40
1
40
1
40
1
41
1
10
37.869376708493
20
-3.72761922885709
30
0
41
1
10
37.9248530509296
20
-3.47069076589486
30
0
41
1
10
37.9803293933662
20
-3.21376230293271
30
0
0
LINE
5
77
100
AcDbEntity
8
80
62
256
6
ByLayer
370
18
48
1
60
0
100
AcDbLine
10
0
20
0
30
0
11
-5
21
0
31
0
39
0
210
0
220
0
230
1
0
LINE
5
78
100
AcDbEntity
8
4
62
256
6
ByLayer
370
18
48
0.05
60
0
100
AcDbLine
10
0
20
0
30
0
11
38
21
0
31
0
39
0
210
0
220
0
230
1
0
LINE
5
7A
100
AcDbEntity
8
SK4
62
256
6
ByLayer
370
18
48
0.05
60
0
100
AcDbLine
10
-45
20
0
30
0
11
38
21
0
31
0
39
0
210
0
220
0
230
1
0
LINE
5
7C
100
AcDbEntity
8
81
62
256
6
ByLayer
370
18
48
1
60
0
100
AcDbLine
10
38
20
0
30
0
11
43
21
0
31
0
39
0
210
0
220
0
230
1
0
LINE
5
7D
100
AcDbEntity
8
1
62
256
6
ByLayer
370
18
48
1
60
0
100
AcDbLine
10
0
20
6
30
0
11
0
21
0
31
0
39
0
210
0
220
0
230
1
0
LINE
5
7E
100
AcDbEntity
8
1
62
256
6
ByLayer
370
18
48
1
60
0
100
AcDbLine
10
0
20
0
30
0
11
0
21
-6
31
0
39
0
210
0
220
0
230
1
0
LINE
5
7F
100
AcDbEntity
8
1
62
256
6
ByLayer
370
18
48
1
60
0
100
AcDbLine
10
37.991018
20
-2.834895
30
0
11
37.995613
21
-3.1378
31
0
39
0
210
0
220
0
230
1
0
LINE
5
80
100
AcDbEntity
8
1
62
256
6
ByLayer
370
18
48
1
60
0
100
AcDbLine
10
37.868478
20
-3.667282
30
0
11
37.865688
21
-3.479977
31
0
39
0
210
0
220
0
230
1
0
LINE
5
81
100
AcDbEntity
8
1
62
256
6
ByLayer
370
18
48
1
60
0
100
AcDbLine
10
37.97594
20
-2.736907
30
0
11
37.991018
21
-2.834895
31
0
39
0
210
0
220
0
230
1
0
LINE
5
82
100
AcDbEntity
8
1
62
256
6
ByLayer
370
18
48
1
60
0
100
AcDbLine
10
37.865688
20
-3.479977
30
0
11
37.991018
21
-2.834895
31
0
39
0
210
0
220
0
230
1
0
LINE
5
83
100
AcDbEntity
8
1
62
256
6
ByLayer
370
18
48
1
60
0
100
AcDbLine
10
37.375438
20
-4.346156
30
0
11
37.865688
21
-3.479977
31
0
39
0
210
0
220
0
230
1
0
LINE
5
84
100
AcDbEntity
8
1
62
256
6
ByLayer
370
18
48
1
60
0
100
AcDbLine
10
37.865688
20
-3.479977
30
0
11
37.772628
21
-2.856864
31
0
39
0
210
0
220
0
230
1
0
LINE
5
85
100
AcDbEntity
8
1
62
256
6
ByLayer
370
18
48
1
60
0
100
AcDbLine
10
37.391717
20
-0.063445
30
0
11
37.539805
21
-0.090413
31
0
39
0
210
0
220
0
230
1
0
LINE
5
86
100
AcDbEntity
8
1
62
256
6
ByLayer
370
18
48
1
60
0
100
AcDbLine
10
37.539805
20
-0.090413
30
0
11
37.991018
21
4.972479
31
0
39
0
210
0
220
0
230
1
0
LINE
5
87
100
AcDbEntity
8
1
62
256
6
ByLayer
370
18
48
1
60
0
100
AcDbLine
10
37.991018
20
4.972479
30
0
11
37.995613
21
5.489075
31
0
39
0
210
0
220
0
230
1
0
LINE
5
88
100
AcDbEntity
8
1
62
256
6
ByLayer
370
18
48
1
60
0
100
AcDbLine
10
36.571539
20
-4.922557
30
0
11
37.242138
21
-2.841171
31
0
39
0
210
0
220
0
230
1
0
LINE
5
89
100
AcDbEntity
8
1
62
256
6
ByLayer
370
18
48
1
60
0
100
AcDbLine
10
37.242138
20
-2.841171
30
0
11
37.313194
21
-2.726374
31
0
39
0
210
0
220
0
230
1
0
LINE
5
8A
100
AcDbEntity
8
1
62
256
6
ByLayer
370
18
48
1
60
0
100
AcDbLine
10
34.374636
20
-3.203746
30
0
11
37.242138
21
-2.841171
31
0
39
0
210
0
220
0
230
1
0
LINE
5
8B
100
AcDbEntity
8
1
62
256
6
ByLayer
370
13
48
1
60
0
100
AcDbLine
10
34.9394
20
-1.183421
30
0
11
33.723512
21
-1.757895
31
0
39
0
210
0
220
0
230
1
0
LINE
5
8C
100
AcDbEntity
8
1
62
256
6
ByLayer
370
18
48
1
60
0
100
AcDbLine
10
12
20
-5.29189
30
0
11
12
21
-5.697048
31
0
39
0
210
0
220
0
230
1
0
LINE
5
8D
100
AcDbEntity
8
1
62
256
6
ByLayer
370
13
48
1
60
0
100
AcDbLine
10
7.363995
20
-4.586528
30
0
11
12
21
-5.29189
31
0
39
0
210
0
220
0
230
1
0
LINE
5
8E
100
AcDbEntity
8
1
62
256
6
ByLayer
370
18
48
1
60
0
100
AcDbLine
10
12
20
-5.29189
30
0
11
12
21
-5.115794
31
0
39
0
210
0
220
0
230
1
0
LINE
5
8F
100
AcDbEntity
8
1
62
256
6
ByLayer
370
13
48
1
60
0
100
AcDbLine
10
6.982477
20
5.302
30
0
11
12
21
2.919882
31
0
39
0
210
0
220
0
230
1
0
LINE
5
90
100
AcDbEntity
8
1
62
256
6
ByLayer
370
18
48
1
60
0
100
AcDbLine
10
6.993191
20
5.17106
30
0
11
12
21
2.794028
31
0
39
0
210
0
220
0
230
1
0
LINE
5
91
100
AcDbEntity
8
1
62
256
6
ByLayer
370
18
48
1
60
0
100
AcDbLine
10
37.991018
20
-2.43513
30
0
11
37.995613
21
-2.679732
31
0
39
0
210
0
220
0
230
1
0
LINE
5
92
100
AcDbEntity
8
1
62
256
6
ByLayer
370
18
48
1
60
0
100
AcDbLine
10
37.865688
20
-1.739929
30
0
11
37.991018
21
-2.43513
31
0
39
0
210
0
220
0
230
1
0
LINE
5
93
100
AcDbEntity
8
1
62
256
6
ByLayer
370
18
48
1
60
0
100
AcDbLine
10
12
20
2.794028
30
0
11
12
21
2.919882
31
0
39
0
210
0
220
0
230
1
0
LINE
5
94
100
AcDbEntity
8
1
62
256
6
ByLayer
370
18
48
1
60
0
100
AcDbLine
10
37.865688
20
-1.739929
30
0
11
37.650865
21
-0.581889
31
0
39
0
210
0
220
0
230
1
0
LINE
5
95
100
AcDbEntity
8
1
62
256
6
ByLayer
370
18
48
1
60
0
100
AcDbLine
10
37.268226
20
0.183637
30
0
11
37.650865
21
-0.581889
31
0
39
0
210
0
220
0
230
1
0
LINE
5
96
100
AcDbEntity
8
1
62
256
6
ByLayer
370
18
48
1
60
0
100
AcDbLine
10
36.381303
20
1.517203
30
0
11
37.268226
21
0.183637
31
0
39
0
210
0
220
0
230
1
0
LINE
5
97
100
AcDbEntity
8
1
62
256
6
ByLayer
370
13
48
1
60
0
100
AcDbLine
10
7.354144
20
-4.408933
30
0
11
12
21
-5.115794
31
0
39
0
210
0
220
0
230
1
0
LINE
5
98
100
AcDbEntity
8
1
62
256
6
ByLayer
370
18
48
1
60
0
100
AcDbLine
10
12
20
-5.115794
30
0
11
12
21
-3.219136
31
0
39
0
210
0
220
0
230
1
0
LINE
5
99
100
AcDbEntity
8
1
62
256
6
ByLayer
370
18
48
1
60
0
100
AcDbLine
10
37.868478
20
-1.890724
30
0
11
37.865688
21
-1.739929
31
0
39
0
210
0
220
0
230
1
0
LINE
5
9A
100
AcDbEntity
8
1
62
256
6
ByLayer
370
18
48
1
60
0
100
AcDbLine
10
37.354935
20
-0.785284
30
0
11
37.865688
21
-1.739929
31
0
39
0
210
0
220
0
230
1
0
LINE
5
9B
100
AcDbEntity
8
1
62
256
6
ByLayer
370
18
48
1
60
0
100
AcDbLine
10
8.313575
20
-2.658251
30
0
11
12
21
-3.219136
31
0
39
0
210
0
220
0
230
1
0
LINE
5
9C
100
AcDbEntity
8
1
62
256
6
ByLayer
370
18
48
1
60
0
100
AcDbLine
10
12
20
-3.219136
30
0
11
12
21
-1.848114
31
0
39
0
210
0
220
0
230
1
0
LINE
5
9D
100
AcDbEntity
8
1
62
256
6
ByLayer
370
13
48
1
60
0
100
AcDbLine
10
6.469017
20
-1.006581
30
0
11
12
21
-1.848114
31
0
39
0
210
0
220
0
230
1
0
LINE
5
9E
100
AcDbEntity
8
1
62
256
6
ByLayer
370
18
48
1
60
0
100
AcDbLine
10
12
20
-1.848114
30
0
11
12
21
-0.861982
31
0
39
0
210
0
220
0
230
1
0
LINE
5
9F
100
AcDbEntity
8
1
62
256
6
ByLayer
370
13
48
1
60
0
100
AcDbLine
10
6.1309
20
0.030995
30
0
11
12
21
-0.861982
31
0
39
0
210
0
220
0
230
1
0
LINE
5
A0
100
AcDbEntity
8
1
62
256
6
ByLayer
370
18
48
1
60
0
100
AcDbLine
10
12
20
-0.861982
30
0
11
12
21
1.350069
31
0
39
0
210
0
220
0
230
1
0
LINE
5
A1
100
AcDbEntity
8
1
62
256
6
ByLayer
370
13
48
1
60
0
100
AcDbLine
10
11.32953
20
1.452081
30
0
11
12
21
1.350069
31
0
39
0
210
0
220
0
230
1
0
LINE
5
A2
100
AcDbEntity
8
1
62
256
6
ByLayer
370
18
48
1
60
0
100
AcDbLine
10
12
20
2.794028
30
0
11
12
21
2.77434
31
0
39
0
210
0
220
0
230
1
0
LINE
5
A3
100
AcDbEntity
8
1
62
256
6
ByLayer
370
18
48
1
60
0
100
AcDbLine
10
12
20
1.373776
30
0
11
12
21
1.350069
31
0
39
0
210
0
220
0
230
1
0
LINE
5
A4
100
AcDbEntity
8
SK1
62
256
6
ByLayer
370
18
48
1
60
0
100
AcDbLine
10
-45
20
-5.2
30
0
11
-45
21
5.2
31
0
39
0
210
0
220
0
230
1
0
LINE
5
A6
100
AcDbEntity
8
SK1
62
256
6
ByLayer
370
18
48
1
60
0
100
AcDbLine
10
0
20
6
30
0
11
0
21
0
31
0
39
0
210
0
220
0
230
1
0
LINE
5
A7
100
AcDbEntity
8
SK1
62
256
6
ByLayer
370
18
48
1
60
0
100
AcDbLine
10
0
20
0
30
0
11
0
21
-6
31
0
39
0
210
0
220
0
230
1
0
LINE
5
A8
100
AcDbEntity
8
SK1
62
256
6
ByLayer
370
18
48
1
60
0
100
AcDbLine
10
-44.2
20
6
30
0
11
-44.2
21
-6
31
0
39
0
210
0
220
0
230
1
0
LINE
5
A9
100
AcDbEntity
8
SK1
62
256
6
ByLayer
370
18
48
1
60
0
100
AcDbLine
10
-26.5
20
4.4
30
0
11
-28.1
21
6
31
0
39
0
210
0
220
0
230
1
0
LINE
5
AA
100
AcDbEntity
8
SK1
62
256
6
ByLayer
370
18
48
1
60
0
100
AcDbLine
10
-16.9
20
6
30
0
11
-18.5
21
4.4
31
0
39
0
210
0
220
0
230
1
0
LINE
5
AB
100
AcDbEntity
8
SK1
62
256
6
ByLayer
370
18
48
1
60
0
100
AcDbLine
10
-26.5
20
4.4
30
0
11
-18.5
21
4.4
31
0
39
0
210
0
220
0
230
1
0
LINE
5
AC
100
AcDbEntity
8
1
62
256
6
ByLayer
370
18
48
1
60
0
100
AcDbLine
10
7.732311
20
6
30
0
11
0
21
6
31
0
39
0
210
0
220
0
230
1
0
LINE
5
AD
100
AcDbEntity
8
1
62
256
6
ByLayer
370
18
48
1
60
0
100
AcDbLine
10
0
20
-6
30
0
11
11.08113
21
-6
31
0
39
0
210
0
220
0
230
1
0
LINE
5
AE
100
AcDbEntity
8
1
62
256
6
ByLayer
370
18
48
1
60
0
100
AcDbLine
10
12.009588
20
4.067469
30
0
11
8.086727
21
5.929886
31
0
39
0
210
0
220
0
230
1
0
LINE
5
AF
100
AcDbEntity
8
1
62
256
6
ByLayer
370
18
48
1
60
0
100
AcDbLine
10
37.845568
20
-3.837884
30
0
11
37.847013
21
-3.831194
31
0
39
0
210
0
220
0
230
1
0
LINE
5
B0
100
AcDbEntity
8
SK1
62
256
6
ByLayer
370
18
48
1
60
0
100
AcDbLine
10
-45
20
-5.2
30
0
11
-44.2
21
-6
31
0
39
0
210
0
220
0
230
1
0
LINE
5
B1
100
AcDbEntity
8
SK1
62
256
6
ByLayer
370
18
48
1
60
0
100
AcDbLine
10
-44.2
20
6
30
0
11
-45
21
5.2
31
0
39
0
210
0
220
0
230
1
0
LINE
5
B2
100
AcDbEntity
8
SK1
62
256
6
ByLayer
370
18
48
1
60
0
100
AcDbLine
10
0
20
6
30
0
11
-16.9
21
6
31
0
39
0
210
0
220
0
230
1
0
LINE
5
B3
100
AcDbEntity
8
SK1
62
256
6
ByLayer
370
18
48
1
60
0
100
AcDbLine
10
-28.1
20
6
30
0
11
-44.2
21
6
31
0
39
0
210
0
220
0
230
1
0
LINE
5
B4
100
AcDbEntity
8
SK1
62
256
6
ByLayer
370
18
48
1
60
0
100
AcDbLine
10
-44.2
20
-6
30
0
11
0
21
-6
31
0
39
0
210
0
220
0
230
1
0
LINE
5
B5
100
AcDbEntity
8
SK2
62
256
6
ByLayer
370
18
48
1
60
0
100
AcDbLine
10
-52.45
20
6
30
0
11
-52.45
21
-24.056066
31
0
39
0
210
0
220
0
230
1
0
LINE
5
B7
100
AcDbEntity
8
SK2
62
256
6
ByLayer
370
18
48
1
60
0
100
AcDbLine
10
-45.7875
20
6
30
0
11
-54.45
21
6
31
0
39
0
210
0
220
0
230
1
0
LINE
5
B8
100
AcDbEntity
8
SK2
62
256
6
ByLayer
370
18
48
1
60
0
100
AcDbLine
10
-45.7875
20
-6
30
0
11
-54.45
21
-6
31
0
39
0
210
0
220
0
230
1
0
LINE
5
B9
100
AcDbEntity
8
1
62
256
6
ByLayer
370
18
48
1
60
1
100
AcDbLine
10
-52.45
20
6
30
0
11
-51.989216
21
2.500002
31
0
39
0
210
0
220
0
230
1
0
LINE
5
BA
100
AcDbEntity
8
1
62
256
6
ByLayer
370
18
48
1
60
1
100
AcDbLine
10
-51.989216
20
2.500002
30
0
11
-52.910784
21
2.499998
31
0
39
0
210
0
220
0
230
1
0
LINE
5
BB
100
AcDbEntity
8
1
62
256
6
ByLayer
370
18
48
1
60
1
100
AcDbLine
10
-52.910784
20
2.499998
30
0
11
-52.45
21
6
31
0
39
0
210
0
220
0
230
1
0
LINE
5
BC
100
AcDbEntity
8
1
62
256
6
ByLayer
370
18
48
1
60
1
100
AcDbLine
10
-52.45
20
-6
30
0
11
-52.910784
21
-2.500002
31
0
39
0
210
0
220
0
230
1
0
LINE
5
BD
100
AcDbEntity
8
1
62
256
6
ByLayer
370
18
48
1
60
1
100
AcDbLine
10
-52.910784
20
-2.500002
30
0
11
-51.989216
21
-2.499998
31
0
39
0
210
0
220
0
230
1
0
LINE
5
BE
100
AcDbEntity
8
1
62
256
6
ByLayer
370
18
48
1
60
1
100
AcDbLine
10
-51.989216
20
-2.499998
30
0
11
-52.45
21
-6
31
0
39
0
210
0
220
0
230
1
0
LINE
5
BF
100
AcDbEntity
8
2
62
256
6
ByLayer
370
18
48
1
60
0
100
AcDbLine
10
50
20
-6.0001
30
0
11
50
21
24.056166
31
0
39
0
210
0
220
0
230
1
0
LINE
5
C1
100
AcDbEntity
8
2
62
256
6
ByLayer
370
18
48
1
60
0
100
AcDbLine
10
39.5875
20
6.0001
30
0
11
52
21
6.0001
31
0
39
0
210
0
220
0
230
1
0
LINE
5
C2
100
AcDbEntity
8
2
62
256
6
ByLayer
370
18
48
1
60
0
100
AcDbLine
10
39.5875
20
-6.0001
30
0
11
52
21
-6.0001
31
0
39
0
210
0
220
0
230
1
0
LINE
5
C3
100
AcDbEntity
8
1
62
256
6
ByLayer
370
18
48
1
60
1
100
AcDbLine
10
50
20
6.0001
30
0
11
50.460784
21
2.500102
31
0
39
0
210
0
220
0
230
1
0
LINE
5
C4
100
AcDbEntity
8
1
62
256
6
ByLayer
370
18
48
1
60
1
100
AcDbLine
10
50.460784
20
2.500102
30
0
11
49.539216
21
2.500098
31
0
39
0
210
0
220
0
230
1
0
LINE
5
C5
100
AcDbEntity
8
1
62
256
6
ByLayer
370
18
48
1
60
1
100
AcDbLine
10
49.539216
20
2.500098
30
0
11
50
21
6.0001
31
0
39
0
210
0
220
0
230
1
0
LINE
5
C6
100
AcDbEntity
8
1
62
256
6
ByLayer
370
18
48
1
60
1
100
AcDbLine
10
50
20
-6.0001
30
0
11
49.539216
21
-2.500102
31
0
39
0
210
0
220
0
230
1
0
LINE
5
C7
100
AcDbEntity
8
1
62
256
6
ByLayer
370
18
48
1
60
1
100
AcDbLine
10
49.539216
20
-2.500102
30
0
11
50.460784
21
-2.500098
31
0
39
0
210
0
220
0
230
1
0
LINE
5
C8
100
AcDbEntity
8
1
62
256
6
ByLayer
370
18
48
1
60
1
100
AcDbLine
10
50.460784
20
-2.500098
30
0
11
50
21
-6.0001
31
0
39
0
210
0
220
0
230
1
0
LINE
5
C9
100
AcDbEntity
8
SK2
62
256
6
ByLayer
370
18
48
1
60
0
100
AcDbLine
10
38
20
-37.10012
30
0
11
-45
21
-37.10012
31
0
39
0
210
0
220
0
230
1
0
LINE
5
CA
100
AcDbEntity
8
SK2
62
256
6
ByLayer
370
18
48
1
60
0
100
AcDbLine
10
-45
20
-6.7875
30
0
11
-45
21
-39.10012
31
0
39
0
210
0
220
0
230
1
0
LINE
5
CB
100
AcDbEntity
8
SK2
62
256
6
ByLayer
370
18
48
1
60
0
100
AcDbLine
10
38
20
-7.5876
30
0
11
38
21
-39.10012
31
0
39
0
210
0
220
0
230
1
0
LINE
5
CC
100
AcDbEntity
8
1
62
256
6
ByLayer
370
18
48
1
60
1
100
AcDbLine
10
-45
20
-37.10012
30
0
11
-41.500002
21
-36.639337
31
0
39
0
210
0
220
0
230
1
0
LINE
5
CD
100
AcDbEntity
8
1
62
256
6
ByLayer
370
18
48
1
60
1
100
AcDbLine
10
-41.500002
20
-36.639337
30
0
11
-41.499998
21
-37.560904
31
0
39
0
210
0
220
0
230
1
0
LINE
5
CE
100
AcDbEntity
8
1
62
256
6
ByLayer
370
18
48
1
60
1
100
AcDbLine
10
-41.499998
20
-37.560904
30
0
11
-45
21
-37.10012
31
0
39
0
210
0
220
0
230
1
0
LINE
5
CF
100
AcDbEntity
8
1
62
256
6
ByLayer
370
18
48
1
60
1
100
AcDbLine
10
38
20
-37.10012
30
0
11
34.500002
21
-37.560904
31
0
39
0
210
0
220
0
230
1
0
LINE
5
D0
100
AcDbEntity
8
1
62
256
6
ByLayer
370
18
48
1
60
1
100
AcDbLine
10
34.500002
20
-37.560904
30
0
11
34.499998
21
-36.639337
31
0
39
0
210
0
220
0
230
1
0
LINE
5
D1
100
AcDbEntity
8
1
62
256
6
ByLayer
370
18
48
1
60
1
100
AcDbLine
10
34.499998
20
-36.639337
30
0
11
38
21
-37.10012
31
0
39
0
210
0
220
0
230
1
0
LINE
5
150
100
AcDbEntity
8
1
62
256
6
ByLayer
370
18
48
1
60
1
100
AcDbLine
10
-52.45
20
6
30
0
11
-51.989216
21
2.500002
31
0
39
0
210
0
220
0
230
1
0
LINE
5
151
100
AcDbEntity
8
1
62
256
6
ByLayer
370
18
48
1
60
1
100
AcDbLine
10
-51.989216
20
2.500002
30
0
11
-52.910784
21
2.499998
31
0
39
0
210
0
220
0
230
1
0
LINE
5
152
100
AcDbEntity
8
1
62
256
6
ByLayer
370
18
48
1
60
1
100
AcDbLine
10
-52.910784
20
2.499998
30
0
11
-52.45
21
6
31
0
39
0
210
0
220
0
230
1
0
LINE
5
154
100
AcDbEntity
8
1
62
256
6
ByLayer
370
18
48
1
60
1
100
AcDbLine
10
-52.45
20
-6
30
0
11
-52.910784
21
-2.500002
31
0
39
0
210
0
220
0
230
1
0
LINE
5
155
100
AcDbEntity
8
1
62
256
6
ByLayer
370
18
48
1
60
1
100
AcDbLine
10
-52.910784
20
-2.500002
30
0
11
-51.989216
21
-2.499998
31
0
39
0
210
0
220
0
230
1
0
LINE
5
156
100
AcDbEntity
8
1
62
256
6
ByLayer
370
18
48
1
60
1
100
AcDbLine
10
-51.989216
20
-2.499998
30
0
11
-52.45
21
-6
31
0
39
0
210
0
220
0
230
1
0
LINE
5
15A
100
AcDbEntity
8
1
62
256
6
ByLayer
370
18
48
1
60
1
100
AcDbLine
10
50
20
6.0001
30
0
11
50.460784
21
2.500102
31
0
39
0
210
0
220
0
230
1
0
LINE
5
15B
100
AcDbEntity
8
1
62
256
6
ByLayer
370
18
48
1
60
1
100
AcDbLine
10
50.460784
20
2.500102
30
0
11
49.539216
21
2.500098
31
0
39
0
210
0
220
0
230
1
0
LINE
5
15C
100
AcDbEntity
8
1
62
256
6
ByLayer
370
18
48
1
60
1
100
AcDbLine
10
49.539216
20
2.500098
30
0
11
50
21
6.0001
31
0
39
0
210
0
220
0
230
1
0
LINE
5
15E
100
AcDbEntity
8
1
62
256
6
ByLayer
370
18
48
1
60
1
100
AcDbLine
10
50
20
-6.0001
30
0
11
49.539216
21
-2.500102
31
0
39
0
210
0
220
0
230
1
0
LINE
5
15F
100
AcDbEntity
8
1
62
256
6
ByLayer
370
18
48
1
60
1
100
AcDbLine
10
49.539216
20
-2.500102
30
0
11
50.460784
21
-2.500098
31
0
39
0
210
0
220
0
230
1
0
LINE
5
160
100
AcDbEntity
8
1
62
256
6
ByLayer
370
18
48
1
60
1
100
AcDbLine
10
50.460784
20
-2.500098
30
0
11
50
21
-6.0001
31
0
39
0
210
0
220
0
230
1
0
LINE
5
163
100
AcDbEntity
8
1
62
256
6
ByLayer
370
18
48
1
60
1
100
AcDbLine
10
-45
20
-37.10012
30
0
11
-41.500002
21
-36.639337
31
0
39
0
210
0
220
0
230
1
0
LINE
5
164
100
AcDbEntity
8
1
62
256
6
ByLayer
370
18
48
1
60
1
100
AcDbLine
10
-41.500002
20
-36.639337
30
0
11
-41.499998
21
-37.560904
31
0
39
0
210
0
220
0
230
1
0
LINE
5
165
100
AcDbEntity
8
1
62
256
6
ByLayer
370
18
48
1
60
1
100
AcDbLine
10
-41.499998
20
-37.560904
30
0
11
-45
21
-37.10012
31
0
39
0
210
0
220
0
230
1
0
LINE
5
167
100
AcDbEntity
8
1
62
256
6
ByLayer
370
18
48
1
60
1
100
AcDbLine
10
38
20
-37.10012
30
0
11
34.500002
21
-37.560904
31
0
39
0
210
0
220
0
230
1
0
LINE
5
168
100
AcDbEntity
8
1
62
256
6
ByLayer
370
18
48
1
60
1
100
AcDbLine
10
34.500002
20
-37.560904
30
0
11
34.499998
21
-36.639337
31
0
39
0
210
0
220
0
230
1
0
LINE
5
169
100
AcDbEntity
8
1
62
256
6
ByLayer
370
18
48
1
60
1
100
AcDbLine
10
34.499998
20
-36.639337
30
0
11
38
21
-37.10012
31
0
39
0
210
0
220
0
230
1
0
MTEXT
5
14C
100
AcDbEntity
8
SK2
62
256
6
ByLayer
370
18
48
1
60
0
100
AcDbMText
10
-54.014634
20
-22.121222
30
0
210
0
220
0
230
1
1
%%c
40
3.5
41
0
44
1.084337
50
90
71
7
72
5
7
iso_b_vert
0
MTEXT
5
14F
100
AcDbEntity
8
SK2
62
256
6
ByLayer
370
18
48
1
60
0
100
AcDbMText
10
-54.014634
20
-15.148566
30
0
210
0
220
0
230
1
1
\W0.5321;12
40
3.5
41
0
44
1.084337
50
90
71
7
72
5
7
iso_b_vert
0
MTEXT
5
158
100
AcDbEntity
8
2
62
256
6
ByLayer
370
18
48
1
60
0
100
AcDbMText
10
48.435366
20
13.934944
30
0
210
0
220
0
230
1
1
%%c
40
3.5
41
0
44
1.084337
50
90
71
7
72
5
7
iso_b_vert
0
MTEXT
5
159
100
AcDbEntity
8
2
62
256
6
ByLayer
370
18
48
1
60
0
100
AcDbMText
10
48.435366
20
20.9076
30
0
210
0
220
0
230
1
1
\W0.5321;12
40
3.5
41
0
44
1.084337
50
90
71
7
72
5
7
iso_b_vert
0
MTEXT
5
162
100
AcDbEntity
8
SK2
62
256
6
ByLayer
370
18
48
1
60
0
100
AcDbMText
10
-5.404966
20
-36.067487
30
0
210
0
220
0
230
1
1
\W0.6740;83
40
3.5
41
0
44
1.084337
50
0
71
7
72
5
7
iso_b_vert
0
MTEXT
5
16B
100
AcDbEntity
8
SK6
62
256
6
ByLayer
370
18
48
1
60
0
100
AcDbMText
10
-28.635986
20
-62.103865
30
0
210
0
220
0
230
1
1
\W0.7025;1K233-1200-050-NB   H10F
40
3
41
0
44
1.084337
50
0
71
7
72
5
7
iso_b_vert
0
HATCH
5
153
100
AcDbEntity
8
SK2
62
256
6
ByLayer
370
13
48
1
60
0
100
AcDbHatch
10
0
20
0
30
0
210
0
220
0
230
1
2
ANSI31
70
0
71
0
91
1
92
5
93
3
72
1
10
-52.45
20
5.99999999999994
11
-51.9892162584472
21
2.50000169255313
72
1
10
-51.9892162584472
20
2.50000169255313
11
-52.9107837415528
21
2.49999830744676
72
1
10
-52.9107837415528
20
2.49999830744676
11
-52.45
21
5.99999999999994
97
0
75
0
76
1
52
0
41
0.0062
77
0
78
1
53
45
43
0
44
0
45
-0.0139193969876572
46
0.0139193969876572
79
0
47
0
98
1
10
0
20
0
0
HATCH
5
157
100
AcDbEntity
8
SK2
62
256
6
ByLayer
370
13
48
1
60
0
100
AcDbHatch
10
0
20
0
30
0
210
0
220
0
230
1
2
ANSI31
70
0
71
0
91
1
92
5
93
3
72
1
10
-52.45
20
-6.00000000000003
11
-52.9107837415528
21
-2.50000169255321
72
1
10
-52.9107837415528
20
-2.50000169255321
11
-51.9892162584472
21
-2.49999830744685
72
1
10
-51.9892162584472
20
-2.49999830744685
11
-52.45
21
-6.00000000000003
97
0
75
0
76
1
52
0
41
0.0062
77
0
78
1
53
45
43
0
44
0
45
-0.0139193969876572
46
0.0139193969876572
79
0
47
0
98
1
10
0
20
0
0
HATCH
5
15D
100
AcDbEntity
8
2
62
256
6
ByLayer
370
13
48
1
60
0
100
AcDbHatch
10
0
20
0
30
0
210
0
220
0
230
1
2
ANSI31
70
0
71
0
91
1
92
5
93
3
72
1
10
50
20
6.00009999999986
11
50.4607837415528
21
2.50010169255305
72
1
10
50.4607837415528
20
2.50010169255305
11
49.5392162584472
21
2.50009830744668
72
1
10
49.5392162584472
20
2.50009830744668
11
50
21
6.00009999999986
97
0
75
0
76
1
52
0
41
0.0062
77
0
78
1
53
45
43
0
44
0
45
-0.0139193969876572
46
0.0139193969876572
79
0
47
0
98
1
10
0
20
0
0
HATCH
5
161
100
AcDbEntity
8
2
62
256
6
ByLayer
370
13
48
1
60
0
100
AcDbHatch
10
0
20
0
30
0
210
0
220
0
230
1
2
ANSI31
70
0
71
0
91
1
92
5
93
3
72
1
10
50
20
-6.00010000000015
11
49.5392162584472
21
-2.50010169255333
72
1
10
49.5392162584472
20
-2.50010169255333
11
50.4607837415528
21
-2.50009830744696
72
1
10
50.4607837415528
20
-2.50009830744696
11
50
21
-6.00010000000015
97
0
75
0
76
1
52
0
41
0.0062
77
0
78
1
53
45
43
0
44
0
45
-0.0139193969876572
46
0.0139193969876572
79
0
47
0
98
1
10
0
20
0
0
HATCH
5
166
100
AcDbEntity
8
SK2
62
256
6
ByLayer
370
13
48
1
60
0
100
AcDbHatch
10
0
20
0
30
0
210
0
220
0
230
1
2
ANSI31
70
0
71
0
91
1
92
5
93
3
72
1
10
-45
20
-37.1001203205072
11
-41.5000016925532
21
-36.6393365789544
72
1
10
-41.5000016925532
20
-36.6393365789544
11
-41.4999983074468
21
-37.5609040620599
72
1
10
-41.4999983074468
20
-37.5609040620599
11
-45
21
-37.1001203205072
97
0
75
0
76
1
52
0
41
0.0062
77
0
78
1
53
45
43
0
44
0
45
-0.0139193969876572
46
0.0139193969876572
79
0
47
0
98
1
10
0
20
0
0
HATCH
5
16A
100
AcDbEntity
8
SK2
62
256
6
ByLayer
370
13
48
1
60
0
100
AcDbHatch
10
0
20
0
30
0
210
0
220
0
230
1
2
ANSI31
70
0
71
0
91
1
92
5
93
3
72
1
10
38
20
-37.1001203205072
11
34.5000016925532
21
-37.5609040620599
72
1
10
34.5000016925532
20
-37.5609040620599
11
34.4999983074468
21
-36.6393365789544
72
1
10
34.4999983074468
20
-36.6393365789544
11
38
21
-37.1001203205072
97
0
75
0
76
1
52
0
41
0.0062
77
0
78
1
53
45
43
0
44
0
45
-0.0139193969876572
46
0.0139193969876572
79
0
47
0
98
1
10
0
20
0
0
DIMENSION
5
16E
100
AcDbEntity
8
2
62
256
6
ByLayer
370
18
48
1
60
0
100
AcDbDimension
2
_U0
10
12
20
-21.10012
30
0
11
25
21
-21.10012
31
0
70
32
71
1
72
1
41
1
210
0
220
0
230
1
3
Standard
100
AcDbAlignedDimension
13
38
23
-6.0001
33
0
14
12
24
-6.0001
34
0
50
0
100
AcDbRotatedDimension
1001
ACAD
1000
DSTYLE
1002
{
1070
   371
1070
    13
1070
   372
1070
    13
1070
   170
1070
     0
1070
   144
1040
1.0
1070
   277
1070
     2
1070
   284
1070
     8
1070
   278
1070
    46
1070
   146
1040
1.0
1070
   345
1005
16
1070
   347
1005
16
1070
   346
1005
16
1070
   344
1005
0
1070
   343
1005
0
1070
   172
1070
     1
1070
    76
1070
     0
1070
    75
1070
     0
1070
   282
1070
     0
1070
   281
1070
     0
1070
    71
1070
     0
1070
    74
1070
     0
1070
   279
1070
     0
1070
   173
1070
     1
1070
   340
1005
14D
1070
   271
1070
     2
1070
   272
1070
     2
1070
    77
1070
     1
1070
    73
1070
     1
1070
   171
1070
     3
1070
   274
1070
     4
1070
   177
1070
     2
1070
   176
1070
     2
1070
   178
1070
     2
1070
    78
1070
     8
1070
    48
1040
-0.1
1070
    41
1040
3.5
1070
   147
1040
1.75
1070
    42
1040
1.5875
1070
    44
1040
2.0
1070
   140
1040
3.5
1002
}
1001
ACAD_DSTYLE_DIM_LINETYPE
1070
   380
1005
16
1001
ACAD_DSTYLE_DIM_EXT1_LINETYPE
1070
   381
1005
16
1001
ACAD_DSTYLE_DIM_EXT2_LINETYPE
1070
   382
1005
16
0
ENDSEC
0
SECTION
2
OBJECTS
0
DICTIONARY
5
1f7
330
0
100
AcDbDictionary
280
0
281
1
3
ACAD_GROUP
350
1f8
3
ACAD_MLINESTYLE
350
1f9
0
DICTIONARY
5
1f8
330
0
100
AcDbDictionary
280
0
281
1
0
DICTIONARY
5
1f9
330
0
100
AcDbDictionary
280
0
281
1
3
Standard
350
18
0
MLINESTYLE
5
18
330
1f9
100
AcDbMlineStyle
2
Standard
70
0
3

62
256
51
90
52
90
71
2
49
-0.5
62
256
6
ByLayer
49
0.5
62
256
6
ByLayer
0
RASTERVARIABLES
5
1e5
330

100
AcDbRasterVariables
90
0
70
1
71
1
72
1
0
ENDSEC
0
EOF
